<?xml version="1.0" standalone="no"?>
<!DOCTYPE svg PUBLIC "-//W3C//DTD SVG 1.1//EN" "http://www.w3.org/Graphics/SVG/1.1/DTD/svg11.dtd" >
<svg xmlns="http://www.w3.org/2000/svg">
<metadata></metadata>
<defs>
<font id="american_typewriterregular" horiz-adv-x="1304" >
<font-face units-per-em="2048" ascent="1638" descent="-410" />
<missing-glyph horiz-adv-x="512" />
<glyph unicode="&#xfb01;" horiz-adv-x="1228" d="M35 59q0 76 78 76q10 0 34 -4q33 -10 54 -10q51 0 55 137q0 27 2 139q0 70 2 146q2 66 2 71v213q0 33 -6 41.5t-35 8.5h-94q-74 0 -74 67q0 68 74 68h88q35 0 44 6t9 31q10 367 387 366q156 0 256.5 -60.5t100.5 -156.5q0 -104 -105 -104q-45 0 -74.5 26.5t-29.5 67.5 q0 27 14 53q-55 53 -168 53q-233 0 -233 -233q0 -49 39 -49h299q115 0 164 6q18 4 40 4q57 0 58 -76q0 -8 -2 -14q-2 -39 -2 -68q0 10 -2 -98l-2 -109v-331q0 -117 2 -127q8 -84 57 -84q23 0 48.5 7t41.5 7q66 0 66 -68q0 -70 -82 -69q-18 0 -119 10q-59 6 -121 6 q-51 0 -96 -6q-76 -10 -100 -10q-61 0 -62 65q0 72 66 72q10 0 36.5 -6t47.5 -6q49 0 59 96q2 10 2 129v279q0 199 -22.5 227.5t-143.5 28.5h-205q-49 0 -57 -12.5t-9 -21.5t-1 -48v-303v-89q0 -39 2 -92q2 -45 2 -57v-84q8 -53 47 -53q14 0 39.5 6t38.5 6q68 0 67 -70 q0 -68 -82 -67q-18 0 -88 10q-43 6 -104 6q-80 0 -111 -4l-94 -12h-18q-80 0 -80 67z" />
<glyph unicode="&#xfb02;" horiz-adv-x="1228" d="M35 63q0 27 21.5 47.5t49.5 20.5q20 0 46 -7t47 -7q39 0 49 49t12 237l2 437q0 37 -37 37h-102q-72 0 -72 67q0 68 74 68h98q31 0 38 10t9 55q6 156 70 234q86 104 274 104q135 0 250 -57q20 2 57 5t50 3q49 0 49 -61q0 10 -2 -15l-6 -73q-14 -172 -15 -322v-606 q0 -90 2 -103q10 -70 54 -69q18 0 41.5 7t42.5 7q68 0 67 -65q0 -74 -78 -74q-18 0 -112 14q-53 8 -117 8q-72 0 -145 -16q-27 -6 -50 -6q-61 0 -61 67q0 70 70 70q10 0 33.5 -6t31.5 -6q33 0 45.5 34.5t14.5 133.5l8 342v409q0 156 -46 207t-190 51q-193 0 -192 -211 q0 -53 7 -62t52 -9h90q92 0 92 -66q0 -70 -86 -69h-108q-31 0 -39 -10.5t-8 -47.5v-559q0 -76 2 -88q8 -55 49 -55q10 0 53 10q8 2 27 2q70 0 69 -66q0 -72 -73 -71q-33 0 -99.5 8t-101.5 8q-68 0 -117 -6q-82 -10 -102 -10q-88 0 -88 71z" />
<glyph horiz-adv-x="0" />
<glyph horiz-adv-x="682" />
<glyph horiz-adv-x="0" />
<glyph horiz-adv-x="0" />
<glyph horiz-adv-x="0" />
<glyph unicode="&#x9;" horiz-adv-x="512" />
<glyph unicode="&#xd;" horiz-adv-x="512" />
<glyph horiz-adv-x="0" />
<glyph unicode=" "  horiz-adv-x="512" />
<glyph unicode="&#x09;" horiz-adv-x="512" />
<glyph unicode="&#xa0;" horiz-adv-x="512" />
<glyph unicode="!" horiz-adv-x="858" d="M301 94q0 53 37 91t90 38t91 -38t38 -91t-38 -91t-91 -38t-90 38t-37 91zM346 1300q0 111 86 111q88 0 88 -119q0 -23 -2 -41q-2 -10 -6 -180l-6 -221v-385q0 -72 -2 -88q-8 -57 -43 -64q-12 -2 -31 -2q-74 0 -74 103v432l-4 225q0 84 -4 191q-2 16 -2 38z" />
<glyph unicode="&#x22;" horiz-adv-x="673" d="M109 1366h165l-28 -549h-111zM401 1366h164l-26 -549h-111z" />
<glyph unicode="#" horiz-adv-x="1228" d="M66 424l20 137h229l41 270h-227l21 138h227l61 397h154l-62 -397h275l61 397h154l-59 -397h221l-21 -138h-223l-41 -270h225l-22 -137h-223l-66 -424h-154l66 424h-277l-65 -424h-152l66 424h-229zM469 561h274l41 270h-274z" />
<glyph unicode="$" d="M129 352q0 84 41 135.5t109 51.5q45 0 75.5 -30t30.5 -75q0 -88 -106 -94q10 -96 99 -153.5t232 -59.5v516l-30 8q-166 45 -226 72q-74 33 -114 92q-47 68 -47 172q0 106 59 198.5t154 133.5q80 35 204 55v164q0 61 58 61q57 0 57 -61v-164q184 -20 292.5 -102 t108.5 -201q0 -53 -32.5 -89t-81.5 -36q-41 0 -70 26.5t-29 63.5q0 41 45 70q-43 131 -233 133v-459q16 -4 51 -12q160 -37 221.5 -67.5t114.5 -100.5q63 -84 64 -199q0 -109 -59.5 -202t-158.5 -138q-90 -43 -233 -69v-174q0 -53 -57 -54q-57 0 -58 54v174q-152 10 -256 54 t-164.5 126t-60.5 180zM350 1018q0 -82 49.5 -126t173.5 -77q10 -2 37 -10v434q-115 -4 -187.5 -65.5t-72.5 -155.5zM725 127q125 2 208 73.5t83 180.5q0 100 -59.5 153.5t-196.5 77.5q-8 2 -35 6v-491z" />
<glyph unicode="%" horiz-adv-x="1640" d="M72 989q0 195 91 308.5t247 113.5q82 0 131 -23.5t129 -99.5q102 -98 194 -98q143 0 248 186q33 59 88 60q57 0 57 -31q0 -4 -4 -21l-18 -34l-700 -1344q-23 -45 -37 -57q-20 -20 -60 -21q-53 0 -53 35q0 14 12 37l17 31l561 1081q-61 -39 -115 -39q-96 0 -147 72 q16 -74 16 -150q0 -193 -89 -305t-243 -112q-147 0 -236 112.5t-89 298.5zM209 987q0 -139 51 -216t143 -77q189 0 189 297q0 303 -184 303q-199 0 -199 -307zM903 352q0 201 92 318.5t250 117.5q152 0 238 -108.5t86 -302.5q0 -188 -91.5 -305t-236.5 -117 q-158 0 -248 106.5t-90 290.5zM1040 360q0 -135 52.5 -211.5t144.5 -76.5q90 0 142.5 80t52.5 221q0 299 -185 299q-96 0 -151.5 -83t-55.5 -229z" />
<glyph unicode="&#x26;" horiz-adv-x="1677" d="M76 391q0 240 200 367q68 43 125 71l25 13q-109 197 -109 315q0 123 85 199t225 76q145 0 229 -72t84 -195q0 -227 -295 -379l23 -36q55 -92 196 -293l23 -29l12 35l80 211q143 377 407 377q123 0 199 -71t76 -185q0 -109 -71.5 -183.5t-178.5 -74.5q-78 0 -127 38.5 t-49 102.5q0 98 86 98q74 0 74 -67q0 -8 -11 -33q29 -4 33 -4q39 0 67.5 32.5t28.5 79.5q0 59 -37.5 95t-103.5 36q-106 0 -174 -116q-55 -94 -135 -314q-43 -119 -80 -184q88 -98 147.5 -131t149.5 -33q18 0 54 4t55 4q84 0 84 -75q0 -72 -87 -72h-32q-29 2 -58 2h-108 q-141 0 -301 166q-55 -63 -94 -90q-127 -88 -293 -88q-186 0 -305 112.5t-119 290.5zM250 393q0 -115 72.5 -185.5t189.5 -70.5q174 0 281 142q-137 175 -215 294q-49 76 -89 144q-78 -37 -127 -80q-113 -96 -112 -244zM485 1165q0 -78 90 -256q199 94 199 242 q0 66 -40 105.5t-107 39.5q-63 0 -102.5 -36t-39.5 -95z" />
<glyph unicode="'" horiz-adv-x="382" d="M109 1366h165l-28 -549h-111z" />
<glyph unicode="(" horiz-adv-x="931" d="M137 508v39q0 356 228 602q129 139 284 215q129 63 189 63q39 0 39 -28q0 -23 -54 -49q-197 -96 -344 -275q-172 -207 -172 -512q0 -412 209 -657q147 -174 320 -256q57 -27 57 -53q0 -27 -37 -27q-72 0 -219 80q-238 129 -367 358q-123 217 -133 500z" />
<glyph unicode=")" horiz-adv-x="931" d="M37 1399q0 29 37 28q72 0 218.5 -78.5t248.5 -191.5q240 -260 252 -668q2 -12 2 -38q0 -356 -230 -605q-123 -133 -284 -213q-129 -63 -189 -63q-39 0 -39 29q0 23 53 49q201 102 347 274q172 205 172 512q0 412 -209 658q-147 172 -322 256q-57 27 -57 51z" />
<glyph unicode="*" d="M315 858q0 59 80 90l152 58q35 14 35 22q0 12 -35 25l-152 57q-80 31 -80 88q0 59 68 59q45 0 82 -34l119 -111q25 -23 30 -22q10 0 11 12q0 10 -4 31l-33 155q-4 18 -4 35q0 88 67 88q68 0 68 -88q0 -15 -4 -35l-35 -188q0 -10 10 -10q6 0 31 22l119 111q39 37 82 37 q68 0 67 -60q0 -59 -80 -90l-153 -57q-35 -14 -35 -25q0 -8 35 -22l153 -58q80 -31 80 -88q0 -61 -67 -61q-43 0 -82 37l-119 110q-25 23 -31 23q-10 0 -10 -11v-8l4 -24l31 -156q4 -20 4 -35q0 -86 -68 -86t-67 86q0 16 4 35l33 156q4 20 4 30q0 12 -11 13q-6 0 -30 -23 l-119 -110q-39 -37 -84 -37q-66 0 -66 59z" />
<glyph unicode="+" horiz-adv-x="1024" d="M68 612v140h368v350h152v-350h368v-140h-368v-350h-152v350h-368z" />
<glyph unicode="," horiz-adv-x="559" d="M119 86q0 59 41 99t102 40q74 0 119 -57t45 -150q0 -156 -121 -321q-53 -72 -90 -72q-41 0 -41 41q0 14 16 37q115 151 115 227q0 35 -35 35h-41q-47 0 -78.5 35t-31.5 86z" />
<glyph unicode="-" horiz-adv-x="632" d="M76 547q0 72 82 71h319q82 0 82 -69q0 -74 -82 -74h-319q-82 0 -82 72z" />
<glyph unicode="." horiz-adv-x="559" d="M152 94q0 53 36.5 91t90.5 38q53 0 90 -38t37 -91t-37 -91t-90 -38t-90 38t-37 91z" />
<glyph unicode="/" horiz-adv-x="819" d="M-80 -393q0 8 6 18l21 51l24 60l533 1362q23 59 69 190l29 80q16 43 60 43h61q27 0 27 -22q0 -10 -19 -56l-18 -45l-586 -1501q-27 -68 -55 -152q-18 -51 -56 -51h-65q-31 0 -31 23z" />
<glyph unicode="0" d="M86 674q0 342 154.5 539.5t423.5 197.5q256 0 404.5 -189.5t148.5 -512.5q0 -350 -154 -552t-420 -202q-260 0 -408.5 191.5t-148.5 527.5zM268 666q0 -268 98.5 -415t278.5 -147q184 0 288.5 160t104.5 441q0 268 -98.5 411.5t-280.5 143.5q-377 0 -391 -564v-30z" />
<glyph unicode="1" d="M250 63q0 72 100 72q31 0 64 -6q49 -4 61 -4q72 0 88.5 56t16.5 292l-7 594q-2 104 -21.5 139t-76.5 35q-20 0 -59 -5t-60 -5q-80 0 -80 72t76 71q25 0 77 -5t81 -5q66 0 108 4q63 6 78 6q45 0 56 -26q8 -18 8 -64q0 -6 -2 -49q-10 -219 -10 -397v-232q0 -63 2 -170 q4 -129 4 -170q2 -141 94 -141q23 0 68 5t67 5q98 0 98 -72t-90 -71q-35 0 -65 4q-172 23 -262 22q-90 0 -222 -18q-74 -10 -104 -10q-88 0 -88 73z" />
<glyph unicode="2" d="M94 170q0 358 494 516l147 47q248 80 248 268q0 127 -89 201t-245 74q-137 0 -227 -55.5t-107 -151.5q111 -8 111 -96q0 -53 -39 -91t-96 -38q-70 0 -112 48t-42 126q0 168 151.5 280.5t375.5 112.5q217 0 355 -113.5t138 -293.5q0 -123 -66.5 -217.5t-185.5 -141.5 q-37 -14 -246 -86q-150 -51 -239 -98q-66 -35 -112 -88t-56 -129q92 98 223 98q121 0 254 -106q147 -117 227 -117q57 0 93 38t36 97q0 20 -8 45q-33 -33 -73 -33q-88 0 -89 86q0 47 35 78t92 31q76 0 122 -54.5t46 -144.5q0 -127 -79.5 -217t-194.5 -90 q-109 0 -261.5 116.5t-266.5 116.5q-115 0 -144 -86q20 4 25 4q59 0 59 -59q0 -92 -102 -92q-68 0 -110 58.5t-42 156.5z" />
<glyph unicode="3" d="M100 346q0 96 55.5 162.5t137.5 66.5q53 0 87 -31.5t34 -82.5q0 -102 -121 -103h-23v-14q0 -100 112 -174t263 -74q170 0 278.5 97.5t108.5 248.5q0 266 -303 267q-80 0 -166 -19q-18 -4 -35 -4q-49 0 -49 53q0 25 33 58l426 417h-475q-80 0 -107 -10q-51 -16 -51 -80 q0 -20 4 -59t4 -59q0 -106 -71 -107q-70 0 -70 88q0 25 3 75t3 75q0 57 -2 85.5t-2 63.5q0 55 20.5 68.5t102.5 13.5h504q41 0 139 4q49 2 115 2q121 0 121 -74q0 -47 -52 -96l-376 -362q12 0 32 2h27q174 0 285.5 -111.5t111.5 -286.5q0 -217 -158.5 -354t-408.5 -137 q-229 0 -383 111.5t-154 279.5z" />
<glyph unicode="4" d="M31 502q0 33 22 65l543 674q86 106 127 138t94 32q111 0 111 -145v-707h241q68 0 68 -70t-72 -69h-237v-125q0 -170 92 -170q25 0 68 4l42 4q86 0 87 -70q0 -72 -74 -71q-45 0 -121 12q-63 10 -158 10q-57 0 -171.5 -12t-172.5 -12q-78 0 -78 69q0 74 95 74q20 0 60 -4 t60 -4q102 0 103 170v125h-635q-94 0 -94 82zM229 559h531l14 670z" />
<glyph unicode="5" d="M127 311q0 74 47 124t115 50q53 0 87 -30.5t34 -81.5q0 -35 -24 -60.5t-56 -25.5q-25 -2 -25 -15q0 -68 107.5 -122t240.5 -54q164 0 269.5 101.5t105.5 259.5q0 152 -89 238.5t-245 86.5q-190 0 -303 -110q-45 -43 -63.5 -56.5t-46.5 -17.5h-9q-80 0 -79 90q0 4 2 8 l28 396q2 33 4 112q2 113 16.5 138.5t75.5 25.5q25 0 37 -2l101 2h118h252q59 0 91 2q61 4 83 4q82 0 82 -121l-2 -14q0 -53 17 -125q8 -25 8 -45q0 -66 -70 -65q-66 0 -69 96q-4 115 -101 114h-428q-51 1 -57 -73l-25 -328q160 111 353 111q229 0 362 -122t133 -333 q0 -229 -158.5 -371.5t-414.5 -142.5q-211 0 -357.5 103.5t-146.5 252.5z" />
<glyph unicode="6" d="M100 604q0 371 166 589t447 218q172 0 292.5 -86t120.5 -209q0 -57 -39.5 -98t-93.5 -41q-43 0 -74.5 31.5t-31.5 76.5q0 61 57 82q-62 109 -244 109q-184 0 -298.5 -154.5t-129.5 -421.5q129 223 426 224q223 0 364.5 -131t141.5 -336q0 -219 -151.5 -360.5 t-388.5 -141.5q-262 0 -413 174t-151 475zM311 446q0 -160 97.5 -255t259.5 -95q158 0 257 98.5t99 254.5q0 152 -97 243.5t-257 91.5q-166 0 -262.5 -91t-96.5 -247z" />
<glyph unicode="7" d="M156 881q0 35 11 106.5t11 110.5q0 57 -8 122.5t-8 114.5q0 84 71 84q59 0 60 -71q0 -15 -8 -60l-4 -22q51 82 92 110.5t110 28.5q100 0 236 -105q152 -117 233 -116q86 0 107 57h-17q-29 0 -52 24.5t-23 55.5q0 39 29.5 66.5t70.5 27.5q135 0 135 -182q0 -135 -67 -238 q-43 -63 -93 -110q-23 -23 -90 -82q-139 -121 -190 -223q-74 -145 -74 -353q0 4 2 -45q4 -98 4 -88q0 -129 -102 -129q-106 0 -107 168q0 264 99 461q80 160 340 373q106 88 120 145q-70 -59 -176 -59q-131 0 -256 94l-84 63q-45 33 -100 33q-131 0 -131 -168q0 -51 8 -92 q14 -72 14 -106q0 -35 -23.5 -59.5t-57.5 -24.5q-82 0 -82 88z" />
<glyph unicode="8" d="M104 397q1 190 144 301q53 41 143 74q-113 63 -153.5 121.5t-40.5 150.5q0 156 132 261.5t324 105.5q193 0 325 -105.5t132 -261.5q0 -92 -42 -150t-153 -122q86 -33 142 -74q143 -109 143 -301q0 -197 -149.5 -319.5t-391.5 -122.5q-252 0 -403.5 121t-151.5 321z M287 399q0 -133 101 -216t265 -83t265.5 83t101.5 216t-98 214t-260 81q-176 0 -275.5 -78.5t-99.5 -216.5zM373 1044q0 -86 77.5 -140t202.5 -54t202 54t77 143q0 96 -79 157.5t-200 61.5q-123 0 -201.5 -62.5t-78.5 -159.5z" />
<glyph unicode="9" d="M123 911q0 215 146.5 357.5t369.5 142.5q254 0 399.5 -179t145.5 -493q0 -367 -162 -575.5t-447 -208.5q-180 0 -306 86t-126 211q0 59 38 99t93 40q45 0 78 -29.5t33 -70.5q0 -59 -59 -88q63 -115 260 -115q193 0 305.5 152.5t118.5 418.5q-115 -209 -408 -208 q-213 0 -346 128t-133 332zM299 920q0 -150 90 -238t242 -88q160 0 251 88t91 240q0 156 -91.5 250t-238.5 94q-154 0 -249 -96.5t-95 -249.5z" />
<glyph unicode=":" horiz-adv-x="559" d="M152 94q0 53 36.5 91t90.5 38q53 0 90 -38t37 -91t-37 -91t-90 -38t-90 38t-37 91zM152 786q0 53 36.5 91t90.5 38q53 0 90 -37.5t37 -91.5q0 -53 -37 -91t-90 -38t-90 38t-37 91z" />
<glyph unicode=";" horiz-adv-x="559" d="M119 86q0 59 41 99t102 40q74 0 119 -57t45 -150q0 -156 -121 -321q-53 -72 -90 -72q-41 0 -41 41q0 14 16 37q115 151 115 227q0 35 -35 35h-41q-47 0 -78.5 35t-31.5 86zM131 786q0 53 37 91t90 38t91 -37.5t38 -91.5q0 -53 -38 -91t-91 -38t-90 38t-37 91z" />
<glyph unicode="&#x3c;" horiz-adv-x="1024" d="M68 610v131l888 416v-149l-727 -332l725 -332l2 -149z" />
<glyph unicode="=" horiz-adv-x="1024" d="M68 477v133h888v-133h-888zM68 791v133h888v-133h-888z" />
<glyph unicode="&#x3e;" horiz-adv-x="1024" d="M68 195v151l727 330l-725 332l-2 149l888 -416v-131z" />
<glyph unicode="?" horiz-adv-x="1228" d="M129 1016q0 172 146.5 283.5t375.5 111.5q227 0 365.5 -106.5t138.5 -280.5q0 -219 -217 -330q-37 -18 -94 -43q-121 -51 -165 -98t-44 -125q0 -57 -10 -78q-16 -31 -66 -31q-86 0 -86 107q0 98 49 168q61 84 226 174q147 80 190 129t43 133q0 113 -92 181.5t-244 68.5 q-154 0 -258 -73t-104 -177q0 -53 53 -88q-2 8 -2 21q0 29 21.5 48t54.5 19q90 0 90 -90q0 -59 -47 -99t-117 -40q-90 0 -148.5 60.5t-58.5 154.5zM449 94q0 53 37.5 91t91.5 38q53 0 90 -38t37 -91t-37 -91t-90 -38t-91 38t-38 91z" />
<glyph unicode="@" horiz-adv-x="1417" d="M76 598q0 299 222 521t525 222q229 0 373.5 -135t144.5 -352q0 -244 -178 -426q-109 -111 -227 -111q-53 0 -88 27t-35 68q0 16 2 28q-78 -121 -240 -121q-98 0 -158.5 67t-60.5 173q0 186 135.5 328.5t313.5 142.5q41 0 90 -12l41 -10q8 -4 20 -4q10 0 35 10 q33 14 47 14q31 0 31 -27q0 -6 -4 -22l-10 -39l-117 -436q-6 -25 -6 -39q0 -37 39 -37q76 0 141 98q92 137 92 318q0 170 -111.5 282.5t-281.5 112.5q-240 0 -417 -191.5t-177 -449.5q0 -201 129 -335t324 -134q115 0 189.5 27.5t187.5 109.5q41 31 67 31q39 0 39 -37 q0 -39 -53 -80q-203 -160 -447 -160q-248 0 -412.5 165t-164.5 413zM496 578q0 -141 122 -142q170 0 238 254l55 205q-61 31 -118 31q-119 0 -208 -104.5t-89 -243.5z" />
<glyph unicode="A" horiz-adv-x="1527" d="M-16 57q0 72 77 72q16 0 25 -2h27q55 0 84 43q12 16 41 96l380 1030q33 86 130 86q94 0 124 -86l367 -1015q35 -96 63.5 -127t81.5 -31q16 0 25 2l57 4q78 0 78 -66q0 -69 -76 -69h-2q-23 0 -59 4q-129 14 -193 14q-76 0 -245 -16q-43 -4 -66 -4q-82 0 -82 69q0 70 90 70 q18 0 54 -4t55 -4q67 0 67 53q0 10 -16 55l-74 201q-12 33 -25.5 41t-53.5 8h-365q-41 0 -56.5 -14t-39.5 -78l-60 -158q-8 -23 -8 -43q0 -65 78 -65h2q20 0 58 4t57 4q84 0 84 -72q0 -67 -90 -67h-3q-16 0 -45 4l-102 14q-29 4 -94 4q-72 0 -101 -4l-86 -12q-57 -8 -84 -8 q-80 0 -79 67zM547 635q0 -18 31 -19h325q25 0 25 17q0 4 -4 16l-185 565l-188 -565q-4 -12 -4 -14z" />
<glyph unicode="B" horiz-adv-x="1417" d="M39 63q0 66 63 66q16 0 56 -6q27 -4 43 -4q104 0 104 151v824q0 153 -103 153h-1q-18 0 -43 -4q-37 -6 -56 -6q-63 0 -63 66q0 71 91 71h3h27l100 -14q43 -6 117 -6q78 0 221 12q96 8 207 8q207 0 322.5 -87t115.5 -243q0 -209 -237 -294q86 -27 141 -60 q166 -96 166 -289q0 -188 -145.5 -299.5t-389.5 -111.5q-88 0 -223 10t-199 10q-55 0 -104 -6l-96 -12q-4 0 -15 -2h-14q-88 2 -88 73zM459 313q0 -133 45 -163.5t246 -30.5q383 0 383 287q0 264 -369 264h-170q-111 0 -127 -49q-8 -25 -8 -80v-228zM459 956 q0 -109 19.5 -134t107.5 -25h114q362 0 363 235q0 215 -299 215q-209 0 -257 -26.5t-48 -137.5v-127z" />
<glyph unicode="C" d="M78 668q0 334 169 538.5t445 204.5q227 0 371 -174l-2 23v22q-2 12 -2 14q-4 45 -4 41q0 70 65 70q70 0 70 -86q0 -16 -8 -98q-10 -102 -11 -142q0 -55 7 -112l8 -78v-21q0 -92 -74 -92q-80 0 -78 88l2 74v12q0 140 -92 228q-96 92 -252 92q-203 0 -317.5 -155.5 t-114.5 -430.5q0 -281 118 -437.5t329 -156.5q115 0 206 55.5t127 145.5q25 59 25 160q0 94 78 94q84 0 84 -94q0 -219 -151.5 -358.5t-391.5 -139.5q-276 0 -441 194.5t-165 518.5z" />
<glyph unicode="D" horiz-adv-x="1490" d="M39 61q0 29 18.5 48.5t44.5 19.5q23 0 56 -6q14 -4 43 -4q104 0 104 153v822q0 153 -103 153h-1q-18 0 -43 -4q-37 -6 -56 -6q-63 0 -63 66q0 71 89 71h3q10 0 27 -2l108 -14q61 -8 131 -8q57 0 115 6l133 14q39 4 103 4q186 0 311 -53q164 -70 259 -242t95 -399 q0 -201 -75.5 -361.5t-207.5 -236.5q-158 -92 -380 -92q-45 0 -93 4l-141 12q-72 6 -149 6q-68 0 -111 -6l-98 -14q-4 0 -15 -2h-16q-88 0 -88 71zM477 248q0 -94 92 -115q31 -8 172 -8q246 0 357 133q133 160 133 422q0 205 -81 347t-222 183q-90 27 -217 27 q-162 0 -198 -18.5t-36 -104.5v-866z" />
<glyph unicode="E" horiz-adv-x="1378" d="M39 63q0 66 63 66q10 0 56 -4q23 -6 43 -6q104 0 104 153v822q0 151 -103 151h-1q-29 0 -43 -4q-33 -6 -56 -6q-27 0 -45 19.5t-18 48.5q0 71 84 71h2q2 0 31 -2q287 -19 287 -20h-1h21l493 14q14 0 107 6q33 2 59 2q106 0 107 -94q0 -16 -8 -104q-6 -66 -7 -121 q0 -72 5 -101q8 -59 8 -88q0 -78 -74 -78t-74 109v107q0 172 -71 202q-53 23 -275 23q-145 0 -172 -6q-88 -23 -88 -123v-92v-45q-2 -29 -2 -41v-27q0 -82 37 -94q14 -4 49 -4h84q129 0 129 88q0 25 -6 63.5t-6 69.5q0 82 73 82q74 0 74 -88q0 -16 -14 -127 q-12 -94 -12 -166q0 -41 8 -146q2 -16 10 -71q6 -45 6 -72q0 -74 -74 -74q-71 0 -71 84q0 25 5 68t5 65q0 88 -117 89h-92q-59 0 -72.5 -20.5t-13.5 -88.5v-127q0 -33 2 -88q2 -68 2 -90q2 -82 33 -103q23 -14 106 -14h279q121 0 166 36t45 134q0 31 -3 91.5t-3 90.5 q0 92 74 92q77 0 77 -92q0 -45 -4 -115q-4 -76 -4 -112q0 -29 3 -85t3 -85q0 -96 -94 -96q-23 0 -72 4q-25 2 -90 2h1l-161 4q-174 4 -301 4q-193 0 -376 -12q-8 0 -19 -2h-12q-86 0 -86 73z" />
<glyph unicode="F" horiz-adv-x="1267" d="M39 63q0 66 63 66q8 0 54 -4q23 -6 43 -6q55 0 76.5 33.5t23.5 119.5l4 324v172l-2 326q0 151 -103 151h-1q-27 0 -41 -4q-33 -6 -54 -6q-27 0 -45 19.5t-18 48.5q0 71 84 71h2q10 0 31 -2l141 -14q80 -8 178 -8q53 0 230 6l235 8q47 2 111 6q29 2 61 2q109 0 109 -96 q0 -37 -10.5 -113t-10.5 -114q0 -33 4 -82t4 -90q0 -84 -73 -84q-76 0 -76 96q0 29 3 88t3 88q0 109 -61.5 137.5t-290.5 28.5q-195 0 -221 -35q-20 -27 -21 -188v-152q0 -57 15.5 -70.5t84.5 -13.5h68q133 0 133 98q0 23 -5 62t-5 59q0 78 74 78q69 0 69 -87q0 -14 -4 -52 l-12 -111q-8 -74 -8 -110q0 -84 18 -213q6 -43 6 -82q0 -80 -74 -80q-69 0 -69 84q0 22 3 63t3 62q0 63 -35 82q-23 14 -94 14h-64q-72 0 -88 -16.5t-16 -90.5v-243q0 -96 21.5 -130t80.5 -34q14 0 45 2t46 2q94 0 94 -70q0 -29 -21.5 -49t-52.5 -20q-33 0 -96 10 q-90 14 -205 14q-74 0 -158 -12l-69 -10q-6 0 -15 -2h-12q-90 0 -90 73z" />
<glyph unicode="G" horiz-adv-x="1454" d="M78 666q0 340 164.5 542.5t443.5 202.5q205 0 371 -154q-4 29 -4 33q-4 41 -4 45q0 68 67 68q74 0 74 -88q0 -29 -2 -43l-14 -98q-6 -43 -7 -93q0 -39 9 -166v-18q0 -92 -76 -92q-72 0 -72 100v62q0 141 -93 223t-251 82q-199 0 -311.5 -153.5t-112.5 -422.5 q0 -285 116 -444.5t320 -159.5q158 0 244 92t86 262q0 70 -23.5 97.5t-82.5 27.5q-16 0 -47 -2t-48 -2q-98 0 -98 70q0 72 84 72q27 0 59 -4q129 -16 207 -17q100 0 213 19q25 4 56 4q81 0 81 -66q0 -31 -21 -51q-22 -21 -50 -21q-25 0 -37 2q-4 0 -14 3h-17q-90 0 -90 -201 v-164q0 -53 4 -96t4 -68q0 -84 -73 -84q-72 0 -72 72l4 49q2 18 4 64q-47 -63 -74 -89q-119 -106 -329 -106q-264 0 -426 196.5t-162 514.5z" />
<glyph unicode="H" horiz-adv-x="1603" d="M37 63q0 27 19.5 47.5t45.5 20.5q18 0 56 -6q23 -6 43 -6q104 0 104 153v822q0 153 -103 153h-1q-14 0 -45 -6t-54 -6q-27 0 -46 20.5t-19 47.5q0 71 91 71h3q18 0 76 -10q78 -14 190 -14q43 0 128 12t126 12q90 0 90 -74q0 -29 -18 -48t-45 -19q-23 0 -55.5 6t-44.5 6 q-100 0 -103 -153l-2 -304h655v302q0 153 -103 153h-1q-12 0 -44 -6t-54 -6q-66 0 -66 67q0 74 88 74q29 0 104.5 -12t139.5 -12q102 0 205 14q59 8 78 8q90 0 90 -72q0 -65 -62 -65h-2q-16 0 -49 5t-49 5q-104 0 -105 -153v-818q0 -153 102 -153h1q16 0 50 5t50 5 q63 0 64 -66q0 -73 -88 -73h-2q-18 0 -80 12q-72 14 -156 14q-113 0 -190 -12q-90 -14 -99 -14q-90 0 -90 73q0 68 66 68q16 0 49 -5t49 -5q86 0 102 112q2 14 2 185v231h-655v-233q0 -170 2 -185q16 -112 101 -112h2q16 0 50 5t50 5q63 0 63 -66q0 -73 -88 -73h-2 q-14 0 -88 12q-98 16 -172 16q-86 0 -184 -16l-49 -8q-25 -4 -27 -4q-94 0 -94 73z" />
<glyph unicode="I" horiz-adv-x="782" d="M39 63q0 66 63 66q10 0 56 -4q23 -6 43 -6q104 0 104 153v822q0 151 -103 151h-1q-29 0 -43 -4q-33 -6 -56 -6q-27 0 -45 19.5t-18 48.5q0 71 88 71h2q12 0 29 -2l108 -14q61 -8 127 -8q63 0 139 10l93 12q16 2 28 2q90 0 90 -71q0 -29 -18 -48.5t-45 -19.5q-20 0 -55 6 q-14 4 -43 4q-104 0 -105 -151v-822q0 -153 104 -153h1q16 0 43 4q39 6 55 6q63 0 63 -66q0 -73 -88 -73h-2h-14q-8 2 -14 2l-107 16q-53 8 -112 8q-86 0 -154 -10l-94 -14q-4 0 -15 -2h-16q-88 0 -88 73z" />
<glyph unicode="J" horiz-adv-x="1267" d="M39 354q0 131 83 220.5t206 89.5q88 0 143 -46.5t55 -119.5q0 -51 -32.5 -89t-77.5 -38q-39 0 -69 25.5t-30 60.5q0 33 29 55q-18 10 -31 10q-45 0 -78.5 -48t-33.5 -112q0 -113 88 -186.5t225 -73.5q309 0 344 279q14 117 14 321v66l-2 326q0 151 -103 151h-1 q-29 0 -43 -4q-33 -6 -55 -6q-27 0 -45.5 19.5t-18.5 48.5q0 71 88 71h2q12 0 29 -2l109 -14q61 -8 127 -8q61 0 139 10l94 12q8 2 29 2q90 0 90 -71q0 -68 -66 -68q-20 0 -55 6q-14 4 -43 4q-104 0 -105 -151v-392q0 -307 -24 -411q-23 -92 -92 -170q-150 -166 -406 -166 q-215 0 -349 111.5t-134 287.5z" />
<glyph unicode="K" horiz-adv-x="1603" d="M37 1300q0 72 92 72q10 0 27 -2l98 -12q66 -8 111 -8q55 0 165.5 12t126.5 12q86 0 86 -71q0 -29 -18 -48.5t-45 -19.5q-20 0 -55 6q-14 4 -43 4q-72 0 -90 -50q-17 -45 -17 -208v-37l2 -254l578 492q23 18 22 35q0 23 -39 22q-16 0 -22 -2q-74 -8 -109 -8q-73 0 -73 70 q0 69 85 69h3q47 0 84 -4l108 -12q72 -8 109 -8q74 0 182 16q55 8 82 8q78 0 78 -69q0 -70 -72 -70q-6 0 -20 2h-23q-10 2 -31 2q-78 0 -139 -51l-387 -324q-25 -20 -25 -37q0 -10 21 -34l31 -48l327 -446q131 -178 197 -178q4 0 12 2h10q55 6 68 6q74 0 74 -70 q0 -69 -78 -69h-2l-103 12q-76 8 -172 8q-111 0 -231 -12q-80 -8 -90 -8q-76 0 -76 67q0 74 80 74q23 0 63 -4q80 -8 93 -8q49 0 49 20q0 14 -19 39l-381 518q-12 16 -22 17q-8 0 -27 -17l-215 -188q-2 -37 -2 -84q0 -178 2 -191q16 -116 102 -116h1q12 0 44.5 6t55.5 6 q27 0 45 -19.5t18 -48.5q0 -71 -88 -71h-2h-14q-8 2 -14 2l-115 16q-43 6 -133 6q-66 0 -109 -6l-112 -16q-4 0 -13 -2h-12q-92 0 -92 71q0 66 63 66q18 0 56 -6q25 -4 43 -4q102 0 102 153q0 -4 2 144v180v172v182l-2 144q0 153 -101 153h-1q-20 0 -43 -6q-37 -6 -56 -6 q-66 0 -65 67z" />
<glyph unicode="L" d="M39 63q0 66 63 66q16 0 49 -5t50 -5q104 0 104 153v822q0 151 -103 151h-1q-29 0 -43 -4q-33 -6 -56 -6q-27 0 -45 19.5t-18 48.5q0 71 86 71h2q12 0 31 -2l108 -12q90 -10 133 -10q53 0 131 10l95 12q16 2 26 2q92 0 92 -71q0 -29 -18 -48.5t-45 -19.5q-20 0 -55 6 q-14 4 -43 4q-104 0 -105 -151v-799q0 -121 25 -143q18 -18 48 -22.5t134 -4.5h180q141 0 188.5 38t47.5 152q0 31 -2 72q-4 80 -4 96q0 90 71 90q86 0 86 -81q0 -25 -2 -39l-14 -105q-6 -45 -6 -94q0 -29 5 -85t5 -85q0 -92 -104 -92q-20 0 -95 4q-49 2 -151 4l-154 2h-327 q-49 0 -164 -4q-16 0 -56.5 -4t-62.5 -4q-86 0 -86 73z" />
<glyph unicode="M" horiz-adv-x="1939" d="M39 61q0 29 18.5 48.5t44.5 19.5q23 0 53.5 -6t45.5 -6q104 0 104 153v824q0 153 -103 153h-1q-16 0 -49 -5t-50 -5q-63 0 -63 66q0 71 89 71h3q8 0 27 -2l71 -8q53 -6 101 -6q39 0 105.5 8t96.5 8q80 0 107 -100l14 -53l316 -1037l346 1104q27 86 92 86h10q20 0 53 -6 q41 -10 54 -10q33 -4 90 -4q61 0 96 6l72 12q6 2 24 2q94 0 95 -71q0 -66 -66 -66q-16 0 -48 5t-48 5q-104 0 -105 -153v-144l-2 -180v-174l2 -324q0 -153 102 -153h1q20 0 45 6q45 4 53 4q66 0 66 -66q0 -73 -87 -73h-2q4 0 -30 4q-141 16 -240 16q-96 0 -184 -14 q-37 -6 -66 -6q-80 0 -80 67q0 70 82 70q20 0 31 -2q45 -4 53 -4q74 0 92 153q4 33 5 209q0 68 2 197l4 184v363q0 12 -11 12q-6 0 -12 -12l-377 -1170q-25 -77 -112 -77h-2q-53 0 -79 15t-40 62l-371 1170q-6 12 -14 12t-8 -12l12 -953q2 -149 81 -149h1q23 0 61 8h25 q80 0 80 -72q0 -71 -80 -71h-2q-14 0 -43 4q-45 6 -96 14q-41 6 -105 6q-113 0 -145 -6l-86 -16q-4 0 -13 -2h-12q-94 0 -94 71z" />
<glyph unicode="N" horiz-adv-x="1564" d="M37 1303q0 71 86 71h2q12 0 33 -2q102 -10 157 -10q31 0 92.5 6t92.5 6q63 0 84 -43l22 -49l551 -1145v826q0 160 -2 176q-18 106 -102 106q-16 0 -49 -5t-50 -5q-27 0 -46 19.5t-19 45.5q0 74 92 74q18 0 27 -2l92 -12q61 -8 114 -8t142 12q31 4 71 10q4 0 15 2h14 q88 0 88 -71q0 -70 -82 -70q-14 0 -22 2h-21q-61 0 -79.5 -26.5t-22.5 -116.5l-4 -117l-4 -209v-547q0 -141 -32 -198.5t-110 -57.5q-100 0 -170 144l-536 1116v-953q0 -153 103 -153h1q16 0 49 5t50 5q66 0 65 -68q0 -71 -89 -71h-3h-12q-10 2 -15 2l-84 12q-70 10 -131 10 q-53 0 -137 -10l-100 -12q-4 0 -15 -2h-16q-88 0 -88 71q0 63 65 64q10 0 56 -4q23 -6 43 -6q104 0 104 153v144l2 180v176l-2 324q0 153 -105 153h-1q-14 0 -41 -4q-39 -6 -58 -6q-66 0 -65 68z" />
<glyph unicode="O" horiz-adv-x="1341" d="M78 684q0 340 159.5 533.5t440.5 193.5q268 0 427 -188.5t159 -509.5q0 -348 -161 -553t-435 -205q-272 0 -431 196.5t-159 532.5zM258 686q0 -279 108.5 -431.5t303.5 -152.5q190 0 301.5 159t111.5 431q0 274 -106 423t-305 149q-197 0 -305.5 -151.5t-108.5 -426.5z " />
<glyph unicode="P" d="M37 1303q0 71 88 71h2q14 0 31 -2l100 -12q49 -6 123 -6q51 0 123 6q168 14 254 14q131 0 225 -20q135 -29 212 -127.5t77 -237.5q0 -193 -132 -295t-382 -102h-146q-68 0 -80 2h-4q-33 0 -42 -11.5t-9 -52.5v-41q0 -260 15.5 -315t89.5 -55q23 0 43 6q45 4 55 4 q63 0 63 -66q0 -73 -88 -73h-2l-28 4l-103 14q-43 6 -129 6q-72 0 -117 -6l-118 -16q-4 0 -13 -2h-14q-92 0 -92 71q0 29 18.5 48.5t44.5 19.5q23 0 56 -6q14 -4 43 -4h1q103 0 103 153v822q0 151 -103 151h-1q-16 0 -43 -4q-39 -6 -56 -6q-66 0 -65 68zM477 784 q0 -55 78 -63q-6 0 119 0q145 0 241 22q182 43 183 240q0 260 -332 260q-245 0 -274 -43q-14 -20 -15 -113v-303z" />
<glyph unicode="Q" horiz-adv-x="1341" d="M78 674q0 344 159.5 540.5t440.5 196.5q270 0 428 -192.5t158 -522.5q0 -479 -330 -682v-155q0 -145 119 -146q68 0 92 35q16 25 20 94q4 96 74 97q80 0 80 -101q0 -113 -72.5 -181.5t-189.5 -68.5q-258 0 -258 238v143q-63 -14 -127 -14q-272 0 -433 194.5t-161 524.5z M252 680q0 -385 188 -535q-55 90 -55 172q0 100 83 169t204 69q125 0 194.5 -70.5t69.5 -195.5v-109q59 74 86 142q61 164 61 378q0 268 -106.5 416t-298.5 148q-201 0 -313.5 -154t-112.5 -430zM496 266q0 -80 49 -129t129 -49q51 0 127 21v157q0 162 -137 162 q-74 0 -121 -45t-47 -117z" />
<glyph unicode="R" horiz-adv-x="1490" d="M39 63q0 66 63 66q10 0 56 -4q23 -6 43 -6q104 0 104 153v822q0 153 -103 153h-1q-16 0 -49 -5t-50 -5q-27 0 -45 19.5t-18 46.5q0 71 88 71h2q8 0 29 -2l104 -10q41 -4 103 -4q63 0 141 4l156 8q78 4 143 4q451 0 450 -344q1 -202 -155 -276q-59 -29 -152 -49 q121 -23 167 -90.5t46 -223.5v-94q-2 -8 -2 -25q0 -147 94 -147q96 0 97 176v61l-2 52v28q0 59 8 82q16 35 63 35q74 0 74 -86q0 -2 -2 -45l-2 -43q-2 -43 -2 -55v-51q2 -12 2 -37q0 -119 -66.5 -185.5t-185.5 -66.5q-242 0 -242 243v62l2 70v45q0 137 -52 181t-216 44h-190 q-66 0 -66 -80v-158q0 -152 4 -172q18 -102 103 -102q29 0 43 4q35 6 53 6q66 0 65 -70q0 -73 -86 -73h-2l-30 4l-111 14q-63 8 -113 8q-61 0 -143 -10l-98 -12q-33 -4 -31 -4q-88 0 -88 73zM473 825q0 -35 12 -44t47 -9h193q172 0 258 49q104 59 104 199q0 233 -319 233 q-170 0 -230.5 -25.5t-62.5 -101.5l-2 -65v-236z" />
<glyph unicode="S" horiz-adv-x="1267" d="M123 510q0 92 78 92q80 0 80 -92v-37q-2 -16 -2 -47q0 -154 98 -244t266 -90q156 0 248 74t92 201q0 195 -246 237l-116 21q-174 31 -271 71q-88 39 -140 122t-52 188q0 180 131 292.5t340 112.5q201 0 327 -129v29q0 80 64 80q70 0 70 -88v-13q0 -4 -6.5 -61.5 t-6.5 -136.5q0 -10 4 -66l6 -82q2 -10 3 -29q0 -98 -76 -98q-80 0 -80 82v10l4 56q2 29 2 45q0 123 -83 192.5t-228 69.5q-133 0 -212 -65.5t-79 -176.5q0 -129 117 -190q66 -33 229 -60q244 -39 334 -106q135 -100 135 -285q0 -193 -138 -313.5t-358 -120.5 q-233 0 -387 147q0 -8 2 -18v-12q4 -33 4 -43q0 -76 -71 -76q-78 0 -78 86q0 10 2 16l8 107q6 80 6 102q0 41 -10 123t-10 123z" />
<glyph unicode="T" d="M53 1288q0 86 78 86q29 0 133 -6q10 0 168 -4l234 -4q41 0 219 4q39 0 133 6q84 6 131 6q102 0 102 -84v-4q0 -20 -5 -75.5t-11 -118.5v-23q0 -31 6 -96q8 -86 8 -107q0 -84 -80 -84q-77 0 -77 100q0 42 6 112q6 72 6 110q0 141 -162 141h-57q-76 0 -109 -31.5 t-37 -105.5l-6 -143l-2 -697q0 -153 104 -153h1q16 0 49 5t49 5q27 0 46 -19.5t19 -46.5q0 -71 -89 -71h-3h-12q-10 2 -14 2l-101 14q-57 8 -129 8q-78 0 -137 -8l-102 -14q-6 0 -15 -2h-14q-90 0 -90 71q0 66 65 66q16 0 49 -5t50 -5q102 0 102 153v144l2 180v174l-2 334 q0 145 -149 145h-64q-147 0 -147 -143q0 -51 2 -70l8 -76q2 -18 2 -51q0 -129 -80 -129q-76 0 -76 94q0 27 4 93q6 98 7 125q0 51 -5 106q-7 94 -8 94v-2z" />
<glyph unicode="U" horiz-adv-x="1454" d="M20 1305q0 69 76 69h2q33 0 70 -6q100 -16 186 -16q88 0 203 18q25 4 53 4q84 0 84 -69q0 -70 -71 -70q-16 0 -49 5t-50 5q-66 0 -88 -69q-10 -31 -12 -125l-4 -131l-8 -166v-316q0 -143 31.5 -208.5t119.5 -102.5q82 -35 168 -35q113 0 193 43t103.5 116t25.5 185l4 527 q0 156 -4 176q-18 104 -105 104q-14 0 -41 -4q-39 -6 -55 -6q-27 0 -46.5 20.5t-19.5 46.5q0 74 91 74q14 0 28 -2l121 -16q45 -6 102 -6q55 0 93 6l88 14q37 6 49 6q86 0 86 -69q0 -70 -84 -70h-23q-6 2 -20 2q-61 0 -75.5 -61.5t-14.5 -315.5v-358q0 -133 -8 -193 q-16 -102 -70 -178q-123 -178 -416 -178q-360 0 -465 235q-32 70 -32 215v9q0 74 6 218t6 218v108q0 150 -2 168q-14 113 -80 113h-14q-10 -2 -18.5 -3t-27.5 -1q-86 0 -86 70z" />
<glyph unicode="V" horiz-adv-x="1490" d="M-10 1303q0 73 80 73h2q25 0 55 -6q110 -22 196 -22h7q51 0 151.5 13t149.5 13q76 0 76 -67q0 -74 -78 -74q-4 0 -19 2h-20q-12 2 -35 2q-90 0 -90 -57q0 -29 10 -62l23 -74l288 -874l275 856q31 98 31 139q0 78 -82 78q-14 0 -45 -5t-45 -5q-80 0 -80 72q0 69 76 69h2 q43 0 130 -12t132 -12q74 0 182 18q35 6 65 6q76 0 76 -71q0 -70 -76 -70q-2 0 -8 2l-47 4h-10q-35 0 -56.5 -34t-60.5 -146l-336 -985q-35 -100 -129 -101q-98 0 -133 101l-366 1030q-27 76 -43 96q-29 35 -91 35q-12 0 -38.5 -2t-38.5 -2q-80 0 -80 72z" />
<glyph unicode="W" horiz-adv-x="1900" d="M-10 1303q0 71 69 71h2q29 0 66 -6q111 -18 215 -18q49 0 225 20q31 4 60 4q74 0 73 -67q0 -74 -90 -74q-18 0 -56 4t-56 4q-72 0 -72 -67q0 -25 6 -58l12 -65l168 -867l211 1065q27 139 138 140q117 0 139 -123l205 -1096l174 850q18 90 18 137q0 84 -86 84 q-18 0 -53 -2t-53 -2q-88 0 -88 70q0 67 84 67h2q33 0 67 -4q168 -20 221 -20q41 0 122 12t122 12q76 0 76 -71q0 -66 -74 -66q-12 0 -36.5 3t-37.5 3q-43 0 -62.5 -32.5t-45.5 -147.5l-230 -977q-27 -113 -127 -113q-106 0 -133 140l-207 1083l-227 -1112 q-23 -111 -117 -111q-96 0 -122 113l-244 1020q-18 78 -46 105.5t-87 27.5h-15l-45 -4q-66 0 -65 68z" />
<glyph unicode="X" horiz-adv-x="1603" d="M8 63q0 72 76 72q12 0 37.5 -3t38.5 -3q47 0 80.5 25.5t105.5 113.5l363 447l-375 440q-70 82 -127 82q-16 0 -46 -2t-46 -2q-84 0 -84 74q0 69 86 69h2q10 0 129 -20q57 -8 114 -8q109 0 242 20q41 6 72 6q82 0 82 -69q0 -72 -82 -72q-6 0 -19 2h-18q-27 4 -58.5 8 t-41.5 4q-25 0 -25 -14q0 -8 12 -25l285 -372l281 356q16 20 16 37q0 16 -27 16q-16 0 -30 -2q-59 -8 -95 -8q-82 0 -82 72q0 67 74 67h2q31 0 78 -8q94 -16 197 -16q63 0 178 18q51 8 65 8q84 0 84 -71q0 -72 -75 -72q-14 0 -43 5t-43 5q-49 0 -121 -88l-361 -440l385 -467 q100 -123 164 -123q4 0 15 2h12q12 2 33 2q76 0 75 -68q0 -71 -78 -71h-2q-20 0 -71 8q-117 18 -191 18q-82 0 -180 -16q-61 -10 -98 -10q-88 0 -88 73q0 70 84 70q35 0 69 -2l64 -4h14q33 0 33 20q0 16 -39 66l-305 383l-299 -383q-37 -47 -37 -66q0 -23 29 -22h4l47 4 l61 4q31 2 52 2q90 0 90 -72q0 -73 -76 -73h-2q-25 0 -80 10q-100 18 -201 18q-115 0 -227 -20q-45 -8 -72 -8q-86 0 -86 73z" />
<glyph unicode="Y" horiz-adv-x="1490" d="M-29 1300q0 74 82 74q33 0 82 -8q98 -16 184 -16q63 0 191 18q43 6 74 6q84 0 84 -71q0 -70 -101 -70l-20 2h-51l-41 2q-25 2 -25 -16q0 -8 2 -11.5l10 -17.5l314 -533l317 533q10 16 10 33q0 18 -26 18h-4l-37 -2l-53 -6q-35 -4 -54 -4q-84 0 -84 72q0 71 80 71h2 q31 0 74 -6q115 -16 199 -16q88 0 194 16q41 6 70 6q78 0 78 -71q0 -66 -76 -66q-31 0 -47 4q-33 4 -45 4q-53 0 -86 -49l-31 -47l-403 -633v-86q0 -209 17 -260t87 -51q16 0 50 5t50 5q63 0 64 -66q0 -73 -90 -73h-2h-13q-8 2 -14 2l-113 14q-63 8 -125 8q-66 0 -124 -8 l-105 -14q-4 0 -12 -2h-15q-92 0 -92 71q0 68 66 68q16 0 48 -5t48 -5q86 0 105 108q2 19 2 181v38q-2 33 -2 56l-398 628q-39 61 -49 72q-31 31 -76 31q-25 0 -37 -2h-18q-14 -2 -20 -2q-94 0 -95 71z" />
<glyph unicode="Z" horiz-adv-x="1267" d="M80 104q0 63 47 119l864 1020h-502q-127 0 -173 -45t-46 -166q0 -20 2 -63t2 -64q0 -102 -77 -102q-76 0 -76 84q0 39 8 113.5t8 113.5q0 27 -4 79t-4 79q0 106 102 106h9l55 -2q20 -1 47.5 -1t63.5 1h71q51 -2 66 -2l424 2h82q147 0 147 -102q0 -47 -43 -98l-903 -1055 h514q176 0 230.5 32.5t54.5 137.5q0 31 -6.5 84t-6.5 94q0 82 78 82q74 0 74 -86q0 -23 -6 -86.5t-6 -122.5q0 -57 2 -76q8 -72 8 -96q0 -96 -117 -96q-49 0 -94 2q-184 8 -385 8q-100 0 -234 -6q-43 -2 -110 -2q-96 0 -131 24.5t-35 89.5z" />
<glyph unicode="[" horiz-adv-x="894" d="M217 -315q0 61 4 157.5t4 157.5v971q0 63 -4 159.5t-4 155.5q0 66 19 82q12 10 40 10q27 0 79.5 -5t78.5 -5q104 0 157.5 6t102.5 6q109 0 109 -71q0 -68 -115 -68q-35 0 -100.5 10.5t-100.5 10.5q-57 0 -76.5 -15.5t-23.5 -70.5l-8 -111q-6 -82 -6 -264v-631 q0 -182 6 -264l8 -111q4 -55 27 -71q16 -12 73 -13q35 0 101.5 9.5t99.5 9.5q115 0 115 -68q0 -72 -109 -72q-41 0 -123 6.5t-122 6.5h-17q-27 0 -79 -5.5t-77 -5.5q-41 0 -53 29q-6 16 -6 64z" />
<glyph unicode="\" horiz-adv-x="1024" d="M53 1536h148l729 -1706h-148z" />
<glyph unicode="]" horiz-adv-x="894" d="M92 -338q0 68 115 68q31 0 97.5 -9.5t103.5 -9.5q57 0 76.5 14.5t23.5 69.5l8 111q6 84 6 264v631q0 180 -6 264l-8 111q-4 55 -23.5 70.5t-76.5 15.5q-35 0 -101.5 -10.5t-99.5 -10.5q-115 0 -115 68q0 72 109 71q47 0 102 -6t158 -6q27 0 79 5t78 5q41 0 54 -28 q6 -16 6 -64q0 -63 -4 -155.5t-4 -335.5v-619q0 -238 4 -335t4 -156q0 -66 -15.5 -79.5t-44.5 -13.5q-27 0 -78 5.5t-77 5.5q-106 0 -159.5 -6.5t-102.5 -6.5q-109 0 -109 72z" />
<glyph unicode="^" horiz-adv-x="1024" d="M51 748l363 622h196l363 -622h-164l-299 501l-297 -501h-162z" />
<glyph unicode="_" horiz-adv-x="1024" d="M0 -137h1024v-135h-1024v135z" />
<glyph unicode="`" horiz-adv-x="1007" d="M272 1358q0 31 21.5 52.5t52.5 21.5q27 0 60 -21l258 -162q43 -27 43 -53q0 -49 -43 -49q2 0 -29 6l-291 127q-72 31 -72 78z" />
<glyph unicode="a" horiz-adv-x="1155" d="M61 266q0 170 146 250q55 31 95 40t161 24q172 18 224 51t52 121q0 84 -58 132t-163 48q-92 0 -172 -51q-31 -20 -31 -43q0 -8 19 -21q28 -19 28 -66q0 -44 -29.5 -71t-74.5 -27q-53 0 -89 37t-36 90q0 115 113.5 197t275.5 82q373 0 373 -359v-413q0 -98 4 -117 q12 -72 70 -72q72 0 71 131v101q0 65 62 65h2q68 0 67 -98v-10l-2 -117q-3 -197 -208 -197q-168 0 -207 146q-104 -154 -328 -154q-166 0 -265.5 82t-99.5 219zM227 268q0 -78 56.5 -123t152.5 -45q137 0 216 75t81 206l2 145q-45 -41 -95 -57t-179 -29q-233 -23 -234 -172z " />
<glyph unicode="b" horiz-adv-x="1155" d="M-49 1323q0 68 82 68q25 0 41 -2l49 -7q33 -4 53 -4q23 0 64 7.5t61 7.5q45 0 45 -58v-28q-16 -170 -18 -404q66 86 133 121t170 35q205 0 325.5 -143.5t120.5 -380.5q0 -260 -128 -415t-345 -155q-211 0 -305 158q8 -59 8 -66q0 -73 -69 -73h-2q-72 0 -72 102q0 29 2 43 q0 47 2 100l6 158l4 207l-4 547q-2 76 -15.5 102.5t-45.5 26.5q-6 0 -54 -8q-23 -4 -39 -5q-70 0 -69 66zM330 528q0 -203 32 -278q63 -150 242 -150q141 0 224 112t83 300q0 193 -78.5 302.5t-216.5 109.5q-96 0 -174 -60.5t-98 -150.5q-14 -66 -14 -185z" />
<glyph unicode="c" horiz-adv-x="1044" d="M80 500q0 254 132 406.5t351 152.5q164 0 272.5 -89t108.5 -227q0 -76 -42 -125t-107 -49q-51 0 -85 31t-34 76q0 82 102 94q-10 72 -68.5 113t-150.5 41q-141 0 -227 -113t-86 -299q0 -193 81 -302.5t224 -109.5q90 0 156.5 51.5t91.5 141.5q20 72 24 82q23 41 66 41 q35 0 57.5 -22.5t22.5 -57.5q0 -51 -33 -123t-78 -119q-121 -129 -313 -129q-209 0 -337 147.5t-128 387.5z" />
<glyph unicode="d" horiz-adv-x="1228" d="M80 514q0 248 125 396.5t334 148.5q203 0 303 -158v207q0 82 -4 100q-10 63 -58 64q-16 0 -45.5 -6t-46.5 -6q-76 0 -76 65q0 68 103 68q16 0 59 -4q66 -6 68 -7q18 0 53 4.5t53 4.5q57 0 58 -82v-23q-2 -6 -5 -108q0 -12 -6 -158q-4 -102 -4 -156v-200l4 -342 q2 -135 12.5 -168t49.5 -33q27 0 41 4q33 4 45 4q76 0 76 -68q0 -69 -90 -69h-3q-20 0 -62 5t-63 5q-6 0 -47 -4q-25 -6 -43 -6q-55 0 -55 74v10l2 35q-109 -145 -315 -146q-209 0 -336 151.5t-127 397.5zM246 518q0 -195 84 -306.5t229 -111.5q111 0 184.5 65t85.5 171 q8 68 9 174q0 137 -11 186q-18 102 -88 160q-82 68 -188 68q-143 0 -224 -108.5t-81 -297.5z" />
<glyph unicode="e" horiz-adv-x="1081" d="M80 498q0 250 135 405.5t352 155.5q193 0 318 -129t125 -328q0 -78 -10.5 -95.5t-59.5 -17.5h-651q-27 0 -35 -7t-8 -23q0 -154 92 -256.5t229 -102.5q90 0 165 49.5t97 124.5l19 60q14 49 67 49q76 0 76 -78q0 -133 -135 -236.5t-307 -103.5q-215 0 -342 144.5 t-127 388.5zM266 655q0 -28 42 -28h3h490q43 0 43 28q0 109 -82 189t-193 80q-115 0 -209 -83.5t-94 -185.5z" />
<glyph unicode="f" horiz-adv-x="708" d="M35 63q0 27 21.5 47.5t49.5 20.5q20 0 46 -7t47 -7q39 0 49 49t12 237l2 431q0 37 -37 36h-102q-72 0 -72 76q0 72 74 72h117q27 0 26 26v37q0 162 86 248t244 86q129 0 207 -52t78 -140q0 -45 -29 -73t-72 -28q-41 0 -68.5 25.5t-27.5 62.5q0 29 21 52q-34 32 -99 32h-4 q-88 0 -138 -56t-50 -157v-37q0 -27 26 -26h160q68 0 68 -74t-68 -74h-151q-35 0 -35 -36v-574q0 -76 2 -88q10 -55 51 -55q10 0 51 10q29 4 41 4q70 0 70 -68q0 -71 -82 -71h-2q-35 0 -105.5 8t-105.5 8q-61 0 -111 -6q-80 -10 -102 -10q-88 0 -88 71z" />
<glyph unicode="g" horiz-adv-x="1118" d="M55 -61q0 166 187 235q-166 66 -166 197q0 143 166 196q-53 72 -54 168q0 139 107.5 231.5t269.5 92.5q53 0 121 -17q10 201 234 201q94 0 157.5 -49t63.5 -125q0 -49 -32 -84t-75 -35q-33 0 -57.5 22.5t-24.5 53.5q0 33 45 68q-33 41 -84 41q-109 0 -110 -136 q155 -103 155 -278q0 -143 -106 -237q-107 -95 -266 -95q-113 0 -234 53q-33 14 -55 15q-29 0 -51.5 -25.5t-22.5 -60.5q0 -106 215 -107h13q16 0 36 2h25q195 0 315 -37q113 -35 178.5 -108.5t65.5 -165.5q0 -150 -138 -237t-374 -87t-370 82t-134 226zM221 -53 q0 -84 92.5 -132t247.5 -48q164 0 259 49t95 131q0 86 -90 134t-252 48q-164 0 -258 -49t-94 -133zM348 725q0 -90 61.5 -145.5t159.5 -55.5q102 0 167 55.5t65 141.5q0 88 -66 145.5t-164 57.5q-90 0 -153.5 -53.5t-69.5 -133.5v-12z" />
<glyph unicode="h" d="M18 1323q0 29 25 49.5t59 20.5q10 0 70 -7q39 -4 84 -4q18 0 51 4.5t47 4.5q47 0 47 -68v-4l-8 -397q82 78 149.5 107.5t159.5 29.5q176 0 283 -100.5t107 -264.5v-342q0 -121 2 -133q8 -102 53 -102q16 0 47 8q12 2 33 2q76 0 76 -68q0 -67 -96 -67h-3q-27 0 -78 6 q-86 10 -139 10t-82 -4q-86 -12 -106 -12q-37 0 -61.5 21.5t-24.5 54.5q0 27 21.5 45t49.5 18q23 0 54 -10q18 -6 34 -6q61 0 64 133q0 25 2 96l2 88v111q0 209 -41 280q-59 106 -209 107q-162 0 -235 -111q-51 -76 -54 -244l-2 -147q0 -12 -2 -41v-39q0 -117 2 -135 q10 -100 60 -100q16 0 46 7t44 7q66 0 65 -64q0 -71 -88 -71h-2q-29 0 -86 6q-78 8 -133 8q-35 0 -96 -6q-82 -8 -105 -8q-84 0 -84 74q0 61 78 61q27 0 39 -4q35 -6 49 -6q33 0 44.5 62.5t13.5 254.5l2 367q0 307 -12.5 388t-57.5 81q-14 0 -43 -6.5t-45 -6.5q-70 0 -70 66 z" />
<glyph unicode="i" horiz-adv-x="634" d="M33 61q0 68 69 68q16 0 48 -6t49 -6q49 0 59 131v178v168v178q-10 129 -61 129q-16 0 -46 -7t-45 -7q-74 0 -73 65q0 70 90 70q39 0 55 -2q66 -8 84 -8q16 0 50 5t50 5q59 0 60 -80q0 -8 -2 -24.5t-2 -24.5q-2 -16 -4 -127q-2 -84 -2 -172v-266q0 -102 2 -121 q10 -92 55 -92q10 0 51 10q10 4 31 4q78 0 78 -68q0 -29 -25.5 -49t-64.5 -20q-33 0 -99.5 9t-99.5 9q-53 0 -119 -8q-80 -10 -106 -10q-82 0 -82 69zM190 1245q0 47 34 80t81 33t81 -33t34 -80t-34 -81t-81 -34t-81 34t-34 81z" />
<glyph unicode="j" horiz-adv-x="595" d="M-231 -201q0 51 29.5 85t74.5 34q39 0 66.5 -25.5t27.5 -60.5q0 -43 -37 -80q55 -41 113 -41q115 0 165 67.5t50 217.5l2 643q0 180 -10 222t-55 42q-23 0 -58 -8q-18 -6 -37 -6q-66 0 -65 65q0 68 86 68q31 0 53 -2q66 -6 92 -6q16 0 51 5t52 5q59 0 59 -66 q0 -10 -2 -40q-2 -37 -2 -60q-2 -33 -6 -147q-4 -129 -4 -199v-463q0 -123 -11 -182q-18 -96 -73 -164q-98 -119 -275 -119q-123 0 -204.5 61.5t-81.5 153.5zM197 1245q0 47 33.5 80t80.5 33t82 -34t35 -79q0 -47 -35 -81t-82 -34t-80.5 34t-33.5 81z" />
<glyph unicode="k" horiz-adv-x="1267" d="M18 59q0 68 78 68q16 0 39 -4q33 -6 45 -6q49 0 56 78l6 79v828q-4 111 -14.5 140.5t-43.5 29.5q-10 0 -39 -4q-29 -10 -57 -11q-68 0 -68 64q0 70 80 70q41 0 58 -2q51 -6 67 -7q16 0 48 5.5t46 5.5h15q66 0 65 -84v-791l351 328q18 16 18 37q0 20 -27 20q-20 0 -59 -8 t-59 -8q-72 0 -72 65q0 72 90 72q23 0 57 -4q141 -16 215 -16q41 0 70 4l84 12q29 4 47 4q100 0 100 -70q0 -65 -67 -65h-2q-16 0 -46 4t-46 4q-51 0 -107 -51l-215 -197q-23 -20 -22 -33q0 -10 16 -30l262 -340q100 -129 143 -129q10 0 34 5t38 5q74 0 74 -66 q0 -69 -91 -69h-3q-37 0 -110 8t-109 8q-33 0 -95.5 -8t-93.5 -8q-78 0 -78 69q0 66 74 66q20 0 33 -2q37 -10 47 -10q18 0 18 14v6q-2 2 -2 4l-20 29l-27 39l-205 272q-20 27 -32 27q-8 0 -31 -21l-152 -135v-47q0 -98 2 -110q10 -72 58 -72q20 0 34.5 3t38.5 3 q70 0 70 -68q0 -67 -76 -67h-2q-35 0 -105.5 9t-107.5 9q-47 0 -108 -8q-78 -10 -105 -10q-80 0 -80 67z" />
<glyph unicode="l" horiz-adv-x="632" d="M18 66q0 63 70 63h14q12 -2 19 -2q51 -8 59 -8q37 0 46.5 31.5t11.5 164.5l2 144l6 317l-2 365q-2 61 -6 82q-14 47 -58 47q-6 0 -53 -8q-23 -4 -37 -5q-70 0 -70 66q0 68 82 68q23 0 39 -2l49 -7q33 -4 56 -4q20 0 61 7.5t62 7.5q47 0 47 -60q0 -20 -2 -30 q-15 -158 -15 -447l2 -637q2 -104 56 -104q12 0 51 10q25 4 33 4q67 0 67 -68q0 -69 -82 -69h-2q-33 0 -104.5 8t-110.5 8q-33 0 -98.5 -8t-95.5 -8h-11q-86 0 -86 74z" />
<glyph unicode="m" horiz-adv-x="1900" d="M33 61q0 63 78 64h12q8 -2 12 -2l51 -10q2 -2 9 -2q55 0 59 100l4 117v313q0 174 -9 217t-50 43q-8 0 -58 -10q-20 -4 -32 -4q-76 0 -76 65q0 70 84 70q23 0 61.5 -4t67.5 -4q10 0 22 2h15l49 6h6q49 0 49 -59v-60q74 88 139.5 122t163.5 34q201 0 295 -156 q70 86 141.5 121t184.5 35q117 0 209 -49q102 -55 141 -156q27 -68 27 -213v-199l-2 -153q0 -84 2 -103q10 -73 52 -73h1q14 0 42.5 6t43.5 6q72 0 71 -62q0 -71 -79 -71h-2q-31 0 -93.5 7t-95.5 7q-35 0 -101.5 -7t-101.5 -7q-86 0 -86 71q0 61 66 62q8 0 41 -4 q12 -4 33 -4q35 0 44 34.5t11 174.5l2 125v135q0 141 -21.5 205.5t-81 101.5t-135.5 37q-145 0 -202 -101q-45 -80 -45 -278v-145q0 -193 9 -241t48 -48q12 0 35.5 5t36.5 5q29 0 48 -19.5t19 -48.5q0 -67 -93 -67h-3q-31 0 -91.5 8t-90.5 8q-43 0 -94.5 -8t-90.5 -8 q-84 0 -84 69q0 63 62 64q23 0 35 -4q29 -6 43 -6q49 0 51 104l2 96q2 45 2 88q2 37 2 39v170q0 178 -48 248t-171 70q-135 0 -207 -99q-59 -80 -59 -278v-272q0 -82 2 -97q8 -69 44 -69h1q10 0 43 8q4 0 12 2h14q80 0 80 -68q0 -65 -89 -65h-3q-35 0 -86 6q-70 8 -119 8 q-25 0 -90 -6q-88 -8 -106 -8q-82 0 -82 69z" />
<glyph unicode="n" d="M33 61q0 66 65 66q10 0 38 -6t54 -6q61 0 64 118l4 228v248l-4 71q-4 70 -17.5 95.5t-46.5 25.5q-14 0 -41.5 -5t-42.5 -5q-74 0 -73 65q0 68 92 68q12 0 20 -2l76 -8q33 0 58 4q53 4 55 4q59 0 59 -61v-58q123 156 328 156q111 0 209 -56.5t133 -140.5q29 -70 29 -182 v-389q0 -88 2 -105q10 -69 54 -69h1q18 0 48 5t42 5q27 0 46.5 -18.5t19.5 -45.5q0 -31 -25 -51t-59 -20q-29 0 -94.5 8t-122.5 8q-53 0 -89 -4q-102 -12 -108 -12q-82 0 -82 71q0 63 70 64q16 0 36 -4q39 -8 50 -8q49 0 53 112l4 105l2 125v155q0 109 -10 150 q-18 78 -80 121q-68 47 -154 47q-164 0 -235 -117q-49 -80 -49 -272v-273q0 -90 12 -122.5t45 -32.5q16 0 45 8t47 8q63 0 64 -70q0 -67 -80 -67h-2q-16 0 -107 12q-45 6 -100 6q-43 0 -115 -8q-90 -10 -102 -10q-86 0 -86 69z" />
<glyph unicode="o" horiz-adv-x="1118" d="M78 512q0 250 130 398.5t349 148.5q223 0 352 -145.5t129 -395.5t-133 -401.5t-354 -151.5q-215 0 -344 148.5t-129 398.5zM246 512q0 -193 81 -302.5t226 -109.5q150 0 234.5 109.5t84.5 304.5q0 410 -311 410q-143 0 -225 -100.5t-90 -284.5v-27z" />
<glyph unicode="p" horiz-adv-x="1228" d="M18 -295q0 66 70 66q12 0 39 -7q35 -8 51 -8q39 0 48.5 40t11.5 222l2 791q-2 94 -54 94q-14 0 -43.5 -7t-46.5 -7q-76 0 -76 67q0 66 91 66q23 0 49 -2q51 -4 76 -4q18 0 53 3t51 3q51 0 51 -57v-66q115 160 314 160q205 0 325.5 -141.5t120.5 -382.5q0 -260 -128 -415 t-343 -155q-178 0 -289 125v-170q0 -78 4 -100q12 -63 60 -64q14 0 42.5 6.5t43.5 6.5q65 0 65 -66q0 -70 -86 -70q-31 0 -92 9q-45 6 -135 6q-49 0 -82 -4q-82 -10 -109 -11q-35 0 -59.5 21.5t-24.5 50.5zM399 461q0 -137 22.5 -199.5t89.5 -112t165 -49.5q147 0 228 107.5 t81 306.5q0 410 -291 410q-98 0 -175 -59.5t-97 -149.5q-18 -80 -21 -195q0 -8 -2 -31v-28z" />
<glyph unicode="q" horiz-adv-x="1155" d="M80 516q0 250 119.5 396.5t324.5 146.5q190 0 318 -154q-4 41 -4 39q0 88 69 88q70 0 70 -106v-43l-8 -244v-391l6 -293q2 -125 14 -163t53 -38q-2 0 50 10q20 4 32 5q66 0 66 -68t-76 -68q-37 0 -110.5 6.5t-110.5 6.5t-109.5 -6.5t-107.5 -6.5q-76 0 -76 68q0 66 70 66 q25 0 65 -9q20 -4 27 -4q45 0 53 103q2 12 2 133v92q-115 -117 -282 -117q-205 0 -330 150.5t-125 400.5zM246 520q0 -199 77.5 -309.5t217.5 -110.5q104 0 181 66.5t89 167.5q4 35 4 125v57q-4 137 -18 197q-27 100 -109 159q-70 51 -156 52q-135 0 -210.5 -106.5 t-75.5 -297.5z" />
<glyph unicode="r" horiz-adv-x="1005" d="M31 63q0 63 78 64q20 0 30 -2l31 -6q20 -4 29 -4q51 0 55 94l4 104l-6 465q-6 121 -62 121q-16 0 -44.5 -6t-45.5 -6q-68 0 -67 65q0 72 88 72q20 0 61 -5t62 -5q16 0 53 4q16 4 39 4q53 0 53 -57v-56q106 150 285 150q143 0 232 -81t89 -208q0 -90 -45 -146.5 t-119 -56.5q-47 0 -79.5 29t-32.5 70q0 33 24.5 58.5t57.5 25.5q6 0 26 -7q12 25 13 45q0 59 -52.5 100.5t-130.5 41.5q-160 0 -213 -144q-32 -85 -32 -256v-10v-135q0 -137 2 -154q10 -116 62 -116h1q27 0 55 8q23 6 39 6q66 0 66 -66q0 -71 -82 -71h-2h-8q-31 0 -93.5 7 t-93.5 7q-82 0 -129 -4l-114 -10q-84 0 -84 71z" />
<glyph unicode="s" horiz-adv-x="1007" d="M88 33v-1q1 0 12 107q4 29 4 58q0 49 -8 92t-8 67q0 72 66 72q43 0 54 -20.5t13 -108.5t92 -143.5t230 -55.5q100 0 165.5 51.5t65.5 129.5q0 139 -221 161q-211 23 -321.5 83.5t-110.5 211.5q0 143 108.5 232.5t282.5 89.5q137 0 229 -72v8q0 76 66 76q67 0 67 -63 q0 -14 -4 -64q-8 -41 -8 -82q0 -25 7.5 -72t7.5 -71q0 -78 -68 -78q-66 0 -68 66l-2 67q-2 61 -70.5 105.5t-160.5 44.5q-94 0 -157.5 -48.5t-63.5 -119.5q0 -131 180 -156l119 -16q348 -47 348 -289q0 -147 -112.5 -238.5t-295.5 -91.5q-170 0 -295 96q2 -20 2 -38 q0 -74 -69 -74q-76 0 -76 84z" />
<glyph unicode="t" horiz-adv-x="819" d="M14 944q0 29 21.5 51.5t48.5 22.5h80q35 0 35 39v211q0 78 80 78q74 0 73 -78v-219q0 -31 37 -31h223q78 0 78 -72q0 -76 -84 -76h-225q-29 0 -29 -43v-503q0 -215 142 -215q143 0 149 174l4 131q2 84 74 84t72 -95q0 -223 -58 -311q-78 -119 -256 -119q-164 0 -233 105 q-51 76 -51 258v491q0 43 -39 43h-66q-33 0 -54.5 21.5t-21.5 52.5z" />
<glyph unicode="u" horiz-adv-x="1267" d="M0 956q0 66 88 66q20 0 60 -4t61 -4q18 0 63 6q31 4 35 4q63 0 64 -78v-43l-2 -133l-7 -152v-133q0 -178 29 -256q47 -129 225 -129q88 0 156 40t94 106q33 80 33 303v113v133q-10 98 -53 98q-23 0 -37 -4h-25q-72 0 -71 63q0 72 80 72q18 0 56 -4t56 -4q16 0 49 3t50 3 q61 0 61 -66q0 -29 -4 -45q-10 -78 -10 -229v-315q0 -125 2 -140q10 -108 56 -108h1q14 0 41 5t41 5q70 0 70 -68q0 -69 -84 -69h-2q-18 0 -54 4q-51 6 -63 6q-6 0 -43 -4q-25 -6 -43 -6q-58 0 -58 59v64q-109 -150 -321 -150q-242 0 -336 150q-41 66 -45 153q-2 43 -2 181 v169q0 281 -59 281q-12 0 -39 -5t-41 -5q-72 0 -72 67z" />
<glyph unicode="v" horiz-adv-x="1230" d="M-23 946q0 74 95 74q16 0 24 -2l86 -8q43 -4 86 -4q35 0 103 6l67 6q10 2 29 2q90 0 90 -70q0 -65 -76 -65h-2q-25 0 -35 2q-39 8 -49 8q-33 0 -33 -29q0 -14 9 -41l14 -45l240 -639l231 639q20 57 21 74q0 45 -43 45q-16 0 -48 -7t-49 -7q-68 0 -67 67q0 72 98 72h16 q10 -2 17 -2l86 -12q29 -4 59 -4q41 0 135 10q57 6 82 6q88 0 88 -68q0 -67 -69 -67h-2q-23 0 -33 4q-31 6 -43 6q-37 0 -76 -98l-289 -738q-37 -94 -125 -94q-84 0 -120 94l-295 758q-29 76 -68 76q-14 0 -43 -6t-43 -6q-68 0 -68 63z" />
<glyph unicode="w" horiz-adv-x="1640" d="M-23 952q0 72 93 72q16 0 22 -2l88 -12q29 -4 76 -4q57 0 131 8q92 10 107 10q90 0 90 -70q0 -67 -74 -67h-2q-14 0 -51 4q-27 8 -51 8q-53 0 -54 -61q1 -42 15 -101l149 -622l160 721q25 115 54.5 152.5t90.5 37.5q63 0 93 -39t55 -151l153 -721l152 622q14 59 14 103v4 q0 55 -47 55q-18 0 -53 -7t-53 -7q-76 0 -76 67q0 72 100 72q14 0 31 -2l84 -10q33 -4 102 -4q55 0 107 6l67 8q8 2 23 2q88 0 88 -70q0 -67 -66 -67h-2q-23 0 -34 4q-33 4 -37 4q-55 0 -115 -227l-139 -527q-25 -96 -57.5 -134t-90.5 -38q-109 0 -145 172l-154 729 l-159 -716q-23 -102 -58 -144.5t-94 -42.5q-96 0 -129 127l-197 737q-18 66 -57 66q-12 0 -37 -6q-33 -4 -45 -4q-68 0 -68 65z" />
<glyph unicode="x" d="M6 61q0 68 74 68q12 0 36.5 -3t37.5 -3q38 0 110 82l285 325l-285 336q-29 33 -69 33q-16 0 -25 -2l-35 -8q-8 -2 -29 -2q-68 0 -67 65q0 70 84 70h6q2 0 102 -8q51 -4 86 -4t100.5 6t98.5 6q84 0 84 -70q0 -65 -76 -65h-2q-16 0 -30 4l-31 8h-12q-8 0 -9 -4 q4 -12 19 -29l186 -225l195 225q18 20 18 29q-2 4 -10 4q-10 0 -33.5 -6t-36.5 -6q-73 0 -73 67q0 70 86 70q-4 0 108 -10q45 -4 96 -4t108.5 6t82.5 6q90 0 90 -70q0 -67 -68 -67h-2q-16 0 -47 8t-47 8q-49 0 -135 -98l-238 -271l320 -376q29 -35 69 -35q12 0 38 4t38 4 q74 0 74 -66q0 -71 -84 -71h-2h-16l-80 10q-33 4 -99 4q-55 0 -110 -6l-74 -8h-22q-96 0 -97 65q0 72 76 72q27 0 76 -8q4 -2 14 -2q20 0 21 16q0 6 -7 12l-6 9l-227 266l-231 -266q-14 -16 -15 -25q0 -10 21 -10q14 0 42.5 4t43.5 4q88 0 88 -72q0 -65 -85 -65h-3h-29 l-82 8q-61 6 -108 6q-37 0 -88 -6q-70 -8 -103 -8q-86 0 -86 69z" />
<glyph unicode="y" horiz-adv-x="1230" d="M-53 -199q0 63 36.5 103.5t96.5 40.5q47 0 77.5 -28t30.5 -69q0 -66 -59 -84q31 -45 117 -45q109 0 195.5 81t86.5 182q0 51 -55 190l-225 569l-25 66q-35 92 -80 92q-12 0 -43.5 -6t-42.5 -6q-72 0 -71 65q0 70 94 70q31 0 47 -2l82 -10h16q14 -2 25 -2q74 0 158 8 q63 6 84 6q86 0 86 -68q0 -67 -76 -67h-2q-12 0 -39 5t-39 5q-29 0 -29 -29q0 -16 8 -41l236 -692l250 682q10 29 10 45q0 35 -47 35q-25 0 -39 -4q-33 -4 -43 -4q-68 0 -68 65q0 70 88 70q12 0 41 -4l74 -10q29 -4 62 -4q35 0 102.5 8t101.5 8q88 0 88 -68q0 -65 -65 -65 h-2q-20 0 -31 4q-27 6 -37 6q-39 0 -80 -104l-278 -697q-92 -231 -174 -336q-139 -178 -348 -178q-125 0 -210 63.5t-85 153.5z" />
<glyph unicode="z" horiz-adv-x="1081" d="M72 109q0 53 49 102l667 676h-313q-154 0 -192.5 -9.5t-38.5 -48.5q0 -16 4 -36q10 -53 10 -101q0 -78 -68 -78q-69 0 -69 88q0 41 2 56q8 61 8 88q0 20 -7 60t-7 61q0 63 102 63q33 0 88 -2q63 -4 88 -4l123 -2h348q133 0 133 -94q0 -43 -77 -121l-664 -670h487 q121 0 121 70v39q0 35 -4 59q-4 78 -4 74q0 35 20.5 58.5t51.5 23.5q65 0 65 -76q0 -40 -4 -74q-8 -74 -8 -106q0 -23 5 -66t5 -65q0 -78 -86 -78h-4l-125 4h-590q-51 0 -83.5 30.5t-32.5 78.5z" />
<glyph unicode="{" horiz-adv-x="1024" d="M297 444v121q117 33 117 183v360q0 150 68.5 215.5t219.5 65.5h58v-129q-119 -2 -158 -37t-39 -142v-342q0 -100 -26.5 -150t-98.5 -89q70 -37 97.5 -91.5t27.5 -150.5v-330q0 -113 39 -148.5t158 -35.5v-129h-60q-156 0 -221 68.5t-65 232.5v338q0 88 -27 131t-90 59z " />
<glyph unicode="|" horiz-adv-x="1024" d="M436 -512v2048h152v-2048h-152z" />
<glyph unicode="}" horiz-adv-x="1024" d="M287 -256q119 2 157.5 37t38.5 141v342q0 98 27 149.5t98 90.5q-70 37 -97.5 91t-27.5 150v330q0 113 -38.5 149t-157.5 36v129h57q156 0 222.5 -69t66.5 -233v-337q0 -162 117 -191v-121q-117 -33 -117 -182v-360q0 -150 -67.5 -215.5t-221.5 -65.5h-57v129z" />
<glyph unicode="~" horiz-adv-x="1366" d="M190 1249q63 131 126 183.5t155 52.5q78 0 229 -70q137 -63 199 -63q102 0 184 137l93 -53q-115 -229 -295 -230q-72 0 -172 45l-115 52q-82 36 -133 36q-100 0 -182 -147z" />
<glyph unicode="&#xa1;" horiz-adv-x="858" d="M301 930q0 53 37 91t90 38t91 -38t38 -91t-38 -91t-91 -38t-90 38t-37 91zM338 -225q2 25 8 178q6 172 6 223l-2 223l2 160q2 94 4 105q12 49 72 49q74 0 74 -103v-37l2 -620q2 -147 6 -191v-38q0 -111 -86 -111t-86 121v41z" />
<glyph unicode="&#xa2;" d="M180 690q0 182 81 316.5t224 191.5q49 20 129 33v213q0 57 58 57q57 0 57 -57v-209q109 -14 182 -43q86 -35 141.5 -110.5t55.5 -159.5q0 -76 -46 -128.5t-114 -52.5q-49 0 -81.5 31t-32.5 76q0 41 24.5 69.5t56.5 28.5h17q-6 59 -63.5 102.5t-139.5 49.5v-791 q113 12 162 72q33 41 72 170q20 61 77 61q35 0 58.5 -24.5t23.5 -61.5q0 -92 -73.5 -188t-174.5 -133q-51 -18 -145 -39v-227q0 -57 -57 -58q-57 0 -58 58v227q-143 23 -227 82q-207 145 -207 444zM356 694q0 -174 67.5 -275.5t190.5 -111.5v791q-258 -53 -258 -404z" />
<glyph unicode="&#xa3;" horiz-adv-x="1490" d="M2 188q0 106 85 175t216 69q137 0 330 -106q8 47 8 69q0 88 -104 285l-19 35h-301q-61 0 -61 59q0 61 59 62h234q-45 100 -46 190q0 170 120 277.5t311 107.5q166 0 274.5 -84t108.5 -211q0 -66 -36 -110.5t-89 -44.5q-43 0 -73 29.5t-30 70.5q0 55 58 82q16 8 16 18 q0 25 -37 53q-82 66 -195 66q-119 0 -194.5 -68.5t-75.5 -177.5q0 -51 21 -92l45 -90l6 -16h418q23 0 40 -18.5t17 -43.5q0 -59 -55 -59h-355q90 -145 90 -297q0 -86 -24 -166q207 -152 364 -152q96 0 152.5 54.5t56.5 146.5q0 76 -43 122t-114 46q-47 0 -87 -25.5 t-49 -60.5l-8 -35q-12 -49 -67 -49q-72 0 -72 76q0 94 82 161.5t197 67.5q139 0 226 -84t87 -217q0 -145 -102.5 -245.5t-249.5 -100.5q-156 0 -279 72l-160 92q-145 -166 -370 -166q-143 0 -234.5 65.5t-91.5 167.5zM158 201q0 -49 48 -80t124 -31q156 0 235 109 q-147 96 -272 96q-57 0 -96 -26.5t-39 -67.5z" />
<glyph unicode="&#xa4;" horiz-adv-x="1366" d="M109 1221l84 86l194 -195q145 104 297 105q152 0 293 -103l192 191l86 -84l-194 -193q104 -141 104 -293q0 -143 -102 -286l194 -197l-83 -84l-195 194q-137 -104 -293 -104q-147 0 -297 102l-192 -192l-84 84l192 192q-104 135 -104 293q0 152 102 289zM340 737 q0 -143 100.5 -243.5t243.5 -100.5q141 0 241.5 100.5t100.5 243.5t-100.5 244.5t-243.5 101.5q-141 0 -241.5 -101t-100.5 -245z" />
<glyph unicode="&#xa5;" horiz-adv-x="1454" d="M16 1300q0 74 80 74q33 0 82 -8q96 -16 168 -16q55 0 76 4q10 2 80 14q35 6 59 6q84 0 84 -71q0 -70 -98 -70q-4 0 -21 2h-30q-8 2 -21 2q-25 0 -24 -14q0 -10 10 -31l272 -533l277 533q10 20 10 31q0 20 -27 20q-16 0 -30 -2q-31 -10 -78 -10q-82 0 -82 72t80 71 q27 0 61 -6q92 -16 164 -16t178 16q39 6 70 6q80 0 80 -69q0 -68 -76 -68q-29 0 -45.5 3t-42.5 3q-43 0 -68 -29q-14 -12 -43 -65l-188 -340h360q53 0 53 -59q0 -57 -53 -58h-424l-94 -170h518q53 0 53 -59q0 -57 -53 -57h-522v-35q0 -135 4 -160q18 -92 100 -92q16 0 50 5 t51 5q63 0 63 -66q0 -74 -92 -73h-12q-8 2 -14 2l-113 14q-63 8 -125 8q-66 0 -125 -8l-104 -14q-4 0 -15 -2h-16q-88 0 -88 71q0 68 65 68q16 0 48 -5t49 -5q63 0 81.5 40t22.5 179l2 68h-483q-63 0 -64 57q1 59 64 59h471l-92 170h-379q-63 0 -64 58q0 59 64 59h315 l-176 321q-33 59 -43 72q-29 33 -70 33q-14 0 -41.5 -2t-42.5 -2q-86 0 -86 69z" />
<glyph unicode="&#xa7;" d="M238 33q0 76 37.5 121t101.5 45q49 0 85 -35t36 -82q0 -61 -72 -100q-18 -10 -18 -21q0 -27 47 -55q86 -51 186 -51q102 0 165.5 49t63.5 129q0 61 -33.5 100t-123.5 84l-160 78q-143 70 -199 115q-102 84 -102 194q0 150 178 285q-109 102 -108 215q0 139 100 223 t268 84q160 0 266.5 -74.5t106.5 -183.5q0 -57 -34 -93t-87 -36q-45 0 -74.5 27.5t-29.5 72.5q0 55 69 88q-66 72 -205 72q-96 0 -153 -43t-57 -117q0 -72 47 -111.5t247 -131.5q137 -63 194.5 -106.5t86.5 -104.5q18 -41 18 -90q0 -152 -178 -287q76 -63 103.5 -116.5 t27.5 -127.5q0 -145 -106.5 -234t-280.5 -89q-180 0 -296.5 87t-116.5 220zM424 641q0 -57 45 -98t178 -105q74 -35 162 -84q109 96 109 187q0 57 -45 98t-168 96q-113 51 -177 86l-12 -12q-92 -92 -92 -168z" />
<glyph unicode="&#xa8;" horiz-adv-x="1005" d="M207 1284q0 47 33.5 81t81.5 34q47 0 79.5 -34t32.5 -81t-32.5 -81t-79.5 -34t-81 34t-34 81zM571 1284q0 47 34 81t81 34t80 -34t33 -81t-34 -81t-79 -34q-47 0 -81 34t-34 81z" />
<glyph unicode="&#xa9;" horiz-adv-x="1619" d="M82 682q0 303 213 516t514 213q303 0 516 -213t213 -516q0 -301 -214 -514t-515 -213t-514 213t-213 514zM190 682q0 -258 181.5 -441.5t437.5 -183.5t437 183.5t181 441.5q0 260 -181 443.5t-437 183.5t-437.5 -183.5t-181.5 -443.5zM426 674q0 199 106.5 321.5 t280.5 122.5q143 0 223 -88q-2 4 -3 14.5t-1 24.5q0 47 47 47q49 0 49 -57q0 -18 -4 -58q-6 -59 -6 -83q0 -18 4 -66l4 -47v-12q0 -61 -53 -62q-53 0 -53 60v45q0 84 -56.5 136t-150.5 52q-121 0 -190.5 -91t-69.5 -249q0 -162 70.5 -252t195.5 -90q217 0 219 205 q0 63 56 63q59 0 59 -65q0 -131 -97.5 -215t-246.5 -84q-174 0 -278.5 116.5t-104.5 311.5z" />
<glyph unicode="&#xaa;" horiz-adv-x="870" d="M141 608v68h635v-68h-635zM143 965q0 147 228 170q92 10 118.5 25.5t26.5 58.5q0 86 -115 86q-51 0 -90 -27q-6 -2 -12 -12q-2 0 -2 -2v-2l8 -7q18 -14 19 -41q0 -55 -66 -55q-76 0 -76 72q0 63 64.5 107t154.5 44q215 0 215 -192v-215v-55q6 -35 33 -35q33 0 33 61v51 q0 41 43 41t43 -57v-6l-2 -62q-4 -108 -121 -108q-86 0 -117 67l-2 -2q-53 -70 -174 -69q-94 0 -151.5 45t-57.5 119zM248 967q0 -82 110 -82q72 0 114 38t42 101v59q-31 -25 -143 -34q-123 -12 -123 -82z" />
<glyph unicode="&#xab;" horiz-adv-x="708" d="M88 545q0 8 6 20l203 324q12 20 31 20q27 0 26 -30q0 -17 -4 -29l-104 -303l108 -322q6 -12 6 -22q0 -31 -26 -31q-23 0 -35 21l-207 339q-4 4 -4 13zM348 547q0 6 8 18l203 324q12 20 29 20q29 0 28 -28q0 -19 -6 -31l-102 -303l108 -322q4 -12 5 -22q0 -31 -27 -31 q-23 0 -33 21l-209 339q-4 8 -4 15z" />
<glyph unicode="&#xac;" horiz-adv-x="1024" d="M68 412v135h888v-547h-151v412h-737z" />
<glyph unicode="&#xad;" horiz-adv-x="1124" d="M94 420v127h936v-127h-936z" />
<glyph unicode="&#xae;" horiz-adv-x="1024" d="M102 1147q0 170 121 289.5t289 119.5q170 0 290 -119.5t120 -289.5q0 -168 -120 -289t-290 -121q-168 0 -289 121t-121 289zM164 1147q0 -143 102.5 -245.5t245.5 -102.5q145 0 246.5 102.5t101.5 245.5q0 145 -101.5 246.5t-246.5 101.5q-143 0 -245.5 -101.5 t-102.5 -246.5zM301 977q0 33 31 33q10 0 18 -2h10q18 0 19 30v236q0 8 -4 22q0 2 -2 6.5t-13 4.5q-12 -2 -10 -2q-8 -2 -18 -2q-31 0 -31 32q0 33 39 33h10l29 -4h14q8 -2 15 -2q-2 0 41 2l43 2q14 2 40 2q144 0 144 -113q0 -70 -60 -94q33 -25 33 -88v-37q0 -29 15 -28 q14 0 14 39v40q0 45 33 46q35 0 34 -35q0 -8 -2 -17v-53q0 -84 -86 -84q-82 0 -82 82l3 18v35q0 35 -14.5 43t-51.5 8h-53q-6 0 -6 -4v-86q0 -33 16 -32q6 0 10 2h19q31 0 30 -31q0 -35 -39 -35q-2 0 -10 2l-30 4q-6 0 -17 2h-14q-6 0 -18.5 -2t-20.5 -2l-29 -2 q-4 -2 -12 -2q-37 0 -37 33zM453 1196q0 -2 4 -2h55q90 0 90 59q0 53 -78 54q-71 0 -71 -25v-86z" />
<glyph unicode="&#xaf;" horiz-adv-x="1005" d="M203 1284q0 66 76 66h450q74 0 74 -60q0 -29 -21.5 -48t-52.5 -19h-450q-76 0 -76 61z" />
<glyph unicode="&#xb0;" horiz-adv-x="1024" d="M221 1087q0 117 85 200t206 83t206 -83t85 -200q0 -119 -85 -201.5t-206 -82.5t-206 83t-85 201zM319 1087q0 -78 56.5 -134t136.5 -56t136.5 56.5t56.5 133.5q0 78 -56.5 133.5t-136.5 55.5t-136.5 -55.5t-56.5 -133.5z" />
<glyph unicode="&#xb1;" horiz-adv-x="1024" d="M41 111v139h942v-139h-942zM41 709v139h395v371h152v-371h395v-139h-403v-369h-144v369h-395z" />
<glyph unicode="&#xb4;" horiz-adv-x="1007" d="M373 1196q0 27 43 53l258 162q33 20 61 21q72 0 72 -70q0 -51 -72 -82l-293 -127q-25 -6 -26 -6q-43 0 -43 49z" />
<glyph unicode="&#xb6;" horiz-adv-x="1189" d="M43 999q0 117 60.5 207t161 125t231.5 35h551v-119h-123v-1448h-131v1448h-213v-1448h-131v846h-15q-10 -2 -16 -2q-166 0 -270.5 99.5t-104.5 256.5z" />
<glyph unicode="&#xb7;" horiz-adv-x="280" d="M0 723q0 57 41 99t98 42q59 0 100.5 -41t41.5 -100q0 -57 -41.5 -99t-100.5 -42q-57 0 -98 42t-41 99z" />
<glyph unicode="&#xb8;" horiz-adv-x="1007" d="M319 -295q0 18 14.5 33.5t31.5 15.5q23 0 36 -16l23 -25q35 -39 104 -39q106 0 107 78q0 72 -92 72q-23 0 -47 -8l-50 -17q-6 -2 -22 -2q-27 0 -27 23q0 8 11 33l61 147h100l-39 -98q37 6 54 6q74 0 126 -45t52 -109q0 -72 -65.5 -121t-161.5 -49q-84 0 -150 37t-66 84z " />
<glyph unicode="&#xba;" horiz-adv-x="870" d="M164 608v68h541v-68h-541zM164 1092q0 133 72.5 211.5t197.5 78.5q127 0 200 -77.5t73 -210.5q0 -131 -76 -212t-201 -81q-121 0 -193.5 78.5t-72.5 212.5zM268 1092q0 -96 43 -151.5t119 -55.5q170 0 170 209q0 204 -164 204q-160 0 -168 -192v-14z" />
<glyph unicode="&#xbb;" horiz-adv-x="708" d="M86 203q0 4 6 22l109 322l-105 303q-4 12 -4 29q0 31 27 30q18 0 31 -20l202 -324q8 -12 8 -18q0 -8 -6 -15l-207 -339q-12 -20 -32 -21q-29 0 -29 31zM348 203q0 10 4 22l109 322l-103 303q-4 8 -4 29q0 31 27 30q16 0 29 -20l204 -324q6 -12 7 -18q0 -6 -5 -15 l-208 -339q-10 -20 -33 -21q-27 0 -27 31z" />
<glyph unicode="&#xbf;" horiz-adv-x="1228" d="M76 0q0 219 217 330q37 18 94 43q119 51 163 98t44 127q0 61 16.5 84t61.5 23q86 0 86 -107q0 -96 -51 -168q-63 -88 -224 -174q-150 -80 -192.5 -128t-42.5 -134q0 -113 92 -181.5t244 -68.5q154 0 259 73t105 179q0 53 -53 86q2 -8 2 -21q0 -29 -22.5 -48t-55.5 -19 q-88 0 -88 90q0 59 47 99t117 40q90 0 147.5 -60.5t57.5 -154.5q0 -174 -145.5 -284.5t-374.5 -110.5t-366.5 105.5t-137.5 281.5zM526 930q0 53 37 91t90 38t90 -38t37 -91t-36.5 -91t-90.5 -38q-53 0 -90 38t-37 91z" />
<glyph unicode="&#xc0;" horiz-adv-x="1527" d="M-16 57q0 72 77 72q16 0 25 -2h27q55 0 84 43q12 16 41 96l380 1030q33 86 130 86q94 0 124 -86l367 -1015q35 -96 63.5 -127t81.5 -31q16 0 25 2l57 4q78 0 78 -66q0 -70 -78 -69q-23 0 -59 4q-129 14 -193 14q-76 0 -245 -16q-43 -4 -66 -4q-82 0 -82 69q0 70 90 70 q18 0 54 -4t55 -4q68 0 67 55q0 8 -16 53l-74 201q-12 33 -25.5 41t-53.5 8h-365q-41 0 -56.5 -14t-39.5 -78l-60 -158q-8 -23 -8 -43q0 -66 80 -65q20 0 58 4t57 4q84 0 84 -72q0 -68 -93 -67q-16 0 -45 4l-102 14q-29 4 -94 4q-72 0 -101 -4l-86 -12q-57 -8 -84 -8 q-80 0 -79 67zM518 1681q0 82 78 82q31 0 63 -20l279 -174q51 -33 51 -62q0 -47 -51 -47q-16 0 -31 6l-313 136q-76 33 -76 79zM547 635q0 -18 31 -19h325q25 0 25 17q0 4 -4 16l-185 565l-188 -565q-4 -12 -4 -14z" />
<glyph unicode="&#xc1;" horiz-adv-x="1527" d="M-16 57q0 72 77 72q16 0 25 -2h27q55 0 84 43q12 16 41 96l380 1030q33 86 130 86q94 0 124 -86l367 -1015q35 -96 63.5 -127t81.5 -31q16 0 25 2l57 4q78 0 78 -66q0 -70 -78 -69q-23 0 -59 4q-129 14 -193 14q-76 0 -245 -16q-43 -4 -66 -4q-82 0 -82 69q0 70 90 70 q18 0 54 -4t55 -4q68 0 67 55q0 8 -16 53l-74 201q-12 33 -25.5 41t-53.5 8h-365q-41 0 -56.5 -14t-39.5 -78l-60 -158q-8 -23 -8 -43q0 -66 80 -65q20 0 58 4t57 4q84 0 84 -72q0 -68 -93 -67q-16 0 -45 4l-102 14q-29 4 -94 4q-72 0 -101 -4l-86 -12q-57 -8 -84 -8 q-80 0 -79 67zM502 1507q0 29 51 62l278 174q33 20 64 20q78 0 78 -82q0 -47 -76 -79l-313 -136q-14 -6 -31 -6q-51 0 -51 47zM547 635q0 -18 31 -19h325q25 0 25 17q0 4 -4 16l-185 565l-188 -565q-4 -12 -4 -14z" />
<glyph unicode="&#xc2;" horiz-adv-x="1527" d="M-16 57q0 72 77 72q16 0 25 -2h27q55 0 84 43q12 16 41 96l380 1030q33 86 130 86q94 0 124 -86l367 -1015q35 -96 63.5 -127t81.5 -31q16 0 25 2l57 4q78 0 78 -66q0 -70 -78 -69q-23 0 -59 4q-129 14 -193 14q-76 0 -245 -16q-43 -4 -66 -4q-82 0 -82 69q0 70 90 70 q18 0 54 -4t55 -4q68 0 67 55q0 8 -16 53l-74 201q-12 33 -25.5 41t-53.5 8h-365q-41 0 -56.5 -14t-39.5 -78l-60 -158q-8 -23 -8 -43q0 -66 80 -65q20 0 58 4t57 4q84 0 84 -72q0 -68 -93 -67q-16 0 -45 4l-102 14q-29 4 -94 4q-72 0 -101 -4l-86 -12q-57 -8 -84 -8 q-80 0 -79 67zM389 1507q0 23 47 56l277 194q23 16 43 17q20 0 43 -17l278 -194q45 -31 45 -56q0 -39 -43 -39q-14 0 -39 9q-8 4 -39 18l-245 115l-246 -115q-35 -16 -37 -18q-25 -8 -37 -9h-2q-45 0 -45 39zM547 635q0 -18 31 -19h325q25 0 25 17q0 4 -4 16l-185 565 l-188 -565q-4 -12 -4 -14z" />
<glyph unicode="&#xc3;" horiz-adv-x="1527" d="M-16 57q0 72 77 72q16 0 25 -2h27q55 0 84 43q12 16 41 96l380 1030q33 86 130 86q94 0 124 -86l367 -1015q35 -96 63.5 -127t81.5 -31q16 0 25 2l57 4q78 0 78 -66q0 -70 -78 -69q-23 0 -59 4q-129 14 -193 14q-76 0 -245 -16q-43 -4 -66 -4q-82 0 -82 69q0 70 90 70 q18 0 54 -4t55 -4q68 0 67 55q0 8 -16 53l-74 201q-12 33 -25.5 41t-53.5 8h-365q-41 0 -56.5 -14t-39.5 -78l-60 -158q-8 -23 -8 -43q0 -66 80 -65q20 0 58 4t57 4q84 0 84 -72q0 -68 -93 -67q-16 0 -45 4l-102 14q-29 4 -94 4q-72 0 -101 -4l-86 -12q-57 -8 -84 -8 q-80 0 -79 67zM422 1538q0 74 64.5 129t148.5 55q55 0 147 -30l80 -27q43 -14 68 -14q57 0 90 35l29 30q10 10 24 10q33 0 33 -32q0 -70 -65.5 -123t-151.5 -53q-55 0 -139 28q-115 39 -156 39q-70 0 -96 -39l-17 -24q-18 -18 -30 -19q-29 0 -29 35zM547 635q0 -18 31 -19 h325q25 0 25 17q0 4 -4 16l-185 565l-188 -565q-4 -12 -4 -14z" />
<glyph unicode="&#xc4;" horiz-adv-x="1527" d="M-16 57q0 72 77 72q16 0 25 -2h27q55 0 84 43q12 16 41 96l380 1030q33 86 130 86q94 0 124 -86l367 -1015q35 -96 63.5 -127t81.5 -31q16 0 25 2l57 4q78 0 78 -66q0 -70 -78 -69q-23 0 -59 4q-129 14 -193 14q-76 0 -245 -16q-43 -4 -66 -4q-82 0 -82 69q0 70 90 70 q18 0 54 -4t55 -4q68 0 67 55q0 8 -16 53l-74 201q-12 33 -25.5 41t-53.5 8h-365q-41 0 -56.5 -14t-39.5 -78l-60 -158q-8 -23 -8 -43q0 -66 80 -65q20 0 58 4t57 4q84 0 84 -72q0 -68 -93 -67q-16 0 -45 4l-102 14q-29 4 -94 4q-72 0 -101 -4l-86 -12q-57 -8 -84 -8 q-80 0 -79 67zM434 1632q0 55 39 93t94 38q53 0 92 -37.5t39 -93.5q0 -55 -39 -93t-92 -38q-55 0 -94 38t-39 93zM547 635q0 -18 31 -19h325q25 0 25 17q0 4 -4 16l-185 565l-188 -565q-4 -12 -4 -14zM803 1632q0 53 39 92t94 39q53 0 92 -37.5t39 -93.5q0 -53 -39 -92 t-92 -39q-55 0 -94 39t-39 92z" />
<glyph unicode="&#xc5;" horiz-adv-x="1527" d="M-16 57q0 72 77 72q16 0 25 -2h27q55 0 84 43q12 16 41 96l380 1030q33 86 130 86q94 0 124 -86l367 -1015q35 -96 63.5 -127t81.5 -31q16 0 25 2l57 4q78 0 78 -66q0 -70 -78 -69q-23 0 -59 4q-129 14 -193 14q-76 0 -245 -16q-43 -4 -66 -4q-82 0 -82 69q0 70 90 70 q18 0 54 -4t55 -4q68 0 67 55q0 8 -16 53l-74 201q-12 33 -25.5 41t-53.5 8h-365q-41 0 -56.5 -14t-39.5 -78l-60 -158q-8 -23 -8 -43q0 -66 80 -65q20 0 58 4t57 4q84 0 84 -72q0 -68 -93 -67q-16 0 -45 4l-102 14q-29 4 -94 4q-72 0 -101 -4l-86 -12q-57 -8 -84 -8 q-80 0 -79 67zM547 635q0 -18 31 -19h325q25 0 25 17q0 4 -4 16l-185 565l-188 -565q-4 -12 -4 -14zM547 1653q0 82 58.5 140t142.5 58t141 -57t57 -141q0 -82 -58 -139.5t-140 -57.5q-84 0 -142.5 57.5t-58.5 139.5zM645 1653q0 -41 31 -71t72 -30t70.5 30t29.5 71 q0 43 -29.5 72.5t-70.5 29.5q-43 0 -73 -29.5t-30 -72.5z" />
<glyph unicode="&#xc6;" horiz-adv-x="2086" d="M-98 59q0 70 75 70q12 0 39 -4t39 -4q39 0 88 59l29 35l688 1092q37 57 92 57q27 0 66 -2q76 -4 217 -4h92q45 0 189 4l323 12q94 -4 94 -96v-10q-2 -6 -2 -11l-8 -86q-6 -66 -6 -122q0 -59 4 -82q8 -98 8 -93q0 -80 -74 -79q-74 0 -73 104q0 8 2 33v43q2 16 2 49 q0 143 -54.5 179t-273.5 36q-174 0 -221 -8t-59 -53q-6 -18 -7 -86v-291q0 -29 9.5 -37t42.5 -8h147q119 0 119 96q0 20 -5 61t-5 62q0 84 69 84q72 0 72 -80q0 -41 -6 -84q-16 -117 -17 -223q0 -92 17 -209q6 -43 6 -70q0 -78 -72 -78t-71 74q0 27 6 63.5t6 71.5 q0 98 -121 99h-149q-47 0 -48 -39v-332q0 -80 20.5 -99.5t108.5 -19.5h267q158 0 204 34t46 152q0 53 -5 97v43q0 117 72 116q74 0 74 -86q0 -41 -5 -123.5t-5 -123.5q0 -29 2 -56l6 -77v-17q0 -102 -109 -102q-16 0 -121 6q-174 10 -518 10q-201 0 -309 -8l-108 -8 q-86 0 -86 71q0 72 100 72q-12 0 39 -2q39 -2 51 -2q78 0 100 61q10 29 11 129v236q0 45 -10.5 56.5t-39.5 11.5h-331q-25 -4 -36 -19.5t-38 -58.5l-53 -90l-62 -111l-55 -92q-12 -20 -39 -64q-4 -6 -12 -19t-8 -22q0 -23 38 -22q16 0 43 5t41 5q80 0 80 -72q0 -74 -84 -73 q-23 0 -57 6q-106 18 -166 18q-53 0 -164 -16q-55 -8 -78 -8q-74 0 -73 69zM682 756h289q33 0 35 45l12 448q0 12 -8 13q-11 -1 -17 -13z" />
<glyph unicode="&#xc7;" d="M78 668q0 334 169 538.5t445 204.5q227 0 371 -174l-2 23v22q-2 12 -2 14q-4 45 -4 41q0 70 65 70q70 0 70 -86q0 -16 -8 -98q-10 -102 -11 -142q0 -55 7 -112l8 -78v-21q0 -92 -74 -92q-80 0 -78 88l2 74q4 147 -92 239.5t-252 92.5q-203 0 -317.5 -155.5t-114.5 -430.5 q0 -281 118 -437.5t329 -156.5q115 0 206 55.5t127 145.5q25 59 25 160q0 94 78 94q84 0 84 -94q0 -242 -183 -385q-129 -102 -346 -113l-32 -90q57 8 84 8q86 0 142 -48t56 -120q0 -82 -73.5 -136t-188.5 -54q-96 0 -172 35.5t-76 80.5q0 47 41 47q14 0 33 -12l33 -22 q53 -37 145 -37q121 0 121 90q0 82 -109 82q-25 0 -66.5 -12.5t-62.5 -12.5q-29 0 -28 35q0 20 14 55l47 115q-246 29 -387 219.5t-141 489.5z" />
<glyph unicode="&#xc8;" horiz-adv-x="1378" d="M39 63q0 66 63 66q10 0 56 -4q23 -6 43 -6q104 0 104 153v822q0 152 -104 151q-29 0 -43 -4q-33 -6 -56 -6q-27 0 -45 19.5t-18 48.5q0 72 86 71q2 0 31 -2q307 -20 286 -20h21l493 14q14 0 107 6q33 2 59 2q106 0 107 -94q0 -16 -8 -104q-6 -66 -7 -121q0 -72 5 -101 q8 -59 8 -88q0 -78 -74 -78t-74 109v107q0 172 -71 202q-53 23 -275 23q-145 0 -172 -6q-88 -23 -88 -123v-92v-45q-2 -29 -2 -41v-27q0 -82 37 -94q14 -4 49 -4h84q129 0 129 88q0 25 -6 63.5t-6 69.5q0 82 73 82q74 0 74 -88q0 -16 -14 -127q-12 -94 -12 -166 q0 -41 8 -146q2 -16 10 -71q6 -45 6 -72q0 -74 -74 -74q-72 0 -71 86q0 23 5 66t5 65q0 88 -117 89h-92q-59 0 -72.5 -20.5t-13.5 -88.5v-127q0 -33 2 -88q2 -68 2 -90q2 -82 33 -103q23 -14 106 -14h279q121 0 166 36t45 134q0 31 -3 91.5t-3 90.5q0 92 74 92q78 0 77 -94 q0 -37 -4 -112.5t-4 -112.5q0 -29 3 -85t3 -85q0 -96 -94 -96q-23 0 -72 4q-25 2 -90 2q14 0 -160 4t-301 4q-193 0 -376 -12q-8 0 -19 -2h-12q-86 0 -86 73zM416 1681q0 35 22.5 58.5t55.5 23.5q31 0 63 -20l279 -174q51 -33 51 -62q0 -47 -51 -47q-14 0 -29 6l-313 136 q-78 33 -78 79z" />
<glyph unicode="&#xc9;" horiz-adv-x="1378" d="M39 63q0 66 63 66q10 0 56 -4q23 -6 43 -6q104 0 104 153v822q0 152 -104 151q-29 0 -43 -4q-33 -6 -56 -6q-27 0 -45 19.5t-18 48.5q0 72 86 71q2 0 31 -2q307 -20 286 -20h21l493 14q14 0 107 6q33 2 59 2q106 0 107 -94q0 -16 -8 -104q-6 -66 -7 -121q0 -72 5 -101 q8 -59 8 -88q0 -78 -74 -78t-74 109v107q0 172 -71 202q-53 23 -275 23q-145 0 -172 -6q-88 -23 -88 -123v-92v-45q-2 -29 -2 -41v-27q0 -82 37 -94q14 -4 49 -4h84q129 0 129 88q0 25 -6 63.5t-6 69.5q0 82 73 82q74 0 74 -88q0 -16 -14 -127q-12 -94 -12 -166 q0 -41 8 -146q2 -16 10 -71q6 -45 6 -72q0 -74 -74 -74q-72 0 -71 86q0 23 5 66t5 65q0 88 -117 89h-92q-59 0 -72.5 -20.5t-13.5 -88.5v-127q0 -33 2 -88q2 -68 2 -90q2 -82 33 -103q23 -14 106 -14h279q121 0 166 36t45 134q0 31 -3 91.5t-3 90.5q0 92 74 92q78 0 77 -94 q0 -37 -4 -112.5t-4 -112.5q0 -29 3 -85t3 -85q0 -96 -94 -96q-23 0 -72 4q-25 2 -90 2q14 0 -160 4t-301 4q-193 0 -376 -12q-8 0 -19 -2h-12q-86 0 -86 73zM483 1507q0 31 49 62l279 174q33 20 66 20q75 0 75 -82q0 -47 -75 -79l-314 -136q-14 -6 -28 -6q-51 0 -52 47z " />
<glyph unicode="&#xca;" horiz-adv-x="1378" d="M39 63q0 66 63 66q10 0 56 -4q23 -6 43 -6q104 0 104 153v822q0 152 -104 151q-29 0 -43 -4q-33 -6 -56 -6q-27 0 -45 19.5t-18 48.5q0 72 86 71q2 0 31 -2q307 -20 286 -20h21l493 14q14 0 107 6q33 2 59 2q106 0 107 -94q0 -16 -8 -104q-6 -66 -7 -121q0 -72 5 -101 q8 -59 8 -88q0 -78 -74 -78t-74 109v107q0 172 -71 202q-53 23 -275 23q-145 0 -172 -6q-88 -23 -88 -123v-92v-45q-2 -29 -2 -41v-27q0 -82 37 -94q14 -4 49 -4h84q129 0 129 88q0 25 -6 63.5t-6 69.5q0 82 73 82q74 0 74 -88q0 -16 -14 -127q-12 -94 -12 -166 q0 -41 8 -146q2 -16 10 -71q6 -45 6 -72q0 -74 -74 -74q-72 0 -71 86q0 23 5 66t5 65q0 88 -117 89h-92q-59 0 -72.5 -20.5t-13.5 -88.5v-127q0 -33 2 -88q2 -68 2 -90q2 -82 33 -103q23 -14 106 -14h279q121 0 166 36t45 134q0 31 -3 91.5t-3 90.5q0 92 74 92q78 0 77 -94 q0 -37 -4 -112.5t-4 -112.5q0 -29 3 -85t3 -85q0 -96 -94 -96q-23 0 -72 4q-25 2 -90 2q14 0 -160 4t-301 4q-193 0 -376 -12q-8 0 -19 -2h-12q-86 0 -86 73zM297 1507q0 23 47 56l279 194q23 16 41 17q20 0 43 -17l278 -194q45 -31 45 -56q0 -39 -43 -39q-14 0 -39 9 q-8 4 -39 18l-245 115l-246 -115l-37 -18q-25 -8 -37 -9h-2q-45 0 -45 39z" />
<glyph unicode="&#xcb;" horiz-adv-x="1378" d="M39 63q0 66 63 66q10 0 56 -4q23 -6 43 -6q104 0 104 153v822q0 152 -104 151q-29 0 -43 -4q-33 -6 -56 -6q-27 0 -45 19.5t-18 48.5q0 72 86 71q2 0 31 -2q307 -20 286 -20h21l493 14q14 0 107 6q33 2 59 2q106 0 107 -94q0 -16 -8 -104q-6 -66 -7 -121q0 -72 5 -101 q8 -59 8 -88q0 -78 -74 -78t-74 109v107q0 172 -71 202q-53 23 -275 23q-145 0 -172 -6q-88 -23 -88 -123v-92v-45q-2 -29 -2 -41v-27q0 -82 37 -94q14 -4 49 -4h84q129 0 129 88q0 25 -6 63.5t-6 69.5q0 82 73 82q74 0 74 -88q0 -16 -14 -127q-12 -94 -12 -166 q0 -41 8 -146q2 -16 10 -71q6 -45 6 -72q0 -74 -74 -74q-72 0 -71 86q0 23 5 66t5 65q0 88 -117 89h-92q-59 0 -72.5 -20.5t-13.5 -88.5v-127q0 -33 2 -88q2 -68 2 -90q2 -82 33 -103q23 -14 106 -14h279q121 0 166 36t45 134q0 31 -3 91.5t-3 90.5q0 92 74 92q78 0 77 -94 q0 -37 -4 -112.5t-4 -112.5q0 -29 3 -85t3 -85q0 -96 -94 -96q-23 0 -72 4q-25 2 -90 2q14 0 -160 4t-301 4q-193 0 -376 -12q-8 0 -19 -2h-12q-86 0 -86 73zM354 1632q0 55 39 93t94 38t94.5 -37.5t39.5 -93.5q0 -55 -39.5 -93t-94.5 -38t-94 38t-39 93zM725 1632 q0 53 39 92t92 39q55 0 94 -37.5t39 -93.5q0 -55 -39 -93t-94 -38q-53 0 -92 38t-39 93z" />
<glyph unicode="&#xcc;" horiz-adv-x="782" d="M39 63q0 66 63 66q10 0 56 -4q23 -6 43 -6q104 0 104 153v822q0 152 -104 151q-29 0 -43 -4q-33 -6 -56 -6q-27 0 -45 19.5t-18 48.5q0 72 90 71q12 0 29 -2l108 -14q61 -8 127 -8q63 0 139 10l93 12q16 2 28 2q90 0 90 -71q0 -29 -18 -48.5t-45 -19.5q-20 0 -55 6 q-14 4 -43 4q-104 0 -105 -151v-822q0 -154 105 -153q16 0 43 4q39 6 55 6q63 0 63 -66q0 -74 -90 -73h-14q-8 2 -14 2l-107 16q-53 8 -112 8q-86 0 -154 -10l-94 -14q-4 0 -15 -2h-16q-88 0 -88 73zM145 1681q0 82 78 82q31 0 64 -20l278 -174q51 -33 51 -62q0 -47 -51 -47 q-16 0 -30 6l-312 136q-78 33 -78 79z" />
<glyph unicode="&#xcd;" horiz-adv-x="782" d="M39 63q0 66 63 66q10 0 56 -4q23 -6 43 -6q104 0 104 153v822q0 152 -104 151q-29 0 -43 -4q-33 -6 -56 -6q-27 0 -45 19.5t-18 48.5q0 72 90 71q12 0 29 -2l108 -14q61 -8 127 -8q63 0 139 10l93 12q16 2 28 2q90 0 90 -71q0 -29 -18 -48.5t-45 -19.5q-20 0 -55 6 q-14 4 -43 4q-104 0 -105 -151v-822q0 -154 105 -153q16 0 43 4q39 6 55 6q63 0 63 -66q0 -74 -90 -73h-14q-8 2 -14 2l-107 16q-53 8 -112 8q-86 0 -154 -10l-94 -14q-4 0 -15 -2h-16q-88 0 -88 73zM158 1507q0 31 49 62l280 174q33 20 64 20q78 0 78 -82q0 -47 -78 -79 l-313 -136q-14 -6 -29 -6q-51 0 -51 47z" />
<glyph unicode="&#xce;" horiz-adv-x="782" d="M16 1507q0 23 47 56l279 194q23 16 41 17q20 0 43 -17l279 -194q45 -31 45 -56q0 -39 -43 -39q-14 0 -39 9q-8 4 -39 18l-246 115l-246 -115l-37 -18q-25 -8 -37 -9h-2q-45 0 -45 39zM39 63q0 66 63 66q10 0 56 -4q23 -6 43 -6q104 0 104 153v822q0 152 -104 151 q-29 0 -43 -4q-33 -6 -56 -6q-27 0 -45 19.5t-18 48.5q0 72 90 71q12 0 29 -2l108 -14q61 -8 127 -8q63 0 139 10l93 12q16 2 28 2q90 0 90 -71q0 -29 -18 -48.5t-45 -19.5q-20 0 -55 6q-14 4 -43 4q-104 0 -105 -151v-822q0 -154 105 -153q16 0 43 4q39 6 55 6q63 0 63 -66 q0 -74 -90 -73h-14q-8 2 -14 2l-107 16q-53 8 -112 8q-86 0 -154 -10l-94 -14q-4 0 -15 -2h-16q-88 0 -88 73z" />
<glyph unicode="&#xcf;" horiz-adv-x="782" d="M39 63q0 66 63 66q10 0 56 -4q23 -6 43 -6q104 0 104 153v822q0 152 -104 151q-29 0 -43 -4q-33 -6 -56 -6q-27 0 -45 19.5t-18 48.5q0 72 90 71q12 0 29 -2l108 -14q61 -8 127 -8q63 0 139 10l93 12q16 2 28 2q90 0 90 -71q0 -29 -18 -48.5t-45 -19.5q-20 0 -55 6 q-14 4 -43 4q-104 0 -105 -151v-822q0 -154 105 -153q16 0 43 4q39 6 55 6q63 0 63 -66q0 -74 -90 -73h-14q-8 2 -14 2l-107 16q-53 8 -112 8q-86 0 -154 -10l-94 -14q-4 0 -15 -2h-16q-88 0 -88 73zM74 1632q0 55 39 93t94 38t94 -37.5t39 -93.5q0 -55 -39 -93t-94 -38 t-94 38t-39 93zM444 1632q0 53 39 92t92 39q55 0 94.5 -37.5t39.5 -93.5q0 -53 -39.5 -92t-94.5 -39q-53 0 -92 39t-39 92z" />
<glyph unicode="&#xd1;" horiz-adv-x="1564" d="M37 1303q0 72 88 71q12 0 33 -2q102 -10 157 -10q31 0 92.5 6t92.5 6q63 0 84 -43l22 -49l551 -1145v826q0 160 -2 176q-18 106 -102 106q-16 0 -49 -5t-50 -5q-27 0 -46 19.5t-19 45.5q0 74 92 74q18 0 27 -2l92 -12q61 -8 114 -8t142 12q31 4 71 10q4 0 15 2h14 q88 0 88 -71q0 -70 -82 -70q-14 0 -22 2h-21q-61 0 -79.5 -26.5t-22.5 -116.5l-4 -117l-4 -209v-547q0 -141 -32 -198.5t-110 -57.5q-100 0 -170 144l-536 1116v-953q0 -154 104 -153q16 0 49 5t50 5q66 0 65 -68q0 -72 -92 -71h-12q-10 2 -15 2l-84 12q-70 10 -131 10 q-53 0 -137 -10l-100 -12q-4 0 -15 -2h-16q-88 0 -88 71q0 63 65 64q10 0 56 -4q23 -6 43 -6q104 0 104 153v144l2 180v176l-2 324q0 154 -106 153q-14 0 -41 -4q-39 -6 -58 -6q-66 0 -65 68zM500 1538q0 72 64.5 128t148.5 56q59 0 149 -30l78 -27q41 -14 70 -14 q53 0 88 35l30 30q10 10 23 10q33 0 33 -32q0 -70 -65.5 -123t-151.5 -53q-51 0 -131 26l-7 2q-115 39 -157 39q-66 0 -94 -39l-19 -24q-14 -18 -29 -19q-31 0 -30 35z" />
<glyph unicode="&#xd2;" horiz-adv-x="1341" d="M78 684q0 340 159.5 533.5t440.5 193.5q268 0 427 -188.5t159 -509.5q0 -348 -161 -553t-435 -205q-272 0 -431 196.5t-159 532.5zM258 686q0 -279 108.5 -431.5t303.5 -152.5q190 0 301.5 159t111.5 431q0 274 -106 423t-305 149q-197 0 -305.5 -151.5t-108.5 -426.5z M426 1681q0 82 76 82q33 0 65 -20l279 -174q49 -33 49 -62q0 -47 -51 -47q-14 0 -29 6l-313 136q-76 33 -76 79z" />
<glyph unicode="&#xd3;" horiz-adv-x="1341" d="M78 684q0 340 159.5 533.5t440.5 193.5q268 0 427 -188.5t159 -509.5q0 -348 -161 -553t-435 -205q-272 0 -431 196.5t-159 532.5zM258 686q0 -279 108.5 -431.5t303.5 -152.5q190 0 301.5 159t111.5 431q0 274 -106 423t-305 149q-197 0 -305.5 -151.5t-108.5 -426.5z M436 1507q0 29 51 62l279 174q33 20 63 20q78 0 78 -82q0 -47 -76 -79l-313 -136q-14 -6 -31 -6q-51 0 -51 47z" />
<glyph unicode="&#xd4;" horiz-adv-x="1341" d="M78 684q0 340 159.5 533.5t440.5 193.5q268 0 427 -188.5t159 -509.5q0 -348 -161 -553t-435 -205q-272 0 -431 196.5t-159 532.5zM258 686q0 -279 108.5 -431.5t303.5 -152.5q190 0 301.5 159t111.5 431q0 274 -106 423t-305 149q-197 0 -305.5 -151.5t-108.5 -426.5z M297 1507q0 23 47 56l277 194q23 16 43 17q20 0 43 -17l276 -194q47 -33 47 -56q0 -39 -43 -39q-20 0 -39 9q-8 4 -39 18l-245 115l-285 -133q-25 -8 -35 -9h-4q-43 0 -43 39z" />
<glyph unicode="&#xd5;" horiz-adv-x="1341" d="M78 684q0 340 159.5 533.5t440.5 193.5q268 0 427 -188.5t159 -509.5q0 -348 -161 -553t-435 -205q-272 0 -431 196.5t-159 532.5zM258 686q0 -279 108.5 -431.5t303.5 -152.5q190 0 301.5 159t111.5 431q0 274 -106 423t-305 149q-197 0 -305.5 -151.5t-108.5 -426.5z M330 1538q0 74 64.5 129t148.5 55q55 0 147 -30l80 -27q43 -14 68 -14q53 0 88 35l30 30q10 10 25 10q31 0 31 -32q0 -70 -65.5 -123t-149.5 -53q-55 0 -140 28q-115 39 -155 39q-68 0 -96 -39l-19 -24q-14 -18 -29 -19q-29 0 -28 35z" />
<glyph unicode="&#xd6;" horiz-adv-x="1341" d="M78 684q0 340 159.5 533.5t440.5 193.5q268 0 427 -188.5t159 -509.5q0 -348 -161 -553t-435 -205q-272 0 -431 196.5t-159 532.5zM258 686q0 -279 108.5 -431.5t303.5 -152.5q190 0 301.5 159t111.5 431q0 274 -106 423t-305 149q-197 0 -305.5 -151.5t-108.5 -426.5z M354 1632q0 55 39 93t94 38t93 -37.5t38 -93.5q0 -55 -38 -93t-93 -38t-94 38t-39 93zM725 1632q0 53 39 92t92 39q55 0 93 -38.5t38 -92.5q0 -53 -39 -92t-92 -39t-92 39t-39 92z" />
<glyph unicode="&#xd8;" horiz-adv-x="1341" d="M78 657q0 348 161 551t437 203q137 0 266 -59l72 131q14 27 39 26h90q18 0 18 -20q0 -2 -2 -6l-106 -205q86 -102 123 -172q88 -170 88 -418q0 -336 -159 -534.5t-427 -198.5q-150 0 -287 61l-65 -127q-14 -27 -39 -26h-97q-16 0 -16 16q0 6 2 10l111 205 q-209 207 -209 563zM258 666q0 -266 98 -430l525 989q-82 47 -201 47q-201 0 -311.5 -159t-110.5 -447zM455 139q92 -47 198 -47q207 0 318.5 149.5t111.5 426.5q0 266 -77 409l-29 45z" />
<glyph unicode="&#xd9;" horiz-adv-x="1454" d="M20 1305q0 70 78 69q33 0 70 -6q100 -16 186 -16q88 0 203 18q25 4 53 4q84 0 84 -69q0 -70 -71 -70q-16 0 -49 5t-50 5q-66 0 -88 -69q-10 -31 -12 -125l-4 -131l-8 -166v-316q0 -143 31.5 -208.5t119.5 -102.5q82 -35 168 -35q113 0 193 43t103.5 116t25.5 185l4 527 q0 156 -4 176q-18 104 -105 104q-14 0 -41 -4q-39 -6 -55 -6q-27 0 -46.5 20.5t-19.5 46.5q0 74 91 74q14 0 28 -2l121 -16q45 -6 102 -6q55 0 93 6l88 14q37 6 49 6q86 0 86 -69q0 -70 -84 -70h-23q-6 2 -20 2q-61 0 -75.5 -61.5t-14.5 -315.5v-358q0 -133 -8 -193 q-16 -102 -70 -178q-123 -178 -416 -178q-360 0 -465 235q-33 72 -32 224q0 74 6 218t6 218v108q0 150 -2 168q-14 113 -80 113h-14q-10 -2 -18.5 -3t-27.5 -1q-86 0 -86 70zM485 1681q0 35 22.5 58.5t55.5 23.5q31 0 64 -20l278 -174q51 -33 51 -62q0 -47 -51 -47 q-14 0 -28 6l-314 136q-78 33 -78 79z" />
<glyph unicode="&#xda;" horiz-adv-x="1454" d="M20 1305q0 70 78 69q33 0 70 -6q100 -16 186 -16q88 0 203 18q25 4 53 4q84 0 84 -69q0 -70 -71 -70q-16 0 -49 5t-50 5q-66 0 -88 -69q-10 -31 -12 -125l-4 -131l-8 -166v-316q0 -143 31.5 -208.5t119.5 -102.5q82 -35 168 -35q113 0 193 43t103.5 116t25.5 185l4 527 q0 156 -4 176q-18 104 -105 104q-14 0 -41 -4q-39 -6 -55 -6q-27 0 -46.5 20.5t-19.5 46.5q0 74 91 74q14 0 28 -2l121 -16q45 -6 102 -6q55 0 93 6l88 14q37 6 49 6q86 0 86 -69q0 -70 -84 -70h-23q-6 2 -20 2q-61 0 -75.5 -61.5t-14.5 -315.5v-358q0 -133 -8 -193 q-16 -102 -70 -178q-123 -178 -416 -178q-360 0 -465 235q-33 72 -32 224q0 74 6 218t6 218v108q0 150 -2 168q-14 113 -80 113h-14q-10 -2 -18.5 -3t-27.5 -1q-86 0 -86 70zM524 1507q0 29 51 62l279 174q33 20 64 20q77 0 77 -82q0 -47 -75 -79l-314 -136q-14 -6 -31 -6 q-51 0 -51 47z" />
<glyph unicode="&#xdb;" horiz-adv-x="1454" d="M20 1305q0 70 78 69q33 0 70 -6q100 -16 186 -16q88 0 203 18q25 4 53 4q84 0 84 -69q0 -70 -71 -70q-16 0 -49 5t-50 5q-66 0 -88 -69q-10 -31 -12 -125l-4 -131l-8 -166v-316q0 -143 31.5 -208.5t119.5 -102.5q82 -35 168 -35q113 0 193 43t103.5 116t25.5 185l4 527 q0 156 -4 176q-18 104 -105 104q-14 0 -41 -4q-39 -6 -55 -6q-27 0 -46.5 20.5t-19.5 46.5q0 74 91 74q14 0 28 -2l121 -16q45 -6 102 -6q55 0 93 6l88 14q37 6 49 6q86 0 86 -69q0 -70 -84 -70h-23q-6 2 -20 2q-61 0 -75.5 -61.5t-14.5 -315.5v-358q0 -133 -8 -193 q-16 -102 -70 -178q-123 -178 -416 -178q-360 0 -465 235q-33 72 -32 224q0 74 6 218t6 218v108q0 150 -2 168q-14 113 -80 113h-14q-10 -2 -18.5 -3t-27.5 -1q-86 0 -86 70zM356 1507q0 23 47 56l279 194q23 16 43 17q20 0 43 -17l276 -194q47 -33 48 -56q0 -39 -45 -39 q-14 0 -39 9q-8 4 -37 18l-246 115l-285 -133q-25 -8 -37 -9h-2q-45 0 -45 39z" />
<glyph unicode="&#xdc;" horiz-adv-x="1454" d="M20 1305q0 70 78 69q33 0 70 -6q100 -16 186 -16q88 0 203 18q25 4 53 4q84 0 84 -69q0 -70 -71 -70q-16 0 -49 5t-50 5q-66 0 -88 -69q-10 -31 -12 -125l-4 -131l-8 -166v-316q0 -143 31.5 -208.5t119.5 -102.5q82 -35 168 -35q113 0 193 43t103.5 116t25.5 185l4 527 q0 156 -4 176q-18 104 -105 104q-14 0 -41 -4q-39 -6 -55 -6q-27 0 -46.5 20.5t-19.5 46.5q0 74 91 74q14 0 28 -2l121 -16q45 -6 102 -6q55 0 93 6l88 14q37 6 49 6q86 0 86 -69q0 -70 -84 -70h-23q-6 2 -20 2q-61 0 -75.5 -61.5t-14.5 -315.5v-358q0 -133 -8 -193 q-16 -102 -70 -178q-123 -178 -416 -178q-360 0 -465 235q-33 72 -32 224q0 74 6 218t6 218v108q0 150 -2 168q-14 113 -80 113h-14q-10 -2 -18.5 -3t-27.5 -1q-86 0 -86 70zM424 1632q0 55 39 93t94 38q53 0 92 -37.5t39 -93.5q0 -55 -39 -93t-92 -38q-55 0 -94 38t-39 93z M793 1632q0 53 38.5 92t94.5 39q53 0 92 -37.5t39 -93.5q0 -55 -39 -93t-92 -38q-55 0 -94 39t-39 92z" />
<glyph unicode="&#xdf;" d="M41 61q0 66 76 66q27 0 39 -2q31 -8 51 -8q49 0 59 84q2 16 2 118v39v86q-2 45 -2 48v133q0 137 -2 151q-8 119 -55 119q-18 0 -37 -4h-10q-8 -2 -12 -2q-78 0 -78 67q0 66 65 66q8 0 41 -4q27 -8 53 -8q45 0 66 90q41 178 174 264q92 59 236 59q150 0 251 -83t101 -203 q0 -117 -107 -199l-82 -64q-47 -37 -47 -59q0 -37 78 -82q135 -78 184.5 -114.5t90.5 -94.5q59 -82 59 -190q0 -154 -104.5 -261.5t-251.5 -107.5q-137 0 -228 92q-2 -80 -65 -80q-70 0 -70 91q0 31 4 55q10 63 10 108q0 25 -5 74t-5 74q0 86 72 86q63 0 63 -88v-33 q-2 -10 -2 -35q0 -96 53.5 -152.5t145.5 -56.5t154.5 64.5t62.5 159.5q0 78 -43 129t-184 141l-119 76q-90 57 -90 135q0 63 98 142t130 119t32 85q0 59 -53.5 98t-134.5 39q-162 0 -232 -131q-61 -115 -61 -338v-135l12 -565q2 -127 -92 -127q-16 0 -46 6t-46 6 q-18 0 -56.5 -6t-54.5 -6q-88 0 -88 69z" />
<glyph unicode="&#xe0;" horiz-adv-x="1155" d="M61 266q0 170 146 250q55 31 95 40t161 24q172 18 224 51t52 121q0 84 -58 132t-163 48q-92 0 -172 -51q-31 -20 -31 -43q0 -8 19 -21q29 -20 28 -69q0 -41 -29.5 -68t-74.5 -27q-53 0 -89 37t-36 90q0 115 113.5 197t275.5 82q373 0 373 -359v-413q0 -98 4 -117 q12 -72 70 -72q72 0 71 131v101q0 66 64 65q68 0 67 -98v-10l-2 -117q-3 -197 -208 -197q-168 0 -207 146q-104 -154 -328 -154q-166 0 -265.5 82t-99.5 219zM227 268q0 -78 56.5 -123t152.5 -45q137 0 216 75t81 206l2 145q-45 -41 -95 -57t-179 -29q-233 -23 -234 -172z M266 1358q0 74 72 74q27 0 59 -21l258 -162q43 -27 43 -53q0 -49 -43 -49q-2 0 -26 6l-291 127q-72 31 -72 78z" />
<glyph unicode="&#xe1;" horiz-adv-x="1155" d="M61 266q0 170 146 250q55 31 95 40t161 24q172 18 224 51t52 121q0 84 -58 132t-163 48q-92 0 -172 -51q-31 -20 -31 -43q0 -8 19 -21q29 -20 28 -69q0 -41 -29.5 -68t-74.5 -27q-53 0 -89 37t-36 90q0 115 113.5 197t275.5 82q373 0 373 -359v-413q0 -98 4 -117 q12 -72 70 -72q72 0 71 131v101q0 66 64 65q68 0 67 -98v-10l-2 -117q-3 -197 -208 -197q-168 0 -207 146q-104 -154 -328 -154q-166 0 -265.5 82t-99.5 219zM227 268q0 -78 56.5 -123t152.5 -45q137 0 216 75t81 206l2 145q-45 -41 -95 -57t-179 -29q-233 -23 -234 -172z M338 1196q0 27 43 53l258 162q33 20 61 21q72 0 72 -70q0 -51 -72 -82l-292 -127q-25 -6 -27 -6q-43 0 -43 49z" />
<glyph unicode="&#xe2;" horiz-adv-x="1155" d="M61 266q0 170 146 250q55 31 95 40t161 24q172 18 224 51t52 121q0 84 -58 132t-163 48q-92 0 -172 -51q-31 -20 -31 -43q0 -8 19 -21q29 -20 28 -69q0 -41 -29.5 -68t-74.5 -27q-53 0 -89 37t-36 90q0 115 113.5 197t275.5 82q373 0 373 -359v-413q0 -98 4 -117 q12 -72 70 -72q72 0 71 131v101q0 66 64 65q68 0 67 -98v-10l-2 -117q-3 -197 -208 -197q-168 0 -207 146q-104 -154 -328 -154q-166 0 -265.5 82t-99.5 219zM193 1192q0 18 45 51l256 182q25 14 41 15q18 0 38 -15l258 -182q14 -10 33 -22q10 -8 13 -25v-4q0 -35 -41 -35 q-21 0 -74 25l-227 106l-230 -106q-53 -25 -72 -25q-41 0 -40 35zM227 268q0 -78 56.5 -123t152.5 -45q137 0 216 75t81 206l2 145q-45 -41 -95 -57t-179 -29q-233 -23 -234 -172z" />
<glyph unicode="&#xe3;" horiz-adv-x="1155" d="M61 266q0 170 146 250q55 31 95 40t161 24q172 18 224 51t52 121q0 84 -58 132t-163 48q-92 0 -172 -51q-31 -20 -31 -43q0 -8 19 -21q29 -20 28 -69q0 -41 -29.5 -68t-74.5 -27q-53 0 -89 37t-36 90q0 115 113.5 197t275.5 82q373 0 373 -359v-413q0 -98 4 -117 q12 -72 70 -72q72 0 71 131v101q0 66 64 65q68 0 67 -98v-10l-2 -117q-3 -197 -208 -197q-168 0 -207 146q-104 -154 -328 -154q-166 0 -265.5 82t-99.5 219zM217 1217q0 70 59.5 121t137.5 51q53 0 139 -29l74 -25q37 -12 63 -12q47 0 82 33l29 26q10 10 22 11q29 0 29 -31 q0 -63 -61.5 -113.5t-139.5 -50.5q-47 0 -129 27q-115 37 -147 37q-59 0 -88 -37l-17 -21q-14 -18 -26 -18q-27 0 -27 31zM227 268q0 -78 56.5 -123t152.5 -45q137 0 216 75t81 206l2 145q-45 -41 -95 -57t-179 -29q-233 -23 -234 -172z" />
<glyph unicode="&#xe4;" horiz-adv-x="1155" d="M61 266q0 170 146 250q55 31 95 40t161 24q172 18 224 51t52 121q0 84 -58 132t-163 48q-92 0 -172 -51q-31 -20 -31 -43q0 -8 19 -21q29 -20 28 -69q0 -41 -29.5 -68t-74.5 -27q-53 0 -89 37t-36 90q0 115 113.5 197t275.5 82q373 0 373 -359v-413q0 -98 4 -117 q12 -72 70 -72q72 0 71 131v101q0 66 64 65q68 0 67 -98v-10l-2 -117q-3 -197 -208 -197q-168 0 -207 146q-104 -154 -328 -154q-166 0 -265.5 82t-99.5 219zM227 268q0 -78 56.5 -123t152.5 -45q137 0 216 75t81 206l2 145q-45 -41 -95 -57t-179 -29q-233 -23 -234 -172z M227 1284q0 47 33 81t80 34t81 -34t34 -81t-33 -81t-80 -34t-81 34t-34 81zM592 1284q0 47 32.5 81t80.5 34q47 0 80.5 -34t33.5 -81t-33.5 -81t-80.5 -34q-45 0 -79 34t-34 81z" />
<glyph unicode="&#xe5;" horiz-adv-x="1155" d="M61 266q0 170 146 250q55 31 95 40t161 24q172 18 224 51t52 121q0 84 -58 132t-163 48q-92 0 -172 -51q-31 -20 -31 -43q0 -8 19 -21q29 -20 28 -69q0 -41 -29.5 -68t-74.5 -27q-53 0 -89 37t-36 90q0 115 113.5 197t275.5 82q373 0 373 -359v-413q0 -98 4 -117 q12 -72 70 -72q72 0 71 131v101q0 66 64 65q68 0 67 -98v-10l-2 -117q-3 -197 -208 -197q-168 0 -207 146q-104 -154 -328 -154q-166 0 -265.5 82t-99.5 219zM227 268q0 -78 56.5 -123t152.5 -45q137 0 216 75t81 206l2 145q-45 -41 -95 -57t-179 -29q-233 -23 -234 -172z M334 1313q0 78 56 133t134 55t133.5 -55t55.5 -133t-55.5 -132.5t-133.5 -54.5t-134 55.5t-56 131.5zM428 1313q0 -39 28.5 -66.5t67.5 -27.5t65.5 27.5t26.5 66.5t-26.5 66.5t-65.5 27.5q-41 0 -68.5 -27.5t-27.5 -66.5z" />
<glyph unicode="&#xe6;" horiz-adv-x="1714" d="M61 279q0 84 46.5 161.5t121.5 116.5q121 63 349 64h124q33 0 41.5 10t8.5 49q0 117 -67 184.5t-181 67.5q-92 0 -158 -43q-31 -20 -31 -39q0 -4 9 -16q27 -39 26 -70q0 -45 -32.5 -75t-79.5 -30q-51 0 -85 34t-34 87q0 113 116.5 196t272.5 83q170 0 270 -88 q45 -39 76 -115q143 203 358 203q188 0 310.5 -133t122.5 -340q0 -102 -54 -103h-645q-45 0 -45 -39q0 -147 86 -245.5t215 -98.5q92 0 163 48.5t99 127.5l17 48q16 45 65 45q33 0 55.5 -21.5t22.5 -52.5q0 -125 -135 -227.5t-299 -102.5q-240 0 -363 203 q-113 -203 -374 -203q-178 0 -285 85t-107 229zM227 283q0 -82 64.5 -132.5t167.5 -50.5q150 0 227 95q59 72 59 215v28q0 31 -7 38t-38 7h-163q-309 0 -310 -200zM918 649q0 -29 47 -28h465q47 0 47 26q0 111 -81 194t-190 83q-113 0 -200.5 -83t-87.5 -192z" />
<glyph unicode="&#xe7;" horiz-adv-x="1044" d="M80 500q0 254 132 406.5t351 152.5q164 0 272.5 -89t108.5 -227q0 -76 -42 -125t-107 -49q-51 0 -85 31t-34 76q0 82 102 94q-10 72 -68.5 113t-150.5 41q-141 0 -227 -113t-86 -299q0 -193 81 -302.5t224 -109.5q90 0 156.5 51.5t91.5 141.5q20 72 24 82q23 41 66 41 q35 0 57.5 -22.5t22.5 -57.5q0 -49 -33 -121t-78 -121q-94 -104 -283 -129l-26 -63q37 6 53 6q74 0 126 -45t52 -109q0 -72 -65.5 -121t-161.5 -49q-84 0 -149.5 37t-65.5 84q0 18 14.5 33.5t30.5 15.5q23 0 37 -16l22 -25q35 -39 105 -39q106 0 106 78q0 72 -92 72 q-23 0 -47 -8l-49 -17q-6 -2 -23 -2q-27 0 -26 23q0 8 10 33l49 118q-109 18 -172 60q-223 147 -223 469z" />
<glyph unicode="&#xe8;" horiz-adv-x="1081" d="M80 498q0 250 135 405.5t352 155.5q193 0 318 -129t125 -328q0 -78 -10.5 -95.5t-59.5 -17.5h-651q-27 0 -35 -7t-8 -23q0 -154 92 -256.5t229 -102.5q90 0 165 49.5t97 124.5l19 60q14 49 67 49q76 0 76 -78q0 -133 -135 -236.5t-307 -103.5q-215 0 -342 144.5 t-127 388.5zM266 655q0 -29 45 -28h490q43 0 43 28q0 109 -82 189t-193 80q-115 0 -209 -83.5t-94 -185.5zM324 1358q0 31 21 52.5t50 21.5q27 0 60 -21l260 -162q41 -25 41 -53q0 -49 -43 -49q-2 0 -27 6l-291 127q-72 31 -71 78z" />
<glyph unicode="&#xe9;" horiz-adv-x="1081" d="M80 498q0 250 135 405.5t352 155.5q193 0 318 -129t125 -328q0 -78 -10.5 -95.5t-59.5 -17.5h-651q-27 0 -35 -7t-8 -23q0 -154 92 -256.5t229 -102.5q90 0 165 49.5t97 124.5l19 60q14 49 67 49q76 0 76 -78q0 -133 -135 -236.5t-307 -103.5q-215 0 -342 144.5 t-127 388.5zM266 655q0 -29 45 -28h490q43 0 43 28q0 109 -82 189t-193 80q-115 0 -209 -83.5t-94 -185.5zM342 1196q0 27 43 53l258 162q33 20 62 21q71 0 71 -70q0 -49 -74 -82l-290 -127q-25 -6 -27 -6q-43 0 -43 49z" />
<glyph unicode="&#xea;" horiz-adv-x="1081" d="M80 498q0 250 135 405.5t352 155.5q193 0 318 -129t125 -328q0 -78 -10.5 -95.5t-59.5 -17.5h-651q-27 0 -35 -7t-8 -23q0 -154 92 -256.5t229 -102.5q90 0 165 49.5t97 124.5l19 60q14 49 67 49q76 0 76 -78q0 -133 -135 -236.5t-307 -103.5q-215 0 -342 144.5 t-127 388.5zM229 1192q0 18 45 51l258 182q20 14 39 15q16 0 41 -15l258 -182q14 -10 31 -22q10 -8 12 -25v-4q0 -35 -41 -35q-18 0 -71 25l-230 106l-227 -106q-53 -25 -72 -25q-43 0 -43 35zM266 655q0 -29 45 -28h490q43 0 43 28q0 109 -82 189t-193 80 q-115 0 -209 -83.5t-94 -185.5z" />
<glyph unicode="&#xeb;" horiz-adv-x="1081" d="M80 498q0 250 135 405.5t352 155.5q193 0 318 -129t125 -328q0 -78 -10.5 -95.5t-59.5 -17.5h-651q-27 0 -35 -7t-8 -23q0 -154 92 -256.5t229 -102.5q90 0 165 49.5t97 124.5l19 60q14 49 67 49q76 0 76 -78q0 -133 -135 -236.5t-307 -103.5q-215 0 -342 144.5 t-127 388.5zM266 655q0 -29 45 -28h490q43 0 43 28q0 109 -82 189t-193 80q-115 0 -209 -83.5t-94 -185.5zM276 1284q0 47 33 81t80 34t81 -34t34 -81t-34 -81t-81 -34q-45 0 -79 34t-34 81zM641 1284q0 47 33 81t80 34t80.5 -34t33.5 -81t-33.5 -81t-80.5 -34q-45 0 -79 34 t-34 81z" />
<glyph unicode="&#xec;" horiz-adv-x="634" d="M33 61q0 68 69 68q16 0 48 -6t49 -6q49 0 59 131v178v168v178q-10 129 -61 129q-16 0 -46 -7t-45 -7q-74 0 -73 65q0 70 90 70q39 0 55 -2q66 -8 84 -8q16 0 50 5t50 5q59 0 60 -80q0 -8 -2 -24.5t-2 -24.5q-2 -16 -4 -127q-2 -84 -2 -172v-266q0 -102 2 -121 q10 -92 55 -92q10 0 51 10q10 4 31 4q78 0 78 -68q0 -29 -25.5 -49t-64.5 -20q-33 0 -99.5 9t-99.5 9q-53 0 -119 -8q-80 -10 -106 -10q-82 0 -82 69zM57 1358q0 31 21.5 52.5t50.5 21.5q27 0 59 -21l261 -162q43 -27 43 -53q0 -49 -46 -49q-2 0 -26 6l-291 127 q-72 31 -72 78z" />
<glyph unicode="&#xed;" horiz-adv-x="634" d="M33 61q0 68 69 68q16 0 48 -6t49 -6q49 0 59 131v178v168v178q-10 129 -61 129q-16 0 -46 -7t-45 -7q-74 0 -73 65q0 70 90 70q39 0 55 -2q66 -8 84 -8q16 0 50 5t50 5q59 0 60 -80q0 -8 -2 -24.5t-2 -24.5q-2 -16 -4 -127q-2 -84 -2 -172v-266q0 -102 2 -121 q10 -92 55 -92q10 0 51 10q10 4 31 4q78 0 78 -68q0 -29 -25.5 -49t-64.5 -20q-33 0 -99.5 9t-99.5 9q-53 0 -119 -8q-80 -10 -106 -10q-82 0 -82 69zM78 1196q0 27 43 53l258 162q33 20 61 21q72 0 72 -70q0 -49 -74 -82l-291 -127q-25 -6 -26 -6q-43 0 -43 49z" />
<glyph unicode="&#xee;" horiz-adv-x="632" d="M0 1192q0 20 37 51l225 182q18 14 35 15q14 0 35 -15l223 -182q39 -33 39 -51q0 -35 -35 -35q-18 0 -63 25l-199 106l-199 -106q-45 -25 -63 -25q-35 0 -35 35zM33 61q0 68 69 68q16 0 48 -6t49 -6q49 0 59 131v178v168v178q-10 129 -61 129q-16 0 -46 -7t-45 -7 q-74 0 -73 65q0 70 90 70q39 0 55 -2q66 -8 84 -8q16 0 50 5t50 5q59 0 60 -80q0 -8 -2 -24.5t-2 -24.5q-2 -16 -4 -127q-2 -84 -2 -172v-266q0 -102 2 -121q10 -92 55 -92q10 0 51 10q10 4 31 4q78 0 78 -68q0 -29 -25.5 -49t-64.5 -20q-33 0 -99.5 9t-99.5 9 q-53 0 -119 -8q-80 -10 -106 -10q-82 0 -82 69z" />
<glyph unicode="&#xef;" horiz-adv-x="634" d="M0 1284q0 47 34 81t81 34t80.5 -34t33.5 -81t-33.5 -81t-80.5 -34t-81 34t-34 81zM33 61q0 68 69 68q16 0 48 -6t49 -6q49 0 59 131v178v168v178q-10 129 -61 129q-16 0 -46 -7t-45 -7q-74 0 -73 65q0 70 90 70q39 0 55 -2q66 -8 84 -8q16 0 50 5t50 5q59 0 60 -80 q0 -33 -4 -88q-4 -63 -4 -88q-2 -84 -2 -172v-266q0 -102 2 -121q10 -92 55 -92q10 0 51 10q10 4 31 4q78 0 78 -68q0 -29 -25.5 -49t-64.5 -20q-33 0 -99.5 9t-99.5 9q-51 0 -117 -8q-80 -10 -108 -10q-82 0 -82 69zM365 1284q0 47 33.5 81t80.5 34t81 -34t34 -81t-34 -81 t-81 -34t-80.5 34t-33.5 81z" />
<glyph unicode="&#xf1;" d="M33 61q0 66 65 66q10 0 38 -6t54 -6q61 0 64 118l4 228v248l-4 71q-4 70 -17.5 95.5t-46.5 25.5q-14 0 -41.5 -5t-42.5 -5q-74 0 -73 65q0 68 92 68q12 0 20 -2l76 -8q33 0 58 4q53 4 55 4q59 0 59 -61v-58q123 156 328 156q111 0 209 -56.5t133 -140.5q29 -70 29 -182 v-389q0 -88 2 -105q10 -70 55 -69q18 0 48 5t42 5q27 0 46.5 -18.5t19.5 -45.5q0 -31 -25 -51t-59 -20q-29 0 -94.5 8t-122.5 8q-53 0 -89 -4q-102 -12 -108 -12q-82 0 -82 71q0 63 70 64q16 0 36 -4q39 -8 50 -8q49 0 53 112l4 105l2 125v155q0 109 -10 150q-18 78 -80 121 q-68 47 -154 47q-164 0 -235 -117q-49 -80 -49 -272v-273q0 -90 12 -122.5t45 -32.5q16 0 45 8t47 8q63 0 64 -70q0 -68 -82 -67q-16 0 -107 12q-45 6 -100 6q-43 0 -115 -8q-90 -10 -102 -10q-86 0 -86 69zM360 1217q0 70 60.5 121t138.5 51q49 0 137 -29l76 -25 q37 -12 64 -12q47 0 82 33l28 26q10 10 23 11q29 0 28 -31q0 -63 -61.5 -113.5t-138.5 -50.5q-47 0 -129 27q-115 37 -148 37q-59 0 -88 -37l-16 -21q-14 -18 -27 -18q-29 0 -29 31z" />
<glyph unicode="&#xf2;" horiz-adv-x="1118" d="M78 512q0 250 130 398.5t349 148.5q223 0 352 -145.5t129 -395.5t-133 -401.5t-354 -151.5q-215 0 -344 148.5t-129 398.5zM246 512q0 -193 81 -302.5t226 -109.5q150 0 234.5 109.5t84.5 304.5q0 410 -311 410q-143 0 -225 -100.5t-90 -284.5v-27zM315 1358q0 74 72 74 q27 0 59 -21l261 -162q41 -25 41 -53q0 -49 -43 -49q-2 0 -27 6l-291 127q-72 31 -72 78z" />
<glyph unicode="&#xf3;" horiz-adv-x="1118" d="M78 512q0 250 130 398.5t349 148.5q223 0 352 -145.5t129 -395.5t-133 -401.5t-354 -151.5q-215 0 -344 148.5t-129 398.5zM246 512q0 -193 81 -302.5t226 -109.5q150 0 234.5 109.5t84.5 304.5q0 410 -311 410q-143 0 -225 -100.5t-90 -284.5v-27zM348 1196q0 27 41 53 l258 162q33 20 64 21q69 0 69 -70q0 -51 -71 -82l-291 -127q-31 -6 -29 -6q-41 0 -41 49z" />
<glyph unicode="&#xf4;" horiz-adv-x="1118" d="M78 512q0 250 130 398.5t349 148.5q223 0 352 -145.5t129 -395.5t-133 -401.5t-354 -151.5q-215 0 -344 148.5t-129 398.5zM217 1192q0 18 45 51l258 182q20 14 39 15q18 0 39 -15l258 -182q14 -10 33 -22q10 -8 12 -25v-4q0 -35 -41 -35q-21 0 -74 25l-227 106 l-229 -106q-53 -25 -72 -25q-41 0 -41 35zM246 512q0 -193 81 -302.5t226 -109.5q150 0 234.5 109.5t84.5 304.5q0 410 -311 410q-143 0 -225 -100.5t-90 -284.5v-27z" />
<glyph unicode="&#xf5;" horiz-adv-x="1118" d="M78 512q0 250 130 398.5t349 148.5q223 0 352 -145.5t129 -395.5t-133 -401.5t-354 -151.5q-215 0 -344 148.5t-129 398.5zM242 1217q0 70 59 121t137 51q53 0 140 -29l73 -25q37 -12 64 -12q53 0 82 33l28 26q10 10 23 11q29 0 29 -31q0 -66 -60.5 -115t-140.5 -49 q-47 0 -129 27q-115 37 -148 37q-59 0 -88 -37l-16 -21q-14 -18 -27 -18q-27 0 -26 31zM246 512q0 -193 81 -302.5t226 -109.5q150 0 234.5 109.5t84.5 304.5q0 410 -311 410q-143 0 -225 -100.5t-90 -284.5v-27z" />
<glyph unicode="&#xf6;" horiz-adv-x="1118" d="M78 512q0 250 130 398.5t349 148.5q223 0 352 -145.5t129 -395.5t-133 -401.5t-354 -151.5q-215 0 -344 148.5t-129 398.5zM246 512q0 -193 81 -302.5t226 -109.5q150 0 234.5 109.5t84.5 304.5q0 410 -311 410q-143 0 -225 -100.5t-90 -284.5v-27zM262 1284q0 47 34 81 t81 34t81 -34t34 -81t-34 -81t-81 -34t-81 34t-34 81zM627 1284q0 47 33.5 81t80.5 34t81 -34t34 -81t-34 -81t-81 -34t-80.5 34t-33.5 81z" />
<glyph unicode="&#xf7;" horiz-adv-x="1024" d="M68 612v140h888v-140h-888zM410 309q0 41 30.5 72t71.5 31t70.5 -31t29.5 -72t-29.5 -70.5t-70.5 -29.5t-71.5 29.5t-30.5 70.5zM410 1055q0 43 29.5 72.5t72.5 29.5q41 0 70.5 -30.5t29.5 -71.5t-29.5 -72t-70.5 -31t-71.5 31t-30.5 72z" />
<glyph unicode="&#xf8;" horiz-adv-x="1118" d="M78 475q0 258 138 421t357 163q119 0 215 -55l64 102q18 31 41 31h76q18 0 18 -17q0 -8 -4 -14l-102 -164q158 -152 157 -410q0 -256 -132 -411.5t-353 -155.5q-123 0 -236 58l-77 -125q-18 -31 -35 -31h-84q-14 0 -15 16q0 10 5 15l114 190q-147 168 -147 387zM244 481 q-1 -159 73 -274l396 690q-72 31 -131 31q-158 0 -248 -120t-90 -327zM397 133q74 -37 152 -37q154 0 243 120t89 327q0 178 -82 284z" />
<glyph unicode="&#xf9;" horiz-adv-x="1267" d="M0 956q0 66 88 66q20 0 60 -4t61 -4q18 0 63 6q31 4 35 4q63 0 64 -78v-43l-2 -133l-7 -152v-133q0 -178 29 -256q47 -129 225 -129q88 0 156 40t94 106q33 80 33 303v113v133q-10 98 -53 98q-23 0 -37 -4h-25q-72 0 -71 63q0 72 80 72q18 0 56 -4t56 -4q16 0 49 3t50 3 q61 0 61 -66q0 -29 -4 -45q-10 -78 -10 -229v-315q0 -125 2 -140q10 -109 57 -108q14 0 41 5t41 5q70 0 70 -68q0 -70 -86 -69q-18 0 -54 4q-51 6 -63 6q-6 0 -43 -4q-25 -6 -43 -6q-58 0 -58 59v64q-109 -150 -321 -150q-242 0 -336 150q-41 66 -45 153q-2 43 -2 181v169 q0 281 -59 281q-12 0 -39 -5t-41 -5q-72 0 -72 67zM373 1358q0 31 21 52.5t52 21.5q27 0 60 -21l258 -162q43 -27 43 -53q0 -49 -45 -49q-2 0 -27 6l-291 127q-72 31 -71 78z" />
<glyph unicode="&#xfa;" horiz-adv-x="1267" d="M0 956q0 66 88 66q20 0 60 -4t61 -4q18 0 63 6q31 4 35 4q63 0 64 -78v-43l-2 -133l-7 -152v-133q0 -178 29 -256q47 -129 225 -129q88 0 156 40t94 106q33 80 33 303v113v133q-10 98 -53 98q-23 0 -37 -4h-25q-72 0 -71 63q0 72 80 72q18 0 56 -4t56 -4q16 0 49 3t50 3 q61 0 61 -66q0 -29 -4 -45q-10 -78 -10 -229v-315q0 -125 2 -140q10 -109 57 -108q14 0 41 5t41 5q70 0 70 -68q0 -70 -86 -69q-18 0 -54 4q-51 6 -63 6q-6 0 -43 -4q-25 -6 -43 -6q-58 0 -58 59v64q-109 -150 -321 -150q-242 0 -336 150q-41 66 -45 153q-2 43 -2 181v169 q0 281 -59 281q-12 0 -39 -5t-41 -5q-72 0 -72 67zM449 1196q0 27 43 53l258 162q33 20 61 21q72 0 72 -70q0 -49 -74 -82l-291 -127q-25 -6 -26 -6q-43 0 -43 49z" />
<glyph unicode="&#xfb;" horiz-adv-x="1267" d="M0 956q0 66 88 66q20 0 60 -4t61 -4q18 0 63 6q31 4 35 4q63 0 64 -78v-43l-2 -133l-7 -152v-133q0 -178 29 -256q47 -129 225 -129q88 0 156 40t94 106q33 80 33 303v113v133q-10 98 -53 98q-23 0 -37 -4h-25q-72 0 -71 63q0 72 80 72q18 0 56 -4t56 -4q16 0 49 3t50 3 q61 0 61 -66q0 -29 -4 -45q-10 -78 -10 -229v-315q0 -125 2 -140q10 -109 57 -108q14 0 41 5t41 5q70 0 70 -68q0 -70 -86 -69q-18 0 -54 4q-51 6 -63 6q-6 0 -43 -4q-25 -6 -43 -6q-58 0 -58 59v64q-109 -150 -321 -150q-242 0 -336 150q-41 66 -45 153q-2 43 -2 181v169 q0 281 -59 281q-12 0 -39 -5t-41 -5q-72 0 -72 67zM262 1192q0 20 43 51l258 182q20 14 41 15q18 0 39 -15l258 -182q14 -10 28.5 -20.5t14.5 -26.5v-4q0 -35 -41 -35q-19 0 -72 25l-227 106l-229 -106q-53 -25 -72 -25q-41 0 -41 35z" />
<glyph unicode="&#xfc;" horiz-adv-x="1267" d="M0 956q0 66 88 66q20 0 60 -4t61 -4q18 0 63 6q31 4 35 4q63 0 64 -78v-43l-2 -133l-7 -152v-133q0 -178 29 -256q47 -129 225 -129q88 0 156 40t94 106q33 80 33 303v113v133q-10 98 -53 98q-23 0 -37 -4h-25q-72 0 -71 63q0 72 80 72q18 0 56 -4t56 -4q16 0 49 3t50 3 q61 0 61 -66q0 -29 -4 -45q-10 -78 -10 -229v-315q0 -125 2 -140q10 -109 57 -108q14 0 41 5t41 5q70 0 70 -68q0 -70 -86 -69q-18 0 -54 4q-51 6 -63 6q-6 0 -43 -4q-25 -6 -43 -6q-58 0 -58 59v64q-109 -150 -321 -150q-242 0 -336 150q-41 66 -45 153q-2 43 -2 181v169 q0 281 -59 281q-12 0 -39 -5t-41 -5q-72 0 -72 67zM309 1284q0 47 34 81t81 34t81 -34t34 -81t-34 -81t-81 -34t-81 34t-34 81zM674 1284q0 47 33.5 81t80.5 34t81 -34t34 -81t-34 -81t-81 -34t-80.5 34t-33.5 81z" />
<glyph unicode="&#xff;" horiz-adv-x="1230" d="M-53 -199q0 63 36.5 103.5t96.5 40.5q47 0 77.5 -28t30.5 -69q0 -66 -59 -84q31 -45 117 -45q109 0 195.5 81t86.5 182q0 51 -55 190l-225 569l-25 66q-35 92 -80 92q-12 0 -43.5 -6t-42.5 -6q-72 0 -71 65q0 70 94 70q31 0 47 -2l82 -10h16q14 -2 25 -2q74 0 158 8 q63 6 84 6q86 0 86 -68t-78 -67q-12 0 -39 5t-39 5q-29 0 -29 -29q0 -16 8 -41l236 -692l250 682q10 29 10 45q0 35 -47 35q-25 0 -39 -4q-33 -4 -43 -4q-68 0 -68 65q0 70 88 70q12 0 41 -4l74 -10q29 -4 62 -4q35 0 102.5 8t101.5 8q88 0 88 -68q0 -66 -67 -65 q-20 0 -31 4q-27 6 -37 6q-39 0 -80 -104l-278 -697q-92 -231 -174 -336q-139 -178 -348 -178q-125 0 -210 63.5t-85 153.5zM340 1284q0 47 34 81t81 34t79.5 -34t32.5 -81t-32.5 -81t-79.5 -34t-81 34t-34 81zM705 1284q0 47 33.5 81t80.5 34t80 -34t33 -81t-34 -81 t-79 -34q-47 0 -80.5 34t-33.5 81z" />
<glyph unicode="&#x152;" horiz-adv-x="2125" d="M76 672q0 334 157.5 532.5t425.5 198.5q244 0 406 -186q-4 16 -12.5 43.5t-8.5 54.5q0 25 26 42t63 17q27 0 102.5 -4t134.5 -4h141l187 2q27 0 84 4t88 4q104 0 104 -92q0 -37 -7 -107.5t-7 -107.5q0 -33 5 -95.5t5 -94.5q0 -86 -72 -86q-51 0 -65 45q-8 25 -8 92v108 l2 25q2 33 2 53q0 86 -62 109q-53 20 -258 20h-137q-96 0 -127 -25.5t-31 -105.5v-229q0 -61 27 -76q16 -8 62 -8h98q117 0 117 92q0 31 -7 61q-8 41 -8 70q0 78 74 78t74 -80q0 -14 -9 -72q-16 -113 -16 -227q0 -127 14 -219q6 -39 7 -66q0 -76 -72 -76q-70 0 -70 84 q0 23 5.5 66t5.5 66q0 90 -109 90h-104q-76 0 -84 -39q-4 -14 -5 -45v-338q0 -92 46 -113q25 -12 126 -12h218q158 0 203.5 36t45.5 156q0 27 -2 78t-2 76q0 106 74 106t74 -84q0 -39 -6 -115.5t-6 -115.5q0 -63 2 -88l6 -72v-12q0 -100 -97 -96l-98 4l-139 4l-148 6 l-143 -4q-78 -2 -162 -4q-57 -6 -94 -6q-76 0 -76 61q0 41 19 115q-61 -76 -88 -98q-119 -106 -312 -107q-266 0 -422.5 191.5t-156.5 519.5zM258 690q0 -276 108.5 -433t299.5 -157q186 0 288.5 155t102.5 439q0 272 -101.5 422t-287.5 150q-190 0 -300 -154t-110 -422z " />
<glyph unicode="&#x153;" horiz-adv-x="1826" d="M78 500q0 250 133 404.5t346 154.5q154 0 260 -82q66 -51 113 -148q119 229 387 230q203 0 321.5 -130t118.5 -351q0 -92 -53 -93h-655q-31 0 -38 -9t-7 -46q0 -137 91 -233.5t218 -96.5q88 0 168 52.5t96 121.5l14 60q12 47 68 47q78 0 78 -82q0 -92 -90 -190 q-132 -144 -355 -144q-131 0 -219 51.5t-160 169.5q-94 -221 -366 -221q-217 0 -343 143.5t-126 391.5zM246 506q0 -188 81 -297t222 -109q145 0 226 108.5t81 305.5q0 190 -81 300t-222 110t-224 -113t-83 -305zM1028 653q0 -31 45 -30h467q29 0 39 6t10 35 q0 109 -78.5 184.5t-191.5 75.5t-202 -83.5t-89 -187.5z" />
<glyph unicode="&#x178;" horiz-adv-x="1490" d="M-29 1300q0 74 82 74q33 0 82 -8q98 -16 184 -16q63 0 191 18q43 6 74 6q84 0 84 -71q0 -70 -101 -70l-20 2h-51l-41 2q-25 2 -25 -16q0 -8 2 -11.5l10 -17.5l314 -533l317 533q10 16 10 33q0 18 -26 18h-4l-37 -2l-53 -6q-35 -4 -54 -4q-84 0 -84 72t82 71q31 0 74 -6 q115 -16 199 -16q88 0 194 16q41 6 70 6q78 0 78 -71q0 -66 -76 -66q-31 0 -47 4q-33 4 -45 4q-53 0 -86 -49l-31 -47l-403 -633v-86q0 -209 17 -260t87 -51q16 0 50 5t50 5q63 0 64 -66q0 -74 -92 -73h-13q-8 2 -14 2l-113 14q-63 8 -125 8q-66 0 -124 -8l-105 -14 q-4 0 -12 -2h-15q-92 0 -92 71q0 68 66 68q16 0 48 -5t48 -5q86 0 105 108q2 19 2 181v38q-2 33 -2 56l-398 628q-39 61 -49 72q-31 31 -76 31q-25 0 -37 -2h-18q-14 -2 -20 -2q-94 0 -95 71zM430 1632q0 55 39 93t94 38t93 -37.5t38 -93.5q0 -55 -39 -93t-92 -38 q-55 0 -94 38t-39 93zM801 1632q0 53 38 92t93 39t93 -37.5t38 -93.5q0 -55 -39 -93t-92 -38q-55 0 -93 38t-38 93z" />
<glyph unicode="&#x2c6;" horiz-adv-x="1007" d="M162 1192q0 20 43 51l258 182q25 14 41 15q18 0 39 -15l258 -182q14 -10 33 -22q10 -10 10 -25v-4q0 -35 -41 -35q-19 0 -72 25l-227 106l-230 -106q-53 -25 -71 -25q-41 0 -41 35z" />
<glyph unicode="&#x2dc;" horiz-adv-x="1005" d="M184 1217q0 70 60.5 121t138.5 51q49 0 137 -29l76 -25q37 -12 63 -12q47 0 82 33l29 26q6 10 23 11q29 0 28 -31q0 -63 -61.5 -113.5t-138.5 -50.5q-47 0 -129 27q-115 37 -148 37q-59 0 -88 -37l-16 -21q-14 -18 -27 -18q-29 0 -29 31z" />
<glyph unicode="&#x2000;" horiz-adv-x="925" />
<glyph unicode="&#x2001;" horiz-adv-x="1851" />
<glyph unicode="&#x2002;" horiz-adv-x="925" />
<glyph unicode="&#x2003;" horiz-adv-x="1851" />
<glyph unicode="&#x2004;" horiz-adv-x="617" />
<glyph unicode="&#x2005;" horiz-adv-x="462" />
<glyph unicode="&#x2006;" horiz-adv-x="308" />
<glyph unicode="&#x2007;" horiz-adv-x="308" />
<glyph unicode="&#x2008;" horiz-adv-x="231" />
<glyph unicode="&#x2009;" horiz-adv-x="370" />
<glyph unicode="&#x200a;" horiz-adv-x="102" />
<glyph unicode="&#x2010;" horiz-adv-x="632" d="M76 547q0 72 82 71h319q82 0 82 -69q0 -74 -82 -74h-319q-82 0 -82 72z" />
<glyph unicode="&#x2011;" horiz-adv-x="632" d="M76 547q0 72 82 71h319q82 0 82 -69q0 -74 -82 -74h-319q-82 0 -82 72z" />
<glyph unicode="&#x2012;" horiz-adv-x="632" d="M76 547q0 72 82 71h319q82 0 82 -69q0 -74 -82 -74h-319q-82 0 -82 72z" />
<glyph unicode="&#x2013;" horiz-adv-x="1024" d="M68 612v140h888v-140h-888z" />
<glyph unicode="&#x2014;" horiz-adv-x="1564" d="M74 547q0 72 82 71h1255q82 0 82 -69q0 -74 -82 -74h-1255q-82 0 -82 72z" />
<glyph unicode="&#x2018;" horiz-adv-x="522" d="M113 1038q0 168 129 336q49 63 82 64q41 0 41 -41q0 -16 -23 -45q-59 -74 -94 -166q-12 -33 -12 -53q0 -33 38 -35l41 -2q43 -2 74 -39t31 -84q0 -59 -40 -97t-101 -38q-72 0 -119 56t-47 144z" />
<glyph unicode="&#x2019;" horiz-adv-x="524" d="M102 1303q0 57 41 96t103 39q70 0 116 -56.5t46 -144.5q0 -170 -127 -336q-49 -63 -82 -63q-41 0 -41 41q0 14 24 45q39 51 72 118.5t33 100.5t-39 35l-41 2q-41 2 -73 37.5t-32 85.5z" />
<glyph unicode="&#x201a;" horiz-adv-x="524" d="M102 90q0 57 41 96t101 39q72 0 118 -56t46 -144q0 -168 -127 -336q-47 -63 -82 -64q-41 0 -41 41q0 14 24 45q53 68 92 166q13 33 13 53q0 33 -39 35l-41 2q-41 2 -73 39t-32 84z" />
<glyph unicode="&#x201c;" horiz-adv-x="894" d="M115 1038q0 164 129 336q47 63 82 64q39 0 39 -41q0 -16 -23 -45q-41 -51 -73.5 -118.5t-32.5 -100.5t38 -35l41 -2q43 -2 75 -39t32 -84q0 -57 -41 -96t-102 -39q-72 0 -118 56t-46 144zM485 1038q0 164 129 336q47 63 82 64q39 0 39 -41q0 -16 -22 -45 q-55 -70 -92 -166q-13 -33 -13 -53q0 -33 39 -35l41 -2q41 -2 73 -39t32 -84q0 -57 -41 -96t-103 -39q-72 0 -118 56t-46 144z" />
<glyph unicode="&#x201d;" horiz-adv-x="894" d="M102 1303q0 57 41 96t103 39q70 0 116 -56.5t46 -144.5q0 -168 -127 -336q-47 -63 -82 -63q-41 0 -41 41q0 16 22 45q41 51 74 118.5t33 100.5t-39 35l-41 2q-41 2 -73 37.5t-32 85.5zM473 1303q0 57 41 96t102 39q72 0 118 -56.5t46 -144.5q0 -166 -129 -336 q-49 -63 -82 -63q-39 0 -39 41q0 16 23 45q39 51 71.5 118.5t32.5 100.5t-36 35l-41 2q-43 2 -75 37.5t-32 85.5z" />
<glyph unicode="&#x201e;" horiz-adv-x="894" d="M102 90q0 57 41 96t101 39q72 0 118 -56t46 -144q0 -168 -127 -336q-47 -63 -82 -64q-41 0 -41 41q0 16 22 45q41 51 74 118.5t33 100.5t-39 35l-41 2q-41 2 -73 39t-32 84zM473 90q0 57 41 96t102 39q72 0 118 -56t46 -144q0 -164 -129 -336q-47 -63 -82 -64 q-39 0 -39 41q0 16 23 45q49 61 92 166q12 30 12 53q0 33 -36 35l-41 2q-43 2 -75 39t-32 84z" />
<glyph unicode="&#x2022;" horiz-adv-x="1366" d="M401 696q0 119 83 203t200 84q115 0 198 -84t83 -203t-83 -202.5t-198 -83.5q-117 0 -200 83.5t-83 202.5z" />
<glyph unicode="&#x2026;" horiz-adv-x="1675" d="M152 94q0 53 36.5 91t90.5 38q53 0 90 -38t37 -91t-37 -91t-90 -38t-90 38t-37 91zM711 94q0 53 36.5 91t90.5 38q53 0 90 -38t37 -91t-37 -91t-90 -38t-90 38t-37 91zM1270 94q0 53 36.5 91t90.5 38q53 0 90 -38t37 -91t-37 -91t-90 -38t-90 38t-37 91z" />
<glyph unicode="&#x202f;" horiz-adv-x="370" />
<glyph unicode="&#x2039;" horiz-adv-x="446" d="M88 547q0 6 6 18l203 324q12 20 31 20q27 0 26 -28q0 -19 -4 -31l-104 -303l108 -322q6 -18 6 -22q0 -31 -28 -31q-20 0 -33 21l-207 339q-4 4 -4 15z" />
<glyph unicode="&#x203a;" horiz-adv-x="448" d="M86 203q0 4 6 22l109 322l-105 303q-4 12 -4 31q0 29 29 28q16 0 29 -20l202 -324q8 -12 8 -18q0 -8 -6 -15l-207 -339q-12 -20 -32 -21q-29 0 -29 31z" />
<glyph unicode="&#x205f;" horiz-adv-x="462" />
<glyph unicode="&#x20ac;" d="M18 569q0 63 62 64h96v35q0 61 2 90l-94 -2q-66 0 -66 59q0 66 62 66h4l106 -4q84 535 537 534q215 0 336 -160q-4 8 -4 45l-2 25q0 8 -2 12v4q0 70 65 70q70 0 70 -86q0 -37 -8 -109q-8 -70 -8 -106q0 -37 8 -109q4 -47 4 -63q0 -92 -74 -92q-76 0 -76 98q0 150 -84 241 t-225 91q-317 0 -360 -398l292 3q72 0 72 -60q0 -63 -67 -63h-7l-299 4v-125l301 -2q72 0 72 -60q0 -66 -67 -65h-7l-290 6q39 -420 374 -420q141 0 226.5 79t97.5 226q8 94 78 95q84 0 84 -95q0 -188 -136.5 -315t-371.5 -127q-469 0 -535 557l-100 -2q-66 0 -66 59z" />
<glyph unicode="&#x2122;" horiz-adv-x="1851" d="M41 1083q0 16 2 52q0 16 2 41q2 18 2 28q0 18 -3 55t-3 56q0 55 51 55h29q25 -2 45 -2q6 0 94 -4q55 -2 131 -2q70 0 121 2q154 6 150 6q63 0 63 -53q0 2 -4 -45q-6 -72 -6 -78q0 -18 4 -57t4 -58q0 -53 -51 -53t-51 66q0 2 2 18v25l4 45q2 23 2 32q0 74 -84 74h-33 q-70 0 -74 -69l-4 -82v-390q0 -80 49 -79q4 0 13 2h12q14 4 33 4q43 0 43 -45t-58 -45q-12 0 -16 2l-57 8q-14 2 -72 2q-61 0 -76 -2l-57 -8q-6 -2 -17 -2q-57 0 -57 45t43 45q18 0 31 -4h14q8 -2 12 -2q49 0 50 79v465q0 76 -76 76h-37q-76 0 -76 -76q0 -16 2 -36l4 -44 v-28q0 -80 -51 -80q-49 0 -49 61zM762 629q0 43 43 43q16 0 33 -4h12q8 -2 12 -2q49 0 49 79v80l2 103v96l-2 102v80q0 80 -51 80h-10q-8 -2 -12 -2q-14 -4 -33 -4q-43 0 -43 43q0 47 59 47h17l39 -6q27 -4 55 -4q37 0 63 6q45 4 52 4q47 0 65 -61l8 -29l170 -559l189 598 q16 51 57 51h6q14 0 51 -5t58 -5q43 0 53 2l41 8h14q59 0 60 -47q0 -43 -43 -43q-16 0 -31 4q-6 0 -12 2h-13q-51 0 -51 -80v-458q0 -80 51 -80q10 0 28.5 3t27.5 3q43 0 43 -45q0 -47 -56 -47q-10 0 -18 2l-57 6q-39 4 -76 4q-47 0 -103 -8q-27 -4 -41 -4q-49 0 -49 45 t54 45h18l29 -4q27 0 36 38.5t11 157.5q0 41 2 111l2 102v197l-211 -649q-16 -49 -72 -50q-55 0 -71 50l-207 651l6 -528q0 -76 39 -76q16 0 35 2q4 2 14 2q51 0 51 -47t-53 -47q-12 0 -25 2l-53 8q-12 2 -68 2q-57 0 -69 -2l-49 -8q-4 -2 -15 -2q-61 0 -61 47z" />
<glyph unicode="&#x25fc;" horiz-adv-x="1024" d="M0 0v1024h1024v-1024h-1024z" />
</font>
</defs>
</svg>
