<?xml version="1.0" standalone="no"?>
<!DOCTYPE svg PUBLIC "-//W3C//DTD SVG 1.1//EN" "http://www.w3.org/Graphics/SVG/1.1/DTD/svg11.dtd" >
<svg xmlns="http://www.w3.org/2000/svg">
<metadata></metadata>
<defs>
<font id="ano_regularregular" horiz-adv-x="491" >
<font-face units-per-em="2048" ascent="1638" descent="-410" />
<missing-glyph horiz-adv-x="409" />
<glyph horiz-adv-x="2048" />
<glyph horiz-adv-x="2048" />
<glyph unicode="&#xd;" horiz-adv-x="2048" />
<glyph unicode=" "  horiz-adv-x="409" />
<glyph unicode="&#x09;" horiz-adv-x="409" />
<glyph unicode="&#xa0;" horiz-adv-x="409" />
<glyph unicode="!" d="M164 0v246h164v-246h-164zM164 451v1085h164v-1085h-164z" />
<glyph unicode="&#x22;" horiz-adv-x="819" d="M164 1065v471h164v-471h-164zM492 1065v471h163v-471h-163z" />
<glyph unicode="#" horiz-adv-x="1212" d="M41 492l31 143h245l58 266h-246l29 143h245l105 492h164l-105 -492h195l104 492h164l-104 -492h245l-28 -143h-246l-57 -266h245l-30 -143h-246l-104 -492h-164l104 492h-194l-105 -492h-164l105 492h-246zM481 635h195l57 266h-194z" />
<glyph unicode="$" horiz-adv-x="1308" d="M143 362l146 62q19 -134 98 -213.5t188 -101.5v616l-86 23q-99 27 -169 88t-102 138t-32 163q0 102 43 193.5t133.5 158.5t212.5 82v252h140v-250q159 -20 274.5 -123.5t143.5 -280.5l-140 -55q-22 132 -99.5 211.5t-178.5 99.5v-569l141 -37q152 -40 231.5 -148.5 t79.5 -246.5q0 -81 -29.5 -158.5t-84.5 -142.5t-142.5 -108.5t-195.5 -53.5v-248h-140v250q-163 23 -282 125t-150 274zM352 1147q0 -86 47.5 -154t137.5 -92l38 -10v534q-105 -22 -164 -101.5t-59 -176.5zM715 104q88 13 154.5 61t99 112.5t32.5 134.5q0 90 -55.5 161 t-163.5 99l-67 18v-586z" />
<glyph unicode="%" horiz-adv-x="1681" d="M82 1200q0 157 110 267t267 110q156 0 266.5 -110.5t110.5 -266.5q0 -155 -111 -265t-266 -110q-157 0 -267 110t-110 265zM225 1200q0 -98 69 -170t165 -72t164.5 72t68.5 170t-68.5 171t-164.5 73t-165 -73t-69 -171zM362 29l832 1548l123 -70l-832 -1548zM848 336 q0 156 110.5 266.5t266.5 110.5q155 0 266 -111t111 -266q0 -156 -110.5 -266.5t-266.5 -110.5q-157 0 -267 110t-110 267zM991 336q0 -98 69 -171t165 -73t164.5 73t68.5 171t-68.5 171t-164.5 73t-165 -73t-69 -171z" />
<glyph unicode="&#x26;" horiz-adv-x="1198" d="M72 385q0 119 68.5 221t205.5 162q-110 49 -176 146t-66 223q0 183 129 311.5t312 128.5q173 0 299.5 -119t138.5 -291l-145 -57q-6 61 -27.5 117t-56.5 103t-89 75.5t-120 28.5q-115 0 -196 -87t-81 -210t81 -210t196 -87v-144q-141 0 -223 -91t-82 -214 q0 -118 79.5 -203.5t225.5 -85.5q80 0 148 31.5t113.5 101t45.5 164.5v72h-135v143h481v-143h-182v-72q-1 -106 -41.5 -191.5t-107.5 -138t-150.5 -80.5t-173.5 -28q-107 0 -197.5 36t-149.5 95.5t-91.5 135.5t-32.5 157z" />
<glyph unicode="'" d="M164 1065v471h164v-471h-164z" />
<glyph unicode="(" horiz-adv-x="811" d="M102 768q0 128 22.5 250t69.5 232.5t113.5 196t160 142t204.5 70.5l37 -129q-108 -16 -194.5 -87t-141 -177t-83 -233.5t-28.5 -264.5t28.5 -264.5t83 -233.5t141 -177t194.5 -87l-37 -129q-111 14 -204.5 70.5t-160 142t-113.5 196t-69.5 232.5t-22.5 250z" />
<glyph unicode=")" horiz-adv-x="811" d="M102 6q108 16 194.5 87t141 177t83 233.5t28.5 264.5t-28.5 264.5t-83 233.5t-141 177t-194.5 87l37 129q138 -17 249 -99t179.5 -206.5t105 -274.5t36.5 -311t-36.5 -311t-105 -274.5t-179.5 -206.5t-249 -99z" />
<glyph unicode="*" horiz-adv-x="1067" d="M41 1118l51 156l361 -117v379h163v-379l361 117l49 -156l-358 -117l221 -307l-131 -96l-223 307l-224 -307l-133 96l223 307z" />
<glyph unicode="+" horiz-adv-x="1310" d="M82 696v144h491v491h164v-491h492v-144h-492v-491h-164v491h-491z" />
<glyph unicode="," horiz-adv-x="430" d="M-72 -219l279 481l141 -78l-278 -481z" />
<glyph unicode="-" horiz-adv-x="706" d="M82 492v143h543v-143h-543z" />
<glyph unicode="." d="M164 0v246h164v-246h-164z" />
<glyph unicode="/" horiz-adv-x="970" d="M0 -80l821 1763l150 -67l-821 -1763z" />
<glyph unicode="0" horiz-adv-x="1208" d="M102 461v614q0 136 67.5 251.5t183 183t251.5 67.5t251.5 -67.5t183 -183t67.5 -251.5v-614q0 -136 -67.5 -251.5t-183 -183t-251.5 -67.5t-251.5 67.5t-183 183t-67.5 251.5zM266 461q0 -149 99 -254t239 -105t239 105t99 254v614q0 149 -99 254t-239 105t-239 -105 t-99 -254v-614z" />
<glyph unicode="1" horiz-adv-x="860" d="M82 1079l453 457h163v-1536h-163v1319l-345 -346z" />
<glyph unicode="2" horiz-adv-x="1097" d="M102 0v141l639 781q88 110 88 231q0 131 -79 207t-189 76t-196.5 -76t-104.5 -217l-141 59q11 92 52 165t100.5 118t131 68.5t148.5 23.5q84 0 162.5 -27.5t142 -79.5t101.5 -134.5t38 -184.5q0 -79 -29.5 -161.5t-84.5 -149.5l-570 -697h672v-143h-881z" />
<glyph unicode="3" horiz-adv-x="1161" d="M104 346l150 62q23 -139 112 -222.5t214 -83.5q129 0 221 91.5t92 220.5q0 127 -92 218t-221 91h-193v139h193q114 0 195 83.5t81 203.5q0 118 -81 201.5t-195 83.5q-109 0 -188 -75t-107 -204l-144 59q20 154 145.5 258.5t293.5 104.5q183 0 311.5 -122t128.5 -294 q0 -116 -63.5 -213.5t-168.5 -152.5q122 -55 195.5 -161t73.5 -235q0 -120 -64 -221.5t-174 -160t-239 -58.5q-183 0 -319.5 111.5t-156.5 275.5z" />
<glyph unicode="4" horiz-adv-x="1177" d="M82 303v143l688 1090h164v-1090h215v-143h-215v-303h-164v303h-688zM246 446h524v830z" />
<glyph unicode="5" horiz-adv-x="1198" d="M102 365l146 59q31 -147 123.5 -234.5t222.5 -87.5q140 0 239 105t99 254t-99 253.5t-239 104.5q-28 0 -55 -1.5t-48 -3t-45 -6t-39.5 -7t-37.5 -9t-32 -9t-31 -10.5t-27 -10t-26.5 -10.5t-23.5 -9.5l68 793h698v-143h-553l-39 -453q105 23 191 23q137 0 252.5 -67.5 t182.5 -183t67 -251.5t-67 -251.5t-182.5 -183t-252.5 -67.5q-182 0 -316 112.5t-176 293.5z" />
<glyph unicode="6" horiz-adv-x="1208" d="M102 461q0 131 66 250l477 825h191l-338 -584q64 11 106 11q136 0 251.5 -67.5t183 -183t67.5 -251.5t-67.5 -251.5t-183 -183t-251.5 -67.5t-251.5 67.5t-183 183t-67.5 251.5zM266 461q0 -149 99 -254t239 -105t239 105t99 254t-99 253.5t-239 104.5t-239 -104.5 t-99 -253.5z" />
<glyph unicode="7" horiz-adv-x="1009" d="M82 1393v143h854v-143l-655 -1393h-177l656 1393h-678z" />
<glyph unicode="8" horiz-adv-x="1161" d="M102 399q0 128 74 234.5t195 161.5q-105 55 -168.5 152.5t-63.5 213.5q0 172 129.5 294t313.5 122q183 0 311.5 -122t128.5 -294q0 -116 -63 -213.5t-168 -152.5q122 -55 195 -161t73 -235q0 -120 -64 -221.5t-174 -160t-239 -58.5q-130 0 -240.5 58.5t-175 160 t-64.5 221.5zM266 414q0 -129 92.5 -220.5t223.5 -91.5q129 0 221 91.5t92 220.5q0 127 -92 218t-221 91q-130 0 -223 -90.5t-93 -218.5zM303 1149q0 -120 81.5 -203.5t197.5 -83.5q114 0 195 83.5t81 203.5q0 118 -81 201.5t-195 83.5q-116 0 -197.5 -83.5t-81.5 -201.5z " />
<glyph unicode="9" horiz-adv-x="1167" d="M102 1098q0 198 141.5 338.5t340.5 140.5t340 -140.5t141 -338.5q0 -129 -64 -238l-499 -860h-193l367 629q-41 -8 -92 -8q-98 0 -187 37.5t-154 101.5t-103 152.5t-38 185.5zM268 1098q0 -138 92.5 -235t223.5 -97t223 97t92 235t-92.5 236t-222.5 98q-131 0 -223.5 -98 t-92.5 -236z" />
<glyph unicode=":" d="M164 0v246h164v-246h-164zM164 676v246h164v-246h-164z" />
<glyph unicode=";" d="M-72 -219l279 481l141 -78l-278 -481zM164 676v246h164v-246h-164z" />
<glyph unicode="&#x3c;" horiz-adv-x="831" d="M41 760l608 608l101 -100l-506 -508l506 -506l-101 -102z" />
<glyph unicode="=" horiz-adv-x="1310" d="M82 492v143h1147v-143h-1147zM82 901v143h1147v-143h-1147z" />
<glyph unicode="&#x3e;" horiz-adv-x="831" d="M80 254l506 506l-506 508l100 100l608 -608l-608 -608z" />
<glyph unicode="?" horiz-adv-x="1169" d="M102 1169q17 130 93 224.5t180.5 139t222.5 44.5q91 0 174.5 -28.5t150 -82.5t106.5 -141t40 -195q0 -163 -113 -276q-40 -40 -90 -69t-89.5 -41.5t-79 -33t-65.5 -46.5t-42.5 -79.5t-16.5 -133.5h-163q0 106 22 181.5t56 114t81 68t91 44.5t92 41.5t79 60.5 q74 81 74 180q0 133 -90.5 213t-214.5 80q-79 0 -150 -33t-128 -107t-80 -180zM397 0v246h164v-246h-164z" />
<glyph unicode="@" horiz-adv-x="1781" d="M102 768q0 164 64 314t172.5 258.5t258.5 172.5t314 64t314 -64t258.5 -172.5t172.5 -258.5t64 -314q0 -109 -25.5 -194t-68 -134.5t-94 -74.5t-107.5 -25q-78 0 -145.5 44.5t-99.5 121.5q-110 -164 -303 -164q-170 0 -293 125t-123 301t123 301t293 125q163 0 280 -127 v94h164l-2 -547q0 -51 35 -90t78 -39q52 0 88 68.5t36 214.5q0 181 -86.5 334t-235 242.5t-323.5 89.5t-323.5 -89.5t-235 -242.5t-86.5 -334t86.5 -334t235 -242.5t323.5 -89.5q134 0 253.5 53.5t209.5 149.5l109 -108q-111 -112 -259 -175t-313 -63q-164 0 -314 64 t-258.5 172.5t-172.5 258.5t-64 314zM625 768q0 -117 77.5 -200t186.5 -83t188.5 83t79.5 200t-79.5 200t-188.5 83t-186.5 -83t-77.5 -200z" />
<glyph unicode="A" horiz-adv-x="1409" d="M20 0l594 1536h181l594 -1536h-172l-158 418h-709l-157 -418h-173zM406 561h600l-301 793z" />
<glyph unicode="B" horiz-adv-x="1280" d="M164 0v1536h563q169 0 289.5 -120t120.5 -290q0 -113 -58 -206.5t-153 -141.5q117 -48 184.5 -145t67.5 -223q0 -169 -120.5 -289.5t-289.5 -120.5h-604zM328 143h426q113 0 184.5 79.5t71.5 197.5t-71 197t-185 79h-426v-553zM328 840h385q114 0 185 79t71 197 t-71.5 197.5t-184.5 79.5h-385v-553z" />
<glyph unicode="C" horiz-adv-x="1781" d="M102 768q0 164 64 314t172.5 258.5t258.5 172.5t314 64q249 0 452.5 -138.5t295.5 -361.5l-150 -61q-72 186 -234.5 302t-363.5 116q-175 0 -323.5 -89.5t-235 -242.5t-86.5 -334t86.5 -334t235 -242.5t323.5 -89.5q201 0 363.5 116t234.5 302l150 -61 q-92 -223 -295.5 -361.5t-452.5 -138.5q-164 0 -314 64t-258.5 172.5t-172.5 258.5t-64 314z" />
<glyph unicode="D" horiz-adv-x="1556" d="M164 0v1536h522q209 0 385.5 -103t279.5 -279.5t103 -385.5t-103 -385.5t-279.5 -279.5t-385.5 -103h-522zM328 143h338q169 0 313 84t227.5 228t83.5 313t-83.5 313t-227.5 228t-313 84h-338v-1250z" />
<glyph unicode="E" horiz-adv-x="1136" d="M164 0v1536h850v-143h-686v-553h624v-144h-624v-553h686v-143h-850z" />
<glyph unicode="F" horiz-adv-x="1136" d="M164 0v1536h850v-143h-686v-553h624v-144h-624v-696h-164z" />
<glyph unicode="G" horiz-adv-x="1822" d="M102 768q0 164 64 314t172.5 258.5t258.5 172.5t314 64q165 0 313 -63t259 -175l-109 -108q-90 96 -209.5 149.5t-253.5 53.5q-175 0 -323.5 -89.5t-235 -242.5t-86.5 -334t86.5 -334t235 -242.5t323.5 -89.5q164 0 305 78.5t230 214.5t106 301h-641v144h807q0 -12 1 -36 t1 -36q0 -164 -64 -314t-172.5 -258.5t-258.5 -172.5t-314 -64t-314 64t-258.5 172.5t-172.5 258.5t-64 314z" />
<glyph unicode="H" horiz-adv-x="1454" d="M164 0v1536h164v-696h798v696h164v-1536h-164v696h-798v-696h-164z" />
<glyph unicode="I" d="M164 0v1536h164v-1536h-164z" />
<glyph unicode="J" horiz-adv-x="1146" d="M82 346l141 57q21 -121 103 -211t204 -90q120 0 204.5 91t84.5 219v1124h164v-1124q0 -92 -36 -176t-96.5 -144.5t-144.5 -96.5t-176 -36q-169 0 -296 111t-152 276z" />
<glyph unicode="K" horiz-adv-x="1216" d="M164 0v1536h164v-1536h-164zM328 766l655 770h193l-656 -770l651 -766h-192z" />
<glyph unicode="L" horiz-adv-x="1095" d="M164 0v1536h164v-1393h686v-143h-850z" />
<glyph unicode="M" horiz-adv-x="1761" d="M164 0v1536h164l553 -877l553 877h163v-1536h-163v1260l-471 -748h-164l-471 748v-1260h-164z" />
<glyph unicode="N" horiz-adv-x="1484" d="M164 0v1536h164l829 -1264v1264h164v-1536h-164l-829 1262v-1262h-164z" />
<glyph unicode="O" horiz-adv-x="1822" d="M102 768q0 164 64 314t172.5 258.5t258.5 172.5t314 64t314 -64t258.5 -172.5t172.5 -258.5t64 -314t-64 -314t-172.5 -258.5t-258.5 -172.5t-314 -64t-314 64t-258.5 172.5t-172.5 258.5t-64 314zM266 768q0 -181 86.5 -334t235 -242.5t323.5 -89.5t323.5 89.5 t235 242.5t86.5 334t-86.5 334t-235 242.5t-323.5 89.5t-323.5 -89.5t-235 -242.5t-86.5 -334z" />
<glyph unicode="P" horiz-adv-x="1198" d="M164 0v1536h532q173 0 296.5 -123.5t123.5 -296.5t-123.5 -296.5t-296.5 -123.5h-368v-696h-164zM328 840h368q114 0 185 79t71 197t-71.5 197.5t-184.5 79.5h-368v-553z" />
<glyph unicode="Q" horiz-adv-x="1822" d="M102 768q0 164 64 314t172.5 258.5t258.5 172.5t314 64t314 -64t258.5 -172.5t172.5 -258.5t64 -314q0 -157 -57 -299.5t-160 -251.5l217 -217h-229l-109 111q-211 -152 -471 -152q-164 0 -314 64t-258.5 172.5t-172.5 258.5t-64 314zM266 768q0 -181 86.5 -334 t235 -242.5t323.5 -89.5q200 0 363 115l-395 397h227l289 -288q161 192 161 442q0 181 -86.5 334t-235 242.5t-323.5 89.5t-323.5 -89.5t-235 -242.5t-86.5 -334z" />
<glyph unicode="R" horiz-adv-x="1253" d="M164 0v1536h512q173 0 296.5 -123.5t123.5 -296.5t-123.5 -296.5t-296.5 -123.5h-96l591 -696h-196l-647 762v-762h-164zM328 840h348q114 0 185 79t71 197t-71.5 197.5t-184.5 79.5h-348v-553z" />
<glyph unicode="S" horiz-adv-x="1308" d="M123 362l145 62q29 -163 136 -242.5t249 -79.5q94 0 177 35.5t137.5 109t54.5 169.5q0 87 -58.5 160.5t-160.5 97.5l-334 76q-142 33 -221.5 139t-79.5 241q0 108 40.5 195t109 141t153.5 82.5t178 28.5q89 0 173 -26.5t154 -76t117.5 -128.5t59.5 -177l-139 -55 q-17 83 -53.5 145t-86.5 99.5t-108.5 55.5t-124.5 18q-75 0 -136 -25.5t-97.5 -67.5t-56 -93t-19.5 -105q0 -86 49.5 -154.5t134.5 -89.5l361 -82q146 -34 227.5 -142t81.5 -245q0 -112 -45.5 -203.5t-121.5 -148.5t-170 -87t-196 -30q-128 0 -237 43t-189 136t-104 224z " />
<glyph unicode="T" horiz-adv-x="1150" d="M41 1393v143h1069v-143h-453v-1393h-163v1393h-453z" />
<glyph unicode="U" horiz-adv-x="1515" d="M164 553v983h164v-983q0 -186 126 -318.5t304 -132.5t304 132.5t126 318.5v983h164v-983q0 -161 -79.5 -298t-216.5 -216.5t-298 -79.5t-298 79.5t-216.5 216.5t-79.5 298z" />
<glyph unicode="V" horiz-adv-x="1449" d="M0 1536h172l553 -1366l551 1366h174l-635 -1536h-178z" />
<glyph unicode="W" horiz-adv-x="2048" d="M0 1536h168l385 -1298l391 1298h160l391 -1298l385 1298h168l-471 -1536h-162l-391 1305l-391 -1305h-162z" />
<glyph unicode="X" horiz-adv-x="1572" d="M82 0l608 768l-608 768h194l510 -645l510 645h195l-606 -768l606 -768h-195l-510 645l-510 -645h-194z" />
<glyph unicode="Y" horiz-adv-x="1495" d="M41 1536h188l519 -737l518 737h188l-625 -891v-645h-163v645z" />
<glyph unicode="Z" horiz-adv-x="1169" d="M41 0v143l872 1250h-872v143h1087v-143l-872 -1250h872v-143h-1087z" />
<glyph unicode="[" horiz-adv-x="727" d="M164 -246v1782h440v-143h-276v-1495h276v-144h-440z" />
<glyph unicode="\" horiz-adv-x="970" d="M0 1616l150 67l821 -1763l-150 -67z" />
<glyph unicode="]" horiz-adv-x="727" d="M123 -102h276v1495h-276v143h440v-1782h-440v144z" />
<glyph unicode="_" horiz-adv-x="931" d="M41 -123h850v-143h-850v143z" />
<glyph unicode="`" horiz-adv-x="1206" d="M354 1485l74 123l467 -279l-74 -123z" />
<glyph unicode="a" horiz-adv-x="1280" d="M102 461q0 135 67 251t180 183.5t243 67.5q112 0 204.5 -50.5t155.5 -140.5v150h164v-922h-164v150q-63 -90 -155.5 -140.5t-204.5 -50.5q-130 0 -243 67.5t-180 183.5t-67 251zM266 461q0 -149 100.5 -254t241.5 -105t242.5 105t101.5 254t-101 253.5t-243 104.5 q-141 0 -241.5 -104.5t-100.5 -253.5z" />
<glyph unicode="b" horiz-adv-x="1280" d="M164 0v1536h164v-764q63 90 155.5 140.5t204.5 50.5q130 0 243 -67.5t180 -183.5t67 -251t-67 -251t-180 -183.5t-243 -67.5q-112 0 -204.5 50.5t-155.5 140.5v-150h-164zM328 461q0 -149 101.5 -254t242.5 -105t241.5 105t100.5 254t-100.5 253.5t-241.5 104.5 q-142 0 -243 -104.5t-101 -253.5z" />
<glyph unicode="c" horiz-adv-x="1138" d="M100 461q0 136 67.5 251.5t183 183t251.5 67.5q133 0 246.5 -66.5t185.5 -185.5l-133 -76q-51 89 -129 137.5t-172 48.5q-142 0 -239 -105t-97 -255q0 -151 97 -256t239 -105q93 0 171.5 48.5t129.5 138.5l133 -76q-72 -119 -185.5 -185.5t-246.5 -66.5 q-136 0 -251.5 67.5t-183 183t-67.5 251.5z" />
<glyph unicode="d" horiz-adv-x="1280" d="M102 461q0 135 67 251t180 183.5t243 67.5q112 0 204.5 -50.5t155.5 -140.5v764h164v-1536h-164v150q-63 -90 -155.5 -140.5t-204.5 -50.5q-130 0 -243 67.5t-180 183.5t-67 251zM266 461q0 -149 100.5 -254t241.5 -105t242.5 105t101.5 254t-101 253.5t-243 104.5 q-141 0 -241.5 -104.5t-100.5 -253.5z" />
<glyph unicode="e" horiz-adv-x="1206" d="M102 461q0 136 67.5 251.5t183 183t251.5 67.5t251.5 -67.5t183 -183t67.5 -251.5q0 -6 -0.5 -14.5t-1.5 -24t-2 -33.5h-842q26 -123 121 -208t223 -85q92 0 172 50.5t131 140.5l129 -76q-72 -119 -185.5 -185.5t-246.5 -66.5q-136 0 -251.5 67.5t-183 183t-67.5 251.5z M260 530h686q-25 126 -121 210.5t-221 84.5q-128 0 -223 -85.5t-121 -209.5z" />
<glyph unicode="f" horiz-adv-x="696" d="M82 778v144h164v389q0 112 78.5 189t199.5 77q52 0 90 -10v-148q-42 11 -90 11t-81 -36t-33 -89v-383h204v-144h-204v-778h-164v778h-164z" />
<glyph unicode="g" horiz-adv-x="1280" d="M102 461q0 135 67 251t180 183.5t243 67.5q112 0 204.5 -50.5t155.5 -140.5v150h164v-994q0 -113 -45.5 -209.5t-121 -159t-170.5 -97.5t-195 -35q-135 0 -254 63.5t-191 187.5l133 76q53 -91 137 -136.5t179 -45.5q94 0 176 41.5t135 124.5t53 190v222 q-63 -90 -155.5 -140.5t-204.5 -50.5q-130 0 -243 67.5t-180 183.5t-67 251zM266 461q0 -149 100.5 -254t241.5 -105t242.5 105t101.5 254t-101 253.5t-243 104.5q-141 0 -241.5 -104.5t-100.5 -253.5z" />
<glyph unicode="h" horiz-adv-x="1167" d="M164 0v1536h164v-725q50 74 127.5 113t165.5 39q72 0 140 -25.5t122.5 -72t87.5 -120t33 -161.5v-584h-164v584q0 104 -70 170.5t-176 66.5q-111 0 -188.5 -78t-77.5 -186v-557h-164z" />
<glyph unicode="i" d="M164 0v922h164v-922h-164zM164 1290v246h164v-246h-164z" />
<glyph unicode="j" d="M-41 -422q48 -10 90 -10q48 0 81.5 36t33.5 89v1229h164v-1229q0 -110 -81.5 -188t-197.5 -78q-52 0 -90 10v141zM164 1290v246h164v-246h-164z" />
<glyph unicode="k" horiz-adv-x="952" d="M164 0v1536h164v-1536h-164zM328 459l391 463h192l-393 -463l393 -459h-192z" />
<glyph unicode="l" d="M164 0v1536h164v-1536h-164z" />
<glyph unicode="m" horiz-adv-x="1585" d="M164 0v922h164v-99q34 64 97 102t138 38q77 0 147 -37t99 -95q47 66 120.5 99t155.5 33q85 0 160 -35.5t125.5 -111.5t50.5 -179v-637h-164v621q0 93 -52 145.5t-126 52.5q-85 0 -145 -51.5t-60 -149.5v-618h-163v631q0 92 -52 140t-127 48q-85 0 -144.5 -51.5 t-59.5 -149.5v-618h-164z" />
<glyph unicode="n" horiz-adv-x="1167" d="M164 0v922h164v-111q50 74 127.5 113t165.5 39q72 0 140 -25.5t122.5 -72t87.5 -120t33 -161.5v-584h-164v584q0 104 -70 170.5t-176 66.5q-111 0 -188.5 -78t-77.5 -186v-557h-164z" />
<glyph unicode="o" horiz-adv-x="1208" d="M102 461q0 136 67.5 251.5t183 183t251.5 67.5t251.5 -67.5t183 -183t67.5 -251.5t-67.5 -251.5t-183 -183t-251.5 -67.5t-251.5 67.5t-183 183t-67.5 251.5zM266 461q0 -149 99 -254t239 -105t239 105t99 254t-99 253.5t-239 104.5t-239 -104.5t-99 -253.5z" />
<glyph unicode="p" horiz-adv-x="1280" d="M164 -553v1475h164v-150q63 90 155.5 140.5t204.5 50.5q130 0 243 -67.5t180 -183.5t67 -251t-67 -251t-180 -183.5t-243 -67.5q-112 0 -204.5 50.5t-155.5 140.5v-703h-164zM328 461q0 -149 101.5 -254t242.5 -105t241.5 105t100.5 254t-100.5 253.5t-241.5 104.5 q-142 0 -243 -104.5t-101 -253.5z" />
<glyph unicode="q" horiz-adv-x="1280" d="M102 461q0 135 67 251t180 183.5t243 67.5q112 0 204.5 -50.5t155.5 -140.5v150h164v-1475h-164v703q-63 -90 -155.5 -140.5t-204.5 -50.5q-130 0 -243 67.5t-180 183.5t-67 251zM266 461q0 -149 100.5 -254t241.5 -105t242.5 105t101.5 254t-101 253.5t-243 104.5 q-141 0 -241.5 -104.5t-100.5 -253.5z" />
<glyph unicode="r" horiz-adv-x="733" d="M164 0v922h164v-105q49 72 124.5 109t168.5 37q2 0 51 -7v-147q-33 10 -78 10q-112 0 -189 -77t-77 -185v-557h-164z" />
<glyph unicode="s" horiz-adv-x="942" d="M102 186l142 56q63 -146 233 -146q82 0 141.5 42.5t59.5 117.5q0 91 -129 119l-172 39q-238 51 -238 264q0 92 49 158.5t123 96.5t162 30q124 0 225.5 -59.5t132.5 -166.5l-141 -55q-30 71 -90 107t-127 36q-74 0 -125 -39.5t-51 -107.5q0 -37 25 -73t67 -44l174 -39 q61 -14 106 -32t86.5 -48t63 -78t21.5 -112q0 -58 -20 -106.5t-54 -82.5t-79.5 -58t-97 -35t-106.5 -11q-132 0 -240.5 60t-140.5 167z" />
<glyph unicode="t" horiz-adv-x="655" d="M82 778v144h164v614h164v-614h163v-144h-163v-778h-164v778h-164z" />
<glyph unicode="u" horiz-adv-x="1167" d="M164 338v584h164v-584q0 -104 69.5 -171t175.5 -67q109 0 188 77.5t79 187.5v557h164v-922h-164v111q-50 -74 -127.5 -113t-165.5 -39q-72 0 -140 25.5t-122.5 72t-87.5 120t-33 161.5z" />
<glyph unicode="v" horiz-adv-x="1011" d="M20 922h175l311 -779l311 779h174l-393 -922h-184z" />
<glyph unicode="w" horiz-adv-x="1466" d="M20 922h175l227 -740l219 740h184l219 -740l228 740h174l-313 -922h-177l-223 750l-223 -750h-176z" />
<glyph unicode="x" horiz-adv-x="956" d="M20 0l365 461l-365 461h187l270 -351l273 351h186l-365 -461l365 -461h-186l-273 350l-270 -350h-187z" />
<glyph unicode="y" horiz-adv-x="1028" d="M-14 -387q70 -43 147 -43q104 0 146 94l149 338l-408 920h175l319 -725l320 725h174l-578 -1309q-40 -92 -116 -139t-169 -47q-98 0 -159 36v150z" />
<glyph unicode="z" horiz-adv-x="935" d="M123 0v143l539 635h-533v144h735v-144l-538 -635h548v-143h-751z" />
<glyph unicode="{" horiz-adv-x="714" d="M41 573v144q91 0 147 49t56 143v291q0 155 98.5 245.5t257.5 90.5h33v-143h-33q-91 0 -141.5 -48.5t-50.5 -142.5v-293q0 -174 -138 -264q138 -87 138 -262v-293q0 -95 50.5 -142.5t141.5 -47.5h33v-144h-33q-159 0 -257.5 90.5t-98.5 243.5v293q0 93 -55.5 141.5 t-147.5 48.5z" />
<glyph unicode="|" d="M164 -246v1782h164v-1782h-164z" />
<glyph unicode="}" horiz-adv-x="714" d="M82 -100h35q90 0 140 47.5t50 142.5v293q0 176 137 262q-137 90 -137 264v293q0 94 -50.5 142.5t-139.5 48.5h-35v143h33q159 0 257.5 -90.5t98.5 -245.5v-291q0 -94 56 -143t147 -49v-144q-92 0 -147.5 -48.5t-55.5 -141.5v-293q0 -153 -98.5 -243.5t-257.5 -90.5h-33 v144z" />
<glyph unicode="&#xa1;" d="M164 0v1085h164v-1085h-164zM164 1290v246h164v-246h-164z" />
<glyph unicode="&#xa2;" horiz-adv-x="1138" d="M100 461q0 188 123 328.5t307 166.5v250h140v-248q113 -15 206.5 -79t157.5 -168l-133 -76q-81 146 -231 178v-704q150 32 231 178l133 -76q-64 -104 -157.5 -168.5t-206.5 -79.5v-250h-140v250q-184 26 -307 168t-123 330zM264 461q0 -130 74.5 -228.5t191.5 -123.5v704 q-117 -26 -191.5 -124t-74.5 -228z" />
<glyph unicode="&#xa3;" horiz-adv-x="1153" d="M164 0v143h274l-119 553h-155v144h125l-58 264q-12 58 -12 108q0 115 56.5 201t143 127t187.5 41q72 0 140.5 -23.5t127 -68.5t100.5 -119.5t56 -167.5l-141 -59q-18 140 -103 217.5t-188 77.5q-93 0 -158 -64t-65 -178q0 -51 10 -92l57 -264h459v-144h-428l121 -553h410 v-143h-840z" />
<glyph unicode="&#xa5;" horiz-adv-x="1495" d="M98 1536h189l461 -655l460 655h189l-471 -670h354v-143h-451v-205h451v-143h-451v-375h-163v375h-451v143h451v205h-451v143h354z" />
<glyph unicode="&#xa7;" horiz-adv-x="1822" d="M102 768q0 164 64 314t172.5 258.5t258.5 172.5t314 64q249 0 452.5 -138.5t295.5 -361.5l-150 -61q-72 186 -234.5 302t-363.5 116q-175 0 -323.5 -89.5t-235 -242.5t-86.5 -334t86.5 -334t235 -242.5t323.5 -89.5q164 0 305 78.5t230 214.5t106 301h-641v144h807 q0 -12 1 -36t1 -36q0 -164 -64 -314t-172.5 -258.5t-258.5 -172.5t-314 -64t-314 64t-258.5 172.5t-172.5 258.5t-64 314z" />
<glyph unicode="&#xa8;" horiz-adv-x="1206" d="M303 1331v205h164v-205h-164zM754 1331v205h164v-205h-164z" />
<glyph unicode="&#xa9;" horiz-adv-x="1822" d="M102 768q0 164 64 314t172.5 258.5t258.5 172.5t314 64t314 -64t258.5 -172.5t172.5 -258.5t64 -314t-64 -314t-172.5 -258.5t-258.5 -172.5t-314 -64t-314 64t-258.5 172.5t-172.5 258.5t-64 314zM266 768q0 -181 86.5 -334t235 -242.5t323.5 -89.5t323.5 89.5 t235 242.5t86.5 334t-86.5 334t-235 242.5t-323.5 89.5t-323.5 -89.5t-235 -242.5t-86.5 -334zM410 768q0 136 67 251.5t182.5 183t251.5 67.5q133 0 246.5 -66.5t185.5 -185.5l-133 -76q-51 89 -129 137.5t-172 48.5q-142 0 -239 -105t-97 -255t97 -255t239 -105 q94 0 172 48.5t129 137.5l133 -76q-72 -119 -185.5 -185.5t-246.5 -66.5q-136 0 -251.5 67.5t-182.5 183t-67 251.5z" />
<glyph unicode="&#xab;" horiz-adv-x="970" d="M41 514l358 358l101 -100l-256 -258l256 -256l-101 -100zM471 514l358 358l101 -100l-256 -258l256 -256l-101 -100z" />
<glyph unicode="&#xad;" horiz-adv-x="706" d="M82 492v143h543v-143h-543z" />
<glyph unicode="&#xaf;" horiz-adv-x="1208" d="M289 1393v143h624v-143h-624z" />
<glyph unicode="&#xb0;" horiz-adv-x="915" d="M82 1200q0 157 110 267t267 110q156 0 266.5 -110.5t110.5 -266.5q0 -155 -111 -265t-266 -110q-157 0 -267 110t-110 265zM225 1200q0 -98 69 -170t165 -72t164.5 72t68.5 170t-68.5 171t-164.5 73t-165 -73t-69 -171z" />
<glyph unicode="&#xb4;" horiz-adv-x="1206" d="M313 1329l467 279l74 -123l-467 -279z" />
<glyph unicode="&#xb8;" horiz-adv-x="1138" d="M367 -342l100 59q14 -36 40.5 -55.5t53.5 -19.5q33 0 51.5 23t18.5 52q0 28 -18.5 49t-49.5 21q-25 0 -49 -31l-10 -14l-103 78l195 250l102 -80l-80 -99q63 -22 96.5 -68.5t33.5 -101.5q0 -76 -52.5 -134t-140.5 -58q-54 0 -106.5 33t-81.5 96z" />
<glyph unicode="&#xbb;" horiz-adv-x="970" d="M41 258l256 256l-256 258l100 100l359 -358l-359 -356zM471 258l256 256l-256 258l100 100l359 -358l-359 -356z" />
<glyph unicode="&#xbf;" horiz-adv-x="1169" d="M102 446q0 164 113 277q40 40 90 69t89.5 41.5t79 33t65.5 46.5t42.5 79.5t16.5 133.5h164q0 -106 -22 -181.5t-56 -114t-81 -68t-91 -44.5t-92.5 -41.5t-79.5 -60.5q-74 -81 -74 -180q0 -134 90 -213.5t215 -79.5q123 0 224 81.5t133 238.5l141 -57q-13 -97 -60 -176 t-116 -128t-151 -75.5t-169 -26.5q-91 0 -174 28.5t-150 82t-107 140.5t-40 195zM610 1331v246h164v-246h-164z" />
<glyph unicode="&#xc0;" horiz-adv-x="1409" d="M20 0l594 1536h181l594 -1536h-172l-158 418h-709l-157 -418h-173zM406 561h600l-301 793zM440 1862l49 135l512 -185l-49 -135z" />
<glyph unicode="&#xc1;" horiz-adv-x="1409" d="M20 0l594 1536h181l594 -1536h-172l-158 418h-709l-157 -418h-173zM406 561h600l-301 793zM420 1812l512 185l49 -135l-512 -185z" />
<glyph unicode="&#xc2;" horiz-adv-x="1409" d="M20 0l594 1536h181l594 -1536h-172l-158 418h-709l-157 -418h-173zM379 1810l328 172l325 -172l-65 -127l-260 138l-263 -138zM406 561h600l-301 793z" />
<glyph unicode="&#xc3;" horiz-adv-x="1409" d="M20 0l594 1536h181l594 -1536h-172l-158 418h-709l-157 -418h-173zM373 1761q0 86 60.5 146.5t146.5 60.5q49 0 84 -12t54.5 -29.5t35.5 -34.5t37.5 -29t50.5 -12q40 0 67 27.5t27 67.5h113q0 -86 -60.5 -146.5t-146.5 -60.5q-49 0 -84 12.5t-54.5 29.5t-35.5 34.5 t-37 30t-49 12.5q-40 0 -68.5 -28.5t-28.5 -68.5h-112zM406 561h600l-301 793z" />
<glyph unicode="&#xc4;" horiz-adv-x="1409" d="M20 0l594 1536h181l594 -1536h-172l-158 418h-709l-157 -418h-173zM397 1729v204h164v-204h-164zM406 561h600l-301 793zM848 1729v204h164v-204h-164z" />
<glyph unicode="&#xc5;" horiz-adv-x="1409" d="M20 0l594 1536h181l594 -1536h-172l-158 418h-709l-157 -418h-173zM406 561h600l-301 793zM496 1694q0 88 60 148.5t146 60.5q88 0 148.5 -60.5t60.5 -148.5q0 -86 -60.5 -146.5t-148.5 -60.5q-86 0 -146 60.5t-60 146.5zM608 1694q0 -38 28 -66.5t66 -28.5 q40 0 68.5 28.5t28.5 66.5q0 40 -28.5 68t-68.5 28q-38 0 -66 -28t-28 -68z" />
<glyph unicode="&#xc6;" horiz-adv-x="1996" d="M0 0l938 1536h936v-143h-686v-553h624v-144h-624v-553h686v-143h-850v418h-600l-252 -418h-172zM510 561h514v852z" />
<glyph unicode="&#xc7;" horiz-adv-x="1781" d="M102 768q0 164 64 314t172.5 258.5t258.5 172.5t314 64q249 0 452.5 -138.5t295.5 -361.5l-150 -61q-72 186 -234.5 302t-363.5 116q-175 0 -323.5 -89.5t-235 -242.5t-86.5 -334t86.5 -334t235 -242.5t323.5 -89.5q201 0 363.5 116t234.5 302l150 -61 q-84 -203 -262.5 -338t-401.5 -158l-57 -72q63 -22 96 -68.5t33 -101.5q0 -76 -52.5 -134t-140.5 -58q-54 0 -106.5 33t-81.5 96l100 59q14 -36 41 -55.5t54 -19.5q33 0 51 23t18 52q0 28 -18 49t-49 21q-25 0 -49 -31l-11 -14l-102 78l113 143q-152 14 -287.5 83.5 t-233 176t-154.5 248.5t-57 297z" />
<glyph unicode="&#xc8;" horiz-adv-x="1136" d="M164 0v1536h850v-143h-686v-553h624v-144h-624v-553h686v-143h-850zM276 1862l50 135l512 -185l-50 -135z" />
<glyph unicode="&#xc9;" horiz-adv-x="1136" d="M164 0v1536h850v-143h-686v-553h624v-144h-624v-553h686v-143h-850zM317 1812l512 185l50 -135l-512 -185z" />
<glyph unicode="&#xca;" horiz-adv-x="1136" d="M164 0v1536h850v-143h-686v-553h624v-144h-624v-553h686v-143h-850zM279 1810l327 172l326 -172l-66 -127l-260 138l-262 -138z" />
<glyph unicode="&#xcb;" horiz-adv-x="1136" d="M164 0v1536h850v-143h-686v-553h624v-144h-624v-553h686v-143h-850zM272 1729v204h164v-204h-164zM723 1729v204h164v-204h-164z" />
<glyph unicode="&#xcc;" d="M-33 1862l49 135l512 -185l-49 -135zM166 0v1536h164v-1536h-164z" />
<glyph unicode="&#xcd;" d="M-33 1812l512 185l49 -135l-512 -185zM166 0v1536h164v-1536h-164z" />
<glyph unicode="&#xce;" d="M-80 1810l328 172l325 -172l-65 -127l-260 138l-262 -138zM166 0v1536h164v-1536h-164z" />
<glyph unicode="&#xcf;" d="M-61 1729v204h163v-204h-163zM166 0v1536h164v-1536h-164zM389 1729v204h164v-204h-164z" />
<glyph unicode="&#xd0;" horiz-adv-x="1662" d="M41 709v133h229v694h523q209 0 385.5 -103t279.5 -279.5t103 -385.5t-103 -385.5t-279.5 -279.5t-385.5 -103h-523v709h-229zM434 143h338q169 0 313 84t228 228t84 313t-84 313t-228 228t-313 84h-338v-551h232v-133h-232v-566z" />
<glyph unicode="&#xd1;" horiz-adv-x="1484" d="M164 0v1536h164l829 -1264v1264h164v-1536h-164l-829 1262v-1262h-164zM401 1761q0 86 60.5 146.5t146.5 60.5q49 0 84 -12t54.5 -29.5t35.5 -34.5t37.5 -29t50.5 -12q40 0 67.5 27.5t27.5 67.5h112q0 -86 -60.5 -146.5t-146.5 -60.5q-49 0 -84 12.5t-54.5 29.5 t-35.5 34.5t-37 30t-49 12.5q-40 0 -68 -28.5t-28 -68.5h-113z" />
<glyph unicode="&#xd2;" horiz-adv-x="1822" d="M102 768q0 164 64 314t172.5 258.5t258.5 172.5t314 64t314 -64t258.5 -172.5t172.5 -258.5t64 -314t-64 -314t-172.5 -258.5t-258.5 -172.5t-314 -64t-314 64t-258.5 172.5t-172.5 258.5t-64 314zM266 768q0 -181 86.5 -334t235 -242.5t323.5 -89.5t323.5 89.5 t235 242.5t86.5 334t-86.5 334t-235 242.5t-323.5 89.5t-323.5 -89.5t-235 -242.5t-86.5 -334zM666 1862l49 135l512 -185l-49 -135z" />
<glyph unicode="&#xd3;" horiz-adv-x="1822" d="M102 768q0 164 64 314t172.5 258.5t258.5 172.5t314 64t314 -64t258.5 -172.5t172.5 -258.5t64 -314t-64 -314t-172.5 -258.5t-258.5 -172.5t-314 -64t-314 64t-258.5 172.5t-172.5 258.5t-64 314zM266 768q0 -181 86.5 -334t235 -242.5t323.5 -89.5t323.5 89.5 t235 242.5t86.5 334t-86.5 334t-235 242.5t-323.5 89.5t-323.5 -89.5t-235 -242.5t-86.5 -334zM625 1812l512 185l49 -135l-512 -185z" />
<glyph unicode="&#xd4;" horiz-adv-x="1822" d="M102 768q0 164 64 314t172.5 258.5t258.5 172.5t314 64t314 -64t258.5 -172.5t172.5 -258.5t64 -314t-64 -314t-172.5 -258.5t-258.5 -172.5t-314 -64t-314 64t-258.5 172.5t-172.5 258.5t-64 314zM266 768q0 -181 86.5 -334t235 -242.5t323.5 -89.5t323.5 89.5 t235 242.5t86.5 334t-86.5 334t-235 242.5t-323.5 89.5t-323.5 -89.5t-235 -242.5t-86.5 -334zM586 1810l327 172l326 -172l-65 -127l-261 138l-262 -138z" />
<glyph unicode="&#xd5;" horiz-adv-x="1822" d="M102 768q0 164 64 314t172.5 258.5t258.5 172.5t314 64t314 -64t258.5 -172.5t172.5 -258.5t64 -314t-64 -314t-172.5 -258.5t-258.5 -172.5t-314 -64t-314 64t-258.5 172.5t-172.5 258.5t-64 314zM266 768q0 -181 86.5 -334t235 -242.5t323.5 -89.5t323.5 89.5 t235 242.5t86.5 334t-86.5 334t-235 242.5t-323.5 89.5t-323.5 -89.5t-235 -242.5t-86.5 -334zM598 1761q0 86 60.5 146.5t146.5 60.5q49 0 84 -12t54.5 -29.5t35.5 -34.5t37.5 -29t50.5 -12q40 0 67 27.5t27 67.5h113q0 -86 -60.5 -146.5t-146.5 -60.5q-49 0 -84 12.5 t-54.5 29.5t-35.5 34.5t-37 30t-49 12.5q-40 0 -68 -28.5t-28 -68.5h-113z" />
<glyph unicode="&#xd6;" horiz-adv-x="1822" d="M102 768q0 164 64 314t172.5 258.5t258.5 172.5t314 64t314 -64t258.5 -172.5t172.5 -258.5t64 -314t-64 -314t-172.5 -258.5t-258.5 -172.5t-314 -64t-314 64t-258.5 172.5t-172.5 258.5t-64 314zM266 768q0 -181 86.5 -334t235 -242.5t323.5 -89.5t323.5 89.5 t235 242.5t86.5 334t-86.5 334t-235 242.5t-323.5 89.5t-323.5 -89.5t-235 -242.5t-86.5 -334zM608 1729v204h164v-204h-164zM1059 1729v204h164v-204h-164z" />
<glyph unicode="&#xd7;" horiz-adv-x="1310" d="M199 414l348 346l-348 348l116 117l349 -348l346 348l102 -103l-348 -346l348 -348l-117 -117l-348 348l-346 -348z" />
<glyph unicode="&#xd8;" horiz-adv-x="1822" d="M102 768q0 164 64 314t172.5 258.5t258.5 172.5t314 64q145 0 275 -47l65 143l135 -61l-67 -146q183 -106 292 -291.5t109 -406.5q0 -164 -64 -314t-172.5 -258.5t-258.5 -172.5t-314 -64q-144 0 -274 47l-66 -143l-135 61l68 146q-183 106 -292.5 292t-109.5 406z M266 768q0 -175 81.5 -323.5t219.5 -239.5l555 1192q-98 37 -211 37q-175 0 -323.5 -89.5t-235 -242.5t-86.5 -334zM700 139q98 -37 211 -37q175 0 323.5 89t235 242.5t86.5 334.5q0 175 -81.5 323.5t-219.5 239.5z" />
<glyph unicode="&#xd9;" horiz-adv-x="1515" d="M164 553v983h164v-983q0 -186 126 -318.5t304 -132.5t304 132.5t126 318.5v983h164v-983q0 -161 -79.5 -298t-216.5 -216.5t-298 -79.5t-298 79.5t-216.5 216.5t-79.5 298zM481 1862l49 135l512 -185l-49 -135z" />
<glyph unicode="&#xda;" horiz-adv-x="1515" d="M164 553v983h164v-983q0 -186 126 -318.5t304 -132.5t304 132.5t126 318.5v983h164v-983q0 -161 -79.5 -298t-216.5 -216.5t-298 -79.5t-298 79.5t-216.5 216.5t-79.5 298zM502 1812l512 185l49 -135l-512 -185z" />
<glyph unicode="&#xdb;" horiz-adv-x="1515" d="M164 553v983h164v-983q0 -186 126 -318.5t304 -132.5t304 132.5t126 318.5v983h164v-983q0 -161 -79.5 -298t-216.5 -216.5t-298 -79.5t-298 79.5t-216.5 216.5t-79.5 298zM442 1810l328 172l326 -172l-66 -127l-260 138l-262 -138z" />
<glyph unicode="&#xdc;" horiz-adv-x="1515" d="M164 553v983h164v-983q0 -186 126 -318.5t304 -132.5t304 132.5t126 318.5v983h164v-983q0 -161 -79.5 -298t-216.5 -216.5t-298 -79.5t-298 79.5t-216.5 216.5t-79.5 298zM465 1729v204h164v-204h-164zM915 1729v204h164v-204h-164z" />
<glyph unicode="&#xdd;" horiz-adv-x="1495" d="M41 1536h188l519 -737l518 737h188l-625 -891v-645h-163v645zM481 1812l512 185l49 -135l-512 -185z" />
<glyph unicode="&#xde;" horiz-adv-x="1198" d="M164 0v1536h164v-348h368q173 0 296.5 -123.5t123.5 -296.5t-123.5 -296.5t-296.5 -123.5h-368v-348h-164zM328 492h368q114 0 185 79t71 197t-71 197t-185 79h-368v-552z" />
<glyph unicode="&#xdf;" horiz-adv-x="1208" d="M82 778v144h164v249q0 96 35 174.5t93.5 127t130.5 74.5t150 26q76 0 145.5 -24.5t125.5 -71t89.5 -122t33.5 -169.5q0 -95 -43 -183.5t-127 -150.5l-131 -96q-52 -39 -52 -94q0 -41 23 -72t63 -43l113 -35q44 -13 81 -32.5t73 -50t56.5 -77t20.5 -104.5 q0 -95 -44.5 -162.5t-112 -97t-148.5 -29.5q-111 0 -199.5 59.5t-121.5 167.5l141 56q63 -146 178 -146q63 0 104.5 37.5t41.5 110.5q0 86 -121 125l-74 22q-231 70 -231 271q0 133 137 231l119 86q92 67 92 195q0 120 -70.5 185.5t-167.5 65.5q-98 0 -168.5 -65.5 t-70.5 -181.5v-1178h-164v778h-164z" />
<glyph unicode="&#xe0;" horiz-adv-x="1280" d="M102 461q0 135 67 251t180 183.5t243 67.5q112 0 204.5 -50.5t155.5 -140.5v150h164v-922h-164v150q-63 -90 -155.5 -140.5t-204.5 -50.5q-130 0 -243 67.5t-180 183.5t-67 251zM266 461q0 -149 100.5 -254t241.5 -105t242.5 105t101.5 254t-101 253.5t-243 104.5 q-141 0 -241.5 -104.5t-100.5 -253.5zM354 1485l74 123l467 -279l-74 -123z" />
<glyph unicode="&#xe1;" horiz-adv-x="1280" d="M102 461q0 135 67 251t180 183.5t243 67.5q112 0 204.5 -50.5t155.5 -140.5v150h164v-922h-164v150q-63 -90 -155.5 -140.5t-204.5 -50.5q-130 0 -243 67.5t-180 183.5t-67 251zM266 461q0 -149 100.5 -254t241.5 -105t242.5 105t101.5 254t-101 253.5t-243 104.5 q-141 0 -241.5 -104.5t-100.5 -253.5zM354 1329l467 279l74 -123l-467 -279z" />
<glyph unicode="&#xe2;" horiz-adv-x="1280" d="M102 461q0 135 67 251t180 183.5t243 67.5q112 0 204.5 -50.5t155.5 -140.5v150h164v-922h-164v150q-63 -90 -155.5 -140.5t-204.5 -50.5q-130 0 -243 67.5t-180 183.5t-67 251zM266 461q0 -149 100.5 -254t241.5 -105t242.5 105t101.5 254t-101 253.5t-243 104.5 q-141 0 -241.5 -104.5t-100.5 -253.5zM313 1313l326 293l326 -293l-95 -107l-231 207l-231 -207z" />
<glyph unicode="&#xe3;" horiz-adv-x="1280" d="M102 461q0 135 67 251t180 183.5t243 67.5q112 0 204.5 -50.5t155.5 -140.5v150h164v-922h-164v150q-63 -90 -155.5 -140.5t-204.5 -50.5q-130 0 -243 67.5t-180 183.5t-67 251zM266 461q0 -149 100.5 -254t241.5 -105t242.5 105t101.5 254t-101 253.5t-243 104.5 q-141 0 -241.5 -104.5t-100.5 -253.5zM281 1352q0 86 60 146.5t146 60.5q49 0 84 -12t54.5 -29.5t36 -34.5t38 -29t50.5 -12q40 0 67 27t27 67h112q0 -86 -60 -146.5t-146 -60.5q-49 0 -84 12.5t-54.5 29.5t-35.5 34.5t-37.5 30t-49.5 12.5q-40 0 -68 -28t-28 -68h-112z" />
<glyph unicode="&#xe4;" horiz-adv-x="1280" d="M102 461q0 135 67 251t180 183.5t243 67.5q112 0 204.5 -50.5t155.5 -140.5v150h164v-922h-164v150q-63 -90 -155.5 -140.5t-204.5 -50.5q-130 0 -243 67.5t-180 183.5t-67 251zM266 461q0 -149 100.5 -254t241.5 -105t242.5 105t101.5 254t-101 253.5t-243 104.5 q-141 0 -241.5 -104.5t-100.5 -253.5zM324 1331v205h163v-205h-163zM774 1331v205h164v-205h-164z" />
<glyph unicode="&#xe5;" horiz-adv-x="1280" d="M102 461q0 135 67 251t180 183.5t243 67.5q112 0 204.5 -50.5t155.5 -140.5v150h164v-922h-164v150q-63 -90 -155.5 -140.5t-204.5 -50.5q-130 0 -243 67.5t-180 183.5t-67 251zM266 461q0 -149 100.5 -254t241.5 -105t242.5 105t101.5 254t-101 253.5t-243 104.5 q-141 0 -241.5 -104.5t-100.5 -253.5zM416 1386q0 88 60.5 148.5t146.5 60.5q88 0 148 -60.5t60 -148.5q0 -86 -60 -146t-148 -60q-86 0 -146.5 60t-60.5 146zM528 1386q0 -38 28.5 -66t66.5 -28q40 0 68 28t28 66q0 40 -28 68.5t-68 28.5q-38 0 -66.5 -28.5t-28.5 -68.5z " />
<glyph unicode="&#xe6;" horiz-adv-x="2062" d="M102 461q0 135 67 251t180 183.5t243 67.5q112 0 204.5 -50.5t155.5 -140.5v150h164v-97q148 138 344 138q136 0 251.5 -67.5t183 -183t67.5 -251.5q0 -6 -0.5 -14.5t-1.5 -24t-2 -33.5h-842q26 -123 121 -208t223 -85q92 0 172 50.5t131 140.5l129 -76 q-72 -119 -185.5 -185.5t-246.5 -66.5q-201 0 -344 137v-96h-164v150q-63 -90 -155.5 -140.5t-204.5 -50.5q-130 0 -243 67.5t-180 183.5t-67 251zM266 461q0 -149 100.5 -254t241.5 -105t242.5 105t101.5 254t-101 253.5t-243 104.5q-141 0 -241.5 -104.5t-100.5 -253.5z M1116 530h686q-25 126 -121 210.5t-221 84.5q-128 0 -223 -85.5t-121 -209.5z" />
<glyph unicode="&#xe7;" horiz-adv-x="1206" d="M102 461q0 136 67.5 251.5t183 183t251.5 67.5q133 0 246.5 -66.5t185.5 -185.5l-131 -76q-53 89 -131 137.5t-172 48.5q-142 0 -239 -105t-97 -255q0 -151 97 -256t239 -105q93 0 171.5 48.5t131.5 138.5l131 -76q-62 -101 -154 -165t-202 -81l-59 -74q63 -22 96 -68.5 t33 -101.5q0 -76 -52.5 -134t-140.5 -58q-54 0 -106.5 33t-81.5 96l100 59q14 -36 40.5 -55.5t53.5 -19.5q33 0 51.5 23t18.5 52q0 28 -18.5 49t-49.5 21q-25 0 -49 -31l-10 -14l-103 78l115 147q-179 31 -297.5 170.5t-118.5 323.5z" />
<glyph unicode="&#xe8;" horiz-adv-x="1206" d="M102 461q0 136 67.5 251.5t183 183t251.5 67.5t251.5 -67.5t183 -183t67.5 -251.5q0 -6 -0.5 -14.5t-1.5 -24t-2 -33.5h-842q26 -123 121 -208t223 -85q92 0 172 50.5t131 140.5l129 -76q-72 -119 -185.5 -185.5t-246.5 -66.5q-136 0 -251.5 67.5t-183 183t-67.5 251.5z M260 530h686q-25 126 -121 210.5t-221 84.5q-128 0 -223 -85.5t-121 -209.5zM354 1485l74 123l467 -279l-74 -123z" />
<glyph unicode="&#xe9;" horiz-adv-x="1206" d="M102 461q0 136 67.5 251.5t183 183t251.5 67.5t251.5 -67.5t183 -183t67.5 -251.5q0 -6 -0.5 -14.5t-1.5 -24t-2 -33.5h-842q26 -123 121 -208t223 -85q92 0 172 50.5t131 140.5l129 -76q-72 -119 -185.5 -185.5t-246.5 -66.5q-136 0 -251.5 67.5t-183 183t-67.5 251.5z M260 530h686q-25 126 -121 210.5t-221 84.5q-128 0 -223 -85.5t-121 -209.5zM313 1329l467 279l74 -123l-467 -279z" />
<glyph unicode="&#xea;" horiz-adv-x="1206" d="M102 461q0 136 67.5 251.5t183 183t251.5 67.5t251.5 -67.5t183 -183t67.5 -251.5q0 -6 -0.5 -14.5t-1.5 -24t-2 -33.5h-842q26 -123 121 -208t223 -85q92 0 172 50.5t131 140.5l129 -76q-72 -119 -185.5 -185.5t-246.5 -66.5q-136 0 -251.5 67.5t-183 183t-67.5 251.5z M260 530h686q-25 126 -121 210.5t-221 84.5q-128 0 -223 -85.5t-121 -209.5zM293 1313l325 293l326 -293l-94 -107l-232 207l-231 -207z" />
<glyph unicode="&#xeb;" horiz-adv-x="1206" d="M102 461q0 136 67.5 251.5t183 183t251.5 67.5t251.5 -67.5t183 -183t67.5 -251.5q0 -6 -0.5 -14.5t-1.5 -24t-2 -33.5h-842q26 -123 121 -208t223 -85q92 0 172 50.5t131 140.5l129 -76q-72 -119 -185.5 -185.5t-246.5 -66.5q-136 0 -251.5 67.5t-183 183t-67.5 251.5z M260 530h686q-25 126 -121 210.5t-221 84.5q-128 0 -223 -85.5t-121 -209.5zM303 1331v205h164v-205h-164zM754 1331v205h164v-205h-164z" />
<glyph unicode="&#xec;" d="M-25 1485l74 123l467 -279l-74 -123zM164 0v922h164v-922h-164z" />
<glyph unicode="&#xed;" d="M-25 1329l467 279l74 -123l-467 -279zM164 0v922h164v-922h-164z" />
<glyph unicode="&#xee;" d="M-80 1313l326 293l325 -293l-94 -107l-231 207l-232 -207zM164 0v922h164v-922h-164z" />
<glyph unicode="&#xef;" d="M-61 1331v205h163v-205h-163zM164 0v922h164v-922h-164zM389 1331v205h164v-205h-164z" />
<glyph unicode="&#xf0;" horiz-adv-x="1208" d="M102 461q0 136 67.5 251.5t183 183t251.5 67.5q43 0 103 -11l-123 213l-283 -164v166l209 121l-143 248h192l96 -164l269 156v-166l-197 -115l317 -545q62 -109 62 -241q0 -136 -67.5 -251.5t-183 -183t-251.5 -67.5t-251.5 67.5t-183 183t-67.5 251.5zM266 461 q0 -149 99 -254t239 -105t239 105t99 254t-99 253.5t-239 104.5t-239 -104.5t-99 -253.5z" />
<glyph unicode="&#xf1;" horiz-adv-x="1167" d="M164 0v922h164v-111q50 74 127.5 113t165.5 39q72 0 140 -25.5t122.5 -72t87.5 -120t33 -161.5v-584h-164v584q0 104 -70 170.5t-176 66.5q-111 0 -188.5 -78t-77.5 -186v-557h-164zM260 1352q0 86 60.5 146.5t146.5 60.5q49 0 84 -12t54.5 -29.5t35.5 -34.5t37.5 -29 t50.5 -12q40 0 67 27t27 67h113q0 -86 -60.5 -146.5t-146.5 -60.5q-49 0 -84 12.5t-54.5 29.5t-35.5 34.5t-37 30t-49 12.5q-40 0 -68 -28t-28 -68h-113z" />
<glyph unicode="&#xf2;" horiz-adv-x="1208" d="M102 461q0 136 67.5 251.5t183 183t251.5 67.5t251.5 -67.5t183 -183t67.5 -251.5t-67.5 -251.5t-183 -183t-251.5 -67.5t-251.5 67.5t-183 183t-67.5 251.5zM266 461q0 -149 99 -254t239 -105t239 105t99 254t-99 253.5t-239 104.5t-239 -104.5t-99 -253.5zM354 1485 l74 123l467 -279l-74 -123z" />
<glyph unicode="&#xf3;" horiz-adv-x="1208" d="M102 461q0 136 67.5 251.5t183 183t251.5 67.5t251.5 -67.5t183 -183t67.5 -251.5t-67.5 -251.5t-183 -183t-251.5 -67.5t-251.5 67.5t-183 183t-67.5 251.5zM266 461q0 -149 99 -254t239 -105t239 105t99 254t-99 253.5t-239 104.5t-239 -104.5t-99 -253.5zM313 1329 l467 279l74 -123l-467 -279z" />
<glyph unicode="&#xf4;" horiz-adv-x="1208" d="M102 461q0 136 67.5 251.5t183 183t251.5 67.5t251.5 -67.5t183 -183t67.5 -251.5t-67.5 -251.5t-183 -183t-251.5 -67.5t-251.5 67.5t-183 183t-67.5 251.5zM266 461q0 -149 99 -254t239 -105t239 105t99 254t-99 253.5t-239 104.5t-239 -104.5t-99 -253.5zM293 1313 l325 293l326 -293l-94 -107l-232 207l-231 -207z" />
<glyph unicode="&#xf5;" horiz-adv-x="1208" d="M102 461q0 136 67.5 251.5t183 183t251.5 67.5t251.5 -67.5t183 -183t67.5 -251.5t-67.5 -251.5t-183 -183t-251.5 -67.5t-251.5 67.5t-183 183t-67.5 251.5zM266 461q0 -149 99 -254t239 -105t239 105t99 254t-99 253.5t-239 104.5t-239 -104.5t-99 -253.5zM281 1352 q0 86 60 146.5t146 60.5q49 0 84 -12t54.5 -29.5t36 -34.5t38 -29t50.5 -12q40 0 67 27t27 67h112q0 -86 -60 -146.5t-146 -60.5q-49 0 -84 12.5t-54.5 29.5t-35.5 34.5t-37.5 30t-49.5 12.5q-40 0 -68 -28t-28 -68h-112z" />
<glyph unicode="&#xf6;" horiz-adv-x="1208" d="M102 461q0 136 67.5 251.5t183 183t251.5 67.5t251.5 -67.5t183 -183t67.5 -251.5t-67.5 -251.5t-183 -183t-251.5 -67.5t-251.5 67.5t-183 183t-67.5 251.5zM266 461q0 -149 99 -254t239 -105t239 105t99 254t-99 253.5t-239 104.5t-239 -104.5t-99 -253.5zM303 1331 v205h164v-205h-164zM754 1331v205h164v-205h-164z" />
<glyph unicode="&#xf7;" horiz-adv-x="1310" d="M82 696v144h1147v-144h-1147zM573 205v246h164v-246h-164zM573 1085v246h164v-246h-164z" />
<glyph unicode="&#xf8;" horiz-adv-x="1208" d="M102 461q0 136 67.5 251.5t183 183t251.5 67.5q65 0 144 -21l63 137l137 -63l-65 -137q103 -69 163 -179t60 -239q0 -136 -67.5 -251.5t-183 -183t-251.5 -67.5q-64 0 -143 21l-64 -138l-137 64l66 137q-103 69 -163.5 179.5t-60.5 238.5zM266 461q0 -168 125 -277 l293 625q-45 10 -80 10q-140 0 -239 -104.5t-99 -253.5zM524 113q46 -11 80 -11q140 0 239 105t99 254q0 83 -33.5 155t-91.5 123z" />
<glyph unicode="&#xf9;" horiz-adv-x="1167" d="M164 338v584h164v-584q0 -104 69.5 -171t175.5 -67q109 0 188 77.5t79 187.5v557h164v-922h-164v111q-50 -74 -127.5 -113t-165.5 -39q-72 0 -140 25.5t-122.5 72t-87.5 120t-33 161.5zM313 1485l74 123l467 -279l-74 -123z" />
<glyph unicode="&#xfa;" horiz-adv-x="1167" d="M164 338v584h164v-584q0 -104 69.5 -171t175.5 -67q109 0 188 77.5t79 187.5v557h164v-922h-164v111q-50 -74 -127.5 -113t-165.5 -39q-72 0 -140 25.5t-122.5 72t-87.5 120t-33 161.5zM313 1329l467 279l74 -123l-467 -279z" />
<glyph unicode="&#xfb;" horiz-adv-x="1167" d="M164 338v584h164v-584q0 -104 69.5 -171t175.5 -67q109 0 188 77.5t79 187.5v557h164v-922h-164v111q-50 -74 -127.5 -113t-165.5 -39q-72 0 -140 25.5t-122.5 72t-87.5 120t-33 161.5zM252 1313l326 293l325 -293l-94 -107l-231 207l-232 -207z" />
<glyph unicode="&#xfc;" horiz-adv-x="1167" d="M164 338v584h164v-584q0 -104 69.5 -171t175.5 -67q109 0 188 77.5t79 187.5v557h164v-922h-164v111q-50 -74 -127.5 -113t-165.5 -39q-72 0 -140 25.5t-122.5 72t-87.5 120t-33 161.5zM283 1331v205h163v-205h-163zM733 1331v205h164v-205h-164z" />
<glyph unicode="&#xfd;" horiz-adv-x="1028" d="M-14 -387q70 -43 147 -43q104 0 146 94l149 338l-408 920h175l319 -725l320 725h174l-578 -1309q-40 -92 -116 -139t-169 -47q-98 0 -159 36v150zM272 1329l467 279l74 -123l-467 -279z" />
<glyph unicode="&#xfe;" horiz-adv-x="1280" d="M164 -553v2089h164v-764q63 90 155.5 140.5t204.5 50.5q130 0 243 -67.5t180 -183.5t67 -251t-67 -251t-180 -183.5t-243 -67.5q-112 0 -204.5 50.5t-155.5 140.5v-703h-164zM328 461q0 -149 101.5 -254t242.5 -105t241.5 105t100.5 254t-100.5 253.5t-241.5 104.5 q-142 0 -243 -104.5t-101 -253.5z" />
<glyph unicode="&#xff;" horiz-adv-x="1028" d="M-14 -387q70 -43 147 -43q104 0 146 94l149 338l-408 920h175l319 -725l320 725h174l-578 -1309q-40 -92 -116 -139t-169 -47q-98 0 -159 36v150zM262 1331v205h164v-205h-164zM713 1331v205h164v-205h-164z" />
<glyph unicode="&#x152;" horiz-adv-x="2529" d="M102 768q0 164 64 314t172.5 258.5t258.5 172.5t314 64q195 0 364 -86t281 -236v281h850v-143h-686v-553h625v-144h-625v-553h686v-143h-850v281q-112 -150 -281 -236t-364 -86q-164 0 -314 64t-258.5 172.5t-172.5 258.5t-64 314zM266 768q0 -181 86.5 -334t235 -242.5 t323.5 -89.5t323.5 89.5t235 242.5t86.5 334t-86.5 334t-235 242.5t-323.5 89.5t-323.5 -89.5t-235 -242.5t-86.5 -334z" />
<glyph unicode="&#x153;" horiz-adv-x="2045" d="M102 461q0 136 67.5 251.5t183 183t251.5 67.5q130 0 240.5 -61.5t179.5 -166.5q69 105 179.5 166.5t240.5 61.5q136 0 251.5 -67.5t183 -183t67.5 -251.5q0 -6 -0.5 -14.5t-1.5 -24t-2 -33.5h-840h-2q25 -124 121 -208.5t223 -84.5q92 0 172 50.5t131 140.5l129 -76 q-72 -119 -185.5 -185.5t-246.5 -66.5q-130 0 -240.5 61t-179.5 166q-69 -105 -179.5 -166t-240.5 -61q-136 0 -251.5 67.5t-183 183t-67.5 251.5zM266 461q0 -149 99 -254t239 -105t239 105t99 254t-99 253.5t-239 104.5t-239 -104.5t-99 -253.5zM1100 532l2 -2h684 q-25 126 -121 210.5t-221 84.5q-127 0 -223 -84.5t-121 -208.5z" />
<glyph unicode="&#x178;" horiz-adv-x="1495" d="M41 1536h188l519 -737l518 737h188l-625 -891v-645h-163v645zM438 1729v204h164v-204h-164zM889 1729v204h164v-204h-164z" />
<glyph unicode="&#x2c6;" horiz-adv-x="1206" d="M293 1313l325 293l326 -293l-94 -107l-232 207l-231 -207z" />
<glyph unicode="&#x2dc;" horiz-adv-x="1208" d="M281 1352q0 86 60 146.5t146 60.5q49 0 84 -12t54.5 -29.5t36 -34.5t38 -29t50.5 -12q40 0 67 27t27 67h112q0 -86 -60 -146.5t-146 -60.5q-49 0 -84 12.5t-54.5 29.5t-35.5 34.5t-37.5 30t-49.5 12.5q-40 0 -68 -28t-28 -68h-112z" />
<glyph unicode="&#x2000;" horiz-adv-x="998" />
<glyph unicode="&#x2001;" horiz-adv-x="1997" />
<glyph unicode="&#x2002;" horiz-adv-x="998" />
<glyph unicode="&#x2003;" horiz-adv-x="1997" />
<glyph unicode="&#x2004;" horiz-adv-x="665" />
<glyph unicode="&#x2005;" horiz-adv-x="499" />
<glyph unicode="&#x2006;" horiz-adv-x="332" />
<glyph unicode="&#x2007;" horiz-adv-x="332" />
<glyph unicode="&#x2008;" horiz-adv-x="249" />
<glyph unicode="&#x2009;" horiz-adv-x="399" />
<glyph unicode="&#x200a;" horiz-adv-x="110" />
<glyph unicode="&#x2010;" horiz-adv-x="706" d="M82 492v143h543v-143h-543z" />
<glyph unicode="&#x2011;" horiz-adv-x="706" d="M82 492v143h543v-143h-543z" />
<glyph unicode="&#x2012;" horiz-adv-x="706" d="M82 492v143h543v-143h-543z" />
<glyph unicode="&#x2013;" horiz-adv-x="1095" d="M123 492v143h850v-143h-850z" />
<glyph unicode="&#x2014;" horiz-adv-x="1781" d="M123 492v143h1536v-143h-1536z" />
<glyph unicode="&#x2018;" horiz-adv-x="419" d="M0 1499l141 78l279 -481l-141 -80z" />
<glyph unicode="&#x2019;" horiz-adv-x="419" d="M0 1096l279 481l141 -78l-279 -483z" />
<glyph unicode="&#x201a;" horiz-adv-x="430" d="M-72 -219l279 481l141 -78l-278 -481z" />
<glyph unicode="&#x201c;" horiz-adv-x="768" d="M0 1499l141 78l279 -481l-141 -80zM348 1499l141 78l279 -481l-141 -80z" />
<glyph unicode="&#x201d;" horiz-adv-x="768" d="M0 1096l279 481l141 -78l-279 -483zM348 1096l279 481l141 -78l-279 -483z" />
<glyph unicode="&#x201e;" horiz-adv-x="778" d="M-72 -219l279 481l141 -78l-278 -483zM276 -219l279 481l141 -78l-278 -483z" />
<glyph unicode="&#x2022;" horiz-adv-x="997" d="M123 770q0 157 110 267t267 110q156 0 266.5 -110.5t110.5 -266.5q0 -155 -111 -265t-266 -110q-157 0 -267 110t-110 265z" />
<glyph unicode="&#x2026;" horiz-adv-x="1351" d="M164 0v246h164v-246h-164zM594 0v246h164v-246h-164zM1024 0v246h164v-246h-164z" />
<glyph unicode="&#x202f;" horiz-adv-x="399" />
<glyph unicode="&#x2039;" horiz-adv-x="540" d="M41 514l358 358l101 -100l-256 -258l256 -256l-101 -100z" />
<glyph unicode="&#x203a;" horiz-adv-x="540" d="M41 258l256 256l-256 258l100 100l359 -358l-359 -356z" />
<glyph unicode="&#x205f;" horiz-adv-x="499" />
<glyph unicode="&#x20ac;" horiz-adv-x="1988" d="M102 492v143h220q-13 70 -13 133t13 133h-220v143h256q86 236 294 384.5t466 148.5q250 0 453 -138.5t295 -361.5l-148 -61q-73 186 -236 302t-364 116q-192 0 -351 -108t-235 -282h584v-143h-629q-14 -60 -14 -133t14 -133h629v-143h-584q76 -174 235 -282t351 -108 q201 0 364 116t236 302l148 -61q-92 -223 -295 -361.5t-453 -138.5q-258 0 -466 148.5t-294 384.5h-256z" />
<glyph unicode="&#xe000;" horiz-adv-x="921" d="M0 0v922h922v-922h-922z" />
</font>
</defs>
</svg>
