<?xml version="1.0" standalone="no"?>
<!DOCTYPE svg PUBLIC "-//W3C//DTD SVG 1.1//EN" "http://www.w3.org/Graphics/SVG/1.1/DTD/svg11.dtd" >
<svg xmlns="http://www.w3.org/2000/svg">
<metadata>
Created by FontPrep 20130207 at Sun Apr  5 22:22:27 2015
 By Tina Kumar
Copyright (C) 2000, 2007 Hoefler &#38; Frere-Jones. http://www.typography.com
</metadata>
<defs>
<font id="decd8f1341b56d0cdd62c26da52a7169" horiz-adv-x='1024' >
  <font-face 
    font-family="Archer-Bold"
    font-weight="400"
    font-stretch="normal"
    units-per-em="2048"
    panose-1="0 0 0 0 0 0 0 0 0 0"
    ascent="1638"
    descent="-410"
    x-height="897"
    cap-height="1348"
    bbox="-100 -672 3033 2298"
    underline-thickness="102"
    underline-position="-102"
    unicode-range="U+0020-FB04"
  />
<missing-glyph horiz-adv-x="1024" 
d="M512 492l-367 -799h734zM922 1384l-353 -770l353 -770v1540zM102 -156l353 770l-353 770v-1540zM145 1536l367 -799l367 799h-734zM0 -410v2048h1024v-2048h-1024z" />
    <glyph glyph-name="f_f" unicode="ff" horiz-adv-x="1294" 
d="M430 1063v-166h393v174q0 125 26 207t89 143q98 94 246 95q88 0 143 -42t55 -104t-36 -98q-36 -35 -84 -35q-86 0 -129 84q-89 -38 -89 -217v-207h234v-188h-234v-525h175v-184h-521v184h125v525h-393v-525h164v-184h-520v184h135v525h-154v188h154v133q0 244 115 359
q86 86 225 86q88 0 143 -42q56 -43 56 -105t-36 -97t-85 -35q-88 0 -129 84q-68 -38 -68 -217z" />
    <glyph glyph-name="fi" unicode="fi" horiz-adv-x="1255" 
d="M1057 897v-713h133v-184h-483v184h127v525h-404v-525h164v-184h-520v184h135v525h-154v188h154v154q0 237 115 351t276 114q113 0 174 -52q62 -52 62 -116q0 -66 -40 -107t-96 -41t-94 37q-39 37 -43 88q-51 -4 -86 -51q-47 -66 -47 -191v-186h627z" />
    <glyph glyph-name="fl" unicode="fl" horiz-adv-x="1234" 
d="M619 1321q-81 0 -135 -56t-54 -182v-186h393v182q-41 14 -67 51t-25 82q0 45 17 72q-47 37 -129 37zM694 184h129v525h-393v-525h164v-184h-520v184h135v525h-154v188h154v164q-1 217 111 336t303 119q145 0 237 -74l35 63h152v-1321h133v-184h-486v184z" />
    <glyph glyph-name="f_f_i" unicode="ffi" horiz-adv-x="1869" 
d="M430 1081v-184h393v154q0 237 115 351t276 114q112 0 174 -52t62 -116q0 -66 -40 -107t-95 -41t-94 38t-43 87q-47 -4 -80 -43q-53 -66 -54 -199v-186h627v-713h133v-184h-483v184h127v525h-404v-525h164v-184h-510v184h125v525h-393v-525h164v-184h-520v184h135v525
h-154v188h154v158q0 199 101 309t282 111q70 0 121 -23q94 -41 94 -137q0 -53 -36 -87t-85 -34q-94 0 -129 84q-127 -25 -127 -197z" />
    <glyph glyph-name="f_f_l" unicode="ffl" horiz-adv-x="1849" 
d="M1044 1083v-186h394v182q-41 14 -67 51t-25 82q0 45 16 72q-47 37 -129 37q-81 -1 -135 -57t-54 -181zM430 1081v-184h393v164q0 217 112 336t302 119q147 0 240 -74l32 63h152v-1321h133v-184h-485v184h129v525h-394v-525h164v-184h-510v184h125v525h-393v-525h164v-184
h-520v184h135v525h-154v188h154v158q0 199 101 309t282 111q70 0 121 -23q94 -41 94 -137q0 -53 -36 -87t-85 -34q-94 0 -129 84q-127 -25 -127 -197z" />
    <glyph glyph-name="f_b" unicode="fb" horiz-adv-x="1796" 
d="M731 1212q0 45 17 72q-47 37 -129 37q-81 0 -135 -56t-54 -182v-186h393v182q-41 14 -67 51t-25 82zM1254 176q104 0 174 74t69 200q1 126 -67 198t-172 73q-104 0 -211 -92v-381q103 -72 207 -72zM823 -4v713h-393v-525h164v-184h-520v184h135v525h-154v188h154v164
q-1 217 111 336t303 119q145 0 237 -74l35 63h152v-708q121 117 264 116q180 0 298 -130q117 -131 117 -329t-124 -334t-306 -136q-143 0 -272 104l-49 -92h-152z" />
    <glyph glyph-name="f_h" unicode="fh" horiz-adv-x="1796" 
d="M731 1212q0 45 17 72q-47 37 -129 37q-81 0 -135 -56t-54 -182v-186h393v182q-41 14 -67 51t-25 82zM1407 559q0 152 -129 152q-104 0 -231 -105v-422h122v-184h-475v184h129v525h-393v-525h164v-184h-520v184h135v525h-154v188h154v164q-1 217 111 336t303 119
q145 0 237 -74l35 63h152v-743q160 152 305 152q146 0 212 -88q66 -87 66 -212v-430h133v-184h-479v184h123v375z" />
    <glyph glyph-name="f_j" unicode="fj" horiz-adv-x="1183" 
d="M834 709h-404v-525h164v-184h-520v184h135v525h-154v188h154v154q0 237 115 351t276 114q113 0 174 -52q62 -52 62 -116q0 -66 -40 -107t-96 -41t-94 37q-39 37 -43 88q-51 -4 -86 -51q-47 -66 -47 -191v-186h627v-883q0 -145 -51 -243q-90 -180 -310 -181
q-106 0 -162 48t-56 107q0 58 35 95q36 37 85 37t82 -31t41 -77q110 25 113 233v707z" />
    <glyph glyph-name="f_k" unicode="fk" horiz-adv-x="1767" 
d="M430 1083v-186h393v182q-41 14 -67 51t-25 82q0 45 17 72q-47 37 -129 37q-81 -1 -135 -57t-54 -181zM1047 1505v-1011l262 225h-125v178h530v-188h-166l-209 -177l228 -344h147v-188h-280l-258 403l-129 -108v-115h112v-180h-465v184h129v525h-393v-525h164v-184h-520
v184h135v525h-154v188h154v164q-1 217 111 336t303 119q145 0 237 -74l35 63h152z" />
    <glyph glyph-name="f_f_b" unicode="ffb" horiz-adv-x="2410" 
d="M1346 1212q0 45 16 72q-47 37 -129 37t-135 -56t-54 -182v-186h394v182q-41 14 -67 51q-25 37 -25 82zM1868 176q104 0 174 74t70 200t-68 198t-172 73q-104 0 -211 -92v-381q103 -72 207 -72zM430 1081v-184h393v164q0 217 112 336t302 119q147 0 240 -74l32 63h152
v-708q121 117 264 116q180 0 298 -130q118 -131 118 -329t-125 -334t-305 -136q-143 0 -273 104l-49 -92h-151v713h-394v-525h175v-184h-521v184h125v525h-393v-525h164v-184h-520v184h135v525h-154v188h154v158q0 199 101 309t282 111q70 0 121 -23q94 -41 94 -137
q0 -53 -36 -87t-85 -34q-94 0 -129 84q-127 -25 -127 -197z" />
    <glyph glyph-name="f_f_h" unicode="ffh" horiz-adv-x="2410" 
d="M1044 1083v-186h394v182q-41 14 -67 51t-25 82q0 45 16 72q-47 37 -129 37q-81 -1 -135 -57t-54 -181zM430 1081v-184h393v164q0 217 112 336t302 119q147 0 240 -74l32 63h152v-743q160 152 305 152q146 0 212 -88q66 -87 67 -212v-430h133v-184h-480v184h123v375
q0 152 -129 152q-104 0 -231 -105v-422h123v-184h-475v184h129v525h-394v-525h164v-184h-510v184h125v525h-393v-525h164v-184h-520v184h135v525h-154v188h154v158q0 199 101 309t282 111q70 0 121 -23q94 -41 94 -137q0 -53 -36 -87t-85 -34q-94 0 -129 84
q-127 -25 -127 -197z" />
    <glyph glyph-name="f_f_j" unicode="ffj" horiz-adv-x="1798" 
d="M430 1081v-184h393v154q0 237 115 351t276 114q112 0 174 -52t62 -116q0 -66 -40 -107t-95 -41t-94 38t-43 87q-47 -4 -80 -43q-53 -66 -54 -199v-186h627v-883q0 -145 -51 -243q-90 -180 -309 -181q-107 0 -163 48t-56 107q0 58 35 95q36 37 85 37t82 -31t41 -77
q110 25 113 233v707h-404v-525h164v-184h-510v184h125v525h-393v-525h164v-184h-520v184h135v525h-154v188h154v158q0 199 101 309t282 111q70 0 121 -23q94 -41 94 -137q0 -53 -36 -87t-85 -34q-94 0 -129 84q-127 -25 -127 -197z" />
    <glyph glyph-name="f_f_k" unicode="ffk" horiz-adv-x="2381" 
d="M1044 1083v-186h394v182q-41 14 -67 51t-25 82q0 45 16 72q-47 37 -129 37q-81 -1 -135 -57t-54 -181zM430 1081v-184h393v164q0 217 112 336t302 119q147 0 240 -74l32 63h152v-1011l262 225h-125v178h531v-188h-166l-209 -177l227 -344h148v-188h-281l-258 403
l-129 -108v-115h113v-180h-465v184h129v525h-394v-525h164v-184h-510v184h125v525h-393v-525h164v-184h-520v184h135v525h-154v188h154v158q0 199 101 309t282 111q70 0 121 -23q94 -41 94 -137q0 -53 -36 -87t-85 -34q-94 0 -129 84q-127 -25 -127 -197z" />
    <glyph glyph-name=".notdef" horiz-adv-x="1024" 
d="M512 492l-367 -799h734zM922 1384l-353 -770l353 -770v1540zM102 -156l353 770l-353 770v-1540zM145 1536l367 -799l367 799h-734zM0 -410v2048h1024v-2048h-1024z" />
    <glyph glyph-name=".null" horiz-adv-x="0" 
 />
    <glyph glyph-name="nonmarkingreturn" horiz-adv-x="681" 
 />
    <glyph glyph-name="space" unicode=" " horiz-adv-x="450" 
 />
    <glyph glyph-name="exclam" unicode="!" horiz-adv-x="569" 
d="M285 -16q-63 0 -108 44q-44 44 -44 107t44 109q43 46 107 45q64 0 108 -45q44 -44 44 -108t-44 -108t-107 -44zM223 408l-80 938h283l-80 -938h-123z" />
    <glyph glyph-name="quotedbl" unicode="&#x22;" horiz-adv-x="868" 
d="M213 1372q72 0 114 -53t23 -139l-90 -414h-96l-88 414q-18 86 23 139q42 53 114 53zM654 1372q72 0 113 -53q42 -53 24 -139l-91 -414h-96l-88 414q-18 86 24 139t114 53z" />
    <glyph glyph-name="numbersign" unicode="#" horiz-adv-x="1187" 
d="M496 670l-37 -242h229l39 242h-231zM133 662v180h193l36 233h205l-37 -233h215l37 233h205l-37 -233h170v-180h-196l-35 -226h166v-180h-195l-39 -256h-205l39 256h-215l-39 -256h-204l39 256h-168v180h196l35 226h-166z" />
    <glyph glyph-name="dollar" unicode="$" horiz-adv-x="1089" 
d="M338 780q0 -46 33 -70t114 -42l21 237q-76 -10 -122 -44t-46 -81zM782 295q0 53 -45 81t-143 50l-23 -254q92 4 152 37q59 33 59 86zM981 831q0 -59 -34 -95t-90 -36t-91 35t-35 80t8 64q-31 12 -94 22l-22 -264q268 -57 345 -179q34 -56 33 -130q1 -156 -123 -240
t-313 -88l-18 -219l-164 14l18 217q-135 23 -229 83t-94 165q0 57 36 95t91 38t93 -35t38 -73t-8 -74q25 -16 104 -31l25 275q-154 37 -246 105t-92 196q0 129 106 217t287 98l12 139l164 -14l-12 -133q127 -19 216 -75t89 -157z" />
    <glyph glyph-name="percent" unicode="%" horiz-adv-x="1435" 
d="M1063 373q-49 0 -80 -36t-31 -90t31 -89t80 -35t80 35t31 89t-31 90t-80 36zM1063 516q113 0 193 -78t81 -188q0 -110 -81 -189q-82 -77 -194 -77t-193 78t-81 188t81 188t194 78zM180 53q616 616 989 1053l86 -84q-335 -334 -527 -536t-462 -517zM373 698q49 0 80 35
t31 89t-31 90t-80 36t-80 -36t-31 -90t31 -89t80 -35zM373 559q-113 0 -194 78q-81 79 -81 189t81 188t194 78t193 -78t81 -189q-1 -111 -81 -189t-193 -77z" />
    <glyph glyph-name="ampersand" unicode="&#x26;" horiz-adv-x="1376" 
d="M422 1001q0 -100 106 -223q178 86 179 240q0 57 -39 96q-38 39 -102 39q-64 1 -104 -47t-40 -105zM293 360q1 -76 69 -134t200 -58t249 94l-233 215q-82 72 -127 117q-158 -88 -158 -234zM1321 559h-117q-49 -166 -117 -272l193 -164l-127 -148l-192 166
q-179 -161 -413 -161t-361 99q-126 99 -126 263q0 117 72 211t195 156q-133 152 -133 287t100 233t268 98q167 0 269 -85t102 -224q0 -219 -283 -350l295 -267q45 72 74 162h-107v180h408v-184z" />
    <glyph glyph-name="quotesingle" unicode="'" horiz-adv-x="428" 
d="M213 1372q72 0 114 -53t23 -139l-90 -414h-96l-88 414q-18 86 23 139q42 53 114 53z" />
    <glyph glyph-name="parenleft" unicode="(" horiz-adv-x="901" 
d="M145 534q0 160 45 307q78 253 273 450q155 157 325 243l107 -158q-82 -53 -144 -100q-61 -47 -137 -126q-236 -247 -237 -615q0 -367 236 -616q75 -79 137 -126t145 -100l-107 -158q-171 85 -325 243q-90 91 -159 197q-69 107 -114 253t-45 306z" />
    <glyph glyph-name="parenright" unicode=")" horiz-adv-x="901" 
d="M756 535q0 -161 -45 -307q-78 -253 -273 -450q-157 -159 -325 -243l-107 158q82 53 144 100t138 126q239 251 237 617q-1 365 -237 614q-75 79 -137 126t-145 100l107 158q171 -85 325 -243q90 -91 159 -197t114 -252t45 -307z" />
    <glyph glyph-name="asterisk" unicode="*" horiz-adv-x="942" 
d="M471 1440q61 0 84 -45t4 -111l-59 -219l188 123q54 38 106 28t69 -64t-17 -91t-105 -41l-227 -12l176 -140q54 -41 62 -92t-41 -88q-51 -33 -96 -10q-44 23 -68 86l-76 203l-76 -203q-25 -63 -69 -86t-95 10q-49 37 -41 88t62 92l176 140l-227 12q-70 4 -105 41
q-36 37 -18 91t70 63t106 -27l188 -123l-59 219q-18 66 4 111q23 45 84 45z" />
    <glyph glyph-name="plus" unicode="+" horiz-adv-x="950" 
d="M381 211v274h-275v189h275v274h188v-274h275v-189h-275v-274h-188z" />
    <glyph glyph-name="comma" unicode="," horiz-adv-x="524" 
d="M92 166q0 60 50 108t122 48t122 -54t50 -156q0 -104 -87 -232t-273 -234l-66 84q201 160 209 274q-57 16 -92 59t-35 103z" />
    <glyph glyph-name="hyphen" unicode="-" horiz-adv-x="765" 
d="M86 465v229h594v-229h-594z" />
    <glyph glyph-name="period" unicode="." horiz-adv-x="524" 
d="M262 -16q-70 0 -119 49t-49 119t49 120t119 50t119 -50t49 -120t-49 -119t-119 -49z" />
    <glyph glyph-name="slash" unicode="/" horiz-adv-x="1044" 
d="M195 -436l-183 82l838 1884l182 -82z" />
    <glyph glyph-name="zero" unicode="0" horiz-adv-x="1191" 
d="M596 170q125 0 204 103t79 263t-79 265q-79 104 -204 104t-204 -104t-79 -264q0 -159 79 -263t204 -104zM596 -16q-221 0 -367 156q-145 157 -145 397q0 239 145 397t367 158t366 -158q146 -158 146 -398t-145 -396q-146 -156 -367 -156z" />
    <glyph glyph-name="one" unicode="1" horiz-adv-x="894" 
d="M117 0v184h245v662l-206 -49l-52 184l373 94h109v-891h241v-184h-710z" />
    <glyph glyph-name="two" unicode="2" 
d="M506 905q-106 0 -164 -47q25 -39 25 -85t-40 -86q-41 -40 -97 -40t-97 45q-41 46 -41 110t51 130t155 112t237 48q193 0 309 -94t114 -221q0 -126 -89 -211q-89 -84 -273 -186t-250 -202h463v172h184v-350h-895l-39 111q102 236 437 434q123 72 178 120t55 106t-58 96
q-59 38 -165 38z" />
    <glyph glyph-name="three" unicode="3" horiz-adv-x="1030" 
d="M37 47q0 66 39 111t97 45t98 -40t40 -89t-28 -88q79 -62 201 -62t190 58t67 149q0 131 -133 188q-80 35 -213 35h-61v176h67q131 0 222 45q111 59 110 166q0 80 -63 123t-171 43t-161 -41q29 -39 29 -88t-40 -89q-41 -40 -97 -40t-97 45q-41 44 -41 110t41 126
q111 162 385 162q193 0 319 -98t126 -250q0 -154 -162 -246q-61 -35 -127 -47q61 -16 117 -48q180 -102 180 -279q0 -176 -133 -280t-340 -104q-139 0 -251 49t-161 121t-49 137z" />
    <glyph glyph-name="four" unicode="4" horiz-adv-x="1157" 
d="M692 -246v340h-590l-51 111l686 909l162 -129l-534 -706h327v231l217 86v-317h201v-185h-201v-340h-217z" />
    <glyph glyph-name="five" unicode="5" horiz-adv-x="1056" 
d="M74 -11q0 75 41 119t99 44t98 -40t40 -82t-18 -79q58 -21 166 -21t178 72t70 177t-69 167t-206 64q-137 0 -248 -60l-104 58l82 667h700v-209h-532l-35 -286q78 20 174 20q203 0 333 -111t130 -307t-134 -320q-133 -124 -357 -124t-341 112q-67 64 -67 139z" />
    <glyph glyph-name="six" unicode="6" horiz-adv-x="1157" 
d="M326 408q0 -98 76 -169t189 -71q111 0 187 73t76 172t-71 165t-185 66t-192 -70q-80 -68 -80 -166zM631 1141q-115 0 -217 -125t-109 -342q43 66 129 110t187 43q199 1 329 -117t131 -298q0 -180 -139 -304t-351 -124q-213 0 -357 144t-144 474t161 528t400 197
q205 0 312 -106q59 -59 59 -128t-41 -113t-100 -44t-102 41q-42 41 -42 83t8 60q-51 21 -114 21z" />
    <glyph glyph-name="seven" unicode="7" horiz-adv-x="1087" 
d="M266 893v-229h-196v411h891l57 -127l-615 -1198l-188 98l541 1045h-490z" />
    <glyph glyph-name="eight" unicode="8" horiz-adv-x="1107" 
d="M553 170q113 0 181 59t67 147q0 88 -68 149q-69 61 -181 61t-180 -60t-67 -149q-1 -87 67 -147t181 -60zM553 748q90 0 154 56q63 56 63 143t-59 140t-157 53t-158 -52q-60 -54 -60 -141t64 -143t153 -56zM553 -16q-215 0 -345 108t-130 266q0 102 60 184t169 126
q-92 47 -146 123t-55 165q0 158 127 264t320 107q193 0 319 -106t127 -265q0 -90 -54 -166t-146 -122q109 -45 170 -126t61 -184q0 -158 -131 -266t-346 -108z" />
    <glyph glyph-name="nine" unicode="9" horiz-adv-x="1157" 
d="M832 667q0 99 -77 170t-189 71t-188 -74t-75 -174q0 -100 71 -166q70 -66 184 -66t194 70t80 169zM1067 471q1 -331 -161 -531t-386 -200t-330 110q-55 59 -55 126t41 111t100 44q60 0 102 -41t42 -96q0 -18 -8 -47q47 -20 114 -21q117 0 218 126t108 343
q-43 -63 -130 -107t-185 -44q-197 0 -329 118t-132 299q0 179 139 305t351 126t339 -127q162 -162 162 -494z" />
    <glyph glyph-name="colon" unicode=":" horiz-adv-x="565" 
d="M283 -16q-68 0 -116 48t-48 116t48 115q48 48 116 48q67 0 115 -48t48 -116q0 -67 -48 -115t-115 -48zM283 524q-68 0 -116 48t-48 116t48 116t116 48q67 0 115 -48t48 -116t-48 -116t-115 -48z" />
    <glyph glyph-name="semicolon" unicode=";" horiz-adv-x="565" 
d="M119 162q0 60 47 104q47 45 118 45q72 0 120 -51t48 -150t-84 -225q-86 -125 -266 -229l-63 82q195 156 203 266q-55 16 -89 57t-34 101zM283 524q-68 0 -116 48t-48 116t48 116t116 48q67 0 115 -48t48 -116t-48 -116t-115 -48z" />
    <glyph glyph-name="less" unicode="&#x3c;" horiz-adv-x="868" 
d="M633 139l-529 381v123l529 381l104 -139l-420 -303l420 -303z" />
    <glyph glyph-name="equal" unicode="=" horiz-adv-x="950" 
d="M106 293v188h738v-188h-738zM106 678v188h738v-188h-738z" />
    <glyph glyph-name="greater" unicode="&#x3e;" horiz-adv-x="868" 
d="M236 139l-105 140l420 303l-420 303l105 139l528 -381v-123z" />
    <glyph glyph-name="question" unicode="?" horiz-adv-x="1001" 
d="M457 -16q-63 0 -108 44q-44 44 -44 107t44 109q43 46 107 45q64 0 108 -45q44 -44 44 -108t-44 -108t-107 -44zM47 1065q0 79 55 149q56 70 154 114t219 44q203 0 330 -108t127 -266q0 -157 -94 -261t-287 -141l-19 -188h-153l-41 331q182 25 266 91t84 152q0 85 -60 139
q-60 55 -173 55t-168 -62q35 -29 35 -85t-32 -93t-91 -37t-106 44q-46 44 -46 122z" />
    <glyph glyph-name="at" unicode="@" horiz-adv-x="1665" 
d="M666 377q0 -51 26 -88t88 -37t123 68t61 183q0 116 -114 115q-72 0 -128 -74t-56 -167zM721 -367q-279 -1 -460 187t-181 493q0 393 252 675t612 282q287 0 465 -171t178 -429t-121 -433t-309 -176q-104 -1 -170 47t-76 128q-106 -174 -262 -175q-96 0 -157 78t-62 199
q0 193 108 338t247 145t210 -153l54 137h208l-120 -471q-37 -137 77 -137q100 0 179 135q77 136 77 338t-143 348t-367 147q-224 -1 -396 -117q-173 -116 -270 -313t-97 -439t148 -400t380 -158q166 0 324 84l47 -90q-174 -99 -375 -99z" />
    <glyph glyph-name="A" unicode="A" horiz-adv-x="1425" 
d="M520 618h377l-188 531zM27 0v207h116l336 936h-147v205h762v-205h-148l336 -936h117v-207h-518v205h155l-75 221h-504l-76 -221h164v-205h-518z" />
    <glyph glyph-name="B" unicode="B" horiz-adv-x="1220" 
d="M459 776h157q121 0 187 51q65 51 65 139t-67 133q-68 46 -191 46h-151v-369zM459 203h182q123 0 195 50t71 144q0 94 -70 145q-71 50 -202 50h-176v-389zM76 0v207h153v934h-153v207h538q240 0 366 -98t126 -257q0 -113 -62 -189t-167 -112q268 -78 268 -315
q0 -173 -133 -275t-375 -102h-561z" />
    <glyph glyph-name="C" unicode="C" horiz-adv-x="1437" 
d="M807 -25q-313 0 -513 193t-200 500t205 506t504 198q225 0 373 -99t149 -226q0 -74 -42 -120q-43 -46 -109 -46t-109 40t-43 93t14 82q-78 61 -239 61q-199 0 -331 -136t-132 -344t132 -347q132 -140 348 -140t380 179l154 -160q-100 -111 -240 -173t-301 -61z" />
    <glyph glyph-name="D" unicode="D" horiz-adv-x="1456" 
d="M461 207h133q256 0 392 128t136 348t-145 339t-399 119h-117v-934zM76 0v207h153v934h-153v207h510q364 0 570 -178t206 -488t-207 -496t-594 -186h-485z" />
    <glyph glyph-name="E" unicode="E" horiz-adv-x="1181" 
d="M76 0v207h153v934h-153v207h1005v-385h-221v180h-399v-361h407v-196h-407v-381h401v180h221v-385h-1007z" />
    <glyph glyph-name="F" unicode="F" horiz-adv-x="1144" 
d="M76 0v207h153v934h-153v207h993v-385h-221v180h-387v-385h397v-199h-397v-352h178v-207h-563z" />
    <glyph glyph-name="G" unicode="G" horiz-adv-x="1486" 
d="M741 -25q-263 -1 -455 191t-192 502t205 507q205 198 504 197q225 0 373 -99t149 -226q0 -74 -42 -120q-43 -46 -109 -46t-109 40t-43 93t14 82q-78 61 -239 61q-199 0 -331 -135t-132 -350t132 -351q132 -137 318 -137t318 86v232h-336v196h563v-698h-221v100
q-160 -125 -367 -125z" />
    <glyph glyph-name="H" unicode="H" horiz-adv-x="1544" 
d="M76 0v207h153v934h-153v207h553v-207h-168v-357h622v357h-168v207h553v-207h-153v-934h153v-207h-553v207h168v375h-622v-375h168v-207h-553z" />
    <glyph glyph-name="I" unicode="I" horiz-adv-x="710" 
d="M76 0v207h164v934h-164v207h559v-207h-164v-934h164v-207h-559z" />
    <glyph glyph-name="J" unicode="J" horiz-adv-x="1105" 
d="M903 444q-1 -236 -117 -352t-300 -117q-184 1 -308 99q-123 98 -123 241q0 80 43 128q44 49 106 49t102 -40t40 -100t-47 -100q43 -68 178 -68q90 0 145 55t56 205v697h-203v207h576v-207h-148v-697z" />
    <glyph glyph-name="K" unicode="K" horiz-adv-x="1394" 
d="M76 0v207h153v934h-153v207h553v-203h-168v-457l452 457h-153v203h594v-207h-146l-377 -371l345 -563h178v-207h-324l-375 614l-194 -190v-217h168v-207h-553z" />
    <glyph glyph-name="L" unicode="L" horiz-adv-x="1122" 
d="M76 0v207h153v934h-153v207h563v-207h-178v-936h370v190h224v-395h-979z" />
    <glyph glyph-name="M" unicode="M" horiz-adv-x="1765" 
d="M66 0v207h159l43 934h-168v207h369l414 -750l413 750h367v-207h-168l43 -934h160v-207h-553v207h162l-27 694l-385 -676h-31l-385 676l-26 -694h161v-207h-548z" />
    <glyph glyph-name="N" unicode="N" horiz-adv-x="1521" 
d="M455 207h168v-207h-547v207h153v934h-153v207h350l664 -846v639h-168v207h540v-207h-147v-1143l-125 -4l-735 936v-723z" />
    <glyph glyph-name="O" unicode="O" horiz-adv-x="1570" 
d="M786 190q197 0 324 136t127 348q0 211 -128 347t-324 136q-195 0 -323 -136t-128 -347q0 -212 128 -348t324 -136zM782 -25q-304 0 -496 200t-192 499q0 298 196 498t499 200t495 -200t193 -498q0 -298 -196 -499q-196 -200 -499 -200z" />
    <glyph glyph-name="P" unicode="P" horiz-adv-x="1189" 
d="M626 649q116 0 189 69q74 69 74 181t-79 177t-204 65h-145v-488q49 -4 165 -4zM76 0v207h153v934h-153v207h542q222 0 366 -120t144 -333t-145 -331t-391 -118q-102 0 -131 3v-242h168v-207h-553z" />
    <glyph glyph-name="Q" unicode="Q" horiz-adv-x="1570" 
d="M785 1157q-195 0 -323 -136t-128 -349q0 -214 130 -348t324 -134q195 0 322 136t127 348q0 211 -128 347t-324 136zM1294 -283q-63 0 -136 25q-72 25 -106 42q-34 16 -117 70t-85 56q-80 53 -172 70q-233 40 -408 214q-176 174 -176 476t196 502t499 200t495 -200
t193 -498q0 -250 -128 -416t-319 -225q39 -12 74 -33q100 -59 181 -59t177 71l121 -184q-107 -111 -289 -111z" />
    <glyph glyph-name="R" unicode="R" horiz-adv-x="1269" 
d="M592 705q133 0 215 61q82 62 82 166t-80 156t-223 53h-125v-432q49 -4 131 -4zM76 0v207h153v934h-153v207h522q242 0 386 -104t144 -304q0 -127 -70 -224t-184 -143l207 -366h154v-207h-311l-271 512q-57 -4 -111 -4t-81 2v-303h168v-207h-553z" />
    <glyph glyph-name="S" unicode="S" horiz-adv-x="1136" 
d="M571 -25q-205 1 -347 95t-142 219q0 71 39 115t103 44t106 -40q41 -42 41 -90t-19 -85q82 -57 204 -57t186 48t65 129t-63 128t-236 107t-274 146q-101 85 -101 252t123 277q124 109 318 109t323 -85t129 -206q0 -71 -39 -111t-103 -40t-103 41q-40 41 -40 86t15 73
q-68 41 -172 41t-160 -45q-56 -44 -57 -120q0 -76 62 -120q63 -44 177 -85t179 -72q174 -83 224 -194q30 -68 29 -158q0 -188 -131 -295t-336 -107z" />
    <glyph glyph-name="T" unicode="T" horiz-adv-x="1263" 
d="M348 0v207h168v940h-250v-213h-219v414h1170v-414h-220v213h-249v-940h167v-207h-567z" />
    <glyph glyph-name="U" unicode="U" horiz-adv-x="1417" 
d="M1214 496q0 -256 -136 -388t-368 -133q-232 0 -370 131q-137 131 -137 386v649h-148v207h541v-207h-162v-637q0 -154 73 -236t205 -82t204 78t73 232v645h-162v207h535v-207h-148v-645z" />
    <glyph glyph-name="V" unicode="V" horiz-adv-x="1409" 
d="M27 1141v207h532v-207h-141l291 -740l290 740h-149v207h532v-207h-122l-490 -1155h-131l-489 1155h-123z" />
    <glyph glyph-name="W" unicode="W" horiz-adv-x="2093" 
d="M47 1141v207h574v-207h-179l220 -709l333 785h123l334 -785l205 709h-184v207h573v-207h-143l-363 -1155h-129l-360 829l-363 -829h-129l-369 1155h-143z" />
    <glyph glyph-name="X" unicode="X" horiz-adv-x="1447" 
d="M49 0v207h146l399 487l-365 447h-153v207h563v-203h-141l237 -324l240 324h-158v203h563v-207h-153l-363 -443l389 -491h146v-207h-553v203h139l-262 366l-274 -366h153v-203h-553z" />
    <glyph glyph-name="Y" unicode="Y" horiz-adv-x="1320" 
d="M375 0v207h170v307l-383 627h-135v207h510v-207h-119l248 -432l245 432h-127v207h510v-207h-135l-383 -627v-307h170v-207h-571z" />
    <glyph glyph-name="Z" unicode="Z" horiz-adv-x="1280" 
d="M90 0v131l762 1022h-524v-225h-197v420h1047v-131l-762 -1022h579v225h195v-420h-1100z" />
    <glyph glyph-name="bracketleft" unicode="[" horiz-adv-x="780" 
d="M186 -410v1909h533v-192h-318v-1522h318v-195h-533z" />
    <glyph glyph-name="backslash" unicode="\" horiz-adv-x="1044" 
d="M850 -436l-838 1884l183 82l837 -1884z" />
    <glyph glyph-name="bracketright" unicode="]" horiz-adv-x="780" 
d="M61 -410v195h318v1522h-318v192h533v-1909h-533z" />
    <glyph glyph-name="asciicircum" unicode="^" horiz-adv-x="942" 
d="M209 659l-100 115l362 361l363 -361l-101 -115l-262 172z" />
    <glyph glyph-name="underscore" unicode="_" horiz-adv-x="1171" 
d="M-16 -342v209h1204v-209h-1204z" />
    <glyph glyph-name="grave" unicode="`" horiz-adv-x="479" 
d="M41 1330q0 54 30 84q29 30 81 30t102 -64l225 -307l-69 -67l-306 221q-63 49 -63 103z" />
    <glyph glyph-name="a" unicode="a" horiz-adv-x="1042" 
d="M434 145q115 0 225 80v142q-86 20 -176 20t-136 -35t-46 -92t36 -86t97 -29zM659 553q0 190 -210 188q-51 0 -89 -14q26 -80 -26 -129q-35 -33 -86 -33t-85 33t-34 88q0 92 92 160t264 67q223 0 322 -120q70 -84 70 -226v-383h133v-184h-346v98q-134 -114 -302 -114
q-122 0 -206 66t-84 188q0 124 99 196t245 72t243 -25v72z" />
    <glyph glyph-name="b" unicode="b" horiz-adv-x="1122" 
d="M578 176q106 0 176 74t70 200t-68 198t-174 73q-106 0 -209 -90v-385q99 -70 205 -70zM623 -16q-145 0 -273 102l-49 -90h-151v1315h-136v188h359v-700q119 115 264 114q180 0 298 -130q118 -131 118 -329t-125 -334t-305 -136z" />
    <glyph glyph-name="c" unicode="c" horiz-adv-x="1021" 
d="M565 -16q-215 0 -355 130t-140 326t130 335q130 138 315 138t301 -94t116 -207q0 -70 -41 -110t-99 -41q-58 0 -99 40q-40 40 -40 89t29 82q-44 61 -146 61t-172 -73q-70 -72 -71 -202q0 -130 84 -208t218 -78t308 94l-18 -200q-144 -82 -320 -82z" />
    <glyph glyph-name="d" unicode="d" horiz-adv-x="1148" 
d="M299 447q0 -127 68 -199q67 -72 173 -72t210 90v385q-100 70 -206 70t-175 -74q-70 -74 -70 -200zM485 -16q-180 0 -298 130q-117 130 -117 328t125 335q125 136 305 136q147 0 250 -86v484h-136v188h359v-1315h133v-184h-356v98q-120 -114 -265 -114z" />
    <glyph glyph-name="e" unicode="e" horiz-adv-x="1024" 
d="M530 733q-88 0 -150 -50t-79 -155h436q-4 94 -61 150q-58 55 -146 55zM598 172q160 0 326 94l-19 -200q-139 -82 -350 -82t-348 127t-137 329t126 338q126 135 330 135q204 1 320 -121q115 -122 115 -309q-1 -59 -11 -110h-647q45 -201 295 -201z" />
    <glyph glyph-name="f" unicode="f" horiz-adv-x="700" 
d="M436 1104v-207h234v-188h-234v-525h174v-184h-530v184h135v525h-154v188h154v174q0 125 26 207t89 143q98 94 245 95q87 0 143 -42t56 -104t-36 -98q-36 -35 -85 -35q-86 0 -129 84q-88 -37 -88 -217z" />
    <glyph glyph-name="g" unicode="g" horiz-adv-x="1140" 
d="M540 721q-108 0 -175 -68q-66 -69 -66 -191t66 -189t172 -67t200 89v356q-89 70 -197 70zM737 4v129q-115 -115 -273 -115t-277 122q-117 122 -117 316t121 325q122 132 298 132q143 0 256 -96v80h349v-188h-133v-711q0 -168 -84 -270q-113 -137 -336 -138
q-113 0 -208 32q-194 65 -194 198q0 49 34 87t87 38t89 -33t36 -84q0 -18 -4 -35q68 -23 133 -22q223 0 223 233z" />
    <glyph glyph-name="h" unicode="h" horiz-adv-x="1159" 
d="M770 559q0 152 -129 152q-104 0 -231 -105v-422h122v-184h-479v184h133v1127h-133v188h357v-737q160 152 305 152t211 -88q66 -87 67 -212v-430h133v-184h-479v184h123v375z" />
    <glyph glyph-name="i" unicode="i" horiz-adv-x="624" 
d="M66 0v184h137v525h-137v188h360v-713h133v-184h-493zM442 1182q0 -60 -45 -104t-105 -44t-105 43q-44 43 -44 105t45 104q46 43 106 43t104 -43t44 -104z" />
    <glyph glyph-name="j" unicode="j" horiz-adv-x="606" 
d="M479 1182q0 -60 -45 -104t-105 -44t-105 43q-44 43 -44 105t45 104q45 43 105 43t105 -43q44 -43 44 -104zM256 2v707h-168v188h391v-883q0 -145 -51 -243q-90 -180 -309 -181q-107 0 -163 48t-56 106t35 96q35 37 85 37t82 -31t41 -77q113 25 113 233z" />
    <glyph glyph-name="k" unicode="k" horiz-adv-x="1130" 
d="M53 0v184h133v1127h-133v188h357v-1005l262 225h-125v178h530v-188h-166l-209 -177l228 -344h147v-188h-280l-258 403l-129 -108v-115h112v-180h-469z" />
    <glyph glyph-name="l" unicode="l" horiz-adv-x="604" 
d="M53 0v184h140v1127h-140v188h363v-1315h133v-184h-496z" />
    <glyph glyph-name="m" unicode="m" horiz-adv-x="1712" 
d="M760 563q0 146 -121 148q-100 0 -219 -101v-426h119v-184h-476v184h134v525h-134v188h349v-141q145 158 312 158t230 -148q152 147 299 147q186 0 256 -129q37 -68 37 -168v-432h133v-184h-477v184h121v379q0 146 -121 148q-100 0 -219 -101v-426h121v-184h-467v184h123
v379z" />
    <glyph glyph-name="n" unicode="n" horiz-adv-x="1169" 
d="M780 559q0 150 -129 152q-104 0 -231 -105v-422h123v-184h-480v184h134v525h-134v188h349v-143q164 160 316 160t228 -115q47 -76 48 -185v-430h133v-184h-480v184h123v375z" />
    <glyph glyph-name="o" unicode="o" horiz-adv-x="1093" 
d="M547 170q109 0 179 78t69 201q0 123 -70 201q-71 78 -179 77q-108 0 -178 -78q-70 -79 -69 -201q-1 -122 69 -200t179 -78zM1024 451q0 -191 -132 -329t-346 -138t-345 135t-131 327t132 330q132 137 346 137t345 -135t131 -327z" />
    <glyph glyph-name="p" unicode="p" horiz-adv-x="1146" 
d="M610 176q102 0 170 74t68 200t-66 198t-170 73q-104 0 -202 -90v-385q98 -70 200 -70zM53 -401v184h133v926h-133v188h348v-102q127 119 267 118q176 0 293 -130q117 -129 117 -327t-124 -335q-123 -137 -301 -137q-131 0 -243 86v-287h145v-184h-502z" />
    <glyph glyph-name="q" unicode="q" horiz-adv-x="1089" 
d="M299 447q0 -127 68 -199q67 -72 173 -72t210 90v385q-100 70 -206 70t-175 -74q-70 -74 -70 -200zM588 -401v188h162v311q-119 -115 -265 -114q-180 0 -298 130q-117 130 -117 328t125 335q125 136 305 136q145 0 272 -102l49 92h152v-1116h135v-188h-520z" />
    <glyph glyph-name="r" unicode="r" horiz-adv-x="890" 
d="M696 913q80 0 123 -42t43 -102t-39 -101t-94 -41q-94 0 -131 80q-47 -17 -97 -65t-81 -105v-353h155v-184h-512v184h134v525h-134v188h349v-203q137 219 284 219z" />
    <glyph glyph-name="s" unicode="s" horiz-adv-x="937" 
d="M481 915q84 -1 170 -29t133 -75t47 -107q-1 -60 -31 -93t-81 -33t-85 30t-34 68q0 39 4 51q-57 23 -128 23q-72 0 -110 -27t-38 -65t41 -62t184 -64q143 -38 223 -94t80 -179q0 -124 -110 -201t-269 -76q-103 0 -201 32q-194 62 -194 197q0 49 34 85t84 36t86 -32t36 -87
q0 -12 -5 -37q72 -29 153 -29t127 25t46 66q0 40 -37 64q-38 24 -186 62t-226 98q-78 58 -79 171q0 113 95 197t271 85z" />
    <glyph glyph-name="t" unicode="t" horiz-adv-x="755" 
d="M414 291q0 -109 108 -109q74 0 176 47l-18 -192q-106 -53 -215 -53q-178 0 -242 122q-31 55 -30 142v461h-175v188h175v188l221 97v-285h272v-188h-272v-418z" />
    <glyph glyph-name="u" unicode="u" horiz-adv-x="1159" 
d="M389 338q0 -150 129 -152q104 0 232 105v418h-140v188h363v-713h133v-184h-348v143q-164 -159 -320 -159t-227 118q-45 74 -45 181v426h-133v188h356v-559z" />
    <glyph glyph-name="v" unicode="v" horiz-adv-x="1101" 
d="M10 709v188h459v-178h-129l215 -467l215 467h-135v178h457v-188h-105l-356 -725h-160l-356 725h-105z" />
    <glyph glyph-name="w" unicode="w" horiz-adv-x="1486" 
d="M10 709v188h461v-184h-127l123 -441l211 533h153l209 -533l123 441h-147v184h461v-188h-131l-222 -744h-157l-224 549l-223 -549h-158l-221 744h-131z" />
    <glyph glyph-name="x" unicode="x" horiz-adv-x="1095" 
d="M25 0v188h118l279 265l-270 256h-107v188h453v-176h-113l166 -174l164 174h-115v176h444v-188h-110l-262 -250l284 -271h115v-188h-453v176h105l-182 191l-179 -191h107v-176h-444z" />
    <glyph glyph-name="y" unicode="y" horiz-adv-x="1089" 
d="M244 -408q-86 0 -140 42q-53 42 -53 98t32 87q32 30 79 29q70 0 98 -67q40 10 64 43t49 80l67 141l-319 664h-111v188h463v-178h-131l207 -473l209 473h-140v178h461v-188h-108l-420 -891q-33 -68 -70 -109q-100 -117 -237 -117z" />
    <glyph glyph-name="z" unicode="z" horiz-adv-x="948" 
d="M59 0v131l541 590h-317v-166h-191v342h787v-129l-541 -590h362v166h189v-344h-830z" />
    <glyph glyph-name="braceleft" unicode="{" horiz-adv-x="794" 
d="M150 -111q0 92 43 159t124 136q47 43 68 72t21 75t-56 81t-170 34h-59v189h59q113 0 169 35q57 35 57 81q0 47 -20 75t-86 84t-108 124q-42 66 -42 158q0 147 132 236t420 98v-170q-342 -20 -342 -166q0 -56 100 -156t138 -160q39 -60 39 -134t-67 -128t-181 -71
q115 -17 181 -71t67 -129q0 -75 -39 -134q-38 -59 -138 -159t-100 -157q0 -145 342 -165v-170q-288 8 -420 97t-132 236z" />
    <glyph glyph-name="bar" unicode="|" horiz-adv-x="581" 
d="M195 -410v1909h192v-1909h-192z" />
    <glyph glyph-name="braceright" unicode="}" horiz-adv-x="794" 
d="M434 -109q0 57 -100 157t-137 159q-39 59 -39 134t66 128q67 53 182 72q-115 18 -182 71q-66 52 -66 128t39 134t116 138q121 121 121 178q0 145 -342 166v170q289 -8 421 -98t132 -236q0 -92 -43 -159t-125 -136q-47 -43 -67 -72t-20 -75t55 -80q56 -35 169 -35h60v-189
h-60q-113 0 -169 -34t-56 -81q1 -46 21 -75t67 -72q82 -70 125 -136t43 -159q0 -147 -132 -236t-421 -97v170q342 20 342 165z" />
    <glyph glyph-name="asciitilde" unicode="~" horiz-adv-x="942" 
d="M626 377q-93 0 -173 72t-127 71q-74 0 -107 -131l-151 39q16 143 86 226t162 83q92 1 174 -71q80 -72 126 -72q74 0 107 131l151 -39q-16 -143 -86 -226t-162 -83z" />
    <glyph glyph-name="uni00A0" unicode="&#xa0;" horiz-adv-x="450" 
 />
    <glyph glyph-name="exclamdown" unicode="&#xa1;" horiz-adv-x="569" 
d="M143 0l80 938h123l80 -938h-283zM285 1057q-63 0 -108 45q-44 45 -44 108q0 64 44 108q43 44 107 44t108 -44t44 -108t-44 -108q-44 -45 -107 -45z" />
    <glyph glyph-name="cent" unicode="&#xa2;" horiz-adv-x="1124" 
d="M309 562q0 -200 160 -275l49 540q-94 -21 -152 -93t-57 -172zM1014 726q0 -79 -41 -118t-95 -39t-92 37q-36 37 -36 85t28 89q-47 39 -112 49l-54 -575h17q182 0 356 94l-16 -190q-143 -82 -363 -82h-4l-27 -295l-163 14l28 301q-166 43 -258 166t-92 289t123 298
t315 152l19 209l164 -14l-19 -201q139 -27 231 -108q91 -82 91 -161z" />
    <glyph glyph-name="sterling" unicode="&#xa3;" horiz-adv-x="1122" 
d="M864 227h-340v-10q0 -127 -80 -221q92 0 198 -31t162 -31t90 28t77 104l141 -78q-43 -138 -115 -194t-182 -56q-109 0 -243 48t-226 48q-63 -96 -182 -96q-57 0 -96 33t-39 77q0 72 65 120q66 48 172 38q57 92 58 205v16h-238v172h211q-8 17 -14 39q-70 170 -70 262
q0 164 113 277t305 113q152 0 255 -76t103 -189q0 -71 -39 -109t-91 -38t-89 36t-37 77t17 77q-35 35 -128 35q-92 0 -144 -61q-52 -62 -52 -152t53 -229l21 -62h364v-172z" />
    <glyph glyph-name="yen" unicode="&#xa5;" horiz-adv-x="1112" 
d="M150 510v168h176l-150 229h-141v168h457v-164h-121l184 -303l184 303h-129v164h457v-168h-141l-150 -229h176v-168h-284l-21 -31v-55h305v-168h-305v-92h180v-164h-553v164h181v92h-305v168h305v55l-21 31h-284z" />
    <glyph glyph-name="section" unicode="&#xa7;" horiz-adv-x="952" 
d="M467 461q25 -8 74 -21q109 25 108 82q0 42 -128 78q-42 12 -48 14l-72 21q-113 -27 -112 -84q0 -43 178 -90zM476 1092q144 0 236 -52t91 -137q0 -43 -32 -73t-81 -30t-81 28q-31 26 -31 56t6 38q-36 20 -132 20t-96 -57q0 -48 105 -81q163 -50 234 -77t96 -52
q57 -55 57 -120q0 -119 -150 -180q92 -61 92 -161t-88 -166q-90 -64 -232 -64t-238 48q-95 48 -95 140q0 43 32 73q32 29 80 29t81 -26q32 -26 32 -59q0 -32 -6 -37q30 -18 128 -18t98 61q0 32 -42 50t-140 47q-97 28 -142 46q-114 46 -150 104q-22 35 -22 78q0 127 160 178
q-100 62 -100 160t92 166q94 68 238 68z" />
    <glyph glyph-name="dieresis" unicode="&#xa8;" horiz-adv-x="782" 
d="M179 1034q-60 0 -104 43t-44 105t45 104q45 43 105 43q61 0 105 -43t44 -104t-45 -105q-46 -43 -106 -43zM601 1034q-60 0 -104 43t-44 105t45 104q45 43 105 43q61 0 105 -43t44 -104t-45 -105q-46 -43 -106 -43z" />
    <glyph glyph-name="copyright" unicode="&#xa9;" horiz-adv-x="1269" 
d="M620 731q-68 0 -118 -52q-51 -52 -51 -132t50 -133q50 -54 133 -54t148 66l56 -59q-74 -97 -202 -97t-206 75t-78 196t80 199t182 77q102 0 161 -39q58 -39 59 -90q0 -27 -18 -45t-42 -18q-25 0 -42 17q-17 18 -17 36t6 29q-33 24 -101 24zM612 78q186 0 318 134
q131 134 131 327t-129 325q-130 132 -318 133q-188 0 -317 -133q-129 -134 -129 -328t129 -326t315 -132zM613 -16q-230 0 -391 160t-161 392t161 394t392 162q230 0 392 -162t162 -392t-162 -393q-163 -161 -393 -161z" />
    <glyph glyph-name="ordfeminine" unicode="&#xaa;" horiz-adv-x="729" 
d="M201 981q0 -66 74 -66t141 48v84q-47 12 -111 12q-104 0 -104 -78zM80 578v122h547v-122h-547zM311 1372q236 0 236 -207v-227h80v-111h-209v60q-82 -70 -168 -70t-136 40t-50 113q0 72 58 116q60 44 152 44t142 -14v41q0 113 -127 113q-31 0 -56 -8q7 -12 7 -36t-20 -43
t-52 -19q-31 0 -50 20q-20 20 -20 63t56 84t157 41z" />
    <glyph glyph-name="guillemotleft" unicode="&#xab;" horiz-adv-x="1161" 
d="M457 186l-408 392l408 391l133 -133l-250 -258l250 -259zM952 186l-407 392l407 391l133 -133l-249 -258l249 -259z" />
    <glyph glyph-name="registered" unicode="&#xae;" horiz-adv-x="831" 
d="M385 1073h29q61 0 61 45t-63 45h-27v-90zM279 889v63h34v211h-34v64h137q61 0 100 -27t39 -83t-59 -85l39 -80h36v-63h-88l-57 123h-41v-60h35v-63h-141zM416 1343q-119 1 -203 -83t-84 -207t84 -206t203 -83q118 0 202 83t84 206t-84 207t-202 83zM416 688
q-154 0 -262 106t-107 259q0 154 108 260q107 106 261 106t262 -106t106 -260q0 -153 -107 -259t-261 -106z" />
    <glyph glyph-name="macron" unicode="&#xaf;" horiz-adv-x="745" 
d="M31 1073v182h684v-182h-684z" />
    <glyph glyph-name="degree" unicode="&#xb0;" horiz-adv-x="630" 
d="M315 954q57 0 99 41q41 41 41 99t-41 98q-40 41 -98 41t-99 -41t-41 -98q0 -56 41 -98t98 -42zM315 815q-115 0 -197 82t-81 197q0 114 82 196q83 82 197 82t196 -82t82 -196t-82 -197q-82 -82 -197 -82z" />
    <glyph glyph-name="plusminus" unicode="&#xb1;" horiz-adv-x="950" 
d="M106 35v188h738v-188h-738zM381 391v275h-275v188h275v274h188v-274h275v-188h-275v-275h-188z" />
    <glyph glyph-name="two.sup" unicode="&#xb2;" horiz-adv-x="722" 
d="M477 1409q0 51 -35 78t-83 27t-84 -13q-36 -12 -48 -24q37 -17 37 -61t-24 -68t-60 -25q-90 -1 -90 99t75 157t191 57t191 -62q76 -62 76 -163q0 -55 -30 -102q-29 -47 -59 -70t-79 -51q-154 -92 -213 -187h282v129h119v-249h-534l-43 67q35 82 96 154t98 100t91 66
q54 37 71 49q55 41 55 92z" />
    <glyph glyph-name="three.sup" unicode="&#xb3;" horiz-adv-x="722" 
d="M637 1063q0 -85 -84 -141t-205 -56t-201 52t-79 133q0 39 26 67t62 27q38 0 62 -25q24 -26 24 -56t-11 -54q45 -29 109 -29t105 28q40 29 40 77t-40 82t-136 34h-45v113h47q160 0 160 117q0 40 -36 62t-87 22t-82 -21q8 -25 8 -53t-26 -54t-61 -26t-61 29t-26 79t69 104
q69 56 183 56t193 -55q78 -55 78 -129t-43 -120q-43 -48 -111 -66q68 -18 118 -64t50 -133z" />
    <glyph glyph-name="acute" unicode="&#xb4;" horiz-adv-x="479" 
d="M70 1006l-70 67l225 307q49 64 101 64t83 -30q29 -30 29 -84t-63 -103z" />
    <glyph glyph-name="paragraph" unicode="&#xb6;" horiz-adv-x="1243" 
d="M707 186h118v654h-118v-654zM365 0v190h163v205q-35 -2 -102 -2q-160 0 -261 87q-101 86 -101 228t104 230q106 88 264 88h748v-195h-176v-636h176v-195h-815z" />
    <glyph glyph-name="periodcentered" unicode="&#xb7;" horiz-adv-x="524" 
d="M262 369q-70 0 -119 49t-49 119q0 69 49 119t119 50t119 -50t49 -120t-49 -118q-49 -49 -119 -49z" />
    <glyph glyph-name="cedilla" unicode="&#xb8;" horiz-adv-x="491" 
d="M240 -410q-122 0 -240 70l35 68q100 -43 180 -43t80 53t-121 53l-22 -2l-43 51l84 205l65 -8l16 -127q98 -12 158 -55t60 -107t-65 -110q-65 -48 -187 -48z" />
    <glyph glyph-name="one.sup" unicode="&#xb9;" horiz-adv-x="722" 
d="M117 883v131h186v459l-168 -43l-33 120l273 76h76v-612h180v-131h-514z" />
    <glyph glyph-name="ordmasculine" unicode="&#xba;" horiz-adv-x="712" 
d="M356 928q66 0 108 47t42 121t-42 121t-108 47t-108 -47t-41 -121q-1 -74 41 -121t108 -47zM355 817q-128 0 -207 81q-78 81 -78 197q0 115 80 197t208 82t206 -81q79 -81 79 -197t-80 -197q-80 -82 -208 -82zM92 578v122h529v-122h-529z" />
    <glyph glyph-name="guillemotright" unicode="&#xbb;" horiz-adv-x="1161" 
d="M209 186l-133 133l250 259l-250 258l133 133l407 -391zM705 186l-134 133l250 259l-250 258l134 133l407 -391z" />
    <glyph glyph-name="onequarter" unicode="&#xbc;" horiz-adv-x="1628" 
d="M1145 0v106h139v107h-332l-47 86l400 473l104 -84l-338 -375h213v119l125 49v-155h113v-119h-113v-96h84v-111h-348zM1284 1282q-504 -776 -797 -1315l-100 66q203 313 399 629t398 686zM98 575v132h187v458l-168 -43l-33 121l272 76h76v-612h180v-132h-514z" />
    <glyph glyph-name="onehalf" unicode="&#xbd;" horiz-adv-x="1628" 
d="M1255 1282q-498 -767 -796 -1315l-101 66q204 313 400 629t397 686zM82 575v132h186v458l-168 -43l-32 121l272 76h76v-612h180v-132h-514zM1380 524q0 51 -34 78q-36 27 -84 27q-48 -1 -84 -13t-48 -24q37 -18 37 -62q-1 -44 -25 -68t-59 -24q-90 0 -90 100t75 156
q75 58 191 58q115 0 191 -62t76 -164q0 -55 -30 -102t-60 -70t-78 -51q-154 -92 -213 -186h282v129h119v-250h-534l-43 67q35 82 96 154q61 73 98 101t91 65t71 49q55 41 55 92z" />
    <glyph glyph-name="threequarters" unicode="&#xbe;" horiz-adv-x="1628" 
d="M1149 0v106h139v107h-332l-47 86l400 473l104 -84l-338 -375h213v119l125 49v-155h113v-119h-113v-96h84v-111h-348zM1305 1282q-504 -776 -797 -1315l-100 66q498 767 796 1315zM377 559q-121 0 -201 51t-80 133q0 39 26 67t62 28t62 -25q42 -42 14 -111q46 -28 110 -28
t104 28t40 76q0 49 -40 83t-136 34h-45v113h47q160 0 160 116q0 41 -36 63q-36 21 -87 21t-82 -20q8 -26 8 -54q1 -28 -25 -54t-62 -26t-62 30q-26 28 -25 78q0 50 69 106q70 56 184 55q114 0 192 -55t77 -129q0 -74 -43 -121t-110 -66q68 -18 118 -64t50 -132t-84 -142
t-205 -55z" />
    <glyph glyph-name="questiondown" unicode="&#xbf;" horiz-adv-x="1001" 
d="M545 1364q63 0 107 -44t44 -108t-44 -108q-44 -45 -107 -45t-108 45q-44 45 -44 108t44 108q45 44 108 44zM680 315q0 59 32 97t91 37q59 0 105 -44t46 -122t-55 -149t-153 -115t-220 -44q-204 0 -330 109q-126 110 -126 266t94 260t287 142l18 188h154l41 -332
q-182 -25 -267 -91q-84 -67 -84 -152q1 -85 61 -139t173 -54t168 61q-35 23 -35 82z" />
    <glyph glyph-name="Agrave" unicode="&#xc0;" horiz-adv-x="1425" 
d="M365 1791q0 54 29 84q30 30 82 30t102 -64l225 -307l-70 -68l-305 222q-63 49 -63 103zM520 618h377l-188 531zM27 0v207h116l336 936h-147v205h762v-205h-148l336 -936h117v-207h-518v205h155l-75 221h-504l-76 -221h164v-205h-518z" />
    <glyph glyph-name="Aacute" unicode="&#xc1;" horiz-adv-x="1425" 
d="M1057 1791q0 -54 -64 -103l-305 -222l-70 68l226 307q49 63 101 63t82 -29q30 -30 30 -84zM520 618h377l-188 531zM27 0v207h116l336 936h-147v205h762v-205h-148l336 -936h117v-207h-518v205h155l-75 221h-504l-76 -221h164v-205h-518z" />
    <glyph glyph-name="Acircumflex" unicode="&#xc2;" horiz-adv-x="1425" 
d="M442 1473l-94 108l363 361l362 -361l-94 -108l-268 196zM520 618h377l-188 531zM27 0v207h116l336 936h-147v205h762v-205h-148l336 -936h117v-207h-518v205h155l-75 221h-504l-76 -221h164v-205h-518z" />
    <glyph glyph-name="Atilde" unicode="&#xc3;" horiz-adv-x="1425" 
d="M869 1497q-93 0 -173 72t-127 71q-74 0 -106 -131l-152 39q16 142 86 226t163 84t173 -72t127 -72q74 0 107 131l151 -39q-16 -143 -86 -226t-163 -83zM520 618h377l-188 531zM27 0v207h116l336 936h-147v205h762v-205h-148l336 -936h117v-207h-518v205h155l-75 221h-504
l-76 -221h164v-205h-518z" />
    <glyph glyph-name="Adieresis" unicode="&#xc4;" horiz-adv-x="1425" 
d="M499 1495q-60 0 -105 43q-44 43 -44 104q0 60 45 104t105 44t105 -43q44 -43 44 -105t-45 -104q-45 -43 -105 -43zM921 1495q-60 0 -105 43q-44 43 -44 104q0 60 45 104t105 44t105 -43q44 -43 44 -105t-45 -104q-45 -43 -105 -43zM520 618h377l-188 531zM27 0v207h116
l336 936h-147v205h762v-205h-148l336 -936h117v-207h-518v205h155l-75 221h-504l-76 -221h164v-205h-518z" />
    <glyph glyph-name="Aring" unicode="&#xc5;" horiz-adv-x="1425" 
d="M713 1380q47 0 77 36t29 85q0 49 -29 85q-30 36 -77 36t-77 -36t-30 -85t30 -85t77 -36zM520 618h377l-188 531zM987 1521q0 -101 -72 -173h179v-205h-148l336 -936h117v-207h-518v205h155l-75 221h-504l-76 -221h164v-205h-518v207h116l336 936h-147v205h182
q-76 76 -76 175t80 172t195 73t195 -74q80 -72 79 -173z" />
    <glyph glyph-name="AE" unicode="&#xc6;" horiz-adv-x="1871" 
d="M920 618v531h-76l-248 -531h324zM6 0v207h170l451 934h-170v207h1315v-385h-222v180h-399v-361h408v-196h-408v-381h401v180h222v-385h-1008v207h154v219h-414l-105 -221h144v-205h-539z" />
    <glyph glyph-name="Ccedilla" unicode="&#xc7;" horiz-adv-x="1437" 
d="M807 -25q-4 0 -12 1t-13 1l9 -67q98 -12 157 -55q60 -43 60 -107t-65 -110q-65 -48 -187 -48t-240 70l35 68q100 -43 180 -43t80 53t-121 53l-22 -2l-43 51l59 144q-266 37 -428 223t-162 477t205 490t504 198q225 0 373 -99t149 -226q0 -74 -42 -120q-43 -46 -109 -46
t-109 40t-43 93t14 82q-78 61 -239 61q-199 0 -331 -136t-132 -344t132 -347q132 -140 348 -140t380 179l154 -160q-100 -111 -240 -173t-301 -61z" />
    <glyph glyph-name="Egrave" unicode="&#xc8;" horiz-adv-x="1181" 
d="M252 1791q0 54 30 84t82 30t101 -64l225 -307l-69 -68l-306 222q-63 49 -63 103zM76 0v207h153v934h-153v207h1005v-385h-221v180h-399v-361h407v-196h-407v-381h401v180h221v-385h-1007z" />
    <glyph glyph-name="Eacute" unicode="&#xc9;" horiz-adv-x="1181" 
d="M944 1791q0 -54 -63 -103l-306 -222l-69 68l225 307q49 63 101 63t82 -29q30 -30 30 -84zM76 0v207h153v934h-153v207h1005v-385h-221v180h-399v-361h407v-196h-407v-381h401v180h221v-385h-1007z" />
    <glyph glyph-name="Ecircumflex" unicode="&#xca;" horiz-adv-x="1181" 
d="M330 1473l-94 108l362 361l363 -361l-95 -108l-268 196zM76 0v207h153v934h-153v207h1005v-385h-221v180h-399v-361h407v-196h-407v-381h401v180h221v-385h-1007z" />
    <glyph glyph-name="Edieresis" unicode="&#xcb;" horiz-adv-x="1181" 
d="M238 1642q0 60 45 104t105 44t104 -43t45 -105t-45 -104q-46 -43 -106 -43t-104 43t-44 104zM808 1495q-60 0 -105 43q-44 43 -44 104q-1 60 45 104t106 44t104 -43t44 -105t-45 -104q-45 -43 -105 -43zM76 0v207h153v934h-153v207h1005v-385h-221v180h-399v-361h407
v-196h-407v-381h401v180h221v-385h-1007z" />
    <glyph glyph-name="Igrave" unicode="&#xcc;" horiz-adv-x="710" 
d="M120 1905q52 0 101 -64l225 -307l-69 -68l-305 222q-64 49 -64 103t30 84t82 30zM76 0v207h164v934h-164v207h559v-207h-164v-934h164v-207h-559z" />
    <glyph glyph-name="Iacute" unicode="&#xcd;" horiz-adv-x="710" 
d="M332 1466l-70 68l225 307q49 63 101 63t83 -29q29 -30 29 -84t-63 -103zM76 0v207h164v934h-164v207h559v-207h-164v-934h164v-207h-559z" />
    <glyph glyph-name="Icircumflex" unicode="&#xce;" horiz-adv-x="710" 
d="M86 1473l-94 108l362 361l363 -361l-94 -108l-269 196zM76 0v207h164v934h-164v207h559v-207h-164v-934h164v-207h-559z" />
    <glyph glyph-name="Idieresis" unicode="&#xcf;" horiz-adv-x="710" 
d="M-6 1642q0 60 45 104t105 44t104 -43t45 -105t-45 -104q-46 -43 -106 -43t-104 43t-44 104zM416 1642q0 60 45 104t105 44t104 -43t45 -105t-45 -104q-46 -43 -106 -43t-104 43t-44 104zM76 0v207h164v934h-164v207h559v-207h-164v-934h164v-207h-559z" />
    <glyph glyph-name="Eth" unicode="&#xd0;" horiz-adv-x="1476" 
d="M481 207h133q256 0 393 128q136 128 136 348q1 220 -145 339t-400 119h-117v-359h281v-186h-281v-389zM250 596h-174v186h174v359h-154v207h510q356 0 566 -182t210 -488q0 -307 -202 -493q-203 -185 -578 -185h-506v207h154v389z" />
    <glyph glyph-name="Ntilde" unicode="&#xd1;" horiz-adv-x="1521" 
d="M919 1497q-93 0 -173 72t-128 71q-74 0 -106 -131l-152 39q16 142 86 226t163 84t173 -72t127 -72q74 0 107 131l151 -39q-15 -143 -85 -226t-163 -83zM455 207h168v-207h-547v207h153v934h-153v207h350l664 -846v639h-168v207h540v-207h-147v-1143l-125 -4l-735 936
v-723z" />
    <glyph glyph-name="Ograve" unicode="&#xd2;" horiz-adv-x="1570" 
d="M550 1905q52 0 101 -64l226 -307l-70 -68l-305 222q-64 49 -64 103t30 84t82 30zM786 190q197 0 324 136t127 348q0 211 -128 347t-324 136q-195 0 -323 -136t-128 -347q0 -212 128 -348t324 -136zM782 -25q-304 0 -496 200t-192 499q0 298 196 498t499 200t495 -200
t193 -498q0 -298 -196 -499q-196 -200 -499 -200z" />
    <glyph glyph-name="Oacute" unicode="&#xd3;" horiz-adv-x="1570" 
d="M762 1466l-70 68l226 307q49 63 101 63t82 -29q29 -30 29 -84t-63 -103zM786 190q197 0 324 136t127 348q0 211 -128 347t-324 136q-195 0 -323 -136t-128 -347q0 -212 128 -348t324 -136zM782 -25q-304 0 -496 200t-192 499q0 298 196 498t499 200t495 -200t193 -498
q0 -298 -196 -499q-196 -200 -499 -200z" />
    <glyph glyph-name="Ocircumflex" unicode="&#xd4;" horiz-adv-x="1570" 
d="M516 1473l-94 108l362 361l363 -361l-94 -108l-269 196zM786 190q197 0 324 136t127 348q0 211 -128 347t-324 136q-195 0 -323 -136t-128 -347q0 -212 128 -348t324 -136zM782 -25q-304 0 -496 200t-192 499q0 298 196 498t499 200t495 -200t193 -498q0 -298 -196 -499
q-196 -200 -499 -200z" />
    <glyph glyph-name="Otilde" unicode="&#xd5;" horiz-adv-x="1570" 
d="M943 1497q-93 0 -173 72t-127 71q-74 0 -106 -131l-152 39q16 142 86 226t163 84t173 -72t127 -72q74 0 106 131l152 -39q-16 -143 -86 -226t-163 -83zM786 190q197 0 324 136t127 348q0 211 -128 347t-324 136q-195 0 -323 -136t-128 -347q0 -212 128 -348t324 -136z
M782 -25q-304 0 -496 200t-192 499q0 298 196 498t499 200t495 -200t193 -498q0 -298 -196 -499q-196 -200 -499 -200z" />
    <glyph glyph-name="Odieresis" unicode="&#xd6;" horiz-adv-x="1570" 
d="M424 1642q0 60 45 104t105 44t104 -43t45 -105t-45 -104q-46 -43 -106 -43t-104 43t-44 104zM846 1642q0 60 45 104t105 44t104 -43t45 -105t-45 -104q-46 -43 -106 -43t-104 43t-44 104zM786 190q197 0 324 136t127 348q0 211 -128 347t-324 136q-195 0 -323 -136
t-128 -347q0 -212 128 -348t324 -136zM782 -25q-304 0 -496 200t-192 499q0 298 196 498t499 200t495 -200t193 -498q0 -298 -196 -499q-196 -200 -499 -200z" />
    <glyph glyph-name="multiply" unicode="&#xd7;" horiz-adv-x="950" 
d="M682 215l-207 227l-207 -227l-137 137l207 228l-207 227l137 137l207 -227l207 227l137 -137l-207 -227l207 -228z" />
    <glyph glyph-name="Oslash" unicode="&#xd8;" horiz-adv-x="1570" 
d="M786 190q197 0 324 136t127 348q0 166 -76 287l-618 -707q104 -64 243 -64zM786 1157q-196 0 -324 -136q-128 -135 -128 -333t88 -321l622 716q-113 74 -258 74zM780 -25q-211 0 -374 109l-158 -182l-148 131l156 182q-162 195 -162 477t196 480q196 200 501 200
q217 0 391 -121l164 191l147 -131l-168 -193q152 -195 152 -444q0 -299 -196 -499t-501 -200z" />
    <glyph glyph-name="Ugrave" unicode="&#xd9;" horiz-adv-x="1417" 
d="M474 1905q52 0 101 -64l226 -307l-70 -68l-305 222q-64 49 -64 103t30 84t82 30zM1214 496q0 -256 -136 -388t-368 -133q-232 0 -370 131q-137 131 -137 386v649h-148v207h541v-207h-162v-637q0 -154 73 -236t205 -82t204 78t73 232v645h-162v207h535v-207h-148v-645z
" />
    <glyph glyph-name="Uacute" unicode="&#xda;" horiz-adv-x="1417" 
d="M1055 1791q0 -54 -64 -103l-305 -222l-70 68l226 307q49 63 101 63t82 -29q30 -30 30 -84zM1214 496q0 -256 -136 -388t-368 -133q-232 0 -370 131q-137 131 -137 386v649h-148v207h541v-207h-162v-637q0 -154 73 -236t205 -82t204 78t73 232v645h-162v207h535v-207h-148
v-645z" />
    <glyph glyph-name="Ucircumflex" unicode="&#xdb;" horiz-adv-x="1417" 
d="M440 1473l-94 108l363 361l362 -361l-94 -108l-268 196zM1214 496q0 -256 -136 -388t-368 -133q-232 0 -370 131q-137 131 -137 386v649h-148v207h541v-207h-162v-637q0 -154 73 -236t205 -82t204 78t73 232v645h-162v207h535v-207h-148v-645z" />
    <glyph glyph-name="Udieresis" unicode="&#xdc;" horiz-adv-x="1417" 
d="M497 1495q-60 0 -105 43q-44 43 -44 104q0 60 45 104t105 44t105 -43q44 -43 44 -105t-45 -104q-45 -43 -105 -43zM919 1495q-60 0 -105 43q-44 43 -44 104q0 60 45 104t105 44t105 -43q44 -43 44 -105t-45 -104q-45 -43 -105 -43zM1214 496q0 -256 -136 -388t-368 -133
q-232 0 -370 131q-137 131 -137 386v649h-148v207h541v-207h-162v-637q0 -154 73 -236t205 -82t204 78t73 232v645h-162v207h535v-207h-148v-645z" />
    <glyph glyph-name="Yacute" unicode="&#xdd;" horiz-adv-x="1320" 
d="M1006 1791q0 -54 -64 -103l-305 -222l-70 68l226 307q49 63 101 63t82 -29q30 -30 30 -84zM375 0v207h170v307l-383 627h-135v207h510v-207h-119l248 -432l245 432h-127v207h510v-207h-135l-383 -627v-307h170v-207h-571z" />
    <glyph glyph-name="Thorn" unicode="&#xde;" horiz-adv-x="1189" 
d="M674 518q90 0 152 41t62 125t-60 122q-62 38 -154 38q-164 0 -213 -4v-318q49 -4 213 -4zM76 0v207h153v934h-153v207h549v-201h-164v-117q29 2 219 2t320 -85q128 -85 128 -262t-132 -267t-320 -90t-215 2v-129h164v-201h-549z" />
    <glyph glyph-name="germandbls" unicode="&#xdf;" horiz-adv-x="1259" 
d="M1210 287q0 -151 -93 -227t-247 -76t-235 74q-80 74 -80 155q0 49 34 85t82 36t86 -31t38 -70t-15 -69q29 -12 78 -12q137 0 137 124q0 71 -75 125q-29 20 -112 68t-132 93q-88 82 -88 198t123 233q92 92 92 165t-51 122t-134 49q-109 0 -157 -106q-31 -63 -31 -160
v-1063h-356v184h135v525h-154v188h154v133q0 184 70 303q106 182 352 183q177 0 285 -96t108 -246q0 -60 -24 -112t-48 -78t-65 -66q-98 -92 -99 -152q0 -34 33 -62t115 -74t133 -82t96 -106t45 -155z" />
    <glyph glyph-name="agrave" unicode="&#xe0;" horiz-adv-x="1042" 
d="M170 1330q0 54 30 84t82 30t101 -64l225 -307l-69 -67l-306 221q-63 49 -63 103zM434 145q115 0 225 80v142q-86 20 -176 20t-136 -35t-46 -92t36 -86t97 -29zM659 553q0 190 -210 188q-51 0 -89 -14q26 -80 -26 -129q-35 -33 -86 -33t-85 33t-34 88q0 92 92 160t264 67
q223 0 322 -120q70 -84 70 -226v-383h133v-184h-346v98q-134 -114 -302 -114q-122 0 -206 66t-84 188q0 124 99 196t245 72t243 -25v72z" />
    <glyph glyph-name="aacute" unicode="&#xe1;" horiz-adv-x="1042" 
d="M494 1006l-70 67l225 307q49 64 101 64t83 -30q29 -30 29 -84t-63 -103zM434 145q115 0 225 80v142q-86 20 -176 20t-136 -35t-46 -92t36 -86t97 -29zM659 553q0 190 -210 188q-51 0 -89 -14q26 -80 -26 -129q-35 -33 -86 -33t-85 33t-34 88q0 92 92 160t264 67
q223 0 322 -120q70 -84 70 -226v-383h133v-184h-346v98q-134 -114 -302 -114q-122 0 -206 66t-84 188q0 124 99 196t245 72t243 -25v72z" />
    <glyph glyph-name="acircumflex" unicode="&#xe2;" horiz-adv-x="1042" 
d="M248 1012l-94 108l362 361l363 -361l-95 -108l-268 196zM434 145q115 0 225 80v142q-86 20 -176 20t-136 -35t-46 -92t36 -86t97 -29zM659 553q0 190 -210 188q-51 0 -89 -14q26 -80 -26 -129q-35 -33 -86 -33t-85 33t-34 88q0 92 92 160t264 67q223 0 322 -120
q70 -84 70 -226v-383h133v-184h-346v98q-134 -114 -302 -114q-122 0 -206 66t-84 188q0 124 99 196t245 72t243 -25v72z" />
    <glyph glyph-name="atilde" unicode="&#xe3;" horiz-adv-x="1042" 
d="M675 1036q-93 0 -173 72t-127 72q-74 0 -107 -131l-151 38q16 143 86 227q71 84 163 83q92 0 172 -72t128 -72q74 0 106 131l152 -38q-16 -142 -86 -226t-163 -84zM434 145q115 0 225 80v142q-86 20 -176 20t-136 -35t-46 -92t36 -86t97 -29zM659 553q0 190 -210 188
q-51 0 -89 -14q26 -80 -26 -129q-35 -33 -86 -33t-85 33t-34 88q0 92 92 160t264 67q223 0 322 -120q70 -84 70 -226v-383h133v-184h-346v98q-134 -114 -302 -114q-122 0 -206 66t-84 188q0 124 99 196t245 72t243 -25v72z" />
    <glyph glyph-name="adieresis" unicode="&#xe4;" horiz-adv-x="1042" 
d="M304 1034q-60 0 -104 43t-44 105t45 104q45 43 105 43t104 -43t45 -104q0 -61 -45 -105q-46 -43 -106 -43zM877 1182q1 -60 -45 -104t-106 -44t-104 43t-44 105t45 104q45 43 105 43t104 -43t45 -104zM434 145q115 0 225 80v142q-86 20 -176 20t-136 -35t-46 -92t36 -86
t97 -29zM659 553q0 190 -210 188q-51 0 -89 -14q26 -80 -26 -129q-35 -33 -86 -33t-85 33t-34 88q0 92 92 160t264 67q223 0 322 -120q70 -84 70 -226v-383h133v-184h-346v98q-134 -114 -302 -114q-122 0 -206 66t-84 188q0 124 99 196t245 72t243 -25v72z" />
    <glyph glyph-name="aring" unicode="&#xe5;" horiz-adv-x="1042" 
d="M516 1141q47 0 77 36t30 85t-30 85q-30 35 -77 35t-77 -36q-29 -36 -29 -84q0 -49 30 -85t76 -36zM516 995q-114 0 -194 77t-80 190q0 114 80 190t194 76t195 -77q80 -77 80 -189t-80 -190q-80 -77 -195 -77zM434 145q115 0 225 80v142q-86 20 -176 20t-136 -35t-46 -92
t36 -86t97 -29zM659 553q0 190 -210 188q-51 0 -89 -14q26 -80 -26 -129q-35 -33 -86 -33t-85 33t-34 88q0 92 92 160t264 67q223 0 322 -120q70 -84 70 -226v-383h133v-184h-346v98q-134 -114 -302 -114q-122 0 -206 66t-84 188q0 124 99 196t245 72t243 -25v72z" />
    <glyph glyph-name="ae" unicode="&#xe6;" horiz-adv-x="1587" 
d="M1093 733q-88 0 -150 -50t-79 -155h436q-4 94 -61 150q-58 55 -146 55zM444 145q119 0 244 119q-20 59 -29 109q-115 14 -191 14t-121 -35q-46 -35 -46 -96q0 -111 143 -111zM449 741q-51 0 -89 -14q26 -80 -26 -129q-35 -33 -86 -33t-85 33t-34 88q0 92 92 160t263 68
t255 -105q23 -31 35 -61q115 166 321 166q205 0 317 -124q112 -122 112 -307q0 -59 -11 -110h-647q45 -201 295 -201q160 0 326 94l-19 -200q-139 -82 -319 -82q-264 0 -399 174q-76 -84 -182 -129t-185 -45q-137 0 -224 66t-87 188q0 124 99 196t245 72t243 -25v72
q0 80 -34 125q-49 63 -176 63z" />
    <glyph glyph-name="ccedilla" unicode="&#xe7;" horiz-adv-x="1021" 
d="M772 -252q0 -64 -64 -110q-64 -48 -188 -48q-122 0 -239 70l34 68q101 -43 181 -43t79 53q0 53 -120 53l-23 -2l-43 51l64 154q-172 33 -278 156q-105 123 -105 305t130 320t315 138t301 -94t116 -207q0 -70 -41 -110t-99 -41q-58 0 -99 40q-40 40 -40 89t29 82
q-44 61 -146 61t-172 -73q-70 -72 -71 -202q0 -130 84 -208t218 -78t308 94l-18 -200q-143 -82 -320 -82h-20l10 -74q97 -12 157 -55t60 -107z" />
    <glyph glyph-name="egrave" unicode="&#xe8;" horiz-adv-x="1024" 
d="M530 733q-88 0 -150 -50t-79 -155h436q-4 94 -61 150q-58 55 -146 55zM296 1444q52 0 101 -64l226 -307l-70 -67l-305 221q-64 49 -64 103t30 84t82 30zM598 172q160 0 326 94l-19 -200q-139 -82 -350 -82t-348 127t-137 329t126 338q126 135 330 135q204 1 320 -121
q115 -122 115 -309q-1 -59 -11 -110h-647q45 -201 295 -201z" />
    <glyph glyph-name="eacute" unicode="&#xe9;" horiz-adv-x="1024" 
d="M530 733q-88 0 -150 -50t-79 -155h436q-4 94 -61 150q-58 55 -146 55zM877 1330q0 -54 -64 -103l-305 -221l-70 67l226 307q49 64 101 64t82 -30t30 -84zM598 172q160 0 326 94l-19 -200q-139 -82 -350 -82t-348 127t-137 329t126 338q126 135 330 135q204 1 320 -121
q115 -122 115 -309q-1 -59 -11 -110h-647q45 -201 295 -201z" />
    <glyph glyph-name="ecircumflex" unicode="&#xea;" horiz-adv-x="1024" 
d="M530 733q-88 0 -150 -50t-79 -155h436q-4 94 -61 150q-58 55 -146 55zM262 1012l-94 108l362 361l363 -361l-94 -108l-269 196zM598 172q160 0 326 94l-19 -200q-139 -82 -350 -82t-348 127t-137 329t126 338q126 135 330 135q204 1 320 -121q115 -122 115 -309
q-1 -59 -11 -110h-647q45 -201 295 -201z" />
    <glyph glyph-name="edieresis" unicode="&#xeb;" horiz-adv-x="1024" 
d="M318 1034q-60 0 -104 43t-44 105t45 104q45 43 105 43t105 -43q44 -43 44 -104t-45 -105q-46 -43 -106 -43zM740 1034q-60 0 -104 43t-44 105t45 104q45 43 105 43t104 -43t45 -104q0 -61 -45 -105q-46 -43 -106 -43zM530 733q-88 0 -150 -50t-79 -155h436q-4 94 -61 150
q-58 55 -146 55zM598 172q160 0 326 94l-19 -200q-139 -82 -350 -82t-348 127t-137 329t126 338q126 135 330 135q204 1 320 -121q115 -122 115 -309q-1 -59 -11 -110h-647q45 -201 295 -201z" />
    <glyph glyph-name="igrave" unicode="&#xec;" horiz-adv-x="624" 
d="M-55 1330q0 54 29 84q30 30 82 30t102 -64l225 -307l-70 -67l-305 221q-63 49 -63 103zM66 0v184h137v525h-137v188h360v-713h133v-184h-493z" />
    <glyph glyph-name="iacute" unicode="&#xed;" horiz-adv-x="624" 
d="M637 1330q0 -54 -64 -103l-305 -221l-69 67l225 307q50 64 102 64t82 -30t29 -84zM66 0v184h137v525h-137v188h360v-713h133v-184h-493z" />
    <glyph glyph-name="icircumflex" unicode="&#xee;" horiz-adv-x="624" 
d="M23 1012l-95 108l363 361l362 -361l-94 -108l-268 196zM66 0v184h137v525h-137v188h360v-713h133v-184h-493z" />
    <glyph glyph-name="idieresis" unicode="&#xef;" horiz-adv-x="624" 
d="M229 1182q0 -60 -45 -104t-105 -44t-105 43q-44 43 -44 105t45 104q45 43 105 43t105 -43q44 -43 44 -104zM651 1182q0 -60 -45 -104t-105 -44t-105 43q-44 43 -44 105t45 104q45 43 105 43t105 -43q44 -43 44 -104zM66 0v184h137v525h-137v188h360v-713h133v-184h-493z
" />
    <glyph glyph-name="eth" unicode="&#xf0;" horiz-adv-x="1112" 
d="M555 168q117 0 197 72t79 183q1 111 -77 187t-197 76t-197 -76t-78 -184t78 -184q78 -74 195 -74zM289 1516q187 0 387 -168l198 165l115 -135l-190 -159q244 -303 243 -699q0 -279 -157 -422q-127 -114 -335 -114t-344 128t-136 315t135 316t342 129q147 0 266 -108
q-35 197 -166 350l-190 -162l-115 135l176 148q-78 57 -166 86q-41 -84 -129 -84q-49 0 -85 35q-36 36 -36 98t54 104t133 42z" />
    <glyph glyph-name="ntilde" unicode="&#xf1;" horiz-adv-x="1169" 
d="M759 1036q-93 0 -173 72t-127 72q-74 0 -107 -131l-151 38q16 143 86 227q71 84 163 83q92 0 172 -72t128 -72q74 0 106 131l152 -38q-16 -142 -86 -226t-163 -84zM780 559q0 150 -129 152q-104 0 -231 -105v-422h123v-184h-480v184h134v525h-134v188h349v-143
q164 160 316 160t228 -115q47 -76 48 -185v-430h133v-184h-480v184h123v375z" />
    <glyph glyph-name="ograve" unicode="&#xf2;" horiz-adv-x="1093" 
d="M201 1330q0 54 29 84q30 30 82 30t102 -64l225 -307l-70 -67l-305 221q-63 49 -63 103zM547 170q109 0 179 78t69 201q0 123 -70 201q-71 78 -179 77q-108 0 -178 -78q-70 -79 -69 -201q-1 -122 69 -200t179 -78zM1024 451q0 -191 -132 -329t-346 -138t-345 135t-131 327
t132 330q132 137 346 137t345 -135t131 -327z" />
    <glyph glyph-name="oacute" unicode="&#xf3;" horiz-adv-x="1093" 
d="M893 1330q0 -54 -64 -103l-305 -221l-69 67l225 307q50 64 102 64t82 -30t29 -84zM547 170q109 0 179 78t69 201q0 123 -70 201q-71 78 -179 77q-108 0 -178 -78q-70 -79 -69 -201q-1 -122 69 -200t179 -78zM1024 451q0 -191 -132 -329t-346 -138t-345 135t-131 327
t132 330q132 137 346 137t345 -135t131 -327z" />
    <glyph glyph-name="ocircumflex" unicode="&#xf4;" horiz-adv-x="1093" 
d="M279 1012l-95 108l363 361l362 -361l-94 -108l-268 196zM547 170q109 0 179 78t69 201q0 123 -70 201q-71 78 -179 77q-108 0 -178 -78q-70 -79 -69 -201q-1 -122 69 -200t179 -78zM1024 451q0 -191 -132 -329t-346 -138t-345 135t-131 327t132 330q132 137 346 137
t345 -135t131 -327z" />
    <glyph glyph-name="otilde" unicode="&#xf5;" horiz-adv-x="1093" 
d="M706 1036q-94 0 -174 72t-126 72q-74 0 -107 -131l-152 38q16 143 86 227t163 83q93 0 173 -72t127 -72q74 0 107 131l151 -38q-16 -142 -86 -226t-162 -84zM547 170q109 0 179 78t69 201q0 123 -70 201q-71 78 -179 77q-108 0 -178 -78q-70 -79 -69 -201
q-1 -122 69 -200t179 -78zM1024 451q0 -191 -132 -329t-346 -138t-345 135t-131 327t132 330q132 137 346 137t345 -135t131 -327z" />
    <glyph glyph-name="odieresis" unicode="&#xf6;" horiz-adv-x="1093" 
d="M485 1182q0 -60 -45 -104t-105 -44t-105 43q-44 43 -44 105t45 104q45 43 105 43t105 -43q44 -43 44 -104zM907 1182q0 -60 -45 -104t-105 -44t-105 43q-44 43 -44 105t45 104q45 43 105 43t105 -43q44 -43 44 -104zM547 170q109 0 179 78t69 201q0 123 -70 201
q-71 78 -179 77q-108 0 -178 -78q-70 -79 -69 -201q-1 -122 69 -200t179 -78zM1024 451q0 -191 -132 -329t-346 -138t-345 135t-131 327t132 330q132 137 346 137t345 -135t131 -327z" />
    <glyph glyph-name="divide" unicode="&#xf7;" horiz-adv-x="950" 
d="M476 137q-54 0 -94 39t-40 94q0 54 41 94t95 40t94 -40q40 -38 40 -94t-41 -94q-41 -39 -95 -39zM476 756q-54 0 -94 39t-40 94t41 94t95 39t94 -39t40 -94t-41 -94t-95 -39zM844 485h-738v189h738v-189z" />
    <glyph glyph-name="oslash" unicode="&#xf8;" horiz-adv-x="1093" 
d="M547 170q109 0 179 78t69 182q0 104 -29 166l-332 -406q47 -20 113 -20zM547 727q-109 1 -179 -77t-69 -188q0 -110 35 -177l334 415q-57 27 -121 27zM547 -16q-121 0 -225 49l-101 -121l-137 113l98 116q-112 129 -112 313t132 322q132 137 345 137q125 0 235 -57
l107 127l137 -113l-106 -127q104 -127 104 -305t-132 -316t-345 -138z" />
    <glyph glyph-name="ugrave" unicode="&#xf9;" horiz-adv-x="1159" 
d="M203 1330q0 54 29 84q30 30 82 30t102 -64l225 -307l-70 -67l-305 221q-63 49 -63 103zM389 338q0 -150 129 -152q104 0 232 105v418h-140v188h363v-713h133v-184h-348v143q-164 -159 -320 -159t-227 118q-45 74 -45 181v426h-133v188h356v-559z" />
    <glyph glyph-name="uacute" unicode="&#xfa;" horiz-adv-x="1159" 
d="M895 1330q0 -54 -64 -103l-305 -221l-69 67l225 307q50 64 102 64t82 -30t29 -84zM389 338q0 -150 129 -152q104 0 232 105v418h-140v188h363v-713h133v-184h-348v143q-164 -159 -320 -159t-227 118q-45 74 -45 181v426h-133v188h356v-559z" />
    <glyph glyph-name="ucircumflex" unicode="&#xfb;" horiz-adv-x="1159" 
d="M281 1012l-95 108l363 361l362 -361l-94 -108l-268 196zM389 338q0 -150 129 -152q104 0 232 105v418h-140v188h363v-713h133v-184h-348v143q-164 -159 -320 -159t-227 118q-45 74 -45 181v426h-133v188h356v-559z" />
    <glyph glyph-name="udieresis" unicode="&#xfc;" horiz-adv-x="1159" 
d="M487 1182q0 -60 -45 -104t-105 -44t-105 43q-44 43 -44 105t45 104q45 43 105 43t105 -43q44 -43 44 -104zM909 1182q0 -60 -45 -104t-105 -44t-105 43q-44 43 -44 105t45 104q45 43 105 43t105 -43q44 -43 44 -104zM389 338q0 -150 129 -152q104 0 232 105v418h-140v188
h363v-713h133v-184h-348v143q-164 -159 -320 -159t-227 118q-45 74 -45 181v426h-133v188h356v-559z" />
    <glyph glyph-name="yacute" unicode="&#xfd;" horiz-adv-x="1089" 
d="M891 1330q0 -54 -64 -103l-305 -221l-69 67l225 307q50 64 102 64t82 -30t29 -84zM244 -408q-86 0 -140 42q-53 42 -53 98t32 87q32 30 79 29q70 0 98 -67q40 10 64 43t49 80l67 141l-319 664h-111v188h463v-178h-131l207 -473l209 473h-140v178h461v-188h-108l-420 -891
q-33 -68 -70 -109q-100 -117 -237 -117z" />
    <glyph glyph-name="thorn" unicode="&#xfe;" horiz-adv-x="1091" 
d="M548 178q102 0 171 73q67 73 67 199t-66 198t-168 71q-104 0 -204 -90v-381q98 -70 200 -70zM-8 -401v184h133v1528h-139v188h362v-700q117 113 258 112q176 0 293 -129q117 -128 117 -326t-123 -334t-301 -136q-131 0 -244 86v-289h146v-184h-502z" />
    <glyph glyph-name="ydieresis" unicode="&#xff;" horiz-adv-x="1089" 
d="M905 1182q0 -60 -45 -104t-105 -44t-105 43q-44 43 -44 105t45 104q45 43 105 43t105 -43q44 -43 44 -104zM483 1182q0 -60 -45 -104t-105 -44t-105 43q-44 43 -44 105t45 104q45 43 105 43t105 -43q44 -43 44 -104zM244 -408q-86 0 -140 42q-53 42 -53 98t32 87
q32 30 79 29q70 0 98 -67q40 10 64 43t49 80l67 141l-319 664h-111v188h463v-178h-131l207 -473l209 473h-140v178h461v-188h-108l-420 -891q-33 -68 -70 -109q-100 -117 -237 -117z" />
    <glyph glyph-name="Amacron" unicode="&#x100;" horiz-adv-x="1425" 
d="M369 1534v182h684v-182h-684zM520 618h377l-188 531zM27 0v207h116l336 936h-147v205h762v-205h-148l336 -936h117v-207h-518v205h155l-75 221h-504l-76 -221h164v-205h-518z" />
    <glyph glyph-name="amacron" unicode="&#x101;" horiz-adv-x="1042" 
d="M174 1073v182h684v-182h-684zM434 145q115 0 225 80v142q-86 20 -176 20t-136 -35t-46 -92t36 -86t97 -29zM659 553q0 190 -210 188q-51 0 -89 -14q26 -80 -26 -129q-35 -33 -86 -33t-85 33t-34 88q0 92 92 160t264 67q223 0 322 -120q70 -84 70 -226v-383h133v-184h-346
v98q-134 -114 -302 -114q-122 0 -206 66t-84 188q0 124 99 196t245 72t243 -25v72z" />
    <glyph glyph-name="Abreve" unicode="&#x102;" horiz-adv-x="1425" 
d="M707 1495q-127 0 -229 88q-101 88 -148 268l141 56q87 -211 235 -211t236 211l141 -56q-47 -180 -148 -268t-228 -88zM520 618h377l-188 531zM27 0v207h116l336 936h-147v205h762v-205h-148l336 -936h117v-207h-518v205h155l-75 221h-504l-76 -221h164v-205h-518z" />
    <glyph glyph-name="abreve" unicode="&#x103;" horiz-adv-x="1042" 
d="M512 1034q-127 0 -228 88t-149 269l141 55q86 -211 234 -211t238 211l141 -55q-47 -181 -149 -269t-228 -88zM434 145q115 0 225 80v142q-86 20 -176 20t-136 -35t-46 -92t36 -86t97 -29zM659 553q0 190 -210 188q-51 0 -89 -14q26 -80 -26 -129q-35 -33 -86 -33t-85 33
t-34 88q0 92 92 160t264 67q223 0 322 -120q70 -84 70 -226v-383h133v-184h-346v98q-134 -114 -302 -114q-122 0 -206 66t-84 188q0 124 99 196t245 72t243 -25v72z" />
    <glyph glyph-name="Aogonek" unicode="&#x104;" horiz-adv-x="1425" 
d="M520 618h377l-188 531zM1159 -412q-115 0 -176 58t-61 164q0 104 102 190h-143v205h155l-75 221h-504l-76 -221h164v-205h-518v207h116l336 936h-147v205h762v-205h-148l336 -936h117v-207h-193q-98 -63 -98 -145q0 -94 106 -95q78 0 144 35l-10 -162q-74 -45 -189 -45z
" />
    <glyph glyph-name="aogonek" unicode="&#x105;" horiz-adv-x="1042" 
d="M434 145q115 0 225 80v142q-86 20 -176 20t-136 -35t-46 -92t36 -86t97 -29zM659 553q0 190 -210 188q-51 0 -89 -14q26 -80 -26 -129q-35 -33 -86 -33t-85 33t-34 88q0 92 92 160t264 67q223 0 322 -120q70 -84 70 -226v-383h133v-184h-170q-98 -63 -99 -145
q0 -94 107 -95q78 0 143 35l-10 -162q-74 -45 -189 -45t-176 58t-61 153q0 121 109 205v94q-133 -115 -302 -114q-122 0 -206 66t-84 188q0 124 99 196t245 72t243 -25v72z" />
    <glyph glyph-name="Cacute" unicode="&#x106;" horiz-adv-x="1437" 
d="M760 1466l-70 68l225 307q49 63 101 63t83 -29q29 -30 29 -84t-63 -103zM807 -25q-313 0 -513 193t-200 500t205 506t504 198q225 0 373 -99t149 -226q0 -74 -42 -120q-43 -46 -109 -46t-109 40t-43 93t14 82q-78 61 -239 61q-199 0 -331 -136t-132 -344t132 -347
q132 -140 348 -140t380 179l154 -160q-100 -111 -240 -173t-301 -61z" />
    <glyph glyph-name="cacute" unicode="&#x107;" horiz-adv-x="1021" 
d="M877 1330q0 -54 -64 -103l-305 -221l-70 67l226 307q49 64 101 64t82 -30t30 -84zM565 -16q-215 0 -355 130t-140 326t130 335q130 138 315 138t301 -94t116 -207q0 -70 -41 -110t-99 -41q-58 0 -99 40q-40 40 -40 89t29 82q-44 61 -146 61t-172 -73q-70 -72 -71 -202
q0 -130 84 -208t218 -78t308 94l-18 -200q-144 -82 -320 -82z" />
    <glyph glyph-name="Cdotaccent" unicode="&#x10a;" horiz-adv-x="1437" 
d="M932 1622q0 -61 -46 -104t-105 -43q-60 0 -104 43t-44 104t45 104t105 43q61 0 105 -43t44 -104zM807 -25q-313 0 -513 193t-200 500t205 506t504 198q225 0 373 -99t149 -226q0 -74 -42 -120q-43 -46 -109 -46t-109 40t-43 93t14 82q-78 61 -239 61q-199 0 -331 -136
t-132 -344t132 -347q132 -140 348 -140t380 179l154 -160q-100 -111 -240 -173t-301 -61z" />
    <glyph glyph-name="cdotaccent" unicode="&#x10b;" horiz-adv-x="1021" 
d="M381 1161q0 61 45 105t105 43q61 0 105 -43q44 -42 44 -104t-46 -105t-105 -43q-60 0 -104 43t-44 104zM565 -16q-215 0 -355 130t-140 326t130 335q130 138 315 138t301 -94t116 -207q0 -70 -41 -110t-99 -41q-58 0 -99 40q-40 40 -40 89t29 82q-44 61 -146 61t-172 -73
q-70 -72 -71 -202q0 -130 84 -208t218 -78t308 94l-18 -200q-144 -82 -320 -82z" />
    <glyph glyph-name="Ccaron" unicode="&#x10c;" horiz-adv-x="1437" 
d="M1049 1927l94 -108l-363 -361l-362 361l94 108l268 -196zM807 -25q-313 0 -513 193t-200 500t205 506t504 198q225 0 373 -99t149 -226q0 -74 -42 -120q-43 -46 -109 -46t-109 40t-43 93t14 82q-78 61 -239 61q-199 0 -331 -136t-132 -344t132 -347q132 -140 348 -140
t380 179l154 -160q-100 -111 -240 -173t-301 -61z" />
    <glyph glyph-name="ccaron" unicode="&#x10d;" horiz-adv-x="1021" 
d="M797 1466l94 -108l-363 -361l-362 361l94 108l268 -196zM565 -16q-215 0 -355 130t-140 326t130 335q130 138 315 138t301 -94t116 -207q0 -70 -41 -110t-99 -41q-58 0 -99 40q-40 40 -40 89t29 82q-44 61 -146 61t-172 -73q-70 -72 -71 -202q0 -130 84 -208t218 -78
t308 94l-18 -200q-144 -82 -320 -82z" />
    <glyph glyph-name="Dcaron" unicode="&#x10e;" horiz-adv-x="1456" 
d="M944 1927l94 -108l-362 -361l-363 361l95 108l268 -196zM461 207h133q256 0 392 128t136 348t-145 339t-399 119h-117v-934zM76 0v207h153v934h-153v207h510q364 0 570 -178t206 -488t-207 -496t-594 -186h-485z" />
    <glyph glyph-name="dcaron" unicode="&#x10f;" horiz-adv-x="1148" 
d="M1108 1241q0 37 -19 90q-44 122 15 189q35 39 95 39t93 -39t33 -105q0 -217 -231 -457l-72 54q86 125 86 229zM299 447q0 -127 68 -199q67 -72 173 -72t210 90v385q-100 70 -206 70t-175 -74q-70 -74 -70 -200zM485 -16q-180 0 -298 130q-117 130 -117 328t125 335
q125 136 305 136q147 0 250 -86v484h-136v188h359v-1315h133v-184h-356v98q-120 -114 -265 -114z" />
    <glyph glyph-name="Dcroat" unicode="&#x110;" horiz-adv-x="1476" 
d="M481 207h133q256 0 393 128q136 128 136 348q1 220 -145 339t-400 119h-117v-359h281v-186h-281v-389zM250 596h-174v186h174v359h-154v207h510q356 0 566 -182t210 -488q0 -307 -202 -493q-203 -185 -578 -185h-506v207h154v389z" />
    <glyph glyph-name="dcroat" unicode="&#x111;" horiz-adv-x="1148" 
d="M299 447q0 -127 68 -199q67 -72 173 -72t210 90v385q-100 70 -206 70t-175 -74q-70 -74 -70 -200zM453 1022v164h297v125h-136v188h359v-313h133v-164h-133v-838h133v-184h-356v98q-119 -115 -265 -114q-180 0 -298 130q-117 130 -117 328t125 335q125 136 305 136
q147 0 250 -86v195h-297z" />
    <glyph glyph-name="Emacron" unicode="&#x112;" horiz-adv-x="1181" 
d="M256 1534v182h684v-182h-684zM76 0v207h153v934h-153v207h1005v-385h-221v180h-399v-361h407v-196h-407v-381h401v180h221v-385h-1007z" />
    <glyph glyph-name="emacron" unicode="&#x113;" horiz-adv-x="1024" 
d="M530 733q-88 0 -150 -50t-79 -155h436q-4 94 -61 150q-58 55 -146 55zM188 1073v182h684v-182h-684zM598 172q160 0 326 94l-19 -200q-139 -82 -350 -82t-348 127t-137 329t126 338q126 135 330 135q204 1 320 -121q115 -122 115 -309q-1 -59 -11 -110h-647
q45 -201 295 -201z" />
    <glyph glyph-name="Ebreve" unicode="&#x114;" horiz-adv-x="1181" 
d="M594 1495q-127 0 -228 88t-149 268l141 56q86 -211 234 -211t237 211l142 -56q-47 -180 -149 -268t-228 -88zM76 0v207h153v934h-153v207h1005v-385h-221v180h-399v-361h407v-196h-407v-381h401v180h221v-385h-1007z" />
    <glyph glyph-name="ebreve" unicode="&#x115;" horiz-adv-x="1024" 
d="M530 733q-88 0 -150 -50t-79 -155h436q-4 94 -61 150q-58 55 -146 55zM526 1034q-127 0 -228 88t-148 269l141 55q86 -211 234 -211t237 211l141 -55q-47 -180 -148 -269q-102 -88 -229 -88zM598 172q160 0 326 94l-19 -200q-139 -82 -350 -82t-348 127t-137 329t126 338
q126 135 330 135q204 1 320 -121q115 -122 115 -309q-1 -59 -11 -110h-647q45 -201 295 -201z" />
    <glyph glyph-name="Edotaccent" unicode="&#x116;" horiz-adv-x="1181" 
d="M597 1475q-60 0 -104 43t-44 104t45 104t105 43t104 -43q45 -43 45 -104t-46 -104t-105 -43zM76 0v207h153v934h-153v207h1005v-385h-221v180h-399v-361h407v-196h-407v-381h401v180h221v-385h-1007z" />
    <glyph glyph-name="edotaccent" unicode="&#x117;" horiz-adv-x="1024" 
d="M381 1161q0 61 45 105t105 43q61 0 105 -43q44 -42 44 -104t-46 -105t-105 -43q-60 0 -104 43t-44 104zM530 733q-88 0 -150 -50t-79 -155h436q-4 94 -61 150q-58 55 -146 55zM598 172q160 0 326 94l-19 -200q-139 -82 -350 -82t-348 127t-137 329t126 338
q126 135 330 135q204 1 320 -121q115 -122 115 -309q-1 -59 -11 -110h-647q45 -201 295 -201z" />
    <glyph glyph-name="Eogonek" unicode="&#x118;" horiz-adv-x="1181" 
d="M76 0v207h153v934h-153v207h1005v-385h-221v180h-399v-361h407v-196h-407v-381h401v180h221v-385h-151q-98 -63 -98 -145q0 -94 106 -95q78 0 143 35l-10 -162q-75 -45 -189 -45t-175 58t-61 164q0 104 102 190h-674z" />
    <glyph glyph-name="eogonek" unicode="&#x119;" horiz-adv-x="1024" 
d="M530 733q-88 0 -150 -50t-79 -155h436q-4 94 -61 150q-58 55 -146 55zM598 172q160 0 326 94l-19 -205q-256 -94 -256 -211q0 -90 107 -90q78 0 143 35l-10 -162q-74 -45 -189 -45t-176 58t-61 158q0 99 84 180q-213 6 -345 133t-132 327t126 334q126 135 330 135
q204 1 320 -121q115 -122 115 -309q-1 -59 -11 -110h-647q45 -201 295 -201z" />
    <glyph glyph-name="Ecaron" unicode="&#x11a;" horiz-adv-x="1181" 
d="M864 1927l94 -108l-362 -361l-363 361l95 108l268 -196zM76 0v207h153v934h-153v207h1005v-385h-221v180h-399v-361h407v-196h-407v-381h401v180h221v-385h-1007z" />
    <glyph glyph-name="ecaron" unicode="&#x11b;" horiz-adv-x="1024" 
d="M530 733q-88 0 -150 -50t-79 -155h436q-4 94 -61 150q-58 55 -146 55zM797 1466l94 -108l-363 -361l-362 361l94 108l268 -196zM598 172q160 0 326 94l-19 -200q-139 -82 -350 -82t-348 127t-137 329t126 338q126 135 330 135q204 1 320 -121q115 -122 115 -309
q-1 -59 -11 -110h-647q45 -201 295 -201z" />
    <glyph glyph-name="Gbreve" unicode="&#x11e;" horiz-adv-x="1486" 
d="M778 1495q-127 0 -228 88t-149 268l142 56q86 -211 234 -211t237 211l141 -56q-47 -180 -149 -268t-228 -88zM741 -25q-263 -1 -455 191t-192 502t205 507q205 198 504 197q225 0 373 -99t149 -226q0 -74 -42 -120q-43 -46 -109 -46t-109 40t-43 93t14 82q-78 61 -239 61
q-199 0 -331 -135t-132 -350t132 -351q132 -137 318 -137t318 86v232h-336v196h563v-698h-221v100q-160 -125 -367 -125z" />
    <glyph glyph-name="gbreve" unicode="&#x11f;" horiz-adv-x="1140" 
d="M578 1034q-127 0 -229 88q-101 88 -148 269l141 55q86 -211 234 -211t237 211l141 -55q-47 -181 -148 -269t-228 -88zM540 721q-108 0 -175 -68q-66 -69 -66 -191t66 -189t172 -67t200 89v356q-89 70 -197 70zM737 4v129q-115 -115 -273 -115t-277 122q-117 122 -117 316
t121 325q122 132 298 132q143 0 256 -96v80h349v-188h-133v-711q0 -168 -84 -270q-113 -137 -336 -138q-113 0 -208 32q-194 65 -194 198q0 49 34 87t87 38t89 -33t36 -84q0 -18 -4 -35q68 -23 133 -22q223 0 223 233z" />
    <glyph glyph-name="Gdotaccent" unicode="&#x120;" horiz-adv-x="1486" 
d="M932 1622q0 -61 -46 -104t-105 -43q-60 0 -104 43t-44 104t45 104t105 43q61 0 105 -43t44 -104zM741 -25q-263 -1 -455 191t-192 502t205 507q205 198 504 197q225 0 373 -99t149 -226q0 -74 -42 -120q-43 -46 -109 -46t-109 40t-43 93t14 82q-78 61 -239 61
q-199 0 -331 -135t-132 -350t132 -351q132 -137 318 -137t318 86v232h-336v196h563v-698h-221v100q-160 -125 -367 -125z" />
    <glyph glyph-name="gdotaccent" unicode="&#x121;" horiz-adv-x="1140" 
d="M412 1161q0 61 45 105t105 43q60 0 104 -43q44 -42 45 -104t-45 -105t-106 -43t-104 43t-44 104zM540 721q-108 0 -175 -68q-66 -69 -66 -191t66 -189t172 -67t200 89v356q-89 70 -197 70zM737 4v129q-115 -115 -273 -115t-277 122q-117 122 -117 316t121 325
q122 132 298 132q143 0 256 -96v80h349v-188h-133v-711q0 -168 -84 -270q-113 -137 -336 -138q-113 0 -208 32q-194 65 -194 198q0 49 34 87t87 38t89 -33t36 -84q0 -18 -4 -35q68 -23 133 -22q223 0 223 233z" />
    <glyph glyph-name="Gcommaaccent" unicode="&#x122;" horiz-adv-x="1486" 
d="M645 -217q0 49 40 87t98 38q59 0 101 -43t42 -126t-72 -189t-223 -191l-53 68q162 127 170 223q-47 12 -75 48t-28 85zM741 -25q-263 -1 -455 191t-192 502t205 507q205 198 504 197q225 0 373 -99t149 -226q0 -74 -42 -120q-43 -46 -109 -46t-109 40t-43 93t14 82
q-78 61 -239 61q-199 0 -331 -135t-132 -350t132 -351q132 -137 318 -137t318 86v232h-336v196h563v-698h-221v100q-160 -125 -367 -125z" />
    <glyph glyph-name="gcommaaccent" unicode="&#x123;" horiz-adv-x="1140" 
d="M683 995q-58 0 -100 43t-42 127t71 189q72 104 224 190l53 -67q-162 -127 -170 -224q47 -12 75 -48t28 -85t-41 -87q-40 -38 -98 -38zM540 721q-108 0 -175 -68q-66 -69 -66 -191t66 -189t172 -67t200 89v356q-89 70 -197 70zM737 4v129q-115 -115 -273 -115t-277 122
q-117 122 -117 316t121 325q122 132 298 132q143 0 256 -96v80h349v-188h-133v-711q0 -168 -84 -270q-113 -137 -336 -138q-113 0 -208 32q-194 65 -194 198q0 49 34 87t87 38t89 -33t36 -84q0 -18 -4 -35q68 -23 133 -22q223 0 223 233z" />
    <glyph glyph-name="Hbar" unicode="&#x126;" horiz-adv-x="1544" 
d="M461 741h622v119h-622v-119zM115 860v170h114v127h-153v191h553v-191h-168v-127h622v127h-168v191h553v-191h-153v-127h115v-170h-115v-653h153v-207h-553v207h168v332h-622v-332h168v-207h-553v207h153v653h-114z" />
    <glyph glyph-name="hbar" unicode="&#x127;" horiz-adv-x="1159" 
d="M770 559q0 152 -129 152q-104 0 -231 -105v-422h122v-184h-479v184h133v838h-133v164h133v125h-133v188h357v-313h297v-164h-297v-260q160 152 305 152t211 -88q66 -87 67 -212v-430h133v-184h-479v184h123v375z" />
    <glyph glyph-name="Imacron" unicode="&#x12a;" horiz-adv-x="710" 
d="M12 1534v182h684v-182h-684zM76 0v207h164v934h-164v207h559v-207h-164v-934h164v-207h-559z" />
    <glyph glyph-name="imacron" unicode="&#x12b;" horiz-adv-x="624" 
d="M-51 1073v182h684v-182h-684zM66 0v184h137v525h-137v188h360v-713h133v-184h-493z" />
    <glyph glyph-name="Ibreve" unicode="&#x12c;" horiz-adv-x="710" 
d="M350 1495q-127 0 -228 88t-149 268l142 56q86 -211 234 -211t237 211l141 -56q-47 -180 -149 -268t-228 -88zM76 0v207h164v934h-164v207h559v-207h-164v-934h164v-207h-559z" />
    <glyph glyph-name="ibreve" unicode="&#x12d;" horiz-adv-x="624" 
d="M287 1034q-127 0 -229 88q-101 88 -148 269l141 55q87 -211 235 -211t236 211l142 -55q-46 -181 -148 -269t-229 -88zM66 0v184h137v525h-137v188h360v-713h133v-184h-493z" />
    <glyph glyph-name="Iogonek" unicode="&#x12e;" horiz-adv-x="710" 
d="M76 0v207h164v934h-164v207h559v-207h-164v-934h164v-207h-193q-98 -63 -98 -145q0 -94 107 -95q78 0 143 35l-10 -162q-74 -45 -189 -45t-176 58t-61 164q0 104 102 190h-184z" />
    <glyph glyph-name="iogonek" unicode="&#x12f;" horiz-adv-x="624" 
d="M442 1182q0 -60 -45 -104t-105 -44t-105 43q-44 43 -44 105t45 104q46 43 106 43t104 -43t44 -104zM66 0v184h137v525h-137v188h360v-713h133v-184h-192q-98 -63 -99 -145q0 -94 107 -95q78 0 143 35l-10 -162q-74 -45 -189 -45t-176 58t-61 164q0 104 102 190h-118z" />
    <glyph glyph-name="Idotaccent" unicode="&#x130;" horiz-adv-x="710" 
d="M504 1622q0 -61 -46 -104t-105 -43q-60 0 -104 43t-44 104t45 104t105 43q61 0 105 -43t44 -104zM76 0v207h164v934h-164v207h559v-207h-164v-934h164v-207h-559z" />
    <glyph glyph-name="dotlessi" unicode="&#x131;" horiz-adv-x="624" 
d="M66 0v184h137v525h-137v188h360v-713h133v-184h-493z" />
    <glyph glyph-name="Kcommaaccent" unicode="&#x136;" horiz-adv-x="1394" 
d="M716 -92q58 0 100 -43t42 -126t-72 -189t-223 -191l-53 68q162 127 170 223q-47 12 -75 48t-27 85q0 49 39 87q41 38 99 38zM76 0v207h153v934h-153v207h553v-203h-168v-457l452 457h-153v203h594v-207h-146l-377 -371l345 -563h178v-207h-324l-375 614l-194 -190v-217
h168v-207h-553z" />
    <glyph glyph-name="kcommaaccent" unicode="&#x137;" horiz-adv-x="1130" 
d="M428 -217q0 49 40 87t98 38t100 -43t43 -126t-71 -189t-224 -191l-54 68q162 127 170 223q-46 12 -74 48t-28 85zM53 0v184h133v1127h-133v188h357v-1005l262 225h-125v178h530v-188h-166l-209 -177l228 -344h147v-188h-280l-258 403l-129 -108v-115h112v-180h-469z" />
    <glyph glyph-name="Lacute" unicode="&#x139;" horiz-adv-x="1122" 
d="M416 1466l-70 68l225 307q49 63 101 63t83 -29q29 -30 29 -84t-63 -103zM76 0v207h153v934h-153v207h563v-207h-178v-936h370v190h224v-395h-979z" />
    <glyph glyph-name="lacute" unicode="&#x13a;" horiz-adv-x="604" 
d="M552 2058q52 0 82 -30t30 -83q0 -54 -64 -104l-305 -221l-70 68l226 307q49 63 101 63zM53 0v184h140v1127h-140v188h363v-1315h133v-184h-496z" />
    <glyph glyph-name="Lcommaaccent" unicode="&#x13b;" horiz-adv-x="1122" 
d="M428 -217q0 49 40 87t98 38t100 -43t43 -126t-71 -189t-224 -191l-54 68q162 127 170 223q-46 12 -74 48t-28 85zM76 0v207h153v934h-153v207h563v-207h-178v-936h370v190h224v-395h-979z" />
    <glyph glyph-name="lcommaaccent" unicode="&#x13c;" horiz-adv-x="604" 
d="M302 -92q58 0 100 -43t42 -126t-71 -189t-223 -191l-54 68q162 127 170 223q-47 12 -75 48t-27 85q0 49 40 87t98 38zM53 0v184h140v1127h-140v188h363v-1315h133v-184h-496z" />
    <glyph glyph-name="Lcaron" unicode="&#x13d;" horiz-adv-x="1122" 
d="M811 1036q0 37 -19 90q-20 54 -20 102t35 87t95 39t93 -39t33 -105q0 -216 -231 -456l-72 53q86 125 86 229zM76 0v207h153v934h-153v207h563v-207h-178v-936h370v190h224v-395h-979z" />
    <glyph glyph-name="lcaron" unicode="&#x13e;" horiz-adv-x="604" 
d="M553 1241q0 37 -19 90q-44 122 15 189q35 39 95 39t93 -39t33 -105q0 -217 -231 -457l-72 54q86 125 86 229zM53 0v184h140v1127h-140v188h363v-1315h133v-184h-496z" />
    <glyph glyph-name="Ldot" unicode="&#x13f;" horiz-adv-x="1122" 
d="M76 0v207h153v934h-153v207h563v-207h-178v-936h370v190h224v-395h-979zM1057 770q1 -61 -45 -104t-106 -43t-104 43t-44 104t45 104q45 44 105 44t104 -44t45 -104z" />
    <glyph glyph-name="ldot" unicode="&#x140;" horiz-adv-x="763" 
d="M685 561q-60 0 -104 43q-44 42 -44 104t45 105t105 43q61 0 105 -43t44 -104t-45 -105q-46 -43 -106 -43zM53 0v184h140v1127h-140v188h363v-1315h133v-184h-496z" />
    <glyph glyph-name="Lslash" unicode="&#x141;" horiz-adv-x="1122" 
d="M76 0v207h153v307l-163 -90l-93 158l256 141v418h-153v207h563v-207h-178v-291l227 127l90 -160l-317 -176v-436h370v190h224v-395h-979z" />
    <glyph glyph-name="lslash" unicode="&#x142;" horiz-adv-x="604" 
d="M53 0v184h140v504l-142 -82l-88 156l230 131v418h-140v188h363v-493l145 84l88 -156l-233 -135v-615h133v-184h-496z" />
    <glyph glyph-name="Nacute" unicode="&#x143;" horiz-adv-x="1521" 
d="M1106 1791q0 -54 -64 -103l-305 -222l-69 68l225 307q49 63 101 63t82 -29q30 -30 30 -84zM455 207h168v-207h-547v207h153v934h-153v207h350l664 -846v639h-168v207h540v-207h-147v-1143l-125 -4l-735 936v-723z" />
    <glyph glyph-name="nacute" unicode="&#x144;" horiz-adv-x="1169" 
d="M946 1330q0 -54 -63 -103l-305 -221l-70 67l225 307q49 64 101 64t82 -30t30 -84zM780 559q0 150 -129 152q-104 0 -231 -105v-422h123v-184h-480v184h134v525h-134v188h349v-143q164 160 316 160t228 -115q47 -76 48 -185v-430h133v-184h-480v184h123v375z" />
    <glyph glyph-name="Ncommaaccent" unicode="&#x145;" horiz-adv-x="1521" 
d="M643 -203q0 49 40 87t98 38q59 0 101 -43t42 -126t-72 -189t-223 -191l-54 68q162 127 170 223q-47 12 -75 48t-27 85zM455 207h168v-207h-547v207h153v934h-153v207h350l664 -846v639h-168v207h540v-207h-147v-1143l-125 -4l-735 936v-723z" />
    <glyph glyph-name="ncommaaccent" unicode="&#x146;" horiz-adv-x="1169" 
d="M601 -92q58 0 100 -43t42 -126t-71 -189t-223 -191l-54 68q162 127 170 223q-47 12 -75 48t-27 85q0 49 40 87t98 38zM780 559q0 150 -129 152q-104 0 -231 -105v-422h123v-184h-480v184h134v525h-134v188h349v-143q164 160 316 160t228 -115q47 -76 48 -185v-430h133
v-184h-480v184h123v375z" />
    <glyph glyph-name="Ncaron" unicode="&#x147;" horiz-adv-x="1521" 
d="M1026 1927l94 -108l-362 -361l-363 361l94 108l269 -196zM455 207h168v-207h-547v207h153v934h-153v207h350l664 -846v639h-168v207h540v-207h-147v-1143l-125 -4l-735 936v-723z" />
    <glyph glyph-name="ncaron" unicode="&#x148;" horiz-adv-x="1169" 
d="M866 1466l95 -108l-363 -361l-362 361l94 108l268 -196zM780 559q0 150 -129 152q-104 0 -231 -105v-422h123v-184h-480v184h134v525h-134v188h349v-143q164 160 316 160t228 -115q47 -76 48 -185v-430h133v-184h-480v184h123v375z" />
    <glyph glyph-name="Omacron" unicode="&#x14c;" horiz-adv-x="1570" 
d="M442 1534v182h684v-182h-684zM786 190q197 0 324 136t127 348q0 211 -128 347t-324 136q-195 0 -323 -136t-128 -347q0 -212 128 -348t324 -136zM782 -25q-304 0 -496 200t-192 499q0 298 196 498t499 200t495 -200t193 -498q0 -298 -196 -499q-196 -200 -499 -200z" />
    <glyph glyph-name="omacron" unicode="&#x14d;" horiz-adv-x="1093" 
d="M205 1073v182h684v-182h-684zM547 170q109 0 179 78t69 201q0 123 -70 201q-71 78 -179 77q-108 0 -178 -78q-70 -79 -69 -201q-1 -122 69 -200t179 -78zM1024 451q0 -191 -132 -329t-346 -138t-345 135t-131 327t132 330q132 137 346 137t345 -135t131 -327z" />
    <glyph glyph-name="Obreve" unicode="&#x14e;" horiz-adv-x="1570" 
d="M780 1495q-127 0 -228 88t-149 268l142 56q86 -211 234 -211t237 211l141 -56q-47 -180 -149 -268t-228 -88zM786 190q197 0 324 136t127 348q0 211 -128 347t-324 136q-195 0 -323 -136t-128 -347q0 -212 128 -348t324 -136zM782 -25q-304 0 -496 200t-192 499
q0 298 196 498t499 200t495 -200t193 -498q0 -298 -196 -499q-196 -200 -499 -200z" />
    <glyph glyph-name="obreve" unicode="&#x14f;" horiz-adv-x="1093" 
d="M543 1034q-127 0 -229 88q-101 88 -148 269l141 55q87 -211 235 -211t236 211l142 -55q-46 -181 -148 -269t-229 -88zM547 170q109 0 179 78t69 201q0 123 -70 201q-71 78 -179 77q-108 0 -178 -78q-70 -79 -69 -201q-1 -122 69 -200t179 -78zM1024 451q0 -191 -132 -329
t-346 -138t-345 135t-131 327t132 330q132 137 346 137t345 -135t131 -327z" />
    <glyph glyph-name="Ohungarumlaut" unicode="&#x150;" horiz-adv-x="1570" 
d="M1334 1890q48 0 78 -32t30 -74q0 -76 -92 -123l-408 -191l-45 74l334 297q55 49 103 49zM850 1892q50 0 80 -30q31 -30 31 -74q0 -80 -91 -127l-374 -191l-52 72l299 293q57 57 107 57zM786 190q197 0 324 136t127 348q0 211 -128 347t-324 136q-195 0 -323 -136
t-128 -347q0 -212 128 -348t324 -136zM782 -25q-304 0 -496 200t-192 499q0 298 196 498t499 200t495 -200t193 -498q0 -298 -196 -499q-196 -200 -499 -200z" />
    <glyph glyph-name="ohungarumlaut" unicode="&#x151;" horiz-adv-x="1093" 
d="M705 1010l-46 73l334 297q55 50 103 50t79 -32q30 -32 29 -75q0 -78 -92 -123zM723 1327q0 -80 -90 -127l-375 -190l-51 71l299 293q57 58 106 58t80 -31t31 -74zM547 170q109 0 179 78t69 201q0 123 -70 201q-71 78 -179 77q-108 0 -178 -78q-70 -79 -69 -201
q-1 -122 69 -200t179 -78zM1024 451q0 -191 -132 -329t-346 -138t-345 135t-131 327t132 330q132 137 346 137t345 -135t131 -327z" />
    <glyph glyph-name="OE" unicode="&#x152;" horiz-adv-x="1906" 
d="M879 207h75v934h-92q-256 0 -392 -128t-136 -348t146 -339t399 -119zM870 0q-356 0 -566 181t-210 489t203 492q203 185 577 186h932v-385h-221v180h-399v-361h407v-196h-407v-381h401v180h221v-385h-938z" />
    <glyph glyph-name="oe" unicode="&#x153;" horiz-adv-x="1728" 
d="M1255 733q-88 0 -150 -50t-79 -155h436q-4 94 -61 150q-58 55 -146 55zM547 170q109 0 179 78t69 201q0 123 -70 201q-71 78 -179 77q-108 0 -178 -78q-70 -79 -69 -201q-1 -122 69 -200t179 -78zM1323 172q160 0 326 94l-19 -200q-139 -82 -330 -82q-124 0 -234 56
t-159 138q-53 -88 -152 -141t-218 -53q-209 0 -338 135t-129 327t130 330q130 137 337 137q123 0 220 -53t150 -139q57 90 155 141t198 51q202 1 314 -121t112 -309q0 -59 -11 -110h-647q45 -201 295 -201z" />
    <glyph glyph-name="Racute" unicode="&#x154;" horiz-adv-x="1269" 
d="M961 1791q0 -54 -64 -103l-305 -222l-70 68l226 307q49 63 101 63t82 -29q30 -30 30 -84zM592 705q133 0 215 61q82 62 82 166t-80 156t-223 53h-125v-432q49 -4 131 -4zM76 0v207h153v934h-153v207h522q242 0 386 -104t144 -304q0 -127 -70 -224t-184 -143l207 -366h154
v-207h-311l-271 512q-57 -4 -111 -4t-81 2v-303h168v-207h-553z" />
    <glyph glyph-name="racute" unicode="&#x155;" horiz-adv-x="890" 
d="M809 1330q0 -54 -64 -103l-305 -221l-69 67l225 307q50 64 102 64t82 -30t29 -84zM696 913q80 0 123 -42t43 -102t-39 -101t-94 -41q-94 0 -131 80q-47 -17 -97 -65t-81 -105v-353h155v-184h-512v184h134v525h-134v188h349v-203q137 219 284 219z" />
    <glyph glyph-name="Rcommaaccent" unicode="&#x156;" horiz-adv-x="1269" 
d="M477 -217q0 49 40 87t98 38q59 0 101 -43t42 -126t-72 -189t-223 -191l-53 68q162 127 170 223q-47 12 -75 48t-28 85zM592 705q133 0 215 61q82 62 82 166t-80 156t-223 53h-125v-432q49 -4 131 -4zM76 0v207h153v934h-153v207h522q242 0 386 -104t144 -304
q0 -127 -70 -224t-184 -143l207 -366h154v-207h-311l-271 512q-57 -4 -111 -4t-81 2v-303h168v-207h-553z" />
    <glyph glyph-name="rcommaaccent" unicode="&#x157;" horiz-adv-x="890" 
d="M182 -217q0 49 40 87t98 38t100 -43t43 -126t-71 -189t-224 -191l-53 68q162 127 170 223q-47 12 -75 48t-28 85zM696 913q80 0 123 -42t43 -102t-39 -101t-94 -41q-94 0 -131 80q-47 -17 -97 -65t-81 -105v-353h155v-184h-512v184h134v525h-134v188h349v-203
q137 219 284 219z" />
    <glyph glyph-name="Rcaron" unicode="&#x158;" horiz-adv-x="1269" 
d="M881 1927l94 -108l-363 -361l-362 361l94 108l268 -196zM592 705q133 0 215 61q82 62 82 166t-80 156t-223 53h-125v-432q49 -4 131 -4zM76 0v207h153v934h-153v207h522q242 0 386 -104t144 -304q0 -127 -70 -224t-184 -143l207 -366h154v-207h-311l-271 512
q-57 -4 -111 -4t-81 2v-303h168v-207h-553z" />
    <glyph glyph-name="rcaron" unicode="&#x159;" horiz-adv-x="890" 
d="M729 1466l94 -108l-362 -361l-363 361l95 108l268 -196zM696 913q80 0 123 -42t43 -102t-39 -101t-94 -41q-94 0 -131 80q-47 -17 -97 -65t-81 -105v-353h155v-184h-512v184h134v525h-134v188h349v-203q137 219 284 219z" />
    <glyph glyph-name="Sacute" unicode="&#x15a;" horiz-adv-x="1136" 
d="M920 1791q0 -54 -64 -103l-305 -222l-70 68l226 307q49 63 101 63t82 -29q30 -30 30 -84zM571 -25q-205 1 -347 95t-142 219q0 71 39 115t103 44t106 -40q41 -42 41 -90t-19 -85q82 -57 204 -57t186 48t65 129t-63 128t-236 107t-274 146q-101 85 -101 252t123 277
q124 109 318 109t323 -85t129 -206q0 -71 -39 -111t-103 -40t-103 41q-40 41 -40 86t15 73q-68 41 -172 41t-160 -45q-56 -44 -57 -120q0 -76 62 -120q63 -44 177 -85t179 -72q174 -83 224 -194q30 -68 29 -158q0 -188 -131 -295t-336 -107z" />
    <glyph glyph-name="sacute" unicode="&#x15b;" horiz-adv-x="937" 
d="M815 1330q0 -54 -63 -103l-306 -221l-69 67l225 307q50 64 102 64t82 -30t29 -84zM481 915q84 -1 170 -29t133 -75t47 -107q-1 -60 -31 -93t-81 -33t-85 30t-34 68q0 39 4 51q-57 23 -128 23q-72 0 -110 -27t-38 -65t41 -62t184 -64q143 -38 223 -94t80 -179
q0 -124 -110 -201t-269 -76q-103 0 -201 32q-194 62 -194 197q0 49 34 85t84 36t86 -32t36 -87q0 -12 -5 -37q72 -29 153 -29t127 25t46 66q0 40 -37 64q-38 24 -186 62t-226 98q-78 58 -79 171q0 113 95 197t271 85z" />
    <glyph glyph-name="Scedilla" unicode="&#x15e;" horiz-adv-x="1136" 
d="M582 -410q-122 0 -240 70l35 68q100 -43 180 -43t80 53t-121 53l-22 -2l-43 51l55 137q-180 13 -302 105t-122 207q0 71 39 115t103 44t106 -40q41 -42 41 -90t-19 -85q82 -57 204 -57t186 48t65 129t-63 128t-236 107t-274 146q-101 85 -101 252t123 277
q124 109 318 109t323 -85t129 -206q0 -71 -39 -111t-103 -40t-103 41q-40 41 -40 86t15 73q-68 41 -172 41t-160 -45q-56 -44 -57 -120q0 -76 62 -120q63 -44 177 -85t179 -72q174 -83 224 -194q30 -68 29 -158q0 -178 -117 -284q-118 -105 -313 -116l8 -67q98 -12 158 -55
t60 -107t-65 -110q-65 -48 -187 -48z" />
    <glyph glyph-name="scedilla" unicode="&#x15f;" horiz-adv-x="937" 
d="M462 -410q-122 0 -239 70l35 68q100 -43 180 -43t80 53t-121 53l-22 -2l-43 51l59 148q-176 20 -258 102q-51 50 -51 110t34 96t84 36t86 -32t36 -87q0 -12 -5 -37q72 -29 153 -29t127 25t46 66q0 40 -37 64q-38 24 -186 62t-226 98q-78 58 -79 171q0 113 95 197t271 85
q84 -1 170 -29q180 -60 180 -188q-1 -53 -31 -87q-30 -33 -81 -33t-85 30t-34 68q0 39 4 51q-57 23 -128 23q-72 0 -110 -27t-38 -65t41 -62t184 -64q143 -38 223 -94t80 -178q0 -123 -105 -199t-264 -79l11 -72q98 -12 157 -55t59 -107t-64 -110q-66 -48 -188 -48z" />
    <glyph glyph-name="Scaron" unicode="&#x160;" horiz-adv-x="1136" 
d="M840 1927l94 -108l-363 -361l-362 361l94 108l268 -196zM571 -25q-205 1 -347 95t-142 219q0 71 39 115t103 44t106 -40q41 -42 41 -90t-19 -85q82 -57 204 -57t186 48t65 129t-63 128t-236 107t-274 146q-101 85 -101 252t123 277q124 109 318 109t323 -85t129 -206
q0 -71 -39 -111t-103 -40t-103 41q-40 41 -40 86t15 73q-68 41 -172 41t-160 -45q-56 -44 -57 -120q0 -76 62 -120q63 -44 177 -85t179 -72q174 -83 224 -194q30 -68 29 -158q0 -188 -131 -295t-336 -107z" />
    <glyph glyph-name="scaron" unicode="&#x161;" horiz-adv-x="937" 
d="M735 1466l94 -108l-362 -361l-363 361l95 108l268 -196zM481 915q84 -1 170 -29t133 -75t47 -107q-1 -60 -31 -93t-81 -33t-85 30t-34 68q0 39 4 51q-57 23 -128 23q-72 0 -110 -27t-38 -65t41 -62t184 -64q143 -38 223 -94t80 -179q0 -124 -110 -201t-269 -76
q-103 0 -201 32q-194 62 -194 197q0 49 34 85t84 36t86 -32t36 -87q0 -12 -5 -37q72 -29 153 -29t127 25t46 66q0 40 -37 64q-38 24 -186 62t-226 98q-78 58 -79 171q0 113 95 197t271 85z" />
    <glyph glyph-name="Tcommaaccent" unicode="&#x162;" horiz-adv-x="1263" 
d="M632 -92q58 0 100 -43t42 -126t-72 -189t-223 -191l-53 68q162 127 170 223q-47 12 -75 48t-27 85q0 49 40 87t98 38zM348 0v207h168v940h-250v-213h-219v414h1170v-414h-220v213h-249v-940h167v-207h-567z" />
    <glyph glyph-name="tcommaaccent" unicode="&#x163;" horiz-adv-x="755" 
d="M264 -217q0 49 40 87t98 38t100 -43t43 -126t-71 -189t-224 -191l-53 68q162 127 170 223q-47 12 -75 48t-28 85zM414 291q0 -109 108 -109q74 0 176 47l-18 -192q-106 -53 -215 -53q-178 0 -242 122q-31 55 -30 142v461h-175v188h175v188l221 97v-285h272v-188h-272
v-418z" />
    <glyph glyph-name="Tcaron" unicode="&#x164;" horiz-adv-x="1263" 
d="M897 1927l94 -108l-362 -361l-363 361l94 108l269 -196zM348 0v207h168v940h-250v-213h-219v414h1170v-414h-220v213h-249v-940h167v-207h-567z" />
    <glyph glyph-name="tcaron" unicode="&#x165;" horiz-adv-x="755" 
d="M557 1268q0 37 -19 90q-20 53 -20 101t35 87t95 39t93 -39t33 -104q0 -217 -231 -457l-72 53q86 125 86 230zM414 291q0 -109 108 -109q74 0 176 47l-18 -192q-106 -53 -215 -53q-178 0 -242 122q-31 55 -30 142v461h-175v188h175v188l221 97v-285h272v-188h-272v-418z
" />
    <glyph glyph-name="Umacron" unicode="&#x16a;" horiz-adv-x="1417" 
d="M367 1534v182h684v-182h-684zM1214 496q0 -256 -136 -388t-368 -133q-232 0 -370 131q-137 131 -137 386v649h-148v207h541v-207h-162v-637q0 -154 73 -236t205 -82t204 78t73 232v645h-162v207h535v-207h-148v-645z" />
    <glyph glyph-name="umacron" unicode="&#x16b;" horiz-adv-x="1159" 
d="M207 1073v182h684v-182h-684zM389 338q0 -150 129 -152q104 0 232 105v418h-140v188h363v-713h133v-184h-348v143q-164 -159 -320 -159t-227 118q-45 74 -45 181v426h-133v188h356v-559z" />
    <glyph glyph-name="Ubreve" unicode="&#x16c;" horiz-adv-x="1417" 
d="M705 1495q-127 0 -229 88q-101 88 -148 268l141 56q87 -211 235 -211t236 211l141 -56q-47 -180 -148 -268t-228 -88zM1214 496q0 -256 -136 -388t-368 -133q-232 0 -370 131q-137 131 -137 386v649h-148v207h541v-207h-162v-637q0 -154 73 -236t205 -82t204 78t73 232
v645h-162v207h535v-207h-148v-645z" />
    <glyph glyph-name="ubreve" unicode="&#x16d;" horiz-adv-x="1159" 
d="M545 1034q-127 0 -229 88q-101 88 -148 269l141 55q87 -211 235 -211t236 211l142 -55q-46 -181 -148 -269t-229 -88zM389 338q0 -150 129 -152q104 0 232 105v418h-140v188h363v-713h133v-184h-348v143q-164 -159 -320 -159t-227 118q-45 74 -45 181v426h-133v188h356
v-559z" />
    <glyph glyph-name="Uring" unicode="&#x16e;" horiz-adv-x="1417" 
d="M709 1602q47 0 77 36t29 84q0 49 -30 85q-31 36 -77 36t-76 -36t-30 -85q0 -48 30 -84t77 -36zM709 1456q-115 0 -195 77t-80 189t80 190q80 77 195 77t195 -77t79 -190q1 -114 -79 -190t-195 -76zM1214 496q0 -256 -136 -388t-368 -133q-232 0 -370 131
q-137 131 -137 386v649h-148v207h541v-207h-162v-637q0 -154 73 -236t205 -82t204 78t73 232v645h-162v207h535v-207h-148v-645z" />
    <glyph glyph-name="uring" unicode="&#x16f;" horiz-adv-x="1159" 
d="M549 1141q47 0 77 36t29 85q0 49 -29 85q-30 35 -77 35t-77 -36t-30 -84q0 -49 30 -85t77 -36zM549 995q-115 0 -195 77t-80 190q0 114 80 190t195 76t195 -77t79 -189q1 -112 -79 -190q-80 -77 -195 -77zM389 338q0 -150 129 -152q104 0 232 105v418h-140v188h363v-713
h133v-184h-348v143q-164 -159 -320 -159t-227 118q-45 74 -45 181v426h-133v188h356v-559z" />
    <glyph glyph-name="Uhungarumlaut" unicode="&#x170;" horiz-adv-x="1417" 
d="M1258 1890q48 0 78 -32t30 -74q0 -76 -92 -123l-408 -191l-45 74l334 297q55 49 103 49zM774 1892q49 0 80 -30t31 -74q0 -80 -90 -127l-375 -191l-51 72l299 293q57 57 106 57zM1214 496q0 -256 -136 -388t-368 -133q-232 0 -370 131q-137 131 -137 386v649h-148v207
h541v-207h-162v-637q0 -154 73 -236t205 -82t204 78t73 232v645h-162v207h535v-207h-148v-645z" />
    <glyph glyph-name="uhungarumlaut" unicode="&#x171;" horiz-adv-x="1159" 
d="M707 1010l-45 73l333 297q55 50 103 50t79 -32q30 -32 29 -75q0 -78 -92 -123zM725 1327q0 -80 -90 -127l-375 -190l-51 71l299 293q57 58 106 58t80 -31t31 -74zM389 338q0 -150 129 -152q104 0 232 105v418h-140v188h363v-713h133v-184h-348v143q-164 -159 -320 -159
t-227 118q-45 74 -45 181v426h-133v188h356v-559z" />
    <glyph glyph-name="Uogonek" unicode="&#x172;" horiz-adv-x="1417" 
d="M774 -412q-115 0 -176 58t-61 158q0 99 81 178q-192 26 -304 154t-111 356v649h-148v207h541v-207h-162v-637q0 -154 73 -236t205 -82t204 78t73 232v645h-162v207h535v-207h-148v-645q0 -231 -112 -362q-113 -130 -307 -152q-72 -59 -72 -127q0 -94 106 -95q78 0 144 35
l-10 -162q-74 -45 -189 -45z" />
    <glyph glyph-name="uogonek" unicode="&#x173;" horiz-adv-x="1159" 
d="M389 338q0 -150 129 -152q104 0 232 105v418h-140v188h363v-713h133v-184h-176q-98 -63 -99 -145q0 -94 107 -95q78 0 143 35l-10 -162q-73 -45 -188 -45t-176 58t-61 166t112 194v137q-164 -159 -320 -159t-227 118q-45 74 -45 181v426h-133v188h356v-559z" />
    <glyph glyph-name="Wcircumflex" unicode="&#x174;" horiz-adv-x="2093" 
d="M778 1473l-94 108l363 361l362 -361l-94 -108l-268 196zM47 1141v207h574v-207h-179l220 -709l333 785h123l334 -785l205 709h-184v207h573v-207h-143l-363 -1155h-129l-360 829l-363 -829h-129l-369 1155h-143z" />
    <glyph glyph-name="wcircumflex" unicode="&#x175;" horiz-adv-x="1486" 
d="M475 1012l-94 108l362 361l363 -361l-94 -108l-269 196zM10 709v188h461v-184h-127l123 -441l211 533h153l209 -533l123 441h-147v184h461v-188h-131l-222 -744h-157l-224 549l-223 -549h-158l-221 744h-131z" />
    <glyph glyph-name="Ycircumflex" unicode="&#x176;" horiz-adv-x="1320" 
d="M391 1473l-94 108l362 361l363 -361l-94 -108l-269 196zM375 0v207h170v307l-383 627h-135v207h510v-207h-119l248 -432l245 432h-127v207h510v-207h-135l-383 -627v-307h170v-207h-571z" />
    <glyph glyph-name="ycircumflex" unicode="&#x177;" horiz-adv-x="1089" 
d="M276 1012l-94 108l363 361l362 -361l-94 -108l-268 196zM244 -408q-86 0 -140 42q-53 42 -53 98t32 87q32 30 79 29q70 0 98 -67q40 10 64 43t49 80l67 141l-319 664h-111v188h463v-178h-131l207 -473l209 473h-140v178h461v-188h-108l-420 -891q-33 -68 -70 -109
q-100 -117 -237 -117z" />
    <glyph glyph-name="Ydieresis" unicode="&#x178;" horiz-adv-x="1320" 
d="M598 1642q0 -62 -46 -104q-46 -43 -105 -43q-60 0 -104 43t-44 104q0 60 45 104q46 44 106 44t104 -43t44 -105zM721 1642q0 60 45 104t105 44q61 0 105 -43t44 -105t-46 -104q-46 -43 -105 -43q-60 0 -104 43t-44 104zM375 0v207h170v307l-383 627h-135v207h510v-207
h-119l248 -432l245 432h-127v207h510v-207h-135l-383 -627v-307h170v-207h-571z" />
    <glyph glyph-name="Zacute" unicode="&#x179;" horiz-adv-x="1280" 
d="M985 1791q0 -54 -63 -103l-306 -222l-69 68l225 307q50 63 102 63t82 -29q30 -30 29 -84zM90 0v131l762 1022h-524v-225h-197v420h1047v-131l-762 -1022h579v225h195v-420h-1100z" />
    <glyph glyph-name="zacute" unicode="&#x17a;" horiz-adv-x="948" 
d="M451 1006l-70 67l225 307q50 64 102 64t82 -30t30 -84t-64 -103zM59 0v131l541 590h-317v-166h-191v342h787v-129l-541 -590h362v166h189v-344h-830z" />
    <glyph glyph-name="Zdotaccent" unicode="&#x17b;" horiz-adv-x="1280" 
d="M638 1475q-60 0 -104 43t-45 104t45 104t106 43t104 -43t44 -104t-45 -104t-105 -43zM90 0v131l762 1022h-524v-225h-197v420h1047v-131l-762 -1022h579v225h195v-420h-1100z" />
    <glyph glyph-name="zdotaccent" unicode="&#x17c;" horiz-adv-x="948" 
d="M324 1161q0 61 45 105t105 43q60 0 104 -43q44 -42 45 -104t-45 -105t-106 -43t-104 43t-44 104zM59 0v131l541 590h-317v-166h-191v342h787v-129l-541 -590h362v166h189v-344h-830z" />
    <glyph glyph-name="Zcaron" unicode="&#x17d;" horiz-adv-x="1280" 
d="M905 1927l94 -108l-362 -361l-363 361l95 108l268 -196zM90 0v131l762 1022h-524v-225h-197v420h1047v-131l-762 -1022h579v225h195v-420h-1100z" />
    <glyph glyph-name="zcaron" unicode="&#x17e;" horiz-adv-x="948" 
d="M739 1466l95 -108l-363 -361l-362 361l94 108l268 -196zM59 0v131l541 590h-317v-166h-191v342h787v-129l-541 -590h362v166h189v-344h-830z" />
    <glyph glyph-name="Aringacute" unicode="&#x1fa;" horiz-adv-x="1425" 
d="M707 1860l-70 67l225 307q50 64 102 64t82 -30t30 -84t-64 -103zM713 1380q47 0 77 36t29 85q0 49 -29 85q-30 36 -77 36t-77 -36t-30 -85t30 -85t77 -36zM520 618h377l-188 531zM987 1521q0 -101 -72 -173h179v-205h-148l336 -936h117v-207h-518v205h155l-75 221h-504
l-76 -221h164v-205h-518v207h116l336 936h-147v205h182q-76 76 -76 175t80 172t195 73t195 -74q80 -72 79 -173z" />
    <glyph glyph-name="aringacute" unicode="&#x1fb;" horiz-adv-x="1042" 
d="M771 2058q52 0 82 -30t30 -83q0 -54 -64 -104l-305 -221l-70 68l226 307q49 63 101 63zM520 1141q47 0 77 36t30 85t-30 85q-30 35 -77 35t-77 -36q-29 -36 -29 -84q0 -49 30 -85t76 -36zM520 995q-114 0 -194 77t-80 190q0 114 80 190t194 76t195 -77q80 -77 80 -189
t-80 -190q-80 -77 -195 -77zM434 145q115 0 225 80v142q-86 20 -176 20t-136 -35t-46 -92t36 -86t97 -29zM659 553q0 190 -210 188q-51 0 -89 -14q26 -80 -26 -129q-35 -33 -86 -33t-85 33t-34 88q0 92 92 160t264 67q223 0 322 -120q70 -84 70 -226v-383h133v-184h-346v98
q-134 -114 -302 -114q-122 0 -206 66t-84 188q0 124 99 196t245 72t243 -25v72z" />
    <glyph glyph-name="AEacute" unicode="&#x1fc;" horiz-adv-x="1871" 
d="M1012 1466l-70 68l225 307q49 63 101 63t83 -29q29 -30 29 -84t-63 -103zM920 618v531h-76l-248 -531h324zM6 0v207h170l451 934h-170v207h1315v-385h-222v180h-399v-361h408v-196h-408v-381h401v180h222v-385h-1008v207h154v219h-414l-105 -221h144v-205h-539z" />
    <glyph glyph-name="aeacute" unicode="&#x1fd;" horiz-adv-x="1587" 
d="M1093 733q-88 0 -150 -50t-79 -155h436q-4 94 -61 150q-58 55 -146 55zM444 145q119 0 244 119q-20 59 -29 109q-115 14 -191 14t-121 -35q-46 -35 -46 -96q0 -111 143 -111zM1143 1330q0 -54 -64 -103l-305 -221l-69 67l225 307q49 64 101 64t82 -30t30 -84zM449 741
q-51 0 -89 -14q26 -80 -26 -129q-35 -33 -86 -33t-85 33t-34 88q0 92 92 160t263 68t255 -105q23 -31 35 -61q115 166 321 166q205 0 317 -124q112 -122 112 -307q0 -59 -11 -110h-647q45 -201 295 -201q160 0 326 94l-19 -200q-139 -82 -319 -82q-264 0 -399 174
q-76 -84 -182 -129t-185 -45q-137 0 -224 66t-87 188q0 124 99 196t245 72t243 -25v72q0 80 -34 125q-49 63 -176 63z" />
    <glyph glyph-name="Oslashacute" unicode="&#x1fe;" horiz-adv-x="1570" 
d="M1139 1791q0 -54 -64 -103l-305 -222l-70 68l226 307q49 63 101 63t82 -29q30 -30 30 -84zM786 190q197 0 324 136t127 348q0 166 -76 287l-618 -707q104 -64 243 -64zM786 1157q-196 0 -324 -136q-128 -135 -128 -333t88 -321l622 716q-113 74 -258 74zM780 -25
q-211 0 -374 109l-158 -182l-148 131l156 182q-162 195 -162 477t196 480q196 200 501 200q217 0 391 -121l164 191l147 -131l-168 -193q152 -195 152 -444q0 -299 -196 -499t-501 -200z" />
    <glyph glyph-name="oslashacute" unicode="&#x1ff;" horiz-adv-x="1093" 
d="M547 170q109 0 179 78t69 182q0 104 -29 166l-332 -406q47 -20 113 -20zM547 727q-109 1 -179 -77t-69 -188q0 -110 35 -177l334 415q-57 27 -121 27zM893 1330q0 -54 -64 -103l-305 -221l-69 67l225 307q50 64 102 64t82 -30t29 -84zM547 -16q-121 0 -225 49l-101 -121
l-137 113l98 116q-112 129 -112 313t132 322q132 137 345 137q125 0 235 -57l107 127l137 -113l-106 -127q104 -127 104 -305t-132 -316t-345 -138z" />
    <glyph glyph-name="Scommaaccent" unicode="&#x218;" horiz-adv-x="1136" 
d="M436 -217q0 49 40 87t98 38t100 -43t43 -126t-71 -189t-224 -191l-53 68q162 127 170 223q-47 12 -75 48t-28 85zM571 -25q-205 1 -347 95t-142 219q0 71 39 115t103 44t106 -40q41 -42 41 -90t-19 -85q82 -57 204 -57t186 48t65 129t-63 128t-236 107t-274 146
q-101 85 -101 252t123 277q124 109 318 109t323 -85t129 -206q0 -71 -39 -111t-103 -40t-103 41q-40 41 -40 86t15 73q-68 41 -172 41t-160 -45q-56 -44 -57 -120q0 -76 62 -120q63 -44 177 -85t179 -72q174 -83 224 -194q30 -68 29 -158q0 -188 -131 -295t-336 -107z" />
    <glyph glyph-name="scommaaccent" unicode="&#x219;" horiz-adv-x="937" 
d="M470 -92q58 0 100 -43t42 -126t-71 -189q-72 -105 -224 -191l-53 68q162 127 170 223q-47 12 -75 48t-27 85q0 49 40 87t98 38zM481 915q84 -1 170 -29t133 -75t47 -107q-1 -60 -31 -93t-81 -33t-85 30t-34 68q0 39 4 51q-57 23 -128 23q-72 0 -110 -27t-38 -65t41 -62
t184 -64q143 -38 223 -94t80 -179q0 -124 -110 -201t-269 -76q-103 0 -201 32q-194 62 -194 197q0 49 34 85t84 36t86 -32t36 -87q0 -12 -5 -37q72 -29 153 -29t127 25t46 66q0 40 -37 64q-38 24 -186 62t-226 98q-78 58 -79 171q0 113 95 197t271 85z" />
    <glyph glyph-name="schwa" unicode="&#x259;" horiz-adv-x="1024" 
d="M494 164q88 0 150 50t79 155h-436q4 -94 61 -150q58 -55 146 -55zM954 456q0 -202 -126 -337t-330 -135q-205 0 -320 122t-115 308q0 59 11 110h647q-25 100 -103 150t-192 51q-160 0 -326 -94l19 200q139 82 350 82t348 -127q137 -128 137 -330z" />
    <glyph glyph-name="circumflex" unicode="&#x2c6;" horiz-adv-x="786" 
d="M125 1012l-94 108l362 361l363 -361l-94 -108l-269 196z" />
    <glyph glyph-name="caron" unicode="&#x2c7;" horiz-adv-x="786" 
d="M662 1466l94 -108l-363 -361l-362 361l94 108l268 -196z" />
    <glyph glyph-name="breve" unicode="&#x2d8;" horiz-adv-x="815" 
d="M408 1034q-127 0 -229 88q-101 88 -148 269l141 55q86 -211 234 -211t237 211l141 -55q-47 -181 -148 -269t-228 -88z" />
    <glyph glyph-name="dotaccent" unicode="&#x2d9;" horiz-adv-x="380" 
d="M340 1162q0 -62 -46 -105t-105 -43q-60 0 -104 43t-44 104t45 105q46 44 106 43q60 0 104 -43q44 -42 44 -104z" />
    <glyph glyph-name="ring" unicode="&#x2da;" horiz-adv-x="630" 
d="M315 1141q47 0 77 36t30 85t-30 85q-30 35 -77 35t-77 -36t-29 -84q-1 -49 29 -85t77 -36zM315 995q-115 0 -195 77t-79 190q0 114 80 190q81 76 195 76t194 -77t80 -189t-80 -190q-80 -77 -195 -77z" />
    <glyph glyph-name="ogonek" unicode="&#x2db;" horiz-adv-x="436" 
d="M237 -412q-115 0 -176 58t-61 153q0 166 244 289l186 -20q-106 -34 -175 -90t-69 -123q0 -94 107 -95q78 0 143 35l-10 -162q-74 -45 -189 -45z" />
    <glyph glyph-name="tilde" unicode="&#x2dc;" horiz-adv-x="868" 
d="M589 1036q-93 0 -173 72t-127 72q-74 0 -107 -131l-151 38q16 143 86 227q71 84 163 83q92 0 172 -72t128 -72q74 0 106 131l152 -38q-16 -142 -86 -226t-163 -84z" />
    <glyph glyph-name="hungarumlaut" unicode="&#x2dd;" horiz-adv-x="1038" 
d="M498 1010l-45 73l333 297q56 50 104 50t78 -32t29 -75q0 -78 -92 -123zM516 1327q0 -80 -90 -127l-375 -190l-51 71l299 293q57 58 107 58t80 -31t30 -74z" />
    <glyph glyph-name="commaaccent" unicode="&#x326;" horiz-adv-x="348" 
d="M206 -92q58 0 100 -43t42 -126t-72 -189t-223 -191l-53 68q162 127 170 223q-47 12 -75 48t-27 85q0 49 40 87t98 38z" />
    <glyph glyph-name="Wgrave" unicode="&#x1e80;" horiz-adv-x="2093" 
d="M812 1905q52 0 101 -64l226 -307l-70 -68l-305 222q-64 49 -64 103t30 84t82 30zM47 1141v207h574v-207h-179l220 -709l333 785h123l334 -785l205 709h-184v207h573v-207h-143l-363 -1155h-129l-360 829l-363 -829h-129l-369 1155h-143z" />
    <glyph glyph-name="wgrave" unicode="&#x1e81;" horiz-adv-x="1486" 
d="M509 1444q52 0 101 -64l226 -307l-70 -67l-305 221q-63 49 -63 103t29 84q30 30 82 30zM10 709v188h461v-184h-127l123 -441l211 533h153l209 -533l123 441h-147v184h461v-188h-131l-222 -744h-157l-224 549l-223 -549h-158l-221 744h-131z" />
    <glyph glyph-name="Wacute" unicode="&#x1e82;" horiz-adv-x="2093" 
d="M1393 1791q0 -54 -64 -103l-305 -222l-70 68l226 307q49 63 101 63t82 -29q30 -30 30 -84zM47 1141v207h574v-207h-179l220 -709l333 785h123l334 -785l205 709h-184v207h573v-207h-143l-363 -1155h-129l-360 829l-363 -829h-129l-369 1155h-143z" />
    <glyph glyph-name="wacute" unicode="&#x1e83;" horiz-adv-x="1486" 
d="M1090 1330q0 -54 -64 -103l-305 -221l-70 67l226 307q49 64 101 64t82 -30t30 -84zM10 709v188h461v-184h-127l123 -441l211 533h153l209 -533l123 441h-147v184h461v-188h-131l-222 -744h-157l-224 549l-223 -549h-158l-221 744h-131z" />
    <glyph glyph-name="Wdieresis" unicode="&#x1e84;" horiz-adv-x="2093" 
d="M835 1495q-60 0 -105 43q-44 43 -44 104q0 60 45 104t105 44t105 -43q44 -43 44 -105t-45 -104q-45 -43 -105 -43zM1407 1642q1 -62 -45 -104q-46 -43 -106 -43t-104 43t-44 104q0 60 45 104t105 44t105 -43q44 -43 44 -105zM47 1141v207h574v-207h-179l220 -709l333 785
h123l334 -785l205 709h-184v207h573v-207h-143l-363 -1155h-129l-360 829l-363 -829h-129l-369 1155h-143z" />
    <glyph glyph-name="wdieresis" unicode="&#x1e85;" horiz-adv-x="1486" 
d="M531 1034q-60 0 -104 43t-44 105t45 104q46 43 106 43t104 -43t44 -104t-45 -105q-46 -43 -106 -43zM953 1034q-60 0 -104 43t-44 105t45 104q45 43 105 43q61 0 105 -43t44 -104t-45 -105q-46 -43 -106 -43zM10 709v188h461v-184h-127l123 -441l211 533h153l209 -533
l123 441h-147v184h461v-188h-131l-222 -744h-157l-224 549l-223 -549h-158l-221 744h-131z" />
    <glyph glyph-name="Ygrave" unicode="&#x1ef2;" horiz-adv-x="1320" 
d="M425 1905q52 0 101 -64l226 -307l-70 -68l-305 222q-63 49 -63 103t29 84q30 30 82 30zM375 0v207h170v307l-383 627h-135v207h510v-207h-119l248 -432l245 432h-127v207h510v-207h-135l-383 -627v-307h170v-207h-571z" />
    <glyph glyph-name="ygrave" unicode="&#x1ef3;" horiz-adv-x="1089" 
d="M199 1330q0 54 29 84q30 30 82 30t102 -64l225 -307l-70 -67l-305 221q-63 49 -63 103zM244 -408q-86 0 -140 42q-53 42 -53 98t32 87q32 30 79 29q70 0 98 -67q40 10 64 43t49 80l67 141l-319 664h-111v188h463v-178h-131l207 -473l209 473h-140v178h461v-188h-108
l-420 -891q-33 -68 -70 -109q-100 -117 -237 -117z" />
    <glyph glyph-name="enspace" unicode="&#x2002;" horiz-adv-x="1024" 
 />
    <glyph glyph-name="emspace" unicode="&#x2003;" horiz-adv-x="2048" 
 />
    <glyph glyph-name="threeperemspace" unicode="&#x2004;" horiz-adv-x="681" 
 />
    <glyph glyph-name="fourperemspace" unicode="&#x2005;" horiz-adv-x="512" 
 />
    <glyph glyph-name="figurespace" unicode="&#x2007;" 
 />
    <glyph glyph-name="thinspace" unicode="&#x2009;" horiz-adv-x="272" 
 />
    <glyph glyph-name="hairspace" unicode="&#x200a;" horiz-adv-x="153" 
 />
    <glyph glyph-name="endash" unicode="&#x2013;" horiz-adv-x="1165" 
d="M45 475v209h1075v-209h-1075z" />
    <glyph glyph-name="emdash" unicode="&#x2014;" horiz-adv-x="1751" 
d="M45 475v209h1661v-209h-1661z" />
    <glyph glyph-name="quoteleft" unicode="&#x2018;" horiz-adv-x="499" 
d="M393 889q1 -59 -45 -103t-114 -45q-68 1 -116 51t-48 146t82 217t258 223l61 -80q-92 -74 -142 -142t-55 -116q119 -35 119 -151z" />
    <glyph glyph-name="quoteright" unicode="&#x2019;" horiz-adv-x="499" 
d="M106 1225q0 59 46 103t114 44t116 -50t48 -146t-82 -218t-258 -223l-61 80q92 75 142 143t54 115q-119 35 -119 152z" />
    <glyph glyph-name="quotesinglbase" unicode="&#x201a;" horiz-adv-x="544" 
d="M102 166q0 60 50 108t122 48t122 -54t50 -156q0 -104 -87 -232t-273 -234l-66 84q201 160 209 274q-57 16 -92 59t-35 103z" />
    <glyph glyph-name="quotedblleft" unicode="&#x201c;" horiz-adv-x="972" 
d="M393 889q1 -59 -45 -103t-114 -45q-68 1 -116 51t-48 146t82 217t258 223l61 -80q-92 -74 -142 -142t-55 -116q119 -35 119 -151zM707 741q-68 1 -116 51t-48 146t82 217t258 223l61 -80q-92 -74 -142 -142t-54 -116q119 -35 118 -151q0 -59 -46 -103t-113 -45z" />
    <glyph glyph-name="quotedblright" unicode="&#x201d;" horiz-adv-x="972" 
d="M106 1225q0 59 46 103t114 44t116 -50t48 -146t-82 -218t-258 -223l-61 80q92 75 142 143t54 115q-119 35 -119 152zM740 1372q68 0 115 -50q48 -50 48 -146t-82 -218t-258 -223l-61 80q92 75 142 143t54 115q-119 35 -118 152q0 59 46 103t114 44z" />
    <glyph glyph-name="quotedblbase" unicode="&#x201e;" horiz-adv-x="1013" 
d="M106 152q0 59 46 103t114 44t116 -50t48 -140q0 -228 -340 -447l-61 80q92 74 142 142t54 116q-119 35 -119 152zM740 299q68 0 115 -50q48 -50 48 -140q0 -228 -340 -447l-61 80q92 74 142 142t54 116q-119 35 -118 152q0 59 46 103t114 44z" />
    <glyph glyph-name="dagger" unicode="&#x2020;" horiz-adv-x="1052" 
d="M159 659q-48 0 -84 36t-36 93q0 56 48 98t126 42q33 0 70 -8l186 -39l-61 295q-12 61 25 106q38 45 93 45q56 0 94 -45t25 -106l-61 -295l186 39q37 8 70 8q78 0 126 -41t48 -99t-36 -93q-36 -36 -84 -36t-83 31t-43 82l-139 -14l-51 -762h-103l-51 762l-139 14
q-8 -51 -43 -82t-83 -31z" />
    <glyph glyph-name="daggerdbl" unicode="&#x2021;" horiz-adv-x="1114" 
d="M557 -262q-57 0 -92 48t-16 120l61 258l-180 -33q-31 -6 -58 -6q-76 0 -125 35t-49 92t33 89t80 32t81 -30t38 -83l125 8l45 264l-45 265l-125 8q-4 -53 -38 -83t-81 -30t-80 32t-33 90t49 92t125 34q27 0 58 -6l180 -33l-61 258q-18 76 15 122q34 46 92 46t93 -47
t17 -121l-62 -258l180 33q31 6 58 6q76 0 125 -35t49 -92t-33 -89t-80 -32t-81 30t-38 83l-125 -8l-45 -265l45 -264l125 -8q4 53 38 83t81 30t80 -32q33 -31 33 -89t-49 -92t-125 -35q-27 0 -58 6l-180 33l62 -258q18 -74 -17 -121t-92 -47z" />
    <glyph glyph-name="bullet" unicode="&#x2022;" horiz-adv-x="704" 
d="M352 305q-110 0 -186 78q-76 79 -76 189t77 189t185 79t186 -79q76 -79 76 -190t-76 -189t-186 -77z" />
    <glyph glyph-name="ellipsis" unicode="&#x2026;" horiz-adv-x="1400" 
d="M229 -16q-65 0 -111 46t-46 112t46 111q46 46 112 46t111 -46q46 -46 46 -112q0 -65 -46 -111t-112 -46zM700 -16q-66 0 -112 46t-45 112q0 66 46 111q45 46 111 46t112 -46t46 -112q0 -65 -46 -111t-112 -46zM1171 -16q-65 0 -111 46t-46 112t46 111q46 46 112 46
t111 -46q46 -46 46 -112q0 -65 -46 -111t-112 -46z" />
    <glyph glyph-name="perthousand" unicode="&#x2030;" horiz-adv-x="2050" 
d="M1677 123q49 0 80 35t31 89t-31 90t-80 36t-80 -36t-31 -90t32 -89q30 -35 79 -35zM1677 -16q-113 0 -193 78t-81 188q0 110 81 188q82 78 194 78t193 -78t81 -188t-81 -188t-194 -78zM1063 123q49 0 80 35t31 89t-31 90t-80 36t-80 -36t-31 -90t31 -89t80 -35zM1063 -16
q-113 0 -194 78t-81 188t81 188t194 78t193 -78t81 -188q-1 -110 -81 -188t-193 -78zM373 698q49 0 80 35t31 89t-31 90t-80 36t-80 -36t-31 -90t31 -89t80 -35zM180 53q616 616 989 1053l86 -84q-335 -334 -527 -536t-462 -517zM373 559q-113 0 -194 78q-81 79 -81 189
t81 188t194 78t193 -78t81 -189q-1 -111 -81 -189t-193 -77z" />
    <glyph glyph-name="guilsinglleft" unicode="&#x2039;" horiz-adv-x="665" 
d="M457 186l-408 392l408 391l133 -133l-250 -258l250 -259z" />
    <glyph glyph-name="guilsinglright" unicode="&#x203a;" horiz-adv-x="665" 
d="M209 186l-133 133l250 259l-250 258l133 133l407 -391z" />
    <glyph glyph-name="fraction" unicode="&#x2044;" horiz-adv-x="1024" 
d="M958 1282q-498 -767 -796 -1315l-101 66q203 313 399 629t398 686z" />
    <glyph glyph-name="zero.sup" unicode="&#x2070;" horiz-adv-x="722" 
d="M360 1001q70 0 111 69q41 70 41 178t-41 178t-111 69q-70 0 -110 -70q-40 -69 -39 -177q-1 -108 39 -178t110 -69zM361 866q-136 0 -220 106t-84 276t84 276t220 106q137 0 221 -105t84 -277t-84 -278q-84 -104 -221 -104z" />
    <glyph glyph-name="four.sup" unicode="&#x2074;" horiz-adv-x="722" 
d="M283 885v106h139v107h-332l-47 86l399 473l105 -84l-338 -375h213v119l125 49v-156h112v-118h-112v-97h84v-110h-348z" />
    <glyph glyph-name="five.sup" unicode="&#x2075;" horiz-adv-x="722" 
d="M80 1012q0 100 88 100q42 0 66 -26t24 -50t-4 -37q57 -8 82 -8q76 0 119 36t43 94t-39 91t-120 33t-157 -33l-69 39l34 371h445v-133h-326l-10 -127q37 10 100 10q121 0 202 -68t81 -180q0 -110 -81 -184t-210 -74q-128 0 -198 48t-70 98z" />
    <glyph glyph-name="six.sup" unicode="&#x2076;" horiz-adv-x="722" 
d="M223 1110q1 -53 43 -86t99 -33t96 36t39 87t-36 82t-98 31t-103 -32q-40 -32 -40 -85zM612 1494q0 -44 -24 -67t-63 -23q-40 0 -66 33q-26 32 -13 68q-37 6 -47 6q-72 1 -126 -65t-58 -154q69 60 175 60t180 -68t75 -171q0 -103 -80 -175q-79 -72 -199 -72t-207 87
t-87 271t93 298t221 114t187 -59q39 -39 39 -83z" />
    <glyph glyph-name="seven.sup" unicode="&#x2077;" horiz-adv-x="722" 
d="M223 1501v-153h-129v274h529l39 -86l-308 -655h-161l305 620h-275z" />
    <glyph glyph-name="eight.sup" unicode="&#x2078;" horiz-adv-x="722" 
d="M360 995q61 0 101 31q39 31 39 73q0 43 -39 73t-101 30t-101 -31q-38 -31 -38 -73t39 -72q39 -31 100 -31zM359 1311q50 1 86 29t36 72t-35 71t-87 27t-86 -28q-33 -26 -33 -70t34 -73q35 -28 85 -28zM360 868q-135 0 -215 60t-79 143q0 135 170 191q-152 41 -152 168
q0 80 78 141t198 61t200 -61q79 -61 79 -141q0 -127 -156 -168q174 -55 174 -191q0 -79 -81 -141t-216 -62z" />
    <glyph glyph-name="nine.sup" unicode="&#x2079;" horiz-adv-x="722" 
d="M358 1511q-57 1 -96 -35t-39 -87t36 -82t98 -31t103 32q40 32 40 85t-43 88q-42 30 -99 30zM111 1009q-1 45 23 67t64 22t65 -32t13 -69q18 -6 48 -6q72 0 126 65t58 152q-74 -57 -178 -57t-178 68q-74 69 -74 171t80 174t200 72t206 -87q87 -87 87 -270t-93 -298
t-221 -115t-187 60q-39 39 -39 83z" />
    <glyph glyph-name="zero.inf" unicode="&#x2080;" horiz-adv-x="722" 
d="M360 -166q70 0 111 69t41 177t-41 178t-111 70t-110 -70t-39 -178q-1 -108 39 -176q40 -70 110 -70zM361 -301q-136 0 -220 105q-84 104 -84 276t84 277t220 105q137 0 221 -104q84 -106 84 -278t-84 -277q-85 -104 -221 -104z" />
    <glyph glyph-name="one.inf" unicode="&#x2081;" horiz-adv-x="722" 
d="M117 -285v131h186v459l-168 -43l-33 121l273 76h76v-613h180v-131h-514z" />
    <glyph glyph-name="two.inf" unicode="&#x2082;" horiz-adv-x="722" 
d="M477 242q0 52 -35 78t-83 26t-84 -12t-48 -25q37 -18 37 -61t-24 -68t-60 -24q-90 0 -90 99t75 157t191 57q116 0 191 -62q76 -62 76 -163q0 -54 -30 -102q-29 -48 -59 -70t-79 -52q-154 -92 -213 -186h282v129h119v-250h-534l-43 68q35 81 96 153t98 101t91 65t71 50
q55 41 55 92z" />
    <glyph glyph-name="three.inf" unicode="&#x2083;" horiz-adv-x="722" 
d="M637 -104q0 -86 -84 -142t-205 -55q-121 0 -201 51t-79 133q0 39 25 67q26 28 63 28q38 0 62 -26q24 -24 24 -54t-11 -56q45 -28 109 -28t105 28q40 28 40 76q0 49 -40 83t-136 34h-45v112h47q160 0 160 117q0 41 -36 63q-36 21 -87 21t-82 -20q8 -26 8 -54t-26 -54
t-61 -26t-61 30q-26 28 -26 78t69 106t183 55q114 0 193 -55q78 -55 78 -129t-43 -121t-111 -66q68 -18 118 -64t50 -132z" />
    <glyph glyph-name="four.inf" unicode="&#x2084;" horiz-adv-x="722" 
d="M283 -283v107h139v106h-332l-47 86l399 473l105 -83l-338 -375h213v119l125 49v-156h112v-119h-112v-96h84v-111h-348z" />
    <glyph glyph-name="five.inf" unicode="&#x2085;" horiz-adv-x="722" 
d="M80 -154q0 100 88 99q42 0 66 -26t24 -50t-4 -37q57 -8 82 -8q76 0 119 36t43 94t-39 91t-120 33t-157 -33l-69 39l34 371h445v-133h-326l-10 -127q37 10 100 10q121 0 202 -69q81 -70 81 -180t-81 -184t-210 -73q-128 0 -198 48q-70 49 -70 99z" />
    <glyph glyph-name="six.inf" unicode="&#x2086;" horiz-adv-x="722" 
d="M223 -57q1 -53 43 -86t99 -33t96 36t39 87t-36 82t-98 31t-103 -32q-40 -32 -40 -85zM612 327q0 -44 -24 -67q-24 -22 -63 -22q-40 0 -65 31t-14 69q-37 6 -47 6q-72 0 -126 -66t-58 -153q69 59 175 59t180 -68t75 -170q0 -103 -80 -175q-79 -72 -199 -72t-207 87
q-87 86 -87 270t93 298t221 115q128 0 187 -59q39 -39 39 -83z" />
    <glyph glyph-name="seven.inf" unicode="&#x2087;" horiz-adv-x="722" 
d="M223 334v-154h-129v275h529l39 -86l-308 -656h-161l305 621h-275z" />
    <glyph glyph-name="eight.inf" unicode="&#x2088;" horiz-adv-x="722" 
d="M360 -172q61 0 101 31q39 31 39 73t-39 72q-39 31 -101 31t-101 -31q-38 -31 -38 -73q0 -43 39 -73t100 -30zM359 143q50 0 86 29t36 73q0 45 -35 71t-87 26t-86 -27q-33 -27 -33 -71t34 -72q34 -29 85 -29zM360 -299q-135 0 -215 60t-79 143q0 135 170 190
q-152 41 -152 168q0 80 78 141t198 61t200 -60q79 -62 79 -142q0 -127 -156 -168q174 -55 174 -190q0 -80 -80 -142q-82 -61 -217 -61z" />
    <glyph glyph-name="nine.inf" unicode="&#x2089;" horiz-adv-x="722" 
d="M500 225q0 53 -42 86t-100 33q-57 0 -96 -36t-39 -87t36 -82t98 -31t103 32q40 32 40 85zM324 -176q72 0 126 66t58 151q-74 -57 -178 -57t-178 68t-74 170q0 103 80 175t200 72t206 -87q87 -86 87 -270t-93 -298t-221 -115q-128 0 -187 59q-39 39 -39 83t23 67
q24 22 64 22t60 -24t20 -48q0 -22 -2 -28q37 -6 48 -6z" />
    <glyph glyph-name="Euro" unicode="&#x20ac;" horiz-adv-x="1372" 
d="M106 596v168h193q63 150 203 238t322 90q183 0 304 -92t121 -203q0 -70 -46 -113t-104 -43t-98 39q-39 39 -39 95t29 85q-49 45 -178 45q-197 0 -299 -151h289v-158h-348q-2 -18 -2 -55t2 -54h348v-157h-291q104 -160 307 -160q164 0 297 137l131 -137
q-170 -186 -428 -186q-190 0 -330 89q-139 89 -198 246h-185v168h150q-2 17 -2 53t2 56h-150z" />
    <glyph glyph-name="published" unicode="&#x2117;" horiz-adv-x="1269" 
d="M647 526q51 0 81 28t30 73t-32 71t-83 25h-57v-195q10 -2 61 -2zM639 444h-53v-96h67v-82h-221v82h62v375h-62v82h217q87 0 145 -47t58 -133q0 -85 -58 -133t-155 -48zM612 78q186 0 318 134q131 134 131 327t-129 325q-130 132 -318 133q-188 0 -317 -133
q-129 -134 -129 -328t129 -326t315 -132zM613 -16q-230 0 -391 160t-161 392t161 394t392 162q230 0 392 -162t162 -392t-162 -393q-163 -161 -393 -161z" />
    <glyph glyph-name="servicemark" unicode="&#x2120;" horiz-adv-x="1234" 
d="M241 813q-85 0 -140 36q-54 36 -54 89q-1 29 19 47q20 19 48 19t45 -16t17 -34t-8 -28q31 -20 68 -21q82 0 81 58q0 49 -85 79t-126 66q-40 35 -40 101q0 67 50 109t131 42t130 -32t49 -71t-18 -57t-45 -18t-48 21t-6 50q-23 12 -59 13q-72 0 -72 -52q0 -41 86 -69
q168 -59 168 -178q0 -74 -53 -114t-138 -40zM500 825v99h63l17 325h-74v99h215l119 -271l110 271h215v-99h-73l16 -325h63v-99h-241v99h65l-10 256l-123 -265h-53l-125 265l-10 -256h65v-99h-239z" />
    <glyph glyph-name="trademark" unicode="&#x2122;" horiz-adv-x="1345" 
d="M164 825v99h67v327h-86v-90h-98v187h490v-187h-99v90h-86v-327h68v-99h-256zM610 825v99h64l16 325h-74v99h215l119 -271l111 271h215v-99h-74l17 -325h63v-99h-242v99h66l-10 256l-123 -265h-53l-125 265l-11 -256h66v-99h-240z" />
    <glyph glyph-name="onethird" unicode="&#x2153;" horiz-adv-x="1628" 
d="M1253 -18q-121 0 -201 51t-79 133q-1 38 25 66t63 28t61 -24t25 -56q0 -31 -10 -55q45 -29 109 -29t105 28q40 28 40 77t-40 83t-137 33h-45v113h48q160 0 159 117q0 41 -36 63t-87 21q-51 0 -82 -21q22 -69 -17 -107q-26 -26 -62 -26t-61 29t-25 79t68 105q69 55 184 55
q114 0 192 -55q78 -54 78 -128t-43 -122t-111 -65q68 -19 118 -65t50 -132t-84 -141t-205 -55zM1253 1282q-498 -767 -796 -1315l-101 66q204 313 400 629t397 686zM84 575v132h186v458l-168 -43l-32 121l272 76h76v-612h180v-132h-514z" />
    <glyph glyph-name="twothirds" unicode="&#x2154;" horiz-adv-x="1628" 
d="M1300 1282q-498 -767 -796 -1315l-101 66q203 313 399 629t398 686zM1550 178q0 -86 -84 -141t-204 -55q-121 0 -201 51t-80 133q0 38 26 66q27 28 63 28t60 -24t25 -56q0 -31 -10 -55q45 -29 109 -29t105 28q40 28 40 77t-40 83t-136 33h-45v113h47q160 0 159 117
q0 41 -36 63t-86 21q-51 0 -82 -21q8 -26 8 -54t-26 -54t-62 -25q-36 0 -61 29t-25 79t68 105q69 55 184 55q114 0 192 -55q78 -54 78 -128t-43 -122t-111 -65q68 -19 118 -65t50 -132zM473 1102q0 51 -35 78q-35 26 -83 26t-84 -12t-48 -25q37 -18 37 -61t-24 -68t-60 -24
q-90 0 -90 99t75 157t191 57q116 0 191 -62q76 -62 75 -163q0 -54 -30 -102t-59 -70q-30 -22 -78 -51q-154 -92 -213 -187h282v129h119v-250h-535l-43 68q35 82 97 154q61 73 98 101t91 65t71 49q55 41 55 92z" />
    <glyph glyph-name="onefifth" unicode="&#x2155;" horiz-adv-x="1628" 
d="M1264 -18q-129 0 -199 48t-70 98q0 101 88 99q43 1 67 -25t24 -50t-5 -37q57 -8 82 -9q76 0 119 36t43 94t-39 92q-40 32 -120 32t-156 -32l-70 39l35 370h444v-133h-325l-11 -127q37 10 101 10q121 -1 202 -69q80 -68 80 -178t-80 -185q-81 -73 -210 -73zM1266 1282
q-504 -776 -797 -1315l-100 66q498 767 796 1315zM90 575v132h186v458l-167 -43l-33 121l272 76h76v-612h180v-132h-514z" />
    <glyph glyph-name="twofifths" unicode="&#x2156;" horiz-adv-x="1628" 
d="M1313 1282q-504 -776 -797 -1315l-100 66q498 767 796 1315zM1427 236q0 124 -158 124q-81 0 -157 -32l-70 39l35 370h445v-133h-326l-10 -127q37 10 100 10q121 -1 202 -69t81 -178t-81 -184t-210 -74t-199 48q-69 48 -69 98q1 101 88 99q42 1 66 -25t24 -50t-4 -37
q57 -8 82 -9q76 0 118 36t43 94zM473 1102q0 51 -35 78q-35 26 -83 26t-84 -12t-48 -25q37 -18 37 -61t-24 -68t-60 -24q-90 0 -90 99t75 157t191 57q116 0 191 -62q76 -62 75 -163q0 -54 -30 -102t-59 -70q-30 -22 -78 -51q-154 -92 -213 -187h282v129h119v-250h-535
l-43 68q35 82 97 154q61 73 98 101t91 65t71 49q55 41 55 92z" />
    <glyph glyph-name="threefifths" unicode="&#x2157;" horiz-adv-x="1628" 
d="M1268 487q122 -1 202 -69t80 -178t-80 -184t-210 -74q-129 0 -199 48t-70 98q0 101 88 99q43 0 73 -32t13 -80q57 -8 82 -9q76 0 119 36t43 94t-39 92q-40 32 -120 32t-156 -32l-70 39l35 370h444v-133h-325l-11 -127q37 10 101 10zM1276 1282q-504 -776 -797 -1315
l-100 66q495 763 797 1315zM647 756q0 -86 -84 -142t-205 -55q-120 0 -200 51t-80 133q0 39 25 67q26 28 63 28q38 0 62 -25t24 -55t-10 -56q45 -28 109 -28t105 27q40 28 40 77t-40 83t-137 34h-45v113h48q160 0 159 116q0 41 -36 63q-36 21 -87 21t-82 -20
q22 -69 -10 -101q-32 -33 -68 -33t-62 30q-26 28 -26 78t69 106q69 55 184 55t193 -55t77 -129q0 -74 -43 -121t-111 -66q68 -18 118 -64t50 -132z" />
    <glyph glyph-name="fourfifths" unicode="&#x2158;" horiz-adv-x="1628" 
d="M1288 487q121 -1 202 -69t81 -178t-81 -184t-210 -74t-199 48q-69 48 -69 98q1 101 88 99q42 1 66 -25t24 -50t-4 -37q57 -8 82 -9q76 0 118 36t44 94q0 58 -39 92q-39 32 -120 32t-157 -32l-70 39l35 370h445v-133h-326l-10 -127q37 10 100 10zM1327 1282
q-504 -776 -797 -1315l-100 66q204 313 400 629t397 686zM295 578v106h139v107h-332l-47 86l400 473l104 -84l-338 -375h213v119l125 49v-156h113v-119h-113v-96h84v-110h-348z" />
    <glyph glyph-name="onesixth" unicode="&#x2159;" horiz-adv-x="1628" 
d="M1118 225q0 -53 42 -86t100 -33q57 0 96 36t39 87t-36 82q-37 31 -99 31t-102 -32t-40 -85zM1274 1282q-504 -776 -797 -1315l-100 66q495 763 797 1315zM98 575v132h187v458l-168 -43l-33 121l272 76h76v-612h180v-132h-514zM1507 609q1 -45 -23 -67t-64 -22t-65 31
t-14 70q-37 6 -47 6q-72 0 -126 -66t-58 -153q70 59 176 59t180 -68t74 -171t-80 -175q-80 -71 -200 -71t-206 86q-87 86 -87 270t93 299t221 115t187 -60q39 -39 39 -83z" />
    <glyph glyph-name="fivesixths" unicode="&#x215a;" horiz-adv-x="1628" 
d="M1114 225q0 -53 42 -86t99 -33t97 36q39 36 39 87t-36 82q-37 31 -99 31t-102 -32t-40 -85zM1270 1282q-504 -776 -797 -1315l-100 66q498 767 796 1315zM82 706q0 100 88 99q43 0 72 -32t14 -81q57 -8 82 -8q76 0 119 36t43 94t-39 91t-120 33t-157 -33l-69 39l35 371
h444v-133h-326l-10 -127q37 10 100 10q121 0 202 -69q81 -70 81 -180t-81 -184t-210 -73q-128 0 -198 48q-70 49 -70 99zM1503 609q1 -45 -23 -67t-64 -22t-65 31t-14 70q-37 6 -47 6q-72 0 -126 -66t-58 -153q70 59 176 59t180 -68t74 -171t-80 -175q-80 -71 -200 -71
t-206 86t-87 270q0 184 93 299t221 115t187 -60q39 -39 39 -83z" />
    <glyph glyph-name="oneeighth" unicode="&#x215b;" horiz-adv-x="1628" 
d="M1251 111q61 0 101 30q39 31 39 73t-39 73q-40 31 -102 31t-100 -32q-38 -30 -38 -72t39 -72t100 -31zM1130 527q0 -45 35 -73t85 -28t86 29t36 73t-35 70q-35 27 -87 27t-86 -27t-34 -71zM1251 -16q-135 0 -215 60t-80 142q0 135 170 191q-152 41 -151 168q0 80 78 141
q79 62 199 62t199 -62t79 -141q0 -127 -156 -168q174 -55 174 -191q0 -80 -81 -141t-216 -61zM1255 1282q-498 -767 -796 -1315l-101 66q204 313 400 629t397 686zM84 575v132h186v458l-168 -43l-32 121l272 76h76v-612h180v-132h-514z" />
    <glyph glyph-name="threeeighths" unicode="&#x215c;" horiz-adv-x="1628" 
d="M1245 111q61 0 101 30q38 31 38 73t-38 73q-40 31 -102 31t-100 -32q-38 -30 -38 -72t39 -72t100 -31zM1124 527q0 -45 35 -73t85 -28t86 29t36 73t-35 70q-35 27 -87 27t-86 -27t-34 -71zM1245 -16q-135 0 -215 60t-80 142q0 135 170 191q-152 41 -151 168q0 80 78 141
q79 62 199 62t199 -62t79 -141q0 -127 -156 -168q174 -55 174 -191q0 -80 -81 -141t-216 -61zM1266 1282q-504 -776 -797 -1315l-100 66q498 767 796 1315zM643 756q0 -86 -84 -142t-205 -55q-120 0 -200 51t-80 133q0 39 25 67q26 28 63 28q38 0 62 -25t24 -55t-10 -56
q45 -28 109 -28t105 27q40 28 40 77t-40 83t-137 34h-45v113h47q160 0 160 116q0 41 -36 63q-36 21 -87 21t-82 -20q22 -69 -10 -101q-32 -33 -68 -33t-62 30q-26 28 -26 78t69 106t183 55q114 0 193 -55q78 -55 78 -129t-43 -121t-111 -66q68 -18 118 -64t50 -132z" />
    <glyph glyph-name="fiveeighths" unicode="&#x215d;" horiz-adv-x="1628" 
d="M1247 111q61 0 101 30q38 31 38 73t-38 73q-40 31 -102 31t-100 -32q-38 -30 -38 -72t39 -72t100 -31zM1126 527q0 -45 35 -73t85 -28t86 29t36 73t-35 70q-35 27 -87 27t-86 -27t-34 -71zM1247 -16q-135 0 -215 60t-80 142q0 135 170 191q-152 41 -151 168q0 80 78 141
q79 62 199 62t199 -62t79 -141q0 -127 -156 -168q174 -55 174 -191q0 -80 -81 -141t-216 -61zM1257 1282q-498 -767 -796 -1315l-101 66q204 313 400 629t397 686zM80 706q0 100 88 99q42 0 66 -26t24 -50t-4 -37q57 -8 82 -8q76 0 119 36t43 94t-39 91t-120 33t-157 -33
l-69 39l34 371h445v-133h-326l-10 -127q37 10 100 10q121 0 202 -69q81 -70 81 -180t-81 -184t-210 -73q-128 0 -198 48q-70 49 -70 99z" />
    <glyph glyph-name="seveneighths" unicode="&#x215e;" horiz-adv-x="1628" 
d="M1208 111q61 0 101 30q39 31 39 73t-39 73t-101 31t-101 -32q-38 -30 -38 -72t39 -72t100 -31zM1087 527q0 -45 35 -73t85 -28t86 29t36 73t-35 70q-35 27 -87 27t-86 -27t-34 -71zM1208 -16q-135 0 -215 60t-80 142q0 135 170 191q-152 41 -151 168q0 80 78 141
q78 62 198 62t200 -62q79 -62 79 -141q0 -127 -156 -168q174 -55 174 -191q0 -80 -81 -141t-216 -61zM1196 1282q-504 -776 -797 -1315l-100 66q203 313 399 629t398 686zM258 1194v-154h-129v275h528l39 -86l-307 -656h-162l305 621h-274z" />
    <glyph glyph-name="minus" unicode="&#x2212;" horiz-adv-x="950" 
d="M106 485v189h738v-189h-738z" />
    <glyph glyph-name="Q.alt" horiz-adv-x="1570" 
d="M786 186q74 0 138 19l-136 215l175 110l141 -221q133 137 133 357t-128 355q-128 136 -324 136q-195 0 -323 -136t-128 -347q0 -212 128 -350t324 -138zM94 674q0 298 196 498t499 200t495 -200t193 -498q0 -164 -68 -307t-188 -240l159 -248l-176 -110l-164 254
q-131 -47 -260 -48q-302 0 -494 200t-192 499z" />
    <glyph glyph-name="a.sc" horiz-adv-x="1224" 
d="M608 903l-133 -389h268zM252 1075h721v-186h-142l250 -703h113v-186h-485v182h149l-55 156h-387l-54 -156h150v-182h-481v186h114l250 703h-143v186z" />
    <glyph glyph-name="b.sc" horiz-adv-x="1114" 
d="M621 0h-539v186h158v703h-158v186h522q197 0 297 -78t100 -204q0 -180 -182 -240q213 -61 213 -252q0 -139 -105 -220t-306 -81zM463 621h141q82 1 127 37t45 100t-46 100q-46 35 -130 35h-137v-272zM463 182h162q84 0 132 37t48 105t-48 104t-136 37h-158v-283z" />
    <glyph glyph-name="c.sc" horiz-adv-x="1173" 
d="M652 -27q-268 0 -424 162t-156 408q0 247 167 405t418 158q185 0 307 -87t121 -200q-1 -71 -39 -113t-103 -42t-105 36t-39 88q0 54 16 80q-66 39 -172 39q-150 0 -246 -101t-96 -265q0 -165 97 -265t241 -100q186 1 319 148l140 -150q-178 -201 -446 -201z" />
    <glyph glyph-name="d.sc" horiz-adv-x="1241" 
d="M530 0h-448v186h158v703h-158v186h469q289 0 454 -141t165 -390t-165 -397q-166 -147 -475 -147zM463 186h100q189 0 285 96t96 262q0 167 -103 256t-290 89h-88v-703z" />
    <glyph glyph-name="e.sc" horiz-adv-x="1073" 
d="M975 0h-893v186h158v703h-158v186h891v-375h-205v193h-305v-272h307v-175h-307v-264h307v185h205v-367z" />
    <glyph glyph-name="f.sc" horiz-adv-x="1028" 
d="M631 0h-549v186h158v703h-158v186h885v-375h-207v193h-297v-283h301v-174h-301v-250h168v-186z" />
    <glyph glyph-name="g.sc" horiz-adv-x="1214" 
d="M643 907q-150 0 -246 -101t-96 -263t98 -270q99 -107 241 -107t224 61v162h-258v176h477v-565h-213v70q-125 -96 -280 -97q-211 0 -365 156q-153 156 -153 409q0 252 165 410t420 158q185 0 307 -87t121 -200q-1 -71 -39 -113t-103 -42t-105 36t-39 88q0 54 16 80
q-66 39 -172 39z" />
    <glyph glyph-name="h.sc" horiz-adv-x="1374" 
d="M82 0v186h158v703h-158v186h543v-186h-162v-264h448v264h-161v186h542v-186h-157v-703h157v-186h-542v186h161v256h-448v-256h162v-186h-543z" />
    <glyph glyph-name="i.sc" horiz-adv-x="714" 
d="M633 0h-551v186h164v703h-164v186h551v-186h-164v-703h164v-186z" />
    <glyph glyph-name="j.sc" horiz-adv-x="983" 
d="M407 172q73 0 113 43t41 158v516h-166v186h537v-186h-152v-518q0 -201 -99 -299t-259 -98t-265 83q-105 84 -106 205q0 72 41 116q40 44 100 44t100 -39t40 -92t-37 -90q39 -29 112 -29z" />
    <glyph glyph-name="k.sc" horiz-adv-x="1249" 
d="M1194 186v-186h-305l-291 449l-135 -125v-138h155v-186h-536v186h158v703h-158v186h514v-182h-133v-342l358 342h-129v182h494v-186h-111l-313 -299l270 -404h162z" />
    <glyph glyph-name="l.sc" horiz-adv-x="1017" 
d="M770 186v201h207v-387h-895v186h158v703h-158v186h547v-186h-166v-703h307z" />
    <glyph glyph-name="m.sc" horiz-adv-x="1544" 
d="M1444 1075v-186h-158l31 -703h158v-186h-535v186h152l-21 516l-280 -509h-41l-287 509l-21 -516h162v-186h-534v186h157l31 703h-158v186h373l307 -547l295 547h369z" />
    <glyph glyph-name="n.sc" horiz-adv-x="1349" 
d="M928 889h-154v186h524v-186h-157v-895h-154l-530 698v-506h143v-186h-518v186h158v703h-158v186h346l500 -647v461z" />
    <glyph glyph-name="o.sc" horiz-adv-x="1273" 
d="M637 176q145 0 242 99q96 99 96 263t-95 265q-96 100 -242 100t-242 -100t-95 -264q0 -164 95 -264q96 -99 241 -99zM637 1106q252 0 409 -162q156 -162 156 -404t-156 -404q-156 -163 -409 -163q-254 0 -410 163q-155 163 -155 405q0 241 156 403t409 162z" />
    <glyph glyph-name="p.sc" horiz-adv-x="1060" 
d="M588 528q76 0 132 52q54 52 54 132q0 81 -58 129t-149 48h-104v-357q49 -4 125 -4zM82 1075h491q183 0 305 -98t122 -269t-123 -267q-123 -95 -328 -95q-55 0 -86 2v-162h162v-186h-543v186h158v703h-158v186z" />
    <glyph glyph-name="q.sc" horiz-adv-x="1273" 
d="M638 903q-146 0 -242 -100t-95 -260q0 -159 91 -263q90 -104 240 -104t247 99q96 99 96 263t-95 265q-96 100 -242 100zM1022 -246q-106 0 -164 30l-78 41q-20 11 -66 45t-55 40q-68 47 -137 65q-195 49 -309 177q-141 158 -141 394t156 398t409 162q252 0 409 -162
t156 -401q0 -185 -92 -327t-252 -204l23 -14q70 -45 132 -45t148 72l111 -162q-107 -109 -250 -109z" />
    <glyph glyph-name="q.sc_alt" horiz-adv-x="1273" 
d="M975 545q0 158 -95 258q-96 100 -242 100t-242 -100t-95 -264q0 -163 95 -263t241 -100q49 0 84 8l-94 148l164 106l98 -153q86 102 86 260zM1202 543q0 -283 -194 -443l112 -172l-166 -106l-118 182q-98 -31 -199 -31q-254 0 -410 163q-155 163 -155 405q0 241 156 403
t409 162t409 -162t156 -401z" />
    <glyph glyph-name="r.sc" horiz-adv-x="1163" 
d="M463 186h143v-186h-524v186h158v703h-158v186h514q198 0 318 -86t120 -252q0 -94 -51 -170t-135 -118l127 -263h147v-186h-313l-176 393q-39 -4 -90 -4t-80 2v-205zM582 889h-119v-309q55 -6 142 -6t145 43q57 44 57 117t-59 114q-60 41 -166 41z" />
    <glyph glyph-name="s.sc" horiz-adv-x="1034" 
d="M657 819q0 41 13 66q-60 37 -148 37t-135 -32t-47 -88q0 -74 112 -114q21 -8 30 -12t32 -11t66 -22t85 -30t104 -47q176 -91 174 -258q-1 -167 -117 -251t-302 -84t-314 82t-128 201q0 68 36 108t99 40t106 -40q42 -40 42 -86t-15 -75q61 -45 174 -45q201 0 201 127
q0 64 -74 99q-56 27 -151 57q-299 94 -356 208q-28 55 -27 131q0 143 112 235q113 91 293 91t296 -76t116 -188q0 -66 -36 -104t-100 -38t-102 39q-39 39 -39 80z" />
    <glyph glyph-name="t.sc" horiz-adv-x="1136" 
d="M293 0v186h164v709h-195v-217h-205v397h1022v-397h-205v217h-194v-709h164v-186h-551z" />
    <glyph glyph-name="u.sc" horiz-adv-x="1277" 
d="M426 889v-477q0 -119 57 -186q57 -66 159 -66t158 63t56 183v483h-151v186h522v-186h-152v-467q0 -221 -118 -336q-119 -115 -321 -115t-318 113t-115 332v473h-152v186h527v-186h-152z" />
    <glyph glyph-name="v.sc" horiz-adv-x="1193" 
d="M20 889v186h500v-186h-143l227 -594l227 594h-143v186h486v-186h-121l-375 -903h-162l-375 903h-121z" />
    <glyph glyph-name="w.sc" horiz-adv-x="1669" 
d="M25 889v186h526v-186h-156l160 -549l233 606h109l233 -604l162 547h-162v186h515v-186h-134l-282 -903h-162l-233 592l-232 -592h-162l-282 903h-133z" />
    <glyph glyph-name="x.sc" horiz-adv-x="1239" 
d="M1198 186v-186h-518v182h141l-213 252l-202 -252h145v-182h-510v186h137l305 367l-290 336h-138v186h504v-182h-119l189 -227l180 227h-121v182h496v-186h-148l-280 -340l315 -363h127z" />
    <glyph glyph-name="y.sc" horiz-adv-x="1112" 
d="M1100 1075v-186h-113l-319 -496v-207h163v-186h-550v186h163v207l-319 496h-113v186h488v-182h-140l201 -326l203 326h-148v182h484z" />
    <glyph glyph-name="z.sc" 
d="M84 0v129l606 766h-389v-209h-188v389h884v-129l-604 -766h416v207h188v-387h-913z" />
    <glyph glyph-name="aacute.sc" horiz-adv-x="1224" 
d="M608 903l-133 -389h268zM842 1638q52 0 83 -30q29 -30 29 -83q0 -54 -63 -104l-305 -221l-70 68l225 307q49 63 101 63zM252 1075h721v-186h-142l250 -703h113v-186h-485v182h149l-55 156h-387l-54 -156h150v-182h-481v186h114l250 703h-143v186z" />
    <glyph glyph-name="abreve.sc" horiz-adv-x="1224" 
d="M608 903l-133 -389h268zM604 1229q-127 0 -228 88t-149 268l142 55q86 -210 234 -210t237 210l141 -55q-47 -180 -149 -268t-228 -88zM252 1075h721v-186h-142l250 -703h113v-186h-485v182h149l-55 156h-387l-54 -156h150v-182h-481v186h114l250 703h-143v186z" />
    <glyph glyph-name="acircumflex.sc" horiz-adv-x="1224" 
d="M608 903l-133 -389h268zM340 1206l-94 109l362 360l363 -360l-94 -109l-269 197zM252 1075h721v-186h-142l250 -703h113v-186h-485v182h149l-55 156h-387l-54 -156h150v-182h-481v186h114l250 703h-143v186z" />
    <glyph glyph-name="adieresis.sc" horiz-adv-x="1224" 
d="M608 903l-133 -389h268zM248 1376q0 60 45 104t105 44t104 -43t45 -105t-45 -104q-46 -43 -106 -43t-104 43t-44 104zM670 1376q0 60 45 104t105 44t104 -43t45 -105t-45 -104q-46 -43 -106 -43t-104 43t-44 104zM252 1075h721v-186h-142l250 -703h113v-186h-485v182h149
l-55 156h-387l-54 -156h150v-182h-481v186h114l250 703h-143v186z" />
    <glyph glyph-name="ae.sc" horiz-adv-x="1544" 
d="M711 512v377h-43l-187 -377h230zM561 0v182h150v156h-314l-75 -156h141v-182h-463v186h106l355 703h-135v186h1118v-375h-205v193h-305v-272h307v-175h-307v-264h307v185h205v-367h-885z" />
    <glyph glyph-name="aeacute.sc" horiz-adv-x="1544" 
d="M711 512v377h-43l-187 -377h230zM1066 1638q52 0 82 -30t30 -83q0 -54 -64 -104l-305 -221l-70 68l226 307q49 63 101 63zM561 0v182h150v156h-314l-75 -156h141v-182h-463v186h106l355 703h-135v186h1118v-375h-205v193h-305v-272h307v-175h-307v-264h307v185h205v-367
h-885z" />
    <glyph glyph-name="agrave.sc" horiz-adv-x="1224" 
d="M608 903l-133 -389h268zM631 1200l-305 221q-64 49 -64 103t30 85q30 30 70 29q63 0 113 -63l225 -307zM252 1075h721v-186h-142l250 -703h113v-186h-485v182h149l-55 156h-387l-54 -156h150v-182h-481v186h114l250 703h-143v186z" />
    <glyph glyph-name="amacron.sc" horiz-adv-x="1224" 
d="M608 903l-133 -389h268zM266 1268v182h684v-182h-684zM252 1075h721v-186h-142l250 -703h113v-186h-485v182h149l-55 156h-387l-54 -156h150v-182h-481v186h114l250 703h-143v186z" />
    <glyph glyph-name="aogonek.sc" horiz-adv-x="1224" 
d="M608 903l-133 -389h268zM993 -412q-115 0 -176 58t-61 164q0 104 102 190h-149v182h149l-55 156h-387l-54 -156h150v-182h-481v186h114l250 703h-143v186h721v-186h-142l250 -703h113v-186h-154q-98 -63 -98 -145q0 -94 107 -95q78 0 143 35l-10 -162q-74 -45 -189 -45z
" />
    <glyph glyph-name="aring.sc" horiz-adv-x="1224" 
d="M610 1083q47 0 77 36t30 85t-30 85t-77 36q-46 0 -76 -36t-30 -85t30 -85t76 -36zM608 903l-133 -389h268zM512 0h-481v186h114l250 703h-143v186h121q-37 59 -37 129q0 113 80 190q80 76 194 76t195 -76q80 -76 80 -190q0 -70 -37 -129h125v-186h-142l250 -703h113v-186
h-485v182h149l-55 156h-387l-54 -156h150v-182z" />
    <glyph glyph-name="aringacute.sc" horiz-adv-x="1224" 
d="M610 1083q47 0 77 36t30 85t-30 85t-77 36q-46 0 -76 -36t-30 -85t30 -85t76 -36zM608 903l-133 -389h268zM846 1972q52 0 83 -30q29 -30 29 -83q0 -54 -63 -104l-305 -221l-70 68l225 307q49 63 101 63zM512 0h-481v186h114l250 703h-143v186h121q-37 59 -37 129
q0 113 80 190q80 76 194 76t195 -76q80 -76 80 -190q0 -70 -37 -129h125v-186h-142l250 -703h113v-186h-485v182h149l-55 156h-387l-54 -156h150v-182z" />
    <glyph glyph-name="atilde.sc" horiz-adv-x="1224" 
d="M608 903l-133 -389h268zM767 1231q-93 0 -173 72t-127 71q-74 0 -107 -131l-151 39q16 143 86 226t163 83q93 1 173 -71t127 -72q74 0 106 131l152 -39q-16 -143 -86 -226t-163 -83zM252 1075h721v-186h-142l250 -703h113v-186h-485v182h149l-55 156h-387l-54 -156h150
v-182h-481v186h114l250 703h-143v186z" />
    <glyph glyph-name="cacute.sc" horiz-adv-x="1183" 
d="M851 1638q52 0 82 -30t30 -83q0 -54 -64 -104l-305 -221l-70 68l226 307q49 63 101 63zM652 -27q-268 0 -424 162t-156 408q0 247 167 405t418 158q185 0 307 -87t121 -200q-1 -71 -39 -113t-103 -42t-105 36t-39 88q0 54 16 80q-66 39 -172 39q-150 0 -246 -101
t-96 -265q0 -165 97 -265t241 -100q186 1 319 148l140 -150q-178 -201 -446 -201z" />
    <glyph glyph-name="ccaron.sc" horiz-adv-x="1183" 
d="M883 1661l94 -109l-363 -360l-362 360l94 109l268 -197zM652 -27q-268 0 -424 162t-156 408q0 247 167 405t418 158q185 0 307 -87t121 -200q-1 -71 -39 -113t-103 -42t-105 36t-39 88q0 54 16 80q-66 39 -172 39q-150 0 -246 -101t-96 -265q0 -165 97 -265t241 -100
q186 1 319 148l140 -150q-178 -201 -446 -201z" />
    <glyph glyph-name="ccedilla.sc" horiz-adv-x="1183" 
d="M590 -410q-122 0 -240 70l35 68q100 -43 180 -43t80 53t-121 53l-22 -2l-43 51l59 146q-206 36 -326 188t-120 363q0 253 167 411t418 158q185 0 307 -87t121 -200q-1 -71 -39 -113t-103 -42t-105 36t-39 88q0 54 16 80q-66 39 -172 39q-150 0 -246 -101t-96 -265
q0 -165 97 -265t241 -100q186 0 319 148l140 -150q-178 -201 -459 -201h-23l9 -63q98 -12 157 -55q60 -43 60 -107t-65 -110q-65 -48 -187 -48z" />
    <glyph glyph-name="cdotaccent.sc" horiz-adv-x="1183" 
d="M615 1208q-60 0 -104 43t-44 105t45 104q45 43 105 43q61 0 105 -43t44 -104t-45 -105q-46 -43 -106 -43zM652 -27q-268 0 -424 162t-156 408q0 247 167 405t418 158q185 0 307 -87t121 -200q-1 -71 -39 -113t-103 -42t-105 36t-39 88q0 54 16 80q-66 39 -172 39
q-150 0 -246 -101t-96 -265q0 -165 97 -265t241 -100q186 1 319 148l140 -150q-178 -201 -446 -201z" />
    <glyph glyph-name="dcaron.sc" horiz-adv-x="1241" 
d="M858 1661l94 -109l-362 -360l-363 360l95 109l268 -197zM530 0h-448v186h158v703h-158v186h469q289 0 454 -141t165 -390t-165 -397q-166 -147 -475 -147zM463 186h100q189 0 285 96t96 262q0 167 -103 256t-290 89h-88v-703z" />
    <glyph glyph-name="dcroat.sc" horiz-adv-x="1241" 
d="M463 186h100q189 0 285 96t96 262q0 167 -103 256t-290 89h-88v-260h223v-187h-223v-256zM530 0h-448v186h158v256h-134v187h134v260h-158v186h469q289 0 454 -141t165 -390t-165 -397q-166 -147 -475 -147z" />
    <glyph glyph-name="eacute.sc" horiz-adv-x="1073" 
d="M780 1638q52 0 82 -30t29 -83q0 -54 -64 -104l-305 -221l-69 68l225 307q50 63 102 63zM975 0h-893v186h158v703h-158v186h891v-375h-205v193h-305v-272h307v-175h-307v-264h307v185h205v-367z" />
    <glyph glyph-name="ebreve.sc" horiz-adv-x="1073" 
d="M541 1229q-127 0 -229 88q-101 88 -148 268l141 55q87 -210 235 -210t236 210l142 -55q-46 -180 -148 -268t-229 -88zM975 0h-893v186h158v703h-158v186h891v-375h-205v193h-305v-272h307v-175h-307v-264h307v185h205v-367z" />
    <glyph glyph-name="ecaron.sc" horiz-adv-x="1073" 
d="M811 1661l94 -109l-362 -360l-363 360l94 109l269 -197zM975 0h-893v186h158v703h-158v186h891v-375h-205v193h-305v-272h307v-175h-307v-264h307v185h205v-367z" />
    <glyph glyph-name="ecircumflex.sc" horiz-adv-x="1073" 
d="M276 1206l-94 109l363 360l362 -360l-94 -109l-268 197zM975 0h-893v186h158v703h-158v186h891v-375h-205v193h-305v-272h307v-175h-307v-264h307v185h205v-367z" />
    <glyph glyph-name="edieresis.sc" horiz-adv-x="1073" 
d="M333 1229q-60 0 -105 43q-44 43 -44 104q0 60 45 104t105 44t105 -43q44 -43 44 -105t-45 -104q-45 -43 -105 -43zM755 1229q-60 0 -105 43q-44 43 -44 104q0 60 45 104t105 44t105 -43q44 -43 44 -105t-45 -104q-45 -43 -105 -43zM975 0h-893v186h158v703h-158v186h891
v-375h-205v193h-305v-272h307v-175h-307v-264h307v185h205v-367z" />
    <glyph glyph-name="edotaccent.sc" horiz-adv-x="1073" 
d="M694 1356q0 -60 -45 -104t-105 -44t-105 43q-44 43 -44 105t45 104q46 43 106 43t104 -43t44 -104zM975 0h-893v186h158v703h-158v186h891v-375h-205v193h-305v-272h307v-175h-307v-264h307v185h205v-367z" />
    <glyph glyph-name="egrave.sc" horiz-adv-x="1073" 
d="M199 1524q0 54 29 85q30 30 71 29q63 0 113 -63l225 -307l-70 -68l-305 221q-63 49 -63 103zM975 0h-893v186h158v703h-158v186h891v-375h-205v193h-305v-272h307v-175h-307v-264h307v185h205v-367z" />
    <glyph glyph-name="emacron.sc" horiz-adv-x="1073" 
d="M203 1268v182h684v-182h-684zM975 0h-893v186h158v703h-158v186h891v-375h-205v193h-305v-272h307v-175h-307v-264h307v185h205v-367z" />
    <glyph glyph-name="eogonek.sc" horiz-adv-x="1073" 
d="M776 -412q-115 0 -176 58t-61 164q0 104 102 190h-559v186h158v703h-158v186h891v-375h-205v193h-305v-272h307v-175h-307v-264h307v185h205v-367h-152q-98 -63 -98 -145q0 -94 106 -95q78 0 144 35l-10 -162q-74 -45 -189 -45z" />
    <glyph glyph-name="eth.sc" horiz-adv-x="1241" 
d="M463 186h100q189 0 285 96t96 262q0 167 -103 256t-290 89h-88v-260h223v-187h-223v-256zM530 0h-448v186h158v256h-134v187h134v260h-158v186h469q289 0 454 -141t165 -390t-165 -397q-166 -147 -475 -147z" />
    <glyph glyph-name="gbreve.sc" horiz-adv-x="1208" 
d="M633 1229q-127 0 -229 88q-101 88 -148 268l141 55q87 -210 235 -210t236 210l142 -55q-46 -180 -148 -268t-229 -88zM643 907q-150 0 -246 -101t-96 -263t98 -270q99 -107 241 -107t224 61v162h-258v176h477v-565h-213v70q-125 -96 -280 -97q-211 0 -365 156
q-153 156 -153 409q0 252 165 410t420 158q185 0 307 -87t121 -200q-1 -71 -39 -113t-103 -42t-105 36t-39 88q0 54 16 80q-66 39 -172 39z" />
    <glyph glyph-name="gcommaaccent.sc" horiz-adv-x="1208" 
d="M638 -123q58 0 100 -43t42 -127q0 -85 -72 -189t-223 -190l-53 68q162 127 170 223q-47 12 -75 48t-27 85q0 49 40 87t98 38zM643 907q-150 0 -246 -101t-96 -263t98 -270q99 -107 241 -107t224 61v162h-258v176h477v-565h-213v70q-125 -96 -280 -97q-211 0 -365 156
q-153 156 -153 409q0 252 165 410t420 158q185 0 307 -87t121 -200q-1 -71 -39 -113t-103 -42t-105 36t-39 88q0 54 16 80q-66 39 -172 39z" />
    <glyph glyph-name="gdotaccent.sc" horiz-adv-x="1208" 
d="M786 1356q0 -60 -45 -104t-105 -44t-105 43q-44 43 -44 105t45 104q46 43 106 43t104 -43t44 -104zM643 907q-150 0 -246 -101t-96 -263t98 -270q99 -107 241 -107t224 61v162h-258v176h477v-565h-213v70q-125 -96 -280 -97q-211 0 -365 156q-153 156 -153 409
q0 252 165 410t420 158q185 0 307 -87t121 -200q-1 -71 -39 -113t-103 -42t-105 36t-39 88q0 54 16 80q-66 39 -172 39z" />
    <glyph glyph-name="hbar.sc" horiz-adv-x="1374" 
d="M463 584h448v84h-448v-84zM1247 813v-151h-112v-476h157v-186h-542v186h161v240h-448v-240h162v-186h-543v186h158v476h-113v151h113v76h-158v186h543v-180h-162v-90h448v90h-161v180h542v-186h-157v-76h112z" />
    <glyph glyph-name="iacute.sc" horiz-adv-x="714" 
d="M590 1638q52 0 83 -30q29 -30 29 -83q0 -54 -63 -104l-305 -221l-70 68l225 307q49 63 101 63zM633 0h-551v186h164v703h-164v186h551v-186h-164v-703h164v-186z" />
    <glyph glyph-name="ibreve.sc" horiz-adv-x="714" 
d="M352 1229q-127 0 -228 88t-149 268l142 55q86 -210 234 -210t237 210l141 -55q-47 -180 -149 -268t-228 -88zM633 0h-551v186h164v703h-164v186h551v-186h-164v-703h164v-186z" />
    <glyph glyph-name="icircumflex.sc" horiz-adv-x="714" 
d="M88 1206l-94 109l362 360l363 -360l-94 -109l-269 197zM633 0h-551v186h164v703h-164v186h551v-186h-164v-703h164v-186z" />
    <glyph glyph-name="idieresis.sc" horiz-adv-x="714" 
d="M-4 1376q0 60 45 104t105 44t104 -43t45 -105t-45 -104q-46 -43 -106 -43t-104 43t-44 104zM418 1376q0 60 45 104t105 44t104 -43t45 -105t-45 -104q-46 -43 -106 -43t-104 43t-44 104zM633 0h-551v186h164v703h-164v186h551v-186h-164v-703h164v-186z" />
    <glyph glyph-name="idotaccent.sc" horiz-adv-x="714" 
d="M355 1208q-60 0 -104 43t-44 105t45 104q45 43 105 43q61 0 105 -43t44 -104t-45 -105q-46 -43 -106 -43zM633 0h-551v186h164v703h-164v186h551v-186h-164v-703h164v-186z" />
    <glyph glyph-name="dotlessi.sc" horiz-adv-x="714" 
d="M633 0h-551v186h164v703h-164v186h551v-186h-164v-703h164v-186z" />
    <glyph glyph-name="igrave.sc" horiz-adv-x="714" 
d="M379 1200l-305 221q-64 49 -64 103t30 85q30 30 71 29q63 0 112 -63l226 -307zM633 0h-551v186h164v703h-164v186h551v-186h-164v-703h164v-186z" />
    <glyph glyph-name="imacron.sc" horiz-adv-x="714" 
d="M14 1268v182h684v-182h-684zM633 0h-551v186h164v703h-164v186h551v-186h-164v-703h164v-186z" />
    <glyph glyph-name="iogonek.sc" horiz-adv-x="714" 
d="M381 -412q-115 0 -176 58t-61 164q0 104 102 190h-164v186h164v703h-164v186h551v-186h-164v-703h164v-186h-205q-98 -63 -98 -145q0 -94 106 -95q78 0 144 35l-11 -162q-73 -45 -188 -45z" />
    <glyph glyph-name="kcommaaccent.sc" horiz-adv-x="1249" 
d="M640 -123q58 0 100 -43t42 -127q0 -85 -72 -189t-223 -190l-53 68q162 127 170 223q-47 12 -75 48t-27 85q0 49 40 87t98 38zM1194 186v-186h-305l-291 449l-135 -125v-138h155v-186h-536v186h158v703h-158v186h514v-182h-133v-342l358 342h-129v182h494v-186h-111
l-313 -299l270 -404h162z" />
    <glyph glyph-name="lacute.sc" horiz-adv-x="1017" 
d="M711 1504q0 -54 -64 -103l-305 -221l-70 67l226 307q49 64 101 64t82 -30t30 -84zM770 186v201h207v-387h-895v186h158v703h-158v186h547v-186h-166v-703h307z" />
    <glyph glyph-name="lcaron.sc" horiz-adv-x="1017" 
d="M770 840q0 37 -19 90t-19 101t34 87q35 39 95 39t93 -39t33 -104q0 -217 -231 -457l-72 53q86 125 86 230zM770 186v201h207v-387h-895v186h158v703h-158v186h547v-186h-166v-703h307z" />
    <glyph glyph-name="lcommaaccent.sc" horiz-adv-x="1017" 
d="M391 -248q0 49 40 87t98 38q59 0 101 -43t42 -127q0 -85 -72 -189t-223 -190l-53 68q162 127 170 223q-47 12 -75 48t-28 85zM770 186v201h207v-387h-895v186h158v703h-158v186h547v-186h-166v-703h307z" />
    <glyph glyph-name="ldot.sc" horiz-adv-x="1017" 
d="M859 487q-60 0 -104 43q-44 42 -44 104t45 105t105 43q61 0 105 -43t44 -104t-45 -105q-46 -43 -106 -43zM770 186v201h207v-387h-895v186h158v703h-158v186h547v-186h-166v-703h307z" />
    <glyph glyph-name="lslash.sc" horiz-adv-x="1017" 
d="M770 186v201h207v-387h-895v186h158v203l-154 -70l-78 156l232 107v307h-158v186h547v-186h-166v-205l203 94l73 -157l-276 -127v-308h307z" />
    <glyph glyph-name="nacute.sc" horiz-adv-x="1359" 
d="M916 1638q52 0 82 -30t30 -83q0 -54 -63 -104l-306 -221l-69 68l225 307q49 63 101 63zM928 889h-154v186h524v-186h-157v-895h-154l-530 698v-506h143v-186h-518v186h158v703h-158v186h346l500 -647v461z" />
    <glyph glyph-name="ncaron.sc" horiz-adv-x="1359" 
d="M948 1661l94 -109l-362 -360l-363 360l95 109l268 -197zM928 889h-154v186h524v-186h-157v-895h-154l-530 698v-506h143v-186h-518v186h158v703h-158v186h346l500 -647v461z" />
    <glyph glyph-name="ncommaaccent.sc" horiz-adv-x="1359" 
d="M683 -123q58 0 100 -43t42 -127q1 -85 -71 -189t-224 -190l-53 68q162 127 170 223q-47 12 -75 48t-27 85q0 49 40 87t98 38zM928 889h-154v186h524v-186h-157v-895h-154l-530 698v-506h143v-186h-518v186h158v703h-158v186h346l500 -647v461z" />
    <glyph glyph-name="ntilde.sc" horiz-adv-x="1359" 
d="M841 1231q-93 0 -173 72t-127 71q-74 0 -107 -131l-151 39q16 143 86 226q71 83 163 83q92 1 172 -71t127 -72q74 0 107 131l152 -39q-16 -143 -86 -226t-163 -83zM928 889h-154v186h524v-186h-157v-895h-154l-530 698v-506h143v-186h-518v186h158v703h-158v186h346
l500 -647v461z" />
    <glyph glyph-name="oacute.sc" horiz-adv-x="1273" 
d="M876 1638q52 0 82 -30t29 -83q0 -54 -63 -104l-306 -221l-69 68l225 307q50 63 102 63zM637 176q145 0 242 99q96 99 96 263t-95 265q-96 100 -242 100t-242 -100t-95 -264q0 -164 95 -264q96 -99 241 -99zM637 1106q252 0 409 -162q156 -162 156 -404t-156 -404
q-156 -163 -409 -163q-254 0 -410 163q-155 163 -155 405q0 241 156 403t409 162z" />
    <glyph glyph-name="obreve.sc" horiz-adv-x="1273" 
d="M637 1229q-127 0 -228 88t-149 268l141 55q87 -210 235 -210t236 210l142 -55q-46 -180 -148 -268t-229 -88zM637 176q145 0 242 99q96 99 96 263t-95 265q-96 100 -242 100t-242 -100t-95 -264q0 -164 95 -264q96 -99 241 -99zM637 1106q252 0 409 -162
q156 -162 156 -404t-156 -404q-156 -163 -409 -163q-254 0 -410 163q-155 163 -155 405q0 241 156 403t409 162z" />
    <glyph glyph-name="ocircumflex.sc" horiz-adv-x="1273" 
d="M373 1206l-94 109l362 360l363 -360l-95 -109l-268 197zM637 176q145 0 242 99q96 99 96 263t-95 265q-96 100 -242 100t-242 -100t-95 -264q0 -164 95 -264q96 -99 241 -99zM637 1106q252 0 409 -162q156 -162 156 -404t-156 -404q-156 -163 -409 -163q-254 0 -410 163
q-155 163 -155 405q0 241 156 403t409 162z" />
    <glyph glyph-name="odieresis.sc" horiz-adv-x="1273" 
d="M281 1376q0 60 45 104t105 44q61 0 105 -43t44 -105t-46 -104q-46 -43 -105 -43q-60 0 -104 43t-44 104zM851 1229q-60 0 -105 43q-44 43 -44 104q0 60 46 104t105 44q60 0 104 -43t44 -105t-45 -104q-45 -43 -105 -43zM637 176q145 0 242 99q96 99 96 263t-95 265
q-96 100 -242 100t-242 -100t-95 -264q0 -164 95 -264q96 -99 241 -99zM637 1106q252 0 409 -162q156 -162 156 -404t-156 -404q-156 -163 -409 -163q-254 0 -410 163q-155 163 -155 405q0 241 156 403t409 162z" />
    <glyph glyph-name="oe.sc" horiz-adv-x="1593" 
d="M711 1075h782v-375h-205v193h-305v-272h307v-175h-307v-264h307v185h205v-367h-805q-290 0 -454 141t-164 390t165 397t474 147zM760 186v703h-82q-188 0 -284 -95q-96 -94 -97 -262q0 -168 103 -257t290 -89h70z" />
    <glyph glyph-name="ograve.sc" horiz-adv-x="1273" 
d="M295 1524q0 54 30 85q30 30 70 29q63 0 113 -63l225 -307l-69 -68l-306 221q-63 49 -63 103zM637 176q145 0 242 99q96 99 96 263t-95 265q-96 100 -242 100t-242 -100t-95 -264q0 -164 95 -264q96 -99 241 -99zM637 1106q252 0 409 -162q156 -162 156 -404t-156 -404
q-156 -163 -409 -163q-254 0 -410 163q-155 163 -155 405q0 241 156 403t409 162z" />
    <glyph glyph-name="ohungarumlaut.sc" horiz-adv-x="1273" 
d="M1190 1624q48 0 79 -32q30 -32 29 -74q0 -76 -92 -123l-407 -191l-45 74l333 297q55 49 103 49zM706 1626q50 0 80 -31t31 -73q0 -80 -90 -127l-375 -191l-51 72l299 293q56 57 106 57zM637 176q145 0 242 99q96 99 96 263t-95 265q-96 100 -242 100t-242 -100t-95 -264
q0 -164 95 -264q96 -99 241 -99zM637 1106q252 0 409 -162q156 -162 156 -404t-156 -404q-156 -163 -409 -163q-254 0 -410 163q-155 163 -155 405q0 241 156 403t409 162z" />
    <glyph glyph-name="omacron.sc" horiz-adv-x="1273" 
d="M299 1268v182h684v-182h-684zM637 176q145 0 242 99q96 99 96 263t-95 265q-96 100 -242 100t-242 -100t-95 -264q0 -164 95 -264q96 -99 241 -99zM637 1106q252 0 409 -162q156 -162 156 -404t-156 -404q-156 -163 -409 -163q-254 0 -410 163q-155 163 -155 405
q0 241 156 403t409 162z" />
    <glyph glyph-name="oslash.sc" horiz-adv-x="1273" 
d="M637 176q145 0 242 99q96 99 96 264q0 111 -47 194l-463 -514q74 -43 172 -43zM637 903q-145 0 -241 -100q-96 -101 -95 -245q0 -144 53 -228l465 520q-78 53 -182 53zM637 -27q-174 0 -305 80l-121 -137l-145 127l122 137q-116 152 -116 378t156 386q156 162 409 162
q180 0 319 -90l131 147l146 -127l-139 -149q109 -150 108 -344q0 -244 -156 -407t-409 -163z" />
    <glyph glyph-name="oslashacute.sc" horiz-adv-x="1273" 
d="M884 1638q52 0 82 -30t30 -83q0 -54 -64 -104l-305 -221l-70 68l225 307q50 63 102 63zM637 176q145 0 242 99q96 99 96 264q0 111 -47 194l-463 -514q74 -43 172 -43zM637 903q-145 0 -241 -100q-96 -101 -95 -245q0 -144 53 -228l465 520q-78 53 -182 53zM637 -27
q-174 0 -305 80l-121 -137l-145 127l122 137q-116 152 -116 378t156 386q156 162 409 162q180 0 319 -90l131 147l146 -127l-139 -149q109 -150 108 -344q0 -244 -156 -407t-409 -163z" />
    <glyph glyph-name="otilde.sc" horiz-adv-x="1273" 
d="M800 1231q-93 0 -173 72t-127 71q-74 0 -107 -131l-151 39q16 143 86 226t162 83q92 1 174 -71q80 -72 127 -72q74 0 106 131l152 -39q-16 -143 -86 -226t-163 -83zM637 176q145 0 242 99q96 99 96 263t-95 265q-96 100 -242 100t-242 -100t-95 -264q0 -164 95 -264
q96 -99 241 -99zM637 1106q252 0 409 -162q156 -162 156 -404t-156 -404q-156 -163 -409 -163q-254 0 -410 163q-155 163 -155 405q0 241 156 403t409 162z" />
    <glyph glyph-name="racute.sc" horiz-adv-x="1163" 
d="M800 1638q52 0 82 -30t30 -83q0 -54 -64 -104l-305 -221l-70 68l225 307q50 63 102 63zM463 186h143v-186h-524v186h158v703h-158v186h514q198 0 318 -86t120 -252q0 -94 -51 -170t-135 -118l127 -263h147v-186h-313l-176 393q-39 -4 -90 -4t-80 2v-205zM582 889h-119
v-309q55 -6 142 -6t145 43q57 44 57 117t-59 114q-60 41 -166 41z" />
    <glyph glyph-name="rcaron.sc" horiz-adv-x="1163" 
d="M831 1661l95 -109l-363 -360l-362 360l94 109l268 -197zM463 186h143v-186h-524v186h158v703h-158v186h514q198 0 318 -86t120 -252q0 -94 -51 -170t-135 -118l127 -263h147v-186h-313l-176 393q-39 -4 -90 -4t-80 2v-205zM582 889h-119v-309q55 -6 142 -6t145 43
q57 44 57 117t-59 114q-60 41 -166 41z" />
    <glyph glyph-name="rcommaaccent.sc" horiz-adv-x="1163" 
d="M591 -123q58 0 100 -43t42 -127q1 -85 -71 -189t-224 -190l-53 68q162 127 170 223q-47 12 -75 48t-27 85q0 49 40 87t98 38zM463 186h143v-186h-524v186h158v703h-158v186h514q198 0 318 -86t120 -252q0 -94 -51 -170t-135 -118l127 -263h147v-186h-313l-176 393
q-39 -4 -90 -4t-80 2v-205zM582 889h-119v-309q55 -6 142 -6t145 43q57 44 57 117t-59 114q-60 41 -166 41z" />
    <glyph glyph-name="sacute.sc" horiz-adv-x="1044" 
d="M769 1638q52 0 82 -30t30 -83q0 -54 -64 -104l-305 -221l-70 68l226 307q49 63 101 63zM808 700q-64 0 -102 39t-38 80t12 66q-60 37 -148 37t-135 -32t-47 -89q0 -29 18 -52t37 -34q19 -9 29 -15t30 -13t28 -11q10 -4 32 -11t66 -22q43 -15 85 -30t104 -47
q176 -91 174 -258q-1 -167 -117 -251t-302 -84t-314 82t-128 201q0 68 36 108t99 40t106 -40q42 -40 42 -86t-15 -75q61 -45 175 -45q201 0 200 127q0 63 -64 94t-192 72q-128 40 -240 109q-112 68 -112 215t113 239t293 92q179 0 295 -76t116 -188q0 -66 -36 -104t-100 -38
z" />
    <glyph glyph-name="scaron.sc" horiz-adv-x="1044" 
d="M801 1661l94 -109l-363 -360l-362 360l94 109l268 -197zM808 700q-64 0 -102 39t-38 80t12 66q-60 37 -148 37t-135 -32t-47 -89q0 -29 18 -52t37 -34q19 -9 29 -15t30 -13t28 -11q10 -4 32 -11t66 -22q43 -15 85 -30t104 -47q176 -91 174 -258q-1 -167 -117 -251
t-302 -84t-314 82t-128 201q0 68 36 108t99 40t106 -40q42 -40 42 -86t-15 -75q61 -45 175 -45q201 0 200 127q0 63 -64 94t-192 72q-128 40 -240 109q-112 68 -112 215t113 239t293 92q179 0 295 -76t116 -188q0 -66 -36 -104t-100 -38z" />
    <glyph glyph-name="scedilla.sc" horiz-adv-x="1044" 
d="M786 -252q0 -64 -64 -110q-64 -48 -188 -48q-122 0 -239 70l35 68q100 -43 180 -43t80 53t-121 53l-23 -2l-43 51l56 137q-156 17 -261 95t-106 184q0 68 36 108t99 40t106 -40q42 -40 42 -86t-15 -75q61 -45 175 -45q201 0 200 127q0 63 -64 94t-192 72
q-128 40 -240 109q-112 68 -112 215t113 239t293 92q179 0 295 -76t116 -188q0 -66 -36 -104t-100 -38t-102 39t-38 80t12 66q-60 37 -148 37t-135 -32t-47 -89q0 -29 18 -52t37 -34q19 -9 29 -15t30 -13t28 -11q10 -4 32 -11t66 -22q43 -15 85 -30t104 -47
q176 -91 174 -255q-1 -163 -106 -245t-286 -91l8 -65q97 -12 157 -55t60 -107z" />
    <glyph glyph-name="scommaaccent.sc" horiz-adv-x="1044" 
d="M397 -248q0 49 40 87t98 38q59 0 101 -43t42 -127q0 -85 -72 -189t-223 -190l-53 68q162 127 170 223q-47 12 -75 48t-28 85zM808 700q-64 0 -102 39t-38 80t12 66q-60 37 -148 37t-135 -32t-47 -89q0 -29 18 -52t37 -34q19 -9 29 -15t30 -13t28 -11q10 -4 32 -11t66 -22
q43 -15 85 -30t104 -47q176 -91 174 -258q-1 -167 -117 -251t-302 -84t-314 82t-128 201q0 68 36 108t99 40t106 -40q42 -40 42 -86t-15 -75q61 -45 175 -45q201 0 200 127q0 63 -64 94t-192 72q-128 40 -240 109q-112 68 -112 215t113 239t293 92q179 0 295 -76t116 -188
q0 -66 -36 -104t-100 -38z" />
    <glyph glyph-name="tcaron.sc" horiz-adv-x="1116" 
d="M823 1661l95 -109l-363 -360l-362 360l94 109l268 -197zM283 0v186h163v709h-194v-217h-205v397h1022v-397h-205v217h-194v-709h164v-186h-551z" />
    <glyph glyph-name="tcommaaccent.sc" horiz-adv-x="1116" 
d="M558 -123q58 0 100 -43t42 -127q0 -85 -71 -189t-223 -190l-54 68q162 127 170 223q-47 12 -75 48t-27 85q0 49 40 87t98 38zM283 0v186h163v709h-194v-217h-205v397h1022v-397h-205v217h-194v-709h164v-186h-551z" />
    <glyph glyph-name="thorn.sc" horiz-adv-x="1030" 
d="M590 438q176 0 176 100t-170 101q-84 0 -133 -2v-197q39 -2 127 -2zM610 815q162 0 266 -66q103 -67 103 -207q-1 -140 -105 -208t-272 -68q-76 0 -139 2v-86h162v-182h-543v186h158v703h-158v186h543v-182h-162v-80q63 2 147 2z" />
    <glyph glyph-name="uacute.sc" horiz-adv-x="1277" 
d="M874 1638q52 0 82 -30t29 -83q0 -54 -63 -104l-306 -221l-69 68l225 307q50 63 102 63zM426 889v-477q0 -119 57 -186q57 -66 159 -66t158 63t56 183v483h-151v186h522v-186h-152v-467q0 -221 -118 -336q-119 -115 -321 -115t-318 113t-115 332v473h-152v186h527v-186
h-152z" />
    <glyph glyph-name="ubreve.sc" horiz-adv-x="1277" 
d="M635 1229q-127 0 -228 88t-149 268l141 55q87 -210 235 -210t236 210l142 -55q-46 -180 -148 -268t-229 -88zM426 889v-477q0 -119 57 -186q57 -66 159 -66t158 63t56 183v483h-151v186h522v-186h-152v-467q0 -221 -118 -336q-119 -115 -321 -115t-318 113t-115 332v473
h-152v186h527v-186h-152z" />
    <glyph glyph-name="ucircumflex.sc" horiz-adv-x="1277" 
d="M371 1206l-95 109l363 360l362 -360l-94 -109l-268 197zM426 889v-477q0 -119 57 -186q57 -66 159 -66t158 63t56 183v483h-151v186h522v-186h-152v-467q0 -221 -118 -336q-119 -115 -321 -115t-318 113t-115 332v473h-152v186h527v-186h-152z" />
    <glyph glyph-name="udieresis.sc" horiz-adv-x="1277" 
d="M279 1376q0 60 45 104t105 44q61 0 105 -43t44 -105t-46 -104q-46 -43 -105 -43q-60 0 -104 43t-44 104zM849 1229q-60 0 -105 43q-44 43 -44 104q0 60 45 104t105 44t105 -43q44 -43 44 -105t-45 -104q-45 -43 -105 -43zM426 889v-477q0 -119 57 -186q57 -66 159 -66
t158 63t56 183v483h-151v186h522v-186h-152v-467q0 -221 -118 -336q-119 -115 -321 -115t-318 113t-115 332v473h-152v186h527v-186h-152z" />
    <glyph glyph-name="ugrave.sc" horiz-adv-x="1277" 
d="M293 1524q0 54 30 85q30 30 70 29q63 0 113 -63l225 -307l-69 -68l-306 221q-63 49 -63 103zM426 889v-477q0 -119 57 -186q57 -66 159 -66t158 63t56 183v483h-151v186h522v-186h-152v-467q0 -221 -118 -336q-119 -115 -321 -115t-318 113t-115 332v473h-152v186h527
v-186h-152z" />
    <glyph glyph-name="uhungarumlaut.sc" horiz-adv-x="1277" 
d="M1188 1624q48 0 79 -32q30 -32 29 -74q0 -76 -92 -123l-407 -191l-45 74l333 297q55 49 103 49zM704 1626q50 0 80 -31t31 -73q0 -80 -90 -127l-375 -191l-51 72l299 293q56 57 106 57zM426 889v-477q0 -119 57 -186q57 -66 159 -66t158 63t56 183v483h-151v186h522v-186
h-152v-467q0 -221 -118 -336q-119 -115 -321 -115t-318 113t-115 332v473h-152v186h527v-186h-152z" />
    <glyph glyph-name="umacron.sc" horiz-adv-x="1277" 
d="M297 1268v182h684v-182h-684zM426 889v-477q0 -119 57 -186q57 -66 159 -66t158 63t56 183v483h-151v186h522v-186h-152v-467q0 -221 -118 -336q-119 -115 -321 -115t-318 113t-115 332v473h-152v186h527v-186h-152z" />
    <glyph glyph-name="uogonek.sc" horiz-adv-x="1277" 
d="M426 889v-477q0 -119 57 -186q57 -66 159 -66t158 63t56 183v483h-151v186h522v-186h-152v-467q0 -207 -103 -321t-282 -128q-63 -57 -63 -118q0 -94 106 -95q78 0 144 35l-11 -162q-74 -45 -188 -45t-176 58t-62 157q0 98 84 179q-154 28 -238 138t-83 296v473h-152v186
h527v-186h-152z" />
    <glyph glyph-name="uring.sc" horiz-adv-x="1277" 
d="M639 1335q47 0 77 36t29 85q0 49 -29 85q-30 36 -77 36t-77 -36t-30 -85t30 -85t77 -36zM639 1190q-115 0 -195 77t-80 189t80 190q80 76 195 76t195 -76t80 -190t-80 -190t-195 -76zM426 889v-477q0 -119 57 -186q57 -66 159 -66t158 63t56 183v483h-151v186h522v-186
h-152v-467q0 -221 -118 -336q-119 -115 -321 -115t-318 113t-115 332v473h-152v186h527v-186h-152z" />
    <glyph glyph-name="wacute.sc" horiz-adv-x="1669" 
d="M1070 1638q52 0 82 -30t30 -83q0 -54 -64 -104l-305 -221l-70 68l226 307q49 63 101 63zM25 889v186h526v-186h-156l160 -549l233 606h109l233 -604l162 547h-162v186h515v-186h-134l-282 -903h-162l-233 592l-232 -592h-162l-282 903h-133z" />
    <glyph glyph-name="wcircumflex.sc" horiz-adv-x="1669" 
d="M567 1206l-94 109l363 360l362 -360l-94 -109l-268 197zM25 889v186h526v-186h-156l160 -549l233 606h109l233 -604l162 547h-162v186h515v-186h-134l-282 -903h-162l-233 592l-232 -592h-162l-282 903h-133z" />
    <glyph glyph-name="wdieresis.sc" horiz-adv-x="1669" 
d="M624 1229q-60 0 -105 43q-44 43 -44 104q0 60 45 104q46 44 106 44t104 -43t44 -105t-45 -104q-45 -43 -105 -43zM1196 1376q0 -62 -46 -104q-46 -43 -105 -43q-60 0 -104 43t-44 104q0 60 45 104q46 44 106 44t104 -43t44 -105zM25 889v186h526v-186h-156l160 -549
l233 606h109l233 -604l162 547h-162v186h515v-186h-134l-282 -903h-162l-233 592l-232 -592h-162l-282 903h-133z" />
    <glyph glyph-name="wgrave.sc" horiz-adv-x="1669" 
d="M858 1200l-305 221q-63 49 -63 103t29 85q30 30 71 29q63 0 112 -63l226 -307zM25 889v186h526v-186h-156l160 -549l233 606h109l233 -604l162 547h-162v186h515v-186h-134l-282 -903h-162l-233 592l-232 -592h-162l-282 903h-133z" />
    <glyph glyph-name="yacute.sc" horiz-adv-x="1112" 
d="M790 1638q52 0 82 -30t29 -83q0 -54 -63 -104l-306 -221l-69 68l225 307q50 63 102 63zM1100 1075v-186h-113l-319 -496v-207h163v-186h-550v186h163v207l-319 496h-113v186h488v-182h-140l201 -326l203 326h-148v182h484z" />
    <glyph glyph-name="ycircumflex.sc" horiz-adv-x="1112" 
d="M287 1206l-94 109l362 360l363 -360l-95 -109l-268 197zM1100 1075v-186h-113l-319 -496v-207h163v-186h-550v186h163v207l-319 496h-113v186h488v-182h-140l201 -326l203 326h-148v182h484z" />
    <glyph glyph-name="ydieresis.sc" horiz-adv-x="1112" 
d="M195 1376q0 60 45 104t105 44q61 0 105 -43t44 -105t-46 -104q-46 -43 -105 -43q-60 0 -104 43t-44 104zM765 1229q-60 0 -105 43q-44 43 -44 104q0 60 46 104t105 44q60 0 104 -43t44 -105t-45 -104q-45 -43 -105 -43zM1100 1075v-186h-113l-319 -496v-207h163v-186
h-550v186h163v207l-319 496h-113v186h488v-182h-140l201 -326l203 326h-148v182h484z" />
    <glyph glyph-name="ygrave.sc" horiz-adv-x="1112" 
d="M209 1524q0 54 30 85q30 30 70 29q63 0 113 -63l225 -307l-69 -68l-306 221q-63 49 -63 103zM1100 1075v-186h-113l-319 -496v-207h163v-186h-550v186h163v207l-319 496h-113v186h488v-182h-140l201 -326l203 326h-148v182h484z" />
    <glyph glyph-name="zacute.sc" 
d="M775 1638q52 0 82 -30t30 -83q0 -54 -64 -104l-305 -221l-69 68l225 307q49 63 101 63zM84 0v129l606 766h-389v-209h-188v389h884v-129l-604 -766h416v207h188v-387h-913z" />
    <glyph glyph-name="zcaron.sc" 
d="M807 1661l94 -109l-362 -360l-363 360l94 109l269 -197zM84 0v129l606 766h-389v-209h-188v389h884v-129l-604 -766h416v207h188v-387h-913z" />
    <glyph glyph-name="zdotaccent.sc" 
d="M690 1356q0 -60 -45 -104t-105 -44t-105 43q-44 43 -44 105t45 104q46 43 106 43t104 -43t44 -104zM84 0v129l606 766h-389v-209h-188v389h884v-129l-604 -766h416v207h188v-387h-913z" />
    <glyph glyph-name="zero.lin" horiz-adv-x="1357" 
d="M344 675q0 -213 91 -349t244 -136t244 136t91 347q0 212 -91 348t-244 136t-244 -135t-91 -347zM1253 674q1 -305 -167 -502t-408 -197t-407 197t-167 503t168 502q168 195 408 195t406 -196t167 -502z" />
    <glyph glyph-name="one.lin" horiz-adv-x="894" 
d="M117 0v207h241v903l-221 -53l-53 196l389 101h117v-1147h237v-207h-710z" />
    <glyph glyph-name="two.lin" horiz-adv-x="1196" 
d="M261 836q-67 0 -105 52t-39 131q0 79 41 148q53 93 170 149t272 56q199 0 335 -112t136 -273q0 -162 -106 -270q-82 -82 -215 -164q-289 -180 -390 -358h547v225h195v-420h-957q-4 0 -21 27t-34 53l-14 26q91 225 251 373q124 117 240 193q115 77 155 109t75 85t35 123
t-71 125t-179 55q-164 0 -232 -77q62 -42 62 -108t-42 -107t-109 -41z" />
    <glyph glyph-name="three.lin" horiz-adv-x="1163" 
d="M536 172q136 0 217 54t81 145q0 133 -140 186q-88 33 -221 33h-86v207h92q135 0 217 43q109 57 109 172q0 80 -72 122q-73 42 -185 42t-175 -46q27 -36 27 -86t-43 -92q-42 -42 -100 -41q-58 0 -101 46q-43 47 -43 113t47 132q127 170 409 170q203 0 339 -100t136 -263
t-157 -259q-51 -33 -119 -48q68 -20 121 -51q184 -103 184 -285q1 -182 -149 -286t-367 -105q-145 1 -266 53t-176 126t-55 142t40 115q40 46 102 46t103 -40q41 -39 41 -93t-27 -91q81 -61 217 -61z" />
    <glyph glyph-name="four.lin" horiz-adv-x="1200" 
d="M481 0v188h228v197h-619l-55 111l737 901l168 -133l-582 -697h351v217l231 93v-306h207v-190h-207v-186h156v-195h-615z" />
    <glyph glyph-name="five.lin" horiz-adv-x="1105" 
d="M524 176q135 0 211 74t76 183t-76 177q-77 68 -223 68t-256 -60l-104 58l61 672h741v-213h-553l-24 -275q102 20 180 21q203 0 341 -121t138 -322t-140 -332t-372 -131t-358 119q-72 70 -72 144t41 116t106 41q65 0 103 -41t39 -98q0 -20 -8 -53q55 -27 149 -27z" />
    <glyph glyph-name="six.lin" horiz-adv-x="1196" 
d="M629 174q115 0 191 72t77 174q0 102 -79 166t-200 63q-122 0 -200 -63q-78 -64 -78 -164t87 -174t202 -74zM658 848q200 0 337 -122t137 -307t-144 -315t-362 -129q-218 0 -372 154t-154 498q0 345 166 545t416 200q184 0 297 -84q92 -70 92 -156t-40 -122
q-39 -36 -103 -35q-64 0 -101 41t-36 94q0 16 4 45q-49 16 -113 16q-146 0 -250 -129t-106 -327q132 133 332 133z" />
    <glyph glyph-name="seven.lin" horiz-adv-x="1050" 
d="M276 1153v-258h-206v453h891l57 -127l-559 -1221h-250l547 1153h-480z" />
    <glyph glyph-name="eight.lin" horiz-adv-x="1183" 
d="M590 176q120 0 196 60t76 149q0 87 -77 151t-195 64t-195 -63q-76 -63 -76 -151t75 -150q75 -60 196 -60zM590 776q98 0 169 58t71 144q0 87 -68 141q-68 55 -172 55t-171 -54t-67 -142q0 -86 70 -144t168 -58zM590 -25q-236 0 -375 112t-139 278q0 113 66 203t194 126
q-111 39 -170 118t-60 177q0 164 136 274q136 109 348 109q211 0 349 -110t138 -273q0 -98 -61 -177t-172 -118q128 -35 196 -126t68 -203q0 -166 -141 -278t-377 -112z" />
    <glyph glyph-name="nine.lin" horiz-adv-x="1196" 
d="M580 698q122 0 200 64t78 162q0 100 -85 175t-202 75t-193 -72t-77 -174q0 -102 79 -166t200 -64zM127 215q0 86 40 122q39 36 103 36t101 -41t37 -94q0 -8 -7 -45q45 -16 115 -17q147 0 251 131q103 131 105 326q-59 -61 -147 -97t-178 -36q-207 0 -344 122t-137 307
t144 314t362 129t372 -154t154 -497q0 -344 -166 -545t-416 -201q-184 0 -297 84q-92 70 -92 156z" />
    <glyph glyph-name="bullet.alt" horiz-adv-x="1312" 
d="M654 -100q-258 0 -414 162t-156 394t159 396t415 164t413 -162q158 -162 158 -393t-159 -396t-416 -165z" />
    <glyph glyph-name="hyphen.lin" horiz-adv-x="765" 
d="M86 567v230h594v-230h-594z" />
    <glyph glyph-name="endash.lin" horiz-adv-x="1165" 
d="M45 578v208h1075v-208h-1075z" />
    <glyph glyph-name="emdash.lin" horiz-adv-x="1751" 
d="M45 578v208h1661v-208h-1661z" />
    <glyph glyph-name="parenleft.lin" horiz-adv-x="901" 
d="M145 657q0 161 45 307q78 253 273 450q155 157 325 243l107 -158q-159 -101 -254 -202t-141 -185q-110 -202 -109 -455q0 -459 362 -741q62 -49 142 -100l-107 -158q-171 85 -325 243q-90 91 -159 197t-114 252t-45 307z" />
    <glyph glyph-name="parenright.lin" horiz-adv-x="901" 
d="M510 657q0 135 -32 253q-80 294 -330 489q-62 49 -142 100l107 158q171 -85 325 -243q90 -91 159 -197q69 -107 114 -253t45 -306t-45 -307q-78 -253 -273 -450q-157 -159 -325 -243l-107 158q159 101 254 202t140 185q110 201 110 454z" />
    <glyph glyph-name="bracketleft.lin" horiz-adv-x="780" 
d="M186 -287v1909h533v-192h-332v-1522h332v-195h-533z" />
    <glyph glyph-name="bracketright.lin" horiz-adv-x="780" 
d="M61 -287v195h332v1522h-332v192h533v-1909h-533z" />
    <glyph glyph-name="braceleft.lin" horiz-adv-x="794" 
d="M150 12q0 92 43 159t124 136q47 43 68 72t21 75t-56 80q-56 36 -170 35h-59v189h59q113 0 169 35q57 35 57 81t-20 74t-86 86q-66 56 -108 122t-42 159q0 147 132 236t420 98v-170q-342 -20 -342 -166q0 -57 100 -157t138 -158q39 -60 39 -135t-67 -128t-181 -71
q115 -18 181 -72t67 -128q0 -75 -39 -134q-38 -58 -138 -158t-100 -158q0 -145 342 -166v-170q-288 8 -420 98t-132 236z" />
    <glyph glyph-name="braceright.lin" horiz-adv-x="794" 
d="M434 14q0 57 -100 157t-137 159q-39 59 -39 134t66 128q67 53 182 72q-115 18 -182 71q-66 53 -66 128t39 134t116 138q121 121 121 178q0 145 -342 166v170q289 -7 421 -97t132 -237q0 -92 -43 -159t-125 -136q-47 -43 -67 -72q-20 -28 -20 -74t55 -81q56 -35 169 -35
h60v-189h-60q-113 -1 -169 -35t-56 -80q1 -46 21 -76q20 -28 67 -71q82 -71 125 -137t43 -158q0 -146 -132 -236t-421 -98v170q342 20 342 166z" />
    <glyph glyph-name="registered.alt" horiz-adv-x="1269" 
d="M606 733h-51v-172h53q55 0 87 24t32 64q0 84 -121 84zM623 276h-222v84h62v373h-62v82h209q96 0 154 -41t59 -121q0 -104 -102 -147l84 -146h61v-84h-125l-108 205h-78v-121h68v-84zM612 78q186 0 318 134q131 134 131 327t-129 325q-130 132 -318 133q-188 0 -317 -133
q-129 -134 -129 -328t129 -326t315 -132zM613 -16q-230 0 -391 160t-161 392t161 394t392 162q230 0 392 -162t162 -392t-162 -393q-163 -161 -393 -161z" />
    <glyph glyph-name="copyright.lin" horiz-adv-x="1601" 
d="M808 909q-83 0 -146 -62q-64 -63 -64 -157t59 -158t163 -63q104 0 184 86l88 -90q-94 -127 -287 -127q-141 0 -246 97q-104 97 -104 247t107 253q108 101 241 101t210 -53t77 -117q0 -36 -27 -64t-62 -28t-59 25t-22 51q0 26 6 33q-35 26 -118 26zM801 76q249 0 411 174
t162 424t-163 424t-411 174t-410 -174q-163 -174 -163 -424t163 -424t411 -174zM801 -25q-287 0 -486 204t-198 495q1 290 199 494t485 204t485 -204t199 -494q-1 -290 -199 -495q-198 -204 -485 -204z" />
    <glyph glyph-name="published.lin" horiz-adv-x="1601" 
d="M836 659q54 0 88 34q32 34 32 85t-35 81q-36 30 -94 30h-61v-227q16 -3 70 -3zM819 551h-53v-98h80v-119h-285v119h72v436h-72v119h277q112 0 184 -62t72 -171q0 -110 -74 -167t-201 -57zM801 76q249 0 411 174t162 424t-163 424t-411 174t-410 -174q-163 -174 -163 -424
t163 -424t411 -174zM801 -25q-287 0 -486 204t-198 495q1 290 199 494t485 204t485 -204t199 -494q-1 -290 -199 -495q-198 -204 -485 -204z" />
    <glyph glyph-name="registered.lin" horiz-adv-x="1601" 
d="M737 707h74q55 1 88 27t33 73q0 100 -127 100h-68v-200zM737 600v-129h84v-119h-289v119h74v436h-74v119h265q123 0 197 -52t75 -155q0 -135 -117 -184l86 -164h74v-119h-164l-123 248h-88zM801 76q249 0 411 174t162 424t-163 424t-411 174t-410 -174
q-163 -174 -163 -424t163 -424t411 -174zM801 -25q-287 0 -486 204t-198 495q1 290 199 494t485 204t485 -204t199 -494q-1 -290 -199 -495q-198 -204 -485 -204z" />
    <glyph glyph-name="dollar.lin" horiz-adv-x="1230" 
d="M371 984q0 -68 47 -108t133 -67l31 346q-92 -10 -152 -57t-59 -114zM901 375q0 76 -53 117t-170 73l-33 -375q113 8 185 58t71 127zM82 301q0 72 44 117t105 45t101 -41t39 -89q0 -48 -19 -85q37 -29 142 -47l34 399q-176 49 -284 134t-107 242q0 157 123 259t330 111
l16 192l180 -14l-16 -189q156 -25 253 -97t97 -171q0 -70 -39 -111t-103 -41t-102 41q-40 40 -40 86t14 74q-37 20 -117 33l-33 -377q207 -53 320 -138t113 -255q1 -170 -135 -271t-357 -108l-18 -215l-181 14l19 213q-166 29 -273 109q-106 80 -106 180z" />
    <glyph glyph-name="sterling.lin" horiz-adv-x="1224" 
d="M47 98q0 168 268 140q68 70 68 219v18h-277v191h240l-12 34q-70 180 -70 258q0 176 130 294t304 118t290 -80q114 -80 114 -190q0 -60 -40 -110t-104 -50t-104 38q-39 38 -39 86t19 77q-39 39 -128 39t-155 -62t-66 -162t52 -233q2 -5 9 -25t11 -32h389v-191h-356v-12
q0 -158 -70 -219q94 0 204 -31t166 -31t91 28t80 105l145 -79q-45 -141 -117 -199q-73 -57 -187 -57t-244 45q-132 45 -271 47q-80 -96 -199 -97q-70 0 -106 33t-35 90z" />
    <glyph glyph-name="Euro.lin" horiz-adv-x="1466" 
d="M86 743v191h207q67 202 227 320t365 118t341 -116t136 -244q0 -76 -45 -127t-109 -51t-106 43q-43 43 -43 105t47 103q-68 72 -221 72q-266 0 -369 -233h418v-176h-459q-4 -53 -4 -94t4 -68h459v-176h-414q98 -217 344 -217q199 0 369 163l133 -149q-199 -229 -504 -230
q-198 0 -350 112t-219 310h-207v191h174q-4 49 -4 77t4 76h-174z" />
    <glyph glyph-name="yen.lin" horiz-adv-x="1320" 
d="M375 2v168h170v104h-326v168h326v121h-326v168h209l-276 426h-125v191h510v-191h-129l258 -442l256 442h-138v191h510v-191h-125l-278 -426h211v-168h-326v-121h326v-168h-326v-104h170v-168h-571z" />
    <glyph glyph-name="cent.lin" horiz-adv-x="1083" 
d="M309 732q0 -200 160 -275l49 540q-94 -21 -152 -93t-57 -172zM90 721q0 166 123 298t315 152l19 209l164 -14l-19 -201q139 -27 231 -108q91 -82 91 -161t-41 -118t-95 -39t-92 38q-36 38 -36 85t28 88q-47 39 -112 49l-54 -575h17q182 0 356 94l-16 -190
q-143 -82 -363 -82h-4l-27 -295l-163 14l28 301q-166 43 -258 166t-92 289z" />
    <glyph glyph-name="numbersign.lin" horiz-adv-x="1277" 
d="M537 803l-43 -283h245l43 283h-245zM123 793v204h225l53 351h230l-53 -351h225l53 351h229l-53 -351h201v-204h-234l-38 -263h194l-12 -204h-213l-49 -326h-230l49 326h-225l-49 -326h-229l49 326h-201v204h231l39 263h-192z" />
    <glyph glyph-name="paragraph.lin" horiz-adv-x="1533" 
d="M913 197h174v954h-174v-954zM479 0v207h209v239q-37 -2 -84 -2q-246 0 -391 119t-145 332t144 333t366 120h888v-207h-153v-934h153v-207h-987z" />
    <glyph glyph-name="section.lin" horiz-adv-x="1095" 
d="M786 655q0 43 -54 71t-146 48q-92 22 -135 37q-141 -51 -142 -121q0 -44 53 -70t121 -44t158 -41q145 49 145 120zM263 322q58 0 96 -36t38 -93q0 -14 -2 -29q45 -18 142 -19q170 0 170 93q0 63 -218 124q-6 2 -9 4t-8 2q-5 1 -9 3q-193 55 -291 115t-98 167
q0 160 192 232q-121 70 -121 207q0 106 111 193t289 87t286 -51q131 -61 132 -172q0 -51 -36 -88t-94 -37t-97 36q-38 36 -38 93v31q-49 16 -139 16q-170 0 -170 -92q0 -63 217 -125q18 -6 27 -8q193 -55 291 -115t98 -168q0 -162 -193 -231q121 -74 121 -207
q0 -106 -110 -194q-111 -87 -325 -87t-322 97q-59 54 -59 116t35 99q36 37 94 37z" />
    <glyph glyph-name="ordfeminine.lin" horiz-adv-x="729" 
d="M201 1083q0 -65 74 -65t141 47v84q-47 12 -111 12q-104 0 -104 -78zM80 680v123h547v-123h-547zM311 1475q236 0 236 -207v-228h80v-110h-209v59q-82 -69 -168 -69t-136 40t-50 112q0 73 58 117q60 44 152 44t142 -14v41q0 114 -127 112q-31 0 -56 -8q7 -12 7 -36
t-20 -43t-52 -19q-31 0 -50 20q-20 20 -20 63t56 85t157 41z" />
    <glyph glyph-name="ordmasculine.lin" horiz-adv-x="712" 
d="M356 1030q66 0 108 47t42 121t-42 121t-108 47t-108 -47t-41 -121q-1 -74 41 -121t108 -47zM643 1199q0 -115 -80 -197t-208 -82t-207 80q-78 80 -78 197q0 116 80 198t208 82t206 -81q79 -81 79 -197zM92 680v123h529v-123h-529z" />
    <glyph glyph-name="degree.lin" horiz-adv-x="630" 
d="M315 1057q57 0 99 41q41 41 41 98t-41 98q-40 41 -98 41t-99 -41t-41 -98t41 -98t98 -41zM315 918q-115 0 -197 82t-81 196q0 115 82 197q83 82 197 82t196 -82t82 -197q0 -114 -82 -196t-197 -82z" />
    <glyph glyph-name="percent.lin" horiz-adv-x="1361" 
d="M821 281q0 -81 51 -137t125 -56t124 56t50 136t-50 138q-50 57 -124 57t-125 -57t-51 -137zM692 281q0 127 89 217t216 90t216 -90t89 -217t-88 -216q-90 -89 -217 -89t-216 88q-89 90 -89 217zM248 -27l-84 60q36 49 448 627t502 716l86 -59q-20 -27 -447 -626
t-505 -718zM188 1067q0 -80 52 -137q52 -58 125 -58t123 58t51 137q-1 80 -51 136q-50 57 -124 57t-124 -56q-52 -56 -52 -137zM59 1067q0 127 89 216q88 89 216 89t216 -89t88 -216t-88 -217t-215 -90t-217 90q-89 90 -89 217z" />
    <glyph glyph-name="perthousand.lin" horiz-adv-x="2078" 
d="M1540 281q0 -81 50 -137t124 -56t125 56t51 136t-51 138q-51 57 -125 57t-124 -57t-50 -137zM1409 281q0 127 89 217t216 90t216 -90t89 -217t-89 -216t-216 -89t-216 88q-89 90 -89 217zM821 281q0 -81 51 -137t125 -56t124 56t50 136t-50 138q-50 57 -124 57t-125 -57
t-51 -137zM692 281q0 127 89 217t216 90t216 -90t89 -217t-88 -216q-90 -89 -217 -89t-216 88q-89 90 -89 217zM248 -27l-84 60q36 49 448 627t502 716l86 -59q-20 -27 -447 -626t-505 -718zM188 1067q0 -80 52 -137q52 -58 125 -58t123 58t51 137q-1 80 -51 136
q-50 57 -124 57t-124 -56q-52 -56 -52 -137zM59 1067q0 127 89 216q88 89 216 89t216 -89t88 -216t-88 -217t-215 -90t-217 90q-89 90 -89 217z" />
    <glyph glyph-name="quotedbl.lin" horiz-adv-x="868" 
d="M164 868l-88 414q-18 86 23 139q42 53 114 53t114 -52q42 -54 23 -140l-90 -414h-96zM604 868l-88 414q-18 86 24 139t114 53t113 -52q42 -54 24 -140l-91 -414h-96z" />
    <glyph glyph-name="quotesingle.lin" horiz-adv-x="428" 
d="M164 868l-88 414q-18 86 23 139q42 53 114 53t114 -52q42 -54 23 -140l-90 -414h-96z" />
    <glyph glyph-name="plus.lin" horiz-adv-x="950" 
d="M381 313v275h-275v188h275v275h188v-275h275v-188h-275v-275h-188z" />
    <glyph glyph-name="minus.lin" horiz-adv-x="950" 
d="M106 588v188h738v-188h-738z" />
    <glyph glyph-name="divide.lin" horiz-adv-x="950" 
d="M476 240q-54 0 -94 39t-40 94t41 94t95 39t94 -39t40 -94t-41 -94t-95 -39zM476 858q-54 0 -94 39t-40 94t41 94t95 39t94 -39t40 -94t-41 -94t-95 -39zM844 588h-738v188h738v-188z" />
    <glyph glyph-name="equal.lin" horiz-adv-x="950" 
d="M106 395v189h738v-189h-738zM106 780v189h738v-189h-738z" />
    <glyph glyph-name="multiply.lin" horiz-adv-x="950" 
d="M682 317l-207 228l-207 -228l-137 138l207 227l-207 227l137 138l207 -228l207 228l137 -138l-207 -227l207 -227z" />
    <glyph glyph-name="less.lin" horiz-adv-x="868" 
d="M633 242l-529 381v122l529 381l104 -139l-420 -303l420 -303z" />
    <glyph glyph-name="greater.lin" horiz-adv-x="868" 
d="M236 242l-105 139l420 303l-420 303l105 139l528 -381v-122z" />
    <glyph glyph-name="plusminus.lin" horiz-adv-x="950" 
d="M106 137v189h738v-189h-738zM381 494v274h-275v188h275v275h188v-275h275v-188h-275v-274h-188z" />
    <glyph glyph-name="zero.tab" 
d="M545 1155q-119 0 -176 -129t-57 -350t56 -352q58 -131 177 -131t176 131t57 352t-57 350t-176 129zM545 -25q-219 1 -346 189t-127 510t127 510t346 188t346 -188t127 -510t-127 -510q-127 -189 -346 -189z" />
    <glyph glyph-name="one.tab" 
d="M152 0v207h303v903l-283 -70l-53 197l450 117h117v-1147h299v-207h-833z" />
    <glyph glyph-name="two.tab" 
d="M801 195v221h194v-416h-858l-69 113q68 195 186 329t234 220q118 87 153 118t68 85t33 124t-59 125q-58 55 -153 55q-141 0 -198 -77q61 -38 61 -106t-41 -109q-40 -41 -108 -41t-107 52t-39 132t37 147q49 93 158 149t273 56t289 -112q124 -112 124 -274
q0 -163 -97 -269q-52 -55 -86 -84t-134 -101q-234 -169 -310 -337h449z" />
    <glyph glyph-name="three.tab" 
d="M518 -25q-137 1 -250 51t-170 132q-47 63 -47 135t41 118q40 46 102 46t103 -40q41 -39 41 -93t-29 -93q71 -59 191 -59t193 54t73 145q0 133 -129 186q-82 33 -203 33h-86v207h92q129 0 199 41q100 57 100 174q0 80 -63 122t-165 42t-161 -43q29 -35 29 -87t-42 -94
t-100 -41q-58 0 -102 46q-43 45 -43 113t43 132q119 170 391 170q195 0 324 -100t129 -263t-160 -259q-59 -35 -121 -48q68 -20 121 -51q185 -103 185 -285t-140 -286t-346 -105z" />
    <glyph glyph-name="four.tab" 
d="M424 0v182h207v195h-557l-56 110l652 910l168 -133l-504 -705h297v225l231 93v-314h187v-190h-187v-185h135v-188h-573z" />
    <glyph glyph-name="five.tab" 
d="M1022 438q0 -201 -138 -332t-368 -131t-356 119q-72 70 -72 144t41 116t105 41q64 0 104 -41q39 -41 39 -98q0 -20 -8 -53q53 -27 145 -27q135 0 209 74t74 183t-75 177q-74 68 -218 68t-254 -60l-105 58l62 672h733v-213h-545l-24 -275q102 20 176 21q203 0 339 -121
t136 -322z" />
    <glyph glyph-name="six.tab" 
d="M567 174q98 0 163 71t65 174t-66 168t-167 65t-167 -66q-65 -64 -65 -164t70 -174t167 -74zM616 1372q166 0 260 -76t93 -163t-41 -123t-104 -35q-64 0 -100 41t-36 84t6 63q-31 14 -86 15q-116 0 -200 -121t-95 -312l2 3q51 46 129 72t148 26q198 0 318 -119t120 -306
t-132 -317t-334 -129q-202 0 -339 152t-137 498q0 347 151 547t377 200z" />
    <glyph glyph-name="seven.tab" 
d="M289 1153v-258h-207v453h903l57 -127l-561 -1221h-250l549 1153h-491z" />
    <glyph glyph-name="eight.tab" 
d="M543 776q82 0 140 56t58 145q0 88 -56 142q-56 55 -142 55q-87 0 -143 -54t-56 -143t58 -145t141 -56zM543 1372q193 0 319 -110t125 -273q0 -98 -61 -177t-176 -118q132 -37 200 -127t68 -202q0 -166 -129 -278t-346 -112t-346 112t-129 278q0 113 68 203t200 126
q-115 39 -176 118t-62 177q0 163 126 273t319 110zM543 176q102 0 167 60t64 149q0 88 -64 152q-65 63 -167 63t-167 -63t-65 -151t65 -150q65 -60 167 -60z" />
    <glyph glyph-name="nine.tab" 
d="M518 1174q-98 0 -163 -71t-65 -174t66 -168t167 -65t167 65t66 165t-70 174t-168 74zM521 1372q202 0 339 -152t137 -497q-1 -346 -151 -547t-377 -201q-166 0 -259 76t-93 163t40 123q39 36 103 36t100 -41t37 -84q0 -43 -8 -66q37 -12 88 -12q117 0 201 121t92 309
q-51 -47 -129 -73t-147 -25q-197 0 -318 119t-121 306t132 316t334 129z" />
    <glyph glyph-name="period.tab" horiz-adv-x="542" 
d="M272 -16q-70 0 -118 49t-50 119q0 70 50 120t118 50q70 0 119 -50t49 -120t-49 -119t-119 -49z" />
    <glyph glyph-name="comma.tab" horiz-adv-x="542" 
d="M102 166q0 60 50 108t122 48t122 -54t50 -156q0 -104 -87 -232t-273 -234l-66 84q201 160 209 274q-57 16 -92 59t-35 103z" />
    <glyph glyph-name="colon.tab" horiz-adv-x="542" 
d="M272 524q-68 0 -116 48t-47 116q0 68 48 116q47 48 115 48t116 -48t48 -116t-48 -116t-116 -48zM272 -16q-68 0 -116 48t-47 116q0 68 48 115q47 48 115 48t116 -48t48 -116q0 -67 -48 -115t-116 -48z" />
    <glyph glyph-name="semicolon.tab" horiz-adv-x="542" 
d="M272 524q-68 0 -116 48t-47 116q0 68 48 116q47 48 115 48t116 -48t48 -116t-48 -116t-116 -48zM274 311q70 0 119 -51t49 -150q0 -98 -85 -224t-265 -230l-63 82q195 156 202 266q-55 16 -89 57t-34 101t48 104q48 45 118 45z" />
    <glyph glyph-name="twodotleader.tab" 
d="M815 -16q-70 0 -119 49t-49 119t49 120t119 50t119 -50t49 -120t-49 -119t-119 -49zM272 -16q-70 0 -118 49t-50 119q0 70 50 120t118 50q70 0 119 -50t49 -120t-49 -119t-119 -49z" />
    <glyph glyph-name="periodcentered.tab" horiz-adv-x="542" 
d="M272 369q-70 0 -118 49t-50 119q0 69 50 119t118 50q70 0 119 -50t49 -120t-49 -118q-49 -49 -119 -49z" />
    <glyph glyph-name="slash.tab" 
d="M205 -440l-178 90l858 1884l178 -90z" />
    <glyph glyph-name="bar.tab" horiz-adv-x="542" 
d="M176 -410v1909h193v-1909h-193z" />
    <glyph glyph-name="underscore.tab" 
d="M-16 -342v209h1118v-209h-1118z" />
    <glyph glyph-name="dollar.tab" 
d="M334 991q0 -115 143 -170l29 332q-74 -9 -123 -55t-49 -107zM791 369q1 75 -45 115t-142 73l-33 -367q94 8 157 56t63 123zM210 463q62 0 101 -41t39 -90t-18 -86q31 -29 88 -41l37 395q-340 109 -340 371q0 154 107 258q108 104 288 117l16 192l181 -14l-15 -189
q145 -25 234 -98q88 -74 86 -174q0 -70 -39 -111t-103 -41t-103 41q-40 42 -40 88t14 74q-27 20 -86 33l-32 -371q178 -53 281 -141q104 -88 104 -254t-122 -269t-321 -112l-20 -215l-180 14l20 215q-143 31 -234 110t-91 164t43 130t105 45z" />
    <glyph glyph-name="sterling.tab" 
d="M39 98q0 154 231 140q66 74 66 233v4h-238v191h201l-14 43q-61 172 -62 266q0 174 111 285t291 110q141 0 243 -80t103 -190q0 -60 -40 -110q-41 -50 -105 -50t-103 38t-39 86t18 77q-28 37 -100 37t-116 -54t-44 -143q0 -90 47 -250l17 -65h330v-191h-304
q0 -137 -63 -231h8q75 0 177 -31t144 -31t70 27t62 102l147 -71q-39 -140 -102 -200t-161 -60t-208 45q-112 45 -227 47q-80 -96 -199 -97q-70 0 -106 33t-35 90z" />
    <glyph glyph-name="Euro.tab" 
d="M725 1028q0 64 49 109q-59 43 -135 43q-188 0 -250 -273h252v-176h-274v-61q0 -49 2 -72h272v-184h-244q63 -231 250 -232q131 0 254 156l133 -133q-162 -233 -397 -234q-166 0 -288 116t-173 316h-133v191h104q-2 25 -2 76v57h-102v191h129q51 212 180 336t295 124
t274 -99t107 -220q0 -76 -45 -127t-109 -51t-106 42q-43 41 -43 105z" />
    <glyph glyph-name="yen.tab" 
d="M264 0v168h168v104h-282v164h282v105h-282v166h208l-260 450h-110v191h477v-185h-137l221 -411l221 411h-147v185h477v-191h-123l-250 -450h209v-166h-281v-105h281v-164h-281v-104h168v-168h-559z" />
    <glyph glyph-name="cent.tab" 
d="M311 732q0 -200 160 -275l49 540q-94 -21 -152 -93t-57 -172zM608 246h-4l-26 -295l-164 14l28 301q-166 43 -258 166t-92 289t123 298t315 152l19 209l164 -14l-19 -201q139 -27 231 -108q91 -82 91 -161t-41 -118t-94 -39t-91 38t-38 85t28 88q-47 39 -112 49l-54 -575
h17q182 0 356 94l-16 -190q-143 -82 -363 -82z" />
    <glyph glyph-name="numbersign.tab" 
d="M473 813l-43 -303h182l43 303h-182zM109 803v192h192l49 353h209l-49 -353h156l49 353h209l-50 -353h181v-192h-205l-39 -283h166l-12 -192h-181l-45 -328h-209l45 328h-155l-45 -328h-209l45 328h-180v192h207l38 283h-167z" />
    <glyph glyph-name="paragraph.tab" 
d="M641 197h94v954h-94v-954zM39 899q0 211 132 330t349 119h531v-207h-133v-934h133v-207h-748v207h166v237h-4q-176 0 -301 122t-125 333z" />
    <glyph glyph-name="section.tab" 
d="M778 655q0 45 -53 71t-145 50q-92 22 -131 35q-139 -51 -140 -121q0 -44 51 -70t119 -44t158 -41q141 49 141 120zM263 322q58 0 96 -36t38 -93q0 -14 -2 -29q45 -18 137 -19q166 0 166 93q0 44 -47 68t-117 44q-259 73 -359 134q-101 62 -101 169q0 160 190 232
q-119 70 -119 207q0 106 109 193t285 87t284 -51q131 -61 131 -172q0 -51 -36 -88t-94 -37t-96 36t-38 93v31q-49 16 -135 16q-166 0 -166 -92q0 -43 47 -68q46 -25 116 -44q258 -70 360 -134q101 -63 102 -170q0 -158 -191 -231q119 -72 119 -207q0 -106 -108 -193
q-109 -86 -322 -86t-319 95q-59 54 -59 116t35 99q36 37 94 37z" />
    <glyph glyph-name="degree.tab" 
d="M540 1372q-99 0 -162 -66q-62 -67 -62 -165t62 -165t162 -67t160 67q61 67 62 165q0 99 -62 165t-160 66zM539 772q-160 0 -261 108q-102 108 -102 262t102 260q102 108 261 108q160 0 261 -108t101 -262t-101 -260q-101 -108 -261 -108z" />
    <glyph glyph-name="percent.tab" 
d="M680 283q0 -85 33 -141t86 -56t86 55t33 141t-33 141q-33 54 -86 54t-86 -54t-33 -140zM555 283q0 133 69 219t175 86t175 -86q68 -86 68 -219t-68 -221q-69 -87 -175 -87q-106 -1 -175 87t-69 221zM45 1067q0 133 69 219t175 86t175 -86q68 -86 68 -219t-68 -220
t-175 -87q-106 0 -175 87t-69 220zM172 -25l-86 56l420 667l409 676l89 -55l-424 -672zM170 1067q0 -86 33 -141q33 -56 86 -56t86 56t33 141q0 86 -33 140q-33 55 -86 55t-86 -54t-33 -141z" />
    <glyph glyph-name="quotedbl.tab" 
d="M733 743l-90 527q-16 92 25 148q40 56 114 56t115 -56t25 -148l-93 -527h-96zM252 743l-90 527q-16 92 24 148q41 56 115 56t115 -56t24 -148l-92 -527h-96z" />
    <glyph glyph-name="quotesingle.tab" horiz-adv-x="542" 
d="M221 743l-90 527q-16 92 25 148q40 56 114 56t115 -56t25 -148l-93 -527h-96z" />
    <glyph glyph-name="plus.tab" 
d="M449 272v316h-316v188h316v316h188v-316h315v-188h-315v-316h-188z" />
    <glyph glyph-name="minus.tab" 
d="M133 588v188h819v-188h-819z" />
    <glyph glyph-name="divide.tab" 
d="M544 199q-54 0 -94 39t-40 94t41 94t95 39t94 -39t40 -94t-41 -94t-95 -39zM544 899q-54 0 -94 39t-40 94t41 94t95 39t94 -39t40 -94t-41 -94t-95 -39zM952 588h-819v188h819v-188z" />
    <glyph glyph-name="equal.tab" 
d="M133 375v188h819v-188h-819zM133 801v188h819v-188h-819z" />
    <glyph glyph-name="multiply.tab" 
d="M791 276l-248 269l-248 -269l-137 138l248 268l-248 268l137 137l248 -268l248 268l137 -137l-248 -268l248 -268z" />
    <glyph glyph-name="less.tab" 
d="M782 201l-610 436v94l610 436l105 -139l-484 -344l484 -344z" />
    <glyph glyph-name="greater.tab" 
d="M303 1167l610 -436v-94l-610 -436l-104 139l483 344l-483 344z" />
    <glyph glyph-name="plusminus.tab" 
d="M133 117v188h819v-188h-819zM449 473v315h-316v189h316v315h188v-315h315v-189h-315v-315h-188z" />
    <glyph glyph-name="zero.idx_P2D" horiz-adv-x="2252" 
d="M1125 307q101 0 163 90q62 89 62 229t-62 231t-162 91q-102 0 -163 -90t-61 -229t60 -231q62 -92 163 -91zM1546 628q0 -216 -124 -356t-297 -141q-173 0 -297 141q-124 140 -124 356t124 356t298 140t297 -140t123 -356zM1126 1493q-240 0 -434 -120
q-194 -121 -300 -321q-108 -200 -108 -438t108 -438t302 -320t432 -120q240 0 434 120t302 320t106 438q0 238 -107 439t-301 321t-434 119zM1126 1642q288 0 520 -140t360 -376t128 -512t-128 -512t-360 -376t-520 -140t-519 140q-232 140 -360 376t-128 512t128 512
t360 376t519 140z" />
    <glyph glyph-name="one.idx_P2D" horiz-adv-x="2252" 
d="M1434 152h-594v170h202v591l-190 -34l-35 161l320 70h96v-788h201v-170zM1126 1493q-240 0 -434 -120q-194 -121 -300 -321q-108 -200 -108 -438t108 -438t302 -320t432 -120q240 0 434 120t302 320t106 438q0 238 -107 439t-301 321t-434 119zM1126 1642q288 0 520 -140
t360 -376t128 -512t-128 -512t-360 -376t-520 -140t-519 140q-232 140 -360 376t-128 512t128 512t360 376t519 140z" />
    <glyph glyph-name="two.idx_P2D" horiz-adv-x="2252" 
d="M764 862q0 59 36 121q36 61 122 101t216 40t232 -81q100 -81 100 -209q0 -70 -40 -132t-79 -91q-40 -30 -104 -66q-201 -117 -278 -236h370v164h156v-321h-702l-60 86q47 106 126 197t131 130t120 84t93 63q24 18 48 53q25 34 25 79t-47 80q-47 34 -133 34t-142 -40
q41 -30 41 -82q-1 -52 -33 -84t-85 -33q-53 0 -83 42t-30 101zM1126 1493q-240 0 -434 -120q-194 -121 -300 -321q-108 -200 -108 -438t108 -438t302 -320t432 -120q240 0 434 120t302 320t106 438q0 238 -107 439t-301 321t-434 119zM1126 1642q288 0 520 -140t360 -376
t128 -512t-128 -512t-360 -376t-520 -140t-519 140q-232 140 -360 376t-128 512t128 512t360 376t519 140z" />
    <glyph glyph-name="three.idx_P2D" horiz-adv-x="2252" 
d="M1507 401q-1 -125 -111 -197t-270 -73q-211 0 -321 121q-51 56 -51 112t32 92q33 36 81 36t81 -32t33 -70t-14 -66q51 -35 142 -35t146 33t56 94q0 90 -94 127q-57 23 -152 22h-55v150h61q88 -1 154 33t65 116q0 51 -48 77t-123 26t-107 -23q10 -41 10 -55q0 -45 -33 -77
t-79 -32t-80 36t-34 89t40 101q94 119 299 118q151 0 251 -72t100 -187q0 -114 -100 -181q-43 -29 -88 -37q209 -79 209 -246zM1126 1493q-240 0 -434 -120q-194 -121 -300 -321q-108 -200 -108 -438t108 -438t302 -320t432 -120q240 0 434 120t302 320t106 438
q0 238 -107 439t-301 321t-434 119zM1126 1642q288 0 520 -140t360 -376t128 -512t-128 -512t-360 -376t-520 -140t-519 140q-232 140 -360 376t-128 512t128 512t360 376t519 140z" />
    <glyph glyph-name="four.idx_P2D" horiz-adv-x="2252" 
d="M989 152v147h166v125h-446l-47 88l532 633l137 -109l-411 -473h235v137l176 70v-201h146v-153h-146v-113h107v-151h-449zM1126 1493q-240 0 -434 -120q-194 -121 -300 -321q-108 -200 -108 -438t108 -438t302 -320t432 -120q240 0 434 120t302 320t106 438
q0 238 -107 439t-301 321t-434 119zM1126 1642q288 0 520 -140t360 -376t128 -512t-128 -512t-360 -376t-520 -140t-519 140q-232 140 -360 376t-128 512t128 512t360 376t519 140z" />
    <glyph glyph-name="five.idx_P2D" horiz-adv-x="2252" 
d="M1468 464q0 -142 -100 -238t-259 -95q-159 -1 -244 61t-85 140q0 51 32 84t83 33t82 -33t31 -78l-2 -35l88 -10q92 0 142 48t50 120q0 73 -51 115t-155 42t-175 -40l-84 51l41 477h547v-172h-393l-12 -160l116 10q144 0 246 -89t102 -231zM1126 1493q-240 0 -434 -120
q-194 -121 -300 -321q-108 -200 -108 -438t108 -438t302 -320t432 -120q240 0 434 120t302 320t106 438q0 238 -107 439t-301 321t-434 119zM1126 1642q288 0 520 -140t360 -376t128 -512t-128 -512t-360 -376t-520 -140t-519 140q-232 140 -360 376t-128 512t128 512
t360 376t519 140z" />
    <glyph glyph-name="six.idx_P2D" horiz-adv-x="2252" 
d="M920 454q0 -66 57 -114q57 -47 134 -47t128 46t51 112q0 65 -52 105t-134 40t-133 -38t-51 -104zM1442 940q0 -59 -31 -86t-81 -27t-79 32t-28 73v24q-35 6 -70 7q-98 0 -169 -80t-73 -201q98 76 235 76q136 0 236 -88t100 -220t-104 -226q-106 -94 -267 -93
q-161 0 -271 111t-111 353q0 241 119 385t303 144q121 0 199 -47q92 -53 92 -137zM1126 1493q-240 0 -434 -120q-194 -121 -300 -321q-108 -200 -108 -438t108 -438t302 -320t432 -120q240 0 434 120t302 320t106 438q0 238 -107 439t-301 321t-434 119zM1126 1642
q288 0 520 -140t360 -376t128 -512t-128 -512t-360 -376t-520 -140t-519 140q-232 140 -360 376t-128 512t128 512t360 376t519 140z" />
    <glyph glyph-name="seven.idx_P2D" horiz-adv-x="2252" 
d="M967 950v-196h-166v352h657l49 -111l-405 -843h-207l403 798h-331zM1126 1493q-240 0 -434 -120q-194 -121 -300 -321q-108 -200 -108 -438t108 -438t302 -320t432 -120q240 0 434 120t302 320t106 438q0 238 -107 439t-301 321t-434 119zM1126 1642q288 0 520 -140
t360 -376t128 -512t-128 -512t-360 -376t-520 -140t-519 140q-232 140 -360 376t-128 512t128 512t360 376t519 140z" />
    <glyph glyph-name="eight.idx_P2D" horiz-adv-x="2252" 
d="M1124 289q80 0 132 41t52 97t-50 99q-52 43 -134 43t-132 -43t-50 -99t51 -97t131 -41zM1124 700q63 0 112 39q48 39 48 97t-46 96q-46 37 -114 37t-112 -37t-45 -95q0 -57 47 -97t110 -40zM1124 131q-176 0 -277 81t-102 196q-1 78 51 144t150 89q-178 43 -178 205
q0 114 99 196t257 82t259 -82t102 -196q0 -70 -46 -126t-136 -79q100 -23 151 -89t51 -144q-1 -115 -103 -196t-278 -81zM1126 1493q-240 0 -434 -120q-194 -121 -300 -321q-108 -200 -108 -438t108 -438t302 -320t432 -120q240 0 434 120t302 320t106 438q0 238 -107 439
t-301 321t-434 119zM1126 1642q288 0 520 -140t360 -376t128 -512t-128 -512t-360 -376t-520 -140t-519 140q-232 140 -360 376t-128 512t128 512t360 376t519 140z" />
    <glyph glyph-name="nine.idx_P2D" horiz-adv-x="2252" 
d="M1335 806q0 64 -57 112q-57 47 -134 47t-128 -47t-51 -111t52 -104q52 -39 133 -39t133 39t52 103zM815 317q0 57 32 84t82 27t79 -32t28 -72v-27q20 -2 66 -2q98 0 167 83t72 202q-94 -76 -231 -76t-238 87q-100 87 -100 217t106 223t266 93t272 -112t112 -352
q0 -238 -122 -384t-297 -145q-175 0 -253 84q-41 45 -41 102zM1126 1493q-240 0 -434 -120q-194 -121 -300 -321q-108 -200 -108 -438t108 -438t302 -320t432 -120q240 0 434 120t302 320t106 438q0 238 -107 439t-301 321t-434 119zM1126 1642q288 0 520 -140t360 -376
t128 -512t-128 -512t-360 -376t-520 -140t-519 140q-232 140 -360 376t-128 512t128 512t360 376t519 140z" />
    <glyph glyph-name="space.tab" horiz-adv-x="542" 
 />
    <glyph glyph-name="NUL" horiz-adv-x="0" 
 />
    <glyph glyph-name="hfjslug" horiz-adv-x="1421" 
d="M872 580q-33 0 -32 34q0 12 9 24t23 11q14 0 24 -11t9 -24q0 -34 -33 -34zM997 612h-22v35h22q20 0 21 -16q-1 -19 -21 -19zM659 823q-33 0 -33 45t33 78l41 -80q-16 -43 -41 -43zM645 1056q0 30 29 29q27 -1 27 -35t-31 -69q-25 45 -25 75zM494 662l28 -97h17l22 70h2
l23 -70h16l29 97h-17l-20 -72h-2l-23 72h-14l-23 -72h-2l-20 72h-16zM270 662v-95h17v66l51 -66h14v95h-16v-66l-51 66h-15zM395 662v-95h70v15h-53v26h47v15h-47v24h53v15h-70zM750 567h16v35l37 60h-19l-26 -46l-27 46h-18l37 -60v-35zM872 565q20 1 34 15q33 33 1 68
q-15 16 -35 16t-34 -16t-14 -34q0 -20 14 -34t34 -15zM1034 631q0 31 -35 31h-41v-95h17v31h24l21 -31h18l-24 35q20 8 20 29zM1071 662v-95h16v25l17 16l31 -41h20l-41 54l37 41h-21l-40 -50h-3v50h-16zM729 1038q0 72 -55 72q-25 0 -41 -19q-17 -19 -17 -45t29 -79
q-47 -37 -47 -83q0 -91 59 -89q39 0 60 49h2l24 -49l25 12l-35 65q13 29 27 80l-27 6q-8 -37 -16 -61h-2l-33 64q47 43 47 77zM985 799q63 0 64 73v281h-33v-281q0 -45 -33 -45q-16 0 -41 11v-31q20 -8 43 -8zM377 1153v-352h31v162h96v-162h31v352h-31v-162h-96v162h-31z
M819 1153v-352h31v160h78v28h-78v135h88v29h-119zM1319 -410h-426l-16 29h-334l-17 -29h-424v621q29 0 48 19q18 19 18 46q0 26 -20 46t-46 20v1135h205l62 161h684l59 -161h207v-1887z" />
    <glyph glyph-name="A.sc" horiz-adv-x="1224" 
d="M608 903l-133 -389h268zM252 1075h721v-186h-142l250 -703h113v-186h-485v182h149l-55 156h-387l-54 -156h150v-182h-481v186h114l250 703h-143v186z" />
    <glyph glyph-name="B.sc" horiz-adv-x="1114" 
d="M621 0h-539v186h158v703h-158v186h522q197 0 297 -78t100 -204q0 -180 -182 -240q213 -61 213 -252q0 -139 -105 -220t-306 -81zM463 621h141q82 1 127 37t45 100t-46 100q-46 35 -130 35h-137v-272zM463 182h162q84 0 132 37t48 105t-48 104t-136 37h-158v-283z" />
    <glyph glyph-name="C.sc" horiz-adv-x="1173" 
d="M652 -27q-268 0 -424 162t-156 408q0 247 167 405t418 158q185 0 307 -87t121 -200q-1 -71 -39 -113t-103 -42t-105 36t-39 88q0 54 16 80q-66 39 -172 39q-150 0 -246 -101t-96 -265q0 -165 97 -265t241 -100q186 1 319 148l140 -150q-178 -201 -446 -201z" />
    <glyph glyph-name="D.sc" horiz-adv-x="1241" 
d="M530 0h-448v186h158v703h-158v186h469q289 0 454 -141t165 -390t-165 -397q-166 -147 -475 -147zM463 186h100q189 0 285 96t96 262q0 167 -103 256t-290 89h-88v-703z" />
    <glyph glyph-name="E.sc" horiz-adv-x="1073" 
d="M975 0h-893v186h158v703h-158v186h891v-375h-205v193h-305v-272h307v-175h-307v-264h307v185h205v-367z" />
    <glyph glyph-name="F.sc" horiz-adv-x="1028" 
d="M631 0h-549v186h158v703h-158v186h885v-375h-207v193h-297v-283h301v-174h-301v-250h168v-186z" />
    <glyph glyph-name="G.sc" horiz-adv-x="1214" 
d="M643 907q-150 0 -246 -101t-96 -263q0 -163 98 -269q99 -106 241 -106t224 61v160h-258v176h477v-565h-213v72q-125 -96 -280 -97q-211 0 -365 155q-153 155 -153 408q0 252 165 410t420 158q185 0 307 -87t121 -200q-1 -71 -39 -113t-103 -42t-105 36t-39 88q0 54 16 80
q-66 39 -172 39z" />
    <glyph glyph-name="H.sc" horiz-adv-x="1374" 
d="M82 0v186h158v703h-158v186h543v-186h-162v-264h448v264h-161v186h542v-186h-157v-703h157v-186h-542v186h161v256h-448v-256h162v-186h-543z" />
    <glyph glyph-name="I.sc" horiz-adv-x="714" 
d="M633 0h-551v186h164v703h-164v186h551v-186h-164v-703h164v-186z" />
    <glyph glyph-name="J.sc" horiz-adv-x="983" 
d="M407 176q73 0 113 43t41 158v512h-166v186h537v-186h-152v-514q0 -201 -99 -299t-259 -98t-265 83q-105 84 -106 205q0 72 41 116q40 44 100 44t100 -39t40 -92t-37 -90q39 -29 112 -29z" />
    <glyph glyph-name="K.sc" horiz-adv-x="1249" 
d="M1194 186v-186h-305l-291 449l-135 -125v-138h155v-186h-536v186h158v703h-158v186h514v-182h-133v-342l358 342h-129v182h494v-186h-111l-313 -299l270 -404h162z" />
    <glyph glyph-name="L.sc" horiz-adv-x="1017" 
d="M770 186v201h207v-387h-895v186h158v703h-158v186h547v-186h-166v-703h307z" />
    <glyph glyph-name="M.sc" horiz-adv-x="1544" 
d="M1444 1075v-186h-158l31 -703h158v-186h-535v186h152l-21 516l-280 -509h-41l-287 509l-21 -516h162v-186h-534v186h157l31 703h-158v186h373l307 -547l295 547h369z" />
    <glyph glyph-name="N.sc" horiz-adv-x="1349" 
d="M928 889h-154v186h524v-186h-157v-895h-154l-530 698v-506h143v-186h-518v186h158v703h-158v186h346l500 -647v461z" />
    <glyph glyph-name="O.sc" horiz-adv-x="1273" 
d="M637 176q145 0 242 99q96 99 96 263t-95 265q-96 100 -242 100t-242 -100t-95 -264q0 -164 95 -264q96 -99 241 -99zM637 1106q252 0 409 -162q156 -162 156 -404t-156 -404q-156 -163 -409 -163q-254 0 -410 163q-155 163 -155 405q0 241 156 403t409 162z" />
    <glyph glyph-name="P.sc" horiz-adv-x="1060" 
d="M588 528q76 0 132 52q54 52 54 132q0 81 -58 129t-149 48h-104v-357q49 -4 125 -4zM82 1075h491q183 0 305 -98t122 -269t-123 -267q-123 -95 -328 -95q-55 0 -86 2v-162h162v-186h-543v186h158v703h-158v186z" />
    <glyph glyph-name="Q.sc" horiz-adv-x="1273" 
d="M638 903q-146 0 -242 -100t-95 -260q0 -159 91 -263q90 -104 240 -104t247 99q96 99 96 263t-95 265q-96 100 -242 100zM1022 -246q-106 0 -164 30l-78 41q-20 11 -66 45t-55 40q-68 47 -137 65q-195 49 -309 177q-141 158 -141 394t156 398t409 162q252 0 409 -162
t156 -401q0 -185 -92 -327t-252 -204l23 -14q70 -45 132 -45t148 72l111 -162q-107 -109 -250 -109z" />
    <glyph glyph-name="Q.sc_alt" horiz-adv-x="1273" 
d="M637 176q49 0 84 8l-94 148l164 106l98 -153q86 102 86 260t-95 258q-96 100 -242 100t-242 -100t-95 -264q0 -164 95 -264q96 -99 241 -99zM637 -27q-254 0 -410 163q-155 163 -155 405q0 241 156 403t409 162q252 0 409 -162t156 -401q0 -283 -194 -443l112 -172
l-166 -106l-118 182q-98 -31 -199 -31z" />
    <glyph glyph-name="R.sc" horiz-adv-x="1163" 
d="M463 186h143v-186h-524v186h158v703h-158v186h514q198 0 318 -86t120 -252q0 -94 -51 -170t-135 -118l127 -263h147v-186h-313l-176 393q-39 -4 -90 -4t-80 2v-205zM582 889h-119v-309q55 -6 142 -6t145 43q57 44 57 117t-59 114q-60 41 -166 41z" />
    <glyph glyph-name="S.sc" horiz-adv-x="1034" 
d="M657 817q0 41 13 66q-56 35 -146 35t-137 -31t-47 -87q0 -74 112 -114q21 -8 30 -12t32 -11t67 -22t85 -30t104 -47q175 -89 173 -256q-1 -167 -117 -251t-302 -84t-314 82t-128 201q0 68 36 108t99 40t106 -40q42 -40 42 -86t-15 -75q61 -45 174 -45q201 0 201 127
q0 62 -71 96q-71 33 -160 61q-88 26 -140 48t-118 62q-121 75 -120 222t113 238q113 90 293 90t296 -75t116 -187q0 -66 -36 -104t-100 -38t-102 39q-39 39 -39 80z" />
    <glyph glyph-name="T.sc" horiz-adv-x="1136" 
d="M293 0v186h164v709h-195v-217h-205v397h1022v-397h-205v217h-194v-709h164v-186h-551z" />
    <glyph glyph-name="U.sc" horiz-adv-x="1277" 
d="M1075 432q1 -220 -117 -334t-321 -114t-319 112t-115 330v463h-152v186h527v-186h-152v-467q0 -118 57 -184t159 -66t158 62t56 182v473h-151v186h522v-186h-152v-457z" />
    <glyph glyph-name="V.sc" horiz-adv-x="1193" 
d="M20 889v186h500v-186h-143l227 -594l227 594h-143v186h486v-186h-121l-375 -903h-162l-375 903h-121z" />
    <glyph glyph-name="W.sc" horiz-adv-x="1669" 
d="M25 889v186h526v-186h-156l160 -549l233 606h109l233 -604l162 547h-162v186h515v-186h-134l-282 -903h-162l-233 592l-232 -592h-162l-282 903h-133z" />
    <glyph glyph-name="X.sc" horiz-adv-x="1239" 
d="M1198 186v-186h-518v182h141l-213 252l-202 -252h145v-182h-510v186h137l305 367l-290 336h-138v186h504v-182h-119l189 -227l180 227h-121v182h496v-186h-148l-280 -340l315 -363h127z" />
    <glyph glyph-name="Y.sc" horiz-adv-x="1112" 
d="M1100 1075v-186h-113l-319 -496v-207h163v-186h-550v186h163v207l-319 496h-113v186h488v-182h-140l201 -326l203 326h-148v182h484z" />
    <glyph glyph-name="Z.sc" 
d="M84 0v129l606 766h-389v-209h-188v389h884v-129l-604 -766h416v207h188v-387h-913z" />
    <glyph glyph-name="Aacute.sc" horiz-adv-x="1224" 
d="M608 903l-133 -389h268zM842 1638q52 0 83 -30q29 -30 29 -83q0 -54 -63 -104l-305 -221l-70 68l225 307q49 63 101 63zM252 1075h721v-186h-142l250 -703h113v-186h-485v182h149l-55 156h-387l-54 -156h150v-182h-481v186h114l250 703h-143v186z" />
    <glyph glyph-name="Abreve.sc" horiz-adv-x="1224" 
d="M608 903l-133 -389h268zM604 1229q-127 0 -228 88t-149 268l142 55q86 -210 234 -210t237 210l141 -55q-47 -180 -149 -268t-228 -88zM252 1075h721v-186h-142l250 -703h113v-186h-485v182h149l-55 156h-387l-54 -156h150v-182h-481v186h114l250 703h-143v186z" />
    <glyph glyph-name="Acircumflex.sc" horiz-adv-x="1224" 
d="M608 903l-133 -389h268zM340 1206l-94 109l362 360l363 -360l-94 -109l-269 197zM252 1075h721v-186h-142l250 -703h113v-186h-485v182h149l-55 156h-387l-54 -156h150v-182h-481v186h114l250 703h-143v186z" />
    <glyph glyph-name="Adieresis.sc" horiz-adv-x="1224" 
d="M608 903l-133 -389h268zM248 1376q0 60 45 104t105 44t104 -43t45 -105t-45 -104q-46 -43 -106 -43t-104 43t-44 104zM670 1376q0 60 45 104t105 44t104 -43t45 -105t-45 -104q-46 -43 -106 -43t-104 43t-44 104zM252 1075h721v-186h-142l250 -703h113v-186h-485v182h149
l-55 156h-387l-54 -156h150v-182h-481v186h114l250 703h-143v186z" />
    <glyph glyph-name="AE.sc" horiz-adv-x="1544" 
d="M711 512v377h-43l-187 -377h230zM561 0v182h150v156h-314l-75 -156h141v-182h-463v186h106l355 703h-135v186h1118v-375h-205v193h-305v-272h307v-175h-307v-264h307v185h205v-367h-885z" />
    <glyph glyph-name="AEacute.sc" horiz-adv-x="1544" 
d="M711 512v377h-43l-187 -377h230zM1066 1638q52 0 82 -30t30 -83q0 -54 -64 -104l-305 -221l-70 68l226 307q49 63 101 63zM561 0v182h150v156h-314l-75 -156h141v-182h-463v186h106l355 703h-135v186h1118v-375h-205v193h-305v-272h307v-175h-307v-264h307v185h205v-367
h-885z" />
    <glyph glyph-name="Agrave.sc" horiz-adv-x="1224" 
d="M608 903l-133 -389h268zM631 1200l-305 221q-64 49 -64 103t30 85q30 30 70 29q63 0 113 -63l225 -307zM252 1075h721v-186h-142l250 -703h113v-186h-485v182h149l-55 156h-387l-54 -156h150v-182h-481v186h114l250 703h-143v186z" />
    <glyph glyph-name="Amacron.sc" horiz-adv-x="1224" 
d="M608 903l-133 -389h268zM266 1268v182h684v-182h-684zM252 1075h721v-186h-142l250 -703h113v-186h-485v182h149l-55 156h-387l-54 -156h150v-182h-481v186h114l250 703h-143v186z" />
    <glyph glyph-name="Aogonek.sc" horiz-adv-x="1224" 
d="M608 903l-133 -389h268zM993 -412q-115 0 -176 58t-61 164q0 104 102 190h-149v182h149l-55 156h-387l-54 -156h150v-182h-481v186h114l250 703h-143v186h721v-186h-142l250 -703h113v-186h-154q-98 -63 -98 -145q0 -94 107 -95q78 0 143 35l-10 -162q-74 -45 -189 -45z
" />
    </font>
</defs>
</svg>
