<?xml version="1.0" standalone="no"?>
<!DOCTYPE svg PUBLIC "-//W3C//DTD SVG 1.1//EN" "http://www.w3.org/Graphics/SVG/1.1/DTD/svg11.dtd" >
<svg xmlns="http://www.w3.org/2000/svg">
<metadata>
Created by FontPrep 20130207 at Sun Apr  5 22:22:24 2015
 By Tina Kumar
Copyright (C) 2000, 2007 Hoefler &#38; Frere-Jones. http://www.typography.com
</metadata>
<defs>
<font id="368c448aed7b83d062f2317ccb8a6b29" horiz-adv-x='1024' >
  <font-face 
    font-family="Archer-BoldItalic"
    font-weight="400"
    font-style="italic"
    font-stretch="normal"
    units-per-em="2048"
    panose-1="0 0 0 0 0 0 0 0 0 0"
    ascent="1638"
    descent="-410"
    x-height="897"
    cap-height="1348"
    bbox="-217 -623 2288 2302"
    underline-thickness="102"
    underline-position="-102"
    slope="-13"
    unicode-range="U+0020-FB04"
  />
<missing-glyph horiz-adv-x="1024" 
d="M512 492l-367 -799h734zM922 1384l-353 -770l353 -770v1540zM102 -156l353 770l-353 770v-1540zM145 1536l367 -799l367 799h-734zM0 -410v2048h1024v-2048h-1024z" />
    <glyph glyph-name="f_f" unicode="ff" horiz-adv-x="1282" 
d="M756 1200q-80 0 -113 64q-64 -32 -115 -242l-28 -125h374l48 203q93 414 428 416q94 0 150 -44t56 -107q0 -62 -40 -100t-92 -38q-52 -1 -87 27t-43 67q-107 -23 -155 -240l-43 -184h237l-49 -188h-231l-162 -709h-221l161 709h-374l-162 -709h-221l162 709h-158l49 188
h152l36 162q49 213 151 314t239 102q84 0 132 -41q48 -42 48 -100t-38 -96t-91 -38z" />
    <glyph glyph-name="fi" unicode="fi" horiz-adv-x="1222" 
d="M776 1516q112 0 178 -52t66 -118t-38 -104t-92 -38t-90 34t-40 83h-10q-53 0 -101 -37q-74 -61 -110 -221l-39 -166h585l-153 -610q-14 -55 -14 -94q0 -57 49 -58q68 0 120 148l91 -35q-43 -148 -114 -206t-170 -58t-151 53q-51 53 -51 147q0 47 13 101l104 424h-352
l-162 -709h-221l162 709h-158l49 188h152l47 207q44 182 164 297t286 115z" />
    <glyph glyph-name="fl" unicode="fl" horiz-adv-x="1226" 
d="M799 1188q0 59 45 100q-43 37 -96 37q-86 0 -138 -63q-35 -41 -51 -113l-59 -252h342l37 164q-80 35 -80 127zM762 1516q147 0 242 -101l57 84h147l-280 -1212q-14 -66 -15 -88q0 -63 48 -64q68 0 120 148l90 -35q-43 -147 -113 -206q-71 -58 -170 -58t-150 53
q-50 53 -50 149q0 47 12 99l99 424h-342l-162 -709h-221l162 709h-158l49 188h152l67 287q25 106 86 182q119 150 330 150z" />
    <glyph glyph-name="f_f_i" unicode="ffi" horiz-adv-x="1818" 
d="M750 1475q84 0 132 -41q48 -42 48 -100t-38 -96t-91 -38q-84 0 -119 80q-101 -25 -133 -168l-49 -215h374l48 207q44 182 164 297t286 115q112 0 178 -52t66 -118t-38 -104t-92 -38t-90 34t-40 83h-10q-153 0 -211 -258l-39 -166h585l-153 -610q-14 -55 -15 -94
q0 -57 50 -58q68 0 120 148l91 -35q-43 -148 -114 -206t-170 -58t-151 53q-51 53 -51 147q0 47 12 101l105 424h-352l-162 -709h-221l161 709h-374l-162 -709h-221l159 709h-155l49 188h149l54 229q25 115 88 197q119 152 332 152z" />
    <glyph glyph-name="f_f_l" unicode="ffl" horiz-adv-x="1822" 
d="M1395 1188q0 59 45 100q-43 37 -97 37q-86 0 -137 -63q-35 -41 -51 -113l-59 -252h342l37 164q-80 35 -80 127zM750 1475q84 0 132 -41q48 -42 48 -100t-38 -96t-91 -38q-84 0 -119 80q-101 -25 -133 -168l-49 -215h374l68 287q25 106 86 182q119 150 330 150
q147 0 241 -101l58 84h147l-280 -1212q-14 -66 -15 -88q0 -63 47 -64q68 0 121 148l90 -35q-43 -147 -113 -206q-71 -58 -170 -58t-150 53q-50 53 -50 149q0 47 12 99l99 424h-342l-162 -709h-221l161 709h-374l-162 -709h-221l159 709h-155l49 188h149l54 229
q25 115 88 197q119 152 332 152z" />
    <glyph glyph-name="f_b" unicode="fb" horiz-adv-x="1708" 
d="M799 1188q0 59 45 100q-43 37 -96 37q-86 0 -138 -63q-35 -41 -51 -113l-59 -252h342l37 164q-80 35 -80 127zM938 371q0 -189 194 -189q102 0 186 104q83 104 83 244q0 84 -45 138t-127 55q-117 -1 -204 -105t-87 -247zM762 1516q147 0 242 -101l57 84h141l-176 -762
q53 76 132 126t157 50q159 0 239 -95t80 -257q0 -237 -138 -407t-339 -170q-88 0 -161 55t-93 135l-57 -174h-209l162 709h-342l-162 -709h-221l162 709h-158l49 188h152l67 287q25 106 86 182q119 150 330 150z" />
    <glyph glyph-name="f_h" unicode="fh" horiz-adv-x="1722" 
d="M799 1188q0 59 45 100q-43 37 -96 37q-86 0 -138 -63q-35 -41 -51 -113l-59 -252h342l37 164q-80 35 -80 127zM762 1516q147 0 242 -101l57 84h139l-176 -766q49 76 123 128q73 52 163 52q90 -1 159 -71t69 -197q0 -74 -22 -149l-66 -236q-10 -41 -10 -63q0 -61 47 -62
q61 0 115 148l90 -35q-76 -264 -271 -264q-102 0 -155 54q-54 54 -54 126t15 121l67 241q10 33 10 82t-32 83q-33 34 -90 34q-150 0 -197 -205l-121 -520h-229l164 709h-342l-162 -709h-221l162 709h-158l49 188h152l67 287q25 106 86 182q119 150 330 150z" />
    <glyph glyph-name="f_j" unicode="fj" horiz-adv-x="1136" 
d="M483 -401q-86 0 -136 42t-50 98t36 92t80 36q88 0 122 -70q39 6 73 89t82 300l119 523h-352l-162 -709h-221l162 709h-158l49 188h152l47 207q44 182 164 297t286 115q112 0 178 -52t66 -118t-38 -104t-92 -38t-90 34t-40 83h-10q-53 0 -101 -37q-74 -61 -110 -221
l-39 -166h577l-166 -721q-86 -369 -202 -485q-96 -92 -226 -92z" />
    <glyph glyph-name="f_k" unicode="fk" horiz-adv-x="1640" 
d="M799 1188q0 59 45 100q-43 37 -96 37q-86 0 -138 -63q-35 -41 -51 -113l-59 -252h342l37 164q-80 35 -80 127zM762 1516q147 0 242 -101l57 84h139l-233 -1014q307 92 370 191q-61 43 -61 101t40 97t96 39t97 -43t41 -110q0 -213 -327 -363l82 -178q37 -82 71 -84
q43 0 92 168l91 -29q-37 -168 -97 -229t-139 -61q-141 0 -203 147l-94 217l-86 -26l-76 -322h-229l164 709h-342l-162 -709h-221l162 709h-158l49 188h152l67 287q25 106 86 182q119 150 330 150z" />
    <glyph glyph-name="f_f_b" unicode="ffb" horiz-adv-x="2304" 
d="M1395 1188q0 59 45 100q-43 37 -97 37q-86 0 -137 -63q-35 -41 -51 -113l-59 -252h342l37 164q-80 35 -80 127zM1534 371q0 -189 194 -189q102 0 186 104q83 104 83 244q0 84 -45 138t-127 55q-117 -1 -204 -105t-87 -247zM750 1475q84 0 132 -41q48 -42 48 -100t-38 -96
t-91 -38q-84 0 -119 80q-101 -25 -133 -168l-49 -215h374l68 287q25 106 86 182q119 150 330 150q147 0 241 -101l58 84h141l-176 -762q53 76 132 126t157 50q159 0 239 -95t80 -257q0 -237 -138 -407t-339 -170q-88 0 -161 55t-93 135l-57 -174h-209l162 709h-342
l-162 -709h-221l161 709h-374l-162 -709h-221l159 709h-155l49 188h149l54 229q25 115 88 197q119 152 332 152z" />
    <glyph glyph-name="f_f_h" unicode="ffh" horiz-adv-x="2318" 
d="M1395 1188q0 59 45 100q-43 37 -97 37q-86 0 -137 -63q-35 -41 -51 -113l-59 -252h342l37 164q-80 35 -80 127zM750 1475q84 0 132 -41q48 -42 48 -100t-38 -96t-91 -38q-84 0 -119 80q-101 -25 -133 -168l-49 -215h374l68 287q25 106 86 182q119 150 330 150
q147 0 241 -101l58 84h139l-176 -766q49 76 123 128q73 52 163 52q90 -1 159 -71t69 -197q0 -74 -23 -149l-65 -236q-10 -41 -10 -63q0 -61 47 -62q61 0 115 148l90 -35q-76 -264 -271 -264q-102 0 -155 54q-54 54 -54 126t15 121l67 241q10 33 10 82t-32 83q-33 34 -90 34
q-150 0 -197 -205l-121 -520h-229l164 709h-342l-162 -709h-221l161 709h-374l-162 -709h-221l159 709h-155l49 188h149l54 229q25 115 88 197q119 152 332 152z" />
    <glyph glyph-name="f_f_j" unicode="ffj" horiz-adv-x="1732" 
d="M750 1475q84 0 132 -41q48 -42 48 -100t-38 -96t-91 -38q-84 0 -119 80q-101 -25 -133 -168l-49 -215h374l48 207q44 182 164 297t286 115q112 0 178 -52t66 -118t-38 -104t-92 -38t-90 34t-40 83h-10q-153 0 -211 -258l-39 -166h577l-166 -721q-86 -369 -202 -485
q-96 -92 -226 -92q-86 0 -136 42t-50 98t37 92t80 36q88 0 120 -70q39 6 68 74q39 98 88 315l119 523h-352l-162 -709h-221l161 709h-374l-162 -709h-221l159 709h-155l49 188h149l54 229q25 115 88 197q119 152 332 152z" />
    <glyph glyph-name="f_f_k" unicode="ffk" horiz-adv-x="2236" 
d="M1395 1188q0 59 45 100q-43 37 -97 37q-86 0 -137 -63q-35 -41 -51 -113l-59 -252h342l37 164q-80 35 -80 127zM750 1475q84 0 132 -41q48 -42 48 -100t-38 -96t-91 -38q-84 0 -119 80q-101 -25 -133 -168l-49 -215h374l68 287q25 106 86 182q119 150 330 150
q147 0 241 -101l58 84h139l-233 -1014q307 92 370 191q-61 43 -61 101t40 97t96 39t97 -43t41 -110q0 -213 -327 -363l82 -178q37 -82 71 -84q43 0 92 168l90 -29q-37 -168 -97 -229t-138 -61q-141 0 -203 147l-94 217l-86 -26l-76 -322h-229l164 709h-342l-162 -709h-221
l161 709h-374l-162 -709h-221l159 709h-155l49 188h149l54 229q25 115 88 197q119 152 332 152z" />
    <glyph glyph-name=".notdef" horiz-adv-x="1024" 
d="M512 492l-367 -799h734zM922 1384l-353 -770l353 -770v1540zM102 -156l353 770l-353 770v-1540zM145 1536l367 -799l367 799h-734zM0 -410v2048h1024v-2048h-1024z" />
    <glyph glyph-name=".null" horiz-adv-x="0" 
 />
    <glyph glyph-name="nonmarkingreturn" horiz-adv-x="681" 
 />
    <glyph glyph-name="space" unicode=" " horiz-adv-x="423" 
 />
    <glyph glyph-name="exclam" unicode="!" horiz-adv-x="548" 
d="M236 -16q-63 0 -108 44q-44 44 -44 107t44 109t108 45q64 0 107 -45q44 -44 44 -108t-44 -108t-107 -44zM225 408l123 938h283l-291 -938h-115z" />
    <glyph glyph-name="quotedbl" unicode="&#x22;" horiz-adv-x="894" 
d="M386 1372q58 0 100 -42t42 -87t-16 -78l-190 -399h-97l19 465q4 59 44 100t98 41zM824 1372q58 0 100 -42t43 -87q0 -45 -17 -78l-190 -399h-96l18 465q4 59 44 100t98 41z" />
    <glyph glyph-name="numbersign" unicode="#" horiz-adv-x="1247" 
d="M559 672l-70 -246h236l68 246h-234zM182 662l41 180h189l65 233h205l-66 -233h213l66 233h205l-66 -233h178l-41 -180h-186l-63 -226h184l-41 -180h-193l-71 -256h-205l72 256h-215l-70 -256h-205l72 256h-174l41 180h182l63 226h-180z" />
    <glyph glyph-name="dollar" unicode="$" horiz-adv-x="1089" 
d="M444 793q0 -63 117 -123l78 239q-195 -5 -195 -116zM745 291q0 66 -124 123l-82 -248q206 4 206 125zM59 288q0 72 35 113t88 41t88 -36t35 -85q0 -50 -29 -75q31 -39 127 -66l91 283q-213 84 -264 191q-24 50 -23 114q0 121 122 214t318 93q25 0 37 -2l45 139l152 -43
l-41 -125q106 -34 171 -100t65 -136t-36 -108q-35 -38 -89 -38t-89 34t-35 82q0 47 29 82q-23 23 -80 35l-92 -281q222 -98 274 -197q25 -46 25 -102q0 -137 -113 -226t-321 -89q-37 0 -53 2l-72 -221l-152 43l68 209q-123 39 -202 111t-79 144z" />
    <glyph glyph-name="percent" unicode="%" horiz-adv-x="1400" 
d="M1022 -16q-116 0 -186 68t-70 180q0 114 84 201t200 87t185 -68q70 -68 70 -180q0 -114 -84 -201q-83 -87 -199 -87zM372 555q-116 0 -186 68q-70 67 -70 181t85 201q83 87 199 87t186 -68t70 -182t-85 -200q-83 -87 -199 -87zM373 686q49 0 89 49t40 105t-27 89
q-27 32 -76 32q-49 1 -89 -49t-40 -106t27 -88t76 -32zM72 96q653 493 1251 1018l78 -92q-336 -254 -561 -438t-690 -580zM1151 269q0 56 -27 88q-28 32 -76 32t-88 -49q-40 -50 -40 -106q1 -120 102 -119q49 0 89 49t40 105z" />
    <glyph glyph-name="ampersand" unicode="&#x26;" horiz-adv-x="1359" 
d="M692 1155q-68 0 -116 -58q-48 -59 -48 -119t10 -96t48 -94q123 54 184 108t61 138q0 45 -35 83q-36 38 -104 38zM449 166q129 0 274 160l-133 155q-43 47 -88 105q-225 -104 -226 -252q0 -82 46 -125t127 -43zM43 313q0 270 354 414q-86 131 -86 262t118 235t277 105
q160 0 252 -89t93 -206q0 -238 -357 -383q8 -10 26 -30t28 -31l106 -125q106 135 185 191t160 56t129 -44t48 -102t-40 -98t-100 -40t-101 53q-29 -8 -146 -157l197 -218l-146 -135l-186 213q-197 -213 -428 -213q-178 0 -281 92q-102 92 -102 250z" />
    <glyph glyph-name="quotesingle" unicode="'" horiz-adv-x="456" 
d="M386 1372q58 0 100 -42t42 -87t-16 -78l-190 -399h-97l19 465q4 59 44 100t98 41z" />
    <glyph glyph-name="parenleft" unicode="(" horiz-adv-x="860" 
d="M129 412q0 397 226 687t603 433l76 -164q-674 -299 -674 -962q0 -401 373 -734l-125 -137q-172 126 -313 333q-166 240 -166 544z" />
    <glyph glyph-name="parenright" unicode=")" horiz-adv-x="921" 
d="M846 655q0 -397 -226 -687t-604 -433l-75 164q674 299 673 963q0 401 -372 733l125 137q168 -123 323 -348q156 -225 156 -529z" />
    <glyph glyph-name="asterisk" unicode="*" horiz-adv-x="942" 
d="M567 1298q0 132 104 132q56 0 83 -46t-17 -133l-114 -194l213 69q91 26 133 -17q27 -28 27 -77t-42 -73q-41 -24 -110 -9l-221 47l133 -180q32 -45 32 -91t-29 -71q-30 -24 -66 -24q-37 0 -67 34t-36 89l-21 215l-125 -176q-47 -66 -100 -66t-77 29t-23 67q0 66 88 107
l207 90l-217 70q-100 33 -101 102q0 39 29 71q30 31 74 31t94 -55l149 -168v227z" />
    <glyph glyph-name="plus" unicode="+" horiz-adv-x="950" 
d="M696 948l-63 -274h274l-45 -189h-274l-64 -274h-188l63 274h-274l45 189h274l64 274h188z" />
    <glyph glyph-name="comma" unicode="," horiz-adv-x="524" 
d="M61 152q-1 70 49 120t120 50t121 -52q50 -52 50 -135q0 -123 -134 -256t-339 -211l-49 94q141 80 208 147t73 103q-47 23 -73 65t-26 75z" />
    <glyph glyph-name="hyphen" unicode="-" horiz-adv-x="819" 
d="M121 465l53 229h594l-53 -229h-594z" />
    <glyph glyph-name="period" unicode="." horiz-adv-x="524" 
d="M229 -16q-71 0 -119 49t-49 119t49 120t120 50t118 -50q49 -50 49 -120t-49 -119t-119 -49z" />
    <glyph glyph-name="slash" unicode="/" horiz-adv-x="874" 
d="M-12 -434l-166 96l1089 1864l166 -96z" />
    <glyph glyph-name="zero" unicode="0" horiz-adv-x="1216" 
d="M596 172q143 0 242 129q98 129 98 283t-69 237q-69 84 -181 84q-144 0 -242 -129q-98 -128 -98 -282t68 -238t182 -84zM1169 590q-1 -226 -167 -415t-400 -189t-361 138q-128 138 -128 364t167 414q167 190 400 190t361 -138t128 -364z" />
    <glyph glyph-name="one" unicode="1" horiz-adv-x="886" 
d="M29 2l41 184h241l156 672l-221 -51l-8 186l389 97l106 -50l-198 -854h245l-41 -184h-710z" />
    <glyph glyph-name="two" unicode="2" horiz-adv-x="1134" 
d="M848 776q0 125 -216 125q-104 0 -165 -45q23 -35 23 -83t-38 -86t-94 -38t-98 40q-41 40 -41 102q0 113 126 205q125 92 317 94q192 0 308 -84t116 -218t-149 -234q-75 -50 -139 -81t-186 -81t-201 -99t-130 -115h510l40 172h187l-82 -350h-891l-29 123q135 260 516 420
q168 70 242 119t74 114z" />
    <glyph glyph-name="three" unicode="3" horiz-adv-x="1048" 
d="M436 -260q-209 0 -338 102t-129 230q0 72 38 114t93 43q55 0 93 -36q37 -37 37 -93t-42 -90q14 -26 81 -56t173 -30t174 66q70 66 70 156t-74 148q-74 60 -204 60h-60l43 176h51q154 0 254 58t101 162q1 74 -59 114t-168 41q-108 0 -154 -33q22 -34 22 -80t-37 -83
t-90 -37t-93 35t-40 104q0 113 117 197t305 84t308 -94t120 -240q0 -117 -88 -208t-270 -118q242 -96 241 -303q0 -165 -133 -277t-342 -112z" />
    <glyph glyph-name="four" unicode="4" horiz-adv-x="1202" 
d="M985 596l-74 -317h201l-41 -185h-203l-77 -340h-218l78 340h-598l-26 111l897 909l141 -129l-698 -706h327l54 231z" />
    <glyph glyph-name="five" unicode="5" horiz-adv-x="1054" 
d="M414 -258q-186 0 -304 79t-118 187q0 70 42 112t98 42t96 -40t40 -86t-12 -67q47 -33 179 -33t218 80t86 180t-65 159q-66 59 -176 59t-207 -47l-144 86l211 622h705l-47 -213h-539l-100 -305q98 43 192 43q170 0 280 -101q109 -101 109 -283t-152 -328t-392 -146z" />
    <glyph glyph-name="six" unicode="6" horiz-adv-x="1142" 
d="M330 398q0 -106 58 -165q58 -61 171 -61t199 87t86 193t-58 161t-172 55q-112 0 -198 -82t-86 -188zM801 1327q152 -1 250 -65t98 -158q0 -62 -39 -102t-93 -40t-93 40q-39 38 -39 92q0 20 6 36q-33 18 -96 19q-242 0 -382 -260q-54 -100 -79 -203q51 68 144 117t198 49
q174 0 286 -103t111 -268q0 -209 -145 -353t-356 -144t-336 129q-57 59 -91 154q-33 95 -32 194q-1 201 75 403t236 332q160 131 377 131z" />
    <glyph glyph-name="seven" unicode="7" horiz-adv-x="1077" 
d="M276 -252l-176 125l742 1020h-471l-54 -229h-196l94 411h881l47 -100z" />
    <glyph glyph-name="eight" unicode="8" horiz-adv-x="1148" 
d="M586 170q114 0 188 63t74 155t-72 150q-72 56 -182 56t-186 -68q-78 -68 -78 -156t71 -144t185 -56zM681 758q97 0 166 58t69 137t-62 132q-60 53 -158 53t-167 -58t-69 -137t62 -132t159 -53zM578 -16q-216 0 -340 108t-125 243q0 271 303 359q-86 47 -129 119t-43 143
q0 158 132 264t326 105q194 0 316 -103q123 -103 123 -251q0 -113 -75 -197t-198 -117q96 -47 148 -127t53 -159q0 -162 -137 -275q-138 -112 -354 -112z" />
    <glyph glyph-name="nine" unicode="9" horiz-adv-x="1142" 
d="M348 622q0 -214 230 -214q112 0 198 82t86 186t-59 166t-171 62t-198 -88t-86 -194zM387 -262q-152 0 -250 64t-98 159q0 61 39 101t93 40t93 -39t39 -92q0 -20 -6 -37q47 -18 106 -18q131 0 254 111q63 57 120 158q56 101 81 204q-49 -68 -142 -117t-200 -49
q-174 -1 -286 103t-111 268q0 209 145 353q144 145 356 145t336 -129q56 -59 90 -155t33 -194q-1 -195 -69 -383t-195 -315q-178 -178 -428 -178z" />
    <glyph glyph-name="colon" unicode=":" horiz-adv-x="598" 
d="M266 -16q-68 0 -116 48t-48 116t48 115q48 48 116 48t116 -48t48 -116q0 -67 -48 -115t-116 -48zM389 524q-68 0 -116 48t-48 116t48 116t116 48t116 -48t48 -116t-48 -116t-116 -48z" />
    <glyph glyph-name="semicolon" unicode=";" horiz-adv-x="598" 
d="M102 147q0 70 48 117t116 47t117 -50t49 -130q0 -119 -130 -249t-329 -204l-49 93q137 78 202 141t71 100q-45 20 -70 62t-25 73zM389 524q-68 0 -116 48t-48 116t48 116t116 48t116 -48t48 -116t-48 -116t-116 -48z" />
    <glyph glyph-name="less" unicode="&#x3c;" horiz-adv-x="995" 
d="M571 139l-440 381l29 123l616 381l92 -141l-518 -320l338 -293z" />
    <glyph glyph-name="equal" unicode="=" horiz-adv-x="950" 
d="M111 293l43 192h700l-43 -192h-700zM199 674l43 192h700l-43 -192h-700z" />
    <glyph glyph-name="greater" unicode="&#x3e;" horiz-adv-x="882" 
d="M180 139l-92 142l518 319l-338 293l117 131l440 -381l-28 -123z" />
    <glyph glyph-name="question" unicode="?" horiz-adv-x="978" 
d="M317 -16q-63 0 -107 44t-44 107t44 109t107 45q63 0 107 -45q44 -44 45 -108q-1 -64 -45 -108t-107 -44zM797 999q-1 80 -57 127q-56 48 -166 48t-142 -46q35 -35 35 -86t-37 -88q-37 -36 -90 -36t-91 40t-38 105q0 141 121 225q120 84 290 84t293 -94t123 -269
t-126 -297t-390 -155l-67 -149h-150l39 311q453 23 453 280z" />
    <glyph glyph-name="at" unicode="@" horiz-adv-x="1665" 
d="M666 377q0 -51 26 -88t88 -37t123 68t61 183q0 116 -114 115q-72 0 -128 -74t-56 -167zM721 -367q-279 -1 -460 187t-181 493q0 393 252 675t612 282q287 0 465 -171t178 -429t-121 -433t-309 -176q-104 -1 -170 47t-76 128q-106 -174 -262 -175q-96 0 -157 78t-62 199
q0 193 108 338t247 145t210 -153l54 137h208l-120 -471q-37 -137 77 -137q100 0 179 135q77 136 77 338t-143 348t-367 147q-224 -1 -396 -117q-173 -116 -270 -313t-97 -439t148 -400t380 -158q166 0 324 84l47 -90q-174 -99 -375 -99z" />
    <glyph glyph-name="A" unicode="A" horiz-adv-x="1437" 
d="M578 618h380l-63 541zM-57 0l49 207h121l549 936h-162l47 205h758l-48 -205h-149l115 -936h137l-49 -207h-502l47 205h152l-27 221h-516l-129 -221h182l-47 -205h-528z" />
    <glyph glyph-name="B" unicode="B" horiz-adv-x="1210" 
d="M555 203q205 0 281 76q53 53 53 141t-70 130t-186 42h-135l-92 -389h149zM633 776q166 0 253 53t87 155t-96 136q-66 25 -187 25h-65l-86 -369h94zM717 1348q213 0 307 -48q191 -96 193 -284q1 -129 -93 -220t-225 -110q102 -28 168 -106t66 -170q0 -182 -125 -285
q-152 -125 -488 -125h-534l47 207h143l217 934h-164l47 207h441z" />
    <glyph glyph-name="C" unicode="C" horiz-adv-x="1372" 
d="M715 -25q-248 0 -414 159t-166 433q0 330 226 568t548 237q203 0 343 -103t141 -243q0 -72 -45 -124q-44 -52 -108 -52t-105 42t-41 99t39 96q-19 29 -83 51t-147 21q-211 0 -369 -168t-159 -409q0 -176 96 -285t262 -109q201 0 369 174l143 -139q-215 -248 -530 -248z
" />
    <glyph glyph-name="D" unicode="D" horiz-adv-x="1415" 
d="M543 207q159 0 269 41t200 131q150 150 149 371q0 166 -102 268q-123 123 -367 123h-67l-217 -934h135zM717 1348q344 0 532 -189q152 -152 152 -399q0 -305 -215 -520q-240 -240 -676 -240h-524l47 207h143l217 934h-164l47 207h441z" />
    <glyph glyph-name="E" unicode="E" horiz-adv-x="1169" 
d="M-14 0l47 207h143l217 934h-164l47 207h1010l-94 -387h-219l43 182h-391l-84 -361h401l-45 -196h-401l-88 -381h391l47 182h219l-90 -387h-989z" />
    <glyph glyph-name="F" unicode="F" horiz-adv-x="1132" 
d="M-14 0l47 207h143l217 934h-164l47 207h990l-95 -387h-219l43 182h-370l-90 -385h387l-48 -199h-385l-81 -350h190l-49 -209h-563z" />
    <glyph glyph-name="G" unicode="G" horiz-adv-x="1458" 
d="M641 -25q-207 0 -357 161t-151 405q0 343 239 587t580 244q274 0 414 -139q82 -82 82 -167t-46 -132t-106 -47t-101 42q-42 42 -42 91t25 88q-55 51 -226 51q-236 0 -408 -171t-171 -435q0 -172 97 -268t232 -97q197 0 336 93l54 221h-342l45 196h575l-164 -698h-186
l16 141q-102 -88 -192 -127t-203 -39z" />
    <glyph glyph-name="H" unicode="H" horiz-adv-x="1531" 
d="M-14 0l47 207h143l217 934h-164l47 207h553l-47 -207h-157l-84 -357h612l84 357h-178l47 207h553l-47 -207h-144l-217 -934h164l-47 -207h-553l47 207h158l88 375h-612l-88 -375h178l-47 -207h-553z" />
    <glyph glyph-name="I" unicode="I" horiz-adv-x="741" 
d="M0 0l47 207h156l217 934h-176l47 207h563l-47 -207h-156l-217 -934h176l-47 -207h-563z" />
    <glyph glyph-name="J" unicode="J" horiz-adv-x="1153" 
d="M422 -25q-160 -1 -278 97t-117 235q0 88 46 140q46 53 108 53q63 0 101 -38t38 -102t-66 -100q10 -30 57 -52t125 -22q133 0 207 97q59 76 96 231l146 627h-219l47 207h583l-47 -207h-139l-152 -654q-55 -231 -155 -354q-131 -158 -381 -158z" />
    <glyph glyph-name="K" unicode="K" horiz-adv-x="1370" 
d="M1319 1141l-479 -406l247 -526h193l-49 -209h-311l-258 600l-203 -168l-51 -225h174l-47 -207h-549l47 207h143l217 934h-164l47 207h527l-45 -201h-131l-109 -461l510 461h-131l45 201h555l-47 -207h-131z" />
    <glyph glyph-name="L" unicode="L" horiz-adv-x="1112" 
d="M-14 0l47 207h143l217 934h-164l47 207h568l-47 -207h-172l-217 -936h364l45 190h223l-92 -395h-962z" />
    <glyph glyph-name="M" unicode="M" horiz-adv-x="1730" 
d="M-16 0l47 207h143l262 934h-164l47 207h336l246 -756l563 756h369l-47 -207h-144l-174 -934h168l-47 -207h-553l47 207h154l135 694l-518 -676h-33l-231 676l-184 -694h178l-47 -207h-553z" />
    <glyph glyph-name="N" unicode="N" horiz-adv-x="1501" 
d="M1073 -4l-498 952l-172 -741h179l-47 -207h-549l47 207h143l217 934h-164l47 207h355l444 -850l150 643h-178l47 207h548l-47 -207h-143l-266 -1145h-113z" />
    <glyph glyph-name="O" unicode="O" horiz-adv-x="1492" 
d="M741 186q135 0 248 87t175 221t62 290q0 158 -96 268q-98 110 -272 109q-135 0 -248 -87t-175 -220q-62 -132 -62 -290t97 -268t271 -110zM721 -25q-270 0 -429 168t-159 437q0 196 94 376q95 180 269 298t383 118q270 0 429 -168t158 -436q0 -195 -94 -376t-268 -299
t-383 -118z" />
    <glyph glyph-name="P" unicode="P" horiz-adv-x="1167" 
d="M664 649q152 0 238 80t85 215q0 135 -156 182q-49 14 -112 15h-94l-113 -486q68 -6 152 -6zM739 1348q275 0 404 -163q80 -101 80 -239q0 -213 -159 -357t-425 -145q-115 0 -176 5l-55 -242h178l-47 -207h-553l47 207h143l217 934h-164l47 207h463z" />
    <glyph glyph-name="Q" unicode="Q" horiz-adv-x="1492" 
d="M741 186q135 0 248 87t175 221t62 290q0 158 -96 268q-98 110 -272 109q-135 0 -248 -87t-175 -220q-62 -132 -62 -290t97 -268t271 -110zM1466 768q0 -172 -76 -337t-216 -286q-141 -121 -316 -155q63 -129 213 -129q76 0 162 41l67 -166q-124 -62 -252 -62t-245 77
t-185 233q-227 30 -356 192t-129 404q0 196 94 376q95 180 269 298t383 118q271 0 429 -168t158 -436z" />
    <glyph glyph-name="R" unicode="R" horiz-adv-x="1239" 
d="M987 950q0 189 -276 191h-88l-99 -432q60 -9 150 -9q143 0 228 70t85 180zM715 1348q283 0 407 -125q100 -100 100 -255t-94 -271q-96 -116 -264 -162l148 -328h162l-48 -207h-278l-203 506h-29q-63 0 -135 6l-73 -305h167l-47 -207h-542l47 207h143l217 934h-164l47 207
h439z" />
    <glyph glyph-name="S" unicode="S" horiz-adv-x="1163" 
d="M1057 367q1 -168 -133 -280t-352 -112q-218 1 -362 101t-144 237q0 80 44 130q44 51 106 51t103 -41t41 -103t-45 -100q74 -74 254 -74q111 0 175 43t65 118q0 75 -52 124t-187 122t-225 170q-89 97 -89 247t132 261t341 111t336 -95t127 -208q0 -78 -42 -130t-106 -52
t-105 40q-40 40 -40 98t37 97q-36 49 -170 49t-198 -46q-64 -47 -64 -115t59 -124t191 -127t218 -166t85 -226z" />
    <glyph glyph-name="T" unicode="T" horiz-adv-x="1255" 
d="M258 0l47 207h158l219 940h-248l-47 -213h-221l96 414h1161l-94 -414h-219l47 213h-244l-219 -940h178l-47 -207h-567z" />
    <glyph glyph-name="U" unicode="U" horiz-adv-x="1415" 
d="M668 -25q-224 0 -340 110t-117 298q0 80 29 199l129 559h-158l47 207h543l-47 -207h-154l-131 -570q-25 -102 -25 -165q0 -220 242 -220t309 297l152 658h-178l47 207h543l-48 -207h-139l-155 -676q-59 -248 -193 -369q-132 -121 -356 -121z" />
    <glyph glyph-name="V" unicode="V" horiz-adv-x="1388" 
d="M520 -14l-213 1155h-133l47 207h522l-47 -207h-133l113 -746l444 746h-149l47 207h541l-48 -207h-114l-746 -1155h-131z" />
    <glyph glyph-name="W" unicode="W" horiz-adv-x="2013" 
d="M459 -12l-115 1153h-145l47 207h553l-47 -207h-170l47 -709l461 785h114l174 -793l318 717h-164l47 207h553l-47 -207h-127l-572 -1151h-120l-193 792l-495 -792z" />
    <glyph glyph-name="X" unicode="X" horiz-adv-x="1470" 
d="M-39 0l47 207h127l529 495l-279 439h-152l48 207h557l-47 -207h-134l162 -314l293 314h-141l47 207h569l-47 -207h-127l-493 -463l301 -471h151l-47 -207h-541l47 207h136l-199 348l-334 -348h148l-47 -207h-574z" />
    <glyph glyph-name="Y" unicode="Y" horiz-adv-x="1329" 
d="M260 0l47 207h156l74 315l-234 619h-129l47 207h510l-47 -207h-141l151 -455l361 455h-144l47 207h541l-47 -207h-121l-573 -662l-64 -272h176l-47 -207h-563z" />
    <glyph glyph-name="Z" unicode="Z" horiz-adv-x="1290" 
d="M53 0l-20 131l985 1022h-516l-51 -225h-211l98 420h1008l20 -131l-985 -1022h547l51 225h211l-98 -420h-1039z" />
    <glyph glyph-name="bracketleft" unicode="[" horiz-adv-x="745" 
d="M-14 -410l442 1909h533l-46 -192h-317l-352 -1522h317l-45 -195h-532z" />
    <glyph glyph-name="backslash" unicode="\" horiz-adv-x="731" 
d="M397 -420l-137 1917l189 19l137 -1917z" />
    <glyph glyph-name="bracketright" unicode="]" horiz-adv-x="745" 
d="M-170 -410l45 193h318l352 1522h-318l45 194h533l-443 -1909h-532z" />
    <glyph glyph-name="asciicircum" unicode="^" horiz-adv-x="929" 
d="M250 655l-90 115l446 363l268 -373l-114 -98l-201 184z" />
    <glyph glyph-name="underscore" unicode="_" horiz-adv-x="1122" 
d="M-201 -342l49 209h1205l-49 -209h-1205z" />
    <glyph glyph-name="grave" unicode="`" horiz-adv-x="1370" 
d="M508 1320q0 52 32 84t72 32q76 0 117 -88l137 -306l-80 -53l-233 234q-45 45 -45 97z" />
    <glyph glyph-name="a" unicode="a" horiz-adv-x="1185" 
d="M752 524q0 191 -177 191q-111 1 -191 -105t-79 -245q0 -83 42 -137t120 -54q113 0 199 104t86 246zM360 -16q-128 0 -208 96t-80 252q0 233 137 407t330 174q83 0 153 -59t99 -141l61 184h209l-154 -610q-16 -61 -16 -97q0 -55 45 -55q61 0 115 148l90 -35
q-78 -264 -275 -264q-86 0 -135 55t-49 147q-136 -202 -322 -202z" />
    <glyph glyph-name="b" unicode="b" horiz-adv-x="1101" 
d="M332 371q0 -189 194 -189q102 0 186 104q83 104 83 244q0 84 -45 138t-127 55q-117 -1 -204 -105t-87 -247zM709 913q159 0 239 -95t80 -257q0 -237 -138 -407t-339 -170q-88 0 -161 55t-93 135l-57 -174h-209l301 1311h-168l49 188h383l-176 -762q53 76 132 126t157 50z
" />
    <glyph glyph-name="c" unicode="c" horiz-adv-x="999" 
d="M514 -16q-190 0 -318 110q-126 110 -126 312t157 355q158 153 377 152q139 0 238 -74q98 -75 98 -192q0 -68 -37 -115t-95 -47t-96 38t-38 87t31 90q-39 27 -107 27q-115 0 -208 -82t-93 -237q0 -110 67 -174t168 -64q158 0 304 100l-2 -198q-130 -88 -320 -88z" />
    <glyph glyph-name="d" unicode="d" horiz-adv-x="1183" 
d="M752 524q0 191 -177 191q-111 1 -191 -105t-79 -245q0 -83 42 -137t120 -54q113 0 199 104t86 246zM72 332q0 233 137 407t330 174q85 0 151 -57t96 -135l138 590h-166l49 188h385l-283 -1212q-16 -70 -16 -97q0 -55 45 -55q61 0 115 148l90 -35q-78 -264 -277 -264
q-86 0 -135 55t-49 147q-135 -203 -322 -202q-128 0 -208 96t-80 252z" />
    <glyph glyph-name="e" unicode="e" horiz-adv-x="1003" 
d="M557 729q-84 0 -147 -53t-97 -148h402q8 31 8 62q0 139 -166 139zM289 373v-15q-1 -80 65 -134t199 -54t285 80l-43 -205q-129 -61 -305 -61t-299 103q-124 103 -123 282q0 227 141 386t344 158q173 0 279 -91t106 -255q0 -90 -33 -194h-616z" />
    <glyph glyph-name="f" unicode="f" horiz-adv-x="688" 
d="M766 1516q94 0 145 -46t51 -107q0 -60 -39 -98q-41 -38 -93 -38q-52 -1 -87 27t-43 67q-104 -30 -157 -258l-39 -166h235l-49 -188h-229l-162 -709h-225l162 709h-156l49 188h150l43 184q100 435 444 435z" />
    <glyph glyph-name="g" unicode="g" horiz-adv-x="1097" 
d="M496 209q114 0 194 94t80 232q0 82 -54 131t-136 49q-113 0 -193 -94t-80 -232q-1 -82 53 -131t136 -49zM391 -410q-94 0 -187 32q-194 67 -196 210q0 61 38 98t91 37t90 -37t37 -79t-10 -58q40 -27 140 -27t160 61q60 60 93 208l35 149q-131 -166 -289 -166
q-159 0 -239 96t-80 255q0 221 132 383t337 161q96 0 163 -55t99 -133l57 172h205l-211 -920q-43 -188 -127 -272q-115 -115 -338 -115z" />
    <glyph glyph-name="h" unicode="h" horiz-adv-x="1118" 
d="M706 913q90 -1 159 -71t69 -197q0 -74 -23 -149l-65 -236q-10 -41 -10 -63q0 -61 47 -62q61 0 114 148l90 -35q-76 -264 -270 -264q-102 0 -155 54q-54 54 -54 126t15 121l67 241q10 33 10 82t-32 83q-33 34 -90 34q-150 0 -197 -205l-121 -520h-229l301 1311h-168
l49 188h383l-176 -766q49 76 123 128q73 52 163 52z" />
    <glyph glyph-name="i" unicode="i" horiz-adv-x="661" 
d="M333 -16q-99 0 -151 53q-51 53 -51 147q0 47 12 101l105 424h-162l49 188h389l-153 -610q-14 -55 -15 -94q0 -57 50 -58q68 0 120 148l90 -35q-43 -147 -113 -206q-71 -58 -170 -58zM432 1022q-57 0 -98 40t-41 97t41 97t98 40t98 -40t41 -97t-41 -97t-98 -40z" />
    <glyph glyph-name="j" unicode="j" horiz-adv-x="622" 
d="M473 1022q-57 0 -98 40t-41 97t41 97t98 40t98 -40t41 -97t-41 -97t-98 -40zM-31 -401q-86 0 -136 42t-50 98t37 92t80 36q88 0 120 -70q39 6 68 74q39 98 88 315l119 523h-168l49 188h387l-166 -721q-86 -369 -202 -485q-97 -92 -226 -92z" />
    <glyph glyph-name="k" unicode="k" horiz-adv-x="1036" 
d="M672 777q0 58 40 97t96 39t97 -43t41 -110q0 -213 -328 -363l82 -178q23 -49 38 -66t34 -18q43 0 92 168l90 -29q-37 -168 -97 -229t-138 -61q-141 0 -203 147l-94 217l-86 -26l-76 -322h-229l301 1311h-168l49 188h383l-234 -1014q307 92 371 191q-61 43 -61 101z" />
    <glyph glyph-name="l" unicode="l" horiz-adv-x="630" 
d="M292 -16q-99 0 -150 53q-50 53 -50 149q0 47 12 99l238 1026h-168l49 188h389l-280 -1212q-14 -63 -15 -88q0 -63 48 -64q68 0 120 148l90 -35q-43 -147 -113 -206q-71 -58 -170 -58z" />
    <glyph glyph-name="m" unicode="m" horiz-adv-x="1665" 
d="M1258 913q86 -1 153 -71q66 -70 66 -197q0 -74 -23 -149l-65 -236q-10 -41 -11 -63q0 -61 47 -62q61 0 115 148l90 -35q-76 -264 -270 -264q-102 0 -156 54q-53 54 -53 126t14 121l64 227q14 45 14 96t-33 84t-80 33q-135 0 -186 -217l-127 -508h-229l129 508
q14 61 14 105t-33 78t-80 34q-135 0 -186 -217l-127 -508h-229l178 709h-164l49 188h350l-45 -207q49 94 127 159t166 65q89 0 149 -62q60 -61 70 -162q60 102 138 162t164 61z" />
    <glyph glyph-name="n" unicode="n" horiz-adv-x="1173" 
d="M868 -16q-102 0 -155 54t-53 126t14 121l67 241q11 33 11 82t-33 83t-90 34q-143 0 -193 -201l-131 -524h-229l178 709h-164l49 188h350l-45 -207q48 92 134 158t180 66t161 -72q67 -70 66 -197q0 -74 -22 -149l-66 -236q-10 -41 -10 -63q0 -61 47 -62q61 0 115 148
l90 -35q-76 -264 -271 -264z" />
    <glyph glyph-name="o" unicode="o" horiz-adv-x="1069" 
d="M512 170q100 0 180 96t80 220t-57 182t-158 59q-101 0 -181 -96t-79 -220q0 -124 57 -183q58 -58 158 -58zM503 -16q-206 0 -320 118t-113 289q0 207 145 365t351 158t320 -120q114 -118 113 -288q0 -206 -145 -364t-351 -158z" />
    <glyph glyph-name="p" unicode="p" horiz-adv-x="1150" 
d="M381 371q1 -189 195 -189q102 0 185 104t83 244q0 84 -45 138t-127 55q-117 -1 -204 -105t-87 -247zM768 913q152 0 230 -95t79 -257q0 -237 -138 -407t-339 -170q-90 0 -156 54t-100 136l-90 -391h160l-49 -184h-512l49 184h129l215 926h-168l49 188h356l-45 -205
q62 96 148 158t182 63z" />
    <glyph glyph-name="q" unicode="q" horiz-adv-x="1095" 
d="M768 526q0 189 -194 189q-102 -1 -186 -105q-83 -104 -83 -243q0 -85 45 -139t127 -54q117 0 204 104t87 248zM388 -16q-160 0 -238 95t-78 257q0 236 138 406t339 171q90 0 157 -55t97 -133l57 172h205l-254 -1110h178l-49 -188h-393l125 553q-125 -168 -284 -168z" />
    <glyph glyph-name="r" unicode="r" horiz-adv-x="872" 
d="M899 769q0 -60 -42 -102t-96 -42q-54 1 -92 31t-46 71q-55 -16 -120 -104t-95 -215l-103 -408h-229l178 709h-164l49 188h350l-57 -262q154 279 318 278q59 0 104 -42t45 -102z" />
    <glyph glyph-name="s" unicode="s" horiz-adv-x="919" 
d="M419 734q-44 -20 -44 -53q0 -32 11 -44q11 -11 17 -19q7 -8 21 -17l28 -18t61 -29q48 -19 60 -26q111 -49 176 -107t64 -153q0 -135 -101 -210q-102 -74 -306 -74t-316 112q-59 60 -59 122t32 97q33 35 81 35t82 -34t34 -72t-12 -56q68 -45 159 -45q183 0 183 84
q0 40 -44 70q-44 31 -154 74t-176 100t-64 167q0 110 97 192t283 83q186 0 287 -104q53 -53 53 -115t-34 -98q-34 -35 -81 -35q-48 0 -82 35q-34 36 -34 68t12 61q-55 28 -123 28q-67 1 -111 -19z" />
    <glyph glyph-name="t" unicode="t" horiz-adv-x="757" 
d="M367 238q0 -82 64 -82t173 71l74 -102q-150 -141 -324 -141q-96 0 -157 53t-62 162q0 39 19 120l96 390h-166l43 188h168l49 195l252 90l-72 -285h273l-47 -188h-273l-96 -390q-14 -57 -14 -81z" />
    <glyph glyph-name="u" unicode="u" horiz-adv-x="1175" 
d="M385 299q0 -127 111 -127q80 0 127 49t71 152l131 524h230l-154 -610q-16 -61 -16 -97q0 -55 45 -55q61 0 114 148l91 -35q-78 -264 -275 -264q-86 0 -135 53t-51 145q-55 -92 -135 -145t-168 -53t-154 68t-65 179q0 72 22 168l76 310h-162l49 188h389l-129 -518
q-12 -57 -12 -80z" />
    <glyph glyph-name="v" unicode="v" horiz-adv-x="1026" 
d="M672 774q0 59 41 99t105 40t110 -50q45 -50 45 -132q0 -293 -471 -747h-168l-139 725h-150l49 188h291l98 -672q236 248 277 418q-88 39 -88 131z" />
    <glyph glyph-name="w" unicode="w" horiz-adv-x="1449" 
d="M1234 913q64 0 108 -49t44 -135q0 -209 -391 -745h-151l-107 493l-280 -493h-172l-82 725h-164l49 188h311l31 -651l285 559h149l107 -567q197 299 213 415q-39 12 -66 46q-26 34 -26 85t38 90q39 39 104 39z" />
    <glyph glyph-name="x" unicode="x" horiz-adv-x="1095" 
d="M168 -16q-76 0 -123 41t-47 97t36 92t96 36t91 -57q53 4 137 126l70 107l-115 283h-174l49 188h273l104 -287l53 90q127 213 291 213q68 0 114 -42t46 -97t-36 -91q-35 -36 -95 -36t-92 58q-20 -4 -60 -43t-69 -91l-64 -102l95 -229q26 -66 40 -83t33 -18q41 0 90 148
l93 -27q-59 -276 -236 -276q-135 0 -203 172l-51 129l-55 -97q-119 -204 -291 -204z" />
    <glyph glyph-name="y" unicode="y" horiz-adv-x="1026" 
d="M-12 -410q-80 0 -128 44t-48 102t37 95q39 36 85 36t78 -24t45 -60q35 4 99 64q63 60 188 208l-135 654h-152l49 188h293l107 -670q223 293 258 416q-88 37 -88 131q0 59 41 99t109 40t110 -50q43 -50 43 -136q0 -207 -385 -674q-166 -203 -282 -306t-180 -130t-144 -27z
" />
    <glyph glyph-name="z" unicode="z" horiz-adv-x="983" 
d="M446 197q46 1 118 -15t89 -16q72 0 106 38t66 136l84 -18q-59 -338 -270 -338q-33 0 -161 24t-173 25q-119 0 -223 -49l-84 129l678 608h-320l-41 -164h-190l84 340h692l66 -143l-645 -580q78 23 124 23z" />
    <glyph glyph-name="braceleft" unicode="{" horiz-adv-x="774" 
d="M41 -106q0 162 203 301q143 98 143 159q0 39 -55 66t-158 26h-55l45 189h61q131 0 193 45q61 45 61 103t-88 176t-88 221q0 154 151 246t443 100l-4 -148q-383 -35 -383 -182q0 -61 96 -191t96 -218t-78 -156t-245 -90q113 -13 173 -67t60 -132q0 -100 -182 -229
q-59 -41 -91 -68q-33 -27 -61 -68t-28 -81q0 -139 301 -195l-35 -145q-233 32 -354 120t-121 218z" />
    <glyph glyph-name="bar" unicode="|" horiz-adv-x="581" 
d="M195 -410v1909h192v-1909h-192z" />
    <glyph glyph-name="braceright" unicode="}" horiz-adv-x="774" 
d="M307 -115q0 61 -96 191t-96 219q0 88 79 156t244 90q-113 14 -173 67t-60 131q0 100 182 230q59 41 91 67t61 68q29 41 28 82q0 139 -301 194l35 146q233 -33 354 -121t121 -217q0 -162 -203 -301q-143 -98 -143 -160q0 -39 55 -65t158 -27h55l-45 -189h-61
q-130 0 -192 -45t-62 -103t88 -176t88 -220q0 -154 -150 -246t-444 -100l4 147q383 35 383 182z" />
    <glyph glyph-name="asciitilde" unicode="~" horiz-adv-x="983" 
d="M654 373q-87 0 -166 76q-78 75 -118 75t-74 -30t-73 -109l-125 51q41 141 120 223t166 82t166 -76q79 -75 119 -75q39 0 73 30t73 109l125 -51q-41 -141 -120 -223t-166 -82z" />
    <glyph glyph-name="uni00A0" unicode="&#xa0;" horiz-adv-x="423" 
 />
    <glyph glyph-name="exclamdown" unicode="&#xa1;" horiz-adv-x="548" 
d="M29 0l290 938h115l-123 -938h-282zM424 1057q-63 0 -108 45q-44 45 -44 108q0 64 44 108t108 44t107 -44q44 -44 44 -108t-44 -108q-44 -45 -107 -45z" />
    <glyph glyph-name="cent" unicode="&#xa2;" horiz-adv-x="1017" 
d="M317 505q0 -132 95 -200l159 520q-106 -25 -180 -107t-74 -213zM563 78q-49 0 -71 2l-93 -297l-149 39l90 297q-118 47 -184 142t-66 224q0 209 155 360t376 161l61 204l149 -39l-55 -180q102 -29 168 -95t66 -140t-38 -119t-96 -45t-95 38q-38 38 -38 87t31 90
q-25 14 -61 20l-174 -571q12 -2 39 -2q182 0 327 100l-2 -188q-129 -88 -340 -88z" />
    <glyph glyph-name="sterling" unicode="&#xa3;" horiz-adv-x="1134" 
d="M1116 811q0 -70 -40 -112t-92 -42t-88 36t-36 82t27 83q-13 16 -61 30t-81 15q-117 0 -175 -76t-58 -202q0 -49 12 -120t17 -106h356l-39 -172h-328q-31 -141 -143 -233q59 8 183 -28t172 -36q50 0 90 22t108 83l104 -101q-133 -197 -331 -196q-105 0 -241 52t-218 54
q-37 -50 -95 -78q-57 -28 -111 -28t-93 33t-39 77q0 70 83 117t200 33q102 100 127 229h-246l39 172h213q-4 43 -17 115q-12 72 -12 115q0 199 122 329t301 132q178 0 284 -81t106 -198z" />
    <glyph glyph-name="yen" unicode="&#xa5;" horiz-adv-x="1075" 
d="M156 510l39 168h180l-111 229h-127l39 168h438l-39 -164h-124l131 -286l270 286h-141l39 164h454l-39 -168h-118l-226 -229h176l-39 -168h-305l-18 -86h307l-39 -168h-301l-18 -96h178l-35 -160h-553l35 160h172l20 96h-301l39 168h301l21 86h-305z" />
    <glyph glyph-name="section" unicode="&#xa7;" horiz-adv-x="888" 
d="M307 561q0 -49 162 -119l20 -10q86 23 113 37t27 47q0 45 -158 117l-31 12q-74 -17 -104 -35t-29 -49zM565 950q-113 0 -112 -49q0 -32 77 -70t144 -73q166 -87 166 -197q0 -156 -226 -199q78 -61 78 -154t-80 -159q-80 -65 -228 -65t-229 57t-81 135q0 41 28 69
q29 27 72 27t71 -28q27 -28 27 -58t-6 -43q45 -18 105 -18q111 0 110 51q0 24 -44 52t-144 75t-150 98q-49 51 -49 121q0 152 234 189q-82 67 -82 155t79 157t226 69t228 -58t81 -135q0 -41 -29 -69t-71 -28t-71 28q-27 28 -27 58t6 42q-46 20 -103 20z" />
    <glyph glyph-name="dieresis" unicode="&#xa8;" horiz-adv-x="1024" 
d="M629 1194q1 -61 -45 -104t-106 -43t-104 43t-44 104t45 104t105 43t104 -43t45 -104zM1051 1194q1 -61 -45 -104t-106 -43t-104 43t-44 104t45 104t105 43t104 -43t45 -104z" />
    <glyph glyph-name="copyright" unicode="&#xa9;" horiz-adv-x="1269" 
d="M656 270q-128 0 -206 75t-77 196q0 121 80 199t182 77q103 0 161 -39t58 -90q0 -27 -17 -45t-42 -18t-49 24t-5 58q-33 25 -101 25t-118 -53q-51 -52 -51 -132t50 -133q50 -54 133 -54t149 66l55 -59q-74 -97 -202 -97zM635 997q-187 0 -317 -133q-130 -134 -130 -328
t130 -326t315 -132q186 0 317 134t131 327t-129 325t-317 133zM1188 538q0 -230 -162 -392t-392 -162t-391 160t-161 392t161 394t392 162t392 -162t161 -392z" />
    <glyph glyph-name="ordfeminine" unicode="&#xaa;" horiz-adv-x="776" 
d="M295 1038q1 -114 105 -114q56 0 105 62q50 62 50 149q0 113 -100 112q-66 0 -113 -63t-47 -146zM86 578l29 122h610l-29 -122h-610zM326 809q-74 0 -122 58t-48 151q0 142 82 246t194 104q49 0 92 -36t56 -85l36 111h125l-92 -367q-10 -37 -10 -57q0 -33 27 -33
q39 0 69 88l53 -20q-47 -160 -163 -160q-51 0 -80 32t-31 87q-61 -119 -188 -119z" />
    <glyph glyph-name="guillemotleft" unicode="&#xab;" horiz-adv-x="1142" 
d="M408 186l-336 392l497 391l105 -123l-324 -293l180 -258zM905 186l-336 392l498 391l104 -123l-323 -293l180 -258z" />
    <glyph glyph-name="registered" unicode="&#xae;" horiz-adv-x="831" 
d="M532 1073h29q61 0 62 45q0 45 -64 45h-27v-90zM426 889v63h35v211h-35v64h137q61 0 101 -27t38 -83q0 -56 -59 -85l39 -80h37v-63h-88l-58 123h-41v-60h35v-63h-141zM563 1343q-119 1 -203 -83t-84 -207t84 -206t203 -83t203 83t84 206t-84 207t-203 83zM563 688
q-153 0 -261 106t-107 259q0 154 107 260q108 106 262 106t260 -106q108 -106 108 -260q0 -153 -108 -259t-261 -106z" />
    <glyph glyph-name="macron" unicode="&#xaf;" horiz-adv-x="1024" 
d="M322 1075l40 178h676l-41 -178h-675z" />
    <glyph glyph-name="degree" unicode="&#xb0;" horiz-adv-x="675" 
d="M328 1068q0 -126 111 -126q52 0 98 57q45 57 45 121t-30 94q-30 31 -82 31t-97 -57q-45 -56 -45 -120zM435 815q-125 0 -193 71q-68 70 -68 184t87 208t213 94t194 -70t68 -185q0 -114 -88 -208q-87 -94 -213 -94z" />
    <glyph glyph-name="plusminus" unicode="&#xb1;" horiz-adv-x="950" 
d="M25 35l41 188h737l-43 -188h-735zM739 1128l-63 -274h274l-43 -188h-274l-64 -275h-188l63 275h-274l43 188h274l64 274h188z" />
    <glyph glyph-name="two.sup" unicode="&#xb2;" 
d="M713 1430q0 78 -119 77q-70 0 -100 -26q16 -20 16 -53t-25 -58q-25 -24 -61 -24t-60 26t-24 64q0 86 84 143t190 57t177 -54q72 -54 71 -148q0 -56 -41 -108t-87 -80t-118 -62q-180 -86 -241 -183h282l29 121h121l-57 -241h-529l-28 67q80 201 368 340q78 39 115 71
t37 71z" />
    <glyph glyph-name="three.sup" unicode="&#xb3;" 
d="M803 1085q0 -105 -89 -161q-90 -56 -200 -56t-199 48q-88 48 -88 143q0 39 26 65q27 26 61 25q34 0 59 -25q25 -24 25 -54t-13 -50q29 -29 110 -29t119 29t39 70q0 40 -35 72t-106 32h-63l30 133h60q73 0 121 27q48 28 48 68t-37 64q-64 40 -161 15q4 -17 4 -39t-25 -47
t-59 -25t-60 26q-26 24 -26 72t65 96t187 48t195 -59t73 -138t-58 -127t-167 -55q164 -39 164 -168z" />
    <glyph glyph-name="acute" unicode="&#xb4;" horiz-adv-x="1024" 
d="M897 1331q0 -72 -74 -119l-323 -192l-64 74l252 284q48 56 100 56t80 -31t29 -72z" />
    <glyph glyph-name="paragraph" unicode="&#xb6;" horiz-adv-x="1243" 
d="M647 186h119l152 654h-119zM414 393q-141 0 -217 78t-76 191q0 168 133 266t328 98h723l-45 -195h-166l-148 -636h176l-45 -195h-815l43 190h164l49 205q-25 -2 -104 -2z" />
    <glyph glyph-name="periodcentered" unicode="&#xb7;" horiz-adv-x="524" 
d="M295 369q-70 0 -119 49t-49 119q0 69 49 119t119 50t119 -50t49 -120t-49 -118q-49 -49 -119 -49z" />
    <glyph glyph-name="cedilla" unicode="&#xb8;" horiz-adv-x="1024" 
d="M588 -258q0 -68 -70 -110t-197 -42q-126 0 -241 88l41 64q94 -55 198 -55q31 0 54 15t22 36q0 66 -133 51l-31 51l129 205l64 -16l-27 -123q91 -12 141 -54t50 -110z" />
    <glyph glyph-name="one.sup" unicode="&#xb9;" 
d="M227 881l29 131h188l107 465l-178 -45l-11 131l289 71l74 -32l-135 -590h184l-29 -131h-518z" />
    <glyph glyph-name="ordmasculine" unicode="&#xba;" horiz-adv-x="712" 
d="M446 926q62 0 110 58t48 132t-36 110t-98 36t-109 -58q-48 -58 -48 -132t36 -110q35 -36 97 -36zM92 578l29 122h528l-28 -122h-529zM439 815q-125 0 -193 71q-68 70 -68 184t87 208t213 94t194 -70t68 -185q0 -114 -88 -208q-87 -94 -213 -94z" />
    <glyph glyph-name="guillemotright" unicode="&#xbb;" horiz-adv-x="1142" 
d="M145 186l-104 123l324 293l-181 258l123 109l336 -391zM643 186l-104 123l323 293l-180 258l123 109l336 -391z" />
    <glyph glyph-name="onequarter" unicode="&#xbc;" horiz-adv-x="1628" 
d="M379 -33l-82 70q643 720 1098 1311l82 -70q-223 -250 -548 -634t-550 -677zM125 573l29 132h188l107 464l-179 -45l-10 131l289 72l74 -33l-136 -589h185l-29 -132h-518zM1217 113l26 106h-330l-20 72l475 481l88 -84l-371 -360h185l26 100l146 53l-35 -145h115l-29 -117
h-115l-24 -106h86l-27 -113h-348l27 113h125z" />
    <glyph glyph-name="onehalf" unicode="&#xbd;" horiz-adv-x="1628" 
d="M348 -33l-82 70q643 720 1098 1311l82 -70q-223 -250 -548 -634t-550 -677zM1389 549q0 78 -119 78q-70 0 -101 -27q17 -20 17 -53t-25 -58t-61 -25t-60 26q-25 26 -24 65q0 86 84 143q84 58 190 58t176 -54q72 -54 72 -149q0 -57 -41 -109t-87 -78q-46 -28 -118 -63
q-180 -86 -241 -182h282l29 121h121l-58 -242h-528l-29 68q80 201 369 340q78 38 115 70t37 71zM102 573l29 132h188l107 464l-178 -45l-10 131l288 72l74 -33l-135 -589h184l-28 -132h-519z" />
    <glyph glyph-name="threequarters" unicode="&#xbe;" horiz-adv-x="1628" 
d="M393 -33l-82 70q643 720 1098 1311l82 -70q-223 -250 -548 -634t-550 -677zM1227 113l26 106h-329l-21 72l475 481l88 -84l-370 -360h184l27 100l145 53l-35 -145h115l-29 -117h-114l-25 -106h86l-27 -113h-348l27 113h125zM727 778q0 -104 -89 -160q-90 -56 -200 -57
q-110 0 -198 48t-88 143q0 38 26 64t60 26q36 0 60 -25t24 -55t-13 -49q29 -29 110 -29t120 29t39 70t-35 73t-107 31h-63l30 133h60q74 0 122 27t48 67t-38 65q-64 40 -161 15q4 -16 4 -39t-24 -47t-60 -25q-34 0 -60 25t-26 61q0 59 65 107t187 49q122 0 195 -59t73 -138
q0 -80 -58 -128t-167 -54q164 -39 164 -168z" />
    <glyph glyph-name="questiondown" unicode="&#xbf;" horiz-adv-x="978" 
d="M461 -25q-170 1 -293 95t-123 269t126 297t390 155l72 157h149l-43 -319q-453 -23 -452 -281q0 -80 56 -127t167 -47t141 45q-35 35 -35 86t36 88t90 37t92 -40t38 -105q0 -141 -120 -226q-121 -84 -291 -84zM766 1059q-63 0 -108 45q-44 45 -44 108q0 64 44 108t108 44
t107 -44q45 -44 45 -108t-44 -108q-44 -45 -108 -45z" />
    <glyph glyph-name="Agrave" unicode="&#xc0;" horiz-adv-x="1437" 
d="M709 1780q0 52 31 85q32 32 73 31q76 0 117 -88l137 -305l-80 -53l-233 233q-45 45 -45 97zM578 618h380l-63 541zM-57 0l49 207h121l549 936h-162l47 205h758l-48 -205h-149l115 -936h137l-49 -207h-502l47 205h152l-27 221h-516l-129 -221h182l-47 -205h-528z" />
    <glyph glyph-name="Aacute" unicode="&#xc1;" horiz-adv-x="1437" 
d="M1260 1894q52 0 80 -30t28 -72q0 -72 -74 -119l-323 -192l-64 73l252 285q49 55 101 55zM578 618h380l-63 541zM-57 0l49 207h121l549 936h-162l47 205h758l-48 -205h-149l115 -936h137l-49 -207h-502l47 205h152l-27 221h-516l-129 -221h182l-47 -205h-528z" />
    <glyph glyph-name="Acircumflex" unicode="&#xc2;" horiz-adv-x="1437" 
d="M721 1475l-84 110l440 357l262 -367l-108 -94l-197 205zM578 618h380l-63 541zM-57 0l49 207h121l549 936h-162l47 205h758l-48 -205h-149l115 -936h137l-49 -207h-502l47 205h152l-27 221h-516l-129 -221h182l-47 -205h-528z" />
    <glyph glyph-name="Atilde" unicode="&#xc3;" horiz-adv-x="1437" 
d="M1158 1485q-87 0 -166 76q-79 75 -119 75q-39 0 -73 -30t-73 -109l-125 51q41 142 120 224q162 169 343 -5q67 -65 107 -65t74 30t73 109l125 -51q-41 -141 -120 -223t-166 -82zM578 618h380l-63 541zM-57 0l49 207h121l549 936h-162l47 205h758l-48 -205h-149l115 -936
h137l-49 -207h-502l47 205h152l-27 221h-516l-129 -221h182l-47 -205h-528z" />
    <glyph glyph-name="Adieresis" unicode="&#xc4;" horiz-adv-x="1437" 
d="M954 1655q0 -61 -45 -105t-105 -43q-60 0 -105 43q-44 42 -44 104t45 105q46 43 106 43t104 -43t44 -104zM1376 1655q0 -61 -45 -105t-105 -43q-60 0 -105 43q-44 42 -44 104t45 105q46 43 106 43t104 -43t44 -104zM578 618h380l-63 541zM-57 0l49 207h121l549 936h-162
l47 205h758l-48 -205h-149l115 -936h137l-49 -207h-502l47 205h152l-27 221h-516l-129 -221h182l-47 -205h-528z" />
    <glyph glyph-name="Aring" unicode="&#xc5;" horiz-adv-x="1437" 
d="M578 618h380l-63 541zM936 1391q45 0 80 45t35 95t-23 80q-24 29 -68 29t-79 -45t-35 -95q0 -109 90 -109zM688 1510q0 106 84 190t200 84t180 -67t65 -152q0 -143 -125 -217h213l-48 -205h-149l115 -936h137l-49 -207h-502l47 205h152l-27 221h-516l-129 -221h182
l-47 -205h-528l49 207h121l549 936h-162l47 205h213q-72 56 -72 162z" />
    <glyph glyph-name="AE" unicode="&#xc6;" horiz-adv-x="1916" 
d="M694 618h326l123 531h-76zM-16 0l49 207h145l666 934h-166l47 207h1309l-95 -387h-219l43 182h-391l-84 -361h402l-45 -196h-402l-88 -381h391l47 182h219l-90 -387h-997l47 207h152l51 219h-414l-155 -221h157l-47 -205h-532z" />
    <glyph glyph-name="Ccedilla" unicode="&#xc7;" horiz-adv-x="1372" 
d="M842 -258q0 -68 -70 -110t-197 -42q-126 0 -241 88l41 64q94 -55 198 -55q31 0 54 15t22 36q0 66 -133 51l-31 51l95 150q-199 40 -322 192t-123 385q0 330 226 568t548 237q203 0 343 -103t141 -243q0 -72 -45 -124q-44 -52 -108 -52t-105 42t-41 99t39 96
q-19 29 -83 51t-147 21q-211 0 -369 -168t-159 -409q0 -176 96 -285t262 -109q201 0 369 174l143 -139q-215 -248 -530 -248l-49 2l-15 -71q91 -12 141 -54t50 -110z" />
    <glyph glyph-name="Egrave" unicode="&#xc8;" horiz-adv-x="1169" 
d="M557 1780q0 52 32 85q32 32 73 31q76 0 116 -88l137 -305l-79 -53l-234 233q-45 45 -45 97zM-14 0l47 207h143l217 934h-164l47 207h1010l-94 -387h-219l43 182h-391l-84 -361h401l-45 -196h-401l-88 -381h391l47 182h219l-90 -387h-989z" />
    <glyph glyph-name="Eacute" unicode="&#xc9;" horiz-adv-x="1169" 
d="M1108 1894q51 0 80 -30t29 -72q0 -72 -74 -119l-324 -192l-63 73l252 285q49 55 100 55zM-14 0l47 207h143l217 934h-164l47 207h1010l-94 -387h-219l43 182h-391l-84 -361h401l-45 -196h-401l-88 -381h391l47 182h219l-90 -387h-989z" />
    <glyph glyph-name="Ecircumflex" unicode="&#xca;" horiz-adv-x="1169" 
d="M569 1475l-84 110l441 357l262 -367l-109 -94l-196 205zM-14 0l47 207h143l217 934h-164l47 207h1010l-94 -387h-219l43 182h-391l-84 -361h401l-45 -196h-401l-88 -381h391l47 182h219l-90 -387h-989z" />
    <glyph glyph-name="Edieresis" unicode="&#xcb;" horiz-adv-x="1169" 
d="M652 1507q-60 0 -104 43q-44 42 -44 104t45 105t105 43t104 -43t45 -104q0 -61 -45 -105q-46 -43 -106 -43zM1074 1507q-60 0 -104 43q-44 42 -44 104t45 105t105 43t104 -43t45 -104q0 -61 -45 -105q-46 -43 -106 -43zM-14 0l47 207h143l217 934h-164l47 207h1010
l-94 -387h-219l43 182h-391l-84 -361h401l-45 -196h-401l-88 -381h391l47 182h219l-90 -387h-989z" />
    <glyph glyph-name="Igrave" unicode="&#xcc;" horiz-adv-x="741" 
d="M342 1780q0 52 32 85q32 32 72 31q76 0 117 -88l137 -305l-79 -53l-234 233q-45 45 -45 97zM0 0l47 207h156l217 934h-176l47 207h563l-47 -207h-156l-217 -934h176l-47 -207h-563z" />
    <glyph glyph-name="Iacute" unicode="&#xcd;" horiz-adv-x="741" 
d="M893 1894q51 0 80 -30t28 -72q0 -72 -73 -119l-324 -192l-63 73l252 285q49 55 100 55zM0 0l47 207h156l217 934h-176l47 207h563l-47 -207h-156l-217 -934h176l-47 -207h-563z" />
    <glyph glyph-name="Icircumflex" unicode="&#xce;" horiz-adv-x="741" 
d="M354 1475l-84 110l441 357l262 -367l-109 -94l-196 205zM0 0l47 207h156l217 934h-176l47 207h563l-47 -207h-156l-217 -934h176l-47 -207h-563z" />
    <glyph glyph-name="Idieresis" unicode="&#xcf;" horiz-adv-x="741" 
d="M437 1507q-60 0 -104 43q-44 42 -44 104t45 105t105 43q61 0 105 -43t44 -104t-45 -105q-46 -43 -106 -43zM859 1507q-60 0 -104 43q-44 42 -44 104t45 105t105 43q61 0 105 -43t44 -104t-45 -105q-46 -43 -106 -43zM0 0l47 207h156l217 934h-176l47 207h563l-47 -207
h-156l-217 -934h176l-47 -207h-563z" />
    <glyph glyph-name="Eth" unicode="&#xd0;" horiz-adv-x="1415" 
d="M543 207q159 0 269 41t200 131q150 150 149 371q0 166 -102 268q-123 123 -367 123h-67l-84 -359h284l-43 -186h-284l-90 -389h135zM717 1348q344 0 532 -189q152 -152 152 -399q0 -305 -215 -520q-240 -240 -676 -240h-524l47 207h143l90 389h-170l43 186h170l84 359
h-164l47 207h441z" />
    <glyph glyph-name="Ntilde" unicode="&#xd1;" horiz-adv-x="1501" 
d="M1187 1485q-87 0 -166 76q-79 75 -119 75t-74 -30t-72 -109l-125 51q41 142 120 224q161 168 343 -5q68 -65 108 -65t73 30q34 30 73 109l125 -51q-41 -141 -120 -223t-166 -82zM1073 -4l-498 952l-172 -741h179l-47 -207h-549l47 207h143l217 934h-164l47 207h355
l444 -850l150 643h-178l47 207h548l-47 -207h-143l-266 -1145h-113z" />
    <glyph glyph-name="Ograve" unicode="&#xd2;" horiz-adv-x="1492" 
d="M713 1780q0 52 31 85q32 32 73 31q76 0 117 -88l137 -305l-80 -53l-233 233q-45 45 -45 97zM741 186q135 0 248 87t175 221t62 290q0 158 -96 268q-98 110 -272 109q-135 0 -248 -87t-175 -220q-62 -132 -62 -290t97 -268t271 -110zM721 -25q-270 0 -429 168t-159 437
q0 196 94 376q95 180 269 298t383 118q270 0 429 -168t158 -436q0 -195 -94 -376t-268 -299t-383 -118z" />
    <glyph glyph-name="Oacute" unicode="&#xd3;" horiz-adv-x="1492" 
d="M1264 1894q52 0 80 -30t28 -72q0 -72 -74 -119l-323 -192l-64 73l252 285q49 55 101 55zM741 186q135 0 248 87t175 221t62 290q0 158 -96 268q-98 110 -272 109q-135 0 -248 -87t-175 -220q-62 -132 -62 -290t97 -268t271 -110zM721 -25q-270 0 -429 168t-159 437
q0 196 94 376q95 180 269 298t383 118q270 0 429 -168t158 -436q0 -195 -94 -376t-268 -299t-383 -118z" />
    <glyph glyph-name="Ocircumflex" unicode="&#xd4;" horiz-adv-x="1492" 
d="M725 1475l-84 110l440 357l262 -367l-108 -94l-197 205zM741 186q135 0 248 87t175 221t62 290q0 158 -96 268q-98 110 -272 109q-135 0 -248 -87t-175 -220q-62 -132 -62 -290t97 -268t271 -110zM721 -25q-270 0 -429 168t-159 437q0 196 94 376q95 180 269 298t383 118
q270 0 429 -168t158 -436q0 -195 -94 -376t-268 -299t-383 -118z" />
    <glyph glyph-name="Otilde" unicode="&#xd5;" horiz-adv-x="1492" 
d="M1162 1485q-87 0 -166 76q-78 75 -118 75t-74 -30t-73 -109l-125 51q41 142 120 224q162 169 343 -5q68 -65 108 -65q39 0 73 30t73 109l125 -51q-41 -141 -120 -223t-166 -82zM741 186q135 0 248 87t175 221t62 290q0 158 -96 268q-98 110 -272 109q-135 0 -248 -87
t-175 -220q-62 -132 -62 -290t97 -268t271 -110zM721 -25q-270 0 -429 168t-159 437q0 196 94 376q95 180 269 298t383 118q270 0 429 -168t158 -436q0 -195 -94 -376t-268 -299t-383 -118z" />
    <glyph glyph-name="Odieresis" unicode="&#xd6;" horiz-adv-x="1492" 
d="M958 1655q0 -61 -45 -105t-105 -43q-60 0 -105 43q-44 42 -44 104q-1 62 45 105t106 43t104 -43t44 -104zM1380 1655q0 -61 -45 -105t-105 -43q-60 0 -105 43q-44 42 -44 104t45 105q46 43 106 43t104 -43t44 -104zM741 186q135 0 248 87t175 221t62 290q0 158 -96 268
q-98 110 -272 109q-135 0 -248 -87t-175 -220q-62 -132 -62 -290t97 -268t271 -110zM721 -25q-270 0 -429 168t-159 437q0 196 94 376q95 180 269 298t383 118q270 0 429 -168t158 -436q0 -195 -94 -376t-268 -299t-383 -118z" />
    <glyph glyph-name="multiply" unicode="&#xd7;" horiz-adv-x="950" 
d="M389 944l160 -227l256 219l108 -141l-262 -224l168 -235l-151 -119l-162 227l-258 -219l-109 142l262 225l-163 233z" />
    <glyph glyph-name="Oslash" unicode="&#xd8;" horiz-adv-x="1492" 
d="M740 186q146 0 260 87q112 87 174 221t63 276q0 82 -27 158l-714 -647q98 -95 244 -95zM882 1161q-150 0 -262 -87t-174 -220q-62 -134 -63 -252q0 -118 31 -199l719 656q-102 102 -251 102zM718 -25q-226 0 -388 146l-164 -150l-117 131l172 158q-78 139 -78 329
q-1 191 93 369t267 296t380 118q254 0 413 -153l174 155l117 -133l-182 -166q72 -137 72 -323q-1 -186 -95 -365q-94 -180 -266 -296t-398 -116z" />
    <glyph glyph-name="Ugrave" unicode="&#xd9;" horiz-adv-x="1415" 
d="M678 1780q0 52 32 85q32 32 72 31q76 0 117 -88l137 -305l-80 -53l-233 233q-45 45 -45 97zM668 -25q-224 0 -340 110t-117 298q0 80 29 199l129 559h-158l47 207h543l-47 -207h-154l-131 -570q-25 -102 -25 -165q0 -220 242 -220t309 297l152 658h-178l47 207h543
l-48 -207h-139l-155 -676q-59 -248 -193 -369q-132 -121 -356 -121z" />
    <glyph glyph-name="Uacute" unicode="&#xda;" horiz-adv-x="1415" 
d="M1230 1894q52 0 81 -30t28 -72q0 -72 -73 -119l-324 -192l-63 73l251 285q48 55 100 55zM668 -25q-224 0 -340 110t-117 298q0 80 29 199l129 559h-158l47 207h543l-47 -207h-154l-131 -570q-25 -102 -25 -165q0 -220 242 -220t309 297l152 658h-178l47 207h543l-48 -207
h-139l-155 -676q-59 -248 -193 -369q-132 -121 -356 -121z" />
    <glyph glyph-name="Ucircumflex" unicode="&#xdb;" horiz-adv-x="1415" 
d="M690 1475l-84 110l441 357l262 -367l-109 -94l-196 205zM668 -25q-224 0 -340 110t-117 298q0 80 29 199l129 559h-158l47 207h543l-47 -207h-154l-131 -570q-25 -102 -25 -165q0 -220 242 -220t309 297l152 658h-178l47 207h543l-48 -207h-139l-155 -676
q-59 -248 -193 -369q-132 -121 -356 -121z" />
    <glyph glyph-name="Udieresis" unicode="&#xdc;" horiz-adv-x="1415" 
d="M775 1507q-60 0 -104 43q-44 42 -44 104t45 105t105 43q61 0 105 -43t44 -104t-45 -105q-46 -43 -106 -43zM1197 1507q-60 0 -104 43q-44 42 -44 104t45 105t105 43q61 0 105 -43t44 -104t-45 -105q-46 -43 -106 -43zM668 -25q-224 0 -340 110t-117 298q0 80 29 199
l129 559h-158l47 207h543l-47 -207h-154l-131 -570q-25 -102 -25 -165q0 -220 242 -220t309 297l152 658h-178l47 207h543l-48 -207h-139l-155 -676q-59 -248 -193 -369q-132 -121 -356 -121z" />
    <glyph glyph-name="Yacute" unicode="&#xdd;" horiz-adv-x="1329" 
d="M1155 1894q51 0 80 -30t29 -72q0 -72 -74 -119l-324 -192l-63 73l252 285q49 55 100 55zM260 0l47 207h156l74 315l-234 619h-129l47 207h510l-47 -207h-141l151 -455l361 455h-144l47 207h541l-47 -207h-121l-573 -662l-64 -272h176l-47 -207h-563z" />
    <glyph glyph-name="Thorn" unicode="&#xde;" horiz-adv-x="1177" 
d="M938 696q0 148 -213 148h-170l-74 -318q119 -8 223 -8t170 48q64 48 64 130zM780 1032q207 0 314 -110q80 -84 80 -209q0 -181 -134 -283t-370 -102q-123 0 -234 8l-30 -135h178l-45 -201h-553l47 207h143l217 934h-164l47 207h555l-47 -201h-157l-27 -115h180z" />
    <glyph glyph-name="germandbls" unicode="&#xdf;" horiz-adv-x="1196" 
d="M764 -12q-123 0 -200 61t-77 141q0 52 36 88t82 36t80 -34t34 -66t-10 -58q15 -4 71 -4t96 36t40 90q0 52 -28 88t-86 89t-86 84t-54 85q-27 54 -27 111t29 105q28 48 56 72t83 65t80 61t49 60t24 90q0 51 -47 92t-129 41t-145 -61t-90 -179l-248 -1081h-221l162 709
h-158l49 188h152l47 203q39 186 154 301q116 115 304 115t288 -94q102 -94 102 -256t-195 -292q-129 -84 -129 -137q0 -33 26 -67t84 -84q58 -51 88 -86t56 -92t27 -121q1 -125 -95 -212t-274 -87z" />
    <glyph glyph-name="agrave" unicode="&#xe0;" horiz-adv-x="1185" 
d="M416 1320q0 52 31 84q32 32 73 32q76 0 117 -88l137 -306l-80 -53l-233 234q-45 45 -45 97zM752 524q0 191 -177 191q-111 1 -191 -105t-79 -245q0 -83 42 -137t120 -54q113 0 199 104t86 246zM360 -16q-128 0 -208 96t-80 252q0 233 137 407t330 174q83 0 153 -59
t99 -141l61 184h209l-154 -610q-16 -61 -16 -97q0 -55 45 -55q61 0 115 148l90 -35q-78 -264 -275 -264q-86 0 -135 55t-49 147q-136 -202 -322 -202z" />
    <glyph glyph-name="aacute" unicode="&#xe1;" horiz-adv-x="1185" 
d="M680 1020l-64 74l252 284q48 56 100 56t81 -31t28 -72q0 -72 -73 -119zM752 524q0 191 -177 191q-111 1 -191 -105t-79 -245q0 -83 42 -137t120 -54q113 0 199 104t86 246zM360 -16q-128 0 -208 96t-80 252q0 233 137 407t330 174q83 0 153 -59t99 -141l61 184h209
l-154 -610q-16 -61 -16 -97q0 -55 45 -55q61 0 115 148l90 -35q-78 -264 -275 -264q-86 0 -135 55t-49 147q-136 -202 -322 -202z" />
    <glyph glyph-name="acircumflex" unicode="&#xe2;" horiz-adv-x="1185" 
d="M430 1014l-84 110l440 357l263 -367l-109 -94l-197 205zM752 524q0 191 -177 191q-111 1 -191 -105t-79 -245q0 -83 42 -137t120 -54q113 0 199 104t86 246zM360 -16q-128 0 -208 96t-80 252q0 233 137 407t330 174q83 0 153 -59t99 -141l61 184h209l-154 -610
q-16 -61 -16 -97q0 -55 45 -55q61 0 115 148l90 -35q-78 -264 -275 -264q-86 0 -135 55t-49 147q-136 -202 -322 -202z" />
    <glyph glyph-name="atilde" unicode="&#xe3;" horiz-adv-x="1185" 
d="M867 1024q-87 0 -166 76t-119 76t-73 -30q-34 -30 -73 -110l-125 51q41 141 120 223t166 83q87 0 166 -76t119 -76t74 30t72 109l125 -51q-41 -141 -120 -223t-166 -82zM752 524q0 191 -177 191q-111 1 -191 -105t-79 -245q0 -83 42 -137t120 -54q113 0 199 104t86 246z
M360 -16q-128 0 -208 96t-80 252q0 233 137 407t330 174q83 0 153 -59t99 -141l61 184h209l-154 -610q-16 -61 -16 -97q0 -55 45 -55q61 0 115 148l90 -35q-78 -264 -275 -264q-86 0 -135 55t-49 147q-136 -202 -322 -202z" />
    <glyph glyph-name="adieresis" unicode="&#xe4;" horiz-adv-x="1185" 
d="M664 1194q0 -61 -46 -104t-105 -43q-60 0 -104 43t-44 104t45 104t105 43q61 0 105 -43t44 -104zM935 1047q-60 0 -105 43q-44 43 -44 104t45 104t105 43t105 -43q44 -43 44 -104t-45 -104t-105 -43zM752 524q0 191 -177 191q-111 1 -191 -105t-79 -245q0 -83 42 -137
t120 -54q113 0 199 104t86 246zM360 -16q-128 0 -208 96t-80 252q0 233 137 407t330 174q83 0 153 -59t99 -141l61 184h209l-154 -610q-16 -61 -16 -97q0 -55 45 -55q61 0 115 148l90 -35q-78 -264 -275 -264q-86 0 -135 55t-49 147q-136 -202 -322 -202z" />
    <glyph glyph-name="aring" unicode="&#xe5;" horiz-adv-x="1185" 
d="M649 1281q0 -110 90 -110q45 -1 80 45t35 96t-23 80t-67 30t-80 -46q-35 -45 -35 -95zM752 524q0 191 -177 191q-111 1 -191 -105t-79 -245q0 -83 42 -137t120 -54q113 0 199 104t86 246zM729 1028q-117 0 -181 68t-65 178q0 110 87 200q87 91 204 91q118 0 182 -68
q64 -67 64 -177t-87 -201t-204 -91zM360 -16q-128 0 -208 96t-80 252q0 233 137 407t330 174q83 0 153 -59t99 -141l61 184h209l-154 -610q-16 -61 -16 -97q0 -55 45 -55q61 0 115 148l90 -35q-78 -264 -275 -264q-86 0 -135 55t-49 147q-136 -202 -322 -202z" />
    <glyph glyph-name="ae" unicode="&#xe6;" horiz-adv-x="1656" 
d="M1217 729q-83 0 -147 -53t-95 -148h399q8 31 8 62q1 139 -165 139zM260 252q0 -84 114 -84t211 57t132 156h-158q-299 0 -299 -129zM948 373v-15q0 -80 66 -134t198 -54t285 80l-43 -205q-128 -61 -276 -61t-245 64t-132 181q-70 -115 -189 -181t-253 -64q-134 0 -221 66
t-87 165q0 152 123 235t324 82h233q-16 100 -86 162t-160 62q-22 0 -47 -6q4 -16 4 -29q0 -47 -34 -81t-85 -34q-52 0 -84 36t-32 91q0 94 108 148q71 33 191 33t216 -66q95 -66 128 -184q45 106 150 178t225 71q166 0 269 -91t103 -255q1 -90 -32 -194h-617z" />
    <glyph glyph-name="ccedilla" unicode="&#xe7;" horiz-adv-x="999" 
d="M354 -410q-126 0 -241 88l41 64q96 -55 198 -55q31 0 54 15t22 36q0 66 -133 51l-31 51l103 162q-135 39 -216 140t-81 249q0 217 157 370q158 153 377 152q139 0 238 -74q98 -75 98 -192q0 -68 -37 -115t-95 -47t-96 38t-38 87t31 90q-39 27 -107 27q-115 0 -208 -82
t-93 -237q0 -110 67 -174t168 -64q158 0 304 100l-2 -198q-129 -88 -316 -88q-27 0 -72 4l-16 -82q90 -12 140 -54t50 -110t-70 -110t-196 -42z" />
    <glyph glyph-name="egrave" unicode="&#xe8;" horiz-adv-x="1003" 
d="M557 729q-84 0 -147 -53t-97 -148h402q8 31 8 62q0 139 -166 139zM467 1436q76 0 117 -88l137 -306l-80 -53l-233 234q-46 45 -46 97t32 84t73 32zM289 373v-15q-1 -80 65 -134t199 -54t285 80l-43 -205q-129 -61 -305 -61t-299 103q-124 103 -123 282q0 227 141 386
t344 158q173 0 279 -91t106 -255q0 -90 -33 -194h-616z" />
    <glyph glyph-name="eacute" unicode="&#xe9;" horiz-adv-x="1003" 
d="M557 729q-84 0 -147 -53t-97 -148h402q8 31 8 62q0 139 -166 139zM1024 1331q0 -72 -74 -119l-323 -192l-64 74l252 284q49 56 101 56t80 -31t28 -72zM289 373v-15q-1 -80 65 -134t199 -54t285 80l-43 -205q-129 -61 -305 -61t-299 103q-124 103 -123 282q0 227 141 386
t344 158q173 0 279 -91t106 -255q0 -90 -33 -194h-616z" />
    <glyph glyph-name="ecircumflex" unicode="&#xea;" horiz-adv-x="1003" 
d="M557 729q-84 0 -147 -53t-97 -148h402q8 31 8 62q0 139 -166 139zM377 1014l-84 110l440 357l262 -367l-108 -94l-197 205zM289 373v-15q-1 -80 65 -134t199 -54t285 80l-43 -205q-129 -61 -305 -61t-299 103q-124 103 -123 282q0 227 141 386t344 158q173 0 279 -91
t106 -255q0 -90 -33 -194h-616z" />
    <glyph glyph-name="edieresis" unicode="&#xeb;" horiz-adv-x="1003" 
d="M557 729q-84 0 -147 -53t-97 -148h402q8 31 8 62q0 139 -166 139zM882 1047q-60 0 -105 43q-44 43 -44 104t45 104q46 43 106 43t104 -43t44 -104t-45 -104t-105 -43zM460 1047q-60 0 -105 43q-44 43 -44 104t45 104q46 43 106 43t104 -43t44 -104t-45 -104t-105 -43z
M289 373v-15q-1 -80 65 -134t199 -54t285 80l-43 -205q-129 -61 -305 -61t-299 103q-124 103 -123 282q0 227 141 386t344 158q173 0 279 -91t106 -255q0 -90 -33 -194h-616z" />
    <glyph glyph-name="igrave" unicode="&#xec;" horiz-adv-x="661" 
d="M156 1320q0 52 31 84q32 32 73 32q76 0 117 -88l137 -306l-80 -53l-233 234q-45 45 -45 97zM333 -16q-99 0 -151 53q-51 53 -51 147q0 47 12 101l105 424h-162l49 188h389l-153 -610q-14 -55 -15 -94q0 -57 50 -58q68 0 120 148l90 -35q-43 -147 -113 -206
q-71 -58 -170 -58z" />
    <glyph glyph-name="iacute" unicode="&#xed;" horiz-adv-x="661" 
d="M817 1331q0 -72 -74 -119l-323 -192l-64 74l252 284q48 56 100 56t80 -31t29 -72zM333 -16q-99 0 -151 53q-51 53 -51 147q0 47 12 101l105 424h-162l49 188h389l-153 -610q-14 -55 -15 -94q0 -57 50 -58q68 0 120 148l90 -35q-43 -147 -113 -206q-71 -58 -170 -58z" />
    <glyph glyph-name="icircumflex" unicode="&#xee;" horiz-adv-x="661" 
d="M168 1014l-84 110l440 357l262 -367l-108 -94l-197 205zM333 -16q-99 0 -151 53q-51 53 -51 147q0 47 12 101l105 424h-162l49 188h389l-153 -610q-14 -55 -15 -94q0 -57 50 -58q68 0 120 148l90 -35q-43 -147 -113 -206q-71 -58 -170 -58z" />
    <glyph glyph-name="idieresis" unicode="&#xef;" horiz-adv-x="661" 
d="M253 1047q-60 0 -105 43q-44 43 -44 104t46 104t105 43q60 0 104 -43t44 -104t-45 -104t-105 -43zM675 1047q-60 0 -105 43q-44 43 -44 104t45 104t105 43t105 -43q44 -43 44 -104t-45 -104t-105 -43zM333 -16q-99 0 -151 53q-51 53 -51 147q0 47 12 101l105 424h-162
l49 188h389l-153 -610q-14 -55 -15 -94q0 -57 50 -58q68 0 120 148l90 -35q-43 -147 -113 -206q-71 -58 -170 -58z" />
    <glyph glyph-name="eth" unicode="&#xf0;" horiz-adv-x="1136" 
d="M510 168q106 0 194 83t88 195t-58 174q-60 62 -170 62t-194 -89q-83 -89 -83 -195t58 -169q59 -61 165 -61zM508 -16q-200 0 -321 113q-119 114 -119 295q0 182 142 330t327 148q229 0 307 -202q4 53 4 86q0 188 -78 348l-168 -148l-108 117l186 164q-63 72 -129 88
q-37 -90 -125 -90q-53 0 -92 39t-39 95t47 102t143 47q182 0 334 -158l178 158l109 -117l-188 -166q127 -215 126 -535q0 -379 -194 -573q-142 -141 -342 -141z" />
    <glyph glyph-name="ntilde" unicode="&#xf1;" horiz-adv-x="1173" 
d="M900 1024q-87 0 -166 76t-119 76q-39 0 -73 -30t-73 -110l-125 51q41 141 120 223t166 83q87 0 166 -76q78 -76 118 -76t74 30t73 109l125 -51q-41 -141 -120 -223t-166 -82zM868 -16q-102 0 -155 54t-53 126t14 121l67 241q11 33 11 82t-33 83t-90 34q-143 0 -193 -201
l-131 -524h-229l178 709h-164l49 188h350l-45 -207q48 92 134 158t180 66t161 -72q67 -70 66 -197q0 -74 -22 -149l-66 -236q-10 -41 -10 -63q0 -61 47 -62q61 0 115 148l90 -35q-76 -264 -271 -264z" />
    <glyph glyph-name="ograve" unicode="&#xf2;" horiz-adv-x="1069" 
d="M395 1320q0 52 32 84t73 32q76 0 116 -88l138 -306l-80 -53l-234 234q-45 45 -45 97zM512 170q100 0 180 96t80 220t-57 182t-158 59q-101 0 -181 -96t-79 -220q0 -124 57 -183q58 -58 158 -58zM503 -16q-206 0 -320 118t-113 289q0 207 145 365t351 158t320 -120
q114 -118 113 -288q0 -206 -145 -364t-351 -158z" />
    <glyph glyph-name="oacute" unicode="&#xf3;" horiz-adv-x="1069" 
d="M1057 1331q0 -72 -74 -119l-324 -192l-63 74l252 284q49 56 100 56t80 -31t29 -72zM512 170q100 0 180 96t80 220t-57 182t-158 59q-101 0 -181 -96t-79 -220q0 -124 57 -183q58 -58 158 -58zM503 -16q-206 0 -320 118t-113 289q0 207 145 365t351 158t320 -120
q114 -118 113 -288q0 -206 -145 -364t-351 -158z" />
    <glyph glyph-name="ocircumflex" unicode="&#xf4;" horiz-adv-x="1069" 
d="M410 1014l-84 110l440 357l262 -367l-108 -94l-197 205zM512 170q100 0 180 96t80 220t-57 182t-158 59q-101 0 -181 -96t-79 -220q0 -124 57 -183q58 -58 158 -58zM503 -16q-206 0 -320 118t-113 289q0 207 145 365t351 158t320 -120q114 -118 113 -288
q0 -206 -145 -364t-351 -158z" />
    <glyph glyph-name="otilde" unicode="&#xf5;" horiz-adv-x="1069" 
d="M847 1024q-87 0 -166 76t-119 76t-74 -30t-72 -110l-125 51q41 141 120 223t165 83q86 0 166 -76t120 -76t73 30q34 30 73 109l125 -51q-41 -141 -120 -223t-166 -82zM512 170q100 0 180 96t80 220t-57 182t-158 59q-101 0 -181 -96t-79 -220q0 -124 57 -183
q58 -58 158 -58zM503 -16q-206 0 -320 118t-113 289q0 207 145 365t351 158t320 -120q114 -118 113 -288q0 -206 -145 -364t-351 -158z" />
    <glyph glyph-name="odieresis" unicode="&#xf6;" horiz-adv-x="1069" 
d="M493 1047q-60 0 -105 43q-44 43 -44 104t45 104t105 43t105 -43q44 -43 44 -104t-45 -104t-105 -43zM1065 1194q1 -61 -45 -104t-106 -43t-104 43t-44 104t45 104t105 43t105 -43q44 -43 44 -104zM512 170q100 0 180 96t80 220t-57 182t-158 59q-101 0 -181 -96t-79 -220
q0 -124 57 -183q58 -58 158 -58zM503 -16q-206 0 -320 118t-113 289q0 207 145 365t351 158t320 -120q114 -118 113 -288q0 -206 -145 -364t-351 -158z" />
    <glyph glyph-name="divide" unicode="&#xf7;" horiz-adv-x="950" 
d="M313 270q0 54 41 94q42 40 96 40t94 -40q40 -38 40 -94t-42 -94q-42 -39 -95 -39q-54 0 -94 39t-40 94zM589 756q-54 0 -94 39t-40 94t41 94t95 39t94 -39t40 -94t-41 -94t-95 -39zM125 485l45 189h737l-45 -189h-737z" />
    <glyph glyph-name="oslash" unicode="&#xf8;" horiz-adv-x="1118" 
d="M524 170q115 0 196 96t81 240q0 35 -6 61l-385 -366q48 -31 114 -31zM317 391q0 -49 13 -86l395 379q-55 43 -131 43q-115 -1 -196 -97t-81 -239zM516 -16q-147 0 -252 69l-145 -141l-111 113l148 139q-66 100 -66 227q0 207 148 365t364 157q158 0 266 -82l158 152
l111 -113l-164 -155q55 -96 55 -209q0 -207 -147 -365q-148 -157 -365 -157z" />
    <glyph glyph-name="ugrave" unicode="&#xf9;" horiz-adv-x="1175" 
d="M428 1320q0 52 32 84t72 32q76 0 117 -88l137 -306l-79 -53l-234 234q-45 45 -45 97zM385 299q0 -127 111 -127q80 0 127 49t71 152l131 524h230l-154 -610q-16 -61 -16 -97q0 -55 45 -55q61 0 114 148l91 -35q-78 -264 -275 -264q-86 0 -135 53t-51 145
q-55 -92 -135 -145t-168 -53t-154 68t-65 179q0 72 22 168l76 310h-162l49 188h389l-129 -518q-12 -57 -12 -80z" />
    <glyph glyph-name="uacute" unicode="&#xfa;" horiz-adv-x="1175" 
d="M1090 1331q0 -72 -74 -119l-324 -192l-63 74l252 284q49 56 100 56t80 -31t29 -72zM385 299q0 -127 111 -127q80 0 127 49t71 152l131 524h230l-154 -610q-16 -61 -16 -97q0 -55 45 -55q61 0 114 148l91 -35q-78 -264 -275 -264q-86 0 -135 53t-51 145q-55 -92 -135 -145
t-168 -53t-154 68t-65 179q0 72 22 168l76 310h-162l49 188h389l-129 -518q-12 -57 -12 -80z" />
    <glyph glyph-name="ucircumflex" unicode="&#xfb;" horiz-adv-x="1175" 
d="M440 1014l-84 110l441 357l262 -367l-109 -94l-196 205zM385 299q0 -127 111 -127q80 0 127 49t71 152l131 524h230l-154 -610q-16 -61 -16 -97q0 -55 45 -55q61 0 114 148l91 -35q-78 -264 -275 -264q-86 0 -135 53t-51 145q-55 -92 -135 -145t-168 -53t-154 68t-65 179
q0 72 22 168l76 310h-162l49 188h389l-129 -518q-12 -57 -12 -80z" />
    <glyph glyph-name="udieresis" unicode="&#xfc;" horiz-adv-x="1175" 
d="M1098 1194q0 -61 -46 -104t-105 -43q-60 0 -104 43t-44 104t45 104t105 43q61 0 105 -43t44 -104zM676 1194q0 -61 -46 -104t-105 -43q-60 0 -104 43t-44 104t45 104t105 43q61 0 105 -43t44 -104zM385 299q0 -127 111 -127q80 0 127 49t71 152l131 524h230l-154 -610
q-16 -61 -16 -97q0 -55 45 -55q61 0 114 148l91 -35q-78 -264 -275 -264q-86 0 -135 53t-51 145q-55 -92 -135 -145t-168 -53t-154 68t-65 179q0 72 22 168l76 310h-162l49 188h389l-129 -518q-12 -57 -12 -80z" />
    <glyph glyph-name="yacute" unicode="&#xfd;" horiz-adv-x="1026" 
d="M604 1020l-63 74l252 284q49 56 100 56t80 -31t28 -72q0 -72 -73 -119zM-12 -410q-80 0 -128 44t-48 102t37 95q39 36 85 36t78 -24t45 -60q35 4 99 64q63 60 188 208l-135 654h-152l49 188h293l107 -670q223 293 258 416q-88 37 -88 131q0 59 41 99t109 40t110 -50
q43 -50 43 -136q0 -207 -385 -674q-166 -203 -282 -306t-180 -130t-144 -27z" />
    <glyph glyph-name="thorn" unicode="&#xfe;" horiz-adv-x="1099" 
d="M330 371q0 -189 194 -189q102 0 186 104q83 104 83 244q0 84 -45 138t-127 55q-117 -1 -204 -105t-87 -247zM717 913q153 0 231 -95t78 -257q0 -237 -138 -407t-339 -170q-92 0 -162 57t-94 133l-90 -391h159l-49 -184h-512l49 184h130l352 1528h-168l49 188h383
l-174 -760q57 76 135 125t160 49z" />
    <glyph glyph-name="ydieresis" unicode="&#xff;" horiz-adv-x="1026" 
d="M1010 1194q0 -61 -46 -104t-105 -43q-60 0 -104 43t-44 104t45 104t105 43q61 0 105 -43t44 -104zM588 1194q0 -61 -46 -104t-105 -43q-60 0 -104 43t-44 104t45 104t105 43q61 0 105 -43t44 -104zM-12 -410q-80 0 -128 44t-48 102t37 95q39 36 85 36t78 -24t45 -60
q35 4 99 64q63 60 188 208l-135 654h-152l49 188h293l107 -670q223 293 258 416q-88 37 -88 131q0 59 41 99t109 40t110 -50q43 -50 43 -136q0 -207 -385 -674q-166 -203 -282 -306t-180 -130t-144 -27z" />
    <glyph glyph-name="Amacron" unicode="&#x100;" horiz-adv-x="1437" 
d="M653 1536l41 178h676l-41 -178h-676zM578 618h380l-63 541zM-57 0l49 207h121l549 936h-162l47 205h758l-48 -205h-149l115 -936h137l-49 -207h-502l47 205h152l-27 221h-516l-129 -221h182l-47 -205h-528z" />
    <glyph glyph-name="amacron" unicode="&#x101;" horiz-adv-x="1185" 
d="M360 1075l41 178h676l-41 -178h-676zM752 524q0 191 -177 191q-111 1 -191 -105t-79 -245q0 -83 42 -137t120 -54q113 0 199 104t86 246zM360 -16q-128 0 -208 96t-80 252q0 233 137 407t330 174q83 0 153 -59t99 -141l61 184h209l-154 -610q-16 -61 -16 -97
q0 -55 45 -55q61 0 115 148l90 -35q-78 -264 -275 -264q-86 0 -135 55t-49 147q-136 -202 -322 -202z" />
    <glyph glyph-name="Abreve" unicode="&#x102;" horiz-adv-x="1437" 
d="M983 1489q-127 0 -208 95t-85 278l137 43q29 -115 74 -168t119 -53t137 48q63 50 139 169l121 -54q-75 -180 -191 -269t-243 -89zM578 618h380l-63 541zM-57 0l49 207h121l549 936h-162l47 205h758l-48 -205h-149l115 -936h137l-49 -207h-502l47 205h152l-27 221h-516
l-129 -221h182l-47 -205h-528z" />
    <glyph glyph-name="abreve" unicode="&#x103;" horiz-adv-x="1185" 
d="M692 1028q-127 0 -208 95t-85 278l138 43q29 -115 73 -168t119 -53q74 0 137 49t140 168l120 -54q-74 -180 -190 -269t-244 -89zM752 524q0 191 -177 191q-111 1 -191 -105t-79 -245q0 -83 42 -137t120 -54q113 0 199 104t86 246zM360 -16q-128 0 -208 96t-80 252
q0 233 137 407t330 174q83 0 153 -59t99 -141l61 184h209l-154 -610q-16 -61 -16 -97q0 -55 45 -55q61 0 115 148l90 -35q-78 -264 -275 -264q-86 0 -135 55t-49 147q-136 -202 -322 -202z" />
    <glyph glyph-name="Aogonek" unicode="&#x104;" horiz-adv-x="1437" 
d="M578 618h380l-63 541zM1024 -172q0 -66 80 -66q57 0 115 17l-35 -137q-70 -54 -161 -54t-145 45t-55 125q0 125 144 242h-158l47 205h152l-27 221h-516l-129 -221h182l-47 -205h-528l49 207h121l549 936h-162l47 205h758l-48 -205h-149l115 -936h137l-49 -207h-164
q-123 -100 -123 -172z" />
    <glyph glyph-name="aogonek" unicode="&#x105;" horiz-adv-x="1185" 
d="M752 524q0 191 -177 191q-111 1 -191 -105t-79 -245q0 -83 42 -137t120 -54q113 0 199 104t86 246zM72 332q0 233 137 407t330 174q83 0 153 -59t99 -141l61 184h209l-154 -610q-16 -61 -16 -105t41 -45q66 0 119 146l90 -35q-45 -144 -127 -216q-36 -32 -76 -63
q-39 -31 -56 -47q-49 -46 -51 -94q0 -66 80 -66q57 0 115 17l-35 -137q-70 -54 -161 -54t-145 45t-54 125q0 137 155 242q-104 41 -104 186q-135 -203 -322 -202q-128 0 -208 96t-80 252z" />
    <glyph glyph-name="Cacute" unicode="&#x106;" horiz-adv-x="1372" 
d="M1228 1894q52 0 81 -30t28 -72q0 -72 -73 -119l-324 -192l-63 73l251 285q48 55 100 55zM715 -25q-248 0 -414 159t-166 433q0 330 226 568t548 237q203 0 343 -103t141 -243q0 -72 -45 -124q-44 -52 -108 -52t-105 42t-41 99t39 96q-19 29 -83 51t-147 21
q-211 0 -369 -168t-159 -409q0 -176 96 -285t262 -109q201 0 369 174l143 -139q-215 -248 -530 -248z" />
    <glyph glyph-name="cacute" unicode="&#x107;" horiz-adv-x="999" 
d="M1047 1331q0 -72 -74 -119l-324 -192l-63 74l252 284q49 56 100 56t80 -31t29 -72zM514 -16q-190 0 -318 110q-126 110 -126 312t157 355q158 153 377 152q139 0 238 -74q98 -75 98 -192q0 -68 -37 -115t-95 -47t-96 38t-38 87t31 90q-39 27 -107 27q-115 0 -208 -82
t-93 -237q0 -110 67 -174t168 -64q158 0 304 100l-2 -198q-130 -88 -320 -88z" />
    <glyph glyph-name="Cdotaccent" unicode="&#x10a;" horiz-adv-x="1372" 
d="M988 1507q-60 0 -104 43q-44 42 -44 104t45 105t105 43t104 -43t45 -104q0 -61 -45 -105q-46 -43 -106 -43zM715 -25q-248 0 -414 159t-166 433q0 330 226 568t548 237q203 0 343 -103t141 -243q0 -72 -45 -124q-44 -52 -108 -52t-105 42t-41 99t39 96q-19 29 -83 51
t-147 21q-211 0 -369 -168t-159 -409q0 -176 96 -285t262 -109q201 0 369 174l143 -139q-215 -248 -530 -248z" />
    <glyph glyph-name="cdotaccent" unicode="&#x10b;" horiz-adv-x="999" 
d="M846 1194q0 -61 -46 -104t-105 -43q-60 0 -104 43t-44 104t45 104t105 43q61 0 105 -43t44 -104zM514 -16q-190 0 -318 110q-126 110 -126 312t157 355q158 153 377 152q139 0 238 -74q98 -75 98 -192q0 -68 -37 -115t-95 -47t-96 38t-38 87t31 90q-39 27 -107 27
q-115 0 -208 -82t-93 -237q0 -110 67 -174t168 -64q158 0 304 100l-2 -198q-130 -88 -320 -88z" />
    <glyph glyph-name="Ccaron" unicode="&#x10c;" horiz-adv-x="1372" 
d="M946 1456l-262 367l109 94l194 -205l316 211l83 -111zM715 -25q-248 0 -414 159t-166 433q0 330 226 568t548 237q203 0 343 -103t141 -243q0 -72 -45 -124q-44 -52 -108 -52t-105 42t-41 99t39 96q-19 29 -83 51t-147 21q-211 0 -369 -168t-159 -409q0 -176 96 -285
t262 -109q201 0 369 174l143 -139q-215 -248 -530 -248z" />
    <glyph glyph-name="ccaron" unicode="&#x10d;" horiz-adv-x="999" 
d="M653 995l-262 367l109 94l194 -205l316 211l84 -110zM514 -16q-190 0 -318 110q-126 110 -126 312t157 355q158 153 377 152q139 0 238 -74q98 -75 98 -192q0 -68 -37 -115t-95 -47t-96 38t-38 87t31 90q-39 27 -107 27q-115 0 -208 -82t-93 -237q0 -110 67 -174t168 -64
q158 0 304 100l-2 -198q-130 -88 -320 -88z" />
    <glyph glyph-name="Dcaron" unicode="&#x10e;" horiz-adv-x="1415" 
d="M874 1456l-262 367l109 94l194 -205l316 211l84 -111zM543 207q159 0 269 41t200 131q150 150 149 371q0 166 -102 268q-123 123 -367 123h-67l-217 -934h135zM717 1348q344 0 532 -189q152 -152 152 -399q0 -305 -215 -520q-240 -240 -676 -240h-524l47 207h143l217 934
h-164l47 207h441z" />
    <glyph glyph-name="dcaron" unicode="&#x10f;" horiz-adv-x="1183" 
d="M1427 1571q53 0 85 -35q32 -36 32 -96q0 -162 -272 -406q-54 -49 -60 -55l-59 51q96 113 123 223q6 27 9 102t18 122q31 94 124 94zM752 524q0 191 -177 191q-111 1 -191 -105t-79 -245q0 -83 42 -137t120 -54q113 0 199 104t86 246zM72 332q0 233 137 407t330 174
q85 0 151 -57t96 -135l138 590h-166l49 188h385l-283 -1212q-16 -70 -16 -97q0 -55 45 -55q61 0 115 148l90 -35q-78 -264 -277 -264q-86 0 -135 55t-49 147q-135 -203 -322 -202q-128 0 -208 96t-80 252z" />
    <glyph glyph-name="Dcroat" unicode="&#x110;" horiz-adv-x="1415" 
d="M543 207q159 0 269 41t200 131q150 150 149 371q0 166 -102 268q-123 123 -367 123h-67l-84 -359h284l-43 -186h-284l-90 -389h135zM717 1348q344 0 532 -189q152 -152 152 -399q0 -305 -215 -520q-240 -240 -676 -240h-524l47 207h143l90 389h-170l43 186h170l84 359
h-164l47 207h441z" />
    <glyph glyph-name="dcroat" unicode="&#x111;" horiz-adv-x="1183" 
d="M752 524q0 191 -177 191q-111 1 -191 -105t-79 -245q0 -83 42 -137t120 -54q113 0 199 104t86 246zM893 190q0 -55 45 -55q61 0 115 148l90 -35q-78 -264 -277 -264q-86 0 -135 55t-49 147q-135 -203 -322 -202q-128 0 -208 96t-80 252q0 233 137 407t330 174
q85 0 151 -57t96 -135l68 289h-295l43 188h295l27 113h-166l49 188h385l-70 -301h154l-43 -188h-156l-168 -723q-16 -70 -16 -97z" />
    <glyph glyph-name="Emacron" unicode="&#x112;" horiz-adv-x="1169" 
d="M502 1536l41 178h676l-41 -178h-676zM-14 0l47 207h143l217 934h-164l47 207h1010l-94 -387h-219l43 182h-391l-84 -361h401l-45 -196h-401l-88 -381h391l47 182h219l-90 -387h-989z" />
    <glyph glyph-name="emacron" unicode="&#x113;" horiz-adv-x="1003" 
d="M557 729q-84 0 -147 -53t-97 -148h402q8 31 8 62q0 139 -166 139zM307 1075l41 178h676l-41 -178h-676zM289 373v-15q-1 -80 65 -134t199 -54t285 80l-43 -205q-129 -61 -305 -61t-299 103q-124 103 -123 282q0 227 141 386t344 158q173 0 279 -91t106 -255
q0 -90 -33 -194h-616z" />
    <glyph glyph-name="Ebreve" unicode="&#x114;" horiz-adv-x="1169" 
d="M832 1489q-127 0 -208 95t-85 278l137 43q29 -115 74 -168q44 -53 118 -53t138 48q64 50 139 169l121 -54q-74 -180 -190 -269t-244 -89zM-14 0l47 207h143l217 934h-164l47 207h1010l-94 -387h-219l43 182h-391l-84 -361h401l-45 -196h-401l-88 -381h391l47 182h219
l-90 -387h-989z" />
    <glyph glyph-name="ebreve" unicode="&#x115;" horiz-adv-x="1003" 
d="M557 729q-84 0 -147 -53t-97 -148h402q8 31 8 62q0 139 -166 139zM639 1028q-127 0 -208 95t-85 278l137 43q29 -115 74 -168t119 -53t137 49t139 168l121 -54q-75 -180 -191 -269t-243 -89zM289 373v-15q-1 -80 65 -134t199 -54t285 80l-43 -205q-129 -61 -305 -61
t-299 103q-124 103 -123 282q0 227 141 386t344 158q173 0 279 -91t106 -255q0 -90 -33 -194h-616z" />
    <glyph glyph-name="Edotaccent" unicode="&#x116;" horiz-adv-x="1169" 
d="M867 1507q-60 0 -104 43q-44 42 -44 104t45 105t105 43q61 0 105 -43t44 -104t-45 -105q-46 -43 -106 -43zM-14 0l47 207h143l217 934h-164l47 207h1010l-94 -387h-219l43 182h-391l-84 -361h401l-45 -196h-401l-88 -381h391l47 182h219l-90 -387h-989z" />
    <glyph glyph-name="edotaccent" unicode="&#x117;" horiz-adv-x="1003" 
d="M557 729q-84 0 -147 -53t-97 -148h402q8 31 8 62q0 139 -166 139zM673 1047q-60 0 -105 43q-44 43 -44 104t45 104t105 43t105 -43q44 -43 44 -104t-45 -104t-105 -43zM289 373v-15q-1 -80 65 -134t199 -54t285 80l-43 -205q-129 -61 -305 -61t-299 103
q-124 103 -123 282q0 227 141 386t344 158q173 0 279 -91t106 -255q0 -90 -33 -194h-616z" />
    <glyph glyph-name="Eogonek" unicode="&#x118;" horiz-adv-x="1169" 
d="M737 -172q0 -66 80 -66q57 0 115 17l-35 -137q-70 -54 -161 -54t-145 45t-54 125q0 125 143 242h-694l47 207h143l217 934h-164l47 207h1010l-94 -387h-219l43 182h-391l-84 -361h401l-45 -196h-401l-88 -381h391l47 182h219l-90 -387h-115q-123 -100 -123 -172z" />
    <glyph glyph-name="eogonek" unicode="&#x119;" horiz-adv-x="1003" 
d="M557 729q-84 0 -147 -53t-97 -148h402q8 31 8 62q0 139 -166 139zM548 -412q-92 0 -146 45t-54 125q0 117 144 226h-3q-174 0 -298 103t-123 282q0 227 141 386t344 158q173 0 279 -91t106 -255q0 -90 -33 -194h-616v-15q-1 -80 65 -134t199 -54t285 80l-43 -205
q-246 -115 -246 -217q0 -66 80 -66q57 0 114 17l-34 -137q-69 -54 -161 -54z" />
    <glyph glyph-name="Ecaron" unicode="&#x11a;" horiz-adv-x="1169" 
d="M825 1456l-262 367l109 94l194 -205l316 211l84 -111zM-14 0l47 207h143l217 934h-164l47 207h1010l-94 -387h-219l43 182h-391l-84 -361h401l-45 -196h-401l-88 -381h391l47 182h219l-90 -387h-989z" />
    <glyph glyph-name="ecaron" unicode="&#x11b;" horiz-adv-x="1003" 
d="M557 729q-84 0 -147 -53t-97 -148h402q8 31 8 62q0 139 -166 139zM631 995l-262 367l108 94l195 -205l315 211l84 -110zM289 373v-15q-1 -80 65 -134t199 -54t285 80l-43 -205q-129 -61 -305 -61t-299 103q-124 103 -123 282q0 227 141 386t344 158q173 0 279 -91
t106 -255q0 -90 -33 -194h-616z" />
    <glyph glyph-name="Gbreve" unicode="&#x11e;" horiz-adv-x="1458" 
d="M981 1489q-127 0 -208 95t-85 278l137 43q29 -115 74 -168t119 -53t137 48q63 50 139 169l121 -54q-75 -180 -191 -269t-243 -89zM641 -25q-207 0 -357 161t-151 405q0 343 239 587t580 244q274 0 414 -139q82 -82 82 -167t-46 -132t-106 -47t-101 42q-42 42 -42 91
t25 88q-55 51 -226 51q-236 0 -408 -171t-171 -435q0 -172 97 -268t232 -97q197 0 336 93l54 221h-342l45 196h575l-164 -698h-186l16 141q-102 -88 -192 -127t-203 -39z" />
    <glyph glyph-name="gbreve" unicode="&#x11f;" horiz-adv-x="1097" 
d="M699 1028q-127 0 -209 95q-81 95 -84 278l137 43q29 -115 73 -168t119 -53q74 0 137 49t140 168l121 -54q-75 -180 -191 -269t-243 -89zM496 209q114 0 194 94t80 232q0 82 -54 131t-136 49q-113 0 -193 -94t-80 -232q-1 -82 53 -131t136 -49zM391 -410q-94 0 -187 32
q-194 67 -196 210q0 61 38 98t91 37t90 -37t37 -79t-10 -58q40 -27 140 -27t160 61q60 60 93 208l35 149q-131 -166 -289 -166q-159 0 -239 96t-80 255q0 221 132 383t337 161q96 0 163 -55t99 -133l57 172h205l-211 -920q-43 -188 -127 -272q-115 -115 -338 -115z" />
    <glyph glyph-name="Gdotaccent" unicode="&#x120;" horiz-adv-x="1458" 
d="M1167 1655q0 -61 -45 -105t-105 -43q-60 0 -105 43q-44 42 -44 104t45 105t105 43t105 -43q44 -43 44 -104zM641 -25q-207 0 -357 161t-151 405q0 343 239 587t580 244q274 0 414 -139q82 -82 82 -167t-46 -132t-106 -47t-101 42q-42 42 -42 91t25 88q-55 51 -226 51
q-236 0 -408 -171t-171 -435q0 -172 97 -268t232 -97q197 0 336 93l54 221h-342l45 196h575l-164 -698h-186l16 141q-102 -88 -192 -127t-203 -39z" />
    <glyph glyph-name="gdotaccent" unicode="&#x121;" horiz-adv-x="1097" 
d="M883 1194q1 -61 -45 -104t-106 -43t-104 43t-44 104t45 104t105 43t104 -43t45 -104zM496 209q114 0 194 94t80 232q0 82 -54 131t-136 49q-113 0 -193 -94t-80 -232q-1 -82 53 -131t136 -49zM391 -410q-94 0 -187 32q-194 67 -196 210q0 61 38 98t91 37t90 -37t37 -79
t-10 -58q40 -27 140 -27t160 61q60 60 93 208l35 149q-131 -166 -289 -166q-159 0 -239 96t-80 255q0 221 132 383t337 161q96 0 163 -55t99 -133l57 172h205l-211 -920q-43 -188 -127 -272q-115 -115 -338 -115z" />
    <glyph glyph-name="Gcommaaccent" unicode="&#x122;" horiz-adv-x="1458" 
d="M608 -92q56 0 98 -42t42 -110q0 -98 -110 -207t-276 -172l-38 76q112 66 166 120t61 83q-77 40 -79 128q0 42 39 83q40 41 97 41zM641 -25q-207 0 -357 161t-151 405q0 343 239 587t580 244q274 0 414 -139q82 -82 82 -167t-46 -132t-106 -47t-101 42q-42 42 -42 91
t25 88q-55 51 -226 51q-236 0 -408 -171t-171 -435q0 -172 97 -268t232 -97q197 0 336 93l54 221h-342l45 196h575l-164 -698h-186l16 141q-102 -88 -192 -127t-203 -39z" />
    <glyph glyph-name="gcommaaccent" unicode="&#x123;" horiz-adv-x="1097" 
d="M713 1028q-57 0 -99 42q-41 42 -41 110q-1 98 109 207t276 172l39 -76q-113 -66 -167 -120t-60 -83q78 -40 80 -128q0 -42 -40 -83t-97 -41zM496 209q114 0 194 94t80 232q0 82 -54 131t-136 49q-113 0 -193 -94t-80 -232q-1 -82 53 -131t136 -49zM391 -410
q-94 0 -187 32q-194 67 -196 210q0 61 38 98t91 37t90 -37t37 -79t-10 -58q40 -27 140 -27t160 61q60 60 93 208l35 149q-131 -166 -289 -166q-159 0 -239 96t-80 255q0 221 132 383t337 161q96 0 163 -55t99 -133l57 172h205l-211 -920q-43 -188 -127 -272
q-115 -115 -338 -115z" />
    <glyph glyph-name="Hbar" unicode="&#x126;" horiz-adv-x="1531" 
d="M530 741h613l26 119h-612zM1559 1030l-39 -170h-117l-152 -653h164l-47 -207h-553l47 207h158l78 332h-613l-77 -332h178l-47 -207h-553l47 207h143l152 653h-115l39 170h115l28 121h-164l45 197h553l-45 -197h-157l-29 -121h612l29 121h-178l45 197h553l-45 -197h-144
l-28 -121h117z" />
    <glyph glyph-name="hbar" unicode="&#x127;" horiz-adv-x="1118" 
d="M706 913q90 -1 159 -71t69 -197q0 -74 -23 -149l-65 -236q-10 -41 -10 -63q0 -61 47 -62q61 0 114 148l90 -35q-76 -264 -270 -264q-102 0 -155 54q-54 54 -54 126t15 121l67 241q10 33 10 82t-32 83q-33 34 -90 34q-150 0 -197 -205l-121 -520h-229l231 1010h-164
l43 188h164l27 113h-168l49 188h383l-70 -301h299l-43 -188h-299l-63 -277q49 76 123 128q73 52 163 52z" />
    <glyph glyph-name="Imacron" unicode="&#x12a;" horiz-adv-x="741" 
d="M287 1536l41 178h676l-41 -178h-676zM0 0l47 207h156l217 934h-176l47 207h563l-47 -207h-156l-217 -934h176l-47 -207h-563z" />
    <glyph glyph-name="imacron" unicode="&#x12b;" horiz-adv-x="661" 
d="M100 1075l41 178h676l-41 -178h-676zM333 -16q-99 0 -151 53q-51 53 -51 147q0 47 12 101l105 424h-162l49 188h389l-153 -610q-14 -55 -15 -94q0 -57 50 -58q68 0 120 148l90 -35q-43 -147 -113 -206q-71 -58 -170 -58z" />
    <glyph glyph-name="Ibreve" unicode="&#x12c;" horiz-adv-x="741" 
d="M617 1489q-127 0 -208 95t-85 278l137 43q29 -115 74 -168t119 -53t136 48q64 50 140 169l121 -54q-75 -180 -191 -269t-243 -89zM0 0l47 207h156l217 934h-176l47 207h563l-47 -207h-156l-217 -934h176l-47 -207h-563z" />
    <glyph glyph-name="ibreve" unicode="&#x12d;" horiz-adv-x="661" 
d="M432 1028q-127 0 -208 95t-85 278l137 43q29 -115 74 -168t119 -53t137 49t139 168l121 -54q-74 -180 -190 -269t-244 -89zM333 -16q-99 0 -151 53q-51 53 -51 147q0 47 12 101l105 424h-162l49 188h389l-153 -610q-14 -55 -15 -94q0 -57 50 -58q68 0 120 148l90 -35
q-43 -147 -113 -206q-71 -58 -170 -58z" />
    <glyph glyph-name="Iogonek" unicode="&#x12e;" horiz-adv-x="741" 
d="M319 -238q57 0 115 17l-35 -137q-70 -54 -161 -54t-145 45t-54 125q0 125 143 242h-182l47 207h156l217 934h-176l47 207h563l-47 -207h-156l-217 -934h176l-47 -207h-201q-123 -100 -122 -172q0 -66 79 -66z" />
    <glyph glyph-name="iogonek" unicode="&#x12f;" horiz-adv-x="661" 
d="M432 1022q-57 0 -98 40t-41 97t41 97t98 40t98 -40t41 -97t-41 -97t-98 -40zM387 -238q57 0 115 17l-35 -137q-70 -54 -161 -54t-145 45t-55 125q0 133 150 236q-125 35 -125 190q0 47 12 101l105 424h-162l49 188h389l-153 -610q-14 -55 -15 -94q0 -57 50 -58
q67 1 120 148l90 -35q-46 -145 -126 -216q-36 -32 -76 -63q-38 -31 -56 -47q-49 -44 -51 -94q0 -66 80 -66z" />
    <glyph glyph-name="Idotaccent" unicode="&#x130;" horiz-adv-x="741" 
d="M652 1507q-60 0 -104 43q-44 42 -44 104t45 105t105 43t104 -43t45 -104q0 -61 -45 -105q-46 -43 -106 -43zM0 0l47 207h156l217 934h-176l47 207h563l-47 -207h-156l-217 -934h176l-47 -207h-563z" />
    <glyph glyph-name="dotlessi" unicode="&#x131;" horiz-adv-x="661" 
d="M333 -16q-99 0 -151 53q-51 53 -51 147q0 47 12 101l105 424h-162l49 188h389l-153 -610q-14 -55 -15 -94q0 -57 50 -58q68 0 120 148l90 -35q-43 -147 -113 -206q-71 -58 -170 -58z" />
    <glyph glyph-name="Kcommaaccent" unicode="&#x136;" horiz-adv-x="1370" 
d="M381 -216q0 42 40 83t97 41t98 -42t41 -110q1 -98 -109 -207t-276 -172l-39 76q113 66 167 120t61 83q-80 41 -80 128zM1319 1141l-479 -406l247 -526h193l-49 -209h-311l-258 600l-203 -168l-51 -225h174l-47 -207h-549l47 207h143l217 934h-164l47 207h527l-45 -201
h-131l-109 -461l510 461h-131l45 201h555l-47 -207h-131z" />
    <glyph glyph-name="kcommaaccent" unicode="&#x137;" horiz-adv-x="1036" 
d="M328 -92q58 0 98 -42q41 -42 41 -110q1 -98 -109 -207t-276 -172l-39 76q113 66 167 120t60 83q-78 40 -80 128q0 42 40 83t98 41zM672 777q0 58 40 97t96 39t97 -43t41 -110q0 -213 -328 -363l82 -178q23 -49 38 -66t34 -18q43 0 92 168l90 -29q-37 -168 -97 -229
t-138 -61q-141 0 -203 147l-94 217l-86 -26l-76 -322h-229l301 1311h-168l49 188h383l-234 -1014q307 92 371 191q-61 43 -61 101z" />
    <glyph glyph-name="Lacute" unicode="&#x139;" horiz-adv-x="1112" 
d="M854 1894q51 0 80 -30t29 -72q0 -72 -74 -119l-324 -192l-63 73l252 285q49 55 100 55zM-14 0l47 207h143l217 934h-164l47 207h568l-47 -207h-172l-217 -936h364l45 190h223l-92 -395h-962z" />
    <glyph glyph-name="lacute" unicode="&#x13a;" horiz-adv-x="630" 
d="M838 1997q52 0 80 -31q29 -31 28 -72q0 -72 -74 -118l-323 -193l-64 74l252 285q49 55 101 55zM292 -16q-99 0 -150 53q-50 53 -50 149q0 47 12 99l238 1026h-168l49 188h389l-280 -1212q-14 -63 -15 -88q0 -63 48 -64q68 0 120 148l90 -35q-43 -147 -113 -206
q-71 -58 -170 -58z" />
    <glyph glyph-name="Lcommaaccent" unicode="&#x13b;" horiz-adv-x="1112" 
d="M403 -92q57 0 99 -42t41 -110q1 -98 -109 -207t-276 -172l-39 76q113 66 167 120t60 83q-78 40 -80 128q0 42 40 83t97 41zM-14 0l47 207h143l217 934h-164l47 207h568l-47 -207h-172l-217 -936h364l45 190h223l-92 -395h-962z" />
    <glyph glyph-name="lcommaaccent" unicode="&#x13c;" horiz-adv-x="630" 
d="M74 -216q0 42 40 83t97 41t98 -42t41 -110q0 -98 -110 -207t-275 -172l-39 76q113 66 167 120t61 83q-80 41 -80 128zM292 -16q-99 0 -150 53q-50 53 -50 149q0 47 12 99l238 1026h-168l49 188h389l-280 -1212q-14 -63 -15 -88q0 -63 48 -64q68 0 120 148l90 -35
q-43 -147 -113 -206q-71 -58 -170 -58z" />
    <glyph glyph-name="Lcaron" unicode="&#x13d;" horiz-adv-x="1112" 
d="M1194 1218q0 -162 -272 -407q-54 -49 -60 -55l-59 51q96 113 123 223q6 27 9 102t17 121q31 94 125 95q53 0 85 -35t32 -95zM-14 0l47 207h143l217 934h-164l47 207h568l-47 -207h-172l-217 -936h364l45 190h223l-92 -395h-962z" />
    <glyph glyph-name="lcaron" unicode="&#x13e;" horiz-adv-x="630" 
d="M852 1571q53 0 85 -35q32 -36 32 -96t-31 -118t-77 -116t-78 -91q-32 -32 -86 -81t-60 -55l-59 51q96 113 122 223q6 27 10 102q3 75 17 122q31 94 125 94zM292 -16q-99 0 -150 53q-50 53 -50 149q0 47 12 99l238 1026h-168l49 188h389l-280 -1212q-14 -63 -15 -88
q0 -63 48 -64q68 0 120 148l90 -35q-43 -147 -113 -206q-71 -58 -170 -58z" />
    <glyph glyph-name="Ldot" unicode="&#x13f;" horiz-adv-x="1112" 
d="M1124 762q0 -60 -45 -104t-105 -44t-105 43q-44 43 -44 105t45 104q46 43 106 43t104 -43t44 -104zM-14 0l47 207h143l217 934h-164l47 207h568l-47 -207h-172l-217 -936h364l45 190h223l-92 -395h-962z" />
    <glyph glyph-name="ldot" unicode="&#x140;" horiz-adv-x="733" 
d="M539 702q0 60 45 104t105 44q61 0 105 -43t44 -105t-46 -104q-46 -43 -105 -43q-60 0 -104 43t-44 104zM292 -16q-99 0 -150 53q-50 53 -50 149q0 47 12 99l238 1026h-168l49 188h389l-280 -1212q-14 -63 -15 -88q0 -63 48 -64q68 0 120 148l90 -35q-43 -147 -113 -206
q-71 -58 -170 -58z" />
    <glyph glyph-name="Lslash" unicode="&#x141;" horiz-adv-x="1173" 
d="M47 0l47 207h144l71 309l-182 -90l-70 149l299 148l99 418h-164l47 207h567l-47 -207h-172l-70 -301l258 129l70 -150l-377 -186l-98 -428h365l45 190h223l-92 -395h-963z" />
    <glyph glyph-name="lslash" unicode="&#x142;" horiz-adv-x="724" 
d="M337 -16q-99 0 -150 53q-50 53 -50 149q0 47 13 99l92 397l-142 -66l-69 148l258 121l98 426h-168l49 188h389l-118 -508l182 86l70 -149l-297 -140l-117 -501q-14 -63 -15 -88q0 -63 48 -64q68 0 120 148l91 -35q-43 -148 -114 -206t-170 -58z" />
    <glyph glyph-name="Nacute" unicode="&#x143;" horiz-adv-x="1501" 
d="M1290 1894q51 0 80 -30t29 -72q0 -72 -74 -119l-324 -192l-63 73l252 285q49 55 100 55zM1073 -4l-498 952l-172 -741h179l-47 -207h-549l47 207h143l217 934h-164l47 207h355l444 -850l150 643h-178l47 207h548l-47 -207h-143l-266 -1145h-113z" />
    <glyph glyph-name="nacute" unicode="&#x144;" horiz-adv-x="1173" 
d="M1110 1331q0 -72 -74 -119l-323 -192l-64 74l252 284q49 56 101 56t80 -31t28 -72zM868 -16q-102 0 -155 54t-53 126t14 121l67 241q11 33 11 82t-33 83t-90 34q-143 0 -193 -201l-131 -524h-229l178 709h-164l49 188h350l-45 -207q48 92 134 158t180 66t161 -72
q67 -70 66 -197q0 -74 -22 -149l-66 -236q-10 -41 -10 -63q0 -61 47 -62q61 0 115 148l90 -35q-76 -264 -271 -264z" />
    <glyph glyph-name="Ncommaaccent" unicode="&#x145;" horiz-adv-x="1501" 
d="M461 -216q0 42 40 83t97 41t98 -42t41 -110q1 -98 -109 -207t-276 -172l-39 76q113 66 167 120t61 83q-80 41 -80 128zM1073 -4l-498 952l-172 -741h179l-47 -207h-549l47 207h143l217 934h-164l47 207h355l444 -850l150 643h-178l47 207h548l-47 -207h-143l-266 -1145
h-113z" />
    <glyph glyph-name="ncommaaccent" unicode="&#x146;" horiz-adv-x="1173" 
d="M279 -216q0 42 39 83q40 41 98 41t98 -42q41 -42 41 -110q1 -98 -109 -207t-276 -172l-39 76q113 66 167 120t60 83q-79 41 -79 128zM868 -16q-102 0 -155 54t-53 126t14 121l67 241q11 33 11 82t-33 83t-90 34q-143 0 -193 -201l-131 -524h-229l178 709h-164l49 188h350
l-45 -207q48 92 134 158t180 66t161 -72q67 -70 66 -197q0 -74 -22 -149l-66 -236q-10 -41 -10 -63q0 -61 47 -62q61 0 115 148l90 -35q-76 -264 -271 -264z" />
    <glyph glyph-name="Ncaron" unicode="&#x147;" horiz-adv-x="1501" 
d="M1006 1456l-263 367l109 94l195 -205l315 211l84 -111zM1073 -4l-498 952l-172 -741h179l-47 -207h-549l47 207h143l217 934h-164l47 207h355l444 -850l150 643h-178l47 207h548l-47 -207h-143l-266 -1145h-113z" />
    <glyph glyph-name="ncaron" unicode="&#x148;" horiz-adv-x="1173" 
d="M717 995l-262 367l108 94l195 -205l315 211l84 -110zM868 -16q-102 0 -155 54t-53 126t14 121l67 241q11 33 11 82t-33 83t-90 34q-143 0 -193 -201l-131 -524h-229l178 709h-164l49 188h350l-45 -207q48 92 134 158t180 66t161 -72q67 -70 66 -197q0 -74 -22 -149
l-66 -236q-10 -41 -10 -63q0 -61 47 -62q61 0 115 148l90 -35q-76 -264 -271 -264z" />
    <glyph glyph-name="Omacron" unicode="&#x14c;" horiz-adv-x="1492" 
d="M657 1536l41 178h676l-41 -178h-676zM741 186q135 0 248 87t175 221t62 290q0 158 -96 268q-98 110 -272 109q-135 0 -248 -87t-175 -220q-62 -132 -62 -290t97 -268t271 -110zM721 -25q-270 0 -429 168t-159 437q0 196 94 376q95 180 269 298t383 118q270 0 429 -168
t158 -436q0 -195 -94 -376t-268 -299t-383 -118z" />
    <glyph glyph-name="omacron" unicode="&#x14d;" horiz-adv-x="1069" 
d="M340 1075l41 178h676l-41 -178h-676zM512 170q100 0 180 96t80 220t-57 182t-158 59q-101 0 -181 -96t-79 -220q0 -124 57 -183q58 -58 158 -58zM503 -16q-206 0 -320 118t-113 289q0 207 145 365t351 158t320 -120q114 -118 113 -288q0 -206 -145 -364t-351 -158z" />
    <glyph glyph-name="Obreve" unicode="&#x14e;" horiz-adv-x="1492" 
d="M987 1489q-127 0 -208 95t-85 278l137 43q29 -115 74 -168t119 -53t137 48q63 50 139 169l121 -54q-75 -180 -191 -269t-243 -89zM741 186q135 0 248 87t175 221t62 290q0 158 -96 268q-98 110 -272 109q-135 0 -248 -87t-175 -220q-62 -132 -62 -290t97 -268t271 -110z
M721 -25q-270 0 -429 168t-159 437q0 196 94 376q95 180 269 298t383 118q270 0 429 -168t158 -436q0 -195 -94 -376t-268 -299t-383 -118z" />
    <glyph glyph-name="obreve" unicode="&#x14f;" horiz-adv-x="1069" 
d="M672 1028q-127 0 -208 95t-85 278l137 43q29 -115 74 -168t119 -53t137 49t139 168l121 -54q-74 -180 -190 -269t-244 -89zM512 170q100 0 180 96t80 220t-57 182t-158 59q-101 0 -181 -96t-79 -220q0 -124 57 -183q58 -58 158 -58zM503 -16q-206 0 -320 118t-113 289
q0 207 145 365t351 158t320 -120q114 -118 113 -288q0 -206 -145 -364t-351 -158z" />
    <glyph glyph-name="Ohungarumlaut" unicode="&#x150;" horiz-adv-x="1492" 
d="M1474 1894q52 0 80 -30t29 -72q0 -72 -74 -119l-323 -192l-64 73l252 285q48 55 100 55zM1044 1894q52 0 80 -30t29 -72q0 -72 -74 -119l-323 -192l-64 73l252 285q48 55 100 55zM741 186q135 0 248 87t175 221t62 290q0 158 -96 268q-98 110 -272 109q-135 0 -248 -87
t-175 -220q-62 -132 -62 -290t97 -268t271 -110zM721 -25q-270 0 -429 168t-159 437q0 196 94 376q95 180 269 298t383 118q270 0 429 -168t158 -436q0 -195 -94 -376t-268 -299t-383 -118z" />
    <glyph glyph-name="ohungarumlaut" unicode="&#x151;" horiz-adv-x="1069" 
d="M1266 1331q0 -72 -74 -119l-324 -192l-63 74l252 284q49 56 100 56t80 -31t29 -72zM836 1331q0 -72 -74 -119l-324 -192l-63 74l252 284q49 56 100 56t80 -31t29 -72zM512 170q100 0 180 96t80 220t-57 182t-158 59q-101 0 -181 -96t-79 -220q0 -124 57 -183
q58 -58 158 -58zM503 -16q-206 0 -320 118t-113 289q0 207 145 365t351 158t320 -120q114 -118 113 -288q0 -206 -145 -364t-351 -158z" />
    <glyph glyph-name="OE" unicode="&#x152;" horiz-adv-x="1896" 
d="M846 207h57l217 934h-125q-159 0 -269 -41t-200 -131q-150 -150 -149 -371q0 -166 102 -268q123 -123 367 -123zM821 0q-344 0 -532 188q-152 152 -152 400q0 305 215 520q240 240 676 240h985l-94 -387h-219l43 182h-391l-84 -361h401l-45 -196h-401l-88 -381h391
l47 182h219l-90 -387h-881z" />
    <glyph glyph-name="oe" unicode="&#x153;" horiz-adv-x="1701" 
d="M1262 729q-84 0 -148 -53t-96 -148h401q8 31 8 62q1 139 -165 139zM504 170q116 0 196 96t80 220t-59 182t-162 59q-103 0 -183 -96t-79 -220q0 -124 59 -183q60 -58 148 -58zM1214 -16q-258 0 -352 202q-137 -203 -377 -202q-193 0 -305 118t-110 289q0 207 142 365
t349 157q264 0 352 -215q123 215 365 215q160 0 262 -92t102 -254q0 -90 -32 -194h-617v-15q0 -80 66 -134q67 -54 199 -54t284 80l-43 -205q-129 -61 -285 -61z" />
    <glyph glyph-name="Racute" unicode="&#x154;" horiz-adv-x="1239" 
d="M1108 1894q51 0 80 -30t29 -72q0 -72 -74 -119l-324 -192l-63 73l252 285q49 55 100 55zM987 950q0 189 -276 191h-88l-99 -432q60 -9 150 -9q143 0 228 70t85 180zM715 1348q283 0 407 -125q100 -100 100 -255t-94 -271q-96 -116 -264 -162l148 -328h162l-48 -207h-278
l-203 506h-29q-63 0 -135 6l-73 -305h167l-47 -207h-542l47 207h143l217 934h-164l47 207h439z" />
    <glyph glyph-name="racute" unicode="&#x155;" horiz-adv-x="872" 
d="M987 1331q0 -72 -74 -119l-323 -192l-64 74l252 284q48 56 100 56t80 -31t29 -72zM899 769q0 -60 -42 -102t-96 -42q-54 1 -92 31t-46 71q-55 -16 -120 -104t-95 -215l-103 -408h-229l178 709h-164l49 188h350l-57 -262q154 279 318 278q59 0 104 -42t45 -102z" />
    <glyph glyph-name="Rcommaaccent" unicode="&#x156;" horiz-adv-x="1239" 
d="M498 -92q58 0 98 -42q41 -42 41 -110q1 -98 -109 -207t-276 -172l-39 76q113 66 167 120t60 83q-78 40 -80 128q0 42 40 83t98 41zM987 950q0 189 -276 191h-88l-99 -432q60 -9 150 -9q143 0 228 70t85 180zM715 1348q283 0 407 -125q100 -100 100 -255t-94 -271
q-96 -116 -264 -162l148 -328h162l-48 -207h-278l-203 506h-29q-63 0 -135 6l-73 -305h167l-47 -207h-542l47 207h143l217 934h-164l47 207h439z" />
    <glyph glyph-name="rcommaaccent" unicode="&#x157;" horiz-adv-x="872" 
d="M150 -92q58 0 98 -42q41 -42 41 -110q1 -98 -109 -207t-276 -172l-39 76q113 66 167 120t60 83q-78 40 -80 128q0 42 40 83t98 41zM899 769q0 -60 -42 -102t-96 -42q-54 1 -92 31t-46 71q-55 -16 -120 -104t-95 -215l-103 -408h-229l178 709h-164l49 188h350l-57 -262
q154 279 318 278q59 0 104 -42t45 -102z" />
    <glyph glyph-name="Rcaron" unicode="&#x158;" horiz-adv-x="1239" 
d="M825 1456l-262 367l109 94l194 -205l316 211l84 -111zM987 950q0 189 -276 191h-88l-99 -432q60 -9 150 -9q143 0 228 70t85 180zM715 1348q283 0 407 -125q100 -100 100 -255t-94 -271q-96 -116 -264 -162l148 -328h162l-48 -207h-278l-203 506h-29q-63 0 -135 6
l-73 -305h167l-47 -207h-542l47 207h143l217 934h-164l47 207h439z" />
    <glyph glyph-name="rcaron" unicode="&#x159;" horiz-adv-x="872" 
d="M594 995l-262 367l108 94l195 -205l315 211l84 -110zM899 769q0 -60 -42 -102t-96 -42q-54 1 -92 31t-46 71q-55 -16 -120 -104t-95 -215l-103 -408h-229l178 709h-164l49 188h350l-57 -262q154 279 318 278q59 0 104 -42t45 -102z" />
    <glyph glyph-name="Sacute" unicode="&#x15a;" horiz-adv-x="1163" 
d="M1114 1894q51 0 80 -30t29 -72q0 -72 -74 -119l-324 -192l-63 73l252 285q49 55 100 55zM1057 367q1 -168 -133 -280t-352 -112q-218 1 -362 101t-144 237q0 80 44 130q44 51 106 51t103 -41t41 -103t-45 -100q74 -74 254 -74q111 0 175 43t65 118q0 75 -52 124t-187 122
t-225 170q-89 97 -89 247t132 261t341 111t336 -95t127 -208q0 -78 -42 -130t-106 -52t-105 40q-40 40 -40 98t37 97q-36 49 -170 49t-198 -46q-64 -47 -64 -115t59 -124t191 -127t218 -166t85 -226z" />
    <glyph glyph-name="sacute" unicode="&#x15b;" horiz-adv-x="919" 
d="M594 1020l-64 74l252 284q48 56 100 56t81 -31t28 -72q0 -72 -73 -119zM419 734q-44 -20 -44 -53q0 -32 11 -44q11 -11 17 -19q7 -8 21 -17l28 -18t61 -29q48 -19 60 -26q111 -49 176 -107t64 -153q0 -135 -101 -210q-102 -74 -306 -74t-316 112q-59 60 -59 122t32 97
q33 35 81 35t82 -34t34 -72t-12 -56q68 -45 159 -45q183 0 183 84q0 40 -44 70q-44 31 -154 74t-176 100t-64 167q0 110 97 192t283 83q186 0 287 -104q53 -53 53 -115t-34 -98q-34 -35 -81 -35q-48 0 -82 35q-34 36 -34 68t12 61q-55 28 -123 28q-67 1 -111 -19z" />
    <glyph glyph-name="Scedilla" unicode="&#x15e;" horiz-adv-x="1163" 
d="M557 -25h-20l-15 -69q90 -12 140 -54t51 -110q0 -68 -71 -110q-70 -42 -196 -42t-241 88l41 64q94 -55 198 -55q31 0 54 15t22 36q0 66 -133 51l-31 51l90 146q-164 26 -272 118t-108 209q0 80 44 130q44 51 106 51t103 -41t41 -103t-45 -100q74 -74 254 -74
q111 0 175 43t65 118q0 75 -52 124t-187 122t-225 170q-89 97 -89 247t132 261t341 111t336 -95t127 -208q0 -78 -42 -130t-106 -52t-105 40q-40 40 -40 98t37 97q-36 49 -170 49t-198 -46q-64 -47 -64 -115t59 -124t191 -127t218 -166t85 -226q1 -168 -133 -280t-367 -112z
" />
    <glyph glyph-name="scedilla" unicode="&#x15f;" horiz-adv-x="919" 
d="M419 734q-44 -20 -44 -53q0 -32 11 -44q11 -11 17 -19q7 -8 21 -17l28 -18t61 -29q48 -19 60 -26q111 -49 176 -107t64 -153q0 -135 -101 -210t-286 -74h-10l-17 -78q91 -12 141 -54t50 -110t-70 -110t-197 -42q-126 0 -241 88l41 64q94 -55 199 -55q32 0 54 15t21 36
q0 66 -133 51l-31 51l95 150q-156 23 -238 106q-59 60 -59 122t32 97q33 35 81 35t82 -34t34 -72t-12 -56q68 -45 159 -45q183 0 183 84q0 40 -44 70q-44 31 -154 74t-176 100t-64 167q0 110 97 192t283 83q186 0 287 -104q53 -53 53 -115t-34 -98q-34 -35 -81 -35
q-48 0 -82 35q-34 36 -34 68t12 61q-55 28 -123 28q-67 1 -111 -19z" />
    <glyph glyph-name="Scaron" unicode="&#x160;" horiz-adv-x="1163" 
d="M831 1456l-262 367l109 94l194 -205l316 211l84 -111zM1057 367q1 -168 -133 -280t-352 -112q-218 1 -362 101t-144 237q0 80 44 130q44 51 106 51t103 -41t41 -103t-45 -100q74 -74 254 -74q111 0 175 43t65 118q0 75 -52 124t-187 122t-225 170q-89 97 -89 247t132 261
t341 111t336 -95t127 -208q0 -78 -42 -130t-106 -52t-105 40q-40 40 -40 98t37 97q-36 49 -170 49t-198 -46q-64 -47 -64 -115t59 -124t191 -127t218 -166t85 -226z" />
    <glyph glyph-name="scaron" unicode="&#x161;" horiz-adv-x="919" 
d="M598 995l-262 367l108 94l195 -205l315 211l84 -110zM419 734q-44 -20 -44 -53q0 -32 11 -44q11 -11 17 -19q7 -8 21 -17l28 -18t61 -29q48 -19 60 -26q111 -49 176 -107t64 -153q0 -135 -101 -210q-102 -74 -306 -74t-316 112q-59 60 -59 122t32 97q33 35 81 35t82 -34
t34 -72t-12 -56q68 -45 159 -45q183 0 183 84q0 40 -44 70q-44 31 -154 74t-176 100t-64 167q0 110 97 192t283 83q186 0 287 -104q53 -53 53 -115t-34 -98q-34 -35 -81 -35q-48 0 -82 35q-34 36 -34 68t12 61q-55 28 -123 28q-67 1 -111 -19z" />
    <glyph glyph-name="Tcommaaccent" unicode="&#x162;" horiz-adv-x="1255" 
d="M326 -216q0 42 40 83t97 41t98 -42t41 -110q0 -98 -110 -207t-275 -172l-39 76q113 66 167 120t61 83q-80 41 -80 128zM258 0l47 207h158l219 940h-248l-47 -213h-221l96 414h1161l-94 -414h-219l47 213h-244l-219 -940h178l-47 -207h-567z" />
    <glyph glyph-name="tcommaaccent" unicode="&#x163;" horiz-adv-x="757" 
d="M238 -92q58 0 98 -42q41 -42 41 -110q1 -98 -109 -207t-276 -172l-39 76q113 66 167 120t60 83q-78 40 -80 128q0 42 40 83t98 41zM367 238q0 -82 64 -82t173 71l74 -102q-150 -141 -324 -141q-96 0 -157 53t-62 162q0 39 19 120l96 390h-166l43 188h168l49 195l252 90
l-72 -285h273l-47 -188h-273l-96 -390q-14 -57 -14 -81z" />
    <glyph glyph-name="Tcaron" unicode="&#x164;" horiz-adv-x="1255" 
d="M870 1456l-262 367l109 94l194 -205l316 211l84 -111zM258 0l47 207h158l219 940h-248l-47 -213h-221l96 414h1161l-94 -414h-219l47 213h-244l-219 -940h178l-47 -207h-567z" />
    <glyph glyph-name="tcaron" unicode="&#x165;" horiz-adv-x="757" 
d="M905 1571q53 0 85 -35q32 -36 32 -96q0 -162 -272 -406q-54 -49 -60 -55l-59 51q96 113 123 223q6 27 9 102t17 122q31 94 125 94zM367 238q0 -82 64 -82t173 71l74 -102q-150 -141 -324 -141q-96 0 -157 53t-62 162q0 39 19 120l96 390h-166l43 188h168l49 195l252 90
l-72 -285h273l-47 -188h-273l-96 -390q-14 -57 -14 -81z" />
    <glyph glyph-name="Umacron" unicode="&#x16a;" horiz-adv-x="1415" 
d="M623 1536l41 178h675l-41 -178h-675zM668 -25q-224 0 -340 110t-117 298q0 80 29 199l129 559h-158l47 207h543l-47 -207h-154l-131 -570q-25 -102 -25 -165q0 -220 242 -220t309 297l152 658h-178l47 207h543l-48 -207h-139l-155 -676q-59 -248 -193 -369
q-132 -121 -356 -121z" />
    <glyph glyph-name="umacron" unicode="&#x16b;" horiz-adv-x="1175" 
d="M373 1075l41 178h676l-41 -178h-676zM385 299q0 -127 111 -127q80 0 127 49t71 152l131 524h230l-154 -610q-16 -61 -16 -97q0 -55 45 -55q61 0 114 148l91 -35q-78 -264 -275 -264q-86 0 -135 53t-51 145q-55 -92 -135 -145t-168 -53t-154 68t-65 179q0 72 22 168
l76 310h-162l49 188h389l-129 -518q-12 -57 -12 -80z" />
    <glyph glyph-name="Ubreve" unicode="&#x16c;" horiz-adv-x="1415" 
d="M955 1489q-127 0 -209 95q-81 95 -84 278l137 43q29 -115 73 -168t119 -53q74 0 137 48q63 50 140 169l121 -54q-75 -180 -191 -269t-243 -89zM668 -25q-224 0 -340 110t-117 298q0 80 29 199l129 559h-158l47 207h543l-47 -207h-154l-131 -570q-25 -102 -25 -165
q0 -220 242 -220t309 297l152 658h-178l47 207h543l-48 -207h-139l-155 -676q-59 -248 -193 -369q-132 -121 -356 -121z" />
    <glyph glyph-name="ubreve" unicode="&#x16d;" horiz-adv-x="1175" 
d="M705 1028q-127 0 -208 95t-85 278l137 43q29 -115 74 -168t119 -53t137 49t139 168l121 -54q-75 -180 -191 -269t-243 -89zM385 299q0 -127 111 -127q80 0 127 49t71 152l131 524h230l-154 -610q-16 -61 -16 -97q0 -55 45 -55q61 0 114 148l91 -35q-78 -264 -275 -264
q-86 0 -135 53t-51 145q-55 -92 -135 -145t-168 -53t-154 68t-65 179q0 72 22 168l76 310h-162l49 188h389l-129 -518q-12 -57 -12 -80z" />
    <glyph glyph-name="Uring" unicode="&#x16e;" horiz-adv-x="1415" 
d="M1116 1772q0 110 -90 110q-45 0 -80 -45t-35 -95q0 -110 90 -110q45 0 80 45t35 95zM991 1489q-117 -1 -181 67t-65 178t87 200q88 91 204 91q116 1 182 -67q64 -68 64 -178t-87 -200q-87 -91 -204 -91zM668 -25q-224 0 -340 110t-117 298q0 80 29 199l129 559h-158
l47 207h543l-47 -207h-154l-131 -570q-25 -102 -25 -165q0 -220 242 -220t309 297l152 658h-178l47 207h543l-48 -207h-139l-155 -676q-59 -248 -193 -369q-132 -121 -356 -121z" />
    <glyph glyph-name="uring" unicode="&#x16f;" horiz-adv-x="1175" 
d="M866 1312q0 110 -90 110q-45 0 -80 -46q-34 -45 -34 -95t22 -80t67 -30q45 -1 80 45t35 96zM741 1028q-117 0 -181 68t-64 178t87 200q87 91 204 91t181 -68q64 -67 64 -177t-87 -201t-204 -91zM385 299q0 -127 111 -127q80 0 127 49t71 152l131 524h230l-154 -610
q-16 -61 -16 -97q0 -55 45 -55q61 0 114 148l91 -35q-78 -264 -275 -264q-86 0 -135 53t-51 145q-55 -92 -135 -145t-168 -53t-154 68t-65 179q0 72 22 168l76 310h-162l49 188h389l-129 -518q-12 -57 -12 -80z" />
    <glyph glyph-name="Uhungarumlaut" unicode="&#x170;" horiz-adv-x="1415" 
d="M1440 1894q52 0 80 -30q29 -30 28 -72q0 -72 -73 -119l-324 -192l-64 73l252 285q49 55 101 55zM1010 1894q52 0 80 -30q29 -30 28 -72q0 -72 -74 -119l-323 -192l-64 73l252 285q49 55 101 55zM668 -25q-224 0 -340 110t-117 298q0 80 29 199l129 559h-158l47 207h543
l-47 -207h-154l-131 -570q-25 -102 -25 -165q0 -220 242 -220t309 297l152 658h-178l47 207h543l-48 -207h-139l-155 -676q-59 -248 -193 -369q-132 -121 -356 -121z" />
    <glyph glyph-name="uhungarumlaut" unicode="&#x171;" horiz-adv-x="1175" 
d="M471 1020l-63 74l251 284q49 56 101 56t80 -31q29 -31 28 -72q0 -72 -73 -119zM901 1020l-63 74l252 284q49 56 100 56t80 -31t28 -72q0 -72 -73 -119zM385 299q0 -127 111 -127q80 0 127 49t71 152l131 524h230l-154 -610q-16 -61 -16 -97q0 -55 45 -55q61 0 114 148
l91 -35q-78 -264 -275 -264q-86 0 -135 53t-51 145q-55 -92 -135 -145t-168 -53t-154 68t-65 179q0 72 22 168l76 310h-162l49 188h389l-129 -518q-12 -57 -12 -80z" />
    <glyph glyph-name="Uogonek" unicode="&#x172;" horiz-adv-x="1415" 
d="M440 -242q0 117 123 224q-166 20 -259 126t-93 275q0 80 29 199l129 559h-158l47 207h543l-47 -207h-154l-131 -570q-25 -102 -25 -165q0 -220 242 -220t309 297l152 658h-178l47 207h543l-48 -207h-139l-155 -676q-55 -223 -166 -343t-310 -140q-100 -88 -100 -154
t80 -66q57 0 115 17l-35 -137q-70 -54 -161 -54q-92 0 -146 45t-54 125z" />
    <glyph glyph-name="uogonek" unicode="&#x173;" horiz-adv-x="1175" 
d="M905 -238q57 0 115 17l-35 -137q-70 -54 -161 -54t-145 45t-54 125q0 135 155 240q-102 43 -106 184q-55 -92 -135 -145t-168 -53t-154 68t-65 179q0 72 22 168l76 310h-162l49 188h389l-129 -518q-12 -57 -12 -80q0 -127 111 -127q80 0 127 49t71 152l131 524h230
l-154 -610q-16 -61 -16 -97q0 -55 45 -55q61 1 114 148l91 -35q-45 -144 -127 -216q-36 -32 -76 -63q-39 -31 -56 -47q-49 -46 -51 -94q0 -66 80 -66z" />
    <glyph glyph-name="Wcircumflex" unicode="&#x174;" horiz-adv-x="2013" 
d="M977 1475l-84 110l440 357l262 -367l-108 -94l-197 205zM459 -12l-115 1153h-145l47 207h553l-47 -207h-170l47 -709l461 785h114l174 -793l318 717h-164l47 207h553l-47 -207h-127l-572 -1151h-120l-193 792l-495 -792z" />
    <glyph glyph-name="wcircumflex" unicode="&#x175;" horiz-adv-x="1449" 
d="M604 1014l-84 110l441 357l262 -367l-109 -94l-196 205zM1234 913q64 0 108 -49t44 -135q0 -209 -391 -745h-151l-107 493l-280 -493h-172l-82 725h-164l49 188h311l31 -651l285 559h149l107 -567q197 299 213 415q-39 12 -66 46q-26 34 -26 85t38 90q39 39 104 39z" />
    <glyph glyph-name="Ycircumflex" unicode="&#x176;" horiz-adv-x="1329" 
d="M616 1475l-84 110l441 357l262 -367l-109 -94l-196 205zM260 0l47 207h156l74 315l-234 619h-129l47 207h510l-47 -207h-141l151 -455l361 455h-144l47 207h541l-47 -207h-121l-573 -662l-64 -272h176l-47 -207h-563z" />
    <glyph glyph-name="ycircumflex" unicode="&#x177;" horiz-adv-x="1026" 
d="M354 1014l-84 110l441 357l262 -367l-109 -94l-196 205zM-12 -410q-80 0 -128 44t-48 102t37 95q39 36 85 36t78 -24t45 -60q35 4 99 64q63 60 188 208l-135 654h-152l49 188h293l107 -670q223 293 258 416q-88 37 -88 131q0 59 41 99t109 40t110 -50q43 -50 43 -136
q0 -207 -385 -674q-166 -203 -282 -306t-180 -130t-144 -27z" />
    <glyph glyph-name="Ydieresis" unicode="&#x178;" horiz-adv-x="1329" 
d="M699 1507q-60 0 -104 43q-44 42 -44 104t45 105t105 43q61 0 105 -43t44 -104t-45 -105q-46 -43 -106 -43zM1121 1507q-60 0 -104 43q-44 42 -44 104t45 105t105 43q61 0 105 -43t44 -104t-45 -105q-46 -43 -106 -43zM260 0l47 207h156l74 315l-234 619h-129l47 207h510
l-47 -207h-141l151 -455l361 455h-144l47 207h541l-47 -207h-121l-573 -662l-64 -272h176l-47 -207h-563z" />
    <glyph glyph-name="Zacute" unicode="&#x179;" horiz-adv-x="1290" 
d="M1166 1894q52 0 80 -30t28 -72q0 -72 -74 -119l-323 -192l-64 73l252 285q49 55 101 55zM53 0l-20 131l985 1022h-516l-51 -225h-211l98 420h1008l20 -131l-985 -1022h547l51 225h211l-98 -420h-1039z" />
    <glyph glyph-name="zacute" unicode="&#x17a;" horiz-adv-x="983" 
d="M1006 1331q0 -72 -74 -119l-324 -192l-63 74l252 284q49 56 100 56t80 -31t29 -72zM446 197q46 1 118 -15t89 -16q72 0 106 38t66 136l84 -18q-59 -338 -270 -338q-33 0 -161 24t-173 25q-119 0 -223 -49l-84 129l678 608h-320l-41 -164h-190l84 340h692l66 -143
l-645 -580q78 23 124 23z" />
    <glyph glyph-name="Zdotaccent" unicode="&#x17b;" horiz-adv-x="1290" 
d="M1075 1655q0 -61 -45 -105t-105 -43q-60 0 -105 43q-44 42 -44 104t45 105t105 43t105 -43q44 -43 44 -104zM53 0l-20 131l985 1022h-516l-51 -225h-211l98 420h1008l20 -131l-985 -1022h547l51 225h211l-98 -420h-1039z" />
    <glyph glyph-name="zdotaccent" unicode="&#x17c;" horiz-adv-x="983" 
d="M805 1194q1 -61 -45 -104t-106 -43t-104 43t-44 104t45 104t105 43t104 -43t45 -104zM446 197q46 1 118 -15t89 -16q72 0 106 38t66 136l84 -18q-59 -338 -270 -338q-33 0 -161 24t-173 25q-119 0 -223 -49l-84 129l678 608h-320l-41 -164h-190l84 340h692l66 -143
l-645 -580q78 23 124 23z" />
    <glyph glyph-name="Zcaron" unicode="&#x17d;" horiz-adv-x="1290" 
d="M883 1456l-262 367l108 94l195 -205l315 211l84 -111zM53 0l-20 131l985 1022h-516l-51 -225h-211l98 420h1008l20 -131l-985 -1022h547l51 225h211l-98 -420h-1039z" />
    <glyph glyph-name="zcaron" unicode="&#x17e;" horiz-adv-x="983" 
d="M612 995l-262 367l109 94l194 -205l316 211l84 -110zM446 197q46 1 118 -15t89 -16q72 0 106 38t66 136l84 -18q-59 -338 -270 -338q-33 0 -161 24t-173 25q-119 0 -223 -49l-84 129l678 608h-320l-41 -164h-190l84 340h692l66 -143l-645 -580q78 23 124 23z" />
    <glyph glyph-name="Aringacute" unicode="&#x1fa;" horiz-adv-x="1437" 
d="M1354 2302q52 0 80 -31q29 -31 28 -71q0 -72 -73 -119l-324 -193l-64 74l252 285q49 55 101 55zM578 618h380l-63 541zM936 1391q45 0 80 45t35 95t-23 80q-24 29 -68 29t-79 -45t-35 -95q0 -109 90 -109zM688 1510q0 106 84 190t200 84t180 -67t65 -152
q0 -143 -125 -217h213l-48 -205h-149l115 -936h137l-49 -207h-502l47 205h152l-27 221h-516l-129 -221h182l-47 -205h-528l49 207h121l549 936h-162l47 205h213q-72 56 -72 162z" />
    <glyph glyph-name="aringacute" unicode="&#x1fb;" horiz-adv-x="1185" 
d="M649 1281q0 -110 90 -110q45 -1 80 45t35 96t-23 80t-67 30t-80 -46q-35 -45 -35 -95zM1155 2083q51 0 80 -31t29 -72q0 -72 -74 -118l-324 -193l-63 74l252 285q49 55 100 55zM752 524q0 191 -177 191q-111 1 -191 -105t-79 -245q0 -83 42 -137t120 -54q113 0 199 104
t86 246zM729 1028q-117 0 -181 68t-65 178q0 110 87 200q87 91 204 91q118 0 182 -68q64 -67 64 -177t-87 -201t-204 -91zM360 -16q-128 0 -208 96t-80 252q0 233 137 407t330 174q83 0 153 -59t99 -141l61 184h209l-154 -610q-16 -61 -16 -97q0 -55 45 -55q61 0 115 148
l90 -35q-78 -264 -275 -264q-86 0 -135 55t-49 147q-136 -202 -322 -202z" />
    <glyph glyph-name="AEacute" unicode="&#x1fc;" horiz-adv-x="1916" 
d="M1608 1894q52 0 80 -30q29 -30 28 -72q0 -72 -74 -119l-323 -192l-64 73l252 285q49 55 101 55zM694 618h326l123 531h-76zM-16 0l49 207h145l666 934h-166l47 207h1309l-95 -387h-219l43 182h-391l-84 -361h402l-45 -196h-402l-88 -381h391l47 182h219l-90 -387h-997
l47 207h152l51 219h-414l-155 -221h157l-47 -205h-532z" />
    <glyph glyph-name="aeacute" unicode="&#x1fd;" horiz-adv-x="1656" 
d="M1217 729q-83 0 -147 -53t-95 -148h399q8 31 8 62q1 139 -165 139zM260 252q0 -84 114 -84t211 57t132 156h-158q-299 0 -299 -129zM1360 1331q0 -72 -74 -119l-323 -192l-64 74l252 284q49 56 101 56t80 -31t28 -72zM948 373v-15q0 -80 66 -134t198 -54t285 80l-43 -205
q-128 -61 -276 -61t-245 64t-132 181q-70 -115 -189 -181t-253 -64q-134 0 -221 66t-87 165q0 152 123 235t324 82h233q-16 100 -86 162t-160 62q-22 0 -47 -6q4 -16 4 -29q0 -47 -34 -81t-85 -34q-52 0 -84 36t-32 91q0 94 108 148q71 33 191 33t216 -66q95 -66 128 -184
q45 106 150 178t225 71q166 0 269 -91t103 -255q1 -90 -32 -194h-617z" />
    <glyph glyph-name="Oslashacute" unicode="&#x1fe;" horiz-adv-x="1492" 
d="M1286 1894q51 0 80 -30t29 -72q0 -72 -74 -119l-324 -192l-63 73l252 285q49 55 100 55zM740 186q146 0 260 87q112 87 174 221t63 276q0 82 -27 158l-714 -647q98 -95 244 -95zM882 1161q-150 0 -262 -87t-174 -220q-62 -134 -63 -252q0 -118 31 -199l719 656
q-102 102 -251 102zM718 -25q-226 0 -388 146l-164 -150l-117 131l172 158q-78 139 -78 329q-1 191 93 369t267 296t380 118q254 0 413 -153l174 155l117 -133l-182 -166q72 -137 72 -323q-1 -186 -95 -365q-94 -180 -266 -296t-398 -116z" />
    <glyph glyph-name="oslashacute" unicode="&#x1ff;" horiz-adv-x="1118" 
d="M524 170q115 0 196 96t81 240q0 35 -6 61l-385 -366q48 -31 114 -31zM317 391q0 -49 13 -86l395 379q-55 43 -131 43q-115 -1 -196 -97t-81 -239zM1094 1331q0 -72 -74 -119l-324 -192l-63 74l252 284q49 56 100 56t80 -31t29 -72zM516 -16q-147 0 -252 69l-145 -141
l-111 113l148 139q-66 100 -66 227q0 207 148 365t364 157q158 0 266 -82l158 152l111 -113l-164 -155q55 -96 55 -209q0 -207 -147 -365q-148 -157 -365 -157z" />
    <glyph glyph-name="Scommaaccent" unicode="&#x218;" horiz-adv-x="1163" 
d="M287 -216q0 42 40 83t97 41t98 -42t41 -110q1 -98 -109 -207t-276 -172l-39 76q113 66 167 120t61 83q-80 41 -80 128zM1057 367q1 -168 -133 -280t-352 -112q-218 1 -362 101t-144 237q0 80 44 130q44 51 106 51t103 -41t41 -103t-45 -100q74 -74 254 -74q111 0 175 43
t65 118q0 75 -52 124t-187 122t-225 170q-89 97 -89 247t132 261t341 111t336 -95t127 -208q0 -78 -42 -130t-106 -52t-105 40q-40 40 -40 98t37 97q-36 49 -170 49t-198 -46q-64 -47 -64 -115t59 -124t191 -127t218 -166t85 -226z" />
    <glyph glyph-name="scommaaccent" unicode="&#x219;" horiz-adv-x="919" 
d="M160 -216q0 42 40 83t97 41t98 -42t41 -110q0 -98 -110 -207t-275 -172l-39 76q113 66 167 120t61 83q-80 41 -80 128zM419 734q-44 -20 -44 -53q0 -32 11 -44q11 -11 17 -19q7 -8 21 -17l28 -18t61 -29q48 -19 60 -26q111 -49 176 -107t64 -153q0 -135 -101 -210
q-102 -74 -306 -74t-316 112q-59 60 -59 122t32 97q33 35 81 35t82 -34t34 -72t-12 -56q68 -45 159 -45q183 0 183 84q0 40 -44 70q-44 31 -154 74t-176 100t-64 167q0 110 97 192t283 83q186 0 287 -104q53 -53 53 -115t-34 -98q-34 -35 -81 -35q-48 0 -82 35
q-34 36 -34 68t12 61q-55 28 -123 28q-67 1 -111 -19z" />
    <glyph glyph-name="schwa" unicode="&#x259;" horiz-adv-x="1003" 
d="M446 168q82 0 147 54t95 147h-399q-8 -31 -8 -62q-1 -139 165 -139zM66 330q0 90 32 194h617v15q0 80 -66 134q-67 54 -199 54t-284 -80l43 205q129 61 304 61t299 -103t124 -282q0 -227 -141 -386t-344 -158q-174 0 -280 91q-105 91 -105 255z" />
    <glyph glyph-name="circumflex" unicode="&#x2c6;" horiz-adv-x="1024" 
d="M389 1014l-84 110l440 357l263 -367l-109 -94l-197 205z" />
    <glyph glyph-name="caron" unicode="&#x2c7;" horiz-adv-x="1024" 
d="M643 995l-262 367l108 94l195 -205l315 211l84 -110z" />
    <glyph glyph-name="breve" unicode="&#x2d8;" horiz-adv-x="1024" 
d="M649 1028q-127 0 -208 95t-85 278l138 43q30 -115 74 -168t118 -53t137 49t140 168l120 -54q-75 -180 -191 -269t-243 -89z" />
    <glyph glyph-name="dotaccent" unicode="&#x2d9;" horiz-adv-x="1024" 
d="M677 1047q-60 0 -105 43q-44 43 -44 104t45 104t105 43t105 -43q44 -43 44 -104t-45 -104t-105 -43z" />
    <glyph glyph-name="ring" unicode="&#x2da;" horiz-adv-x="1024" 
d="M604 1281q0 -110 90 -110q45 -1 80 45t35 96t-23 80q-24 30 -68 30t-79 -46q-35 -45 -35 -95zM684 1028q-118 0 -182 68t-64 178t87 200q87 91 204 91t181 -68q64 -67 65 -177q0 -110 -87 -201t-204 -91z" />
    <glyph glyph-name="ogonek" unicode="&#x2db;" horiz-adv-x="1024" 
d="M401 -172q0 -66 80 -66q57 0 115 17l-35 -137q-70 -54 -161 -54t-145 45t-54 125q0 212 399 394l43 -68q-242 -156 -242 -256z" />
    <glyph glyph-name="tilde" unicode="&#x2dc;" horiz-adv-x="1024" 
d="M824 1024q-87 0 -166 76q-78 76 -118 76t-74 -30t-73 -110l-125 51q41 141 120 223t166 83q87 0 166 -76t119 -76q39 0 73 30t73 109l125 -51q-41 -141 -120 -223t-166 -82z" />
    <glyph glyph-name="hungarumlaut" unicode="&#x2dd;" horiz-adv-x="1024" 
d="M1141 1331q0 -72 -74 -119l-324 -192l-63 74l252 284q49 56 100 56t80 -31t29 -72zM711 1331q0 -72 -74 -119l-324 -192l-63 74l252 284q49 56 100 56t80 -31t29 -72z" />
    <glyph glyph-name="commaaccent" unicode="&#x326;" horiz-adv-x="423" 
d="M127 -216q0 42 40 83t97 41t98 -42t41 -110q1 -98 -109 -207t-276 -172l-38 76q112 66 166 120t61 83q-80 41 -80 128z" />
    <glyph glyph-name="Wgrave" unicode="&#x1e80;" horiz-adv-x="2013" 
d="M963 1780q0 52 31 85q32 32 73 31q76 0 117 -88l137 -305l-80 -53l-233 233q-45 45 -45 97zM459 -12l-115 1153h-145l47 207h553l-47 -207h-170l47 -709l461 785h114l174 -793l318 717h-164l47 207h553l-47 -207h-127l-572 -1151h-120l-193 792l-495 -792z" />
    <glyph glyph-name="wgrave" unicode="&#x1e81;" horiz-adv-x="1449" 
d="M590 1320q0 52 32 84t72 32q76 0 117 -88l137 -306l-80 -53l-233 234q-45 45 -45 97zM1234 913q64 0 108 -49t44 -135q0 -209 -391 -745h-151l-107 493l-280 -493h-172l-82 725h-164l49 188h311l31 -651l285 559h149l107 -567q197 299 213 415q-39 12 -66 46
q-26 34 -26 85t38 90q39 39 104 39z" />
    <glyph glyph-name="Wacute" unicode="&#x1e82;" horiz-adv-x="2013" 
d="M1516 1894q52 0 80 -30t28 -72q0 -72 -74 -119l-323 -192l-64 73l252 285q49 55 101 55zM459 -12l-115 1153h-145l47 207h553l-47 -207h-170l47 -709l461 785h114l174 -793l318 717h-164l47 207h553l-47 -207h-127l-572 -1151h-120l-193 792l-495 -792z" />
    <glyph glyph-name="wacute" unicode="&#x1e83;" horiz-adv-x="1449" 
d="M854 1020l-63 74l251 284q48 56 100 56t81 -31t28 -72q0 -72 -73 -119zM1234 913q64 0 108 -49t44 -135q0 -209 -391 -745h-151l-107 493l-280 -493h-172l-82 725h-164l49 188h311l31 -651l285 559h149l107 -567q197 299 213 415q-39 12 -66 46q-26 34 -26 85t38 90
q39 39 104 39z" />
    <glyph glyph-name="Wdieresis" unicode="&#x1e84;" horiz-adv-x="2013" 
d="M1210 1655q0 -61 -45 -105t-105 -43q-60 0 -105 43q-44 42 -44 104t45 105q46 43 106 43t104 -43t44 -104zM1632 1655q0 -61 -45 -105t-105 -43q-60 0 -105 43q-44 42 -44 104t45 105q46 43 106 43t104 -43t44 -104zM459 -12l-115 1153h-145l47 207h553l-47 -207h-170
l47 -709l461 785h114l174 -793l318 717h-164l47 207h553l-47 -207h-127l-572 -1151h-120l-193 792l-495 -792z" />
    <glyph glyph-name="wdieresis" unicode="&#x1e85;" horiz-adv-x="1449" 
d="M1109 1047q-60 0 -104 43t-44 104t45 104t105 43t104 -43q45 -43 45 -104t-46 -104t-105 -43zM838 1194q0 -61 -46 -104t-105 -43q-60 0 -104 43t-44 104t45 104t105 43q61 0 105 -43t44 -104zM1234 913q64 0 108 -49t44 -135q0 -209 -391 -745h-151l-107 493l-280 -493
h-172l-82 725h-164l49 188h311l31 -651l285 559h149l107 -567q197 299 213 415q-39 12 -66 46q-26 34 -26 85t38 90q39 39 104 39z" />
    <glyph glyph-name="Ygrave" unicode="&#x1ef2;" horiz-adv-x="1329" 
d="M604 1780q0 52 32 85q32 32 73 31q76 0 116 -88l138 -305l-80 -53l-234 233q-45 45 -45 97zM260 0l47 207h156l74 315l-234 619h-129l47 207h510l-47 -207h-141l151 -455l361 455h-144l47 207h541l-47 -207h-121l-573 -662l-64 -272h176l-47 -207h-563z" />
    <glyph glyph-name="ygrave" unicode="&#x1ef3;" horiz-adv-x="1026" 
d="M342 1320q0 52 32 84t72 32q76 0 117 -88l137 -306l-79 -53l-234 234q-45 45 -45 97zM-12 -410q-80 0 -128 44t-48 102t37 95q39 36 85 36t78 -24t45 -60q35 4 99 64q63 60 188 208l-135 654h-152l49 188h293l107 -670q223 293 258 416q-88 37 -88 131q0 59 41 99t109 40
t110 -50q43 -50 43 -136q0 -207 -385 -674q-166 -203 -282 -306t-180 -130t-144 -27z" />
    <glyph glyph-name="enspace" unicode="&#x2002;" horiz-adv-x="1024" 
 />
    <glyph glyph-name="emspace" unicode="&#x2003;" horiz-adv-x="2048" 
 />
    <glyph glyph-name="threeperemspace" unicode="&#x2004;" horiz-adv-x="681" 
 />
    <glyph glyph-name="fourperemspace" unicode="&#x2005;" horiz-adv-x="512" 
 />
    <glyph glyph-name="figurespace" unicode="&#x2007;" horiz-adv-x="1085" 
 />
    <glyph glyph-name="thinspace" unicode="&#x2009;" horiz-adv-x="272" 
 />
    <glyph glyph-name="hairspace" unicode="&#x200a;" horiz-adv-x="153" 
 />
    <glyph glyph-name="endash" unicode="&#x2013;" horiz-adv-x="1251" 
d="M98 475l49 209h1076l-49 -209h-1076z" />
    <glyph glyph-name="emdash" unicode="&#x2014;" horiz-adv-x="1837" 
d="M98 475l49 209h1661l-49 -209h-1661z" />
    <glyph glyph-name="quoteleft" unicode="&#x2018;" horiz-adv-x="571" 
d="M345 729q-71 0 -121 51t-50 135q0 123 134 256t339 211l49 -94q-141 -80 -208 -146t-72 -104q46 -22 72 -64t26 -75q0 -70 -49 -120t-120 -50z" />
    <glyph glyph-name="quoteright" unicode="&#x2019;" horiz-adv-x="571" 
d="M305 1202q0 70 49 120t120 50t121 -51t50 -135q0 -123 -134 -256t-339 -211l-49 94q141 81 208 147t72 103q-47 23 -73 65t-25 74z" />
    <glyph glyph-name="quotesinglbase" unicode="&#x201a;" horiz-adv-x="544" 
d="M-61 -332l-50 94q141 80 208 147t73 103q-47 23 -73 65t-25 75q0 70 49 120t120 50t121 -52t50 -135q0 -123 -134 -256t-339 -211z" />
    <glyph glyph-name="quotedblleft" unicode="&#x201c;" horiz-adv-x="1034" 
d="M504 909q0 -70 -47 -117t-116 -47q-69 1 -118 51t-49 130q0 119 130 249t329 203l49 -92q-137 -78 -202 -141t-70 -101q46 -20 70 -61t24 -74zM981 909q0 -70 -48 -117t-116 -47q-68 1 -117 51t-49 130q0 119 130 249t329 203l49 -92q-137 -78 -202 -141t-70 -101
q45 -20 69 -61t25 -74z" />
    <glyph glyph-name="quotedblright" unicode="&#x201d;" horiz-adv-x="1034" 
d="M301 1208q0 70 48 117t116 47t117 -50t49 -130q0 -119 -130 -249t-329 -204l-49 92q137 77 202 141t70 101q-45 19 -69 61t-25 74zM778 1208q0 70 47 117t116 47t118 -50t49 -130q0 -119 -130 -249t-329 -204l-49 92q137 77 202 141t70 101q-46 19 -70 61t-24 74z" />
    <glyph glyph-name="quotedblbase" unicode="&#x201e;" horiz-adv-x="991" 
d="M61 143q-1 68 47 115t114 47t115 -48q48 -48 48 -128q0 -117 -128 -243t-323 -201l-45 90q133 76 197 139q63 63 70 98q-45 20 -70 60t-25 71zM696 305q66 0 114 -48t48 -128q0 -117 -128 -243t-322 -201l-46 90q133 76 197 139q63 63 70 98q-45 20 -70 60t-24 71
q0 68 47 115q48 47 114 47z" />
    <glyph glyph-name="dagger" unicode="&#x2020;" horiz-adv-x="1036" 
d="M223 659q-51 0 -90 36q-39 37 -39 97t47 102t109 42t112 -12l191 -43l14 284q6 162 129 162q70 0 101 -52t2 -114l-131 -289l186 43q123 28 189 -26q44 -35 44 -95t-37 -98q-38 -37 -90 -37t-87 33q-34 33 -37 80l-148 -14l-235 -762h-103l133 768l-137 14
q-2 -53 -37 -86t-86 -33z" />
    <glyph glyph-name="daggerdbl" unicode="&#x2021;" horiz-adv-x="1077" 
d="M395 -262q-59 0 -89 45t-3 104l117 260l-168 -38q-46 -9 -88 -9t-82 31t-39 86q0 55 34 88t81 33t78 -30t34 -70l131 12l113 287l25 284l-125 13q-2 -47 -33 -77t-77 -30t-81 32t-35 87t42 92t118 37q31 0 82 -10l170 -39l14 256q6 145 115 145q59 0 89 -45t3 -104
l-116 -260l167 38q107 28 169 -22q40 -31 40 -86q1 -55 -33 -88t-81 -33t-78 30t-35 70l-131 -12l-113 -287l-24 -284l125 -13q2 47 32 77q31 30 77 30t81 -32t35 -87t-42 -92t-118 -37q-31 0 -82 10l-170 39l-14 -256q-6 -145 -115 -145z" />
    <glyph glyph-name="bullet" unicode="&#x2022;" horiz-adv-x="704" 
d="M399 305q-109 0 -185 78q-76 79 -77 189q0 110 77 189q78 79 186 79t185 -79t77 -190t-77 -189t-186 -77z" />
    <glyph glyph-name="ellipsis" unicode="&#x2026;" horiz-adv-x="1445" 
d="M199 -16q-66 0 -112 46t-46 112t46 111q46 46 112 46q65 0 111 -46t46 -112q0 -65 -46 -111t-111 -46zM670 -16q-66 0 -112 46t-46 112t46 111q46 46 112 46t112 -46t45 -112q1 -65 -45 -111t-112 -46zM1141 -16q-66 0 -112 46t-46 112t46 111q46 46 112 46q65 0 111 -46
t46 -112q0 -65 -46 -111t-111 -46z" />
    <glyph glyph-name="perthousand" unicode="&#x2030;" horiz-adv-x="1990" 
d="M1636 -16q-116 0 -186 68t-70 180q0 114 84 201t200 87t185 -68q70 -68 70 -180q0 -114 -84 -201q-83 -87 -199 -87zM1534 234q0 -56 26 -88t76 -31q49 0 89 49t40 105t-26 88q-27 32 -76 32t-89 -49q-40 -50 -40 -106zM1022 -16q-116 0 -186 68t-70 180q0 114 84 201
t200 87t185 -68q70 -68 70 -180q0 -114 -84 -201q-83 -87 -199 -87zM1151 269q0 56 -27 88q-28 32 -76 32t-88 -49q-40 -50 -40 -106q1 -120 102 -119q49 0 89 49t40 105zM372 555q-116 0 -186 68q-70 67 -70 181t85 201q83 87 199 87t186 -68t70 -182t-85 -200
q-83 -87 -199 -87zM373 686q49 0 89 49t40 105t-27 89q-27 32 -76 32q-49 1 -89 -49t-40 -106t27 -88t76 -32zM72 96q653 493 1251 1018l78 -92q-336 -254 -561 -438t-690 -580z" />
    <glyph glyph-name="guilsinglleft" unicode="&#x2039;" horiz-adv-x="645" 
d="M408 186l-336 392l497 391l105 -123l-324 -293l180 -258z" />
    <glyph glyph-name="guilsinglright" unicode="&#x203a;" horiz-adv-x="645" 
d="M145 186l-104 123l324 293l-181 258l123 109l336 -391z" />
    <glyph glyph-name="fraction" unicode="&#x2044;" horiz-adv-x="1024" 
d="M-2 -33l-82 70q643 720 1098 1311l82 -70q-223 -250 -548 -634t-550 -677z" />
    <glyph glyph-name="zero.sup" unicode="&#x2070;" 
d="M510 995q84 -1 140 101t56 210q1 195 -114 195q-84 0 -140 -101t-57 -237q0 -168 115 -168zM517 864q-132 0 -200 81t-67 229q0 190 101 324t247 134q118 0 186 -81t68 -249t-101 -304q-102 -134 -234 -134z" />
    <glyph glyph-name="four.sup" unicode="&#x2074;" 
d="M541 993l26 107h-329l-21 71l475 482l88 -84l-370 -361h184l27 101l145 53l-35 -145h115l-29 -117h-115l-24 -107h86l-27 -112h-348l27 112h125z" />
    <glyph glyph-name="five.sup" unicode="&#x2075;" 
d="M602 1356q78 0 140 -58t62 -166q0 -106 -102 -186t-222 -80t-190 52t-69 112q0 39 24 67q25 27 63 27t64 -26t25 -62q0 -8 -4 -28q29 -14 95 -14t122 39t56 97t-37 86t-102 27q-65 0 -140 -31l-80 54l113 356h444l-30 -135h-326l-51 -156q67 25 145 25z" />
    <glyph glyph-name="six.sup" unicode="&#x2076;" 
d="M387 1104q0 -49 31 -80q32 -31 96 -31t108 39t44 90t-32 83t-92 32t-107 -42q-48 -42 -48 -91zM657 1636q85 0 145 -43t60 -104q0 -37 -24 -62t-59 -25t-59 24t-24 48t4 35q-25 8 -45 9q-83 0 -155 -68t-107 -184q81 86 183 86t168 -60t67 -166q0 -106 -89 -183t-211 -77
t-193 71t-70 206q0 246 172 399q109 94 237 94z" />
    <glyph glyph-name="seven.sup" unicode="&#x2077;" 
d="M307 881l438 620h-272l-33 -143h-129l62 264h501l46 -84l-449 -657h-164z" />
    <glyph glyph-name="eight.sup" unicode="&#x2078;" 
d="M522 989q64 0 104 30t40 75q0 44 -36 76t-102 32t-106 -31t-41 -77q0 -46 39 -75q38 -30 102 -30zM457 1416q0 -44 36 -72t90 -29t89 27t35 72t-34 72t-88 28t-91 -28q-37 -26 -37 -70zM525 868q-134 0 -213 60t-79 147q0 154 189 203q-111 53 -111 156q0 78 75 138
t198 60q124 0 198 -59t74 -148q0 -135 -166 -174q123 -55 123 -153t-77 -164t-211 -66z" />
    <glyph glyph-name="nine.sup" unicode="&#x2079;" 
d="M721 1399q0 49 -31 79q-32 30 -96 31q-64 0 -108 -39t-44 -90t32 -83q32 -31 92 -31t107 42q48 42 48 91zM534 1151q-104 -1 -170 59t-67 166q0 106 89 184q89 76 211 76t193 -70t70 -206q0 -246 -172 -399q-109 -94 -237 -95q-86 0 -146 43q-59 43 -59 105q0 38 24 62
t60 24q34 0 58 -24t24 -47t-4 -36q25 -8 45 -8q83 -1 155 65t107 187q-77 -86 -181 -86z" />
    <glyph glyph-name="zero.inf" unicode="&#x2080;" 
d="M238 -172q84 0 140 101t56 209q0 196 -115 196q-84 0 -140 -102t-56 -236q0 -168 115 -168zM244 -303q-267 1 -267 331q-1 168 101 302t248 135q118 0 186 -81q68 -82 68 -250t-102 -302t-234 -135z" />
    <glyph glyph-name="one.inf" unicode="&#x2081;" 
d="M-45 -287l29 131h188l107 465l-179 -45l-10 131l289 72l74 -33l-136 -590h185l-29 -131h-518z" />
    <glyph glyph-name="two.inf" unicode="&#x2082;" 
d="M440 262q0 78 -118 78q-70 0 -101 -27q17 -20 17 -53q0 -34 -25 -58t-61 -24t-60 26q-25 26 -24 64q0 86 84 144t190 57q106 0 176 -54q72 -54 72 -149q0 -57 -41 -108t-87 -79t-118 -63q-180 -86 -242 -182h283l29 121h121l-58 -242h-528l-29 68q80 201 369 340
q79 39 115 71t36 70z" />
    <glyph glyph-name="three.inf" unicode="&#x2083;" 
d="M242 -299q-110 0 -199 48q-88 48 -88 142q0 39 26 65q27 26 61 26t58 -25t25 -55q0 -30 -12 -49q29 -29 109 -29t120 29q39 29 39 69t-35 73q-35 32 -106 32h-64l31 133h59q74 0 122 26t48 68q0 40 -38 64t-84 24t-76 -8q4 -16 4 -39t-25 -47t-59 -25q-34 0 -61 25
q-26 25 -25 61q0 59 64 108q64 48 186 48t196 -59q74 -58 74 -138t-58 -128t-167 -54q164 -39 163 -168q0 -104 -88 -160q-90 -56 -200 -57z" />
    <glyph glyph-name="four.inf" unicode="&#x2084;" 
d="M268 -174l27 106h-330l-20 72l475 481l88 -84l-371 -360h185l26 100l146 54l-35 -146h114l-28 -117h-115l-24 -106h86l-27 -113h-348l26 113h125z" />
    <glyph glyph-name="five.inf" unicode="&#x2085;" 
d="M393 -37q1 113 -137 113q-64 0 -141 -31l-80 53l112 357h445l-31 -136h-325l-52 -155q66 24 144 24t142 -58q62 -58 62 -150q0 -121 -102 -201t-222 -80t-190 51t-69 113q-1 39 23 67t63 27q39 0 65 -26t25 -48q0 -22 -4 -43q29 -14 95 -14t122 40q55 40 55 97z" />
    <glyph glyph-name="six.inf" unicode="&#x2086;" 
d="M115 -64q1 -50 31 -80t94 -30t109 39q44 39 44 90t-32 83t-91 32t-107 -42t-48 -92zM-25 -25q0 246 172 400q109 94 238 94q86 0 145 -43q60 -43 60 -92t-25 -74q-25 -24 -59 -24t-64 28q-29 28 -14 78q-25 8 -45 8q-84 0 -158 -67q-70 -68 -104 -185q80 86 182 86
t169 -59t67 -166t-89 -183t-211 -77q-122 0 -193 71t-71 205z" />
    <glyph glyph-name="seven.inf" unicode="&#x2087;" 
d="M35 -287l438 621h-272l-33 -144h-129l61 265h502l45 -84l-448 -658h-164z" />
    <glyph glyph-name="eight.inf" unicode="&#x2088;" 
d="M256 35q-66 0 -106 -31t-41 -77q0 -45 39 -75q38 -30 102 -30t104 30t39 74q0 44 -36 77q-35 32 -101 32zM310 147q54 0 89 28t35 72q0 43 -34 71t-88 28t-91 -27t-37 -71t36 -72q36 -29 90 -29zM541 -70q0 -98 -77 -164t-211 -65q-134 0 -213 59t-79 148q0 154 189 203
q-111 53 -111 155q0 78 75 138q76 60 198 60t197 -58q75 -59 75 -148q0 -135 -166 -174q123 -56 123 -154z" />
    <glyph glyph-name="nine.inf" unicode="&#x2089;" 
d="M294 98q60 0 106 42q48 42 48 92t-30 80q-32 30 -96 30t-108 -39t-44 -90t32 -83t92 -32zM25 210q0 106 89 182t211 77q123 0 193 -71t70 -205q0 -246 -172 -400q-109 -94 -238 -94q-86 0 -145 43t-59 92t24 74q24 24 58 24t65 -29t14 -77q25 -8 45 -8q84 0 158 67
q70 68 104 185q-76 -86 -180 -86t-171 59q-66 61 -66 167z" />
    <glyph glyph-name="Euro" unicode="&#x20ac;" horiz-adv-x="1304" 
d="M240 487q0 57 12 109h-148l39 168h160q78 156 228 242q151 86 323 86t292 -90t120 -211q0 -76 -42 -120t-102 -44t-101 40q-40 40 -40 92t35 91q-37 43 -152 43q-227 0 -332 -139h297l-36 -158h-326q-14 -61 -14 -109h333l-36 -157h-279q66 -152 295 -152q160 0 315 119
l109 -145q-188 -170 -438 -170q-180 0 -320 81q-139 82 -184 256h-187l39 168h140z" />
    <glyph glyph-name="published" unicode="&#x2117;" horiz-adv-x="1269" 
d="M668 526q51 0 81 28q29 28 29 73t-32 71t-82 25h-58v-195q11 -2 62 -2zM453 266v82h61v375h-61v82h217q88 0 145 -47t57 -133t-57 -133t-156 -48h-53v-96h68v-82h-221zM635 997q-187 0 -317 -133q-130 -134 -130 -328t130 -326t315 -132q186 0 317 134t131 327t-129 325
t-317 133zM1188 538q0 -230 -162 -392t-392 -162t-391 160t-161 392t161 394t392 162t392 -162t161 -392z" />
    <glyph glyph-name="servicemark" unicode="&#x2120;" horiz-adv-x="1333" 
d="M651 829l19 91h67l97 337h-76l20 91h197l59 -283l187 283h209l-21 -91h-74l-65 -337h69l-20 -91h-232l17 91h65l54 274l-197 -281h-47l-66 281l-77 -274h67l-20 -91h-232zM614 994q0 -89 -64 -135t-145 -46q-82 0 -134 38t-52 80q-1 43 19 65t51 22q61 0 61 -53
q0 -25 -16 -37q18 -23 76 -23q88 0 88 68q0 34 -38 54q-13 7 -37 17q-128 53 -128 148q0 76 59 122q60 46 140 46t130 -36t50 -75t-20 -61t-48 -21q-29 -1 -44 15t-15 36t10 29q-25 21 -64 21t-61 -16t-20 -43q1 -28 34 -49q10 -5 36 -16t30 -14q102 -47 102 -136z" />
    <glyph glyph-name="trademark" unicode="&#x2122;" horiz-adv-x="1374" 
d="M258 829l16 91h72l82 342h-96l-21 -91h-92l41 177h481l-41 -177h-94l25 91h-94l-82 -342h69l-20 -91h-246zM692 829l19 91h67l96 337h-75l20 91h197l59 -283l187 283h208l-20 -91h-74l-65 -337h69l-20 -91h-232l17 91h65l54 274l-197 -281h-47l-66 281l-77 -274h67
l-20 -91h-232z" />
    <glyph glyph-name="onethird" unicode="&#x2153;" horiz-adv-x="1628" 
d="M362 -33l-81 70q648 727 1097 1311l82 -70q-223 -250 -548 -634t-550 -677zM1481 205q0 -105 -89 -161q-90 -56 -200 -56t-199 48q-88 48 -88 142q0 39 26 65q27 25 61 25t59 -24t25 -55q0 -30 -13 -50q29 -29 110 -29q158 1 158 107q0 33 -35 65t-106 31h-64l31 133h60
q73 0 121 27t48 68t-38 65t-84 23q-46 0 -76 -8q4 -16 4 -39q0 -24 -25 -48t-59 -24t-60 25t-26 61q0 59 64 107q65 49 187 49q121 0 195 -60t74 -138q0 -79 -58 -127t-167 -54q164 -39 164 -168zM119 573l28 132h189l106 464l-178 -45l-10 131l289 72l73 -33l-135 -589h185
l-29 -132h-518z" />
    <glyph glyph-name="twothirds" unicode="&#x2154;" horiz-adv-x="1628" 
d="M385 -33l-82 70q643 720 1098 1311l82 -70q-223 -250 -548 -634t-550 -677zM1499 205q0 -105 -89 -161q-90 -56 -200 -56t-198 48t-88 142q0 39 25 65q26 25 61 25q36 0 60 -24t24 -55q0 -30 -13 -50q29 -29 110 -29t120 30q39 28 39 69t-35 73t-107 31h-63l31 133h59
q74 0 122 27t48 68t-38 65t-84 23q-46 0 -77 -8q4 -16 4 -39q0 -24 -24 -48t-60 -24q-34 0 -60 25t-26 61q0 59 65 107q65 49 187 49t195 -60q74 -60 74 -138q-1 -79 -59 -127t-167 -54q164 -39 164 -168zM633 1122q0 78 -119 78q-70 0 -100 -26q16 -20 16 -54t-24 -58
t-61 -24t-61 26t-24 64q0 86 84 144t190 57q106 0 177 -54q72 -54 71 -149q0 -57 -41 -108t-87 -79t-117 -62q-180 -86 -242 -183h283l28 121h121l-57 -242h-529l-28 68q80 201 368 340q78 39 115 71t37 70z" />
    <glyph glyph-name="onefifth" unicode="&#x2155;" horiz-adv-x="1628" 
d="M358 -33l-82 70q655 735 1098 1311l82 -70q-223 -250 -548 -634t-550 -677zM1158 -14q-120 0 -190 51t-69 113q0 38 24 66q25 28 63 28t64 -26t26 -48t-5 -43q29 -14 95 -14t122 40q55 40 55 97t-36 85q-80 60 -242 -3l-80 53l113 356h444l-31 -135h-325l-51 -155
q67 25 145 25t140 -59q62 -58 62 -165q0 -106 -102 -186t-222 -80zM125 573l29 132h188l107 464l-179 -45l-10 131l289 72l74 -33l-136 -589h185l-29 -132h-518z" />
    <glyph glyph-name="twofifths" unicode="&#x2156;" horiz-adv-x="1628" 
d="M391 -33l-82 70q643 720 1098 1311l82 -70q-223 -250 -548 -634t-550 -677zM1503 266q-1 -120 -103 -200t-222 -80t-190 51t-68 113q0 38 24 66t62 28t64 -26t26 -48t-4 -43q30 -14 96 -14t121 40t55 97t-37 85q-79 60 -242 -3l-79 53l112 356h445l-31 -135h-326
l-51 -155q67 25 145 25t140 -59q62 -58 63 -151zM653 1122q0 78 -118 78q-70 0 -101 -26q16 -20 16 -54t-24 -58t-60 -24t-61 26t-24 64q0 86 84 144q83 58 189 57q106 0 178 -54t71 -149q0 -57 -41 -108t-87 -79t-118 -62q-180 -86 -242 -183h283l29 121h121l-58 -242h-528
l-29 68q80 201 369 340q78 39 114 71t37 70z" />
    <glyph glyph-name="threefifths" unicode="&#x2157;" horiz-adv-x="1628" 
d="M362 -33l-81 70q648 727 1097 1311l82 -70q-223 -250 -548 -634t-550 -677zM735 778q0 -104 -89 -160q-90 -56 -200 -57q-110 0 -198 48t-88 143q0 38 26 64t60 26q36 0 60 -25t24 -55t-13 -49q29 -29 110 -29t120 29t39 70t-35 73t-107 31h-63l31 133h59q74 0 122 27
t48 67t-38 65q-64 40 -161 15q4 -16 4 -39t-24 -47t-60 -25q-34 0 -60 25t-26 61q0 59 65 107t187 49q122 0 195 -59q74 -59 74 -138q-1 -80 -59 -128t-167 -54q164 -39 164 -168zM1493 266q-1 -120 -103 -200t-222 -80t-190 51t-69 113q0 38 24 66q25 28 63 28t64 -26
t26 -48t-5 -43q29 -14 95 -14t122 40t56 97t-37 85q-37 27 -101 27t-141 -30l-80 53l113 356h444l-30 -135h-326l-51 -155q67 25 145 25t140 -59q62 -58 63 -151z" />
    <glyph glyph-name="fourfifths" unicode="&#x2158;" horiz-adv-x="1628" 
d="M375 -33l-82 70q643 720 1098 1311l82 -70q-223 -250 -548 -634t-550 -677zM473 686l27 107h-330l-20 71l475 482l88 -84l-371 -361h184l27 100l145 54l-34 -146h114l-28 -116h-115l-25 -107h86l-26 -113h-348l26 113h125zM1358 250q0 114 -138 112q-64 0 -141 -30
l-80 53l113 356h444l-30 -135h-326l-51 -155q67 25 145 25t140 -59q62 -58 63 -151q-1 -120 -103 -200t-222 -80t-190 51t-69 113q0 38 24 66q25 28 63 28t64 -26t26 -48t-5 -43q29 -14 95 -14t123 40q55 40 55 97z" />
    <glyph glyph-name="onesixth" unicode="&#x2159;" horiz-adv-x="1628" 
d="M1051 223q1 -49 31 -79t94 -31q64 0 109 39q44 39 44 90t-32 83q-31 31 -91 31t-108 -42t-47 -91zM348 -33l-82 70q643 720 1098 1311l82 -70q-223 -250 -548 -634t-550 -677zM117 573l28 132h189l106 464l-178 -45l-10 131l289 72l73 -33l-135 -589h185l-29 -132h-518z
M911 262q0 246 172 400q109 94 238 94q86 0 145 -43q60 -43 60 -93t-25 -74t-59 -24t-63 29q-30 29 -15 78q-25 8 -45 8q-84 0 -156 -68t-106 -184q80 86 182 86t169 -59t67 -166q1 -107 -89 -184t-212 -77t-192 71q-71 71 -71 206z" />
    <glyph glyph-name="fivesixths" unicode="&#x215a;" horiz-adv-x="1628" 
d="M1053 223q1 -49 31 -79t94 -31q64 0 109 39q44 39 44 90t-32 83q-32 31 -91 31t-107 -42t-48 -91zM352 -33l-82 70q643 720 1098 1311l82 -70q-223 -250 -548 -634t-550 -677zM598 823q0 113 -138 113q-64 0 -141 -31l-79 53l112 357h445l-31 -135h-326l-51 -156
q67 25 145 25q78 -1 140 -59t63 -150q-1 -121 -103 -201t-222 -80t-190 51t-68 113q0 39 23 67q24 28 63 28q38 0 64 -26t26 -48t-4 -44q30 -14 96 -14t121 40t55 97zM913 262q0 246 172 400q109 94 238 94q86 0 145 -43q60 -43 60 -93t-25 -74t-59 -24t-64 29
q-29 29 -14 78q-25 8 -45 8q-84 0 -156 -68t-106 -184q80 86 182 86t169 -59t67 -166t-89 -184t-211 -77t-193 71t-71 206z" />
    <glyph glyph-name="oneeighth" unicode="&#x215b;" horiz-adv-x="1628" 
d="M344 -33l-82 70q643 720 1098 1311l82 -70q-223 -250 -548 -634t-550 -677zM1202 322q-66 0 -106 -31t-41 -77q0 -46 39 -76q38 -30 102 -29q64 -1 104 29t39 75q0 45 -35 77q-36 32 -102 32zM1256 434q54 0 90 28q34 28 34 72t-34 72t-87 27q-53 0 -91 -27
q-38 -26 -38 -70t36 -73t90 -29zM1487 218q0 -98 -77 -164t-211 -66t-213 59t-79 148q0 154 189 202q-111 53 -111 156q0 78 75 138q75 61 198 61q124 0 198 -60t74 -147q0 -135 -166 -174q123 -55 123 -153zM119 573l28 132h189l106 464l-178 -45l-10 131l289 72l73 -33
l-135 -589h185l-29 -132h-518z" />
    <glyph glyph-name="threeeighths" unicode="&#x215c;" horiz-adv-x="1628" 
d="M342 -33l-82 70q643 720 1098 1311l82 -70q-223 -250 -548 -634t-550 -677zM1204 322q-66 0 -106 -31t-41 -77q0 -46 39 -76q38 -30 102 -29q64 -1 104 29t40 75t-36 77t-102 32zM1261 633q-53 0 -91 -27q-38 -26 -38 -70t36 -73t90 -29t90 28q34 28 34 72t-34 72t-87 27
zM1489 218q0 -98 -77 -164t-211 -66t-213 59t-79 148q0 154 189 202q-111 53 -111 156q0 78 75 138q75 61 198 61q124 0 198 -60t74 -147q0 -135 -166 -174q123 -55 123 -153zM727 778q0 -104 -89 -160q-90 -56 -200 -57q-110 0 -198 48t-88 143q0 38 26 64t60 26
q36 0 60 -25t24 -55t-13 -49q29 -29 110 -29t120 29t39 70t-35 73t-107 31h-63l30 133h60q74 0 122 27t48 67t-38 65q-64 40 -161 15q4 -16 4 -39t-24 -47t-60 -25q-34 0 -60 25t-26 61q0 59 65 107t187 49q122 0 195 -59t73 -138q0 -80 -58 -128t-167 -54q164 -39 164 -168
z" />
    <glyph glyph-name="fiveeighths" unicode="&#x215d;" horiz-adv-x="1628" 
d="M328 -33l-82 70q648 727 1097 1311l82 -70q-223 -250 -547 -634t-550 -677zM594 823q0 113 -138 113q-64 0 -141 -31l-79 53l112 357h445l-31 -135h-326l-51 -156q67 25 145 25q78 -1 140 -59t63 -150q-1 -121 -103 -201t-222 -80t-190 51t-68 113q0 39 23 67
q24 28 63 28q38 0 64 -26t26 -48t-4 -44q30 -14 96 -14t121 40t55 97zM1186 109q64 -1 104 29t39 75q0 45 -36 77q-35 32 -101 32t-107 -31t-41 -77t39 -76q39 -29 103 -29zM1246 434q54 0 89 28t35 72t-34 72t-88 27q-54 0 -91 -27q-37 -26 -37 -70t36 -73t90 -29z
M1477 218q0 -98 -77 -164t-211 -66t-213 59t-79 148q0 154 188 202q-111 53 -110 156q0 78 75 138q76 61 198 61t197 -60t75 -147q0 -135 -166 -174q123 -55 123 -153z" />
    <glyph glyph-name="seveneighths" unicode="&#x215e;" horiz-adv-x="1628" 
d="M281 -33l-82 70q648 727 1097 1311l82 -70q-224 -250 -548 -634t-549 -677zM1032 214q0 -46 39 -76t103 -29q64 -1 103 29q40 30 40 75t-36 77q-35 32 -101 32t-107 -31t-41 -77zM1234 434q54 0 89 28t35 72t-34 72t-88 27q-54 0 -91 -27q-37 -26 -37 -70t36 -73t90 -29z
M1176 -12q-134 0 -212 59t-79 148q0 154 188 202q-111 53 -110 156q0 78 74 138q75 61 198 61t198 -60t74 -147q0 -135 -166 -174q123 -55 123 -153t-76 -165q-78 -65 -212 -65zM260 573l438 621h-272l-33 -143h-129l62 264h501l45 -84l-448 -658h-164z" />
    <glyph glyph-name="minus" unicode="&#x2212;" horiz-adv-x="950" 
d="M125 485l45 189h737l-45 -189h-737z" />
    <glyph glyph-name="Q.alt" horiz-adv-x="1492" 
d="M741 186q55 0 105 15l-94 258l194 69l82 -223q92 86 146 211q53 125 53 254q1 172 -97 282t-272 109q-135 0 -248 -87t-175 -220q-62 -132 -62 -290t97 -268t271 -110zM721 -25q-270 0 -429 168t-159 437q0 196 94 376q95 180 269 298t383 118q270 0 429 -168t158 -436
q0 -190 -94 -370t-254 -294l99 -266l-195 -69l-88 239q-109 -33 -213 -33z" />
    <glyph glyph-name="zero.lin" horiz-adv-x="1351" 
d="M649 188q174 0 299 190t125 433q0 158 -71 253t-193 95q-174 0 -299 -189t-125 -433q1 -157 71 -253t193 -96zM639 -25q-219 1 -356 147t-138 402q0 348 201 598t473 250q219 0 357 -146t137 -403q0 -348 -201 -598t-473 -250z" />
    <glyph glyph-name="one.lin" horiz-adv-x="919" 
d="M39 2l47 207h242l211 911l-226 -53l-16 207l403 98l115 -53l-256 -1110h238l-47 -207h-711z" />
    <glyph glyph-name="two.lin" horiz-adv-x="1191" 
d="M53 0q-4 0 -15 27t-22 53l-8 26q89 224 296 383q154 118 331 211q176 92 250 160q73 68 73 146t-62 120t-165 43q-166 0 -221 -69q45 -46 45 -104t-40 -99q-41 -41 -105 -41t-104 45t-40 125q0 127 133 237q133 109 341 109t332 -96t124 -261t-126 -268t-312 -198
q-348 -176 -457 -354h539l53 225h194l-98 -420h-936z" />
    <glyph glyph-name="three.lin" horiz-adv-x="1155" 
d="M53 297q0 72 41 120q40 48 100 48t100 -40t40 -95t-43 -99q59 -55 256 -55q125 0 202 60t77 152q0 91 -75 147q-75 55 -206 55h-105l49 207h91q152 0 246 56t96 145q0 89 -76 131t-174 42t-148 -28q41 -95 -25 -161q-41 -40 -101 -40t-101 43t-41 115q0 100 116 184
t329 84t339 -99t125 -245q0 -287 -364 -340q125 -35 193 -117q68 -81 67 -201q0 -120 -81 -212q-153 -174 -445 -174q-225 0 -354 92q-128 92 -128 225z" />
    <glyph glyph-name="four.lin" horiz-adv-x="1204" 
d="M1034 877l-71 -306h211l-46 -190h-208l-43 -186h157l-45 -195h-614l45 188h231l45 197h-612l-31 111l885 901l147 -140l-694 -690h346l51 217z" />
    <glyph glyph-name="five.lin" horiz-adv-x="1089" 
d="M467 -25q-186 0 -310 81t-124 192q0 72 43 116t102 44q60 0 102 -42t42 -86t-13 -69q49 -35 187 -35t229 77q90 77 90 206q0 94 -70 154q-137 117 -419 12l-125 84l205 639h749l-49 -213h-561l-105 -318q96 39 205 39q166 0 281 -104t114 -283q0 -223 -160 -359
t-413 -135z" />
    <glyph glyph-name="six.lin" horiz-adv-x="1189" 
d="M891 444q1 104 -63 164q-64 62 -180 62t-208 -86t-92 -186t64 -160q64 -62 184 -62t208 82q87 82 87 186zM121 502q0 198 86 402q87 204 251 336t390 132q158 0 264 -77t107 -185q0 -63 -39 -106q-38 -43 -96 -43q-58 -1 -98 39t-40 82t19 77q-43 25 -125 25
q-145 0 -271 -111q-74 -66 -130 -169t-77 -214q50 70 142 120t198 50q180 0 299 -110t119 -277q0 -211 -158 -354t-369 -143q-210 0 -341 130q-131 131 -131 396z" />
    <glyph glyph-name="seven.lin" horiz-adv-x="1052" 
d="M104 0l805 1153h-491l-60 -258h-206l104 453h868l70 -127l-827 -1221h-263z" />
    <glyph glyph-name="eight.lin" horiz-adv-x="1200" 
d="M330 386q0 -88 74 -148q74 -58 195 -58q122 0 203 64t81 151q0 89 -74 147q-73 58 -195 58t-203 -63t-81 -151zM722 1169q-106 0 -180 -59q-74 -58 -75 -144q1 -86 69 -138t174 -52t180 60q75 60 75 144q0 85 -69 137q-68 52 -174 52zM1124 379q0 -163 -142 -281
t-374 -118t-376 107q-144 108 -144 256q0 149 88 245t244 137q-186 96 -186 257q0 162 132 274q134 112 351 112t354 -108t137 -263q0 -121 -76 -203t-217 -116q97 -43 153 -123t56 -176z" />
    <glyph glyph-name="nine.lin" horiz-adv-x="1189" 
d="M948 950q0 100 -64 160t-184 61t-207 -81t-87 -186t63 -164q63 -62 180 -62t208 86t91 186zM176 874q0 210 159 354t369 144t340 -131t132 -395q0 -199 -86 -403q-86 -203 -251 -335t-390 -133q-158 0 -265 77q-106 77 -106 186q0 63 39 106t96 43t97 -40t40 -81t-18 -78
q43 -25 125 -24q143 0 270 112q164 147 207 381q-51 -69 -142 -119t-198 -51q-180 1 -299 111t-119 276z" />
    <glyph glyph-name="bullet.alt" horiz-adv-x="1312" 
d="M656 -100q-258 0 -414 162t-156 394t159 396t415 164t413 -162q158 -162 158 -393t-159 -396t-416 -165z" />
    <glyph glyph-name="hyphen.lin" horiz-adv-x="669" 
d="M141 586l52 202h503l-43 -202h-512z" />
    <glyph glyph-name="endash.lin" horiz-adv-x="1046" 
d="M109 596l45 184h954l-39 -184h-960z" />
    <glyph glyph-name="emdash.lin" horiz-adv-x="1536" 
d="M109 596l45 184h1443l-41 -184h-1447z" />
    <glyph glyph-name="parenleft.lin" horiz-adv-x="860" 
d="M172 535q0 397 226 687t603 433l76 -164q-674 -299 -674 -963q0 -401 373 -733l-125 -137q-172 126 -313 333q-166 240 -166 544z" />
    <glyph glyph-name="parenright.lin" horiz-adv-x="860" 
d="M846 786q0 -397 -226 -687t-604 -433l-75 164q674 299 673 963q0 401 -372 733l125 137q168 -123 323 -348q156 -225 156 -529z" />
    <glyph glyph-name="bracketleft.lin" horiz-adv-x="745" 
d="M63 -287l445 1909h510l-39 -168h-322l-364 -1573h317l-39 -168h-508z" />
    <glyph glyph-name="bracketright.lin" horiz-adv-x="745" 
d="M-113 -287l39 168h322l366 1573h-319l39 168h508l-443 -1909h-512z" />
    <glyph glyph-name="braceleft.lin" horiz-adv-x="749" 
d="M100 23q0 162 203 301q143 98 143 159q0 39 -55 66t-158 26h-55l45 189h62q131 0 192 45t61 103t-87 176q-88 118 -89 221q0 153 151 245t443 101l-4 -148q-383 -35 -383 -182q1 -61 97 -191t96 -218t-79 -156t-245 -90q113 -14 173 -68t61 -131q0 -100 -183 -229
q-59 -41 -91 -68t-60 -68t-29 -81q0 -139 301 -195l-35 -145q-233 33 -354 121t-121 217z" />
    <glyph glyph-name="braceright.lin" horiz-adv-x="749" 
d="M328 14q0 62 -96 192t-96 218t78 156q79 68 245 90q-113 14 -173 67t-61 131q0 100 183 230q59 42 91 68q33 26 61 67t28 82q0 139 -301 194l35 146q233 -33 354 -121t121 -217q0 -162 -203 -301q-143 -98 -143 -160q0 -40 55 -66t158 -26h55l-45 -189h-62
q-131 0 -192 -45q-62 -45 -62 -103t88 -176t89 -220q-1 -154 -151 -246t-443 -100l4 147q383 35 383 182z" />
    <glyph glyph-name="registered.alt" horiz-adv-x="1269" 
d="M575 561h54q55 0 87 24t32 64q0 84 -121 84h-52v-172zM422 276v84h61v373h-61v82h209q96 0 154 -41t59 -121q0 -104 -103 -147l84 -146h62v-84h-125l-109 205h-78v-121h68v-84h-221zM635 997q-187 0 -317 -133q-130 -134 -130 -328t130 -326t315 -132q186 0 317 134
t131 327t-129 325t-317 133zM1188 538q0 -230 -162 -392t-392 -162t-391 160t-161 392t161 394t392 162t392 -162t161 -392z" />
    <glyph glyph-name="copyright.lin" horiz-adv-x="1601" 
d="M866 338q-141 0 -245 97q-105 97 -105 247t108 252t241 102t209 -53t77 -117q0 -36 -27 -64q-28 -28 -62 -28t-58 25t-23 51q0 26 6 33q-35 27 -118 27t-146 -63t-63 -157t58 -158q60 -64 164 -63q104 0 183 86l88 -90q-94 -127 -287 -127zM862 76q248 0 411 174t163 424
t-163 424t-411 174t-410 -174t-163 -424q1 -250 163 -424t410 -174zM862 -25q-288 0 -486 204t-198 495q0 290 199 494t485 204t486 -204q198 -204 198 -494t-198 -495q-198 -204 -486 -204z" />
    <glyph glyph-name="published.lin" horiz-adv-x="1601" 
d="M898 659q54 0 87 34t33 85t-36 81t-93 30h-62v-227q17 -3 71 -3zM623 334v119h71v436h-71v119h276q111 0 183 -62t73 -171q0 -110 -74 -167t-200 -57h-54v-98h80v-119h-284zM862 76q248 0 411 174t163 424t-163 424t-411 174t-410 -174t-163 -424q1 -250 163 -424
t410 -174zM862 -25q-288 0 -486 204t-198 495q0 290 199 494t485 204t486 -204q198 -204 198 -494t-198 -495q-198 -204 -486 -204z" />
    <glyph glyph-name="registered.lin" horiz-adv-x="1601" 
d="M799 707h73q55 0 89 26q33 27 32 74q0 100 -127 100h-67v-200zM594 352v119h74v436h-74v119h264q123 0 198 -52t74 -155q0 -135 -116 -184l86 -164h74v-119h-164l-123 248h-88v-129h84v-119h-289zM862 76q248 0 411 174t163 424t-163 424t-411 174t-410 -174t-163 -424
q1 -250 163 -424t410 -174zM862 -25q-288 0 -486 204t-198 495q0 290 199 494t485 204t486 -204q198 -204 198 -494t-198 -495q-198 -204 -486 -204z" />
    <glyph glyph-name="dollar.lin" horiz-adv-x="1153" 
d="M479 979q0 -84 131 -160l109 342q-115 -2 -177 -50t-63 -132zM578 186q110 0 184 46t74 118t-36 112q-36 42 -118 83l-115 -359h11zM53 320q0 88 44 138q45 50 107 50t103 -41t41 -103t-49 -104q35 -31 119 -55l127 401q-297 135 -297 369q0 157 132 265t361 108h25
l61 190l166 -49l-53 -170q123 -37 198 -111q74 -74 74 -152t-42 -131t-106 -53t-105 41q-39 41 -39 99t43 102q-27 20 -93 33l-125 -395q166 -76 247 -156t81 -228t-137 -258t-371 -110h-45l-67 -215l-166 49l61 199q-131 41 -213 120t-82 167z" />
    <glyph glyph-name="sterling.lin" horiz-adv-x="1202" 
d="M801 -25q-79 -1 -132 15t-158 54t-183 40q-40 -51 -100 -80t-114 -29t-95 34q-40 34 -39 79q0 74 86 122t204 34q109 109 133 241h-253l40 177h220q-4 44 -16 118t-13 119q0 205 125 339t310 134t294 -83t109 -204q0 -73 -41 -115q-42 -42 -96 -42t-91 38t-37 85t27 84
q-4 20 -47 33t-98 14q-120 0 -180 -78t-60 -209q0 -51 12 -124t17 -109h366l-39 -177h-338q-35 -154 -149 -247q61 8 156 -19q16 -4 84 -24t123 -21q55 0 97 22t109 85l109 -103q-137 -203 -342 -203z" />
    <glyph glyph-name="Euro.lin" horiz-adv-x="1470" 
d="M809 -23q-190 0 -329 112q-138 112 -179 310h-248l43 191h193q4 80 18 153h-174l43 191h189q92 198 268 318t383 120t341 -100t134 -246q0 -72 -45 -124q-44 -52 -108 -52t-105 42t-41 99t39 96q-51 72 -219 72q-121 0 -229 -63t-175 -172h393l-40 -176h-422
q-20 -86 -21 -160h406l-41 -176h-346q67 -222 279 -222t386 172l139 -135q-215 -250 -532 -250z" />
    <glyph glyph-name="yen.lin" horiz-adv-x="1329" 
d="M221 563l37 168h240l-172 426h-131l45 191h510l-45 -191h-146l143 -412l347 412h-152l45 191h541l-45 -191h-121l-393 -426h217l-37 -168h-336l-29 -121h340l-37 -168h-342l-22 -104h184l-39 -170h-563l39 170h168l25 104h-332l37 168h333l27 121h-336z" />
    <glyph glyph-name="cent.lin" horiz-adv-x="1026" 
d="M354 669q0 -132 95 -200l159 520q-106 -25 -180 -107t-74 -213zM600 242q-49 0 -72 2l-92 -297l-149 39l90 297q-117 47 -183 142t-67 224q0 209 155 360t375 160l62 205l149 -39l-55 -180q102 -29 168 -95t66 -140t-38 -119q-37 -45 -95 -45t-96 38t-38 87t31 90
q-25 14 -61 20l-175 -571q12 -2 39 -2q182 0 328 100l-2 -188q-129 -88 -340 -88z" />
    <glyph glyph-name="numbersign.lin" horiz-adv-x="1263" 
d="M575 803l-79 -283h249l78 283h-248zM1171 1348l-98 -351h223l-53 -204h-229l-74 -263h221l-53 -204h-225l-90 -326h-205l90 326h-227l-91 -326h-204l90 326h-221l53 204h225l74 263h-217l53 204h221l101 351h204l-98 -351h227l99 351h204z" />
    <glyph glyph-name="paragraph.lin" horiz-adv-x="1492" 
d="M819 197h174l221 954h-174zM610 444q-223 0 -353 114t-130 308t172 338q172 143 453 144h886l-49 -207h-153l-215 -934h153l-47 -207h-987l47 207h209l55 237h-41z" />
    <glyph glyph-name="section.lin" horiz-adv-x="1089" 
d="M373 699q0 -41 46 -71t163 -81l49 -23q113 27 159 54q46 26 46 70t-47 75t-117 59t-99 43q-113 -29 -157 -57t-43 -69zM150 666q0 180 288 239q-102 76 -102 190q0 113 101 195t304 82t299 -110q52 -58 52 -116t-35 -92t-82 -34t-80 33t-33 72t12 59l-30 12
q-55 16 -120 16t-115 -20t-50 -57t42 -66q41 -29 135 -73q248 -117 298 -211q25 -46 25 -101q0 -180 -291 -242q104 -80 104 -190t-101 -193q-101 -82 -304 -82t-301 113q-49 56 -49 114t35 92q36 34 82 34t79 -33t33 -71t-12 -60l31 -12q133 -39 234 4q50 20 50 57t-42 66
q-41 29 -135 73q-246 116 -298 210q-24 47 -24 102z" />
    <glyph glyph-name="ordfeminine.lin" horiz-adv-x="776" 
d="M315 1141q-1 -115 105 -115q56 0 106 62t49 149q0 113 -100 113q-66 0 -113 -64t-47 -145zM106 680l29 123h610l-28 -123h-611zM346 911q-74 1 -122 59t-48 150q0 142 82 246t195 104q49 0 92 -36t55 -84l37 110h125l-92 -366q-10 -37 -11 -58q0 -33 27 -32q39 0 70 88
l53 -21q-47 -160 -164 -160q-51 0 -80 32t-30 87q-62 -119 -189 -119z" />
    <glyph glyph-name="ordmasculine.lin" horiz-adv-x="712" 
d="M468 1028q62 0 109 58q48 58 48 132t-36 110q-35 36 -97 36t-110 -58t-48 -132t36 -110t98 -36zM113 680l28 123h529l-29 -123h-528zM460 918q-126 0 -194 70t-68 184t88 208q87 94 213 94q125 0 193 -70t68 -184t-87 -208t-213 -94z" />
    <glyph glyph-name="degree.lin" horiz-adv-x="675" 
d="M460 1044q52 0 97 58t45 120q0 64 -30 95t-82 31t-96 -58q-46 -58 -46 -120q0 -64 30 -95t82 -31zM456 918q-126 0 -194 70t-68 184t88 208q87 94 213 94q125 0 193 -70t68 -184t-87 -208t-213 -94z" />
    <glyph glyph-name="percent.lin" horiz-adv-x="1476" 
d="M938 272q0 -72 34 -112t98 -41q64 0 110 61q47 61 47 132t-35 113q-36 42 -98 42t-109 -61q-47 -62 -47 -134zM466 864q64 0 110 62t46 132t-34 112q-36 42 -98 42t-109 -61t-47 -133t34 -113t98 -41zM1063 -16q-127 0 -202 76t-75 206q0 128 96 232t221 104
q126 0 201 -77q74 -77 74 -207t-94 -232t-221 -102zM152 -2l-84 84q36 25 320 287t388 345t388 357q286 274 288 277l80 -86q-35 -27 -317 -285q-281 -258 -369 -329q-185 -150 -538 -500q-136 -134 -156 -150zM182 1012q0 129 96 232q96 104 221 104q127 0 201 -77t74 -207
t-94 -232t-221 -103q-127 0 -202 77t-75 206z" />
    <glyph glyph-name="perthousand.lin" horiz-adv-x="2177" 
d="M2079 309q-1 -125 -95 -225t-221 -100t-201 74t-73 200q0 125 94 225q93 101 221 101t202 -75t73 -200zM1772 119q64 0 111 58q48 57 48 125t-36 108q-35 40 -99 39t-110 -59t-48 -126q0 -68 35 -106q35 -39 99 -39zM1063 -16q-127 0 -201 74t-74 200q0 125 94 225
q94 101 222 101q127 0 201 -75q73 -75 73 -200t-94 -225t-221 -100zM1072 119q64 0 111 58q48 57 48 125t-36 108q-35 40 -99 39t-111 -59t-47 -126t35 -106q35 -39 99 -39zM182 1002q0 124 96 224t221 101q127 0 201 -75q74 -76 74 -200t-94 -224t-221 -99q-127 0 -202 75
q-75 74 -75 198zM334 1008q0 -68 34 -106t98 -38t110 58t46 126q0 66 -34 105q-36 39 -98 39t-109 -58t-47 -126zM152 -2l-84 84q36 25 320 287t388 345t388 357q286 274 288 277l80 -86q-35 -27 -317 -285q-281 -258 -369 -329q-185 -150 -538 -500q-136 -134 -156 -150z
" />
    <glyph glyph-name="quotedbl.lin" horiz-adv-x="894" 
d="M406 1475q58 0 101 -42q42 -41 42 -87t-17 -78l-190 -400h-96l18 465q4 59 44 101t98 41zM844 1475q58 0 101 -42q42 -41 42 -87t-16 -78l-191 -400h-96l18 465q4 59 44 101t98 41z" />
    <glyph glyph-name="quotesingle.lin" horiz-adv-x="456" 
d="M406 1475q58 0 101 -42q42 -41 42 -87t-17 -78l-190 -400h-96l18 465q4 59 44 101t98 41z" />
    <glyph glyph-name="plus.lin" horiz-adv-x="923" 
d="M717 1051l-64 -275h275l-45 -188h-275l-63 -275h-189l64 275h-275l45 188h275l63 275h189z" />
    <glyph glyph-name="minus.lin" horiz-adv-x="950" 
d="M145 588l45 188h738l-45 -188h-738z" />
    <glyph glyph-name="divide.lin" horiz-adv-x="950" 
d="M468 240q-54 0 -94 39t-40 94t41 94t95 39t94 -39t40 -94t-41 -94t-95 -39zM611 1124q55 0 95 -39t40 -94t-42 -94q-41 -39 -95 -39t-94 39t-40 94t41 94t95 39zM145 588l45 188h738l-45 -188h-738z" />
    <glyph glyph-name="equal.lin" horiz-adv-x="921" 
d="M80 395l43 193h700l-43 -193h-700zM168 776l43 193h700l-43 -193h-700z" />
    <glyph glyph-name="multiply.lin" horiz-adv-x="950" 
d="M356 1047l160 -228l256 219l109 -141l-263 -223l168 -236l-151 -119l-162 228l-258 -219l-109 141l263 225l-164 234z" />
    <glyph glyph-name="less.lin" horiz-adv-x="882" 
d="M592 242l-440 381l28 122l617 381l92 -141l-518 -319l338 -293z" />
    <glyph glyph-name="greater.lin" horiz-adv-x="882" 
d="M203 242l-92 141l518 319l-338 293l117 131l440 -381l-29 -122z" />
    <glyph glyph-name="plusminus.lin" horiz-adv-x="950" 
d="M33 137l41 189h737l-43 -189h-735zM748 1231l-64 -275h274l-43 -188h-274l-63 -274h-189l64 274h-275l43 188h275l63 275h189z" />
    <glyph glyph-name="zero.tab" horiz-adv-x="1085" 
d="M352 483q0 -141 44 -218t126 -77q133 0 231 211q97 211 97 465q0 141 -44 218t-126 77q-132 0 -230 -211t-98 -465zM1087 867q1 -241 -77 -445t-214 -326q-136 -121 -308 -121q-172 1 -272 133t-101 372q0 240 78 446t214 326t308 120t272 -132t100 -373z" />
    <glyph glyph-name="one.tab" horiz-adv-x="1085" 
d="M61 2l48 207h303l211 911l-287 -67l-21 204l465 115l119 -53l-256 -1110h299l-47 -207h-834z" />
    <glyph glyph-name="two.tab" horiz-adv-x="1085" 
d="M47 0q-7 0 -35 80l-10 26q89 249 337 437q117 88 259 169q141 80 207 148q65 68 65 146t-54 122t-164 46q-110 0 -171 -74q45 -46 45 -104t-40 -99t-104 -41t-104 45t-40 125q0 127 123 237q123 109 317 109t309 -94t115 -254t-102 -265t-274 -203q-170 -98 -272 -177
q-102 -80 -159 -184h457l53 225h194l-98 -420h-854z" />
    <glyph glyph-name="three.tab" horiz-adv-x="1085" 
d="M57 289q0 78 41 127q40 49 104 49t101 -37t37 -94t-45 -103q72 -57 204 -57q131 0 199 62t68 153q0 93 -66 147t-190 54h-90l49 207h76q133 0 219 56t86 145t-64 132q-64 44 -145 44q-82 0 -129 -31q14 -33 14 -77t-40 -84t-100 -40t-101 43t-41 115q0 100 108 184
q110 84 308 84t316 -96t118 -242t-89 -234q-89 -87 -251 -112q120 -37 184 -118q64 -80 64 -200t-76 -212q-145 -176 -418 -174q-211 0 -331 90t-120 219z" />
    <glyph glyph-name="four.tab" horiz-adv-x="1085" 
d="M944 877l-72 -306h191l-45 -190h-189l-45 -193h138l-43 -188h-580l43 182h229l47 203h-542l-31 111l782 901l148 -140l-596 -690h280l52 217z" />
    <glyph glyph-name="five.tab" horiz-adv-x="1085" 
d="M465 -25q-182 0 -304 81t-122 192q0 72 43 116t104 44q62 0 102 -41t40 -89t-17 -73q78 -33 170 -33q145 0 235 80q89 80 89 209q0 92 -69 152q-131 114 -404 12l-125 84l205 639h733l-49 -213h-545l-105 -318q96 39 197 39q159 0 273 -104t114 -281q0 -223 -158 -359
t-407 -137z" />
    <glyph glyph-name="six.tab" horiz-adv-x="1085" 
d="M554 176q104 0 178 82t73 186q0 104 -53 164q-53 62 -153 62q-99 0 -177 -86t-78 -186t51 -160q55 -62 159 -62zM997 961q-57 -1 -97 39t-40 82t19 77q-35 25 -109 25q-125 0 -233 -111q-137 -141 -181 -377q49 68 129 116t172 48q162 0 270 -110t107 -277
q0 -211 -146 -354t-338 -143t-313 128q-120 129 -120 396q0 200 80 404q81 204 233 336t361 132q145 0 243 -77t99 -185q1 -63 -39 -106t-97 -43z" />
    <glyph glyph-name="seven.tab" horiz-adv-x="1085" 
d="M123 0l803 1153h-496l-59 -258h-207l104 453h873l69 -127l-825 -1221h-262z" />
    <glyph glyph-name="eight.tab" horiz-adv-x="1085" 
d="M772 395q0 89 -59 147t-157 58t-165 -63q-65 -63 -65 -151t59 -147t157 -59t164 64t66 151zM1014 379q0 -164 -130 -282q-130 -117 -338 -117t-336 105q-126 105 -126 253t85 248q85 98 237 139q-176 94 -176 260t120 275q120 108 314 108t314 -105t120 -262
q0 -121 -74 -205t-209 -118q91 -43 145 -123t54 -176zM652 776q82 0 142 60t60 144q0 85 -52 137t-135 52t-143 -59q-60 -58 -61 -144q0 -86 53 -138t136 -52z" />
    <glyph glyph-name="nine.tab" horiz-adv-x="1085" 
d="M652 1171q-104 1 -177 -81q-74 -82 -74 -186q-1 -104 53 -164q54 -62 154 -62t176 86q78 86 78 185t-51 161q-55 61 -159 61zM209 387q57 0 97 -40t40 -81t-18 -78q35 -25 108 -24q125 0 234 110q139 143 178 375q-45 -65 -126 -113t-173 -49q-161 0 -269 111t-108 276
q0 210 146 354t339 144t313 -129t120 -395q0 -199 -80 -404q-80 -204 -233 -336t-361 -133q-145 0 -244 77q-98 77 -98 186q0 63 39 106t96 43z" />
    <glyph glyph-name="period.tab" horiz-adv-x="542" 
d="M240 -16q-70 0 -119 49t-49 119t49 120t119 50t118 -50t50 -120q0 -70 -49 -119t-119 -49z" />
    <glyph glyph-name="comma.tab" horiz-adv-x="542" 
d="M-61 -332l-50 94q141 80 208 147t73 103q-47 23 -73 65t-25 75q0 70 49 120t120 50t121 -52t50 -135q0 -123 -134 -256t-339 -211z" />
    <glyph glyph-name="colon.tab" horiz-adv-x="542" 
d="M362 524q-68 0 -116 48t-47 116q0 68 48 116q47 48 115 48t116 -48t48 -116t-48 -116t-116 -48zM240 -16q-68 0 -116 48t-48 116t48 115q48 48 116 48t116 -48t47 -116q1 -67 -47 -115t-116 -48z" />
    <glyph glyph-name="semicolon.tab" horiz-adv-x="542" 
d="M362 524q-68 0 -116 48t-47 116q0 68 48 116q47 48 115 48t116 -48t48 -116t-48 -116t-116 -48zM240 311q68 0 116 -50t50 -130q0 -119 -130 -249t-329 -204l-49 93q138 78 202 141t70 100q-45 20 -70 62t-24 73q0 70 48 117t116 47z" />
    <glyph glyph-name="twodotleader.tab" horiz-adv-x="1085" 
d="M782 -16q-70 0 -118 49t-50 119q0 70 50 120t118 50q70 0 119 -50t49 -120t-49 -119t-119 -49zM240 -16q-70 0 -119 49t-49 119t49 120t119 50t118 -50t50 -120q0 -70 -49 -119t-119 -49z" />
    <glyph glyph-name="periodcentered.tab" horiz-adv-x="542" 
d="M305 369q-70 0 -119 49t-49 119q0 69 49 119t119 50t119 -50t49 -120t-49 -118q-49 -49 -119 -49z" />
    <glyph glyph-name="slash.tab" horiz-adv-x="1085" 
d="M10 -438l-164 100l1256 1868l160 -107z" />
    <glyph glyph-name="bar.tab" horiz-adv-x="542" 
d="M176 -410v1909h193v-1909h-193z" />
    <glyph glyph-name="underscore.tab" horiz-adv-x="1085" 
d="M-201 -342l49 209h1168l-49 -209h-1168z" />
    <glyph glyph-name="dollar.tab" horiz-adv-x="1085" 
d="M467 980q0 -83 111 -155l98 338q-100 -4 -154 -52t-55 -131zM782 348q0 70 -31 113q-32 41 -102 80l-104 -359q100 0 169 48q68 48 68 118zM41 319q0 89 44 139q45 50 107 50t103 -41t41 -103t-49 -104q35 -35 108 -57l119 405q-272 131 -272 367q0 157 125 265t342 108
h10l57 194l168 -47l-51 -174q119 -37 193 -111t73 -154q0 -80 -42 -131q-42 -53 -106 -53t-105 41q-40 41 -40 99t43 102q-27 23 -82 35l-116 -397q151 -76 227 -156t76 -228t-130 -258t-352 -110h-30l-64 -219l-166 45l58 205q-127 39 -208 119t-81 169z" />
    <glyph glyph-name="sterling.tab" horiz-adv-x="1085" 
d="M551 930q0 -49 13 -138t18 -130h323l-39 -177h-293q-25 -158 -135 -247q58 9 222 -49q52 -15 94 -15t80 22t94 85l108 -103q-123 -203 -305 -203q-102 0 -228 53q-38 14 -80 32t-112 24q-37 -51 -95 -80t-112 -29t-93 34q-38 34 -38 79q0 74 82 122t199 34
q100 100 111 241h-242l41 177h201q-4 47 -17 137q-12 90 -12 135q0 190 115 314t288 124t273 -83t100 -204q0 -73 -41 -115t-95 -42t-91 38t-37 85t26 84q-2 20 -38 33t-82 14q-102 0 -152 -68t-51 -184z" />
    <glyph glyph-name="Euro.tab" horiz-adv-x="1085" 
d="M580 -25q-160 0 -259 112t-114 321h-154l43 190h117q12 86 23 131h-103l43 191h111q80 204 219 328q138 124 288 124t242 -92t92 -227q0 -85 -41 -137t-104 -52t-100 41t-37 104t41 97q-43 53 -111 53q-68 -1 -136 -69t-118 -181h228l-41 -176h-242q-18 -66 -25 -137h232
l-41 -176h-197q10 -111 56 -171t112 -61q106 0 236 174l139 -135q-184 -252 -399 -252z" />
    <glyph glyph-name="yen.tab" horiz-adv-x="1085" 
d="M131 563l37 168h233l-125 426h-131l45 191h472l-46 -191h-122l106 -403l307 403h-139l45 191h498l-45 -191h-121l-348 -426h213l-37 -168h-316l-28 -121h319l-37 -168h-321l-23 -104h185l-39 -170h-563l38 170h168l25 104h-311l36 168h314l26 121h-315z" />
    <glyph glyph-name="cent.tab" horiz-adv-x="1085" 
d="M365 664q0 -135 110 -203l162 526q-115 -25 -194 -106q-78 -82 -78 -217zM635 242q-51 0 -76 2l-92 -297l-150 39l89 295q-125 45 -197 141t-72 227q0 209 161 360t390 160l62 205l149 -39l-55 -178q110 -27 182 -95t72 -142t-38 -119t-95 -45t-96 38q-38 38 -38 87
t31 90q-25 14 -82 22l-174 -573q12 -2 37 -2q194 0 350 100l-2 -188q-135 -88 -356 -88z" />
    <glyph glyph-name="numbersign.tab" horiz-adv-x="1085" 
d="M428 520h209l78 283h-207zM1057 1348l-99 -351h175l-54 -204h-180l-74 -263h172l-53 -204h-176l-90 -326h-199l90 326h-186l-90 -326h-199l90 326h-172l54 204h176l73 263h-168l54 204h172l100 351h199l-99 -351h187l98 351h199z" />
    <glyph glyph-name="paragraph.tab" horiz-adv-x="1085" 
d="M573 197h95l219 954h-94zM455 446q-145 0 -239 104t-95 275q0 244 159 383t408 140h559l-47 -207h-133l-215 -934h133l-47 -207h-748l48 207h165l56 239h-4z" />
    <glyph glyph-name="section.tab" horiz-adv-x="1085" 
d="M371 699q0 -41 46 -71t163 -81l49 -23q113 27 159 54q46 26 46 70t-47 75t-117 59t-99 43q-113 -29 -157 -57t-43 -69zM147 666q0 180 289 239q-102 76 -102 190q0 113 101 195t304 82t299 -110q52 -58 52 -116t-35 -92t-82 -34t-80 33t-33 72t12 59l-30 12
q-55 16 -120 16t-115 -20t-50 -57t42 -66q41 -29 135 -73q143 -67 233 -135t90 -177q0 -180 -291 -242q104 -80 104 -190t-101 -193q-101 -82 -304 -82t-301 113q-49 56 -49 114t35 92q36 34 82 34t79 -33t33 -71t-12 -60l30 -12q133 -39 235 4q50 20 50 57t-42 66
q-41 29 -135 73q-246 116 -298 210q-25 47 -25 102z" />
    <glyph glyph-name="degree.tab" horiz-adv-x="1085" 
d="M700 1372q-90 0 -168 -85t-78 -182t48 -147q47 -50 140 -49q93 0 170 85q77 86 77 182t-49 146t-140 50zM630 772q-154 0 -238 88q-83 88 -83 238t123 281q124 130 280 130t239 -88q83 -87 83 -237t-125 -281t-279 -131z" />
    <glyph glyph-name="percent.tab" horiz-adv-x="1085" 
d="M795 119q47 0 75 98q29 98 29 178t-39 80q-47 0 -77 -99q-29 -99 -29 -178t41 -79zM784 -14q-78 0 -126 56t-48 161q0 169 77 287t187 118q78 0 125 -57t48 -160q0 -169 -76 -287t-187 -118zM119 -14l-84 67l540 647l521 660l80 -70l-531 -639zM352 858q47 0 76 98
t29 178t-39 80q-47 0 -77 -99t-30 -178t41 -79zM342 725q-78 0 -126 56t-48 161q0 168 77 287t187 119q78 0 125 -58t47 -160q0 -168 -76 -286t-186 -119z" />
    <glyph glyph-name="quotedbl.tab" horiz-adv-x="1085" 
d="M943 1475q60 0 101 -40t41 -100q0 -27 -16 -69l-215 -523h-96l41 590q4 63 44 103t100 39zM502 1475q60 0 102 -40q41 -40 41 -100q0 -27 -16 -69l-215 -523h-97l41 590q4 63 44 103t100 39z" />
    <glyph glyph-name="quotesingle.tab" horiz-adv-x="542" 
d="M447 1475q59 0 101 -40t42 -100q0 -27 -17 -69l-215 -523h-96l41 590q4 63 44 103t100 39z" />
    <glyph glyph-name="plus.tab" horiz-adv-x="1085" 
d="M809 1092l-76 -316h318l-45 -188h-316l-74 -316h-188l74 316h-316l45 188h314l76 316h188z" />
    <glyph glyph-name="minus.tab" horiz-adv-x="1085" 
d="M172 588l45 188h819l-45 -188h-819z" />
    <glyph glyph-name="divide.tab" horiz-adv-x="1085" 
d="M523 199q-54 0 -94 39t-40 94t41 94t95 39q55 0 95 -39t40 -94t-42 -94q-41 -39 -95 -39zM685 899q-54 0 -94 39t-40 94t41 94t95 39t94 -39t40 -94t-41 -94t-95 -39zM172 588l45 188h819l-45 -188h-819z" />
    <glyph glyph-name="equal.tab" horiz-adv-x="1085" 
d="M117 375l43 192h782l-43 -192h-782zM211 797l43 192h782l-43 -192h-782z" />
    <glyph glyph-name="multiply.tab" horiz-adv-x="1085" 
d="M383 1108l205 -285l293 256l108 -141l-297 -260l203 -281l-152 -118l-196 272l-305 -264l-109 141l309 268l-211 293z" />
    <glyph glyph-name="less.tab" horiz-adv-x="1085" 
d="M733 193l-518 444l23 94l706 434l84 -129l-584 -366l406 -348z" />
    <glyph glyph-name="greater.tab" horiz-adv-x="1085" 
d="M471 1176l518 -445l-22 -94l-707 -434l-84 129l584 366l-406 349z" />
    <glyph glyph-name="plusminus.tab" horiz-adv-x="1085" 
d="M53 117l41 188h819l-43 -188h-817zM829 1292l-73 -315h315l-43 -189h-315l-74 -315h-188l73 315h-315l43 189h315l74 315h188z" />
    <glyph glyph-name="zero.idx_P2D" horiz-adv-x="2252" 
d="M1125 307q101 0 163 90q62 89 62 229t-62 231t-162 91q-102 0 -163 -90t-61 -229t60 -231q62 -92 163 -91zM1546 628q0 -216 -124 -356t-297 -141q-173 0 -297 141q-124 140 -124 356t124 356t298 140t297 -140t123 -356zM1126 1493q-240 0 -434 -120
q-194 -121 -300 -321q-108 -200 -108 -438t108 -438t302 -320t432 -120q240 0 434 120t302 320t106 438q0 238 -107 439t-301 321t-434 119zM1126 1642q288 0 520 -140t360 -376t128 -512t-128 -512t-360 -376t-520 -140t-519 140q-232 140 -360 376t-128 512t128 512
t360 376t519 140z" />
    <glyph glyph-name="one.idx_P2D" horiz-adv-x="2252" 
d="M1434 152h-594v170h202v591l-190 -34l-35 161l320 70h96v-788h201v-170zM1126 1493q-240 0 -434 -120q-194 -121 -300 -321q-108 -200 -108 -438t108 -438t302 -320t432 -120q240 0 434 120t302 320t106 438q0 238 -107 439t-301 321t-434 119zM1126 1642q288 0 520 -140
t360 -376t128 -512t-128 -512t-360 -376t-520 -140t-519 140q-232 140 -360 376t-128 512t128 512t360 376t519 140z" />
    <glyph glyph-name="two.idx_P2D" horiz-adv-x="2252" 
d="M764 862q0 59 36 121q36 61 122 101t216 40t232 -81q100 -81 100 -209q0 -70 -40 -132t-79 -91q-40 -30 -104 -66q-203 -117 -280 -238h372v166h156v-323h-702q-5 0 -19 22t-29 43l-12 23q47 106 126 197t131 130t120 84t93 63q24 18 48 53q25 34 25 79t-47 80
q-47 34 -133 34t-142 -40q41 -30 41 -82q-1 -52 -33 -84t-85 -33q-53 0 -83 42t-30 101zM1126 1493q-240 0 -434 -120q-194 -121 -300 -321q-108 -200 -108 -438t108 -438t302 -320t432 -120q240 0 434 120t302 320t106 438q0 238 -107 439t-301 321t-434 119zM1126 1642
q288 0 520 -140t360 -376t128 -512t-128 -512t-360 -376t-520 -140t-519 140q-232 140 -360 376t-128 512t128 512t360 376t519 140z" />
    <glyph glyph-name="three.idx_P2D" horiz-adv-x="2252" 
d="M1507 403q-1 -125 -111 -197t-270 -71q-211 0 -321 121q-51 56 -51 112t32 92q33 36 81 36t81 -32t33 -70t-14 -66q51 -35 142 -35t146 33t56 92q0 88 -94 125q-57 23 -152 22h-55v150h61q88 -1 154 33t65 114q0 49 -48 75t-123 26t-107 -23q10 -41 10 -55q0 -45 -33 -77
t-79 -32t-80 36t-34 89t40 100q94 119 299 119q151 0 251 -72t100 -185q0 -112 -100 -179q-43 -29 -88 -37q209 -79 209 -244zM1126 1493q-240 0 -434 -120q-194 -121 -300 -321q-108 -200 -108 -438t108 -438t302 -320t432 -120q240 0 434 120t302 320t106 438
q0 238 -107 439t-301 321t-434 119zM1126 1642q288 0 520 -140t360 -376t128 -512t-128 -512t-360 -376t-520 -140t-519 140q-232 140 -360 376t-128 512t128 512t360 376t519 140z" />
    <glyph glyph-name="four.idx_P2D" horiz-adv-x="2252" 
d="M989 150v147h166v127h-446l-47 88l532 633l137 -109l-411 -473h235v137l176 70v-201h146v-153h-146v-115h107v-151h-449zM1126 1493q-240 0 -434 -120q-194 -121 -300 -321q-108 -200 -108 -438t108 -438t302 -320t432 -120q240 0 434 120t302 320t106 438
q0 238 -107 439t-301 321t-434 119zM1126 1642q288 0 520 -140t360 -376t128 -512t-128 -512t-360 -376t-520 -140t-519 140q-232 140 -360 376t-128 512t128 512t360 376t519 140z" />
    <glyph glyph-name="five.idx_P2D" horiz-adv-x="2252" 
d="M1468 464q0 -142 -100 -238t-259 -95q-159 -1 -244 61t-85 140q0 51 32 84t83 33t82 -33t31 -78l-2 -35l88 -10q92 0 142 48t50 120q0 73 -51 115t-155 42t-175 -40l-84 51l41 477h547v-172h-393l-12 -160l116 10q144 0 246 -89t102 -231zM1126 1493q-240 0 -434 -120
q-194 -121 -300 -321q-108 -200 -108 -438t108 -438t302 -320t432 -120q240 0 434 120t302 320t106 438q0 238 -107 439t-301 321t-434 119zM1126 1642q288 0 520 -140t360 -376t128 -512t-128 -512t-360 -376t-520 -140t-519 140q-232 140 -360 376t-128 512t128 512
t360 376t519 140z" />
    <glyph glyph-name="six.idx_P2D" horiz-adv-x="2252" 
d="M920 454q0 -66 57 -114q57 -47 134 -47t128 46t51 112q0 65 -52 105t-134 40t-133 -38t-51 -104zM1330 827q-50 0 -79 32t-28 73v24q-35 6 -70 7q-98 0 -169 -80t-73 -201q98 76 235 76q136 0 236 -88t100 -220t-104 -226q-106 -94 -267 -93q-161 0 -271 111t-111 353
q0 241 119 385t303 144q121 0 199 -47q92 -53 92 -137q0 -59 -31 -86t-81 -27zM1126 1493q-240 0 -434 -120q-194 -121 -300 -321q-108 -200 -108 -438t108 -438t302 -320t432 -120q240 0 434 120t302 320t106 438q0 238 -107 439t-301 321t-434 119zM1126 1642
q288 0 520 -140t360 -376t128 -512t-128 -512t-360 -376t-520 -140t-519 140q-232 140 -360 376t-128 512t128 512t360 376t519 140z" />
    <glyph glyph-name="seven.idx_P2D" horiz-adv-x="2252" 
d="M967 950v-196h-166v352h657l49 -111l-407 -845h-207l405 800h-331zM1126 1493q-240 0 -434 -120q-194 -121 -300 -321q-108 -200 -108 -438t108 -438t302 -320t432 -120q240 0 434 120t302 320t106 438q0 238 -107 439t-301 321t-434 119zM1126 1642q288 0 520 -140
t360 -376t128 -512t-128 -512t-360 -376t-520 -140t-519 140q-232 140 -360 376t-128 512t128 512t360 376t519 140z" />
    <glyph glyph-name="eight.idx_P2D" horiz-adv-x="2252" 
d="M1124 293q80 0 132 41t52 96t-50 97q-52 42 -134 42t-132 -42t-50 -97t51 -96t131 -41zM1124 700q63 0 112 39q48 39 48 97t-46 93q-46 36 -114 36t-112 -36t-45 -93q0 -56 47 -96t110 -40zM1124 135q-176 0 -277 80t-102 195q1 76 53 142t148 89q-90 23 -134 78t-44 125
q0 116 99 196t257 80t259 -81t102 -195q0 -70 -46 -125t-136 -78q100 -23 151 -89t51 -142q-1 -115 -103 -195t-278 -80zM1126 1493q-240 0 -434 -120q-194 -121 -300 -321q-108 -200 -108 -438t108 -438t302 -320t432 -120q240 0 434 120t302 320t106 438q0 238 -107 439
t-301 321t-434 119zM1126 1642q288 0 520 -140t360 -376t128 -512t-128 -512t-360 -376t-520 -140t-519 140q-232 140 -360 376t-128 512t128 512t360 376t519 140z" />
    <glyph glyph-name="nine.idx_P2D" horiz-adv-x="2252" 
d="M1335 806q0 64 -57 112q-57 47 -134 47t-128 -47t-51 -111t52 -104q52 -39 133 -39t133 39t52 103zM815 317q0 57 32 84t82 27t79 -32t28 -72v-27q20 -2 66 -2q98 0 167 83t72 202q-94 -76 -231 -76t-238 87q-100 87 -100 217t106 223t266 93t272 -112t112 -352
q0 -238 -122 -384t-297 -145q-175 0 -253 84q-41 45 -41 102zM1126 1493q-240 0 -434 -120q-194 -121 -300 -321q-108 -200 -108 -438t108 -438t302 -320t432 -120q240 0 434 120t302 320t106 438q0 238 -107 439t-301 321t-434 119zM1126 1642q288 0 520 -140t360 -376
t128 -512t-128 -512t-360 -376t-520 -140t-519 140q-232 140 -360 376t-128 512t128 512t360 376t519 140z" />
    <glyph glyph-name="space.tab" horiz-adv-x="542" 
 />
    <glyph glyph-name="NUL" horiz-adv-x="0" 
 />
    <glyph glyph-name="hfjslug" horiz-adv-x="1421" 
d="M872 580q-33 0 -32 34q0 12 9 24t23 11q14 0 24 -11t9 -24q0 -34 -33 -34zM997 612h-22v35h22q20 0 21 -16q-1 -19 -21 -19zM659 823q-33 0 -33 45t33 78l41 -80q-16 -43 -41 -43zM645 1056q0 30 29 29q27 -1 27 -35t-31 -69q-25 45 -25 75zM494 662l28 -97h17l22 70h2
l23 -70h16l29 97h-17l-20 -72h-2l-23 72h-14l-23 -72h-2l-20 72h-16zM270 662v-95h17v66l51 -66h14v95h-16v-66l-51 66h-15zM395 662v-95h70v15h-53v26h47v15h-47v24h53v15h-70zM750 567h16v35l37 60h-19l-26 -46l-27 46h-18l37 -60v-35zM872 565q20 1 34 15q33 33 1 68
q-15 16 -35 16t-34 -16t-14 -34q0 -20 14 -34t34 -15zM1034 631q0 31 -35 31h-41v-95h17v31h24l21 -31h18l-24 35q20 8 20 29zM1071 662v-95h16v25l17 16l31 -41h20l-41 54l37 41h-21l-40 -50h-3v50h-16zM729 1038q0 72 -55 72q-25 0 -41 -19q-17 -19 -17 -45t29 -79
q-47 -37 -47 -83q0 -91 59 -89q39 0 60 49h2l24 -49l25 12l-35 65q13 29 27 80l-27 6q-8 -37 -16 -61h-2l-33 64q47 43 47 77zM985 799q63 0 64 73v281h-33v-281q0 -45 -33 -45q-16 0 -41 11v-31q20 -8 43 -8zM377 1153v-352h31v162h96v-162h31v352h-31v-162h-96v162h-31z
M819 1153v-352h31v160h78v28h-78v135h88v29h-119zM1319 -410h-426l-16 29h-334l-17 -29h-424v621q29 0 48 19q18 19 18 46q0 26 -20 46t-46 20v1135h205l62 161h684l59 -161h207v-1887z" />
    <glyph glyph-name="i.dot" horiz-adv-x="661" 
d="M333 -16q-99 0 -151 53q-51 53 -51 147q0 47 12 101l105 424h-162l49 188h389l-153 -610q-14 -55 -15 -94q0 -57 50 -58q68 0 120 148l90 -35q-43 -147 -113 -206q-71 -58 -170 -58zM432 1022q-57 0 -98 40t-41 97t41 97t98 40t98 -40t41 -97t-41 -97t-98 -40z" />
    <glyph glyph-name="zero.num" 
d="M381 688q84 0 140 102q57 102 57 208q1 195 -115 196q-84 0 -140 -101t-57 -237q0 -168 115 -168zM388 557q-132 0 -200 81t-67 228q0 190 101 324t247 135q119 0 187 -81q68 -82 67 -250q0 -168 -101 -303q-102 -134 -234 -134z" />
    <glyph glyph-name="one.num" 
d="M98 573l29 132h188l107 464l-178 -45l-11 131l289 72l74 -33l-135 -589h184l-29 -132h-518z" />
    <glyph glyph-name="two.num" 
d="M584 1122q0 78 -119 78q-70 0 -100 -26q16 -20 16 -54t-25 -58q-24 -24 -60 -24t-60 26t-25 64q0 86 84 144q83 58 189 57q106 0 178 -54t71 -149q0 -57 -41 -108t-87 -79t-118 -62q-180 -86 -241 -183h282l29 121h121l-57 -242h-529l-29 68q80 201 369 340q78 39 115 71
t37 70z" />
    <glyph glyph-name="three.num" 
d="M674 778q0 -104 -89 -160t-199 -57q-110 0 -200 48q-88 48 -88 143q0 38 26 64t60 26t60 -25q24 -25 24 -55t-12 -49q29 -29 110 -29q82 0 120 29t38 70t-35 73t-106 31h-64l31 133h60q74 0 122 27t48 67t-38 65q-64 40 -161 15q4 -16 4 -39t-25 -47q-26 -24 -60 -25
q-34 0 -60 25t-25 61q0 59 65 107q64 48 186 49q122 0 196 -59t74 -138q0 -80 -59 -128q-58 -48 -167 -54q164 -39 164 -168z" />
    <glyph glyph-name="four.num" 
d="M412 686l26 107h-329l-21 71l475 482l88 -84l-370 -361h184l27 100l145 54l-35 -146h115l-29 -116h-115l-24 -107h86l-27 -113h-348l27 113h125z" />
    <glyph glyph-name="five.num" 
d="M472 1049q78 -1 141 -59t63 -164t-102 -187q-102 -80 -223 -80q-119 0 -189 51t-70 113q0 39 24 67t62 28t65 -26q26 -26 25 -63q0 -8 -4 -29q30 -14 96 -14t121 40t55 97t-36 85q-37 28 -101 28t-141 -31l-80 53l113 357h444l-30 -135h-326l-51 -156q66 25 144 25z" />
    <glyph glyph-name="six.num" 
d="M258 797q0 -49 31 -80t95 -31t109 39q44 39 44 90t-32 83q-31 32 -91 32t-108 -42t-48 -91zM528 1329q86 0 146 -43t59 -104q-1 -37 -25 -62q-24 -24 -59 -24t-59 24t-23 46q0 24 4 36q-25 8 -45 8q-84 0 -157 -67q-70 -68 -105 -185q80 86 182 86t170 -59
q66 -59 66 -165t-89 -184q-89 -77 -211 -77t-193 71t-70 206q0 246 172 399q109 94 237 94z" />
    <glyph glyph-name="seven.num" 
d="M178 573l438 621h-272l-33 -143h-129l62 264h501l46 -84l-449 -658h-164z" />
    <glyph glyph-name="eight.num" 
d="M537 787q0 45 -36 77t-102 31q-67 0 -107 -31t-40 -77q0 -45 39 -75t103 -30t103 30q40 30 40 75zM328 1109q0 -45 36 -73t90 -28t89 28t35 71q0 44 -34 72q-34 27 -88 27t-91 -26t-37 -71zM684 790q0 -98 -77 -164t-211 -65q-134 -1 -213 59t-79 148q0 154 189 203
q-111 53 -111 155q0 78 75 138t198 61q123 0 197 -59t75 -148q0 -135 -166 -174q123 -56 123 -154z" />
    <glyph glyph-name="nine.num" 
d="M592 1092q0 50 -31 80t-95 30t-109 -39q-44 -39 -44 -90t32 -83q31 -32 91 -32t108 42t48 92zM168 1070q0 106 89 182t211 77q122 0 193 -71t70 -205q0 -246 -172 -400q-109 -94 -237 -94q-86 0 -146 43q-59 43 -59 105q1 37 25 61t58 25q34 0 58 -24t25 -47
q0 -23 -4 -36q25 -8 45 -8q84 0 156 65t106 187q-76 -86 -180 -86t-172 59q-66 61 -66 167z" />
    <glyph glyph-name="zero.den" 
d="M248 115q84 0 140 101t56 209t-29 152q-30 44 -85 44q-84 1 -140 -101t-57 -237q0 -168 115 -168zM590 421q0 -169 -102 -303t-233 -134q-132 0 -200 81t-67 228q0 190 101 324q101 135 233 135t200 -81t68 -250z" />
    <glyph glyph-name="one.den" 
d="M-35 0l29 131h188l107 465l-178 -45l-11 131l289 72l74 -33l-135 -590h184l-29 -131h-518z" />
    <glyph glyph-name="two.den" 
d="M451 549q0 78 -119 78q-70 0 -101 -27q17 -20 17 -53t-25 -58t-61 -25t-60 26q-25 26 -24 65q0 86 84 143q84 58 190 58t176 -54q72 -54 72 -149q0 -57 -41 -109t-87 -78q-46 -28 -118 -63q-180 -86 -241 -182h282l29 121h121l-58 -242h-528l-29 68q80 201 369 340
q78 38 115 70t37 71z" />
    <glyph glyph-name="three.den" 
d="M541 205q0 -105 -89 -161q-90 -56 -200 -56t-199 48q-88 48 -88 142q0 39 26 65q27 25 61 25t59 -24t25 -55q0 -30 -13 -50q29 -29 110 -29q158 1 158 107q0 33 -35 65t-106 31h-64l31 133h59q74 0 122 27t48 68t-38 65t-84 23q-46 0 -76 -8q4 -16 4 -39q0 -24 -25 -48
t-59 -24t-60 25t-26 61q0 59 64 107q65 49 187 49q121 0 195 -60t74 -138q0 -79 -58 -127t-167 -54q164 -39 164 -168z" />
    <glyph glyph-name="four.den" 
d="M279 113l26 106h-330l-20 72l475 481l88 -84l-371 -360h185l26 100l146 53l-35 -145h115l-29 -117h-115l-24 -106h86l-27 -113h-348l27 113h125z" />
    <glyph glyph-name="five.den" 
d="M218 -14q-120 0 -190 51t-69 113q0 38 24 66q25 28 63 28t64 -26t26 -48t-5 -43q29 -14 95 -14t122 40q55 40 55 97t-36 85q-80 60 -242 -3l-80 53l113 356h444l-31 -135h-325l-51 -155q67 25 145 25t140 -59q62 -58 62 -165q0 -106 -102 -186t-222 -80z" />
    <glyph glyph-name="six.den" 
d="M125 223q0 -49 31 -79q32 -30 96 -31q64 0 108 39t43 90q0 51 -31 83q-32 31 -92 31t-107 -42q-48 -42 -48 -91zM395 756q85 0 145 -43t60 -105q0 -38 -25 -62t-59 -24t-58 24t-24 47t4 36q-25 8 -45 8q-83 0 -155 -68t-107 -184q80 86 182 86t169 -59t67 -166t-89 -184
t-211 -77t-193 71t-70 206q0 246 172 400q109 94 237 94z" />
    <glyph glyph-name="seven.den" 
d="M45 0l438 621h-272l-33 -144h-129l62 264h501l45 -84l-448 -657h-164z" />
    <glyph glyph-name="eight.den" 
d="M266 322q-66 0 -106 -31t-41 -77q0 -46 39 -76q38 -30 102 -29q64 -1 104 29t40 75t-36 77t-102 32zM323 633q-53 0 -91 -27q-38 -26 -38 -70t36 -73t90 -29t90 28q34 28 34 72t-34 72t-87 27zM551 218q0 -98 -77 -164t-211 -66t-213 59t-79 148q0 154 189 202
q-111 53 -111 156q0 78 75 138q75 61 198 61q124 0 198 -60t74 -147q0 -135 -166 -174q123 -55 123 -153z" />
    <glyph glyph-name="nine.den" 
d="M459 518q0 49 -31 80q-32 31 -96 31t-108 -39t-44 -90t32 -83t92 -32t107 42q48 42 48 91zM272 270q-104 0 -170 60t-67 166q0 106 89 183t211 77q123 0 193 -71t70 -206q0 -246 -172 -399q-109 -94 -238 -94q-86 0 -145 43t-59 104q0 37 24 62q25 25 60 25q34 0 58 -24
t24 -48t-5 -35q25 -8 45 -9q84 0 156 66t107 186q-77 -86 -181 -86z" />
    <glyph glyph-name="caron.alt" horiz-adv-x="1024" 
d="M541 1491q53 0 85 -35q32 -36 32 -96t-32 -118q-30 -58 -76 -116t-78 -91q-32 -32 -86 -81t-60 -55l-60 51q96 113 123 224q6 28 9 102t18 121q31 94 125 94z" />
    </font>
</defs>
</svg>
