<?xml version="1.0" standalone="no"?>
<!DOCTYPE svg PUBLIC "-//W3C//DTD SVG 1.1//EN" "http://www.w3.org/Graphics/SVG/1.1/DTD/svg11.dtd" >
<svg xmlns="http://www.w3.org/2000/svg">
<metadata>
Created by FontPrep 20130207 at Sun Apr  5 22:22:21 2015
 By Tina Kumar
Copyright (C) 2000, 2007 Hoefler &#38; Frere-Jones. http://www.typography.com
</metadata>
<defs>
<font id="e90469d9a48dab2255671b922ff69672" horiz-adv-x='1024' >
  <font-face 
    font-family="Archer-Book"
    font-weight="325"
    font-stretch="normal"
    units-per-em="2048"
    panose-1="2 0 0 0 0 0 0 0 0 0"
    ascent="1638"
    descent="-410"
    x-height="860"
    cap-height="1348"
    bbox="-109 -537 2890 2093.04"
    underline-thickness="102"
    underline-position="-102"
    unicode-range="U+0020-FB04"
  />
<missing-glyph horiz-adv-x="1024" 
d="M512 492l-367 -799h734zM922 1384l-353 -770l353 -770v1540zM102 -156l353 770l-353 770v-1540zM145 1536l367 -799l367 799h-734zM0 -410v2048h1024v-2048h-1024z" />
    <glyph glyph-name="f_f" unicode="ff" horiz-adv-x="1216" 
d="M346 860h483v301q0 199 78 277t183 78q63 0 103 -27t40 -69t-22 -64t-54 -23q-74 0 -94 84q-49 -6 -78 -41q-51 -57 -51 -182v-334h223v-94h-223v-672h168v-94h-416v94h143v672h-483v-672h168v-94h-416v94h144v672h-156v94h156v260q0 199 78 277t182 78q63 0 103 -27
t40 -69q1 -43 -21 -65t-55 -22q-72 0 -94 86q-45 -6 -76 -41q-53 -57 -53 -184v-293z" />
    <glyph glyph-name="fi" unicode="fi" horiz-adv-x="1128" 
d="M903 860v-766h154v-94h-406v94h148v672h-453v-672h164v-94h-412v94h144v672h-156v94h156v270q0 217 106 312q80 74 180 74t151 -40q52 -40 52 -86q-1 -46 -23 -70t-60 -24t-62 34t-17 77q-20 10 -45 10q-66 -1 -122 -67t-56 -187v-303h557z" />
    <glyph glyph-name="fl" unicode="fl" horiz-adv-x="1146" 
d="M582 1421q-98 -1 -167 -69t-69 -207v-285h471v285q0 20 -2 31q-31 4 -51 30t-20 59q0 34 24 62q-10 16 -23 29q-65 65 -163 65zM666 94h151v672h-471v-672h168v-94h-416v94h144v672h-156v94h156v277q0 184 97 281q97 98 247 98t237 -91l39 82h60v-1413h153v-94h-409v94z
" />
    <glyph glyph-name="f_f_i" unicode="ffi" horiz-adv-x="1703" 
d="M1103 1516q99 0 151 -40t53 -87q0 -45 -23 -69q-22 -24 -60 -24t-62 34t-17 77q-20 10 -43 10q-59 0 -111 -51q-70 -74 -69 -203v-303h557v-766h153v-94h-405v94h147v672h-452v-672h163v-94h-411v94h143v672h-471v-672h168v-94h-416v94h144v672h-156v94h156v264
q0 176 86 264t215 87q70 0 125 -23q100 -41 100 -122t-74 -81q-44 0 -68 35t-18 84q-39 14 -69 14q-94 0 -146 -67q-47 -68 -47 -191v-264h471v270q0 217 107 312q80 74 179 74z" />
    <glyph glyph-name="f_f_l" unicode="ffl" horiz-adv-x="1722" 
d="M922 1145v-285h471v285q0 20 -2 31q-31 4 -52 29q-20 26 -20 60t24 62q-8 16 -22 29q-66 66 -164 66q-99 0 -167 -70q-68 -68 -68 -207zM346 1124v-264h471v277q-1 184 97 281q98 98 246 98t239 -91l39 82h59v-1413h154v-94h-410v94h152v672h-471v-672h168v-94h-416v94
h143v672h-471v-672h168v-94h-416v94h144v672h-156v94h156v264q0 176 86 264t215 87q70 0 125 -23q100 -41 100 -122t-74 -81q-44 0 -68 35t-18 84q-39 14 -69 14q-94 0 -146 -67q-47 -68 -47 -191z" />
    <glyph glyph-name="f_b" unicode="fb" horiz-adv-x="1755" 
d="M743 1265q0 34 25 62q-10 16 -23 29q-65 66 -163 66t-167 -70q-69 -68 -69 -207v-285h471v285q0 20 -2 31q-31 4 -51 30t-21 59zM1202 78q152 0 247 98q93 98 93 253t-90 254t-229 99q-170 0 -301 -145v-453q128 -106 280 -106zM817 0v766h-471v-672h168v-94h-416v94h144
v672h-156v94h156v277q0 184 97 281q97 98 247 98t237 -91l39 82h60v-768q137 137 311 137t297 -125q123 -127 123 -319t-124 -320q-125 -128 -307 -128t-304 108l-41 -92h-60z" />
    <glyph glyph-name="f_h" unicode="fh" horiz-adv-x="1736" 
d="M743 1265q0 34 25 62q-10 16 -23 29q-65 66 -163 66t-167 -70q-69 -68 -69 -207v-285h471v285q0 20 -2 31q-31 4 -51 30t-21 59zM1427 569q0 209 -194 209q-168 0 -311 -176v-508h143v-94h-391v94h143v672h-471v-672h168v-94h-416v94h144v672h-156v94h156v277
q0 184 97 281q97 98 247 98t237 -91l39 82h60v-813q66 82 154 132t175 51q153 -1 217 -85t64 -208v-490h143v-94h-391v94h143v475z" />
    <glyph glyph-name="f_j" unicode="fj" horiz-adv-x="1069" 
d="M903 23q0 -431 -268 -433q-76 0 -123 35t-47 77t21 68q22 26 56 26t53 -21t19 -49t-8 -45q12 -4 35 -5q98 0 135 134q23 78 23 196v760h-453v-672h164v-94h-412v94h144v672h-156v94h156v270q0 217 106 312q80 74 180 74t151 -40q52 -40 52 -86q-1 -46 -23 -70t-60 -24
t-62 34t-17 77q-20 10 -45 10q-66 -1 -122 -67t-56 -187v-303h557v-837z" />
    <glyph glyph-name="f_k" unicode="fk" horiz-adv-x="1652" 
d="M346 1145v-285h471v285q0 20 -2 31q-31 4 -51 30t-20 59q0 34 24 62q-10 16 -23 29q-65 66 -163 66t-167 -70q-69 -68 -69 -207zM922 1507v-1093l409 356h-190v90h477v-94h-150l-305 -262l289 -410h166v-94h-223l-308 449l-165 -142v-213h153v-94h-401v94h143v672h-471
v-672h168v-94h-416v94h144v672h-156v94h156v277q0 184 97 281q97 98 247 98t237 -91l39 82h60z" />
    <glyph glyph-name="f_f_b" unicode="ffb" horiz-adv-x="2330" 
d="M1319 1265q0 34 24 62q-8 16 -22 29q-66 66 -164 66t-167 -70q-69 -68 -68 -207v-285h471v285q0 20 -2 31q-31 4 -52 29q-20 26 -20 60zM1778 78q152 0 246 98t94 253t-90 254t-230 99q-170 0 -301 -145v-453q129 -106 281 -106zM1393 0v766h-471v-672h168v-94h-416v94
h143v672h-471v-672h168v-94h-416v94h144v672h-156v94h156v264q0 176 86 264t215 87q70 0 125 -23q100 -41 100 -122t-74 -81q-44 0 -68 35t-18 84q-39 14 -69 14q-94 0 -146 -67q-47 -68 -47 -191v-264h471v277q-1 184 97 281q98 98 246 98t239 -91l39 82h59v-768
q137 137 311 137t297 -125q123 -127 123 -319t-124 -320t-306 -128t-305 108l-41 -92h-59z" />
    <glyph glyph-name="f_f_h" unicode="ffh" horiz-adv-x="2312" 
d="M922 1145v-285h471v285q0 20 -2 31q-31 4 -52 29q-20 26 -20 60t24 62q-8 16 -22 29q-66 66 -164 66q-99 0 -167 -70q-68 -68 -68 -207zM2003 569q0 209 -195 209q-168 0 -311 -176v-508h143v-94h-391v94h144v672h-471v-672h168v-94h-416v94h143v672h-471v-672h168v-94
h-416v94h144v672h-156v94h156v264q0 176 86 264t215 87q70 0 125 -23q100 -41 100 -122t-74 -81q-44 0 -68 35t-18 84q-39 14 -69 14q-94 0 -146 -67q-47 -68 -47 -191v-264h471v277q-1 184 97 281q98 98 246 98t239 -91l39 82h59v-813q66 82 154 132t176 51q152 -1 216 -85
t64 -208v-490h144v-94h-391v94h143v475z" />
    <glyph glyph-name="f_f_j" unicode="ffj" horiz-adv-x="1644" 
d="M1479 23q0 -431 -269 -433q-76 0 -123 35t-47 77t22 68t56 26t52 -21q20 -21 20 -49t-8 -45q12 -4 35 -5q98 0 135 134q23 78 22 196v760h-452v-672h163v-94h-411v94h143v672h-471v-672h168v-94h-416v94h144v672h-156v94h156v264q0 176 86 264t215 87q70 0 125 -23
q100 -41 100 -122t-74 -81q-44 0 -68 35t-18 84q-39 14 -69 14q-94 0 -146 -67q-47 -68 -47 -191v-264h471v270q0 217 107 312q80 74 179 74t151 -40t52 -86t-22 -70t-60 -24t-62 34t-17 77q-20 10 -43 10q-59 0 -111 -51q-70 -74 -69 -203v-303h557v-837z" />
    <glyph glyph-name="f_f_k" unicode="ffk" horiz-adv-x="2228" 
d="M922 1145v-285h471v285q0 20 -2 31q-31 4 -52 29q-20 26 -20 60t24 62q-8 16 -22 29q-66 66 -164 66q-99 0 -167 -70q-68 -68 -68 -207zM1497 1507v-1093l410 356h-191v90h477v-94h-149l-305 -262l289 -410h165v-94h-223l-307 449l-166 -142v-213h154v-94h-402v94h144
v672h-471v-672h168v-94h-416v94h143v672h-471v-672h168v-94h-416v94h144v672h-156v94h156v264q0 176 86 264t215 87q70 0 125 -23q100 -41 100 -122t-74 -81q-44 0 -68 35t-18 84q-39 14 -69 14q-94 0 -146 -67q-47 -68 -47 -191v-264h471v277q-1 184 97 281q98 98 246 98
t239 -91l39 82h59z" />
    <glyph glyph-name=".notdef" horiz-adv-x="1024" 
d="M512 492l-367 -799h734zM922 1384l-353 -770l353 -770v1540zM102 -156l353 770l-353 770v-1540zM145 1536l367 -799l367 799h-734zM0 -410v2048h1024v-2048h-1024z" />
    <glyph glyph-name=".null" horiz-adv-x="0" 
 />
    <glyph glyph-name="nonmarkingreturn" horiz-adv-x="681" 
 />
    <glyph glyph-name="space" unicode=" " horiz-adv-x="471" 
 />
    <glyph glyph-name="exclam" unicode="!" horiz-adv-x="499" 
d="M250 -16q-43 0 -73 30t-30 74q0 43 30 75t73 32t73 -32q29 -32 29 -75t-29 -74q-30 -30 -73 -30zM221 356l-41 990h139l-40 -990h-58z" />
    <glyph glyph-name="quotedbl" unicode="&#x22;" horiz-adv-x="612" 
d="M153 1372q45 0 67 -34t11 -91l-61 -346h-39l-59 346q-10 55 13 90q24 35 68 35zM460 1372q44 0 66 -34t13 -91l-62 -346h-39l-59 346q-10 55 13 90q24 35 68 35z" />
    <glyph glyph-name="numbersign" unicode="#" horiz-adv-x="1005" 
d="M385 672l-49 -312h282l50 312h-283zM90 672v94h215l41 260h94l-41 -260h283l41 260h94l-41 -260h203v-94h-217l-49 -312h202v-94h-217l-41 -266h-94l41 266h-282l-41 -266h-95l41 266h-200v94h215l49 312h-201z" />
    <glyph glyph-name="dollar" unicode="$" horiz-adv-x="890" 
d="M231 778q-1 -70 49 -107q50 -38 142 -71l24 340q-96 -4 -156 -48t-59 -114zM696 266q0 80 -52 124t-150 79l-27 -383q100 4 165 52q64 48 64 128zM795 848q-1 -37 -21 -60q-20 -22 -54 -22t-58 22t-23 54q0 31 14 57q-27 20 -125 35l-26 -363q143 -51 220 -115t77 -190
q-1 -126 -97 -194t-239 -72l-17 -215l-90 6l15 213q-125 12 -209 64t-84 133q0 35 22 59t58 25q34 0 56 -22q22 -23 22 -53t-19 -60q39 -47 168 -60l29 408q-137 45 -211 103t-74 169q0 112 92 182t230 74l10 145l90 -6l-10 -143q111 -14 183 -64t71 -110z" />
    <glyph glyph-name="percent" unicode="%" horiz-adv-x="1273" 
d="M934 383q-62 0 -104 -46t-42 -112q0 -65 42 -111t104 -46t103 46q42 46 42 112t-42 111q-42 46 -103 46zM340 645q61 0 103 46t42 112q0 65 -42 111t-103 46t-103 -46t-42 -112t42 -111q42 -46 103 -46zM266 -51l-67 53l395 516q362 471 395 518l70 -51zM934 467
q98 0 167 -71t69 -171t-70 -171q-68 -70 -166 -70t-167 70t-69 171q0 100 69 171t167 71zM340 561q-98 0 -167 71t-69 171t69 171q69 70 167 70t167 -70t69 -171q0 -100 -70 -171q-68 -71 -166 -71z" />
    <glyph glyph-name="ampersand" unicode="&#x26;" horiz-adv-x="1220" 
d="M503 1180q-77 0 -131 -58t-55 -154q0 -95 111 -229q148 95 194 157t46 130t-44 111t-121 43zM430 82q211 0 358 162l-219 211q-68 63 -166 161q-129 -84 -180 -154t-51 -161t68 -155t190 -64zM1174 541h-123q-57 -170 -133 -285q176 -170 229 -211l-70 -72
q-72 61 -219 203q-168 -193 -428 -192q-176 0 -273 94t-97 217t66 209q67 86 216 182q-80 94 -106 154t-27 137q0 113 82 205t207 92q126 0 202 -71t76 -167t-61 -177t-226 -187q45 -51 150 -148q98 -96 211 -202q61 94 106 219h-118v94h336v-94z" />
    <glyph glyph-name="quotesingle" unicode="'" horiz-adv-x="305" 
d="M153 1372q45 0 67 -34t11 -91l-61 -346h-39l-59 346q-10 55 13 90q24 35 68 35z" />
    <glyph glyph-name="parenleft" unicode="(" horiz-adv-x="675" 
d="M252 534q0 -274 128 -522t363 -391l-59 -84q-266 160 -405 427t-140 568q-1 300 139 568t406 428l59 -84q-235 -143 -363 -390q-128 -246 -128 -520z" />
    <glyph glyph-name="parenright" unicode=")" horiz-adv-x="675" 
d="M424 531q0 273 -128 521t-364 392l60 84q266 -160 405 -427t139 -569t-138 -568q-140 -267 -406 -427l-60 84q236 143 364 390t128 520z" />
    <glyph glyph-name="asterisk" unicode="*" horiz-adv-x="778" 
d="M389 1440q33 0 51 -28t11 -69l-43 -200l180 98q36 20 68 11t42 -39q10 -29 -9 -57t-60 -32l-207 -20l149 -139q33 -29 34 -64t-25 -51q-27 -20 -59 -9t-48 50l-84 192l-84 -192q-16 -39 -48 -50t-58 9q-27 16 -26 51t34 64l149 139l-206 20q-41 4 -61 32q-19 28 -9 58
t43 38q33 9 67 -11l181 -98l-43 200q-8 41 10 69t51 28z" />
    <glyph glyph-name="plus" unicode="+" horiz-adv-x="806" 
d="M352 215v279h-276v98h276v278h103v-278h276v-98h-276v-279h-103z" />
    <glyph glyph-name="comma" unicode="," horiz-adv-x="376" 
d="M78 104q0 40 31 69q31 30 75 30t78 -37q33 -37 33 -115q1 -78 -65 -173t-205 -167l-27 43q172 125 176 242q-36 4 -66 36t-30 72z" />
    <glyph glyph-name="hyphen" unicode="-" horiz-adv-x="561" 
d="M66 512v106h430v-106h-430z" />
    <glyph glyph-name="period" unicode="." horiz-adv-x="376" 
d="M188 -16q-46 0 -76 32t-30 78q0 47 31 79t75 32t76 -32q31 -32 31 -79q0 -46 -31 -78t-76 -32z" />
    <glyph glyph-name="slash" unicode="/" horiz-adv-x="911" 
d="M29 -424l-99 43l840 1897l98 -43z" />
    <glyph glyph-name="zero" unicode="0" horiz-adv-x="1110" 
d="M556 82q153 0 247 121t94 310t-95 310t-247 121t-247 -120t-95 -310t95 -311t248 -121zM555 -16q-199 0 -327 152t-128 379q0 228 127 378q127 149 326 149t328 -150t129 -379t-128 -379t-327 -150z" />
    <glyph glyph-name="one" unicode="1" horiz-adv-x="813" 
d="M133 0v94h246v815l-223 -59l-25 94l313 88h43v-938h242v-94h-596z" />
    <glyph glyph-name="two" unicode="2" horiz-adv-x="983" 
d="M719 762q-1 74 -69 128t-199 54t-207 -90q-12 -16 -17 -25q25 -5 43 -27t18 -52t-23 -57q-23 -25 -61 -25t-64 30t-26 81q0 50 42 113q41 62 127 106t186 44q170 0 263 -86t93 -206t-95 -212q-50 -48 -90 -77t-134 -91t-168 -126t-123 -150h545v180h100v-274h-768l-8 53
q75 182 276 327q47 34 126 87t119 84t77 84t37 127z" />
    <glyph glyph-name="three" unicode="3" horiz-adv-x="997" 
d="M88 -4q0 51 29 83t65 32t59 -23q22 -23 21 -53q0 -63 -61 -82q6 -14 24 -33q81 -76 233 -76t240 73t88 179q0 154 -157 228q-100 47 -240 47h-39v96h45q133 1 253 73t120 180t-75 164t-219 56t-216 -82q-16 -20 -18 -29q27 -5 45 -29t18 -52q-1 -28 -25 -51
q-24 -21 -59 -21t-63 31t-27 79q0 48 41 111q41 61 128 103t200 42q166 0 270 -92t104 -223q0 -75 -48 -145t-119 -110t-138 -48q51 -6 134 -44t137 -112t53 -166q0 -160 -121 -259t-299 -99q-113 0 -207 41t-135 101t-41 110z" />
    <glyph glyph-name="four" unicode="4" horiz-adv-x="1005" 
d="M629 -246v375h-586l-16 39l647 872l82 -59l-561 -758h434v316l102 43v-359h242v-94h-242v-375h-102z" />
    <glyph glyph-name="five" unicode="5" horiz-adv-x="964" 
d="M440 -162q146 0 236 86t90 217t-85 214t-226 83t-279 -57l-45 27l72 618h604v-102h-518l-49 -426q109 35 225 34q180 0 296 -110t116 -281q0 -173 -122 -285q-121 -112 -313 -112t-295 92q-57 52 -57 106t27 85t63 31t61 -22q23 -22 23 -62t-41 -66q71 -70 217 -70z" />
    <glyph glyph-name="six" unicode="6" horiz-adv-x="1058" 
d="M545 82q139 0 222 89t83 223t-81 214t-218 80t-227 -93t-90 -217t86 -210t225 -86zM600 1206q-158 0 -266 -162t-115 -446q43 82 135 135t201 53q174 0 290 -112t116 -281q0 -168 -118 -289q-118 -120 -300 -120t-295 116q-133 139 -133 435q0 203 44 357q78 272 276 371
q85 42 175 42q156 0 244 -93q49 -49 49 -105t-29 -84q-30 -28 -66 -28t-58 24q-22 25 -23 65q0 40 37 61q-51 61 -164 61z" />
    <glyph glyph-name="seven" unicode="7" horiz-adv-x="905" 
d="M162 934v-195h-103v287h768l17 -33l-561 -1243l-99 41l516 1143h-538z" />
    <glyph glyph-name="eight" unicode="8" horiz-adv-x="997" 
d="M211 346q0 -116 84 -190t205 -74q122 0 204 75t82 189t-84 191q-84 75 -204 75t-203 -76q-84 -76 -84 -190zM499 709q111 1 189 73t78 175t-78 177t-190 72q-112 0 -190 -72q-77 -72 -77 -176t79 -176t189 -73zM903 342q1 -154 -115 -256t-289 -102t-289 102t-116 256
q0 109 73 198t177 124q-100 39 -162 126q-61 87 -61 166q0 154 109 251q110 97 269 97t267 -96q108 -98 108 -252q0 -88 -61 -170t-162 -122q104 -35 178 -124t74 -198z" />
    <glyph glyph-name="nine" unicode="9" horiz-adv-x="1058" 
d="M512 944q-139 0 -222 -89t-83 -222t80 -211t218 -78t228 90t90 214t-86 210t-225 86zM430 -256q-158 0 -248 96q-45 50 -45 104t29 82q30 28 66 28t59 -24t23 -65t-38 -61q51 -61 164 -62q168 0 278 154t118 428q-42 -78 -134 -128t-200 -50q-176 0 -291 110t-115 277
q0 168 118 289q118 120 298 120t305 -124t125 -426q0 -205 -47 -358q-47 -154 -125 -234q-152 -156 -340 -156z" />
    <glyph glyph-name="colon" unicode=":" horiz-adv-x="413" 
d="M209 -16q-45 0 -76 32t-31 78q0 47 31 79t76 32t76 -32t31 -79t-31 -79q-31 -31 -76 -31zM209 530q-45 0 -76 32t-31 79t31 79t76 32t76 -32t31 -79t-32 -79q-30 -32 -75 -32z" />
    <glyph glyph-name="semicolon" unicode=";" horiz-adv-x="413" 
d="M98 104q0 40 31 69q31 30 76 30t78 -37t33 -115t-66 -173t-205 -167l-27 43q172 125 177 242q-37 4 -67 36t-30 72zM209 530q-45 0 -76 32t-31 79t31 79t76 32t76 -32t31 -79t-32 -79q-30 -32 -75 -32z" />
    <glyph glyph-name="less" unicode="&#x3c;" horiz-adv-x="765" 
d="M582 172l-508 334v41l508 334l53 -80l-418 -275l418 -274z" />
    <glyph glyph-name="equal" unicode="=" horiz-adv-x="806" 
d="M76 322v98h655v-98h-655zM76 627v98h655v-98h-655z" />
    <glyph glyph-name="greater" unicode="&#x3e;" horiz-adv-x="765" 
d="M184 172l-53 80l418 274l-418 275l53 80l508 -334v-41z" />
    <glyph glyph-name="question" unicode="?" horiz-adv-x="874" 
d="M397 -16q-43 0 -73 30t-29 74q0 43 30 75q31 32 73 32t72 -32t30 -75q0 -44 -30 -74t-73 -30zM41 1102q0 62 49 128t135 104t189 38q184 0 295 -100t111 -244t-103 -255q-102 -110 -273 -155l-22 -262h-55l-29 330q178 39 274 124t96 205q0 121 -77 189t-231 68t-224 -96
q-10 -12 -18 -33q76 -16 75 -86q1 -35 -25 -61t-64 -26t-70 36q-32 34 -33 96z" />
    <glyph glyph-name="at" unicode="@" horiz-adv-x="1642" 
d="M1042 489q0 211 -208 211q-104 0 -182 -99q-79 -99 -79 -213q0 -218 179 -218q122 0 206 105t84 214zM676 -356q-260 0 -419 171t-159 427q0 414 261 702t618 289q264 0 420 -158q155 -158 155 -409q0 -252 -112 -420t-271 -168q-90 0 -132 52t-31 120q-41 -80 -115 -126
q-75 -46 -175 -46t-176 79t-75 210q0 172 115 299t266 127q100 1 158 -51t71 -124l41 168h96l-112 -452q-24 -84 -4 -129t78 -45q122 0 208 152t86 358t-134 346t-359 141q-324 0 -558 -267t-235 -650q0 -215 137 -368t359 -153q178 0 330 82l34 -67q-163 -90 -366 -90z" />
    <glyph glyph-name="A" unicode="A" horiz-adv-x="1454" 
d="M475 584h498l-248 671zM41 0v102h135l432 1143h-155v103h548v-103h-155l432 -1143h135v-102h-420v102h158l-141 381h-572l-141 -381h164v-102h-420z" />
    <glyph glyph-name="B" unicode="B" horiz-adv-x="1247" 
d="M403 737h215q172 0 262 72q89 72 89 191t-84 182t-242 63h-240v-508zM403 102h273q158 0 245 75t87 199t-102 194t-288 69h-215v-537zM106 0v102h181v1143h-181v103h541q221 0 329 -98t108 -227q0 -130 -70 -214q-68 -84 -185 -119q293 -76 293 -325q0 -161 -122 -263
t-328 -102h-566z" />
    <glyph glyph-name="C" unicode="C" horiz-adv-x="1437" 
d="M802 -25q-296 0 -488 208q-191 208 -191 498q0 291 201 491t473 200q197 0 347 -105t148 -231q0 -49 -30 -83q-30 -33 -73 -33q-42 0 -69 26q-26 26 -26 63t20 61t47 30q-33 61 -132 114t-232 54q-240 0 -398 -180q-157 -180 -157 -417q0 -236 160 -414
q161 -177 400 -177t433 172l63 -84q-200 -193 -496 -193z" />
    <glyph glyph-name="D" unicode="D" horiz-adv-x="1505" 
d="M403 102h220q311 0 476 161t165 421t-178 411t-480 150h-203v-1143zM106 0v102h181v1143h-181v103h502q348 0 561 -182t213 -483q0 -302 -207 -493q-208 -190 -563 -190h-506z" />
    <glyph glyph-name="E" unicode="E" horiz-adv-x="1214" 
d="M106 0v102h181v1143h-181v103h967v-306h-112v203h-558v-506h457v-102h-457v-535h558v203h112v-305h-967z" />
    <glyph glyph-name="F" unicode="F" horiz-adv-x="1169" 
d="M106 0v102h181v1143h-181v103h951v-306h-113v203h-541v-530h449v-103h-449v-510h191v-102h-488z" />
    <glyph glyph-name="G" unicode="G" horiz-adv-x="1519" 
d="M782 -25q-174 0 -322 80t-243 239q-94 159 -94 365q0 313 206 513t488 200q211 0 354 -97t144 -208q0 -49 -28 -79q-29 -30 -69 -30t-67 27t-27 72t45 73q-47 54 -143 96t-213 42q-252 0 -412 -176q-159 -176 -159 -432t158 -420q158 -162 388 -162t435 147v312h-389v100
h503v-637h-110v123q-203 -148 -445 -148z" />
    <glyph glyph-name="H" unicode="H" horiz-adv-x="1609" 
d="M106 0v102h181v1143h-181v103h478v-103h-181v-500h803v500h-180v103h477v-103h-180v-1143h180v-102h-477v102h180v539h-803v-539h181v-102h-478z" />
    <glyph glyph-name="I" unicode="I" horiz-adv-x="714" 
d="M109 0v102h190v1143h-190v103h497v-103h-190v-1143h190v-102h-497z" />
    <glyph glyph-name="J" unicode="J" horiz-adv-x="1073" 
d="M825 461q-1 -260 -113 -373t-274 -113q-162 1 -268 95t-107 231q0 66 33 108t76 42t71 -26q27 -26 27 -63q0 -38 -22 -64t-64 -30q-4 -58 65 -120t183 -62t195 82q82 82 82 295v782h-211v103h495v-103h-168v-784z" />
    <glyph glyph-name="K" unicode="K" horiz-adv-x="1376" 
d="M106 0v102h181v1143h-181v103h478v-103h-181v-645l644 645h-193v103h487v-103h-153l-465 -467l467 -676h166v-102h-244l-473 702l-236 -235v-365h181v-102h-478z" />
    <glyph glyph-name="L" unicode="L" horiz-adv-x="1140" 
d="M106 0v102h181v1143h-181v103h488v-103h-191v-1143h510v213h113v-315h-920z" />
    <glyph glyph-name="M" unicode="M" horiz-adv-x="1824" 
d="M96 0v102h183l51 1143h-187v103h312l452 -990l455 990h307v-103h-186l51 -1143h182v-102h-471v102h176l-37 1053l-456 -981h-45l-457 981l-37 -1053h176v-102h-469z" />
    <glyph glyph-name="N" unicode="N" horiz-adv-x="1583" 
d="M397 102h181v-102h-472v102h181v1143h-181v103h283l830 -1108v1005h-181v103h465v-103h-174v-1251h-65l-867 1155v-1047z" />
    <glyph glyph-name="O" unicode="O" horiz-adv-x="1601" 
d="M801 82q243 0 401 170t158 421t-158 422t-402 171t-401 -170t-157 -421t158 -422t401 -171zM802 1372q290 0 484 -202t193 -496t-195 -497q-194 -202 -484 -202t-484 202t-194 497q0 294 196 496q194 202 484 202z" />
    <glyph glyph-name="P" unicode="P" horiz-adv-x="1189" 
d="M625 606q168 0 266 86t98 234t-104 234q-104 85 -264 85h-218v-635q99 -4 222 -4zM106 0v102h181v1143h-181v103h506q214 0 354 -115t140 -307t-132 -306q-132 -116 -353 -116q-127 0 -218 4v-406h191v-102h-488z" />
    <glyph glyph-name="Q" unicode="Q" horiz-adv-x="1601" 
d="M814 82q232 0 388 170q158 170 158 421t-158 422t-402 171t-401 -170t-157 -434t186 -439q154 -141 386 -141zM1384 -285q-142 0 -262 70q-41 25 -104 70t-88 59q-86 53 -215 74q-391 65 -531 388q-61 140 -61 296q1 296 195 498t484 202t484 -202t193 -494
q1 -250 -141 -435t-380 -233q52 -18 140 -75t144 -83t129 -26t149 47l45 -96q-95 -60 -181 -60z" />
    <glyph glyph-name="R" unicode="R" horiz-adv-x="1263" 
d="M584 668q170 0 278 76t107 216q1 138 -97 212t-266 73h-203v-573q99 -4 181 -4zM106 0v102h181v1143h-181v103h506q217 0 345 -106t128 -277q0 -137 -83 -233t-222 -138l316 -492h166v-102h-246l-359 569q-49 -4 -106 -4t-148 4v-467h181v-102h-478z" />
    <glyph glyph-name="S" unicode="S" horiz-adv-x="1120" 
d="M268 178q86 -96 316 -96q122 0 206 72q82 72 82 182t-74 172t-196 110t-184 78q-162 80 -211 187q-29 61 -29 143q0 154 110 250t278 96t282 -78t113 -178q0 -47 -27 -75q-27 -27 -66 -27q-40 0 -66 26t-26 66q0 41 37 82q-27 36 -99 58t-139 22q-129 0 -205 -66
t-77 -170q0 -104 77 -166q76 -62 204 -112q128 -52 186 -82t116 -74q112 -88 112 -252q-1 -164 -122 -266t-306 -103q-185 0 -309 84t-124 181q0 51 28 83q29 31 67 31t63 -24t25 -67q0 -42 -42 -87z" />
    <glyph glyph-name="T" unicode="T" horiz-adv-x="1304" 
d="M403 0v102h191v1147h-379v-217h-113v316h1100v-316h-112v217h-379v-1147h190v-102h-498z" />
    <glyph glyph-name="U" unicode="U" horiz-adv-x="1470" 
d="M731 -25q-229 0 -353 126t-124 352v792h-180v103h477v-103h-184v-782q0 -189 94 -285t272 -96t275 94q96 94 96 283v786h-184v103h477v-103h-180v-784q0 -229 -128 -358q-129 -128 -358 -128z" />
    <glyph glyph-name="V" unicode="V" horiz-adv-x="1433" 
d="M41 1245v103h420v-103h-158l418 -1079l418 1079h-166v103h420v-103h-138l-503 -1268h-70l-504 1268h-137z" />
    <glyph glyph-name="W" unicode="W" horiz-adv-x="1996" 
d="M41 1245v103h448v-103h-165l311 -1050l340 979h65l342 -977l308 1048h-172v103h446v-103h-162l-383 -1270h-69l-342 973l-346 -973h-70l-389 1270h-162z" />
    <glyph glyph-name="X" unicode="X" horiz-adv-x="1488" 
d="M96 0v102h140l438 586l-410 557h-143v103h426v-99h-150l348 -489l355 489h-158v99h426v-103h-141l-414 -557l440 -586h140v-102h-426v98h153l-377 523l-381 -523h160v-98h-426z" />
    <glyph glyph-name="Y" unicode="Y" horiz-adv-x="1312" 
d="M397 0v102h199v449l-406 694h-147v103h428v-103h-147l333 -594l338 594h-153v103h428v-103h-150l-405 -692v-451h198v-102h-516z" />
    <glyph glyph-name="Z" unicode="Z" horiz-adv-x="1222" 
d="M92 0v49l854 1202h-696v-209h-113v306h979v-50l-854 -1202h756v209h112v-305h-1038z" />
    <glyph glyph-name="bracketleft" unicode="[" horiz-adv-x="698" 
d="M217 -410v1909h440v-102h-327v-1704h327v-103h-440z" />
    <glyph glyph-name="backslash" unicode="\" horiz-adv-x="911" 
d="M883 -424l-840 1897l98 43l840 -1897z" />
    <glyph glyph-name="bracketright" unicode="]" horiz-adv-x="698" 
d="M41 -410v103h328v1704h-328v102h440v-1909h-440z" />
    <glyph glyph-name="asciicircum" unicode="^" horiz-adv-x="901" 
d="M207 764l-51 61l295 275l294 -275l-51 -61l-243 186z" />
    <glyph glyph-name="underscore" unicode="_" horiz-adv-x="1054" 
d="M-10 -287v107h1075v-107h-1075z" />
    <glyph glyph-name="grave" unicode="`" horiz-adv-x="1024" 
d="M221 1275q0 39 23 61q24 22 54 22t75 -41l256 -236l-25 -39l-311 156q-72 37 -72 77z" />
    <glyph glyph-name="a" unicode="a" horiz-adv-x="993" 
d="M410 76q156 0 278 141v145q-133 44 -250 44t-175 -46t-58 -120q-1 -72 53 -118t152 -46zM389 -16q-129 0 -209 70t-80 182t92 185t234 73q66 0 146 -16t116 -34v144q0 76 -41 123q-66 72 -196 71q-90 0 -156 -45q14 -29 14 -59q1 -30 -21 -52t-58 -22t-58 24t-20 58
q0 76 86 133t242 57t245 -94q63 -66 63 -170v-518h144v-94h-240v117q-57 -57 -138 -95t-165 -38z" />
    <glyph glyph-name="b" unicode="b" horiz-adv-x="1112" 
d="M560 78q152 0 246 98q93 98 93 253t-90 254t-229 99q-170 0 -301 -145v-453q129 -106 281 -106zM580 -16q-182 0 -306 108l-41 -92h-59v1405h-143v94h248v-760q137 137 311 137t297 -125q123 -127 123 -319t-124 -320t-306 -128z" />
    <glyph glyph-name="c" unicode="c" horiz-adv-x="944" 
d="M530 -16q-180 0 -308 128t-128 312t126 318t300 135q134 0 234 -74t100 -170q0 -41 -28 -72t-62 -31t-58 20q-22 20 -22 61q0 42 49 67q-19 49 -81 77t-132 27q-119 0 -217 -97t-98 -255t96 -254q97 -96 245 -96t290 96l-11 -106q-115 -86 -295 -86z" />
    <glyph glyph-name="d" unicode="d" horiz-adv-x="1116" 
d="M518 78q164 0 295 145v449q-125 110 -275 110t-239 -102q-88 -102 -90 -255t86 -250t223 -97zM515 -16q-177 0 -297 122t-120 314t119 324t299 132t297 -110v639h-178v94h283v-1405h143v-94h-244v133q-125 -149 -302 -149z" />
    <glyph glyph-name="e" unicode="e" horiz-adv-x="978" 
d="M504 782q-123 0 -205 -78t-96 -206h579q-10 132 -82 208t-196 76zM555 80q82 0 145 22t152 74l-10 -106q-132 -86 -318 -86t-310 124t-124 314t114 322t297 132t285 -118q102 -119 103 -285q0 -38 -6 -67h-682q12 -160 104 -243t250 -83z" />
    <glyph glyph-name="f" unicode="f" horiz-adv-x="628" 
d="M569 1333q-74 0 -94 84q-49 -6 -78 -41q-51 -57 -51 -182v-334h223v-94h-223v-672h168v-94h-416v94h144v672h-156v94h156v301q0 199 78 277t182 78q63 0 103 -27t40 -69q1 -42 -21 -64t-55 -23z" />
    <glyph glyph-name="g" unicode="g" horiz-adv-x="1136" 
d="M544 782q-152 0 -244 -102q-91 -102 -91 -246t89 -242t224 -98q168 0 299 146v432q-125 110 -277 110zM926 766v-807q0 -156 -78 -246q-102 -123 -332 -123q-184 0 -270 86q-43 42 -43 90q-1 48 25 74t62 27q36 0 55 -22q19 -23 19 -55t-24 -66q50 -39 200 -39t226 90
q55 70 55 174v188q-129 -137 -304 -137t-297 124t-122 305t121 314t303 133t303 -116v100h244v-94h-143z" />
    <glyph glyph-name="h" unicode="h" horiz-adv-x="1130" 
d="M821 569q0 209 -194 209q-168 0 -312 -176v-508h144v-94h-391v94h143v1311h-143v94h247v-805q66 82 154 132t176 51q152 -1 216 -85t65 -208v-490h143v-94h-391v94h143v475z" />
    <glyph glyph-name="i" unicode="i" horiz-adv-x="579" 
d="M98 0v94h152v672h-152v94h256v-766h154v-94h-410zM285 1122q-39 0 -68 29t-29 70t29 69t68 29q39 0 67 -29q28 -30 27 -70q1 -40 -27 -69t-67 -29z" />
    <glyph glyph-name="j" unicode="j" horiz-adv-x="495" 
d="M260 1122q-40 0 -68 29t-28 70t29 69t67 29q38 0 67 -29q27 -30 27 -70t-28 -69t-66 -29zM330 23q0 -431 -269 -433q-76 0 -123 35t-47 77t22 68q21 26 55 26t54 -21t19 -49q0 -28 -8 -45q12 -4 35 -5q98 0 135 134q23 78 22 196v760h-166v94h271v-837z" />
    <glyph glyph-name="k" unicode="k" horiz-adv-x="1046" 
d="M68 0v94h143v1311h-143v94h247v-1085l410 356h-190v90h477v-94h-150l-305 -262l289 -410h166v-94h-224l-307 449l-166 -142v-213h154v-94h-401z" />
    <glyph glyph-name="l" unicode="l" horiz-adv-x="555" 
d="M74 0v94h151v1311h-151v94h256v-1405h153v-94h-409z" />
    <glyph glyph-name="m" unicode="m" horiz-adv-x="1697" 
d="M92 0v94h144v672h-144v94h244v-170q61 82 148 134t175 53q162 0 220 -107q16 -29 26 -76q172 182 338 182q250 1 250 -292v-490h143v-94h-391v94h144v475q0 78 -19 123q-35 86 -151 86q-143 0 -301 -172v-512h141v-94h-391v94h145v475q0 78 -18 123q-35 86 -152 86
q-150 0 -303 -176v-508h143v-94h-391z" />
    <glyph glyph-name="n" unicode="n" horiz-adv-x="1144" 
d="M836 569q0 209 -185 209q-168 0 -311 -176v-508h143v-94h-391v94h144v672h-144v94h244v-170q63 80 153 133t179 54q272 0 272 -293v-490h143v-94h-391v94h144v475z" />
    <glyph glyph-name="o" unicode="o" horiz-adv-x="1069" 
d="M535 78q143 0 234 98t91 253t-91 254t-234 99t-235 -99t-91 -254q-1 -155 91 -253t235 -98zM535 -16q-193 0 -315 129t-122 317t122 318t315 129q193 0 315 -129q122 -130 121 -318q1 -188 -121 -317t-315 -129z" />
    <glyph glyph-name="p" unicode="p" horiz-adv-x="1132" 
d="M588 78q152 0 241 102t91 255t-86 250t-238 97t-281 -145v-453q121 -106 273 -106zM68 -401v94h143v1073h-143v94h243v-133q125 150 302 150t297 -123q120 -122 120 -314t-119 -324t-298 -132t-298 106v-397h179v-94h-426z" />
    <glyph glyph-name="q" unicode="q" horiz-adv-x="1087" 
d="M528 78q170 0 301 145v453q-129 106 -281 106t-246 -98t-93 -253q0 -155 90 -254t229 -99zM651 -401v94h178v428q-137 -137 -311 -137t-297 126t-123 318t124 320t306 129q182 0 306 -109l40 92h60v-1167h143v-94h-426z" />
    <glyph glyph-name="r" unicode="r" horiz-adv-x="727" 
d="M588 877q59 0 90 -29t31 -67q0 -39 -25 -65q-24 -26 -58 -26t-59 20t-35 50q-49 -14 -103 -68t-89 -123v-475h168v-94h-416v94h144v672h-144v94h244v-194q47 90 120 150t132 61z" />
    <glyph glyph-name="s" unicode="s" horiz-adv-x="876" 
d="M741 705q0 -45 -20 -67t-54 -22t-58 23q-23 23 -23 57t14 54q-52 36 -156 36t-161 -43t-57 -101t54 -87t147 -52t164 -45t111 -58q78 -70 78 -175t-97 -173t-239 -68q-205 0 -301 96q-47 47 -47 93t22 71q22 24 56 24t56 -22t22 -52t-19 -61q19 -23 77 -41t146 -18
t155 42t67 108t-55 100t-197 68t-223 84q-82 50 -82 156t88 175q89 70 247 70t242 -84q43 -44 43 -88z" />
    <glyph glyph-name="t" unicode="t" horiz-adv-x="649" 
d="M385 -16q-190 0 -190 204v578h-156v94h156v223l104 37v-260h266v-94h-266v-567q0 -43 12 -70q25 -45 100 -45t164 55l-16 -108q-90 -47 -174 -47z" />
    <glyph glyph-name="u" unicode="u" horiz-adv-x="1120" 
d="M309 291q0 -209 185 -209q150 0 311 176v508h-143v94h247v-766h144v-94h-244v170q-63 -80 -153 -133t-179 -53q-272 0 -272 292v490h-144v94h248v-569z" />
    <glyph glyph-name="v" unicode="v" horiz-adv-x="1054" 
d="M16 766v94h381v-94h-143l276 -625l277 625h-150v94h381v-94h-118l-373 -801h-39l-373 801h-119z" />
    <glyph glyph-name="w" unicode="w" horiz-adv-x="1396" 
d="M16 766v94h377v-90h-143l174 -602l256 592h41l256 -590l174 600h-147v90h376v-94h-129l-245 -803h-41l-267 615l-266 -615h-41l-248 803h-127z" />
    <glyph glyph-name="x" unicode="x" horiz-adv-x="1001" 
d="M49 0v94h117l278 344l-258 328h-127v94h351v-88h-111l203 -274l205 274h-115v88h350v-94h-127l-258 -324l277 -348h118v-94h-360v88h129l-221 295l-226 -295h136v-88h-361z" />
    <glyph glyph-name="y" unicode="y" horiz-adv-x="1032" 
d="M61 -313q0 41 22 63q23 22 55 23q32 0 57 -25t32 -57q59 23 119 119q31 51 78 147l45 94l-332 715h-123v94h381v-94h-139q16 -39 44 -100q28 -62 86 -194t97 -218l37 -88l268 600h-145v94h375v-94h-123l-410 -883q-136 -293 -290 -293q-53 0 -94 28q-40 28 -40 69z" />
    <glyph glyph-name="z" unicode="z" horiz-adv-x="909" 
d="M82 0v33l567 737h-434v-172h-96v262h702v-33l-567 -737h479v172h96v-262h-747z" />
    <glyph glyph-name="braceleft" unicode="{" horiz-adv-x="671" 
d="M129 -131q0 74 34 126t128 150t94 172t-76 124t-180 51h-29v98h29q104 0 180 50t76 124t-94 172t-128 150t-34 126q0 134 116 222t314 92v-88q-162 -6 -242 -73q-79 -67 -79 -146t128 -217t128 -218t-54 -148t-182 -95q127 -29 181 -97q55 -68 55 -146t-128 -218
q-128 -139 -128 -218t80 -146t241 -72v-88q-199 4 -315 91t-115 222z" />
    <glyph glyph-name="bar" unicode="|" horiz-adv-x="540" 
d="M221 -410v1909h98v-1909h-98z" />
    <glyph glyph-name="braceright" unicode="}" horiz-adv-x="671" 
d="M434 -138q0 79 -128 218t-128 218q0 78 54 146t182 97q-127 29 -182 96q-54 69 -54 147t128 218t128 218t-80 145t-241 73v88q199 -4 315 -91t115 -223q0 -74 -34 -126t-128 -150t-94 -172q-1 -74 75 -124t181 -50h28v-98h-28q-105 0 -181 -50q-163 -108 25 -303
q88 -92 122 -144t34 -126q1 -135 -115 -222t-315 -91v88q161 6 241 72t80 146z" />
    <glyph glyph-name="asciitilde" unicode="~" horiz-adv-x="860" 
d="M561 397q-75 -1 -153 67t-113 68q-72 0 -90 -116l-92 20q4 86 57 146t129 61q75 1 153 -67t113 -68q72 0 90 117l93 -21q-4 -86 -58 -146t-129 -61z" />
    <glyph glyph-name="uni00A0" unicode="&#xa0;" horiz-adv-x="471" 
 />
    <glyph glyph-name="exclamdown" unicode="&#xa1;" horiz-adv-x="499" 
d="M180 0l41 989h58l40 -989h-139zM250 1151q-43 0 -73 32q-30 33 -30 75t30 73t73 31t73 -31q29 -31 29 -74t-30 -75t-72 -31z" />
    <glyph glyph-name="cent" unicode="&#xa2;" horiz-adv-x="985" 
d="M205 524q0 -134 63 -223q63 -88 178 -123l60 684q-119 -16 -210 -110t-91 -228zM895 713q0 -37 -28 -70q-29 -33 -63 -33t-56 20t-23 44q0 26 13 50t36 34q-35 78 -176 100l-61 -696q16 -2 51 -2q147 0 289 96l-11 -106q-115 -84 -282 -84q-37 0 -56 2l-24 -283l-90 8
l24 291q-154 43 -249 161q-95 117 -95 277t124 291t296 141l21 220l90 -9l-19 -213q119 -18 204 -88t85 -151z" />
    <glyph glyph-name="sterling" unicode="&#xa3;" horiz-adv-x="917" 
d="M646 -152q78 0 114 25q37 25 67 84l82 -47q-82 -160 -247 -160q-112 0 -230 47t-176 47t-72 -2q-70 -92 -157 -92q-33 0 -56 18t-22 42q0 48 49 82t141 45q119 119 119 276q0 31 -2 45h-201v90h181l-21 70q-43 141 -43 250q0 154 99 264t259 110q124 0 218 -61t94 -141
q0 -51 -26 -79t-58 -28t-55 22q-21 21 -21 63t33 65q-53 67 -177 67t-196 -83q-70 -83 -70 -194t41 -243l25 -82h352v-90h-338l2 -45q0 -164 -112 -276q96 -9 211 -49t193 -40z" />
    <glyph glyph-name="yen" unicode="&#xa5;" horiz-adv-x="985" 
d="M164 469v88h229l-237 375h-117v94h336v-94h-111l230 -371l225 371h-113v94h336v-94h-119l-239 -375h233v-88h-280v-137h280v-88h-280v-154h157v-90h-405v90h157v154h-282v88h282v137h-282z" />
    <glyph glyph-name="section" unicode="&#xa7;" horiz-adv-x="923" 
d="M676 494q0 50 -46 78t-171 59l-72 18q-139 -49 -139 -125q0 -48 46 -78t171 -59l70 -18q141 47 141 125zM623 913q-50 39 -140 39t-136 -30t-46 -72q0 -43 46 -71q46 -27 176 -61t201 -82t71 -128q0 -117 -162 -176q109 -55 108 -156q0 -80 -81 -139t-206 -59
q-126 0 -210 46t-84 115q0 33 19 57t53 24t56 -22t22 -50t-9 -44q43 -38 135 -38t139 28t48 72q0 43 -45 71q-45 29 -176 63t-202 81t-71 115t45 116q45 47 117 72q-109 53 -109 158q0 78 82 138t206 60t209 -46t85 -115q0 -35 -20 -59t-53 -24q-34 0 -54 24q-35 40 -14 93z
" />
    <glyph glyph-name="dieresis" unicode="&#xa8;" horiz-adv-x="1024" 
d="M348 1075q-43 0 -72 31t-28 74q0 44 28 74t72 30q43 0 72 -31t29 -73t-29 -74q-29 -31 -72 -31zM676 1075q-43 0 -72 31t-29 74q0 44 29 74t72 30t72 -31q28 -31 28 -73t-28 -74q-28 -31 -72 -31z" />
    <glyph glyph-name="copyright" unicode="&#xa9;" horiz-adv-x="1224" 
d="M633 729q-84 0 -138 -60q-55 -59 -55 -145t56 -146t143 -60q86 0 158 67l43 -51q-76 -84 -200 -84t-201 77t-77 195t80 195q80 78 178 78t154 -41q57 -41 57 -86q0 -23 -14 -40q-15 -18 -35 -18t-33 14t-14 33q0 20 10 31q-28 41 -112 41zM612 49q188 0 314 135
q125 135 125 330t-125 330q-126 135 -314 135t-313 -135t-125 -330t125 -330t313 -135zM612 -16q-221 0 -367 154q-147 154 -147 375q0 222 146 376q146 153 368 153q221 0 368 -153q146 -154 146 -376t-146 -376q-147 -153 -368 -153z" />
    <glyph glyph-name="ordfeminine" unicode="&#xaa;" horiz-adv-x="694" 
d="M274 905q86 0 156 74v86q-74 20 -137 20q-63 1 -96 -25t-33 -66t28 -64t82 -25zM102 625v75h488v-75h-488zM430 1192q0 111 -135 111q-55 0 -82 -21q6 -12 6 -33t-14 -35t-38 -14t-38 15t-14 38q0 47 51 83t135 36q83 0 145 -39t62 -129v-286h82v-68h-158v65
q-80 -75 -167 -75t-134 41t-47 109t55 110q55 43 141 43t150 -25v74z" />
    <glyph glyph-name="guillemotleft" unicode="&#xab;" horiz-adv-x="919" 
d="M395 233l-327 324l327 324l68 -64l-256 -260l256 -260zM741 233l-327 324l327 324l68 -64l-256 -260l256 -260z" />
    <glyph glyph-name="registered" unicode="&#xae;" horiz-adv-x="790" 
d="M354 1069h37q80 0 80 57t-80 58h-37v-115zM254 883v53h41v248h-41v53h139q61 0 101 -28q40 -27 38 -87q0 -60 -67 -88l55 -98h41v-53h-82l-73 135h-52v-82h47v-53h-147zM395 1358q-125 0 -210 -88t-85 -216t85 -216t208 -88t210 89t87 216t-85 215t-210 88zM393 688
q-152 0 -257 106t-105 260q0 153 105 259t258 106t259 -106q107 -106 107 -259q0 -154 -108 -260t-259 -106z" />
    <glyph glyph-name="macron" unicode="&#xaf;" horiz-adv-x="1024" 
d="M215 1106v106h594v-106h-594z" />
    <glyph glyph-name="degree" unicode="&#xb0;" horiz-adv-x="614" 
d="M305 926q76 0 124 54t48 134t-48 134t-124 54t-124 -52q-48 -54 -48 -136t48 -135t124 -53zM306 854q-112 0 -184 76t-73 184q0 108 73 184q72 76 184 76t182 -76t71 -184q-1 -108 -71 -184t-182 -76z" />
    <glyph glyph-name="plusminus" unicode="&#xb1;" horiz-adv-x="806" 
d="M76 37v98h655v-98h-655zM352 293v278h-276v99h276v278h103v-278h276v-99h-276v-278h-103z" />
    <glyph glyph-name="two.sup" unicode="&#xb2;" horiz-adv-x="722" 
d="M508 1432q0 56 -44 92q-44 37 -104 37t-99 -23q-40 -23 -46 -43q35 -14 35 -47t-18 -51t-44 -19q-68 0 -68 75t68 130t170 55t173 -58t71 -148q0 -56 -28 -104t-60 -75t-98 -71q-166 -113 -207 -224h326v117h79v-192h-489l-25 41q53 170 262 317q76 55 111 95t35 96z" />
    <glyph glyph-name="three.sup" unicode="&#xb3;" horiz-adv-x="722" 
d="M618 1069q0 -79 -76 -139t-186 -60q-108 0 -185 48t-77 114q0 30 20 52t47 22q28 0 44 -17t16 -47t-24 -43q14 -16 56 -34q41 -19 107 -19t116 40t50 102t-56 100q-56 39 -155 39h-45v80h49q82 0 137 38q54 38 54 95t-44 88t-127 31t-120 -46q25 -16 25 -43t-16 -44
t-43 -17q-26 1 -46 21t-20 53q0 55 64 103q65 48 172 48t176 -54t69 -126t-51 -120q-51 -50 -123 -64q78 -14 135 -68t57 -133z" />
    <glyph glyph-name="acute" unicode="&#xb4;" horiz-adv-x="1024" 
d="M727 1358q31 0 53 -22t23 -62q0 -40 -72 -76l-311 -156l-25 39l256 236q45 41 76 41z" />
    <glyph glyph-name="paragraph" unicode="&#xb6;" horiz-adv-x="1150" 
d="M692 90h119v846h-119v-846zM432 0v90h164v305q-36 -2 -180 -2t-245 87q-101 86 -101 228t105 230t263 88h625v-94h-156v-838h156v-94h-631z" />
    <glyph glyph-name="periodcentered" unicode="&#xb7;" horiz-adv-x="540" 
d="M270 401q-46 0 -76 32t-30 79t31 79t75 32t76 -32q31 -32 31 -79t-31 -79t-76 -32z" />
    <glyph glyph-name="cedilla" unicode="&#xb8;" horiz-adv-x="1024" 
d="M546 -408q-102 0 -204 54l29 65q86 -39 177 -39t91 66t-102 65q-27 0 -45 -6l-35 25l61 223l62 -12l-17 -135q88 -2 134 -45t46 -108t-48 -109q-47 -44 -149 -44z" />
    <glyph glyph-name="one.sup" unicode="&#xb9;" horiz-adv-x="722" 
d="M135 883v80h199v567l-191 -45l-18 80l254 63h43v-665h196v-80h-483z" />
    <glyph glyph-name="ordmasculine" unicode="&#xba;" horiz-adv-x="720" 
d="M362 907q80 1 130 57t49 142q0 86 -49 142q-50 56 -130 56t-131 -56t-51 -142t51 -142t131 -57zM625 1106q0 -112 -74 -190t-190 -78q-117 0 -191 78t-74 190t75 190t191 78t190 -78q73 -78 73 -190zM127 625v75h467v-75h-467z" />
    <glyph glyph-name="guillemotright" unicode="&#xbb;" horiz-adv-x="919" 
d="M178 233l-67 64l256 260l-256 260l67 64l328 -324zM524 233l-67 64l256 260l-256 260l67 64l328 -324z" />
    <glyph glyph-name="onequarter" unicode="&#xbc;" horiz-adv-x="1628" 
d="M111 575v80h198v568l-190 -45l-19 79l254 64h43v-666h197v-80h-483zM492 -25l-68 41l797 1311l67 -41zM1171 -2v76h138v141h-346l-19 39l389 506l66 -51l-328 -420h238v153l84 35v-188h123v-74h-123v-141h98v-76h-320z" />
    <glyph glyph-name="onehalf" unicode="&#xbd;" horiz-adv-x="1628" 
d="M109 575v80h198v568l-190 -45l-19 79l254 64h43v-666h197v-80h-483zM471 -25l-68 41l797 1311l68 -41zM1411 547q0 55 -44 92t-103 37q-60 0 -100 -23t-46 -43q35 -14 35 -47t-17 -51t-44 -18q-68 0 -68 74t68 130t170 56t173 -58t70 -149q1 -55 -27 -103t-61 -76
q-33 -26 -98 -71q-166 -113 -207 -223h326v116h80v-192h-490l-24 41q53 170 262 317q76 56 110 96t35 95z" />
    <glyph glyph-name="threequarters" unicode="&#xbe;" horiz-adv-x="1628" 
d="M496 -25l-68 41l797 1311l67 -41zM1165 -2v76h138v141h-347l-18 39l389 506l66 -51l-328 -420h238v153l83 35v-188h123v-74h-123v-141h99v-76h-320zM649 762q-1 -80 -77 -140t-184 -59q-108 0 -186 47q-77 47 -77 115q0 31 19 53q20 22 48 21q28 1 44 -17t16 -47t-25 -43
q15 -16 57 -34t108 -19q66 0 115 40q50 39 50 101t-56 101t-155 39h-45v79h49q82 0 136 38q54 37 54 95t-43 89q-44 31 -127 31t-120 -46q24 -16 24 -43t-16 -44t-42 -17t-46 20t-20 64t64 93q65 48 172 48t176 -54q69 -53 69 -125t-51 -122t-123 -63q78 -13 135 -67
t57 -134z" />
    <glyph glyph-name="questiondown" unicode="&#xbf;" horiz-adv-x="874" 
d="M477 1364q43 0 73 -31t30 -73t-30 -75q-30 -32 -73 -32t-73 32t-29 75q-1 44 29 74t73 30zM834 246q0 -62 -50 -128t-135 -104q-86 -39 -188 -39q-184 1 -295 101t-111 244q1 144 103 254t272 155l23 262h55l29 -329q-179 -39 -275 -124t-96 -205t78 -189q78 -68 232 -68
t222 96q10 12 19 33q-76 16 -76 86q0 35 26 61q25 26 63 25q38 0 71 -35q33 -34 33 -96z" />
    <glyph glyph-name="Agrave" unicode="&#xc0;" horiz-adv-x="1454" 
d="M420 1705q0 39 22 61t54 22q31 0 75 -41l256 -236l-24 -38l-311 155q-72 37 -72 77zM475 584h498l-248 671zM41 0v102h135l432 1143h-155v103h548v-103h-155l432 -1143h135v-102h-420v102h158l-141 381h-572l-141 -381h164v-102h-420z" />
    <glyph glyph-name="Aacute" unicode="&#xc1;" horiz-adv-x="1454" 
d="M959 1788q31 0 53 -22t22 -62t-71 -76l-312 -155l-24 38l256 236q45 41 76 41zM475 584h498l-248 671zM41 0v102h135l432 1143h-155v103h548v-103h-155l432 -1143h135v-102h-420v102h158l-141 381h-572l-141 -381h164v-102h-420z" />
    <glyph glyph-name="Acircumflex" unicode="&#xc2;" horiz-adv-x="1454" 
d="M483 1460l-51 62l295 274l295 -274l-51 -62l-244 187zM475 584h498l-248 671zM41 0v102h135l432 1143h-155v103h548v-103h-155l432 -1143h135v-102h-420v102h158l-141 381h-572l-141 -381h164v-102h-420z" />
    <glyph glyph-name="Atilde" unicode="&#xc3;" horiz-adv-x="1454" 
d="M864 1475q-76 0 -156 65t-112 66q-74 0 -88 -119l-92 18q2 87 54 149t128 62t172 -80q63 -51 96 -51q74 0 88 119l93 -18q-3 -86 -55 -148t-128 -63zM475 584h498l-248 671zM41 0v102h135l432 1143h-155v103h548v-103h-155l432 -1143h135v-102h-420v102h158l-141 381
h-572l-141 -381h164v-102h-420z" />
    <glyph glyph-name="Adieresis" unicode="&#xc4;" horiz-adv-x="1454" 
d="M563 1505q-43 0 -71 31t-29 74q0 44 29 74q30 30 72 30t71 -31t29 -73t-29 -74q-29 -31 -72 -31zM891 1505q-43 0 -72 31t-28 74q1 44 29 74t71 30t72 -31t29 -73t-30 -74q-28 -31 -71 -31zM475 584h498l-248 671zM41 0v102h135l432 1143h-155v103h548v-103h-155
l432 -1143h135v-102h-420v102h158l-141 381h-572l-141 -381h164v-102h-420z" />
    <glyph glyph-name="Aring" unicode="&#xc5;" horiz-adv-x="1454" 
d="M725 1360q51 0 84 36t33 89t-33 89t-84 36t-84 -36t-33 -89t33 -89t84 -36zM475 584h498l-248 671zM522 1492q0 83 60 142q60 60 143 60t143 -60t60 -144q0 -85 -68 -142h141v-103h-155l432 -1143h135v-102h-420v102h158l-141 381h-572l-141 -381h164v-102h-420v102h135
l432 1143h-155v103h135q-66 61 -66 144z" />
    <glyph glyph-name="AE" unicode="&#xc6;" horiz-adv-x="1792" 
d="M864 584v661h-37l-331 -661h368zM-16 0v102h157l572 1143h-140v103h1078v-306h-113v203h-557v-506h457v-102h-457v-535h557v203h113v-305h-946v102h159v381h-418l-190 -381h147v-102h-419z" />
    <glyph glyph-name="Ccedilla" unicode="&#xc7;" horiz-adv-x="1437" 
d="M786 -408q-102 0 -204 54l28 65q86 -39 177 -39t92 64q0 68 -103 67q-27 0 -45 -6l-35 25l43 155q-274 25 -445 228t-171 459q0 308 201 508t473 200q197 0 347 -105t148 -231q0 -49 -30 -83q-30 -33 -73 -33q-42 0 -69 26q-26 26 -26 63t20 61t47 30q-33 61 -132 114
t-232 54q-240 0 -398 -180q-157 -180 -157 -417q0 -236 160 -414q161 -177 400 -177t433 172l63 -84q-199 -188 -487 -193l-8 -77q88 -2 134 -45t46 -108t-48 -109q-47 -44 -149 -44z" />
    <glyph glyph-name="Egrave" unicode="&#xc8;" horiz-adv-x="1214" 
d="M358 1788q30 0 76 -41l256 -236l-24 -38l-312 155q-72 37 -72 77q0 39 24 61q22 22 52 22zM106 0v102h181v1143h-181v103h967v-306h-112v203h-558v-506h457v-102h-457v-535h558v203h112v-305h-967z" />
    <glyph glyph-name="Eacute" unicode="&#xc9;" horiz-adv-x="1214" 
d="M821 1788q31 0 53 -22t23 -62q0 -40 -72 -76l-311 -155l-25 38l256 236q45 41 76 41zM106 0v102h181v1143h-181v103h967v-306h-112v203h-558v-506h457v-102h-457v-535h558v203h112v-305h-967z" />
    <glyph glyph-name="Ecircumflex" unicode="&#xca;" horiz-adv-x="1214" 
d="M346 1460l-51 62l295 274l295 -274l-51 -62l-244 187zM106 0v102h181v1143h-181v103h967v-306h-112v203h-558v-506h457v-102h-457v-535h558v203h112v-305h-967z" />
    <glyph glyph-name="Edieresis" unicode="&#xcb;" horiz-adv-x="1214" 
d="M426 1505q-43 0 -72 31t-28 74q0 44 28 74t72 30q43 0 72 -31q28 -31 28 -73t-28 -74q-28 -31 -72 -31zM754 1505q-43 0 -72 31t-29 74q0 44 29 74t72 30q44 0 72 -31t28 -73t-28 -74q-28 -31 -72 -31zM106 0v102h181v1143h-181v103h967v-306h-112v203h-558v-506h457
v-102h-457v-535h558v203h112v-305h-967z" />
    <glyph glyph-name="Igrave" unicode="&#xcc;" horiz-adv-x="714" 
d="M49 1705q0 39 23 61q24 22 54 22t75 -41l256 -236l-25 -38l-311 155q-72 37 -72 77zM109 0v102h190v1143h-190v103h497v-103h-190v-1143h190v-102h-497z" />
    <glyph glyph-name="Iacute" unicode="&#xcd;" horiz-adv-x="714" 
d="M588 1788q32 0 54 -22t22 -62t-72 -76l-311 -155l-25 38l256 236q45 41 76 41zM109 0v102h190v1143h-190v103h497v-103h-190v-1143h190v-102h-497z" />
    <glyph glyph-name="Icircumflex" unicode="&#xce;" horiz-adv-x="714" 
d="M113 1460l-52 62l295 274l295 -274l-51 -62l-244 187zM109 0v102h190v1143h-190v103h497v-103h-190v-1143h190v-102h-497z" />
    <glyph glyph-name="Idieresis" unicode="&#xcf;" horiz-adv-x="714" 
d="M193 1505q-43 0 -72 31t-29 74q0 44 29 74t72 30t71 -31t29 -73q-1 -42 -29 -74q-28 -31 -71 -31zM520 1505q-44 0 -72 31t-28 74q0 44 29 74t71 30t72 -31q29 -31 29 -73t-29 -74q-29 -31 -72 -31zM109 0v102h190v1143h-190v103h497v-103h-190v-1143h190v-102h-497z" />
    <glyph glyph-name="Eth" unicode="&#xd0;" horiz-adv-x="1515" 
d="M414 102h219q311 0 476 161t165 421t-178 411t-480 150h-202v-504h317v-102h-317v-537zM297 639h-139v102h139v504h-180v103h501q348 0 562 -182t213 -483q0 -303 -208 -493t-562 -190h-506v102h180v537z" />
    <glyph glyph-name="Ntilde" unicode="&#xd1;" horiz-adv-x="1583" 
d="M926 1475q-76 0 -156 65t-113 66q-74 0 -88 -119l-92 18q2 87 54 149t128 62t172 -80q63 -51 97 -51q74 0 88 119l92 -18q-2 -86 -54 -148t-128 -63zM397 102h181v-102h-472v102h181v1143h-181v103h283l830 -1108v1005h-181v103h465v-103h-174v-1251h-65l-867 1155v-1047
z" />
    <glyph glyph-name="Ograve" unicode="&#xd2;" horiz-adv-x="1601" 
d="M570 1788q30 0 75 -41l256 -236l-24 -38l-312 155q-71 37 -71 77q0 39 22 61q24 22 54 22zM801 82q243 0 401 170t158 421t-158 422t-402 171t-401 -170t-157 -421t158 -422t401 -171zM802 1372q290 0 484 -202t193 -496t-195 -497q-194 -202 -484 -202t-484 202
t-194 497q0 294 196 496q194 202 484 202z" />
    <glyph glyph-name="Oacute" unicode="&#xd3;" horiz-adv-x="1601" 
d="M1032 1788q32 0 54 -22t22 -62t-72 -76l-311 -155l-25 38l256 236q45 41 76 41zM801 82q243 0 401 170t158 421t-158 422t-402 171t-401 -170t-157 -421t158 -422t401 -171zM802 1372q290 0 484 -202t193 -496t-195 -497q-194 -202 -484 -202t-484 202t-194 497
q0 294 196 496q194 202 484 202z" />
    <glyph glyph-name="Ocircumflex" unicode="&#xd4;" horiz-adv-x="1601" 
d="M557 1460l-51 62l295 274l295 -274l-52 -62l-243 187zM801 82q243 0 401 170t158 421t-158 422t-402 171t-401 -170t-157 -421t158 -422t401 -171zM802 1372q290 0 484 -202t193 -496t-195 -497q-194 -202 -484 -202t-484 202t-194 497q0 294 196 496q194 202 484 202z
" />
    <glyph glyph-name="Otilde" unicode="&#xd5;" horiz-adv-x="1601" 
d="M938 1475q-76 0 -156 65t-112 66q-74 0 -88 -119l-93 18q3 87 55 149t128 62t172 -80q63 -51 96 -51q74 0 88 119l92 -18q-2 -86 -54 -148t-128 -63zM801 82q243 0 401 170t158 421t-158 422t-402 171t-401 -170t-157 -421t158 -422t401 -171zM802 1372q290 0 484 -202
t193 -496t-195 -497q-194 -202 -484 -202t-484 202t-194 497q0 294 196 496q194 202 484 202z" />
    <glyph glyph-name="Odieresis" unicode="&#xd6;" horiz-adv-x="1601" 
d="M637 1505q-43 0 -72 31t-28 74q1 44 29 74t71 30t72 -31t29 -73t-30 -74q-28 -31 -71 -31zM965 1505q-43 0 -72 31t-29 74q0 44 29 74t72 30t71 -31t29 -73q-1 -42 -29 -74q-28 -31 -71 -31zM801 82q243 0 401 170t158 421t-158 422t-402 171t-401 -170t-157 -421
t158 -422t401 -171zM802 1372q290 0 484 -202t193 -496t-195 -497q-194 -202 -484 -202t-484 202t-194 497q0 294 196 496q194 202 484 202z" />
    <glyph glyph-name="multiply" unicode="&#xd7;" horiz-adv-x="806" 
d="M618 254l-217 219l-215 -217l-69 70l217 215l-219 217l71 71l217 -219l215 217l70 -69l-217 -215l219 -217z" />
    <glyph glyph-name="Oslash" unicode="&#xd8;" horiz-adv-x="1601" 
d="M801 1266q-243 0 -401 -170t-158 -418t141 -416l758 895q-147 109 -340 109zM801 82q243 0 401 170t158 425t-154 421l-762 -895q148 -121 357 -121zM797 -25q-242 0 -420 146l-170 -199l-74 64l174 200q-184 201 -184 492q1 290 195 492t487 202q227 0 403 -133l162 188
l74 -63l-164 -188q199 -203 199 -500q-1 -297 -195 -499t-487 -202z" />
    <glyph glyph-name="Ugrave" unicode="&#xd9;" horiz-adv-x="1470" 
d="M428 1705q0 39 23 61t53 22t76 -41l256 -236l-25 -38l-311 155q-72 37 -72 77zM731 -25q-229 0 -353 126t-124 352v792h-180v103h477v-103h-184v-782q0 -189 94 -285t272 -96t275 94q96 94 96 283v786h-184v103h477v-103h-180v-784q0 -229 -128 -358q-129 -128 -358 -128
z" />
    <glyph glyph-name="Uacute" unicode="&#xda;" horiz-adv-x="1470" 
d="M967 1788q31 0 53 -22t22 -62t-71 -76l-312 -155l-24 38l256 236q45 41 76 41zM731 -25q-229 0 -353 126t-124 352v792h-180v103h477v-103h-184v-782q0 -189 94 -285t272 -96t275 94q96 94 96 283v786h-184v103h477v-103h-180v-784q0 -229 -128 -358q-129 -128 -358 -128
z" />
    <glyph glyph-name="Ucircumflex" unicode="&#xdb;" horiz-adv-x="1470" 
d="M492 1460l-52 62l295 274l295 -274l-51 -62l-244 187zM731 -25q-229 0 -353 126t-124 352v792h-180v103h477v-103h-184v-782q0 -189 94 -285t272 -96t275 94q96 94 96 283v786h-184v103h477v-103h-180v-784q0 -229 -128 -358q-129 -128 -358 -128z" />
    <glyph glyph-name="Udieresis" unicode="&#xdc;" horiz-adv-x="1470" 
d="M571 1505q-43 0 -71 31t-29 74q0 44 29 74q30 30 72 30t71 -31t29 -73t-29 -74q-29 -31 -72 -31zM899 1505q-43 0 -72 31t-28 74q1 44 29 74t71 30t72 -31t29 -73t-30 -74q-28 -31 -71 -31zM731 -25q-229 0 -353 126t-124 352v792h-180v103h477v-103h-184v-782
q0 -189 94 -285t272 -96t275 94q96 94 96 283v786h-184v103h477v-103h-180v-784q0 -229 -128 -358q-129 -128 -358 -128z" />
    <glyph glyph-name="Yacute" unicode="&#xdd;" horiz-adv-x="1312" 
d="M887 1788q31 0 53 -22t23 -62q0 -40 -72 -76l-311 -155l-25 38l256 236q45 41 76 41zM397 0v102h199v449l-406 694h-147v103h428v-103h-147l333 -594l338 594h-153v103h428v-103h-150l-405 -692v-451h198v-102h-516z" />
    <glyph glyph-name="Thorn" unicode="&#xde;" horiz-adv-x="1218" 
d="M652 383q150 0 244 80q93 80 93 221t-98 219t-256 78t-232 -4v-590q99 -4 249 -4zM106 0v102h181v1143h-181v103h478v-99h-181v-170q66 4 224 4q211 -1 345 -109t134 -291t-128 -293t-347 -109q-137 0 -228 4v-187h191v-98h-488z" />
    <glyph glyph-name="germandbls" unicode="&#xdf;" horiz-adv-x="1089" 
d="M698 -16q-90 0 -147 41t-57 89t22 72t54 23q32 0 54 -22q22 -23 22 -53t-15 -44q25 -16 67 -16q94 0 156 56q61 56 61 153q0 137 -172 229q-113 62 -159 114t-47 152q0 100 108 207q108 106 109 240q0 82 -62 138t-145 56q-113 0 -168 -96q-33 -59 -33 -139v-1184h-248
v94h144v672h-156v94h156v311q0 125 55 213q86 131 262 132q127 0 213 -83t86 -208q0 -170 -131 -299q-53 -51 -71 -85t-17 -77q0 -43 35 -79t125 -87q219 -123 219 -315q0 -133 -92 -216t-228 -83z" />
    <glyph glyph-name="agrave" unicode="&#xe0;" horiz-adv-x="993" 
d="M174 1275q0 39 23 61t53 22t76 -41l256 -236l-25 -39l-311 156q-72 37 -72 77zM410 76q156 0 278 141v145q-133 44 -250 44t-175 -46t-58 -120q-1 -72 53 -118t152 -46zM389 -16q-129 0 -209 70t-80 182t92 185t234 73q66 0 146 -16t116 -34v144q0 76 -41 123
q-66 72 -196 71q-90 0 -156 -45q14 -29 14 -59q1 -30 -21 -52t-58 -22t-58 24t-20 58q0 76 86 133t242 57t245 -94q63 -66 63 -170v-518h144v-94h-240v117q-57 -57 -138 -95t-165 -38z" />
    <glyph glyph-name="aacute" unicode="&#xe1;" horiz-adv-x="993" 
d="M713 1358q31 0 53 -22t22 -62t-71 -76l-311 -156l-25 39l256 236q45 41 76 41zM410 76q156 0 278 141v145q-133 44 -250 44t-175 -46t-58 -120q-1 -72 53 -118t152 -46zM389 -16q-129 0 -209 70t-80 182t92 185t234 73q66 0 146 -16t116 -34v144q0 76 -41 123
q-66 72 -196 71q-90 0 -156 -45q14 -29 14 -59q1 -30 -21 -52t-58 -22t-58 24t-20 58q0 76 86 133t242 57t245 -94q63 -66 63 -170v-518h144v-94h-240v117q-57 -57 -138 -95t-165 -38z" />
    <glyph glyph-name="acircumflex" unicode="&#xe2;" horiz-adv-x="993" 
d="M238 1030l-52 62l295 274l295 -274l-51 -62l-244 187zM410 76q156 0 278 141v145q-133 44 -250 44t-175 -46t-58 -120q-1 -72 53 -118t152 -46zM389 -16q-129 0 -209 70t-80 182t92 185t234 73q66 0 146 -16t116 -34v144q0 76 -41 123q-66 72 -196 71q-90 0 -156 -45
q14 -29 14 -59q1 -30 -21 -52t-58 -22t-58 24t-20 58q0 76 86 133t242 57t245 -94q63 -66 63 -170v-518h144v-94h-240v117q-57 -57 -138 -95t-165 -38z" />
    <glyph glyph-name="atilde" unicode="&#xe3;" horiz-adv-x="993" 
d="M619 1044q-76 0 -173 80q-63 51 -96 52q-74 0 -88 -119l-92 18q2 87 54 149t128 62t172 -80q63 -51 97 -51q74 0 88 119l92 -19q-2 -87 -54 -149t-128 -62zM410 76q156 0 278 141v145q-133 44 -250 44t-175 -46t-58 -120q-1 -72 53 -118t152 -46zM389 -16q-129 0 -209 70
t-80 182t92 185t234 73q66 0 146 -16t116 -34v144q0 76 -41 123q-66 72 -196 71q-90 0 -156 -45q14 -29 14 -59q1 -30 -21 -52t-58 -22t-58 24t-20 58q0 76 86 133t242 57t245 -94q63 -66 63 -170v-518h144v-94h-240v117q-57 -57 -138 -95t-165 -38z" />
    <glyph glyph-name="adieresis" unicode="&#xe4;" horiz-adv-x="993" 
d="M317 1075q-43 0 -71 31t-29 74q0 44 29 74q30 30 72 30t71 -31t29 -73t-29 -74q-29 -31 -72 -31zM645 1075q-43 0 -72 31t-28 74q1 44 29 74t71 30t72 -31t29 -73t-30 -74q-28 -31 -71 -31zM410 76q156 0 278 141v145q-133 44 -250 44t-175 -46t-58 -120q-1 -72 53 -118
t152 -46zM389 -16q-129 0 -209 70t-80 182t92 185t234 73q66 0 146 -16t116 -34v144q0 76 -41 123q-66 72 -196 71q-90 0 -156 -45q14 -29 14 -59q1 -30 -21 -52t-58 -22t-58 24t-20 58q0 76 86 133t242 57t245 -94q63 -66 63 -170v-518h144v-94h-240v117q-57 -57 -138 -95
t-165 -38z" />
    <glyph glyph-name="aring" unicode="&#xe5;" horiz-adv-x="993" 
d="M481 1104q51 0 84 36t33 89t-33 89t-84 36t-84 -36t-33 -89t34 -89q32 -36 83 -36zM481 1020q-84 0 -143 61t-59 147t59 148t143 62q83 0 143 -62t60 -147q0 -86 -59 -148q-60 -61 -144 -61zM410 76q156 0 278 141v145q-133 44 -250 44t-175 -46t-58 -120q-1 -72 53 -118
t152 -46zM389 -16q-129 0 -209 70t-80 182t92 185t234 73q66 0 146 -16t116 -34v144q0 76 -41 123q-66 72 -196 71q-90 0 -156 -45q14 -29 14 -59q1 -30 -21 -52t-58 -22t-58 24t-20 58q0 76 86 133t242 57t245 -94q63 -66 63 -170v-518h144v-94h-240v117q-57 -57 -138 -95
t-165 -38z" />
    <glyph glyph-name="ae" unicode="&#xe6;" horiz-adv-x="1548" 
d="M1077 782q-123 0 -205 -78t-96 -206h580q-10 132 -83 208t-196 76zM410 76q156 0 315 139q-27 63 -37 145q-131 46 -249 46t-176 -46t-58 -120q-1 -72 53 -118t152 -46zM451 780q-92 0 -156 -43q14 -29 14 -59q1 -30 -21 -52t-58 -22t-58 24t-20 58q0 76 86 133t242 57
t241 -104q27 -39 37 -65q115 170 321 170q179 0 281 -119t102 -285q0 -39 -6 -67h-682q10 -164 102 -245t252 -81q82 0 146 22t151 74l-10 -106q-133 -86 -301 -86q-244 0 -356 168q-168 -168 -369 -168q-129 0 -209 70t-80 182t92 185t234 73q66 0 146 -16t116 -34v134
q0 76 -43 124q-63 78 -194 78z" />
    <glyph glyph-name="ccedilla" unicode="&#xe7;" horiz-adv-x="1024" 
d="M717 -255q-1 -65 -49 -109t-150 -44t-203 54l29 65q86 -39 177 -39t91 66t-102 65q-27 0 -45 -6l-35 25l45 168q-168 20 -274 143q-107 123 -107 299t126 310t300 135q134 0 234 -74t100 -170q0 -41 -28 -72t-62 -31t-58 20q-22 20 -22 61q0 42 49 67q-19 49 -81 77
t-132 27q-119 0 -217 -97t-98 -255t96 -254q97 -96 245 -96t290 96l-11 -106q-111 -82 -278 -86l-10 -86q88 -2 134 -45t46 -108z" />
    <glyph glyph-name="egrave" unicode="&#xe8;" horiz-adv-x="978" 
d="M182 1275q0 39 23 61t53 22t76 -41l256 -236l-25 -39l-311 156q-72 37 -72 77zM504 782q-123 0 -205 -78t-96 -206h579q-10 132 -82 208t-196 76zM555 80q82 0 145 22t152 74l-10 -106q-132 -86 -318 -86t-310 124t-124 314t114 322t297 132t285 -118q102 -119 103 -285
q0 -38 -6 -67h-682q12 -160 104 -243t250 -83z" />
    <glyph glyph-name="eacute" unicode="&#xe9;" horiz-adv-x="978" 
d="M721 1358q31 0 53 -22t23 -62q0 -40 -72 -76l-311 -156l-25 39l256 236q45 41 76 41zM504 782q-123 0 -205 -78t-96 -206h579q-10 132 -82 208t-196 76zM555 80q82 0 145 22t152 74l-10 -106q-132 -86 -318 -86t-310 124t-124 314t114 322t297 132t285 -118
q102 -119 103 -285q0 -38 -6 -67h-682q12 -160 104 -243t250 -83z" />
    <glyph glyph-name="ecircumflex" unicode="&#xea;" horiz-adv-x="978" 
d="M246 1030l-51 62l294 274l295 -274l-51 -62l-244 187zM504 782q-123 0 -205 -78t-96 -206h579q-10 132 -82 208t-196 76zM555 80q82 0 145 22t152 74l-10 -106q-132 -86 -318 -86t-310 124t-124 314t114 322t297 132t285 -118q102 -119 103 -285q0 -38 -6 -67h-682
q12 -160 104 -243t250 -83z" />
    <glyph glyph-name="edieresis" unicode="&#xeb;" horiz-adv-x="978" 
d="M326 1075q-43 0 -72 31t-29 74q0 44 29 74t72 30q44 0 72 -31t28 -73t-28 -74q-28 -31 -72 -31zM653 1075q-43 0 -71 31t-29 74q0 44 29 74q30 30 72 30t71 -31t29 -73t-29 -74q-29 -31 -72 -31zM504 782q-123 0 -205 -78t-96 -206h579q-10 132 -82 208t-196 76zM555 80
q82 0 145 22t152 74l-10 -106q-132 -86 -318 -86t-310 124t-124 314t114 322t297 132t285 -118q102 -119 103 -285q0 -38 -6 -67h-682q12 -160 104 -243t250 -83z" />
    <glyph glyph-name="igrave" unicode="&#xec;" horiz-adv-x="579" 
d="M64 1358q30 0 75 -41l256 -236l-24 -39l-312 156q-71 37 -71 77q0 39 22 61q24 22 54 22zM98 0v94h152v672h-152v94h256v-766h154v-94h-410z" />
    <glyph glyph-name="iacute" unicode="&#xed;" horiz-adv-x="579" 
d="M526 1358q30 0 54 -22q22 -22 22 -62t-72 -76l-311 -156l-24 39l256 236q45 41 75 41zM98 0v94h152v672h-152v94h256v-766h154v-94h-410z" />
    <glyph glyph-name="icircumflex" unicode="&#xee;" horiz-adv-x="579" 
d="M51 1030l-51 62l295 274l295 -274l-51 -62l-244 187zM98 0v94h152v672h-152v94h256v-766h154v-94h-410z" />
    <glyph glyph-name="idieresis" unicode="&#xef;" horiz-adv-x="579" 
d="M131 1075q-43 0 -72 31t-28 74q1 44 29 74t71 30t72 -31t29 -73t-30 -74q-28 -31 -71 -31zM459 1075q-43 0 -72 31t-29 74q0 44 29 74t72 30t71 -31t29 -73q-1 -42 -29 -74q-28 -31 -71 -31zM98 0v94h152v672h-152v94h256v-766h154v-94h-410z" />
    <glyph glyph-name="eth" unicode="&#xf0;" horiz-adv-x="1067" 
d="M209 408q0 -146 91 -238q90 -92 230 -92t235 100t95 242t-91 230q-91 89 -234 89t-235 -93t-91 -238zM214 1327q-34 0 -60 26q-26 25 -25 65q0 40 33 68q76 64 244 -16q121 -61 219 -155l202 182l62 -72l-199 -180q279 -319 279 -739q0 -270 -140 -410
q-113 -112 -300 -112t-309 122t-122 302t122 303t315 123q102 0 194 -52t137 -135q-23 281 -245 535l-259 -236l-61 74l254 229q-145 139 -258 160q0 -33 -24 -57q-25 -24 -59 -25z" />
    <glyph glyph-name="ntilde" unicode="&#xf1;" horiz-adv-x="1144" 
d="M725 1044q-76 0 -172 80q-63 51 -96 52q-74 0 -88 -119l-93 18q2 87 54 149t129 62q76 0 172 -80q63 -51 96 -51q74 0 88 119l92 -19q-2 -87 -54 -149t-128 -62zM836 569q0 209 -185 209q-168 0 -311 -176v-508h143v-94h-391v94h144v672h-144v94h244v-170q63 80 153 133
t179 54q272 0 272 -293v-490h143v-94h-391v94h144v475z" />
    <glyph glyph-name="ograve" unicode="&#xf2;" horiz-adv-x="1069" 
d="M227 1275q0 39 23 61q24 22 54 22t75 -41l256 -236l-25 -39l-311 156q-72 37 -72 77zM535 78q143 0 234 98t91 253t-91 254t-234 99t-235 -99t-91 -254q-1 -155 91 -253t235 -98zM535 -16q-193 0 -315 129t-122 317t122 318t315 129q193 0 315 -129q122 -130 121 -318
q1 -188 -121 -317t-315 -129z" />
    <glyph glyph-name="oacute" unicode="&#xf3;" horiz-adv-x="1069" 
d="M766 1358q32 0 54 -22t22 -62t-72 -76l-311 -156l-25 39l256 236q45 41 76 41zM535 78q143 0 234 98t91 253t-91 254t-234 99t-235 -99t-91 -254q-1 -155 91 -253t235 -98zM535 -16q-193 0 -315 129t-122 317t122 318t315 129q193 0 315 -129q122 -130 121 -318
q1 -188 -121 -317t-315 -129z" />
    <glyph glyph-name="ocircumflex" unicode="&#xf4;" horiz-adv-x="1069" 
d="M291 1030l-51 62l295 274l294 -274l-51 -62l-243 187zM535 78q143 0 234 98t91 253t-91 254t-234 99t-235 -99t-91 -254q-1 -155 91 -253t235 -98zM535 -16q-193 0 -315 129t-122 317t122 318t315 129q193 0 315 -129q122 -130 121 -318q1 -188 -121 -317t-315 -129z" />
    <glyph glyph-name="otilde" unicode="&#xf5;" horiz-adv-x="1069" 
d="M672 1044q-76 0 -172 80q-63 51 -97 52q-74 0 -88 -119l-92 18q3 87 55 149t128 62t172 -80q63 -51 96 -51q74 0 88 119l92 -19q-2 -87 -54 -149t-128 -62zM535 78q143 0 234 98t91 253t-91 254t-234 99t-235 -99t-91 -254q-1 -155 91 -253t235 -98zM535 -16
q-193 0 -315 129t-122 317t122 318t315 129q193 0 315 -129q122 -130 121 -318q1 -188 -121 -317t-315 -129z" />
    <glyph glyph-name="odieresis" unicode="&#xf6;" horiz-adv-x="1069" 
d="M371 1075q-43 0 -72 31t-29 74q0 44 29 74t72 30t71 -31t29 -73q-1 -42 -29 -74q-28 -31 -71 -31zM698 1075q-44 0 -72 31t-28 74q0 44 29 74t71 30t72 -31q29 -31 29 -73t-29 -74q-29 -31 -72 -31zM535 78q143 0 234 98t91 253t-91 254t-234 99t-235 -99t-91 -254
q-1 -155 91 -253t235 -98zM535 -16q-193 0 -315 129t-122 317t122 318t315 129q193 0 315 -129q122 -130 121 -318q1 -188 -121 -317t-315 -129z" />
    <glyph glyph-name="divide" unicode="&#xf7;" horiz-adv-x="806" 
d="M402 186q-34 0 -60 27t-25 61q0 34 26 62q25 26 59 26t60 -26t26 -62t-26 -62t-60 -26zM402 723q-34 0 -60 27q-26 28 -25 62q0 34 26 60q25 26 59 27q34 0 60 -27q26 -28 26 -62t-26 -60t-60 -27zM731 494h-655v98h655v-98z" />
    <glyph glyph-name="oslash" unicode="&#xf8;" horiz-adv-x="1069" 
d="M535 78q143 0 234 98t91 242t-72 241l-446 -522q87 -59 193 -59zM520 782q-128 0 -220 -99t-91 -245q0 -146 74 -243l446 524q-81 63 -209 63zM535 -16q-141 0 -252 82l-103 -121l-74 61l105 123q-113 125 -113 307t122 312t315 129q143 0 256 -84l100 118l74 -61
l-105 -123q111 -127 111 -306q1 -179 -121 -308t-315 -129z" />
    <glyph glyph-name="ugrave" unicode="&#xf9;" horiz-adv-x="1120" 
d="M320 1358q30 0 75 -41l256 -236l-24 -39l-312 156q-71 37 -71 77q0 39 22 61q24 22 54 22zM309 291q0 -209 185 -209q150 0 311 176v508h-143v94h247v-766h144v-94h-244v170q-63 -80 -153 -133t-179 -53q-272 0 -272 292v490h-144v94h248v-569z" />
    <glyph glyph-name="uacute" unicode="&#xfa;" horiz-adv-x="1120" 
d="M782 1358q30 0 54 -22q22 -22 22 -62t-72 -76l-311 -156l-24 39l256 236q45 41 75 41zM309 291q0 -209 185 -209q150 0 311 176v508h-143v94h247v-766h144v-94h-244v170q-63 -80 -153 -133t-179 -53q-272 0 -272 292v490h-144v94h248v-569z" />
    <glyph glyph-name="ucircumflex" unicode="&#xfb;" horiz-adv-x="1120" 
d="M307 1030l-51 62l295 274l295 -274l-51 -62l-244 187zM309 291q0 -209 185 -209q150 0 311 176v508h-143v94h247v-766h144v-94h-244v170q-63 -80 -153 -133t-179 -53q-272 0 -272 292v490h-144v94h248v-569z" />
    <glyph glyph-name="udieresis" unicode="&#xfc;" horiz-adv-x="1120" 
d="M387 1075q-43 0 -72 31t-28 74q1 44 29 74t71 30t72 -31t29 -73t-30 -74q-28 -31 -71 -31zM715 1075q-43 0 -72 31t-29 74q0 44 29 74t72 30t71 -31t29 -73q-1 -42 -29 -74q-28 -31 -71 -31zM309 291q0 -209 185 -209q150 0 311 176v508h-143v94h247v-766h144v-94h-244
v170q-63 -80 -153 -133t-179 -53q-272 0 -272 292v490h-144v94h248v-569z" />
    <glyph glyph-name="yacute" unicode="&#xfd;" horiz-adv-x="1032" 
d="M748 1358q32 0 54 -22t22 -62t-72 -76l-312 -156l-24 39l256 236q45 41 76 41zM61 -313q0 41 22 63q23 22 55 23q32 0 57 -25t32 -57q59 23 119 119q31 51 78 147l45 94l-332 715h-123v94h381v-94h-139q16 -39 44 -100q28 -62 86 -194t97 -218l37 -88l268 600h-145v94
h375v-94h-123l-410 -883q-136 -293 -290 -293q-53 0 -94 28q-40 28 -40 69z" />
    <glyph glyph-name="thorn" unicode="&#xfe;" horiz-adv-x="1071" 
d="M530 78q150 0 238 102t90 255t-86 250t-223 97q-164 0 -295 -145v-449q126 -110 276 -110zM6 -401v94h144v1712h-144v94h248v-762q133 139 304 139t291 -122t120 -314t-119 -324t-315 -132q-158 0 -281 100v-391h178v-94h-426z" />
    <glyph glyph-name="ydieresis" unicode="&#xff;" horiz-adv-x="1032" 
d="M680 1075q-43 0 -72 31t-28 74q0 44 28 74t72 30q43 0 72 -31q28 -31 28 -73t-28 -74q-28 -31 -72 -31zM352 1075q-44 0 -72 31t-28 74q0 44 29 74t71 30t72 -31q29 -31 29 -73t-29 -74q-29 -31 -72 -31zM61 -313q0 41 22 63q23 22 55 23q32 0 57 -25t32 -57
q59 23 119 119q31 51 78 147l45 94l-332 715h-123v94h381v-94h-139q16 -39 44 -100q28 -62 86 -194t97 -218l37 -88l268 600h-145v94h375v-94h-123l-410 -883q-136 -293 -290 -293q-53 0 -94 28q-40 28 -40 69z" />
    <glyph glyph-name="Amacron" unicode="&#x100;" horiz-adv-x="1454" 
d="M430 1536v106h594v-106h-594zM475 584h498l-248 671zM41 0v102h135l432 1143h-155v103h548v-103h-155l432 -1143h135v-102h-420v102h158l-141 381h-572l-141 -381h164v-102h-420z" />
    <glyph glyph-name="amacron" unicode="&#x101;" horiz-adv-x="993" 
d="M184 1106v106h594v-106h-594zM410 76q156 0 278 141v145q-133 44 -250 44t-175 -46t-58 -120q-1 -72 53 -118t152 -46zM389 -16q-129 0 -209 70t-80 182t92 185t234 73q66 0 146 -16t116 -34v144q0 76 -41 123q-66 72 -196 71q-90 0 -156 -45q14 -29 14 -59
q1 -30 -21 -52t-58 -22t-58 24t-20 58q0 76 86 133t242 57t245 -94q63 -66 63 -170v-518h144v-94h-240v117q-57 -57 -138 -95t-165 -38z" />
    <glyph glyph-name="Abreve" unicode="&#x102;" horiz-adv-x="1454" 
d="M727 1473q-104 1 -185 69t-118 174l82 39q29 -78 90 -122t133 -44t131 46t88 120l82 -39q-37 -106 -118 -174t-185 -69zM475 584h498l-248 671zM41 0v102h135l432 1143h-155v103h548v-103h-155l432 -1143h135v-102h-420v102h158l-141 381h-572l-141 -381h164v-102h-420z
" />
    <glyph glyph-name="abreve" unicode="&#x103;" horiz-adv-x="993" 
d="M481 1042q-104 0 -185 69t-118 175l82 39q29 -78 90 -122t133 -44t131 46t88 120l82 -39q-37 -106 -118 -175t-185 -69zM410 76q156 0 278 141v145q-133 44 -250 44t-175 -46t-58 -120q-1 -72 53 -118t152 -46zM389 -16q-129 0 -209 70t-80 182t92 185t234 73
q66 0 146 -16t116 -34v144q0 76 -41 123q-66 72 -196 71q-90 0 -156 -45q14 -29 14 -59q1 -30 -21 -52t-58 -22t-58 24t-20 58q0 76 86 133t242 57t245 -94q63 -66 63 -170v-518h144v-94h-240v117q-57 -57 -138 -95t-165 -38z" />
    <glyph glyph-name="Aogonek" unicode="&#x104;" horiz-adv-x="1454" 
d="M475 584h498l-248 671zM1215 -412q-103 0 -156 50t-53 133q0 135 143 229h-156v102h158l-141 381h-572l-141 -381h164v-102h-420v102h135l432 1143h-155v103h548v-103h-155l432 -1143h135v-102h-129q-176 -80 -176 -209q0 -111 117 -110q84 0 166 40l-7 -86
q-66 -47 -169 -47z" />
    <glyph glyph-name="aogonek" unicode="&#x105;" horiz-adv-x="993" 
d="M410 76q156 0 278 141v145q-133 44 -250 44t-175 -46t-58 -120q-1 -72 53 -118t152 -46zM755 -412q-103 0 -157 50t-53 133q0 139 147 231v115q-57 -57 -138 -95t-165 -38q-129 0 -209 70t-80 182t92 185t234 73q66 0 146 -16t116 -34v144q0 76 -41 123q-66 72 -196 71
q-90 0 -156 -45q14 -29 14 -59q1 -30 -21 -52t-58 -22t-58 24t-20 58q0 76 86 133t242 57t245 -94q63 -66 63 -170v-518h144v-94h-109q-176 -80 -176 -209q0 -111 117 -110q84 0 166 40l-6 -86q-66 -47 -169 -47z" />
    <glyph glyph-name="Cacute" unicode="&#x106;" horiz-adv-x="1437" 
d="M1040 1788q30 0 54 -22q22 -22 22 -62t-72 -76l-311 -155l-24 38l256 236q45 41 75 41zM802 -25q-296 0 -488 208q-191 208 -191 498q0 291 201 491t473 200q197 0 347 -105t148 -231q0 -49 -30 -83q-30 -33 -73 -33q-42 0 -69 26q-26 26 -26 63t20 61t47 30
q-33 61 -132 114t-232 54q-240 0 -398 -180q-157 -180 -157 -417q0 -236 160 -414q161 -177 400 -177t433 172l63 -84q-200 -193 -496 -193z" />
    <glyph glyph-name="cacute" unicode="&#x107;" horiz-adv-x="944" 
d="M742 1358q30 0 53 -22t23 -62t-73 -76l-311 -156l-24 39l256 236q46 41 76 41zM530 -16q-180 0 -308 128t-128 312t126 318t300 135q134 0 234 -74t100 -170q0 -41 -28 -72t-62 -31t-58 20q-22 20 -22 61q0 42 49 67q-19 49 -81 77t-132 27q-119 0 -217 -97t-98 -255
t96 -254q97 -96 245 -96t290 96l-11 -106q-115 -86 -295 -86z" />
    <glyph glyph-name="Cdotaccent" unicode="&#x10a;" horiz-adv-x="1437" 
d="M809 1501q-45 0 -75 32t-29 77q0 45 29 77q30 31 75 31t75 -32t30 -76q0 -45 -30 -77t-75 -32zM802 -25q-296 0 -488 208q-191 208 -191 498q0 291 201 491t473 200q197 0 347 -105t148 -231q0 -49 -30 -83q-30 -33 -73 -33q-42 0 -69 26q-26 26 -26 63t20 61t47 30
q-33 61 -132 114t-232 54q-240 0 -398 -180q-157 -180 -157 -417q0 -236 160 -414q161 -177 400 -177t433 172l63 -84q-200 -193 -496 -193z" />
    <glyph glyph-name="cdotaccent" unicode="&#x10b;" horiz-adv-x="944" 
d="M510 1071q-45 0 -75 32t-29 77q0 44 30 76t74 32q45 0 75 -32q29 -32 29 -76t-30 -77q-30 -32 -74 -32zM530 -16q-180 0 -308 128t-128 312t126 318t300 135q134 0 234 -74t100 -170q0 -41 -28 -72t-62 -31t-58 20q-22 20 -22 61q0 42 49 67q-19 49 -81 77t-132 27
q-119 0 -217 -97t-98 -255t96 -254q97 -96 245 -96t290 96l-11 -106q-115 -86 -295 -86z" />
    <glyph glyph-name="Ccaron" unicode="&#x10c;" horiz-adv-x="1437" 
d="M1053 1804l51 -61l-295 -275l-295 275l51 61l244 -186zM802 -25q-296 0 -488 208q-191 208 -191 498q0 291 201 491t473 200q197 0 347 -105t148 -231q0 -49 -30 -83q-30 -33 -73 -33q-42 0 -69 26q-26 26 -26 63t20 61t47 30q-33 61 -132 114t-232 54q-240 0 -398 -180
q-157 -180 -157 -417q0 -236 160 -414q161 -177 400 -177t433 172l63 -84q-200 -193 -496 -193z" />
    <glyph glyph-name="ccaron" unicode="&#x10d;" horiz-adv-x="944" 
d="M754 1374l51 -61l-295 -275l-295 275l51 61l244 -186zM530 -16q-180 0 -308 128t-128 312t126 318t300 135q134 0 234 -74t100 -170q0 -41 -28 -72t-62 -31t-58 20q-22 20 -22 61q0 42 49 67q-19 49 -81 77t-132 27q-119 0 -217 -97t-98 -255t96 -254q97 -96 245 -96
t290 96l-11 -106q-115 -86 -295 -86z" />
    <glyph glyph-name="Dcaron" unicode="&#x10e;" horiz-adv-x="1505" 
d="M950 1804l51 -61l-294 -275l-295 275l51 61l244 -186zM403 102h220q311 0 476 161t165 421t-178 411t-480 150h-203v-1143zM106 0v102h181v1143h-181v103h502q348 0 561 -182t213 -483q0 -302 -207 -493q-208 -190 -563 -190h-506z" />
    <glyph glyph-name="dcaron" unicode="&#x10f;" horiz-adv-x="1116" 
d="M1202 1419q0 -166 -170 -344l-37 29q70 100 70 203l-10 118q0 35 19 57t54 21q74 0 74 -84zM518 78q164 0 295 145v449q-125 110 -275 110t-239 -102q-88 -102 -90 -255t86 -250t223 -97zM515 -16q-177 0 -297 122t-120 314t119 324t299 132t297 -110v639h-178v94h283
v-1405h143v-94h-244v133q-125 -149 -302 -149z" />
    <glyph glyph-name="Dcroat" unicode="&#x110;" horiz-adv-x="1515" 
d="M414 102h219q311 0 476 161t165 421t-178 411t-480 150h-202v-504h317v-102h-317v-537zM297 639h-139v102h139v504h-180v103h501q348 0 562 -182t213 -483q0 -303 -208 -493t-562 -190h-506v102h180v537z" />
    <glyph glyph-name="dcroat" unicode="&#x111;" horiz-adv-x="1116" 
d="M518 78q164 0 295 145v449q-125 110 -275 110t-239 -102q-88 -102 -90 -255t86 -250t223 -97zM487 1087v97h326v221h-178v94h283v-315h143v-97h-143v-993h143v-94h-244v133q-125 -149 -302 -149t-297 122t-120 314t119 324t299 132t297 -110v321h-326z" />
    <glyph glyph-name="Emacron" unicode="&#x112;" horiz-adv-x="1214" 
d="M293 1536v106h594v-106h-594zM106 0v102h181v1143h-181v103h967v-306h-112v203h-558v-506h457v-102h-457v-535h558v203h112v-305h-967z" />
    <glyph glyph-name="emacron" unicode="&#x113;" horiz-adv-x="978" 
d="M193 1106v106h593v-106h-593zM504 782q-123 0 -205 -78t-96 -206h579q-10 132 -82 208t-196 76zM555 80q82 0 145 22t152 74l-10 -106q-132 -86 -318 -86t-310 124t-124 314t114 322t297 132t285 -118q102 -119 103 -285q0 -38 -6 -67h-682q12 -160 104 -243t250 -83z
" />
    <glyph glyph-name="Ebreve" unicode="&#x114;" horiz-adv-x="1214" 
d="M590 1473q-104 0 -186 68q-81 69 -117 175l82 39q29 -78 90 -122t133 -44t131 46t88 120l82 -39q-37 -106 -118 -174t-185 -69zM106 0v102h181v1143h-181v103h967v-306h-112v203h-558v-506h457v-102h-457v-535h558v203h112v-305h-967z" />
    <glyph glyph-name="ebreve" unicode="&#x115;" horiz-adv-x="978" 
d="M489 1042q-104 0 -185 69t-118 175l82 39q29 -78 90 -122t133 -44t132 46q59 46 88 120l82 -39q-37 -106 -119 -175t-185 -69zM504 782q-123 0 -205 -78t-96 -206h579q-10 132 -82 208t-196 76zM555 80q82 0 145 22t152 74l-10 -106q-132 -86 -318 -86t-310 124t-124 314
t114 322t297 132t285 -118q102 -119 103 -285q0 -38 -6 -67h-682q12 -160 104 -243t250 -83z" />
    <glyph glyph-name="Edotaccent" unicode="&#x116;" horiz-adv-x="1214" 
d="M590 1501q-45 0 -75 32t-30 77t30 77q30 31 75 31t75 -32q29 -32 29 -76q0 -45 -30 -77t-74 -32zM106 0v102h181v1143h-181v103h967v-306h-112v203h-558v-506h457v-102h-457v-535h558v203h112v-305h-967z" />
    <glyph glyph-name="edotaccent" unicode="&#x117;" horiz-adv-x="978" 
d="M489 1071q-45 0 -75 32t-29 77q0 44 30 76q31 32 75 32t74 -32t30 -76t-30 -77q-30 -32 -75 -32zM504 782q-123 0 -205 -78t-96 -206h579q-10 132 -82 208t-196 76zM555 80q82 0 145 22t152 74l-10 -106q-132 -86 -318 -86t-310 124t-124 314t114 322t297 132t285 -118
q102 -119 103 -285q0 -38 -6 -67h-682q12 -160 104 -243t250 -83z" />
    <glyph glyph-name="Eogonek" unicode="&#x118;" horiz-adv-x="1214" 
d="M106 0v102h181v1143h-181v103h967v-306h-112v203h-558v-506h457v-102h-457v-535h558v203h112v-305h-108q-176 -80 -177 -209q0 -111 117 -110q84 0 166 40l-6 -86q-66 -47 -169 -47q-102 0 -156 50t-54 133q0 135 143 229h-723z" />
    <glyph glyph-name="eogonek" unicode="&#x119;" horiz-adv-x="978" 
d="M504 782q-123 0 -205 -78t-96 -206h579q-10 132 -82 208t-196 76zM555 80q82 0 145 22t152 74l-10 -104q-8 -6 -75 -43t-89 -53q-100 -72 -117 -110q-18 -38 -18 -75q0 -111 116 -110q84 0 166 40l-6 -86q-66 -47 -169 -47t-156 50t-54 133q0 127 117 213h-16
q-203 0 -327 124t-124 314t114 322t297 132t285 -118q102 -119 103 -285q0 -38 -6 -67h-682q12 -160 104 -243t250 -83z" />
    <glyph glyph-name="Ecaron" unicode="&#x11a;" horiz-adv-x="1214" 
d="M834 1804l51 -61l-295 -275l-295 275l51 61l244 -186zM106 0v102h181v1143h-181v103h967v-306h-112v203h-558v-506h457v-102h-457v-535h558v203h112v-305h-967z" />
    <glyph glyph-name="ecaron" unicode="&#x11b;" horiz-adv-x="978" 
d="M733 1374l51 -61l-295 -275l-294 275l51 61l243 -186zM504 782q-123 0 -205 -78t-96 -206h579q-10 132 -82 208t-196 76zM555 80q82 0 145 22t152 74l-10 -106q-132 -86 -318 -86t-310 124t-124 314t114 322t297 132t285 -118q102 -119 103 -285q0 -38 -6 -67h-682
q12 -160 104 -243t250 -83z" />
    <glyph glyph-name="Gbreve" unicode="&#x11e;" horiz-adv-x="1519" 
d="M782 1473q-104 1 -185 69t-118 174l82 39q29 -78 90 -122t133 -44t131 46t89 120l81 -39q-37 -106 -117 -175q-82 -68 -186 -68zM782 -25q-174 0 -322 80t-243 239q-94 159 -94 365q0 313 206 513t488 200q211 0 354 -97t144 -208q0 -49 -28 -79q-29 -30 -69 -30t-67 27
t-27 72t45 73q-47 54 -143 96t-213 42q-252 0 -412 -176q-159 -176 -159 -432t158 -420q158 -162 388 -162t435 147v312h-389v100h503v-637h-110v123q-203 -148 -445 -148z" />
    <glyph glyph-name="gbreve" unicode="&#x11f;" horiz-adv-x="1136" 
d="M584 1042q-104 0 -186 69q-81 69 -117 175l81 39q28 -78 90 -122t134 -44t131 46t88 120l82 -39q-37 -106 -118 -175t-185 -69zM544 782q-152 0 -244 -102q-91 -102 -91 -246t89 -242t224 -98q168 0 299 146v432q-125 110 -277 110zM926 766v-807q0 -156 -78 -246
q-102 -123 -332 -123q-184 0 -270 86q-43 42 -43 90q-1 48 25 74t62 27q36 0 55 -22q19 -23 19 -55t-24 -66q50 -39 200 -39t226 90q55 70 55 174v188q-129 -137 -304 -137t-297 124t-122 305t121 314t303 133t303 -116v100h244v-94h-143z" />
    <glyph glyph-name="Gdotaccent" unicode="&#x120;" horiz-adv-x="1519" 
d="M782 1501q-44 0 -74 32t-30 77t30 77q30 31 74 31t75 -32q30 -32 30 -76q0 -45 -30 -77t-75 -32zM782 -25q-174 0 -322 80t-243 239q-94 159 -94 365q0 313 206 513t488 200q211 0 354 -97t144 -208q0 -49 -28 -79q-29 -30 -69 -30t-67 27t-27 72t45 73q-47 54 -143 96
t-213 42q-252 0 -412 -176q-159 -176 -159 -432t158 -420q158 -162 388 -162t435 147v312h-389v100h503v-637h-110v123q-203 -148 -445 -148z" />
    <glyph glyph-name="gdotaccent" unicode="&#x121;" horiz-adv-x="1136" 
d="M584 1071q-45 0 -75 32t-30 77q0 44 30 76t75 32q44 0 74 -32t30 -76t-30 -77q-30 -32 -74 -32zM544 782q-152 0 -244 -102q-91 -102 -91 -246t89 -242t224 -98q168 0 299 146v432q-125 110 -277 110zM926 766v-807q0 -156 -78 -246q-102 -123 -332 -123q-184 0 -270 86
q-43 42 -43 90q-1 48 25 74t62 27q36 0 55 -22q19 -23 19 -55t-24 -66q50 -39 200 -39t226 90q55 70 55 174v188q-129 -137 -304 -137t-297 124t-122 305t121 314t303 133t303 -116v100h244v-94h-143z" />
    <glyph glyph-name="Gcommaaccent" unicode="&#x122;" horiz-adv-x="1519" 
d="M694 -202q0 36 26 62t64 26t67 -32q28 -32 28 -99q1 -67 -55 -149t-175 -143l-22 37q145 109 149 207q-34 4 -58 30q-24 25 -24 61zM782 -25q-174 0 -322 80t-243 239q-94 159 -94 365q0 313 206 513t488 200q211 0 354 -97t144 -208q0 -49 -28 -79q-29 -30 -69 -30
t-67 27t-27 72t45 73q-47 54 -143 96t-213 42q-252 0 -412 -176q-159 -176 -159 -432t158 -420q158 -162 388 -162t435 147v312h-389v100h503v-637h-110v123q-203 -148 -445 -148z" />
    <glyph glyph-name="gcommaaccent" unicode="&#x123;" horiz-adv-x="1136" 
d="M692 1516l23 -37q-145 -109 -150 -207q35 -4 59 -30t24 -62t-26 -61t-65 -25t-67 32t-28 98t56 148q55 82 174 144zM544 782q-152 0 -244 -102q-91 -102 -91 -246t89 -242t224 -98q168 0 299 146v432q-125 110 -277 110zM926 766v-807q0 -156 -78 -246
q-102 -123 -332 -123q-184 0 -270 86q-43 42 -43 90q-1 48 25 74t62 27q36 0 55 -22q19 -23 19 -55t-24 -66q50 -39 200 -39t226 90q55 70 55 174v188q-129 -137 -304 -137t-297 124t-122 305t121 314t303 133t303 -116v100h244v-94h-143z" />
    <glyph glyph-name="Hbar" unicode="&#x126;" horiz-adv-x="1609" 
d="M403 745h803v213h-803v-213zM147 958v99h140v188h-181v103h478v-103h-181v-188h803v188h-180v103h477v-103h-180v-188h139v-99h-139v-856h180v-102h-477v102h180v539h-803v-539h181v-102h-478v102h181v856h-140z" />
    <glyph glyph-name="hbar" unicode="&#x127;" horiz-adv-x="1130" 
d="M821 569q0 209 -194 209q-168 0 -312 -176v-508h144v-94h-391v94h143v993h-143v97h143v221h-143v94h247v-315h326v-97h-326v-393q66 82 154 132t176 51q152 -1 216 -85t65 -208v-490h143v-94h-391v94h143v475z" />
    <glyph glyph-name="Imacron" unicode="&#x12a;" horiz-adv-x="714" 
d="M59 1536v106h594v-106h-594zM109 0v102h190v1143h-190v103h497v-103h-190v-1143h190v-102h-497z" />
    <glyph glyph-name="imacron" unicode="&#x12b;" horiz-adv-x="579" 
d="M-2 1106v106h594v-106h-594zM98 0v94h152v672h-152v94h256v-766h154v-94h-410z" />
    <glyph glyph-name="Ibreve" unicode="&#x12c;" horiz-adv-x="714" 
d="M356 1473q-104 1 -185 69t-118 174l82 39q29 -78 90 -122t133 -44t131 46t89 120l81 -39q-37 -106 -117 -175q-82 -68 -186 -68zM109 0v102h190v1143h-190v103h497v-103h-190v-1143h190v-102h-497z" />
    <glyph glyph-name="ibreve" unicode="&#x12d;" horiz-adv-x="579" 
d="M295 1042q-104 0 -185 69t-118 175l82 39q29 -78 90 -122t133 -44t131 46t88 120l82 -39q-37 -106 -118 -175t-185 -69zM98 0v94h152v672h-152v94h256v-766h154v-94h-410z" />
    <glyph glyph-name="Iogonek" unicode="&#x12e;" horiz-adv-x="714" 
d="M109 0v102h190v1143h-190v103h497v-103h-190v-1143h190v-102h-153q-176 -80 -177 -209q0 -111 117 -110q84 0 166 40l-6 -86q-66 -47 -169 -47q-102 0 -156 50t-54 133q0 135 143 229h-208z" />
    <glyph glyph-name="iogonek" unicode="&#x12f;" horiz-adv-x="579" 
d="M285 1122q-39 0 -68 29t-29 70t29 69t68 29q39 0 67 -29q28 -30 27 -70q1 -40 -27 -69t-67 -29zM98 0v94h152v672h-152v94h256v-766h154v-94h-133q-176 -80 -176 -209q0 -111 116 -110q84 0 166 40l-6 -86q-66 -47 -169 -47t-156 50t-54 133q0 135 144 229h-142z" />
    <glyph glyph-name="Idotaccent" unicode="&#x130;" horiz-adv-x="714" 
d="M356 1501q-44 0 -74 32t-30 77t30 77q30 31 74 31t75 -32q30 -32 30 -76q0 -45 -30 -77t-75 -32zM109 0v102h190v1143h-190v103h497v-103h-190v-1143h190v-102h-497z" />
    <glyph glyph-name="dotlessi" unicode="&#x131;" horiz-adv-x="579" 
d="M98 0v94h152v672h-152v94h256v-766h154v-94h-410z" />
    <glyph glyph-name="Kcommaaccent" unicode="&#x136;" horiz-adv-x="1376" 
d="M643 -202q0 36 26 62q27 26 65 26t66 -32t28 -99t-56 -149q-55 -82 -174 -143l-23 37q145 109 150 207q-35 4 -59 30q-24 25 -23 61zM106 0v102h181v1143h-181v103h478v-103h-181v-645l644 645h-193v103h487v-103h-153l-465 -467l467 -676h166v-102h-244l-473 702
l-236 -235v-365h181v-102h-478z" />
    <glyph glyph-name="kcommaaccent" unicode="&#x137;" horiz-adv-x="1046" 
d="M635 -245q0 -67 -55 -149t-174 -143l-23 37q145 109 149 207q-34 4 -58 30q-24 25 -24 61t26 62t65 26t67 -32t27 -99zM68 0v94h143v1311h-143v94h247v-1085l410 356h-190v90h477v-94h-150l-305 -262l289 -410h166v-94h-224l-307 449l-166 -142v-213h154v-94h-401z" />
    <glyph glyph-name="Lacute" unicode="&#x139;" horiz-adv-x="1140" 
d="M612 1819q30 0 54 -22q22 -21 22 -61t-72 -77l-311 -156l-24 39l256 236q45 41 75 41zM106 0v102h181v1143h-181v103h488v-103h-191v-1143h510v213h113v-315h-920z" />
    <glyph glyph-name="lacute" unicode="&#x13a;" horiz-adv-x="555" 
d="M551 1880q31 0 53 -22t23 -61q0 -40 -72 -77l-311 -155l-25 39l256 235q45 41 76 41zM74 0v94h151v1311h-151v94h256v-1405h153v-94h-409z" />
    <glyph glyph-name="Lcommaaccent" unicode="&#x13b;" horiz-adv-x="1140" 
d="M477 -202q0 36 26 62q27 26 65 26t66 -32t28 -99t-56 -149t-174 -143l-22 37q145 109 149 207q-35 4 -59 30q-24 25 -23 61zM106 0v102h181v1143h-181v103h488v-103h-191v-1143h510v213h113v-315h-920z" />
    <glyph glyph-name="lcommaaccent" unicode="&#x13c;" horiz-adv-x="555" 
d="M190 -202q0 36 26 62t64 26t67 -32q28 -32 28 -99q1 -67 -55 -149t-175 -143l-22 37q145 109 149 207q-34 4 -58 30q-24 25 -24 61zM74 0v94h151v1311h-151v94h256v-1405h153v-94h-409z" />
    <glyph glyph-name="Lcaron" unicode="&#x13d;" horiz-adv-x="1140" 
d="M791 1352q74 0 73 -84q0 -166 -170 -344l-37 28q70 100 70 203l-10 119q0 34 19 56t55 22zM106 0v102h181v1143h-181v103h488v-103h-191v-1143h510v213h113v-315h-920z" />
    <glyph glyph-name="lcaron" unicode="&#x13e;" horiz-adv-x="555" 
d="M475 1307l-10 118q0 35 19 57t55 21q74 0 73 -84q0 -166 -170 -344l-36 29q70 100 69 203zM74 0v94h151v1311h-151v94h256v-1405h153v-94h-409z" />
    <glyph glyph-name="Ldot" unicode="&#x13f;" horiz-adv-x="1140" 
d="M915 602q-45 0 -75 32t-29 77q0 45 30 77q31 32 75 31q44 0 74 -32q30 -33 30 -77t-30 -76t-75 -32zM106 0v102h181v1143h-181v103h488v-103h-191v-1143h510v213h113v-315h-920z" />
    <glyph glyph-name="ldot" unicode="&#x140;" horiz-adv-x="595" 
d="M575 582q-45 0 -75 32t-29 76q0 45 30 77q31 32 75 32t74 -32t30 -77q0 -44 -30 -76t-75 -32zM74 0v94h151v1311h-151v94h256v-1405h153v-94h-409z" />
    <glyph glyph-name="Lslash" unicode="&#x141;" horiz-adv-x="1159" 
d="M125 0v102h180v449l-168 -100l-51 86l219 129v579h-180v103h487v-103h-190v-510l317 191l52 -84l-369 -221v-519h510v213h112v-315h-919z" />
    <glyph glyph-name="lslash" unicode="&#x142;" horiz-adv-x="595" 
d="M94 0v94h152v658l-189 -113l-47 80l236 141v545h-152v94h256v-577l164 96l47 -78l-211 -127v-719h154v-94h-410z" />
    <glyph glyph-name="Nacute" unicode="&#x143;" horiz-adv-x="1583" 
d="M1020 1788q32 0 54 -22t22 -62t-72 -76l-311 -155l-25 38l256 236q45 41 76 41zM397 102h181v-102h-472v102h181v1143h-181v103h283l830 -1108v1005h-181v103h465v-103h-174v-1251h-65l-867 1155v-1047z" />
    <glyph glyph-name="nacute" unicode="&#x144;" horiz-adv-x="1144" 
d="M819 1358q31 0 53 -22t23 -62q0 -40 -72 -76l-311 -156l-25 39l256 236q45 41 76 41zM836 569q0 209 -185 209q-168 0 -311 -176v-508h143v-94h-391v94h144v672h-144v94h244v-170q63 80 153 133t179 54q272 0 272 -293v-490h143v-94h-391v94h144v475z" />
    <glyph glyph-name="Ncommaaccent" unicode="&#x145;" horiz-adv-x="1583" 
d="M700 -202q0 36 26 62t64 26t67 -32q28 -32 28 -99q1 -67 -55 -149t-175 -143l-22 37q145 109 149 207q-34 4 -58 30q-24 25 -24 61zM397 102h181v-102h-472v102h181v1143h-181v103h283l830 -1108v1005h-181v103h465v-103h-174v-1251h-65l-867 1155v-1047z" />
    <glyph glyph-name="ncommaaccent" unicode="&#x146;" horiz-adv-x="1144" 
d="M684 -245q0 -67 -55 -149t-174 -143l-23 37q145 109 150 207q-35 4 -59 30q-23 25 -23 61t25 62q26 26 65 26q38 0 66 -32t28 -99zM836 569q0 209 -185 209q-168 0 -311 -176v-508h143v-94h-391v94h144v672h-144v94h244v-170q63 80 153 133t179 54q272 0 272 -293v-490
h143v-94h-391v94h144v475z" />
    <glyph glyph-name="Ncaron" unicode="&#x147;" horiz-adv-x="1583" 
d="M1032 1804l51 -61l-295 -275l-294 275l51 61l243 -186zM397 102h181v-102h-472v102h181v1143h-181v103h283l830 -1108v1005h-181v103h465v-103h-174v-1251h-65l-867 1155v-1047z" />
    <glyph glyph-name="ncaron" unicode="&#x148;" horiz-adv-x="1144" 
d="M831 1374l52 -61l-295 -275l-295 275l51 61l244 -186zM836 569q0 209 -185 209q-168 0 -311 -176v-508h143v-94h-391v94h144v672h-144v94h244v-170q63 80 153 133t179 54q272 0 272 -293v-490h143v-94h-391v94h144v475z" />
    <glyph glyph-name="Omacron" unicode="&#x14c;" horiz-adv-x="1601" 
d="M504 1536v106h594v-106h-594zM801 82q243 0 401 170t158 421t-158 422t-402 171t-401 -170t-157 -421t158 -422t401 -171zM802 1372q290 0 484 -202t193 -496t-195 -497q-194 -202 -484 -202t-484 202t-194 497q0 294 196 496q194 202 484 202z" />
    <glyph glyph-name="omacron" unicode="&#x14d;" horiz-adv-x="1069" 
d="M238 1106v106h593v-106h-593zM535 78q143 0 234 98t91 253t-91 254t-234 99t-235 -99t-91 -254q-1 -155 91 -253t235 -98zM535 -16q-193 0 -315 129t-122 317t122 318t315 129q193 0 315 -129q122 -130 121 -318q1 -188 -121 -317t-315 -129z" />
    <glyph glyph-name="Obreve" unicode="&#x14e;" horiz-adv-x="1601" 
d="M801 1473q-104 0 -186 68q-81 69 -117 175l82 39q29 -78 90 -122t133 -44t131 46t88 120l82 -39q-37 -106 -118 -174t-185 -69zM801 82q243 0 401 170t158 421t-158 422t-402 171t-401 -170t-157 -421t158 -422t401 -171zM802 1372q290 0 484 -202t193 -496t-195 -497
q-194 -202 -484 -202t-484 202t-194 497q0 294 196 496q194 202 484 202z" />
    <glyph glyph-name="obreve" unicode="&#x14f;" horiz-adv-x="1069" 
d="M535 1042q-104 0 -186 69q-81 69 -118 175l82 39q29 -78 90 -122t133 -44t132 46q59 46 88 120l82 -39q-37 -106 -118 -175t-185 -69zM535 78q143 0 234 98t91 253t-91 254t-234 99t-235 -99t-91 -254q-1 -155 91 -253t235 -98zM535 -16q-193 0 -315 129t-122 317
t122 318t315 129q193 0 315 -129q122 -130 121 -318q1 -188 -121 -317t-315 -129z" />
    <glyph glyph-name="Ohungarumlaut" unicode="&#x150;" horiz-adv-x="1601" 
d="M1252 1780q30 0 48 -20t19 -52q0 -51 -78 -82l-319 -139l-21 41l275 217q46 35 76 35zM864 1792q31 0 51 -19q21 -19 21 -59t-72 -76l-309 -161l-25 39l258 235q45 41 76 41zM801 82q243 0 401 170t158 421t-158 422t-402 171t-401 -170t-157 -421t158 -422t401 -171z
M802 1372q290 0 484 -202t193 -496t-195 -497q-194 -202 -484 -202t-484 202t-194 497q0 294 196 496q194 202 484 202z" />
    <glyph glyph-name="ohungarumlaut" unicode="&#x151;" horiz-adv-x="1069" 
d="M985 1350q31 0 49 -20t19 -52q0 -51 -78 -82l-320 -139l-20 41l274 217q45 35 76 35zM598 1362q31 0 51 -20q21 -20 21 -58q0 -39 -72 -76l-309 -161l-25 38l258 236q45 41 76 41zM535 78q143 0 234 98t91 253t-91 254t-234 99t-235 -99t-91 -254q-1 -155 91 -253
t235 -98zM535 -16q-193 0 -315 129t-122 317t122 318t315 129q193 0 315 -129q122 -130 121 -318q1 -188 -121 -317t-315 -129z" />
    <glyph glyph-name="OE" unicode="&#x152;" horiz-adv-x="1906" 
d="M858 102h121v1143h-137q-285 0 -443 -162q-157 -162 -157 -420q0 -257 172 -409t444 -152zM856 0q-319 0 -526 182t-207 482t201 492t528 192h913v-306h-112v203h-557v-506h456v-102h-456v-535h557v203h112v-305h-909z" />
    <glyph glyph-name="oe" unicode="&#x153;" horiz-adv-x="1724" 
d="M1257 782q-123 0 -205 -78t-96 -206h580q-10 132 -83 208t-196 76zM535 78q143 0 234 98t91 253t-91 254t-234 99t-235 -99t-91 -254q-1 -155 91 -253t235 -98zM1309 80q82 0 145 22t152 74l-11 -106q-133 -86 -287 -86q-293 0 -403 231q-49 -107 -145 -169t-225 -62
q-193 0 -315 129t-122 317t122 318t315 129q131 1 227 -63t143 -171q47 105 137 169t218 65q178 0 280 -119t102 -285q0 -39 -6 -67h-682q12 -160 104 -243t251 -83z" />
    <glyph glyph-name="Racute" unicode="&#x154;" horiz-adv-x="1263" 
d="M868 1788q30 0 54 -22q22 -22 22 -62t-72 -76l-311 -155l-24 38l256 236q45 41 75 41zM584 668q170 0 278 76t107 216q1 138 -97 212t-266 73h-203v-573q99 -4 181 -4zM106 0v102h181v1143h-181v103h506q217 0 345 -106t128 -277q0 -137 -83 -233t-222 -138l316 -492h166
v-102h-246l-359 569q-49 -4 -106 -4t-148 4v-467h181v-102h-478z" />
    <glyph glyph-name="racute" unicode="&#x155;" horiz-adv-x="727" 
d="M631 1358q31 0 53 -22t23 -62q0 -40 -72 -76l-311 -156l-25 39l256 236q45 41 76 41zM588 877q59 0 90 -29t31 -67q0 -39 -25 -65q-24 -26 -58 -26t-59 20t-35 50q-49 -14 -103 -68t-89 -123v-475h168v-94h-416v94h144v672h-144v94h244v-194q47 90 120 150t132 61z" />
    <glyph glyph-name="Rcommaaccent" unicode="&#x156;" horiz-adv-x="1263" 
d="M504 -537l-23 37q145 109 150 207q-35 4 -59 30q-24 25 -24 61t26 62t65 26t67 -32t28 -99t-56 -149q-55 -82 -174 -143zM584 668q170 0 278 76t107 216q1 138 -97 212t-266 73h-203v-573q99 -4 181 -4zM106 0v102h181v1143h-181v103h506q217 0 345 -106t128 -277
q0 -137 -83 -233t-222 -138l316 -492h166v-102h-246l-359 569q-49 -4 -106 -4t-148 4v-467h181v-102h-478z" />
    <glyph glyph-name="rcommaaccent" unicode="&#x157;" horiz-adv-x="727" 
d="M377 -245q1 -67 -55 -149t-175 -143l-22 37q145 109 149 207q-34 4 -58 30q-24 25 -24 61t26 62t65 26t67 -32t27 -99zM588 877q59 0 90 -29t31 -67q0 -39 -25 -65q-24 -26 -58 -26t-59 20t-35 50q-49 -14 -103 -68t-89 -123v-475h168v-94h-416v94h144v672h-144v94h244
v-194q47 90 120 150t132 61z" />
    <glyph glyph-name="Rcaron" unicode="&#x158;" horiz-adv-x="1263" 
d="M881 1804l51 -61l-295 -275l-295 275l51 61l244 -186zM584 668q170 0 278 76t107 216q1 138 -97 212t-266 73h-203v-573q99 -4 181 -4zM106 0v102h181v1143h-181v103h506q217 0 345 -106t128 -277q0 -137 -83 -233t-222 -138l316 -492h166v-102h-246l-359 569
q-49 -4 -106 -4t-148 4v-467h181v-102h-478z" />
    <glyph glyph-name="rcaron" unicode="&#x159;" horiz-adv-x="727" 
d="M643 1374l51 -61l-295 -275l-295 275l52 61l243 -186zM588 877q59 0 90 -29t31 -67q0 -39 -25 -65q-24 -26 -58 -26t-59 20t-35 50q-49 -14 -103 -68t-89 -123v-475h168v-94h-416v94h144v672h-144v94h244v-194q47 90 120 150t132 61z" />
    <glyph glyph-name="Sacute" unicode="&#x15a;" horiz-adv-x="1120" 
d="M811 1788q31 0 53 -22t23 -62q0 -40 -72 -76l-311 -155l-25 38l256 236q45 41 76 41zM268 178q86 -96 316 -96q122 0 206 72q82 72 82 182t-74 172t-196 110t-184 78q-162 80 -211 187q-29 61 -29 143q0 154 110 250t278 96t282 -78t113 -178q0 -47 -27 -75
q-27 -27 -66 -27q-40 0 -66 26t-26 66q0 41 37 82q-27 36 -99 58t-139 22q-129 0 -205 -66t-77 -170q0 -104 77 -166q76 -62 204 -112q128 -52 186 -82t116 -74q112 -88 112 -252q-1 -164 -122 -266t-306 -103q-185 0 -309 84t-124 181q0 51 28 83q29 31 67 31t63 -24
t25 -67q0 -42 -42 -87z" />
    <glyph glyph-name="sacute" unicode="&#x15b;" horiz-adv-x="876" 
d="M670 1358q32 0 54 -22t22 -62t-72 -76l-312 -156l-24 39l256 236q45 41 76 41zM741 705q0 -45 -20 -67t-54 -22t-58 23q-23 23 -23 57t14 54q-52 36 -156 36t-161 -43t-57 -101t54 -87t147 -52t164 -45t111 -58q78 -70 78 -175t-97 -173t-239 -68q-205 0 -301 96
q-47 47 -47 93t22 71q22 24 56 24t56 -22t22 -52t-19 -61q19 -23 77 -41t146 -18t155 42t67 108t-55 100t-197 68t-223 84q-82 50 -82 156t88 175q89 70 247 70t242 -84q43 -44 43 -88z" />
    <glyph glyph-name="Scedilla" unicode="&#x15e;" horiz-adv-x="1120" 
d="M268 178q86 -96 316 -96q122 0 206 72q82 72 82 182t-74 172t-196 110t-184 78q-162 80 -211 187q-29 61 -29 143q0 154 110 250t278 96t282 -78t113 -178q0 -47 -27 -75q-27 -27 -66 -27q-40 0 -66 26t-26 66q0 41 37 82q-27 36 -99 58t-139 22q-129 0 -205 -66
t-77 -170q0 -104 77 -166q76 -62 204 -112q128 -52 186 -82t116 -74q112 -88 112 -250q-1 -162 -117 -264t-298 -107l-8 -79q88 -2 134 -45t46 -108t-48 -109q-47 -44 -149 -44t-204 54l29 65q86 -39 177 -39t91 66t-102 65q-27 0 -45 -6l-35 25l43 158q-164 14 -270 94
q-105 80 -105 168q0 51 28 83q29 31 67 31t63 -24t25 -67q0 -42 -42 -87z" />
    <glyph glyph-name="scedilla" unicode="&#x15f;" horiz-adv-x="876" 
d="M442 -408q-102 0 -204 54l28 65q86 -39 177 -39t92 64q0 68 -103 67q-27 0 -45 -6l-35 25l45 164q-176 14 -254 94q-47 47 -47 93t22 71q22 24 56 24t56 -22t22 -52t-19 -61q19 -23 77 -41t146 -18t155 42t67 108t-55 100t-197 68t-223 84q-82 50 -82 156t88 175
q89 70 247 70t242 -84q43 -43 43 -87t-20 -68q-20 -22 -54 -22t-58 23q-23 23 -23 57t14 54q-52 36 -156 36t-161 -43t-57 -101t54 -87t147 -52t164 -45t111 -58q78 -70 78 -173t-90 -169t-221 -72l-10 -88q88 -2 134 -45t46 -108t-48 -109q-47 -44 -149 -44z" />
    <glyph glyph-name="Scaron" unicode="&#x160;" horiz-adv-x="1120" 
d="M823 1804l51 -61l-294 -275l-295 275l51 61l244 -186zM268 178q86 -96 316 -96q122 0 206 72q82 72 82 182t-74 172t-196 110t-184 78q-162 80 -211 187q-29 61 -29 143q0 154 110 250t278 96t282 -78t113 -178q0 -47 -27 -75q-27 -27 -66 -27q-40 0 -66 26t-26 66
q0 41 37 82q-27 36 -99 58t-139 22q-129 0 -205 -66t-77 -170q0 -104 77 -166q76 -62 204 -112q128 -52 186 -82t116 -74q112 -88 112 -252q-1 -164 -122 -266t-306 -103q-185 0 -309 84t-124 181q0 51 28 83q29 31 67 31t63 -24t25 -67q0 -42 -42 -87z" />
    <glyph glyph-name="scaron" unicode="&#x161;" horiz-adv-x="876" 
d="M682 1374l51 -61l-295 -275l-295 275l52 61l243 -186zM741 705q0 -45 -20 -67t-54 -22t-58 23q-23 23 -23 57t14 54q-52 36 -156 36t-161 -43t-57 -101t54 -87t147 -52t164 -45t111 -58q78 -70 78 -175t-97 -173t-239 -68q-205 0 -301 96q-47 47 -47 93t22 71
q22 24 56 24t56 -22t22 -52t-19 -61q19 -23 77 -41t146 -18t155 42t67 108t-55 100t-197 68t-223 84q-82 50 -82 156t88 175q89 70 247 70t242 -84q43 -44 43 -88z" />
    <glyph glyph-name="Tcommaaccent" unicode="&#x162;" horiz-adv-x="1304" 
d="M563 -202q0 36 26 62q27 26 65 26t66 -32t28 -99t-56 -149t-174 -143l-22 37q145 109 149 207q-35 4 -59 30q-24 25 -23 61zM403 0v102h191v1147h-379v-217h-113v316h1100v-316h-112v217h-379v-1147h190v-102h-498z" />
    <glyph glyph-name="tcommaaccent" unicode="&#x163;" horiz-adv-x="649" 
d="M463 -245q1 -67 -55 -149t-175 -143l-22 37q145 109 149 207q-34 4 -58 30q-24 25 -24 61t26 62t65 26t67 -32t27 -99zM385 -16q-190 0 -190 204v578h-156v94h156v223l104 37v-260h266v-94h-266v-567q0 -43 12 -70q25 -45 100 -45t164 55l-16 -108q-90 -47 -174 -47z" />
    <glyph glyph-name="Tcaron" unicode="&#x164;" horiz-adv-x="1304" 
d="M895 1804l51 -61l-295 -275l-295 275l52 61l243 -186zM403 0v102h191v1147h-379v-217h-113v316h1100v-316h-112v217h-379v-1147h190v-102h-498z" />
    <glyph glyph-name="tcaron" unicode="&#x165;" horiz-adv-x="649" 
d="M528 1399q74 0 74 -84q0 -166 -170 -344l-37 28q70 100 70 203l-10 119q0 35 19 57t54 21zM385 -16q-190 0 -190 204v578h-156v94h156v223l104 37v-260h266v-94h-266v-567q0 -43 12 -70q25 -45 100 -45t164 55l-16 -108q-90 -47 -174 -47z" />
    <glyph glyph-name="Umacron" unicode="&#x16a;" horiz-adv-x="1470" 
d="M438 1536v106h594v-106h-594zM731 -25q-229 0 -353 126t-124 352v792h-180v103h477v-103h-184v-782q0 -189 94 -285t272 -96t275 94q96 94 96 283v786h-184v103h477v-103h-180v-784q0 -229 -128 -358q-129 -128 -358 -128z" />
    <glyph glyph-name="umacron" unicode="&#x16b;" horiz-adv-x="1120" 
d="M254 1106v106h594v-106h-594zM309 291q0 -209 185 -209q150 0 311 176v508h-143v94h247v-766h144v-94h-244v170q-63 -80 -153 -133t-179 -53q-272 0 -272 292v490h-144v94h248v-569z" />
    <glyph glyph-name="Ubreve" unicode="&#x16c;" horiz-adv-x="1470" 
d="M735 1473q-104 1 -185 69t-118 174l82 39q29 -78 90 -122t133 -44t131 46t88 120l82 -39q-37 -106 -117 -175q-82 -68 -186 -68zM731 -25q-229 0 -353 126t-124 352v792h-180v103h477v-103h-184v-782q0 -189 94 -285t272 -96t275 94q96 94 96 283v786h-184v103h477v-103
h-180v-784q0 -229 -128 -358q-129 -128 -358 -128z" />
    <glyph glyph-name="ubreve" unicode="&#x16d;" horiz-adv-x="1120" 
d="M551 1042q-104 0 -185 69t-118 175l82 39q29 -78 90 -122t133 -44t131 46t88 120l82 -39q-37 -106 -118 -175t-185 -69zM309 291q0 -209 185 -209q150 0 311 176v508h-143v94h247v-766h144v-94h-244v170q-63 -80 -153 -133t-179 -53q-272 0 -272 292v490h-144v94h248
v-569z" />
    <glyph glyph-name="Uring" unicode="&#x16e;" horiz-adv-x="1470" 
d="M735 1534q51 0 84 36t33 89t-33 89t-84 36t-84 -36t-33 -89t33 -89t84 -36zM735 1450q-84 0 -143 61q-60 61 -60 147t60 148t143 62t143 -62t60 -147q0 -86 -59 -148q-60 -61 -144 -61zM731 -25q-229 0 -353 126t-124 352v792h-180v103h477v-103h-184v-782
q0 -189 94 -285t272 -96t275 94q96 94 96 283v786h-184v103h477v-103h-180v-784q0 -229 -128 -358q-129 -128 -358 -128z" />
    <glyph glyph-name="uring" unicode="&#x16f;" horiz-adv-x="1120" 
d="M551 1104q51 0 84 36t33 89t-33 89t-84 36t-84 -36t-33 -89t33 -89t84 -36zM551 1020q-84 0 -143 61q-60 61 -60 147t60 148t143 62q84 0 143 -62q60 -62 60 -147t-60 -147t-143 -62zM309 291q0 -209 185 -209q150 0 311 176v508h-143v94h247v-766h144v-94h-244v170
q-63 -80 -153 -133t-179 -53q-272 0 -272 292v490h-144v94h248v-569z" />
    <glyph glyph-name="Uhungarumlaut" unicode="&#x170;" horiz-adv-x="1470" 
d="M1186 1780q31 0 49 -20t18 -52q0 -51 -77 -82l-320 -139l-20 41l274 217q45 35 76 35zM799 1792q31 0 51 -19t20 -59t-71 -76l-310 -161l-24 39l258 235q45 41 76 41zM731 -25q-229 0 -353 126t-124 352v792h-180v103h477v-103h-184v-782q0 -189 94 -285t272 -96t275 94
q96 94 96 283v786h-184v103h477v-103h-180v-784q0 -229 -128 -358q-129 -128 -358 -128z" />
    <glyph glyph-name="uhungarumlaut" unicode="&#x171;" horiz-adv-x="1120" 
d="M1002 1350q30 0 48 -20t19 -52q0 -51 -78 -82l-319 -139l-21 41l275 217q46 35 76 35zM614 1362q30 0 52 -20q20 -20 20 -58q0 -39 -72 -76l-309 -161l-24 38l258 236q45 41 75 41zM309 291q0 -209 185 -209q150 0 311 176v508h-143v94h247v-766h144v-94h-244v170
q-63 -80 -153 -133t-179 -53q-272 0 -272 292v490h-144v94h248v-569z" />
    <glyph glyph-name="Uogonek" unicode="&#x172;" horiz-adv-x="1470" 
d="M789 -412q-103 0 -156 50t-53 133q0 117 110 206q-212 11 -324 135t-112 341v792h-180v103h477v-103h-184v-782q0 -189 94 -285t272 -96t275 94q96 94 96 283v786h-184v103h477v-103h-180v-784q1 -207 -103 -332t-293 -147q-139 -78 -139 -190t117 -111q84 0 166 40
l-7 -86q-66 -47 -169 -47z" />
    <glyph glyph-name="uogonek" unicode="&#x173;" horiz-adv-x="1120" 
d="M309 291q0 -209 185 -209q150 0 311 176v508h-143v94h247v-766h144v-94h-113q-176 -80 -176 -209q0 -111 117 -110q84 0 166 40l-7 -86q-66 -47 -169 -47t-156 50t-53 133q0 139 147 231v168q-63 -80 -153 -133t-179 -53q-272 0 -272 292v490h-144v94h248v-569z" />
    <glyph glyph-name="Wcircumflex" unicode="&#x174;" horiz-adv-x="1996" 
d="M758 1460l-51 62l294 274l295 -274l-51 -62l-244 187zM41 1245v103h448v-103h-165l311 -1050l340 979h65l342 -977l308 1048h-172v103h446v-103h-162l-383 -1270h-69l-342 973l-346 -973h-70l-389 1270h-162z" />
    <glyph glyph-name="wcircumflex" unicode="&#x175;" horiz-adv-x="1396" 
d="M455 1030l-52 62l295 274l295 -274l-51 -62l-244 187zM16 766v94h377v-90h-143l174 -602l256 592h41l256 -590l174 600h-147v90h376v-94h-129l-245 -803h-41l-267 615l-266 -615h-41l-248 803h-127z" />
    <glyph glyph-name="Ycircumflex" unicode="&#x176;" horiz-adv-x="1312" 
d="M412 1460l-52 62l295 274l295 -274l-51 -62l-244 187zM397 0v102h199v449l-406 694h-147v103h428v-103h-147l333 -594l338 594h-153v103h428v-103h-150l-405 -692v-451h198v-102h-516z" />
    <glyph glyph-name="ycircumflex" unicode="&#x177;" horiz-adv-x="1032" 
d="M272 1030l-51 62l295 274l295 -274l-51 -62l-244 187zM61 -313q0 41 22 63q23 22 55 23q32 0 57 -25t32 -57q59 23 119 119q31 51 78 147l45 94l-332 715h-123v94h381v-94h-139q16 -39 44 -100q28 -62 86 -194t97 -218l37 -88l268 600h-145v94h375v-94h-123l-410 -883
q-136 -293 -290 -293q-53 0 -94 28q-40 28 -40 69z" />
    <glyph glyph-name="Ydieresis" unicode="&#x178;" horiz-adv-x="1312" 
d="M492 1505q-43 0 -72 31t-29 74q0 44 29 74t72 30q44 0 72 -31t28 -73t-28 -74q-28 -31 -72 -31zM819 1505q-43 0 -71 31t-29 74q0 44 29 74q30 30 72 30t71 -31t29 -73t-29 -74q-29 -31 -72 -31zM397 0v102h199v449l-406 694h-147v103h428v-103h-147l333 -594l338 594
h-153v103h428v-103h-150l-405 -692v-451h198v-102h-516z" />
    <glyph glyph-name="Zacute" unicode="&#x179;" horiz-adv-x="1222" 
d="M842 1788q32 0 54 -22t22 -62t-72 -76l-311 -155l-25 38l256 236q45 41 76 41zM92 0v49l854 1202h-696v-209h-113v306h979v-50l-854 -1202h756v209h112v-305h-1038z" />
    <glyph glyph-name="zacute" unicode="&#x17a;" horiz-adv-x="909" 
d="M686 1358q32 0 54 -22t22 -62t-72 -76l-311 -156l-25 39l256 236q45 41 76 41zM82 0v33l567 737h-434v-172h-96v262h702v-33l-567 -737h479v172h96v-262h-747z" />
    <glyph glyph-name="Zdotaccent" unicode="&#x17b;" horiz-adv-x="1222" 
d="M610 1501q-44 0 -74 32t-30 77t30 77q30 31 74 31t75 -32q30 -32 30 -76q0 -45 -30 -77t-75 -32zM92 0v49l854 1202h-696v-209h-113v306h979v-50l-854 -1202h756v209h112v-305h-1038z" />
    <glyph glyph-name="zdotaccent" unicode="&#x17c;" horiz-adv-x="909" 
d="M455 1071q-45 0 -75 32t-30 77q0 44 30 76t75 32t75 -32t29 -76q1 -44 -29 -77q-30 -32 -75 -32zM82 0v33l567 737h-434v-172h-96v262h702v-33l-567 -737h479v172h96v-262h-747z" />
    <glyph glyph-name="Zcaron" unicode="&#x17d;" horiz-adv-x="1222" 
d="M854 1804l51 -61l-295 -275l-295 275l52 61l243 -186zM92 0v49l854 1202h-696v-209h-113v306h979v-50l-854 -1202h756v209h112v-305h-1038z" />
    <glyph glyph-name="zcaron" unicode="&#x17e;" horiz-adv-x="909" 
d="M698 1374l52 -61l-295 -275l-295 275l51 61l244 -186zM82 0v33l567 737h-434v-172h-96v262h702v-33l-567 -737h479v172h96v-262h-747z" />
    <glyph glyph-name="Aringacute" unicode="&#x1fa;" horiz-adv-x="1454" 
d="M956 2093q30 1 54 -21q22 -22 22 -62t-71 -77l-312 -155l-24 39l256 235q45 41 75 41zM725 1360q51 0 84 36t33 89t-33 89t-84 36t-84 -36t-33 -89t33 -89t84 -36zM475 584h498l-248 671zM522 1492q0 83 60 142q60 60 143 60t143 -60t60 -144q0 -85 -68 -142h141v-103
h-155l432 -1143h135v-102h-420v102h158l-141 381h-572l-141 -381h164v-102h-420v102h135l432 1143h-155v103h135q-66 61 -66 144z" />
    <glyph glyph-name="aringacute" unicode="&#x1fb;" horiz-adv-x="993" 
d="M729 1858q31 0 53 -22t23 -62q0 -40 -72 -76l-311 -156l-25 39l256 236q45 41 76 41zM498 1104q51 0 84 36t32 89q0 53 -32 89q-33 36 -84 36t-84 -36t-33 -89t33 -89t84 -36zM498 1020q-84 0 -144 61q-59 61 -59 147t59 148q60 62 144 62t143 -62t59 -147t-59 -147
t-143 -62zM410 76q156 0 278 141v145q-133 44 -250 44t-175 -46t-58 -120q-1 -72 53 -118t152 -46zM389 -16q-129 0 -209 70t-80 182t92 185t234 73q66 0 146 -16t116 -34v144q0 76 -41 123q-66 72 -196 71q-90 0 -156 -45q14 -29 14 -59q1 -30 -21 -52t-58 -22t-58 24
t-20 58q0 76 86 133t242 57t245 -94q63 -66 63 -170v-518h144v-94h-240v117q-57 -57 -138 -95t-165 -38z" />
    <glyph glyph-name="AEacute" unicode="&#x1fc;" horiz-adv-x="1792" 
d="M1227 1788q31 0 53 -22t23 -62q0 -40 -72 -76l-311 -155l-25 38l256 236q45 41 76 41zM864 584v661h-37l-331 -661h368zM-16 0v102h157l572 1143h-140v103h1078v-306h-113v203h-557v-506h457v-102h-457v-535h557v203h113v-305h-946v102h159v381h-418l-190 -381h147v-102
h-419z" />
    <glyph glyph-name="aeacute" unicode="&#x1fd;" horiz-adv-x="1548" 
d="M1012 1358q32 0 54 -22t22 -62t-72 -76l-311 -156l-25 39l256 236q45 41 76 41zM1077 782q-123 0 -205 -78t-96 -206h580q-10 132 -83 208t-196 76zM410 76q156 0 315 139q-27 63 -37 145q-131 46 -249 46t-176 -46t-58 -120q-1 -72 53 -118t152 -46zM451 780
q-92 0 -156 -43q14 -29 14 -59q1 -30 -21 -52t-58 -22t-58 24t-20 58q0 76 86 133t242 57t241 -104q27 -39 37 -65q115 170 321 170q179 0 281 -119t102 -285q0 -39 -6 -67h-682q10 -164 102 -245t252 -81q82 0 146 22t151 74l-10 -106q-133 -86 -301 -86q-244 0 -356 168
q-168 -168 -369 -168q-129 0 -209 70t-80 182t92 185t234 73q66 0 146 -16t116 -34v134q0 76 -43 124q-63 78 -194 78z" />
    <glyph glyph-name="Oslashacute" unicode="&#x1fe;" horiz-adv-x="1601" 
d="M1032 1788q32 0 54 -22t22 -62t-72 -76l-311 -155l-25 38l256 236q45 41 76 41zM801 1266q-243 0 -401 -170t-158 -418t141 -416l758 895q-147 109 -340 109zM801 82q243 0 401 170t158 425t-154 421l-762 -895q148 -121 357 -121zM797 -25q-242 0 -420 146l-170 -199
l-74 64l174 200q-184 201 -184 492q1 290 195 492t487 202q227 0 403 -133l162 188l74 -63l-164 -188q199 -203 199 -500q-1 -297 -195 -499t-487 -202z" />
    <glyph glyph-name="oslashacute" unicode="&#x1ff;" horiz-adv-x="1069" 
d="M766 1358q32 0 54 -22t22 -62t-72 -76l-311 -156l-25 39l256 236q45 41 76 41zM535 78q143 0 234 98t91 242t-72 241l-446 -522q87 -59 193 -59zM520 782q-128 0 -220 -99t-91 -245q0 -146 74 -243l446 524q-81 63 -209 63zM535 -16q-141 0 -252 82l-103 -121l-74 61
l105 123q-113 125 -113 307t122 312t315 129q143 0 256 -84l100 118l74 -61l-105 -123q111 -127 111 -306q1 -179 -121 -308t-315 -129z" />
    <glyph glyph-name="Scommaaccent" unicode="&#x218;" horiz-adv-x="1120" 
d="M676 -245q0 -67 -56 -149t-174 -143l-22 37q145 109 149 207q-35 4 -59 30q-24 25 -22 61q0 36 25 62q26 26 65 26q38 0 66 -32t28 -99zM268 178q86 -96 316 -96q122 0 206 72q82 72 82 182t-74 172t-196 110t-184 78q-162 80 -211 187q-29 61 -29 143q0 154 110 250
t278 96t282 -78t113 -178q0 -47 -27 -75q-27 -27 -66 -27q-40 0 -66 26t-26 66q0 41 37 82q-27 36 -99 58t-139 22q-129 0 -205 -66t-77 -170q0 -104 77 -166q76 -62 204 -112q128 -52 186 -82t116 -74q112 -88 112 -252q-1 -164 -122 -266t-306 -103q-185 0 -309 84
t-124 181q0 51 28 83q29 31 67 31t63 -24t25 -67q0 -42 -42 -87z" />
    <glyph glyph-name="scommaaccent" unicode="&#x219;" horiz-adv-x="876" 
d="M350 -202q0 36 26 62t64 26t67 -32q28 -32 28 -99q1 -67 -55 -149t-175 -143l-22 37q145 109 149 207q-34 4 -58 30q-24 25 -24 61zM741 705q0 -45 -20 -67t-54 -22t-58 23q-23 23 -23 57t14 54q-52 36 -156 36t-161 -43t-57 -101t54 -87t147 -52t164 -45t111 -58
q78 -70 78 -175t-97 -173t-239 -68q-205 0 -301 96q-47 47 -47 93t22 71q22 24 56 24t56 -22t22 -52t-19 -61q19 -23 77 -41t146 -18t155 42t67 108t-55 100t-197 68t-223 84q-82 50 -82 156t88 175q89 70 247 70t242 -84q43 -44 43 -88z" />
    <glyph glyph-name="schwa" unicode="&#x259;" horiz-adv-x="978" 
d="M474 78q122 0 204 78t96 206h-577q11 -132 83 -208t194 -76zM478 -16q-183 0 -285 118t-103 285q0 39 6 68h680q-10 161 -103 243t-249 82q-82 0 -145 -22t-152 -74l10 107q133 86 319 86t309 -124q124 -125 124 -315t-114 -322t-297 -132z" />
    <glyph glyph-name="circumflex" unicode="&#x2c6;" horiz-adv-x="1024" 
d="M268 1030l-51 62l295 274l295 -274l-51 -62l-244 187z" />
    <glyph glyph-name="caron" unicode="&#x2c7;" horiz-adv-x="1024" 
d="M756 1374l51 -61l-295 -275l-295 275l51 61l244 -186z" />
    <glyph glyph-name="breve" unicode="&#x2d8;" horiz-adv-x="1024" 
d="M512 1042q-104 0 -185 69t-118 175l82 39q29 -78 90 -122t133 -44t131 46t88 120l82 -39q-37 -106 -118 -175t-185 -69z" />
    <glyph glyph-name="dotaccent" unicode="&#x2d9;" horiz-adv-x="1024" 
d="M512 1071q-45 0 -75 32t-29 77q0 44 30 76t74 32q45 0 75 -32q29 -32 29 -76t-30 -77q-30 -32 -74 -32z" />
    <glyph glyph-name="ring" unicode="&#x2da;" horiz-adv-x="1024" 
d="M512 1104q51 0 84 36t33 89t-33 89t-84 36t-84 -36t-33 -89t33 -89t84 -36zM512 1020q-84 0 -143 61t-59 147t58 148q60 62 144 62t143 -62t59 -147t-58 -147q-60 -62 -144 -62z" />
    <glyph glyph-name="ogonek" unicode="&#x2db;" horiz-adv-x="1036" 
d="M521 -412q-103 0 -156 50t-53 139q0 90 78 169q79 79 192 113l98 -28q-117 -31 -192 -96t-74 -144q0 -111 116 -110q84 0 166 40l-6 -86q-66 -47 -169 -47z" />
    <glyph glyph-name="tilde" unicode="&#x2dc;" horiz-adv-x="1024" 
d="M645 1044q-76 0 -172 80q-63 51 -96 52q-74 0 -88 -119l-92 18q2 87 54 149t128 62t172 -80q63 -51 96 -51q74 0 88 119l92 -19q-2 -87 -54 -149t-128 -62z" />
    <glyph glyph-name="hungarumlaut" unicode="&#x2dd;" horiz-adv-x="1024" 
d="M819 1350q31 0 49 -20t19 -52q0 -51 -78 -82l-320 -139l-20 41l274 217q45 35 76 35zM432 1362q31 0 51 -20q21 -20 21 -58q0 -39 -72 -76l-309 -161l-25 38l258 236q45 41 76 41z" />
    <glyph glyph-name="commaaccent" unicode="&#x326;" horiz-adv-x="471" 
d="M180 -202q0 36 26 62t64 26t67 -32q28 -32 28 -99q1 -67 -55 -149t-175 -143l-22 37q145 109 149 207q-34 4 -58 30q-24 25 -24 61z" />
    <glyph glyph-name="Wgrave" unicode="&#x1e80;" horiz-adv-x="1996" 
d="M694 1705q0 39 23 61t53 22t76 -41l256 -236l-25 -38l-311 155q-72 37 -72 77zM41 1245v103h448v-103h-165l311 -1050l340 979h65l342 -977l308 1048h-172v103h446v-103h-162l-383 -1270h-69l-342 973l-346 -973h-70l-389 1270h-162z" />
    <glyph glyph-name="wgrave" unicode="&#x1e81;" horiz-adv-x="1396" 
d="M391 1275q0 39 23 61q24 22 54 22t75 -41l256 -236l-25 -39l-311 156q-72 37 -72 77zM16 766v94h377v-90h-143l174 -602l256 592h41l256 -590l174 600h-147v90h376v-94h-129l-245 -803h-41l-267 615l-266 -615h-41l-248 803h-127z" />
    <glyph glyph-name="Wacute" unicode="&#x1e82;" horiz-adv-x="1996" 
d="M1233 1788q31 0 53 -22t23 -62q0 -40 -72 -76l-311 -155l-25 38l256 236q45 41 76 41zM41 1245v103h448v-103h-165l311 -1050l340 979h65l342 -977l308 1048h-172v103h446v-103h-162l-383 -1270h-69l-342 973l-346 -973h-70l-389 1270h-162z" />
    <glyph glyph-name="wacute" unicode="&#x1e83;" horiz-adv-x="1396" 
d="M930 1358q32 0 54 -22t22 -62t-72 -76l-311 -156l-25 39l256 236q45 41 76 41zM16 766v94h377v-90h-143l174 -602l256 592h41l256 -590l174 600h-147v90h376v-94h-129l-245 -803h-41l-267 615l-266 -615h-41l-248 803h-127z" />
    <glyph glyph-name="Wdieresis" unicode="&#x1e84;" horiz-adv-x="1996" 
d="M838 1505q-43 0 -72 31t-29 74q0 44 29 74t72 30q44 0 72 -31t28 -73t-28 -74q-28 -31 -72 -31zM1165 1505q-43 0 -71 31t-29 74q0 44 29 74q30 30 72 30t71 -31t29 -73t-29 -74q-29 -31 -72 -31zM41 1245v103h448v-103h-165l311 -1050l340 979h65l342 -977l308 1048
h-172v103h446v-103h-162l-383 -1270h-69l-342 973l-346 -973h-70l-389 1270h-162z" />
    <glyph glyph-name="wdieresis" unicode="&#x1e85;" horiz-adv-x="1396" 
d="M535 1075q-43 0 -72 31t-29 74q0 44 29 74t72 30t71 -31t29 -73q-1 -42 -29 -74q-28 -31 -71 -31zM862 1075q-44 0 -72 31t-28 74q0 44 29 74t71 30t72 -31q29 -31 29 -73t-29 -74q-29 -31 -72 -31zM16 766v94h377v-90h-143l174 -602l256 592h41l256 -590l174 600h-147
v90h376v-94h-129l-245 -803h-41l-267 615l-266 -615h-41l-248 803h-127z" />
    <glyph glyph-name="Ygrave" unicode="&#x1ef2;" horiz-adv-x="1312" 
d="M348 1705q0 39 23 61t53 22t76 -41l256 -236l-25 -38l-311 155q-72 37 -72 77zM397 0v102h199v449l-406 694h-147v103h428v-103h-147l333 -594l338 594h-153v103h428v-103h-150l-405 -692v-451h198v-102h-516z" />
    <glyph glyph-name="ygrave" unicode="&#x1ef3;" horiz-adv-x="1032" 
d="M209 1275q1 39 23 61t53 22t75 -41l256 -236l-24 -39l-311 156q-72 37 -72 77zM61 -313q0 41 22 63q23 22 55 23q32 0 57 -25t32 -57q59 23 119 119q31 51 78 147l45 94l-332 715h-123v94h381v-94h-139q16 -39 44 -100q28 -62 86 -194t97 -218l37 -88l268 600h-145v94
h375v-94h-123l-410 -883q-136 -293 -290 -293q-53 0 -94 28q-40 28 -40 69z" />
    <glyph glyph-name="enspace" unicode="&#x2002;" horiz-adv-x="1024" 
 />
    <glyph glyph-name="emspace" unicode="&#x2003;" horiz-adv-x="2048" 
 />
    <glyph glyph-name="threeperemspace" unicode="&#x2004;" horiz-adv-x="681" 
 />
    <glyph glyph-name="fourperemspace" unicode="&#x2005;" horiz-adv-x="512" 
 />
    <glyph glyph-name="figurespace" unicode="&#x2007;" horiz-adv-x="1085" 
 />
    <glyph glyph-name="thinspace" unicode="&#x2009;" horiz-adv-x="272" 
 />
    <glyph glyph-name="hairspace" unicode="&#x200a;" horiz-adv-x="153" 
 />
    <glyph glyph-name="endash" unicode="&#x2013;" horiz-adv-x="868" 
d="M45 512v106h778v-106h-778z" />
    <glyph glyph-name="emdash" unicode="&#x2014;" horiz-adv-x="1452" 
d="M45 512v106h1362v-106h-1362z" />
    <glyph glyph-name="quoteleft" unicode="&#x2018;" horiz-adv-x="391" 
d="M293 992q0 -42 -33 -74t-80 -31q-47 0 -82 39q-35 40 -35 122t70 192t207 179l27 -43q-91 -63 -133 -139t-44 -133q39 -4 71 -37t32 -75z" />
    <glyph glyph-name="quoteright" unicode="&#x2019;" horiz-adv-x="391" 
d="M98 1285q0 42 33 74t80 32t82 -39t35 -122q0 -82 -70 -192t-207 -180l-26 43q92 63 133 139t43 134q-39 4 -71 36t-32 75z" />
    <glyph glyph-name="quotesinglbase" unicode="&#x201a;" horiz-adv-x="376" 
d="M78 104q0 40 31 69q31 30 75 30t78 -37q33 -37 33 -115q1 -78 -65 -173t-205 -167l-27 43q172 125 176 242q-36 4 -66 36t-30 72z" />
    <glyph glyph-name="quotedblleft" unicode="&#x201c;" horiz-adv-x="749" 
d="M293 992q0 -42 -33 -74t-80 -31q-47 0 -82 39q-35 40 -35 122t70 192t207 179l27 -43q-91 -63 -133 -139t-44 -133q39 -4 71 -37t32 -75zM539 887q-47 0 -82 39q-35 40 -35 122t70 192t206 179l27 -43q-92 -63 -133 -139t-43 -133q39 -4 71 -37t32 -75t-34 -74
q-32 -32 -79 -31z" />
    <glyph glyph-name="quotedblright" unicode="&#x201d;" horiz-adv-x="749" 
d="M98 1285q0 42 33 74t80 32t82 -39t35 -122q0 -82 -70 -192t-207 -180l-26 43q92 63 133 139t43 134q-39 4 -71 36t-32 75zM569 1391q47 0 82 -39t35 -122q0 -82 -70 -192t-206 -180l-27 43q92 63 133 139t43 134q-39 4 -71 36t-32 75q0 42 33 74t80 32z" />
    <glyph glyph-name="quotedblbase" unicode="&#x201e;" horiz-adv-x="737" 
d="M78 104q0 40 31 69q31 30 75 30t78 -37q33 -37 33 -115q1 -78 -65 -173t-205 -167l-27 43q172 125 176 242q-36 4 -66 36t-30 72zM438 104q0 40 31 69q31 30 76 30t78 -37t33 -115t-66 -173t-205 -167l-27 43q172 125 177 242q-37 4 -67 36t-30 72z" />
    <glyph glyph-name="dagger" unicode="&#x2020;" horiz-adv-x="909" 
d="M454 1305q44 0 63 -35t11 -92l-47 -320l211 45q41 8 78 8q37 -1 69 -31q31 -30 31 -71t-24 -69t-64 -28t-68 34t-24 85l-184 -24l-21 -811h-61l-21 811l-184 24q5 -51 -23 -85t-69 -34t-65 28t-24 69t33 72t69 31t77 -9l211 -45l-47 320q-8 57 11 92q18 35 62 35z" />
    <glyph glyph-name="daggerdbl" unicode="&#x2021;" horiz-adv-x="909" 
d="M455 -250q-43 0 -63 35q-19 35 -11 92l41 256l-174 -39q-41 -8 -77 -8t-71 30q-34 30 -34 68t25 67q26 28 67 28q40 0 68 -32t24 -81l149 20l31 340l-31 342l-149 21q4 -49 -24 -81t-68 -32t-67 28q-25 28 -25 66t34 69q34 30 70 30t78 -8l174 -39l-41 256q-8 57 11 92
q18 35 62 35t64 -35t10 -92l-41 -256l175 39q40 8 76 8t71 -30t35 -69q0 -38 -26 -66t-66 -28t-69 32q-28 32 -24 81l-149 -21l-31 -342l31 -340l149 -20q-4 49 24 81t69 32q40 0 66 -28t26 -67q0 -38 -35 -68t-71 -30t-76 8l-175 39l41 -256q10 -57 -10 -92t-63 -35z" />
    <glyph glyph-name="bullet" unicode="&#x2022;" horiz-adv-x="540" 
d="M270 373q-74 0 -122 51t-48 125t48 126t122 52t122 -52t48 -126t-48 -125t-122 -51z" />
    <glyph glyph-name="ellipsis" unicode="&#x2026;" horiz-adv-x="1212" 
d="M209 -16q-45 0 -76 32t-31 78q0 47 31 79t76 32t76 -32t31 -79t-31 -79q-31 -31 -76 -31zM606 -16q-45 0 -76 32t-30 78q0 47 30 79q31 32 76 32t76 -32t31 -79q0 -46 -31 -78t-76 -32zM1004 -16q-45 0 -76 32t-31 78q0 47 31 79t76 32q46 0 76 -32t30 -79q0 -46 -30 -78
t-76 -32z" />
    <glyph glyph-name="perthousand" unicode="&#x2030;" horiz-adv-x="1820" 
d="M934 68q61 0 103 46t42 112t-42 111q-42 46 -103 46q-62 0 -104 -46t-42 -112q0 -65 42 -111t104 -46zM340 645q61 0 103 46t42 112q0 65 -42 111t-103 46t-103 -46t-42 -112t42 -111q42 -46 103 -46zM1481 68q61 0 103 46t42 112t-42 111q-42 46 -103 46t-103 -46
t-43 -112q1 -65 43 -111t103 -46zM266 -51l-67 53l395 516q362 471 395 518l70 -51zM1481 -16q-98 0 -167 70t-69 171q0 100 69 171t167 71t167 -71q68 -71 68 -171t-68 -171q-69 -70 -167 -70zM934 -16q-98 0 -167 70t-69 171q0 100 69 171t167 71t167 -71t69 -171
t-69 -171q-69 -70 -167 -70zM340 561q-98 0 -167 71t-69 171t69 171q69 70 167 70t167 -70t69 -171q0 -100 -70 -171q-68 -71 -166 -71z" />
    <glyph glyph-name="guilsinglleft" unicode="&#x2039;" horiz-adv-x="573" 
d="M395 233l-327 324l327 324l68 -64l-256 -260l256 -260z" />
    <glyph glyph-name="guilsinglright" unicode="&#x203a;" horiz-adv-x="573" 
d="M178 233l-67 64l256 260l-256 260l67 64l328 -324z" />
    <glyph glyph-name="fraction" unicode="&#x2044;" horiz-adv-x="1024" 
d="M147 -25l-67 41l797 1311l67 -41z" />
    <glyph glyph-name="zero.sup" unicode="&#x2070;" horiz-adv-x="722" 
d="M360 950q84 0 137 83q52 83 52 217t-52 218q-51 84 -135 84t-136 -83t-52 -217t51 -218t135 -84zM641 1252q0 -172 -78 -278t-202 -106q-123 0 -201 106t-78 277t78 277t202 106t201 -105q78 -105 78 -277z" />
    <glyph glyph-name="four.sup" unicode="&#x2074;" horiz-adv-x="722" 
d="M297 883v75h137v142h-346l-18 39l389 506l65 -52l-327 -419h237v153l84 35v-188h123v-74h-123v-142h98v-75h-319z" />
    <glyph glyph-name="five.sup" unicode="&#x2075;" horiz-adv-x="722" 
d="M344 868q-110 0 -177 41t-67 97q0 29 18 48t48 19q29 0 45 -17t16 -41t-12 -36q35 -31 122 -31t137 48t50 120t-48 115t-135 43t-165 -39l-41 20l37 369h395v-86h-319l-21 -203q59 18 121 19q119 0 193 -62q73 -62 73 -174q0 -110 -80 -180t-190 -70z" />
    <glyph glyph-name="six.sup" unicode="&#x2076;" horiz-adv-x="722" 
d="M199 1108q0 -66 47 -113t125 -47t125 45t47 114t-45 112t-122 43t-127 -44t-50 -110zM592 1513q0 -37 -18 -54t-44 -17q-61 0 -61 57q0 20 10 35q-23 27 -78 27q-94 1 -155 -91t-64 -239q10 18 33 41q69 68 175 68t174 -66t69 -167q0 -101 -72 -170q-73 -69 -189 -69
t-196 80t-80 274t89 306q89 111 218 110q96 0 154 -53q35 -35 35 -72z" />
    <glyph glyph-name="seven.sup" unicode="&#x2077;" horiz-adv-x="722" 
d="M205 1548v-125h-82v201h489l19 -39l-318 -702h-94l305 665h-319z" />
    <glyph glyph-name="eight.sup" unicode="&#x2078;" horiz-adv-x="722" 
d="M362 950q74 0 122 39t48 97t-50 100t-121 43q-71 0 -119 -42q-48 -43 -49 -101t47 -97t122 -39zM207 1431q1 -54 45 -91t108 -37t111 36q45 37 45 91t-44 91q-44 35 -111 35t-111 -36t-43 -89zM270 1268q-153 48 -153 189q0 71 70 124q71 53 175 53t176 -53t70 -137
q0 -58 -41 -106t-114 -70q75 -18 123 -74t48 -131q0 -77 -73 -135q-74 -58 -189 -58q-116 0 -190 58t-74 135q0 76 49 131t123 74z" />
    <glyph glyph-name="nine.sup" unicode="&#x2079;" horiz-adv-x="722" 
d="M524 1399q0 66 -47 113t-125 47q-78 1 -125 -45t-47 -114t45 -112q45 -43 122 -43t127 44t50 110zM346 1167q-120 0 -188 66t-68 167t72 170q72 68 188 68t197 -80q80 -80 80 -274t-89 -305t-219 -111q-96 0 -142 44t-46 81q-1 72 61 72t62 -57q0 -20 -12 -37
q20 -25 80 -25q94 0 155 91t64 239q-76 -109 -195 -109z" />
    <glyph glyph-name="zero.inf" unicode="&#x2080;" horiz-adv-x="722" 
d="M360 -217q84 0 137 83q52 83 52 217t-52 218q-51 84 -135 84t-136 -83t-52 -217t51 -218t135 -84zM641 84q0 -172 -78 -278t-202 -105q-123 0 -201 105q-78 106 -78 278t78 277t202 105t201 -104q78 -106 78 -278z" />
    <glyph glyph-name="one.inf" unicode="&#x2081;" horiz-adv-x="722" 
d="M135 -285v80h199v567l-191 -45l-18 80l254 64h43v-666h196v-80h-483z" />
    <glyph glyph-name="two.inf" unicode="&#x2082;" horiz-adv-x="722" 
d="M508 264q0 55 -44 92t-104 37q-60 -1 -99 -23q-40 -22 -46 -42q35 -14 35 -48t-18 -51q-18 -18 -44 -18q-68 0 -68 75t68 130t170 55t173 -58t71 -149q0 -55 -28 -103t-60 -75t-98 -72q-166 -113 -207 -223h326v117h79v-193h-489l-25 41q53 170 262 318q76 55 111 95
t35 95z" />
    <glyph glyph-name="three.inf" unicode="&#x2083;" horiz-adv-x="722" 
d="M356 -297q-108 0 -185 47t-77 115q0 31 20 53t47 21q28 1 44 -17t16 -47t-24 -43q14 -16 56 -34q41 -18 107 -19q66 0 116 40q50 39 50 101t-56 100t-155 39h-45v80h49q82 0 137 38q54 38 54 95t-44 88t-127 31t-120 -45q25 -16 25 -43t-16 -44t-43 -17q-26 0 -46 20
t-20 53q0 55 64 104q65 48 172 48t176 -54q69 -53 69 -125t-51 -122t-123 -64q78 -14 135 -67t57 -133t-76 -140q-78 -59 -186 -59z" />
    <glyph glyph-name="four.inf" unicode="&#x2084;" horiz-adv-x="722" 
d="M297 -285v76h137v141h-346l-18 39l389 506l65 -51l-327 -420h237v154l84 35v-189h123v-74h-123v-141h98v-76h-319z" />
    <glyph glyph-name="five.inf" unicode="&#x2085;" horiz-adv-x="722" 
d="M344 -299q-110 0 -177 41t-67 96q0 29 18 48q18 20 48 20q29 0 45 -18t16 -41q0 -24 -12 -35q35 -31 122 -31t137 48t50 120q0 73 -48 115t-135 42t-165 -38l-41 20l37 369h395v-86h-319l-21 -203q59 18 121 18q119 0 193 -62q73 -62 73 -173t-80 -181t-190 -69z" />
    <glyph glyph-name="six.inf" unicode="&#x2086;" horiz-adv-x="722" 
d="M199 -60q0 -66 47 -112q47 -47 125 -47t125 45t47 114q0 70 -45 112t-122 42t-127 -44t-50 -110zM592 346q0 -70 -62 -72q-61 0 -61 58q0 20 10 35q-23 27 -78 26q-94 0 -155 -91t-64 -239q10 18 33 41q69 68 175 68t174 -66t69 -166q0 -100 -72 -170q-73 -69 -189 -69
t-196 80q-80 81 -80 275t89 304t218 111q96 0 154 -53q35 -35 35 -72z" />
    <glyph glyph-name="seven.inf" unicode="&#x2087;" horiz-adv-x="722" 
d="M205 381v-125h-82v201h489l19 -39l-318 -703h-94l305 666h-319z" />
    <glyph glyph-name="eight.inf" unicode="&#x2088;" horiz-adv-x="722" 
d="M362 -217q74 0 122 39t48 97t-50 100t-121 42t-119 -42t-49 -100t47 -97t122 -39zM361 389q-67 0 -111 -36t-43 -90t45 -91t108 -37t111 37q45 37 45 91t-44 90t-111 36zM270 100q-153 48 -153 190q0 70 70 124q71 53 175 53t176 -53t70 -138q0 -57 -41 -105t-114 -71
q75 -18 123 -73t48 -131t-73 -134q-74 -58 -189 -59q-116 0 -190 58q-74 59 -74 135t49 131t123 73z" />
    <glyph glyph-name="nine.inf" unicode="&#x2089;" horiz-adv-x="722" 
d="M524 232q0 66 -47 112q-47 47 -125 47t-125 -45t-47 -114q0 -70 45 -112t122 -42t127 44t50 110zM90 232q0 100 72 170q72 69 188 69t197 -80q80 -81 80 -275t-89 -304t-219 -111q-96 0 -153 53q-35 35 -35 72q0 70 62 72q61 0 61 -58q0 -16 -12 -37q20 -25 80 -24
q94 0 155 91t64 239q-75 -109 -195 -109t-188 66t-68 166z" />
    <glyph glyph-name="Euro" unicode="&#x20ac;" horiz-adv-x="1150" 
d="M76 588v88h133q51 164 185 264t292 100t268 -78t111 -174q0 -42 -26 -70q-25 -28 -61 -28t-58 22t-21 50q0 28 13 49q13 20 30 25q-22 40 -90 74t-178 34t-209 -75q-98 -75 -143 -193h409v-88h-432q-6 -39 -6 -82t6 -82h432v-88h-403q47 -114 145 -186t225 -72
q172 0 312 133l63 -78q-156 -152 -375 -151q-178 0 -308 99t-179 255h-135v88h114q-6 39 -6 82t6 82h-114z" />
    <glyph glyph-name="published" unicode="&#x2117;" horiz-adv-x="1224" 
d="M778 602q0 51 -37 81t-94 30h-72v-224l74 -2q59 0 94 32t35 83zM649 776q89 0 145 -47t56 -128t-56 -128t-130 -47t-89 2v-129h72v-63h-209v63h68v414h-68v63h211zM612 49q188 0 314 135q125 135 125 330t-125 330q-126 135 -314 135t-313 -135t-125 -330t125 -330
t313 -135zM612 -16q-221 0 -367 154q-147 154 -147 375q0 222 146 376q146 153 368 153q221 0 368 -153q146 -154 146 -376t-146 -376q-147 -153 -368 -153z" />
    <glyph glyph-name="servicemark" unicode="&#x2120;" horiz-adv-x="1132" 
d="M383 980q0 -64 -51 -102q-51 -40 -129 -40t-132 34q-55 34 -55 84q0 49 47 50q23 0 40 -19t-1 -55q33 -29 99 -29q106 0 106 78q0 49 -95 81t-135 62t-40 92q0 60 47 100t121 40t123 -31t49 -78t-49 -47t-49 43q0 12 12 25q-31 23 -84 22q-98 0 -98 -69q0 -40 57 -67
q20 -8 80 -28t98 -51q39 -31 39 -95zM459 846v67h73l19 367h-76v68h164l147 -326l150 326h164v-68h-78l16 -367h78v-67h-207v67h62l-13 334l-155 -340h-35l-158 340l-10 -334h64v-67h-205z" />
    <glyph glyph-name="trademark" unicode="&#x2122;" horiz-adv-x="1216" 
d="M141 846v67h78v371h-133v-76h-70v140h478v-140h-72v76h-131v-371h76v-67h-226zM543 846v67h73l19 367h-76v68h164l147 -326l150 326h164v-68h-78l16 -367h78v-67h-207v67h62l-13 334l-155 -340h-35l-158 340l-10 -334h64v-67h-205z" />
    <glyph glyph-name="onethird" unicode="&#x2153;" horiz-adv-x="1628" 
d="M109 575v80h198v568l-190 -45l-19 79l254 64h43v-666h197v-80h-483zM463 -25l-68 41l797 1311l68 -41zM1532 184q0 -80 -76 -138q-76 -60 -186 -60q-108 0 -186 47q-77 47 -76 114q0 31 19 53t47 22t44 -18q16 -17 16 -46t-24 -43q14 -17 56 -35t108 -18t116 39
q50 40 50 102q0 63 -56 101t-155 38h-45v80h49q82 0 136 38t54 95t-44 88q-45 31 -127 31t-119 -45q25 -16 25 -43t-17 -44q-16 -18 -42 -18t-46 20q-21 20 -21 65q0 44 65 92q65 49 172 49t176 -54t69 -126t-52 -121q-51 -49 -123 -64q77 -13 135 -67t58 -134z" />
    <glyph glyph-name="twothirds" unicode="&#x2154;" horiz-adv-x="1628" 
d="M487 -25l-67 41l797 1311l67 -41zM1534 184q0 -80 -76 -138q-76 -60 -186 -60q-108 0 -186 47q-77 47 -76 114q0 31 19 53t47 22t44 -18q16 -17 16 -46t-24 -43q14 -17 56 -35t108 -18t116 39q50 40 50 102q0 63 -56 101t-155 38h-45v80h49q82 0 136 38t54 95t-44 88
q-45 31 -127 31t-119 -45q25 -16 25 -43t-17 -44q-16 -18 -42 -18t-46 20q-21 20 -21 65q0 44 65 92q65 49 172 49t176 -54t69 -126t-52 -121t-123 -64q77 -13 135 -67t58 -134zM502 1124q0 54 -44 92t-104 38t-99 -24q-40 -22 -46 -42q35 -14 35 -47t-18 -51t-44 -19
q-68 0 -68 75t68 130t170 55t173 -58t71 -149q0 -55 -28 -103t-60 -75t-98 -72q-166 -113 -207 -223h325v117h80v-193h-489l-25 41q53 170 262 318q76 55 111 95t35 95z" />
    <glyph glyph-name="onefifth" unicode="&#x2155;" horiz-adv-x="1628" 
d="M109 575v80h198v568l-190 -45l-19 79l254 64h43v-666h197v-80h-483zM471 -25l-68 41l797 1311l68 -41zM1282 -16q-110 0 -177 41t-67 96q0 29 18 48t48 19q29 0 45 -17t16 -41t-12 -36q35 -31 122 -31q87 1 137 49t50 120t-48 114t-135 43q-87 0 -165 -39l-41 21l37 368
h395v-86h-319l-21 -202q59 18 121 18q119 0 193 -62q73 -62 73 -173t-79 -181q-81 -69 -191 -69z" />
    <glyph glyph-name="twofifths" unicode="&#x2156;" horiz-adv-x="1628" 
d="M504 -25l-68 41l797 1311l67 -41zM1561 234q0 -110 -80 -180q-81 -70 -191 -70t-177 41t-66 96q0 29 18 48t47 19t45 -17q17 -17 17 -41t-13 -36q35 -31 122 -31q87 1 137 49t50 120t-48 114t-135 43q-87 0 -165 -39l-41 21l37 368h395v-86h-319l-20 -202q59 18 120 18
q119 0 193 -62t74 -173zM510 1124q0 54 -44 92t-104 38t-99 -24q-40 -22 -46 -42q35 -14 35 -47t-18 -51t-44 -19q-68 0 -68 75t68 130t170 55t174 -58q71 -58 70 -149q0 -55 -28 -103t-60 -75q-33 -27 -98 -72q-166 -113 -207 -223h326v117h79v-193h-489l-25 41
q53 170 263 318q77 55 111 95t34 95z" />
    <glyph glyph-name="threefifths" unicode="&#x2157;" horiz-adv-x="1628" 
d="M461 -25l-68 41l797 1311l67 -41zM368 563q-108 0 -185 47t-77 115q0 31 20 53t47 21q28 1 44 -17t16 -47t-24 -43q14 -16 56 -34q41 -18 107 -19q66 0 116 40q50 39 50 101t-56 101t-154 39h-45v79h49q82 0 136 38q54 37 54 95t-44 89t-126 31t-121 -46q25 -16 25 -43
t-16 -44t-42 -17t-46 20t-20 64t64 93q65 48 172 48t176 -54q68 -53 68 -125t-51 -122t-123 -63q78 -13 135 -67t57 -134t-76 -140q-78 -60 -186 -59zM1280 -16q-110 0 -177 41t-67 96q0 29 18 48t48 19q29 0 45 -17t16 -41t-12 -36q35 -31 122 -31q87 1 137 49t50 120
t-48 114t-135 43q-87 0 -165 -39l-41 21l37 368h395v-86h-319l-21 -202q59 18 121 18q119 0 193 -62q73 -62 73 -173q0 -110 -80 -180t-190 -70z" />
    <glyph glyph-name="fourfifths" unicode="&#x2158;" horiz-adv-x="1628" 
d="M500 -25l-68 41l797 1311l67 -41zM303 575v76h137v142h-346l-18 38l389 506l65 -51l-327 -420h237v154l84 35v-189h123v-73h-123v-142h99v-76h-320zM1280 -16q-110 0 -177 41t-67 96q0 29 18 48t48 19q29 0 45 -17t16 -41t-12 -36q35 -31 122 -31q87 1 137 49t50 120
t-48 114t-135 43q-87 0 -165 -39l-41 21l37 368h395v-86h-319l-21 -202q59 18 121 18q119 0 193 -62q73 -62 73 -173q0 -110 -80 -180t-190 -70z" />
    <glyph glyph-name="onesixth" unicode="&#x2159;" horiz-adv-x="1628" 
d="M1094 223q0 -66 47 -113t125 -47q78 -1 125 45t47 114t-45 112q-45 43 -122 43t-127 -44t-50 -110zM96 575v80h199v568l-191 -45l-18 79l254 64h43v-666h197v-80h-484zM459 -25l-68 41l797 1311l67 -41zM1298 754q96 0 142 -44t47 -81t-17 -55t-45 -17q-61 0 -61 57
q0 20 10 35q-23 27 -78 27q-94 0 -155 -91t-64 -239q10 18 33 41q68 68 174 68t176 -66q68 -66 68 -167t-72 -170q-72 -68 -188 -68t-197 80q-80 80 -80 274t89 305t218 111z" />
    <glyph glyph-name="fivesixths" unicode="&#x215a;" horiz-adv-x="1628" 
d="M1098 223q0 -66 47 -113t125 -47q78 -1 125 45t47 114t-45 112q-45 43 -122 43t-127 -44t-50 -110zM463 -25l-68 41l797 1311l68 -41zM625 811q0 -111 -80 -181q-81 -70 -191 -69q-110 0 -177 41t-66 96q0 29 18 48q18 20 47 20t45 -17q17 -17 17 -41t-13 -36
q35 -31 122 -31t137 48t50 120t-48 115t-135 43t-165 -39l-41 20l37 369h396v-86h-320l-20 -203q59 18 120 19q119 -1 193 -63t74 -173zM1303 754q96 0 142 -44t46 -81q0 -72 -61 -72t-62 57q0 20 10 35q-23 27 -78 27q-94 0 -155 -91t-64 -239q10 18 33 41q68 68 174 68
t176 -66q68 -66 68 -167t-72 -170q-72 -68 -188 -68t-197 80q-80 80 -80 274t89 305t219 111z" />
    <glyph glyph-name="oneeighth" unicode="&#x215b;" horiz-adv-x="1628" 
d="M1272 418q64 0 110 37q45 37 45 91t-44 90q-45 36 -111 36t-110 -36t-44 -90t45 -91t109 -37zM1274 66q74 0 122 38t48 98q0 58 -50 100t-121 42t-120 -42t-49 -100t48 -97t122 -39zM98 575v80h199v568l-191 -45l-18 79l254 64h43v-666h197v-80h-484zM444 -25l-67 41
l797 1311l67 -41zM1182 383q-154 47 -154 189q0 70 71 124t175 54t175 -54t71 -124q0 -141 -156 -189q74 -17 123 -73t49 -132t-74 -134t-188 -58q-115 0 -190 58q-74 58 -74 134t49 131t123 74z" />
    <glyph glyph-name="threeeighths" unicode="&#x215c;" horiz-adv-x="1628" 
d="M1272 418q64 0 110 37q45 37 45 91t-44 90q-45 36 -111 36t-110 -36t-44 -90t45 -91t109 -37zM1274 66q74 0 122 38t48 98q0 58 -50 100t-121 42t-120 -42t-49 -100t48 -97t122 -39zM449 -25l-68 41l797 1311l67 -41zM368 563q-108 0 -185 47t-77 115q0 31 20 53t47 21
q28 1 44 -17t16 -47t-24 -43q14 -16 56 -34q41 -18 107 -19q66 0 116 40q50 39 50 101t-56 101t-154 39h-45v79h49q82 0 136 38q54 37 54 95t-44 89t-126 31t-121 -46q25 -16 25 -43t-16 -44t-42 -17t-46 20t-20 64t64 93q65 48 172 48t176 -54q68 -53 68 -125t-51 -122
t-123 -63q78 -13 135 -67t57 -134t-76 -140q-78 -60 -186 -59zM1182 383q-154 47 -154 189q0 70 71 124t175 54t175 -54t71 -124q0 -141 -156 -189q74 -17 123 -73t49 -132t-74 -134t-188 -58q-115 0 -190 58q-74 58 -74 134t49 131t123 74z" />
    <glyph glyph-name="fiveeighths" unicode="&#x215d;" horiz-adv-x="1628" 
d="M1256 672q-66 0 -110 -36t-44 -90t44 -91t110 -37q64 0 110 37q45 37 45 91t-44 90t-111 36zM1257 66q74 0 122 38t48 98q0 58 -50 100t-121 42q-72 0 -120 -42t-48 -100t47 -97q48 -39 122 -39zM426 -25l-68 41l797 1311l68 -41zM602 811q0 -111 -80 -181t-190 -69
q-110 0 -177 41t-67 96q0 29 18 48q18 20 48 20t45 -17q16 -17 16 -41t-12 -36q35 -31 122 -31t137 48t50 120t-48 115t-135 43t-165 -39l-41 20l37 369h395v-86h-319l-21 -203q59 18 121 19q118 -1 192 -63t74 -173zM1165 383q-153 47 -153 189q0 70 70 124q71 54 175 54
q103 0 175 -54t71 -137q0 -57 -41 -105t-114 -71q74 -17 122 -73t50 -132q0 -76 -74 -134t-189 -58t-189 58t-75 134q0 76 49 131t123 74z" />
    <glyph glyph-name="seveneighths" unicode="&#x215e;" horiz-adv-x="1628" 
d="M1222 418q64 0 109 37t45 91t-44 90t-110 36t-111 -36q-44 -36 -44 -90t45 -91q46 -37 110 -37zM1223 66q74 0 122 38t48 98q-1 58 -51 100t-120 42t-120 -42q-49 -42 -49 -100t48 -97t122 -39zM231 1241v-125h-81v201h489l18 -39l-317 -703h-94l305 666h-320zM367 -25
l-68 41l797 1311l67 -41zM1130 383q-153 47 -153 189q0 70 71 124t175 54t175 -54t70 -137q0 -57 -41 -105t-114 -71q74 -17 123 -73t49 -132q1 -76 -73 -134t-189 -58t-190 58t-75 134t50 131t122 74z" />
    <glyph glyph-name="minus" unicode="&#x2212;" horiz-adv-x="806" 
d="M76 494v98h655v-98h-655z" />
    <glyph glyph-name="Q.alt" horiz-adv-x="1601" 
d="M801 82q104 0 190 31l-157 252l92 55l164 -262q127 74 198 210q72 136 72 304q0 252 -158 423t-402 171t-401 -170t-157 -421t158 -422t401 -171zM797 -25q-287 0 -481 202t-194 497q0 294 196 496q194 202 484 202t484 -202t193 -494q0 -196 -90 -356t-244 -252
l149 -238l-90 -53l-155 243q-123 -45 -252 -45z" />
    <glyph glyph-name="a.sc" horiz-adv-x="1177" 
d="M586 938l-187 -494h373zM328 1026h522v-94h-158l322 -838h133v-94h-408v94h166l-96 254h-447l-94 -254h166v-94h-403v94h133l319 838h-155v94z" />
    <glyph glyph-name="b.sc" horiz-adv-x="1073" 
d="M594 0h-502v94h184v838h-184v94h483q179 0 267 -73t88 -176q0 -197 -201 -251q229 -57 229 -245q0 -127 -95 -204t-269 -77zM383 567h186q125 0 189 51q63 50 63 136t-63 132t-185 46h-190v-365zM383 94h217q122 0 186 52t64 139q0 193 -279 192h-188v-383z" />
    <glyph glyph-name="c.sc" horiz-adv-x="1124" 
d="M627 1049q155 0 267 -80t112 -174q0 -45 -26 -74t-64 -29t-62 24t-23 64q0 40 43 62q-26 40 -92 74t-155 34q-178 0 -296 -125t-118 -313t116 -310t296 -122t325 135l62 -74q-160 -159 -389 -159t-375 152q-146 153 -146 378t148 381t377 156z" />
    <glyph glyph-name="d.sc" horiz-adv-x="1234" 
d="M543 0h-451v94h184v838h-184v94h451q270 0 430 -136t160 -370t-157 -377t-433 -143zM383 94h172q227 0 348 117t121 310t-130 302t-351 109h-160v-838z" />
    <glyph glyph-name="e.sc" horiz-adv-x="1038" 
d="M915 0h-823v94h184v838h-184v94h823v-281h-102v187h-430v-365h352v-96h-352v-377h430v187h102v-281z" />
    <glyph glyph-name="f.sc" horiz-adv-x="995" 
d="M575 0h-483v94h184v838h-184v94h821v-281h-102v187h-428v-377h346v-96h-346v-365h192v-94z" />
    <glyph glyph-name="g.sc" horiz-adv-x="1202" 
d="M635 952q-186 0 -304 -128t-118 -316t118 -308q119 -120 291 -120t322 100v230h-291v94h396v-504h-103v86q-143 -104 -343 -104q-201 0 -351 144t-150 381t157 389t380 153q168 0 281 -76t112 -164q0 -45 -24 -72t-62 -27q-36 0 -60 24q-24 22 -24 60t37 60
q-35 38 -105 68t-159 30z" />
    <glyph glyph-name="h.sc" horiz-adv-x="1366" 
d="M92 0v94h184v838h-184v94h477v-94h-186v-365h600v365h-186v94h477v-94h-184v-838h184v-94h-477v94h186v375h-600v-375h186v-94h-477z" />
    <glyph glyph-name="i.sc" horiz-adv-x="667" 
d="M575 0h-483v94h189v838h-189v94h483v-94h-188v-838h188v-94z" />
    <glyph glyph-name="j.sc" horiz-adv-x="884" 
d="M354 82q84 0 140 57q66 72 65 226v567h-190v94h465v-94h-168v-572q0 -197 -95 -290q-84 -88 -215 -88t-218 76t-87 184q0 51 27 84q26 32 64 32t63 -22t25 -54t-18 -55q-17 -23 -48 -26q4 -41 55 -80t135 -39z" />
    <glyph glyph-name="k.sc" horiz-adv-x="1179" 
d="M1149 94v-94h-238l-348 502l-176 -174v-234h180l2 -94h-477v94h189v838h-189v94h465v-94h-170v-479l479 479h-164v94h428v-96h-141l-352 -355l340 -481h172z" />
    <glyph glyph-name="l.sc" horiz-adv-x="976" 
d="M797 94v197h102v-291h-807v94h184v838h-184v94h481v-94h-190v-838h414z" />
    <glyph glyph-name="m.sc" horiz-adv-x="1507" 
d="M1395 1026v-94h-185l41 -838h185v-94h-480v94h189l-27 754l-346 -705h-39l-348 705l-27 -754h191v-94h-477v94h186l37 838h-184v94h295l348 -715l348 715h293z" />
    <glyph glyph-name="n.sc" horiz-adv-x="1339" 
d="M991 932h-186v94h471v-94h-184v-938h-64l-651 858v-758h186v-94h-471v94h184v838h-184v94h281l618 -811v717z" />
    <glyph glyph-name="o.sc" 
d="M213 514q0 -192 115 -312q115 -122 296 -122t297 122q115 122 115 312t-115 313q-116 123 -296 123t-296 -122t-116 -314zM625 1049q229 0 375 -154t146 -380t-146 -380q-148 -153 -376 -153t-375 153q-147 154 -147 380t147 380t376 154z" />
    <glyph glyph-name="p.sc" horiz-adv-x="1001" 
d="M544 467q130 0 202 63t71 171q0 108 -77 169t-195 62h-162v-463q31 -2 161 -2zM92 1026h451q167 0 275 -87t108 -237t-104 -240q-104 -89 -279 -89q-131 0 -160 2v-281h188v-94h-479v94h184v838h-184v94z" />
    <glyph glyph-name="q.sc" 
d="M629 80q170 0 289 126q118 126 118 312t-115 309q-116 123 -296 123t-296 -122t-116 -318t133 -324q113 -106 283 -106zM102 516q0 225 146 379t376 154t376 -154q146 -153 146 -361t-107 -346q-108 -138 -281 -176q49 -20 92 -49q113 -76 181 -76t132 39l47 -90
q-70 -53 -168 -53t-184 53q-31 18 -80 52t-67 44q-59 37 -158 56q-178 33 -281 125q-80 67 -125 175t-45 228z" />
    <glyph glyph-name="q.sc_alt" 
d="M1036 516q0 188 -115 311q-116 123 -296 123t-296 -122t-116 -314t115 -312q115 -122 295 -122q78 0 139 20l-117 189l84 53l123 -197q86 55 135 153t49 218zM1147 516q0 -145 -65 -266t-177 -191l113 -180l-84 -51l-119 186q-92 -33 -192 -32q-227 0 -374 153
q-147 154 -147 380t146 380t376 154t376 -154t147 -379z" />
    <glyph glyph-name="r.sc" horiz-adv-x="1093" 
d="M383 94h188v-94h-479v94h184v838h-184v94h455q176 0 278 -79t103 -216q0 -102 -62 -178t-166 -107l222 -352h159v-94h-233l-256 422q-34 -2 -102 -2t-107 2v-328zM543 932h-160v-416q49 -2 165 -2t194 56t79 156q-1 100 -75 152q-74 54 -203 54z" />
    <glyph glyph-name="s.sc" horiz-adv-x="931" 
d="M668 903q-41 53 -211 53q-81 0 -145 -47t-64 -125t81 -128q49 -31 152 -71q103 -41 145 -60t98 -56q107 -71 106 -199q-1 -129 -104 -209q-103 -79 -261 -79t-260 66t-103 147q0 45 23 71t59 27q36 0 59 -22q23 -21 23 -57t-26 -71q68 -67 207 -67t207 52t67 140
q0 51 -42 92q-42 40 -83 60t-117 49t-152 61q-188 79 -189 259q-1 108 94 184q94 76 240 76q146 -1 240 -61t95 -144q0 -39 -23 -64q-22 -24 -58 -24t-60 22t-23 60q0 37 25 65z" />
    <glyph glyph-name="t.sc" horiz-adv-x="1071" 
d="M293 0v94h188v838h-295v-187h-102v281h903v-281h-104v187h-295v-838h188v-94h-483z" />
    <glyph glyph-name="u.sc" 
d="M338 932v-561q0 -139 77 -216t210 -77t210 76t76 215v563h-184v94h463v-94h-172v-561q0 -185 -104 -287t-291 -102q-186 0 -289 99q-102 99 -103 286v565h-172v94h463v-94h-184z" />
    <glyph glyph-name="v.sc" horiz-adv-x="1132" 
d="M20 932v94h408v-94h-164l305 -772l305 772h-163v94h401v-94h-127l-387 -948h-63l-385 948h-130z" />
    <glyph glyph-name="w.sc" horiz-adv-x="1581" 
d="M23 932v94h430v-94h-166l219 -748l264 703h49l266 -703l218 748h-166v94h422v-94h-150l-289 -957h-61l-268 719l-269 -719h-61l-289 957h-149z" />
    <glyph glyph-name="x.sc" horiz-adv-x="1146" 
d="M1096 98v-98h-410v94h145l-262 367l-266 -367h166v-94h-418v98h133l322 424l-299 410h-137v94h417v-94h-153l239 -344l246 344h-153v94h411v-94h-143l-299 -406l319 -428h142z" />
    <glyph glyph-name="y.sc" horiz-adv-x="1071" 
d="M1059 1026v-94h-146l-325 -543v-295h186v-94h-479v94h186v295l-323 543h-146v94h424v-94h-162l265 -455l264 455h-162v94h418z" />
    <glyph glyph-name="z.sc" horiz-adv-x="989" 
d="M92 0v57l656 877h-527v-182h-102v274h782v-55l-653 -877h555v180h104v-274h-815z" />
    <glyph glyph-name="aacute.sc" horiz-adv-x="1177" 
d="M821 1481q31 0 53 -22q22 -21 23 -61q0 -40 -72 -77l-311 -156l-25 39l256 236q45 41 76 41zM586 938l-187 -494h373zM328 1026h522v-94h-158l322 -838h133v-94h-408v94h166l-96 254h-447l-94 -254h166v-94h-403v94h133l319 838h-155v94z" />
    <glyph glyph-name="abreve.sc" horiz-adv-x="1177" 
d="M590 1165q-104 0 -186 69q-81 69 -117 175l82 39q29 -78 90 -122t133 -44t131 46t88 120l82 -39q-37 -106 -118 -175t-185 -69zM586 938l-187 -494h373zM328 1026h522v-94h-158l322 -838h133v-94h-408v94h166l-96 254h-447l-94 -254h166v-94h-403v94h133l319 838h-155v94
z" />
    <glyph glyph-name="acircumflex.sc" horiz-adv-x="1177" 
d="M346 1153l-51 61l295 275l295 -275l-51 -61l-244 186zM586 938l-187 -494h373zM328 1026h522v-94h-158l322 -838h133v-94h-408v94h166l-96 254h-447l-94 -254h166v-94h-403v94h133l319 838h-155v94z" />
    <glyph glyph-name="adieresis.sc" horiz-adv-x="1177" 
d="M426 1198q-43 0 -72 31t-28 74q0 43 28 73t72 31q43 0 72 -31q28 -32 28 -74t-28 -73t-72 -31zM754 1198q-43 0 -72 31t-29 74t29 73t72 31q44 0 72 -31q28 -32 28 -74t-28 -73t-72 -31zM586 938l-187 -494h373zM328 1026h522v-94h-158l322 -838h133v-94h-408v94h166
l-96 254h-447l-94 -254h166v-94h-403v94h133l319 838h-155v94z" />
    <glyph glyph-name="ae.sc" horiz-adv-x="1411" 
d="M649 455v477h-14l-250 -477h264zM465 0v94h184v264h-315l-137 -264h157v-94h-385v94h117l444 838h-141v94h899v-281h-102v187h-430v-365h352v-96h-352v-377h430v187h102v-281h-823z" />
    <glyph glyph-name="aeacute.sc" horiz-adv-x="1411" 
d="M1002 1481q32 0 54 -22q22 -21 22 -61t-72 -77l-312 -156l-24 39l256 236q45 41 76 41zM649 455v477h-14l-250 -477h264zM465 0v94h184v264h-315l-137 -264h157v-94h-385v94h117l444 838h-141v94h899v-281h-102v187h-430v-365h352v-96h-352v-377h430v187h102v-281h-823z
" />
    <glyph glyph-name="agrave.sc" horiz-adv-x="1177" 
d="M358 1481q30 0 76 -41l256 -236l-24 -39l-312 156q-72 37 -72 77t24 62q22 22 52 21zM586 938l-187 -494h373zM328 1026h522v-94h-158l322 -838h133v-94h-408v94h166l-96 254h-447l-94 -254h166v-94h-403v94h133l319 838h-155v94z" />
    <glyph glyph-name="amacron.sc" horiz-adv-x="1177" 
d="M293 1229v106h594v-106h-594zM586 938l-187 -494h373zM328 1026h522v-94h-158l322 -838h133v-94h-408v94h166l-96 254h-447l-94 -254h166v-94h-403v94h133l319 838h-155v94z" />
    <glyph glyph-name="aogonek.sc" horiz-adv-x="1177" 
d="M586 938l-187 -494h373zM962 -412q-102 0 -156 50t-54 133q0 135 143 229h-156v94h166l-96 254h-447l-94 -254h166v-94h-403v94h133l319 838h-155v94h522v-94h-158l322 -838h133v-94h-117q-176 -80 -176 -209q0 -111 117 -110q84 0 166 40l-7 -86q-65 -47 -168 -47z" />
    <glyph glyph-name="aring.sc" horiz-adv-x="1177" 
d="M586 1030q51 0 84 36t32 89q0 53 -32 89q-33 36 -84 36t-84 -36t-33 -89t33 -89t84 -36zM586 938l-187 -494h373zM434 0h-403v94h133l319 838h-155v94h104q-49 55 -49 135q0 79 59 141q60 62 144 62t143 -61t59 -139t-49 -138h111v-94h-158l322 -838h133v-94h-408v94h166
l-96 254h-447l-94 -254h166v-94z" />
    <glyph glyph-name="aringacute.sc" horiz-adv-x="1177" 
d="M586 1030q51 0 84 36t32 89q0 53 -32 89q-33 36 -84 36t-84 -36t-33 -89t33 -89t84 -36zM815 1778q31 0 53 -22t23 -62q0 -40 -72 -76l-311 -156l-25 39l256 236q45 41 76 41zM586 938l-187 -494h373zM434 0h-403v94h133l319 838h-155v94h104q-49 55 -49 135q0 79 59 141
q60 62 144 62t143 -61t59 -139t-49 -138h111v-94h-158l322 -838h133v-94h-408v94h166l-96 254h-447l-94 -254h166v-94z" />
    <glyph glyph-name="atilde.sc" horiz-adv-x="1177" 
d="M727 1167q-76 0 -172 80q-63 51 -96 51q-74 0 -88 -118l-92 18q2 86 54 148t128 63q76 0 172 -80q63 -51 96 -51q74 0 88 119l92 -19q-2 -86 -54 -148t-128 -63zM586 938l-187 -494h373zM328 1026h522v-94h-158l322 -838h133v-94h-408v94h166l-96 254h-447l-94 -254h166
v-94h-403v94h133l319 838h-155v94z" />
    <glyph glyph-name="cacute.sc" horiz-adv-x="1124" 
d="M838 1481q32 0 54 -22q22 -21 22 -61t-72 -77l-312 -156l-24 39l256 236q45 41 76 41zM627 1049q155 0 267 -80t112 -174q0 -45 -26 -74t-64 -29t-62 24t-23 64q0 40 43 62q-26 40 -92 74t-155 34q-178 0 -296 -125t-118 -313t116 -310t296 -122t325 135l62 -74
q-160 -159 -389 -159t-375 152q-146 153 -146 378t148 381t377 156z" />
    <glyph glyph-name="ccaron.sc" horiz-adv-x="1124" 
d="M850 1497l51 -61l-295 -275l-295 275l51 61l244 -186zM627 1049q155 0 267 -80t112 -174q0 -45 -26 -74t-64 -29t-62 24t-23 64q0 40 43 62q-26 40 -92 74t-155 34q-178 0 -296 -125t-118 -313t116 -310t296 -122t325 135l62 -74q-160 -159 -389 -159t-375 152
q-146 153 -146 378t148 381t377 156z" />
    <glyph glyph-name="ccedilla.sc" horiz-adv-x="1124" 
d="M797 -255q-1 -65 -49 -109t-150 -44t-203 54l29 65q86 -39 177 -39t91 66t-102 65q-27 0 -45 -6l-35 25l45 164q-203 23 -328 171t-125 364t148 372t377 156q155 0 267 -80t112 -174q0 -45 -26 -74t-64 -29t-62 24t-23 64q0 40 43 62q-26 40 -92 74t-155 34
q-178 0 -296 -125t-118 -313t116 -310t296 -122t325 135l62 -74q-156 -156 -385 -159l-11 -84q88 -2 134 -45t47 -108z" />
    <glyph glyph-name="cdotaccent.sc" horiz-adv-x="1124" 
d="M606 1194q-45 0 -75 32t-29 77q0 45 30 77t74 31q45 0 75 -32q30 -33 30 -77t-30 -76t-75 -32zM627 1049q155 0 267 -80t112 -174q0 -45 -26 -74t-64 -29t-62 24t-23 64q0 40 43 62q-26 40 -92 74t-155 34q-178 0 -296 -125t-118 -313t116 -310t296 -122t325 135l62 -74
q-160 -159 -389 -159t-375 152q-146 153 -146 378t148 381t377 156z" />
    <glyph glyph-name="dcaron.sc" horiz-adv-x="1241" 
d="M831 1497l52 -61l-295 -275l-295 275l51 61l244 -186zM549 0h-451v94h185v838h-185v94h451q270 0 430 -136t160 -370t-157 -377t-433 -143zM389 94h172q227 0 348 117t121 310t-130 302t-351 109h-160v-838z" />
    <glyph glyph-name="dcroat.sc" horiz-adv-x="1241" 
d="M389 94h172q227 0 348 117t121 310t-130 302t-351 109h-160v-359h242v-94h-242v-385zM549 0h-451v94h185v385h-144v94h144v359h-185v94h451q270 0 430 -136t160 -370t-157 -377t-433 -143z" />
    <glyph glyph-name="eacute.sc" horiz-adv-x="1044" 
d="M742 1481q30 0 53 -22q23 -21 23 -61t-73 -77l-311 -156l-24 39l256 236q46 41 76 41zM922 0h-824v94h185v838h-185v94h824v-281h-103v187h-430v-365h352v-96h-352v-377h430v187h103v-281z" />
    <glyph glyph-name="ebreve.sc" horiz-adv-x="1044" 
d="M510 1165q-104 0 -185 69t-118 175l82 39q29 -78 90 -122t133 -44t131 46t88 120l82 -39q-37 -106 -118 -175t-185 -69zM922 0h-824v94h185v838h-185v94h824v-281h-103v187h-430v-365h352v-96h-352v-377h430v187h103v-281z" />
    <glyph glyph-name="ecaron.sc" horiz-adv-x="1044" 
d="M754 1497l51 -61l-295 -275l-295 275l51 61l244 -186zM922 0h-824v94h185v838h-185v94h824v-281h-103v187h-430v-365h352v-96h-352v-377h430v187h103v-281z" />
    <glyph glyph-name="ecircumflex.sc" horiz-adv-x="1044" 
d="M266 1153l-51 61l295 275l295 -275l-51 -61l-244 186zM922 0h-824v94h185v838h-185v94h824v-281h-103v187h-430v-365h352v-96h-352v-377h430v187h103v-281z" />
    <glyph glyph-name="edieresis.sc" horiz-adv-x="1044" 
d="M346 1198q-43 0 -72 31t-28 74q0 43 28 73t72 31q43 0 72 -31q28 -32 28 -74t-28 -73t-72 -31zM674 1198q-43 0 -72 31t-29 74t29 73t72 31q44 0 72 -31q28 -32 28 -74t-28 -73t-72 -31zM922 0h-824v94h185v838h-185v94h824v-281h-103v187h-430v-365h352v-96h-352v-377
h430v187h103v-281z" />
    <glyph glyph-name="edotaccent.sc" horiz-adv-x="1044" 
d="M510 1194q-45 0 -75 32t-29 77q0 45 30 77t74 31q45 0 75 -32q29 -33 29 -77t-30 -76t-74 -32zM922 0h-824v94h185v838h-185v94h824v-281h-103v187h-430v-365h352v-96h-352v-377h430v187h103v-281z" />
    <glyph glyph-name="egrave.sc" horiz-adv-x="1044" 
d="M278 1481q30 0 76 -41l256 -236l-24 -39l-312 156q-72 37 -72 77t24 62q22 22 52 21zM922 0h-824v94h185v838h-185v94h824v-281h-103v187h-430v-365h352v-96h-352v-377h430v187h103v-281z" />
    <glyph glyph-name="emacron.sc" horiz-adv-x="1044" 
d="M213 1229v106h594v-106h-594zM922 0h-824v94h185v838h-185v94h824v-281h-103v187h-430v-365h352v-96h-352v-377h430v187h103v-281z" />
    <glyph glyph-name="eogonek.sc" horiz-adv-x="1044" 
d="M746 -412q-103 0 -156 50t-53 133q0 135 143 229h-582v94h185v838h-185v94h824v-281h-103v187h-430v-365h352v-96h-352v-377h430v187h103v-281h-107q-176 -80 -176 -209q0 -111 117 -110q84 0 166 40l-7 -86q-66 -47 -169 -47z" />
    <glyph glyph-name="eth.sc" horiz-adv-x="1241" 
d="M389 94h172q227 0 348 117t121 310t-130 302t-351 109h-160v-359h242v-94h-242v-385zM549 0h-451v94h185v385h-144v94h144v359h-185v94h451q270 0 430 -136t160 -370t-157 -377t-433 -143z" />
    <glyph glyph-name="gbreve.sc" horiz-adv-x="1202" 
d="M616 1165q-104 0 -185 69t-118 175l82 39q29 -78 90 -122t133 -44t132 46q59 46 88 120l82 -39q-36 -106 -118 -175t-186 -69zM635 952q-186 0 -304 -128t-118 -316t118 -308q119 -120 291 -120t322 100v230h-291v94h396v-504h-103v86q-143 -104 -343 -104
q-201 0 -351 144t-150 381t157 389t380 153q168 0 281 -76t112 -164q0 -45 -24 -72t-62 -27q-36 0 -60 24q-24 22 -24 60t37 60q-35 38 -105 68t-159 30z" />
    <glyph glyph-name="gcommaaccent.sc" horiz-adv-x="1202" 
d="M528 -202q0 36 26 62t64 26t67 -32q28 -32 28 -99q1 -67 -55 -149t-175 -143l-22 37q145 109 149 207q-34 4 -58 30q-24 25 -24 61zM635 952q-186 0 -304 -128t-118 -316t118 -308q119 -120 291 -120t322 100v230h-291v94h396v-504h-103v86q-143 -104 -343 -104
q-201 0 -351 144t-150 381t157 389t380 153q168 0 281 -76t112 -164q0 -45 -24 -72t-62 -27q-36 0 -60 24q-24 22 -24 60t37 60q-35 38 -105 68t-159 30z" />
    <glyph glyph-name="gdotaccent.sc" horiz-adv-x="1202" 
d="M616 1194q-44 0 -74 32t-30 77t30 77t74 31q44 0 75 -32q30 -33 30 -77t-30 -76t-75 -32zM635 952q-186 0 -304 -128t-118 -316t118 -308q119 -120 291 -120t322 100v230h-291v94h396v-504h-103v86q-143 -104 -343 -104q-201 0 -351 144t-150 381t157 389t380 153
q168 0 281 -76t112 -164q0 -45 -24 -72t-62 -27q-36 0 -60 24q-24 22 -24 60t37 60q-35 38 -105 68t-159 30z" />
    <glyph glyph-name="hbar.sc" horiz-adv-x="1378" 
d="M389 567h600v135h-600v-135zM1239 797v-95h-143v-608h184v-94h-477v94h186v375h-600v-375h186v-94h-477v94h185v608h-144v95h144v135h-185v94h477v-94h-186v-135h600v135h-186v94h477v-94h-184v-135h143z" />
    <glyph glyph-name="iacute.sc" horiz-adv-x="679" 
d="M572 1481q30 0 53 -22q23 -21 23 -61t-73 -77l-311 -156l-24 39l256 236q46 41 76 41zM582 0h-484v94h189v838h-189v94h484v-94h-189v-838h189v-94z" />
    <glyph glyph-name="ibreve.sc" horiz-adv-x="679" 
d="M340 1165q-104 0 -185 69t-118 175l82 39q29 -78 90 -122t133 -44t131 46t88 120l82 -39q-37 -106 -118 -175t-185 -69zM582 0h-484v94h189v838h-189v94h484v-94h-189v-838h189v-94z" />
    <glyph glyph-name="icircumflex.sc" horiz-adv-x="679" 
d="M96 1153l-51 61l295 275l295 -275l-51 -61l-244 186zM582 0h-484v94h189v838h-189v94h484v-94h-189v-838h189v-94z" />
    <glyph glyph-name="idieresis.sc" horiz-adv-x="679" 
d="M176 1198q-43 0 -72 31t-28 74q0 43 28 73t72 31q43 0 72 -31q28 -32 28 -74t-28 -73t-72 -31zM504 1198q-43 0 -72 31t-29 74t29 73t72 31q44 0 72 -31q28 -32 28 -74t-28 -73t-72 -31zM582 0h-484v94h189v838h-189v94h484v-94h-189v-838h189v-94z" />
    <glyph glyph-name="idotaccent.sc" horiz-adv-x="679" 
d="M340 1194q-45 0 -75 32t-29 77q0 45 30 77t74 31q45 0 75 -32q29 -33 29 -77t-30 -76t-74 -32zM582 0h-484v94h189v838h-189v94h484v-94h-189v-838h189v-94z" />
    <glyph glyph-name="dotlessi.sc" horiz-adv-x="679" 
d="M582 0h-484v94h189v838h-189v94h484v-94h-189v-838h189v-94z" />
    <glyph glyph-name="igrave.sc" horiz-adv-x="679" 
d="M108 1481q30 0 76 -41l256 -236l-24 -39l-312 156q-72 37 -72 77t24 62q22 22 52 21zM582 0h-484v94h189v838h-189v94h484v-94h-189v-838h189v-94z" />
    <glyph glyph-name="imacron.sc" horiz-adv-x="679" 
d="M43 1229v106h594v-106h-594zM582 0h-484v94h189v838h-189v94h484v-94h-189v-838h189v-94z" />
    <glyph glyph-name="iogonek.sc" horiz-adv-x="679" 
d="M335 -412q-103 0 -157 50t-53 133q0 135 143 229h-170v94h189v838h-189v94h484v-94h-189v-838h189v-94h-179q-176 -80 -176 -209q0 -111 117 -110q84 0 166 40l-6 -86q-66 -47 -169 -47z" />
    <glyph glyph-name="kcommaaccent.sc" horiz-adv-x="1185" 
d="M723 -245q0 -67 -55 -149t-174 -143l-23 37q145 109 150 207q-35 4 -59 30q-24 25 -24 61t26 62t65 26t67 -32t27 -99zM1155 94v-94h-237l-349 502l-176 -174v-234h180l2 -94h-477v94h189v838h-189v94h465v-94h-170v-479l479 479h-163v94h428v-96h-142l-352 -355
l340 -481h172z" />
    <glyph glyph-name="lacute.sc" horiz-adv-x="983" 
d="M600 1481q32 0 54 -22q22 -21 22 -61t-72 -77l-311 -156l-25 39l256 236q45 41 76 41zM803 94v197h102v-291h-807v94h185v838h-185v94h482v-94h-191v-838h414z" />
    <glyph glyph-name="lcaron.sc" horiz-adv-x="983" 
d="M692 829l-10 119q0 35 19 57t55 21q74 0 73 -84q0 -166 -170 -344l-36 29q70 100 69 202zM803 94v197h102v-291h-807v94h185v838h-185v94h482v-94h-191v-838h414z" />
    <glyph glyph-name="lcommaaccent.sc" horiz-adv-x="983" 
d="M598 -245q0 -67 -55 -149t-174 -143l-23 37q145 109 150 207q-35 4 -59 30q-23 25 -23 61t25 62q26 26 65 26q38 0 66 -32t28 -99zM803 94v197h102v-291h-807v94h185v838h-185v94h482v-94h-191v-838h414z" />
    <glyph glyph-name="ldot.sc" horiz-adv-x="983" 
d="M827 463q-45 0 -75 32q-30 33 -29 77q0 44 30 76q31 32 75 32t74 -32t30 -77t-30 -77t-75 -31zM803 94v197h102v-291h-807v94h185v838h-185v94h482v-94h-191v-838h414z" />
    <glyph glyph-name="lslash.sc" horiz-adv-x="1001" 
d="M821 94v197h103v-291h-807v94h184v320l-174 -95l-45 82l219 119v412h-184v94h481v-94h-190v-354l272 149l45 -82l-317 -172v-379h413z" />
    <glyph glyph-name="nacute.sc" horiz-adv-x="1345" 
d="M903 1481q31 0 53 -22q22 -21 23 -61q0 -40 -72 -77l-311 -156l-25 39l256 236q45 41 76 41zM993 932h-186v94h471v-94h-184v-938h-64l-651 858v-758h186v-94h-471v94h185v838h-185v94h281l618 -811v717z" />
    <glyph glyph-name="ncaron.sc" horiz-adv-x="1345" 
d="M915 1497l52 -61l-295 -275l-295 275l51 61l244 -186zM993 932h-186v94h471v-94h-184v-938h-64l-651 858v-758h186v-94h-471v94h185v838h-185v94h281l618 -811v717z" />
    <glyph glyph-name="ncommaaccent.sc" horiz-adv-x="1345" 
d="M768 -245q0 -67 -55 -149t-174 -143l-23 37q145 109 150 207q-35 4 -59 30q-23 25 -23 61t25 62q26 26 65 26q38 0 66 -32t28 -99zM993 932h-186v94h471v-94h-184v-938h-64l-651 858v-758h186v-94h-471v94h185v838h-185v94h281l618 -811v717z" />
    <glyph glyph-name="ntilde.sc" horiz-adv-x="1345" 
d="M809 1167q-76 0 -172 80q-63 51 -96 51q-74 0 -88 -118l-93 18q2 86 54 148t129 63q76 0 172 -80q63 -51 96 -51q74 0 88 119l92 -19q-2 -86 -54 -148t-128 -63zM993 932h-186v94h471v-94h-184v-938h-64l-651 858v-758h186v-94h-471v94h185v838h-185v94h281l618 -811v717
z" />
    <glyph glyph-name="oacute.sc" 
d="M856 1481q32 0 54 -22q22 -21 22 -61t-72 -77l-311 -156l-25 39l256 236q45 41 76 41zM213 514q0 -192 115 -312q115 -122 296 -122t297 122q115 122 115 312t-115 313q-116 123 -296 123t-296 -122t-116 -314zM625 1049q229 0 375 -154t146 -380t-146 -380
q-148 -153 -376 -153t-375 153q-147 154 -147 380t147 380t376 154z" />
    <glyph glyph-name="obreve.sc" 
d="M625 1165q-104 0 -186 69q-81 69 -117 175l81 39q29 -78 91 -122t133 -44q72 0 131 46t88 120l82 -39q-37 -106 -118 -175t-185 -69zM213 514q0 -192 115 -312q115 -122 296 -122t297 122q115 122 115 312t-115 313q-116 123 -296 123t-296 -122t-116 -314zM625 1049
q229 0 375 -154t146 -380t-146 -380q-148 -153 -376 -153t-375 153q-147 154 -147 380t147 380t376 154z" />
    <glyph glyph-name="ocircumflex.sc" 
d="M381 1153l-51 61l295 275l295 -275l-52 -61l-243 186zM213 514q0 -192 115 -312q115 -122 296 -122t297 122q115 122 115 312t-115 313q-116 123 -296 123t-296 -122t-116 -314zM625 1049q229 0 375 -154t146 -380t-146 -380q-148 -153 -376 -153t-375 153
q-147 154 -147 380t147 380t376 154z" />
    <glyph glyph-name="odieresis.sc" 
d="M461 1198q-43 0 -72 31t-29 74t29 73t72 31q43 0 71 -31q28 -32 29 -74q-1 -42 -29 -73t-71 -31zM788 1198q-44 0 -72 31t-28 74t29 73t71 31q42 0 72 -31q29 -32 29 -74t-29 -73t-72 -31zM213 514q0 -192 115 -312q115 -122 296 -122t297 122q115 122 115 312t-115 313
q-116 123 -296 123t-296 -122t-116 -314zM625 1049q229 0 375 -154t146 -380t-146 -380q-148 -153 -376 -153t-375 153q-147 154 -147 380t147 380t376 154z" />
    <glyph glyph-name="oe.sc" horiz-adv-x="1546" 
d="M678 1026h745v-281h-102v187h-430v-365h352v-96h-352v-377h430v187h102v-281h-745q-262 0 -416 144t-154 376t157 370q157 136 413 136zM784 94v838h-106q-207 0 -334 -111t-127 -301t118 -308t331 -118h118z" />
    <glyph glyph-name="ograve.sc" 
d="M317 1398q0 40 23 62q24 22 54 21q30 0 75 -41l256 -236l-25 -39l-311 156q-72 37 -72 77zM213 514q0 -192 115 -312q115 -122 296 -122t297 122q115 122 115 312t-115 313q-116 123 -296 123t-296 -122t-116 -314zM625 1049q229 0 375 -154t146 -380t-146 -380
q-148 -153 -376 -153t-375 153q-147 154 -147 380t147 380t376 154z" />
    <glyph glyph-name="ohungarumlaut.sc" 
d="M1075 1473q31 -1 49 -21t19 -51q0 -51 -78 -82l-320 -139l-20 41l274 217q45 35 76 35zM688 1485q31 1 51 -19q21 -20 21 -59t-72 -76l-309 -162l-25 39l258 236q45 41 76 41zM213 514q0 -192 115 -312q115 -122 296 -122t297 122q115 122 115 312t-115 313
q-116 123 -296 123t-296 -122t-116 -314zM625 1049q229 0 375 -154t146 -380t-146 -380q-148 -153 -376 -153t-375 153q-147 154 -147 380t147 380t376 154z" />
    <glyph glyph-name="omacron.sc" 
d="M328 1229v106h594v-106h-594zM213 514q0 -192 115 -312q115 -122 296 -122t297 122q115 122 115 312t-115 313q-116 123 -296 123t-296 -122t-116 -314zM625 1049q229 0 375 -154t146 -380t-146 -380q-148 -153 -376 -153t-375 153q-147 154 -147 380t147 380t376 154z
" />
    <glyph glyph-name="oslash.sc" horiz-adv-x="1261" 
d="M219 523q0 -183 96 -302l562 649q-111 80 -246 80q-180 0 -296 -122t-116 -305zM629 80q182 0 298 122q115 122 115 306t-104 305l-563 -649q107 -84 254 -84zM629 -18q-182 0 -320 104l-131 -152l-69 62l133 151q-133 154 -133 374t146 374t376 154q176 0 311 -99
l131 150l72 -64l-133 -147q141 -152 141 -376t-147 -378q-148 -153 -377 -153z" />
    <glyph glyph-name="oslashacute.sc" horiz-adv-x="1261" 
d="M862 1481q32 0 54 -22q22 -21 22 -61t-72 -77l-311 -156l-25 39l256 236q45 41 76 41zM219 523q0 -183 96 -302l562 649q-111 80 -246 80q-180 0 -296 -122t-116 -305zM629 80q182 0 298 122q115 122 115 306t-104 305l-563 -649q107 -84 254 -84zM629 -18
q-182 0 -320 104l-131 -152l-69 62l133 151q-133 154 -133 374t146 374t376 154q176 0 311 -99l131 150l72 -64l-133 -147q141 -152 141 -376t-147 -378q-148 -153 -377 -153z" />
    <glyph glyph-name="otilde.sc" 
d="M762 1167q-76 0 -172 80q-63 51 -96 51q-74 0 -88 -118l-93 18q3 86 55 148t128 63q76 0 172 -80q63 -51 96 -51q74 0 88 119l92 -19q-2 -86 -54 -148t-128 -63zM213 514q0 -192 115 -312q115 -122 296 -122t297 122q115 122 115 312t-115 313q-116 123 -296 123
t-296 -122t-116 -314zM625 1049q229 0 375 -154t146 -380t-146 -380q-148 -153 -376 -153t-375 153q-147 154 -147 380t147 380t376 154z" />
    <glyph glyph-name="racute.sc" horiz-adv-x="1099" 
d="M784 1481q30 0 54 -22q22 -21 22 -61t-72 -77l-311 -156l-24 39l256 236q45 41 75 41zM389 94h189v-94h-480v94h185v838h-185v94h455q176 0 278 -79t103 -216q0 -102 -62 -178t-165 -107l221 -352h159v-94h-233l-256 422q-34 -2 -102 -2t-107 2v-328zM549 932h-160v-416
q49 -2 165 -2t195 56t79 156t-75 153t-204 53z" />
    <glyph glyph-name="rcaron.sc" horiz-adv-x="1099" 
d="M797 1497l51 -61l-295 -275l-295 275l51 61l244 -186zM389 94h189v-94h-480v94h185v838h-185v94h455q176 0 278 -79t103 -216q0 -102 -62 -178t-165 -107l221 -352h159v-94h-233l-256 422q-34 -2 -102 -2t-107 2v-328zM549 932h-160v-416q49 -2 165 -2t195 56t79 156
t-75 153t-204 53z" />
    <glyph glyph-name="rcommaaccent.sc" horiz-adv-x="1099" 
d="M680 -245q0 -67 -55 -149t-174 -143l-23 37q145 109 150 207q-35 4 -59 30q-23 25 -23 61t25 62q26 26 65 26q38 0 66 -32t28 -99zM389 94h189v-94h-480v94h185v838h-185v94h455q176 0 278 -79t103 -216q0 -102 -62 -178t-165 -107l221 -352h159v-94h-233l-256 422
q-34 -2 -102 -2t-107 2v-328zM549 932h-160v-416q49 -2 165 -2t195 56t79 156t-75 153t-204 53z" />
    <glyph glyph-name="sacute.sc" horiz-adv-x="931" 
d="M717 1481q31 0 53 -22q22 -21 23 -61q0 -40 -72 -77l-311 -156l-25 39l256 236q45 41 76 41zM668 903q-41 53 -211 53q-81 0 -145 -47t-64 -125t81 -128q49 -31 152 -71q103 -41 145 -60t98 -56q107 -71 106 -199q-1 -129 -104 -209q-103 -79 -261 -79t-260 66t-103 147
q0 45 23 71t59 27q36 0 59 -22q23 -21 23 -57t-26 -71q68 -67 207 -67t207 52t67 140q0 51 -42 92q-42 40 -83 60t-117 49t-152 61q-188 79 -189 259q-1 108 94 184q94 76 240 76q146 -1 240 -61t95 -144q0 -39 -23 -64q-22 -24 -58 -24t-60 22t-23 60q0 37 25 65z" />
    <glyph glyph-name="scaron.sc" horiz-adv-x="931" 
d="M729 1497l51 -61l-295 -275l-295 275l52 61l243 -186zM668 903q-41 53 -211 53q-81 0 -145 -47t-64 -125t81 -128q49 -31 152 -71q103 -41 145 -60t98 -56q107 -71 106 -199q-1 -129 -104 -209q-103 -79 -261 -79t-260 66t-103 147q0 45 23 71t59 27q36 0 59 -22
q23 -21 23 -57t-26 -71q68 -67 207 -67t207 52t67 140q0 51 -42 92q-42 40 -83 60t-117 49t-152 61q-188 79 -189 259q-1 108 94 184q94 76 240 76q146 -1 240 -61t95 -144q0 -39 -23 -64q-22 -24 -58 -24t-60 22t-23 60q0 37 25 65z" />
    <glyph glyph-name="scedilla.sc" horiz-adv-x="956" 
d="M680 903q-40 53 -210 53q-82 0 -146 -47t-64 -124t81 -129q44 -28 75 -41q32 -13 106 -42q139 -54 214 -104q106 -70 106 -198q0 -129 -100 -207t-253 -82l-10 -84q88 -2 134 -45t46 -108t-48 -109q-47 -44 -149 -44t-204 54l29 65q86 -39 177 -39t91 66t-102 65
q-27 0 -45 -6l-35 25l45 164q-133 12 -218 74t-85 135q1 45 23 71t58 27q36 0 60 -22q24 -21 23 -57q0 -36 -27 -71q68 -67 207 -67t207 52t67 140q0 51 -42 92q-42 40 -83 60t-117 49t-152 61q-189 79 -189 259q0 108 95 184t241 76q146 -1 239 -61q94 -60 94 -144
q-1 -39 -23 -64q-22 -24 -58 -24t-60 22t-23 60q0 37 25 65z" />
    <glyph glyph-name="scommaaccent.sc" horiz-adv-x="931" 
d="M397 -202q0 36 26 62q27 26 65 26t66 -32t28 -99t-56 -149t-174 -143l-22 37q145 109 149 207q-35 4 -59 30q-24 25 -23 61zM668 903q-41 53 -211 53q-81 0 -145 -47t-64 -125t81 -128q49 -31 152 -71q103 -41 145 -60t98 -56q107 -71 106 -199q-1 -129 -104 -209
q-103 -79 -261 -79t-260 66t-103 147q0 45 23 71t59 27q36 0 59 -22q23 -21 23 -57t-26 -71q68 -67 207 -67t207 52t67 140q0 51 -42 92q-42 40 -83 60t-117 49t-152 61q-188 79 -189 259q-1 108 94 184q94 76 240 76q146 -1 240 -61t95 -144q0 -39 -23 -64q-22 -24 -58 -24
t-60 22t-23 60q0 37 25 65z" />
    <glyph glyph-name="tcaron.sc" horiz-adv-x="1071" 
d="M778 1497l51 -61l-294 -275l-295 275l51 61l244 -186zM293 0v94h188v838h-295v-187h-102v281h903v-281h-104v187h-295v-838h188v-94h-483z" />
    <glyph glyph-name="tcommaaccent.sc" horiz-adv-x="1071" 
d="M446 -202q0 36 26 62t64 26t67 -32q28 -32 28 -99q1 -67 -55 -149t-175 -143l-22 37q145 109 149 207q-34 4 -58 30q-24 25 -24 61zM293 0v94h188v838h-295v-187h-102v281h903v-281h-104v187h-295v-838h188v-94h-483z" />
    <glyph glyph-name="thorn.sc" horiz-adv-x="1013" 
d="M559 307q119 1 192 59t72 154q0 96 -72 155q-73 58 -192 58t-170 -2v-422q51 -2 170 -2zM549 827q174 0 278 -83q105 -83 105 -224t-104 -224t-279 -83q-111 0 -160 2v-121h189v-94h-480v94h185v838h-185v94h480v-94h-189v-107q49 2 160 2z" />
    <glyph glyph-name="uacute.sc" 
d="M856 1481q32 0 54 -22q22 -21 22 -61t-72 -77l-311 -156l-25 39l256 236q45 41 76 41zM338 932v-561q0 -139 77 -216t210 -77t210 76t76 215v563h-184v94h463v-94h-172v-561q0 -185 -104 -287t-291 -102q-186 0 -289 99q-102 99 -103 286v565h-172v94h463v-94h-184z" />
    <glyph glyph-name="ubreve.sc" 
d="M625 1165q-104 0 -186 69q-81 69 -117 175l81 39q29 -78 91 -122t133 -44q72 0 131 46t88 120l82 -39q-37 -106 -118 -175t-185 -69zM338 932v-561q0 -139 77 -216t210 -77t210 76t76 215v563h-184v94h463v-94h-172v-561q0 -185 -104 -287t-291 -102q-186 0 -289 99
q-102 99 -103 286v565h-172v94h463v-94h-184z" />
    <glyph glyph-name="ucircumflex.sc" 
d="M381 1153l-51 61l295 275l295 -275l-52 -61l-243 186zM338 932v-561q0 -139 77 -216t210 -77t210 76t76 215v563h-184v94h463v-94h-172v-561q0 -185 -104 -287t-291 -102q-186 0 -289 99q-102 99 -103 286v565h-172v94h463v-94h-184z" />
    <glyph glyph-name="udieresis.sc" 
d="M461 1198q-43 0 -72 31t-29 74t29 73t72 31q43 0 71 -31q28 -32 29 -74q-1 -42 -29 -73t-71 -31zM788 1198q-44 0 -72 31t-28 74t29 73t71 31q42 0 72 -31q29 -32 29 -74t-29 -73t-72 -31zM338 932v-561q0 -139 77 -216t210 -77t210 76t76 215v563h-184v94h463v-94h-172
v-561q0 -185 -104 -287t-291 -102q-186 0 -289 99q-102 99 -103 286v565h-172v94h463v-94h-184z" />
    <glyph glyph-name="ugrave.sc" 
d="M317 1398q0 40 23 62q24 22 54 21q30 0 75 -41l256 -236l-25 -39l-311 156q-72 37 -72 77zM338 932v-561q0 -139 77 -216t210 -77t210 76t76 215v563h-184v94h463v-94h-172v-561q0 -185 -104 -287t-291 -102q-186 0 -289 99q-102 99 -103 286v565h-172v94h463v-94h-184z
" />
    <glyph glyph-name="uhungarumlaut.sc" 
d="M1075 1473q31 -1 49 -21t19 -51q0 -51 -78 -82l-320 -139l-20 41l274 217q45 35 76 35zM688 1485q31 1 51 -19q21 -20 21 -59t-72 -76l-309 -162l-25 39l258 236q45 41 76 41zM338 932v-561q0 -139 77 -216t210 -77t210 76t76 215v563h-184v94h463v-94h-172v-561
q0 -185 -104 -287t-291 -102q-186 0 -289 99q-102 99 -103 286v565h-172v94h463v-94h-184z" />
    <glyph glyph-name="umacron.sc" 
d="M328 1229v106h594v-106h-594zM338 932v-561q0 -139 77 -216t210 -77t210 76t76 215v563h-184v94h463v-94h-172v-561q0 -185 -104 -287t-291 -102q-186 0 -289 99q-102 99 -103 286v565h-172v94h463v-94h-184z" />
    <glyph glyph-name="uogonek.sc" 
d="M338 932v-561q0 -139 77 -216t210 -77t210 76t76 215v563h-184v94h463v-94h-172v-561q0 -169 -89 -269t-247 -116q-145 -78 -145 -195q0 -111 116 -110q84 0 166 40l-6 -86q-66 -47 -169 -47q-102 0 -156 50t-54 133q0 123 123 215q-156 16 -241 113t-85 268v565h-172v94
h463v-94h-184z" />
    <glyph glyph-name="uring.sc" 
d="M625 1227q51 0 84 36t32 89q0 53 -32 89q-33 36 -84 36t-84 -36t-33 -89t33 -89t84 -36zM625 1143q-84 0 -144 61q-59 62 -59 148t59 147t143 61t144 -60q59 -62 59 -148t-59 -148t-143 -61zM338 932v-561q0 -139 77 -216t210 -77t210 76t76 215v563h-184v94h463v-94
h-172v-561q0 -185 -104 -287t-291 -102q-186 0 -289 99q-102 99 -103 286v565h-172v94h463v-94h-184z" />
    <glyph glyph-name="wacute.sc" horiz-adv-x="1581" 
d="M1024 1481q32 0 54 -22q22 -21 22 -61t-72 -77l-311 -156l-25 39l256 236q45 41 76 41zM23 932v94h430v-94h-166l219 -748l264 703h49l266 -703l218 748h-166v94h422v-94h-150l-289 -957h-61l-268 719l-269 -719h-61l-289 957h-149z" />
    <glyph glyph-name="wcircumflex.sc" horiz-adv-x="1581" 
d="M549 1153l-51 61l295 275l294 -275l-51 -61l-243 186zM23 932v94h430v-94h-166l219 -748l264 703h49l266 -703l218 748h-166v94h422v-94h-150l-289 -957h-61l-268 719l-269 -719h-61l-289 957h-149z" />
    <glyph glyph-name="wdieresis.sc" horiz-adv-x="1581" 
d="M629 1198q-43 0 -72 31t-29 74t29 73t72 31q43 0 71 -31q28 -32 29 -74q-1 -42 -29 -73t-71 -31zM956 1198q-44 0 -72 31t-28 74t29 73t71 31q42 0 72 -31q29 -32 29 -74t-29 -73t-72 -31zM23 932v94h430v-94h-166l219 -748l264 703h49l266 -703l218 748h-166v94h422v-94
h-150l-289 -957h-61l-268 719l-269 -719h-61l-289 957h-149z" />
    <glyph glyph-name="wgrave.sc" horiz-adv-x="1581" 
d="M485 1398q0 40 23 62q24 22 54 21q30 0 75 -41l256 -236l-25 -39l-311 156q-72 37 -72 77zM23 932v94h430v-94h-166l219 -748l264 703h49l266 -703l218 748h-166v94h422v-94h-150l-289 -957h-61l-268 719l-269 -719h-61l-289 957h-149z" />
    <glyph glyph-name="yacute.sc" horiz-adv-x="1071" 
d="M770 1481q32 0 54 -22q22 -21 22 -61t-72 -77l-311 -156l-25 39l256 236q45 41 76 41zM1059 1026v-94h-146l-325 -543v-295h186v-94h-479v94h186v295l-323 543h-146v94h424v-94h-162l265 -455l264 455h-162v94h418z" />
    <glyph glyph-name="ycircumflex.sc" horiz-adv-x="1071" 
d="M295 1153l-51 61l295 275l295 -275l-52 -61l-243 186zM1059 1026v-94h-146l-325 -543v-295h186v-94h-479v94h186v295l-323 543h-146v94h424v-94h-162l265 -455l264 455h-162v94h418z" />
    <glyph glyph-name="ydieresis.sc" horiz-adv-x="1071" 
d="M375 1198q-43 0 -72 31t-29 74t29 73t72 31q43 0 71 -31q28 -32 29 -74q-1 -42 -29 -73t-71 -31zM702 1198q-44 0 -72 31t-28 74t29 73t71 31q42 0 72 -31q29 -32 29 -74t-29 -73t-72 -31zM1059 1026v-94h-146l-325 -543v-295h186v-94h-479v94h186v295l-323 543h-146v94
h424v-94h-162l265 -455l264 455h-162v94h418z" />
    <glyph glyph-name="ygrave.sc" horiz-adv-x="1071" 
d="M231 1398q0 40 23 62q24 22 54 21q30 0 75 -41l256 -236l-25 -39l-311 156q-72 37 -72 77zM1059 1026v-94h-146l-325 -543v-295h186v-94h-479v94h186v295l-323 543h-146v94h424v-94h-162l265 -455l264 455h-162v94h418z" />
    <glyph glyph-name="zacute.sc" horiz-adv-x="989" 
d="M731 1481q31 0 53 -22q22 -21 23 -61q0 -40 -72 -77l-311 -156l-25 39l256 236q45 41 76 41zM92 0v57l656 877h-527v-182h-102v274h782v-55l-653 -877h555v180h104v-274h-815z" />
    <glyph glyph-name="zcaron.sc" horiz-adv-x="989" 
d="M743 1497l52 -61l-295 -275l-295 275l51 61l244 -186zM92 0v57l656 877h-527v-182h-102v274h782v-55l-653 -877h555v180h104v-274h-815z" />
    <glyph glyph-name="zdotaccent.sc" horiz-adv-x="989" 
d="M500 1194q-45 0 -75 32t-30 77t30 77t75 31q44 0 74 -32q30 -33 30 -77t-30 -76t-74 -32zM92 0v57l656 877h-527v-182h-102v274h782v-55l-653 -877h555v180h104v-274h-815z" />
    <glyph glyph-name="zero.lin" horiz-adv-x="1275" 
d="M638 82q179 0 288 163q108 163 108 428t-108 429q-109 164 -288 164t-288 -163q-108 -163 -108 -428t108 -429t288 -164zM1153 674q1 -311 -147 -505t-369 -194t-368 194q-146 194 -146 505t147 505q146 193 368 193t369 -193q146 -194 146 -505z" />
    <glyph glyph-name="one.lin" horiz-adv-x="849" 
d="M100 0v102h285v1119l-270 -70l-25 109l359 94h53v-1252h278v-102h-680z" />
    <glyph glyph-name="two.lin" horiz-adv-x="1122" 
d="M137 1070q0 60 46 131q47 71 145 121t244 50t267 -101q119 -101 119 -256t-78 -250t-270 -228q-309 -217 -366 -435h622v203h113v-305h-848l-29 51q45 183 161 317t278 250q161 116 229 198t68 193q0 113 -87 185t-193 72t-191 -39q-86 -39 -103 -99q31 -8 50 -34
q20 -26 20 -60q0 -36 -27 -62t-69 -26t-72 32q-29 32 -29 92z" />
    <glyph glyph-name="three.lin" horiz-adv-x="1046" 
d="M485 84q163 0 253 81t89 191q0 168 -165 244q-104 49 -252 49h-41v103h49q141 0 244 67q129 82 129 203t-78 180q-77 60 -227 60t-230 -72l-20 -21q61 -25 61 -86q0 -37 -26 -63q-25 -26 -63 -25q-38 0 -68 32t-30 83t42 114q42 64 136 106t218 42q172 0 286 -92
t114 -257t-173 -265q-68 -37 -135 -51q86 -14 139 -41q95 -43 149 -123t54 -181q0 -166 -126 -276t-322 -111q-116 0 -220 44q-104 43 -149 107t-45 118t28 88q29 35 68 35t65 -27t25 -64q0 -63 -59 -81q8 -14 24 -27q93 -84 256 -84z" />
    <glyph glyph-name="four.lin" horiz-adv-x="1097" 
d="M418 0v102h246v299h-621l-18 45l690 930l88 -63l-604 -811h465v313l116 53v-366h238v-101h-238v-299h197v-102h-559z" />
    <glyph glyph-name="five.lin" horiz-adv-x="1052" 
d="M482 84q160 0 254 96t95 236q0 140 -88 227q-88 88 -234 88t-296 -67l-51 22l69 662h639v-117h-544l-45 -430q98 41 229 41q188 0 314 -111t126 -311t-135 -323q-135 -122 -336 -122t-313 107q-63 57 -64 127q0 41 27 72t67 31t66 -28q26 -26 27 -67q0 -41 -33 -67
q66 -66 226 -66z" />
    <glyph glyph-name="six.lin" horiz-adv-x="1173" 
d="M934 397q0 137 -93 227t-235 91q-142 0 -244 -93q-100 -92 -100 -222t104 -224t244 -94q139 0 232 89q92 89 92 226zM977 1147q0 -45 -27 -74q-28 -29 -66 -29t-65 27t-27 68t29 65q-49 59 -172 60q-176 0 -291 -186t-122 -478q31 61 83 109q127 113 289 112
q197 0 320 -119t123 -300t-126 -304t-324 -123t-327 129q-152 152 -151 463q0 211 48 373t127 253q155 179 359 179q147 0 233 -72t87 -153z" />
    <glyph glyph-name="seven.lin" horiz-adv-x="1003" 
d="M170 1245v-203h-113v306h863l16 -33l-586 -1315h-125l553 1245h-608z" />
    <glyph glyph-name="eight.lin" horiz-adv-x="1130" 
d="M565 82q147 0 242 79q94 79 94 199t-100 203q-99 84 -235 84t-236 -84t-100 -204q0 -121 94 -199t241 -78zM565 754q127 0 217 74t90 184t-86 182t-221 72t-221 -73t-86 -181t90 -183t217 -75zM565 -25q-195 1 -323 107t-127 280q0 124 91 222t191 118q-109 35 -181 122
t-73 190q0 170 122 264t300 94t300 -94t122 -264q0 -102 -73 -190t-181 -122q99 -20 191 -118t92 -222q0 -174 -128 -280t-323 -107z" />
    <glyph glyph-name="nine.lin" horiz-adv-x="1173" 
d="M240 942q0 -144 92 -236q92 -90 236 -90t244 92t99 227q0 136 -101 233q-100 98 -242 98t-235 -90t-93 -234zM565 510q-199 0 -321 118t-121 308q0 190 126 313q127 123 323 123t321 -125q158 -158 158 -477q0 -412 -150 -603t-379 -192q-140 0 -240 73t-100 153
q0 45 27 73t65 29q38 0 66 -27q27 -28 27 -68t-29 -65q49 -63 192 -63q170 0 288 169t120 476l-12 -23q-56 -88 -152 -140t-209 -52z" />
    <glyph glyph-name="bullet.alt" horiz-adv-x="1282" 
d="M642 -96q-230 0 -377 154q-146 155 -146 382t146 382q147 155 377 155t376 -155t147 -382q0 -227 -146 -382q-147 -154 -377 -154z" />
    <glyph glyph-name="hyphen.lin" horiz-adv-x="561" 
d="M66 639v106h430v-106h-430z" />
    <glyph glyph-name="endash.lin" horiz-adv-x="868" 
d="M45 639v106h778v-106h-778z" />
    <glyph glyph-name="emdash.lin" horiz-adv-x="1452" 
d="M45 639v106h1362v-106h-1362z" />
    <glyph glyph-name="parenleft.lin" horiz-adv-x="675" 
d="M252 656q0 -274 128 -521q128 -248 363 -391l-59 -84q-266 160 -405 427t-140 568t139 569t406 427l59 -84q-235 -143 -363 -390t-128 -521z" />
    <glyph glyph-name="parenright.lin" horiz-adv-x="675" 
d="M424 654q0 274 -128 522t-364 391l60 84q266 -160 405 -427q139 -266 139 -568t-138 -569q-140 -267 -406 -427l-60 84q236 143 364 390t128 520z" />
    <glyph glyph-name="bracketleft.lin" horiz-adv-x="698" 
d="M217 -287v1909h440v-102h-327v-1704h327v-103h-440z" />
    <glyph glyph-name="bracketright.lin" horiz-adv-x="698" 
d="M41 -287v103h328v1704h-328v102h440v-1909h-440z" />
    <glyph glyph-name="braceleft.lin" horiz-adv-x="671" 
d="M129 -8q0 74 34 126t128 150t94 172t-76 124t-180 50h-29v99h29q104 0 180 50t76 124t-94 172t-128 150t-34 126q0 135 116 223t314 91v-88q-162 -6 -242 -73q-79 -67 -79 -146t128 -218t128 -218q0 -78 -54 -146t-182 -96q127 -29 181 -97q55 -69 55 -147t-128 -217
t-128 -218t80 -146t241 -72v-89q-199 4 -315 92t-115 222z" />
    <glyph glyph-name="braceright.lin" horiz-adv-x="671" 
d="M434 -15q0 79 -128 218t-128 218t54 147t182 96q-127 29 -182 96q-54 68 -54 146t128 218q128 139 128 218t-80 146t-241 73v88q199 -4 315 -91t115 -223q0 -74 -34 -126t-128 -150t-94 -172q-1 -74 75 -124t181 -50h28v-99h-28q-105 0 -181 -50q-163 -107 25 -302
q88 -92 122 -144t34 -126q1 -134 -115 -222t-315 -92v89q161 7 241 73t80 145z" />
    <glyph glyph-name="registered.alt" horiz-adv-x="1224" 
d="M606 731h-65v-203h61q61 0 99 28t38 77q0 98 -133 98zM610 254h-207v63h68v414h-68v62h205q94 0 148 -42t55 -116q0 -109 -113 -148l105 -170h63v-63h-110l-125 215h-90v-152h69v-63zM612 49q188 0 314 135q125 135 125 330t-125 330q-126 135 -314 135t-313 -135
t-125 -330t125 -330t313 -135zM612 -16q-221 0 -367 154q-147 154 -147 375q0 222 146 376q146 153 368 153q221 0 368 -153q146 -154 146 -376t-146 -376q-147 -153 -368 -153z" />
    <glyph glyph-name="copyright.lin" horiz-adv-x="1601" 
d="M825 952q-111 0 -183 -78t-73 -190q0 -112 73 -190q74 -78 186 -78t204 88l55 -62q-102 -106 -257 -106q-154 0 -252 99t-98 249t100 250q102 100 245 100q103 0 179 -51t75 -115q0 -31 -18 -51t-45 -20t-44 16t-18 43q0 27 21 39q-39 57 -150 57zM801 43q252 0 429 185
q177 186 177 446t-177 445t-429 185t-429 -184q-177 -186 -177 -446t177 -446t429 -185zM801 -25q-287 0 -486 204t-198 495q1 290 199 494t485 204t485 -204t199 -494q-1 -290 -199 -495q-198 -204 -485 -204z" />
    <glyph glyph-name="published.lin" horiz-adv-x="1601" 
d="M993 794q0 66 -45 103t-117 37h-90v-281l93 -2q76 0 118 39q42 38 41 104zM827 575h-86v-159h90v-78h-262v78h84v518h-84v78h265q110 0 180 -60t70 -160q0 -101 -70 -159t-187 -58zM801 43q252 0 429 185q177 186 177 446t-177 445t-429 185t-429 -184
q-177 -186 -177 -446t177 -446t429 -185zM801 -25q-287 0 -486 204t-198 495q1 290 199 494t485 204t485 -204t199 -494q-1 -290 -199 -495q-198 -204 -485 -204z" />
    <glyph glyph-name="registered.lin" horiz-adv-x="1601" 
d="M715 694h78q77 0 123 35t47 94q0 123 -166 123h-82v-252zM715 618v-190h88v-78h-258v78h84v518h-84v78h256q115 0 183 -52t69 -132q0 -151 -140 -197l129 -215h80v-78h-133l-153 268h-121zM801 43q252 0 429 185q177 186 177 446t-177 445t-429 185t-429 -184
q-177 -186 -177 -446t177 -446t429 -185zM801 -25q-287 0 -486 204t-198 495q1 290 199 494t485 204t485 -204t199 -494q-1 -290 -199 -495q-198 -204 -485 -204z" />
    <glyph glyph-name="dollar.lin" horiz-adv-x="1146" 
d="M281 1015q0 -95 60 -151t185 -102l43 489q-131 -4 -210 -72q-78 -69 -78 -164zM909 346q0 110 -73 170q-74 59 -228 109l-45 -529q160 2 253 72q93 68 93 178zM190 377q38 0 62 -24q24 -23 24 -65t-40 -87q66 -74 233 -99l47 551q-170 57 -258 137t-88 218q0 140 110 238
t293 102l17 180l102 -8l-16 -181q133 -20 223 -91t90 -154q-1 -45 -27 -73t-64 -28t-64 26q-26 25 -25 65q0 40 37 81q-49 55 -182 78l-46 -512q198 -63 300 -143t102 -236t-131 -254t-332 -98l-16 -205l-103 8l19 203q-158 23 -259 103t-102 155q0 49 28 81t66 32z" />
    <glyph glyph-name="sterling.lin" horiz-adv-x="1122" 
d="M156 -27q-84 0 -84 81q0 40 53 76t154 36q96 127 96 297q0 18 -4 63h-209v95h188l-24 77q-58 168 -58 310t111 253t261 111t244 -72t95 -165q0 -45 -28 -73q-27 -28 -65 -28t-65 26t-27 66t35 74q-51 70 -174 70t-201 -81t-79 -189t33 -214q34 -108 49 -165h350v-95h-334
q4 -45 4 -65q0 -197 -92 -293q75 -6 201 -46t200 -40t110 29t65 102l92 -39q-57 -199 -265 -199q-92 0 -249 56q-133 43 -217 45q-33 -47 -80 -75t-86 -28z" />
    <glyph glyph-name="Euro.lin" horiz-adv-x="1460" 
d="M68 770v98h198q53 238 218 370q166 132 370 132t338 -102t135 -234q0 -47 -27 -79q-26 -31 -68 -31t-66 26t-23 60q0 68 55 92q-18 53 -118 108t-210 56q-182 0 -310 -104t-173 -294h541v-98h-559q-4 -66 -4 -114t6 -103h557v-98h-537q45 -173 161 -273t296 -100
q219 0 391 166l74 -78q-78 -90 -201 -142t-266 -53q-227 1 -377 133t-201 347h-200v98h184q-6 55 -6 109t6 108h-184z" />
    <glyph glyph-name="yen.lin" horiz-adv-x="1312" 
d="M397 0v102h201v199h-346v98h346v146h-346v98h289l-351 602h-147v103h428v-103h-147l335 -596l332 596h-149v103h428v-103h-150l-352 -602h291v-98h-346v-146h346v-98h-346v-199h200v-102h-516z" />
    <glyph glyph-name="cent.lin" horiz-adv-x="1001" 
d="M199 712q0 -136 62 -223q62 -86 171 -120l62 673q-123 -14 -209 -104t-86 -226zM82 710q0 166 122 292t298 137l22 235l97 -8l-21 -231q115 -18 199 -88t84 -150q0 -39 -28 -75t-64 -36q-35 0 -59 20t-24 44q0 26 14 52q13 26 36 36q-31 76 -166 100l-64 -690
q18 -2 58 -2q125 0 278 100l-10 -112q-123 -86 -279 -86q-39 0 -57 2l-24 -287l-97 8l27 295q-156 43 -249 160q-93 118 -93 284z" />
    <glyph glyph-name="numbersign.lin" horiz-adv-x="1165" 
d="M479 866l-61 -401h264l61 401h-264zM119 866v86h276l62 394h96l-61 -394h264l61 394h96l-61 -394h278v-86h-290l-62 -401h269v-86h-283l-57 -379h-97l58 379h-265l-57 -379h-96l57 379h-272v86h287l61 401h-264z" />
    <glyph glyph-name="paragraph.lin" horiz-adv-x="1363" 
d="M827 96h134v1155h-134v-1155zM520 0v102h191v404q-45 -2 -156 -2q-221 0 -353 116t-132 307t140 306t353 115h694v-103h-180v-1143h180v-102h-737z" />
    <glyph glyph-name="section.lin" horiz-adv-x="1095" 
d="M848 664q0 63 -62 106t-247 86l-97 25q-195 -74 -194 -197q0 -63 62 -106t247 -86l96 -25q195 72 195 197zM246 274q36 0 62 -24t26 -59q0 -36 -15 -60q19 -21 83 -39t116 -18q121 0 193 42q71 42 71 103t-55 97t-237 83t-275 109q-92 62 -92 152t63 154t158 101
q-78 35 -114 83t-35 122q0 102 107 177q108 75 256 75t262 -59t114 -148q0 -39 -24 -65t-60 -27q-36 0 -63 24q-25 23 -25 59t14 61q-12 13 -66 35t-154 22q-99 0 -171 -42t-72 -104q-1 -62 55 -97q56 -36 238 -83t274 -108t93 -162q0 -152 -217 -246q143 -61 143 -199
q0 -109 -105 -183q-104 -74 -282 -75q-178 0 -287 95q-63 53 -63 102t23 76q24 26 61 26z" />
    <glyph glyph-name="ordfeminine.lin" horiz-adv-x="694" 
d="M274 1055q86 0 156 73v86q-169 46 -233 -5q-33 -25 -33 -65t28 -64t82 -25zM102 774v76h488v-76h-488zM430 1341q0 111 -135 111q-55 0 -82 -20q6 -12 6 -33t-14 -35t-38 -14t-38 15t-14 38q0 47 51 83t135 36q83 0 145 -39t62 -129v-287h82v-68h-158v66
q-80 -76 -167 -76t-134 41t-47 109q0 69 55 111t141 42t150 -24v73z" />
    <glyph glyph-name="ordmasculine.lin" horiz-adv-x="720" 
d="M362 1057q80 0 130 56q49 56 49 142q0 87 -49 143q-50 56 -130 56t-131 -56t-51 -142t51 -143q51 -56 131 -56zM625 1255q0 -113 -74 -191t-190 -77q-117 0 -191 78q-74 79 -74 191t75 190t191 78t190 -78q73 -78 73 -191zM127 774v76h467v-76h-467z" />
    <glyph glyph-name="degree.lin" horiz-adv-x="614" 
d="M133 1264q0 -82 48 -136t124 -53q76 0 124 54q48 55 48 135t-48 134t-124 54t-124 -53t-48 -135zM49 1264q0 108 73 184q72 76 184 76t182 -76t71 -184q-1 -108 -71 -184t-182 -76t-184 76t-73 184z" />
    <glyph glyph-name="percent.lin" horiz-adv-x="1304" 
d="M756 270q0 -86 55 -146t135 -60t135 60t56 146t-55 146t-136 61q-80 -1 -135 -61t-55 -146zM168 1077q0 -86 55 -146q55 -61 135 -61t136 60t55 147q0 87 -55 147q-56 60 -136 60t-135 -60t-55 -147zM219 -20l-80 53l946 1335l80 -53zM657 270q0 123 84 209t205 86
t205 -86t84 -209t-84 -209t-205 -86t-205 86t-84 209zM70 1077q0 123 84 209t204 86t205 -86q84 -86 84 -209t-84 -209t-205 -86q-120 0 -204 86t-84 209z" />
    <glyph glyph-name="perthousand.lin" horiz-adv-x="1990" 
d="M1442 270q0 -86 55 -146t135 -60t135 60t56 146t-55 146t-136 61q-80 -1 -135 -61t-55 -146zM756 270q0 -86 55 -146t135 -60t135 60t56 146t-55 146t-136 61q-80 -1 -135 -61t-55 -146zM168 1077q0 -86 55 -146q55 -61 135 -61t136 60t55 147q0 87 -55 147
q-56 60 -136 60t-135 -60t-55 -147zM219 -20l-80 53l946 1335l80 -53zM1343 270q0 123 84 209t205 86t205 -86t84 -209t-84 -209t-205 -86t-205 86t-84 209zM657 270q0 123 84 209t205 86t205 -86t84 -209t-84 -209t-205 -86t-205 86t-84 209zM70 1077q0 123 84 209t204 86
t205 -86q84 -86 84 -209t-84 -209t-205 -86q-120 0 -204 86t-84 209z" />
    <glyph glyph-name="quotedbl.lin" horiz-adv-x="612" 
d="M153 1522q45 0 67 -34t11 -91l-61 -346h-39l-59 346q-10 55 13 90q24 35 68 35zM460 1522q44 0 66 -34t13 -91l-62 -346h-39l-59 346q-10 55 13 90q24 35 68 35z" />
    <glyph glyph-name="quotesingle.lin" horiz-adv-x="305" 
d="M153 1522q45 0 67 -34t11 -91l-61 -346h-39l-59 346q-10 55 13 90q24 35 68 35z" />
    <glyph glyph-name="plus.lin" horiz-adv-x="806" 
d="M352 365v278h-276v98h276v279h103v-279h276v-98h-276v-278h-103z" />
    <glyph glyph-name="minus.lin" horiz-adv-x="806" 
d="M76 643v98h655v-98h-655z" />
    <glyph glyph-name="divide.lin" horiz-adv-x="806" 
d="M402 336q-34 0 -60 26t-25 62q0 36 26 62q25 26 59 26t60 -27t26 -61t-26 -62q-26 -26 -60 -26zM402 872q-34 0 -60 27t-25 62q0 35 26 61q25 26 59 27q34 0 60 -27q26 -28 26 -62t-26 -61t-60 -27zM731 643h-655v98h655v-98z" />
    <glyph glyph-name="equal.lin" horiz-adv-x="806" 
d="M76 471v98h655v-98h-655zM76 776v98h655v-98h-655z" />
    <glyph glyph-name="multiply.lin" horiz-adv-x="806" 
d="M618 403l-217 220l-215 -217l-69 69l217 215l-219 217l71 72l217 -219l215 217l70 -70l-217 -215l219 -217z" />
    <glyph glyph-name="less.lin" horiz-adv-x="765" 
d="M582 322l-508 333v41l508 334l53 -80l-418 -274l418 -275z" />
    <glyph glyph-name="greater.lin" horiz-adv-x="765" 
d="M184 322l-53 79l418 275l-418 274l53 80l508 -334v-41z" />
    <glyph glyph-name="plusminus.lin" horiz-adv-x="806" 
d="M76 186v99h655v-99h-655zM352 442v279h-276v98h276v279h103v-279h276v-98h-276v-279h-103z" />
    <glyph glyph-name="zero.tab" horiz-adv-x="1085" 
d="M543 1264q-147 0 -237 -161t-91 -428q0 -267 90 -429q89 -162 237 -162t238 162t90 429t-90 428t-237 161zM543 -25q-193 0 -320 193t-127 507q0 313 125 505t322 192t321 -191t125 -505q-1 -314 -127 -508q-126 -193 -319 -193z" />
    <glyph glyph-name="one.tab" horiz-adv-x="1085" 
d="M156 0v102h346v1123l-332 -92l-25 108l408 113h65v-1252h340v-102h-802z" />
    <glyph glyph-name="two.tab" horiz-adv-x="1085" 
d="M936 1012q0 -119 -52 -205t-172 -180q-40 -31 -118 -88q-307 -225 -358 -437h606v203h112v-305h-831l-29 51q41 181 154 313q114 132 274 253t227 201t67 192t-88 184q-86 72 -192 72t-176 -32t-98 -79q-10 -12 -14 -29q31 -8 50 -34t19 -60q-1 -36 -27 -62t-69 -26
t-71 32t-29 93q0 61 45 132t142 121t245 50q147 0 265 -99t118 -261z" />
    <glyph glyph-name="three.tab" horiz-adv-x="1085" 
d="M512 -25q-115 -1 -221 49q-107 50 -155 116t-48 122q0 55 29 90t67 35t65 -27q26 -27 25 -63q0 -66 -61 -84q12 -20 27 -33q104 -100 265 -100t254 83t93 193q0 168 -176 244q-111 49 -254 49h-43v103h53q139 0 248 67q135 82 135 203t-81 182q-81 62 -223 62t-241 -88
q-14 -12 -24 -29q63 -25 63 -86q1 -37 -25 -63t-64 -26t-68 32t-29 84q0 52 45 118t139 115t217 49q176 0 291 -91t115 -256t-182 -265q-74 -39 -148 -53q211 -33 306 -164q58 -80 59 -181q0 -168 -127 -278t-326 -109z" />
    <glyph glyph-name="four.tab" horiz-adv-x="1085" 
d="M406 0v102h245v299h-608l-18 45l684 930l88 -63l-598 -811h452v313l117 53v-366h238v-101h-238v-299h197v-102h-559z" />
    <glyph glyph-name="five.tab" horiz-adv-x="1085" 
d="M496 84q166 0 264 96t98 236t-91 227q-91 88 -243 88t-305 -67l-51 22l70 662h659v-117h-565l-45 -430q106 41 239 41q193 0 322 -111t129 -311t-139 -323q-139 -122 -343 -122t-321 107q-66 55 -65 127q0 41 26 72q27 31 67 31t66 -28q26 -26 27 -68q0 -42 -33 -64
q68 -68 234 -68z" />
    <glyph glyph-name="six.tab" horiz-adv-x="1085" 
d="M242 398q0 -132 94 -224t226 -92t219 89t87 226t-88 227t-221 91q-133 0 -225 -93q-92 -92 -92 -224zM838 1044q-39 0 -66 27t-27 68t27 63q-43 61 -166 62q-172 0 -280 -184t-115 -480q27 57 80 109q119 113 289 113t288 -120q117 -119 117 -300t-121 -304
q-122 -123 -310 -123t-310 129q-145 152 -146 463q0 211 46 373t124 253q153 179 350 179q141 0 236 -78q76 -66 76 -147q0 -45 -26 -74t-66 -29z" />
    <glyph glyph-name="seven.tab" horiz-adv-x="1085" 
d="M205 1245v-203h-113v306h893l16 -33l-589 -1315h-127l557 1245h-637z" />
    <glyph glyph-name="eight.tab" horiz-adv-x="1085" 
d="M543 754q123 0 209 74t86 184t-84 182t-211 72t-211 -73t-84 -181t86 -183t209 -75zM543 1372q172 0 291 -94t118 -264q0 -102 -69 -190q-70 -87 -176 -122q100 -20 187 -117t87 -223q0 -174 -126 -280t-312 -106q-187 0 -313 106t-126 280q0 124 87 222t188 118
q-106 35 -176 122t-70 190q0 170 119 264t291 94zM543 82q139 0 231 79t92 199t-95 203q-95 84 -228 84t-229 -84t-95 -204q1 -121 93 -199t231 -78z" />
    <glyph glyph-name="nine.tab" horiz-adv-x="1085" 
d="M520 1266q-131 0 -218 -92t-87 -234t88 -234q88 -94 221 -94q134 0 226 96t92 231t-96 231t-226 96zM492 80q162 0 265 181t113 470q-27 -59 -77 -110q-121 -115 -291 -115t-287 122t-117 307t121 311t309 126t312 -129q145 -152 145 -463q0 -210 -45 -372
q-78 -281 -283 -389q-86 -44 -180 -44q-139 0 -244 78q-88 68 -88 146q0 45 27 73t66 29q40 0 66 -27q26 -26 26 -66t-31 -67q52 -61 193 -61z" />
    <glyph glyph-name="period.tab" horiz-adv-x="542" 
d="M272 -20q-49 0 -81 34t-31 82q0 49 31 83q32 34 81 34t81 -34t32 -83q0 -48 -32 -82t-81 -34z" />
    <glyph glyph-name="comma.tab" horiz-adv-x="542" 
d="M269 207q46 0 81 -39t35 -120t-68 -180t-213 -173l-28 45q180 131 184 252q-39 4 -70 37q-30 33 -30 73t31 73q32 32 78 32z" />
    <glyph glyph-name="colon.tab" horiz-adv-x="542" 
d="M272 524q-49 0 -81 34t-31 83q0 49 31 83q32 34 81 34t81 -34t32 -83t-32 -83t-81 -34zM272 -20q-49 0 -81 34t-31 82q0 49 31 83q32 34 81 34t81 -34t32 -83q0 -48 -32 -82t-81 -34z" />
    <glyph glyph-name="semicolon.tab" horiz-adv-x="542" 
d="M272 524q-49 0 -81 34t-31 83q0 49 31 83q32 34 81 34t81 -34t32 -83t-32 -83t-81 -34zM269 207q46 0 81 -39t35 -120t-68 -180t-213 -173l-28 45q180 131 184 252q-39 4 -70 37q-30 33 -30 73t31 73q32 32 78 32z" />
    <glyph glyph-name="twodotleader.tab" horiz-adv-x="1085" 
d="M815 -20q-49 0 -81 34t-32 82q0 49 32 83t81 34t81 -34t32 -83q0 -48 -32 -82t-81 -34zM272 -20q-49 0 -81 34t-31 82q0 49 31 83q32 34 81 34t81 -34t32 -83q0 -48 -32 -82t-81 -34z" />
    <glyph glyph-name="periodcentered.tab" horiz-adv-x="542" 
d="M272 395q-49 0 -81 34t-31 83q0 49 31 83q32 34 81 34t81 -34t32 -83t-32 -83t-81 -34z" />
    <glyph glyph-name="slash.tab" horiz-adv-x="1085" 
d="M70 -428l-93 47l928 1901l92 -47z" />
    <glyph glyph-name="bar.tab" horiz-adv-x="542" 
d="M223 -410v1909h99v-1909h-99z" />
    <glyph glyph-name="underscore.tab" horiz-adv-x="1085" 
d="M-10 -287v107h1106v-107h-1106z" />
    <glyph glyph-name="dollar.tab" horiz-adv-x="1085" 
d="M276 1023q0 -93 56 -151t168 -106l43 485q-119 -3 -193 -69t-74 -159zM848 340q0 106 -67 170t-199 111l-45 -525q141 2 226 70t85 174zM166 1017q0 138 106 233t279 98l16 180l97 -8l-17 -181q131 -20 218 -93t87 -163q0 -45 -26 -73t-65 -27q-37 0 -63 26
q-26 25 -26 65t37 81q-51 61 -170 86l-47 -510q178 -69 272 -151t94 -234t-122 -249t-308 -97l-18 -205l-96 8l18 203q-147 23 -244 106q-96 83 -96 162q0 49 28 81t66 32q38 1 62 -23t24 -66t-41 -87q63 -78 209 -107l49 549q-155 59 -239 143t-84 221z" />
    <glyph glyph-name="sterling.tab" horiz-adv-x="1085" 
d="M147 -27q-84 0 -84 81q-1 40 53 76t154 36q96 127 97 297q0 18 -5 63h-208v95h188l-25 77q-57 168 -57 312t106 254q106 108 254 108t239 -72t91 -165q0 -45 -28 -73t-65 -28q-39 0 -65 26t-26 66t35 74q-53 70 -167 70t-192 -78q-76 -78 -76 -188t52 -277
q16 -49 31 -106h339v-95h-323q4 -45 4 -65q0 -197 -92 -293q69 -6 195 -46t193 -40t103 29t64 102l92 -39q-57 -199 -264 -199q-80 0 -236 56q-133 43 -211 45q-33 -47 -80 -75t-86 -28z" />
    <glyph glyph-name="Euro.tab" horiz-adv-x="1085" 
d="M834 1042q0 66 59 91q-23 49 -84 91t-150 42q-131 0 -222 -106t-122 -302h406v-98h-418q-2 -32 -2 -98t4 -99h416v-98h-404q33 -175 118 -279t227 -104t278 158l72 -72q-147 -193 -365 -193q-180 1 -296 135t-152 355h-133v98h120q-4 33 -4 85t4 112h-120v98h131
q39 240 168 376t289 136t261 -93q102 -93 103 -210q0 -47 -27 -79t-69 -32t-64 26q-24 26 -24 60z" />
    <glyph glyph-name="yen.tab" horiz-adv-x="1085" 
d="M295 0v102h190v199h-305v98h305v146h-305v98h277l-312 602h-131v103h412v-103h-158l279 -551l274 551h-157v103h409v-103h-133l-311 -602h276v-98h-305v-146h305v-98h-305v-199h191v-102h-496z" />
    <glyph glyph-name="cent.tab" horiz-adv-x="1085" 
d="M233 692q-1 -119 63 -207t179 -125l62 691q-127 -15 -215 -107t-89 -252zM842 786q-84 0 -82 82q0 43 49 70q-15 41 -65 70t-109 39l-64 -707q18 -2 58 -2q128 0 284 102l-10 -112q-125 -88 -285 -88q-39 0 -57 2l-24 -279l-97 8l27 287q-158 43 -254 162
q-96 118 -96 288t124 300t304 141l22 225l97 -8l-21 -223q119 -18 205 -90t86 -156q0 -43 -28 -77t-64 -34z" />
    <glyph glyph-name="numbersign.tab" horiz-adv-x="1085" 
d="M451 866l-62 -401h244l61 401h-243zM111 866v86h256l61 394h96l-61 -394h244l61 394h96l-61 -394h258v-86h-270l-62 -401h248v-86h-262l-58 -379h-96l57 379h-243l-58 -379h-96l58 379h-252v86h266l61 401h-243z" />
    <glyph glyph-name="paragraph.tab" horiz-adv-x="1085" 
d="M494 504q-197 0 -321 116t-124 308q0 190 130 305t333 115h500v-103h-152v-1143h152v-102h-631v102h170v404q-31 -2 -57 -2zM655 96h101v1155h-101v-1155z" />
    <glyph glyph-name="section.tab" horiz-adv-x="1085" 
d="M844 664q0 63 -62 106t-247 86l-97 25q-195 -74 -194 -197q0 -63 62 -106t247 -86l96 -25q195 72 195 197zM242 274q36 0 62 -24t26 -59q0 -36 -15 -60q19 -21 83 -39t116 -18q121 0 193 42q71 42 71 103t-55 97t-237 83t-275 109q-92 62 -92 152t63 154t158 101
q-78 35 -114 83t-36 122q0 102 108 177t256 75t262 -59t114 -148q0 -39 -24 -65t-60 -27q-36 0 -63 24q-25 23 -25 59t14 61q-12 13 -66 35t-154 22t-172 -42t-71 -104q-1 -62 55 -97q56 -36 238 -83t274 -108t93 -162q0 -152 -217 -246q143 -61 143 -199q0 -109 -105 -183
q-104 -74 -282 -75q-178 0 -287 95q-63 53 -63 102t23 76q24 26 61 26z" />
    <glyph glyph-name="degree.tab" horiz-adv-x="1085" 
d="M539 1450q-119 0 -195 -83t-76 -206t76 -206t195 -83t195 83t75 206q1 123 -75 206t-195 83zM539 793q-160 -1 -261 107q-102 108 -102 262t102 260q102 108 261 108q160 0 261 -108t101 -262t-101 -260q-101 -107 -261 -107z" />
    <glyph glyph-name="percent.tab" horiz-adv-x="1085" 
d="M647 270q0 -88 40 -147t101 -59q62 0 102 58q40 60 40 148t-40 148t-102 59q-62 1 -101 -59q-40 -60 -40 -148zM147 1077q0 -90 41 -151q41 -62 107 -62q67 0 107 62t40 151t-41 151t-107 62t-106 -62q-41 -62 -41 -151zM188 -18l-75 45l393 663q381 647 397 672l74 -45
l-395 -672q-214 -362 -394 -663zM549 270q0 125 67 210q68 85 171 85t172 -85t69 -210t-69 -210t-172 -85t-171 85q-67 85 -67 210zM55 1077q0 127 67 211t172 84t173 -85t68 -210t-68 -210t-173 -85t-172 84t-67 211z" />
    <glyph glyph-name="quotedbl.tab" horiz-adv-x="1085" 
d="M732 1522q46 0 69 -35t14 -94l-61 -420h-41l-62 420q-8 57 14 93q21 36 67 36zM352 1522q46 0 68 -35q23 -35 14 -94l-61 -420h-41l-62 420q-8 57 14 93t68 36z" />
    <glyph glyph-name="quotesingle.tab" horiz-adv-x="542" 
d="M270 1522q46 0 68 -35q23 -35 14 -94l-61 -420h-41l-62 420q-8 57 14 93t68 36z" />
    <glyph glyph-name="plus.tab" horiz-adv-x="1085" 
d="M492 324v319h-318v98h318v320h102v-320h317v-98h-317v-319h-102z" />
    <glyph glyph-name="minus.tab" horiz-adv-x="1085" 
d="M174 643v98h737v-98h-737z" />
    <glyph glyph-name="divide.tab" horiz-adv-x="1085" 
d="M542 475q36 0 62 -28q26 -29 27 -65q-1 -36 -27 -64t-62 -27q-36 -1 -63 27t-26 65t27 65t62 27zM631 1001q-1 -37 -27 -65t-62 -27q-36 0 -63 28q-27 29 -27 65t27 64t63 28t62 -28t27 -65zM911 643h-737v98h737v-98z" />
    <glyph glyph-name="equal.tab" horiz-adv-x="1085" 
d="M174 446v99h737v-99h-737zM174 801v98h737v-98h-737z" />
    <glyph glyph-name="multiply.tab" horiz-adv-x="1085" 
d="M799 362l-258 261l-256 -258l-70 69l258 256l-260 258l72 72l258 -260l256 258l69 -70l-258 -256l260 -258z" />
    <glyph glyph-name="less.tab" horiz-adv-x="1085" 
d="M780 283l-587 379v28l587 379l54 -80l-488 -313l488 -314z" />
    <glyph glyph-name="greater.tab" horiz-adv-x="1085" 
d="M305 1069l588 -379v-28l-588 -379l-53 79l487 314l-487 313z" />
    <glyph glyph-name="plusminus.tab" horiz-adv-x="1085" 
d="M174 156v98h737v-98h-737zM492 426v319h-318v99h318v319h102v-319h317v-99h-317v-319h-102z" />
    <glyph glyph-name="zero.idx_P2D" horiz-adv-x="2252" 
d="M1395 628q0 176 -73 286t-195 110q-121 0 -195 -110t-74 -286t74 -287q74 -110 195 -110q122 0 195 110t73 287zM1125 131q-161 0 -269 139q-108 138 -108 358t109 358q111 138 271 138t269 -139t109 -358t-110 -358q-110 -138 -271 -138zM1126 1552q-387 0 -657 -274
t-270 -664t270 -663q270 -275 657 -275q388 0 658 274t270 664q0 389 -270 664q-271 274 -658 274zM1126 1622q274 0 506 -135t366 -367q136 -232 136 -506t-135 -505t-367 -367t-506 -135q-274 0 -505 135q-231 134 -367 366t-135 506q0 274 135 506q134 232 366 366
q232 136 506 136z" />
    <glyph glyph-name="one.idx_P2D" horiz-adv-x="2252" 
d="M1405 150h-551v96h225v747l-213 -47l-22 96l291 68h51v-864h219v-96zM1126 1552q-387 0 -657 -274t-270 -664t270 -663q270 -275 657 -275q388 0 658 274t270 664q0 389 -270 664q-271 274 -658 274zM1126 1622q274 0 506 -135t366 -367q136 -232 136 -506t-135 -505
t-367 -367t-506 -135q-274 0 -505 135q-231 134 -367 366t-135 506q0 274 135 506q134 232 366 366q232 136 506 136z" />
    <glyph glyph-name="two.idx_P2D" horiz-adv-x="2252" 
d="M825 899q0 47 34 99t108 89q73 37 183 37t199 -74t89 -186q0 -110 -56 -176t-186 -156q-213 -147 -264 -290h426v149h96v-241h-625l-28 47q41 135 126 230t197 174t158 131q45 52 45 126t-58 122t-154 48t-152 -53q-16 -12 -23 -31q47 -23 47 -63q-1 -39 -23 -61t-58 -22
t-58 28q-22 26 -23 73zM1126 1552q-387 0 -657 -274t-270 -664t270 -663q270 -275 657 -275q388 0 658 274t270 664q0 389 -270 664q-271 274 -658 274zM1126 1622q274 0 506 -135t366 -367q136 -232 136 -506t-135 -505t-367 -367t-506 -135q-274 0 -505 135
q-231 134 -367 366t-135 506q0 274 135 506q134 232 366 366q232 136 506 136z" />
    <glyph glyph-name="three.idx_P2D" horiz-adv-x="2252" 
d="M1317 875q0 149 -212 149q-106 0 -155 -55q37 -23 37 -57q-1 -34 -23 -56t-53 -20q-31 0 -55 26t-25 68q0 43 33 84q84 106 262 106q127 0 213 -66t86 -180t-108 -182q-47 -31 -103 -43q53 -8 103 -35q131 -72 131 -198t-93 -204q-93 -77 -254 -77t-253 103
q-43 49 -43 94q-1 44 23 72t56 28t54 -22t20 -57q0 -34 -34 -54q46 -65 212 -67q82 0 144 50q62 52 63 126q0 106 -108 157q-68 33 -178 33h-37v96h43q113 0 183 54t71 127zM1126 1552q-387 0 -657 -274t-270 -664t270 -663q270 -275 657 -275q388 0 658 274t270 664
q0 389 -270 664q-271 274 -658 274zM1126 1622q274 0 506 -135t366 -367q136 -232 136 -506t-135 -505t-367 -367t-506 -135q-274 0 -505 135q-231 134 -367 366t-135 506q0 274 135 506q134 232 366 366q232 136 506 136z" />
    <glyph glyph-name="four.idx_P2D" horiz-adv-x="2252" 
d="M1012 150v92h172v190h-441l-22 45l500 653l82 -59l-426 -551h307v203l106 45v-248h162v-90h-162v-188h131v-92h-409zM1126 1552q-387 0 -657 -274t-270 -664t270 -663q270 -275 657 -275q388 0 658 274t270 664q0 389 -270 664q-271 274 -658 274zM1126 1622
q274 0 506 -135t366 -367q136 -232 136 -506t-135 -505t-367 -367t-506 -135q-274 0 -505 135q-231 134 -367 366t-135 506q0 274 135 506q134 232 366 366q232 136 506 136z" />
    <glyph glyph-name="five.idx_P2D" horiz-adv-x="2252" 
d="M1446 450q0 -144 -92 -231q-92 -88 -226 -88q-133 0 -229 53t-96 121q0 35 21 59q22 24 56 24t56 -24q22 -22 20 -52q0 -30 -18 -44q16 -16 70 -28t112 -13q100 -1 158 63t59 158q0 94 -54 152q-54 57 -172 57t-220 -47l-47 25l47 471h495v-102h-407l-29 -273
q70 25 196 25t213 -81t87 -225zM1126 1552q-387 0 -657 -274t-270 -664t270 -663q270 -275 657 -275q388 0 658 274t270 664q0 389 -270 664q-271 274 -658 274zM1126 1622q274 0 506 -135t366 -367q136 -232 136 -506t-135 -505t-367 -367t-506 -135q-274 0 -505 135
q-231 134 -367 366t-135 506q0 274 135 506q134 232 366 366q232 136 506 136z" />
    <glyph glyph-name="six.idx_P2D" horiz-adv-x="2252" 
d="M1138 643q-97 1 -164 -59t-67 -145t70 -148t164 -63t156 58q62 60 63 150q0 90 -62 148t-160 59zM1419 958q1 -38 -21 -60t-56 -22t-54 22t-20 50t14 47q-33 33 -108 33q-119 0 -199 -119t-84 -309q35 59 105 99t149 40q141 0 232 -86t91 -215t-93 -218t-237 -89
q-144 -1 -248 103t-104 354t116 394q116 142 276 142q96 0 168 -47t73 -119zM1126 1552q-387 0 -657 -274t-270 -664t270 -663q270 -275 657 -275q388 0 658 274t270 664q0 389 -270 664q-271 274 -658 274zM1126 1622q274 0 506 -135t366 -367q136 -232 136 -506t-135 -505
t-367 -367t-506 -135q-274 0 -505 135q-231 134 -367 366t-135 506q0 274 135 506q134 232 366 366q232 136 506 136z" />
    <glyph glyph-name="seven.idx_P2D" horiz-adv-x="2252" 
d="M936 1014v-156h-100v248h630l21 -43l-420 -913h-113l400 864h-418zM1126 1552q-387 0 -657 -274t-270 -664t270 -663q270 -275 657 -275q388 0 658 274t270 664q0 389 -270 664q-271 274 -658 274zM1126 1622q274 0 506 -135t366 -367q136 -232 136 -506t-135 -505
t-367 -367t-506 -135q-274 0 -505 135q-231 134 -367 366t-135 506q0 274 135 506q134 232 366 366q232 136 506 136z" />
    <glyph glyph-name="eight.idx_P2D" horiz-adv-x="2252" 
d="M1125 598q-93 0 -159 -54t-65 -132t63 -130t161 -51q99 -1 161 51t64 130q0 78 -66 132t-159 54zM1126 688q84 0 144 50q59 50 59 121t-57 119q-58 48 -146 48t-146 -48t-58 -119t60 -121t144 -50zM1458 408q0 -119 -94 -196t-239 -77q-146 0 -239 76t-93 197
q0 84 58 152t136 87q-76 25 -125 85t-49 130q0 119 90 189q90 69 223 69t223 -69q89 -70 89 -189q0 -70 -49 -130t-125 -85q78 -20 136 -88t58 -151zM1126 1552q-387 0 -657 -274t-270 -664t270 -663q270 -275 657 -275q388 0 658 274t270 664q0 389 -270 664
q-271 274 -658 274zM1126 1622q274 0 506 -135t366 -367q136 -232 136 -506t-135 -505t-367 -367t-506 -135q-274 0 -505 135q-231 134 -367 366t-135 506q0 274 135 506q134 232 366 366q232 136 506 136z" />
    <glyph glyph-name="nine.idx_P2D" horiz-adv-x="2252" 
d="M1348 812q0 89 -69 154q-69 64 -163 64t-158 -60t-63 -154q0 -94 62 -153q61 -59 159 -59t165 60t67 148zM831 293q0 43 22 65q21 22 53 21q32 0 54 -22q22 -21 21 -51q0 -30 -14 -44q31 -35 118 -35q119 0 198 112t81 306q-34 -59 -104 -97t-150 -38q-141 0 -231 84
q-91 84 -91 218t94 223t236 89q143 0 247 -104q103 -104 103 -358q0 -255 -110 -393t-277 -138q-131 0 -209 78q-41 41 -41 84zM1126 1552q-387 0 -657 -274t-270 -664t270 -663q270 -275 657 -275q388 0 658 274t270 664q0 389 -270 664q-271 274 -658 274zM1126 1622
q274 0 506 -135t366 -367q136 -232 136 -506t-135 -505t-367 -367t-506 -135q-274 0 -505 135q-231 134 -367 366t-135 506q0 274 135 506q134 232 366 366q232 136 506 136z" />
    <glyph glyph-name="space.tab" horiz-adv-x="542" 
 />
    <glyph glyph-name="NUL" horiz-adv-x="0" 
 />
    <glyph glyph-name="hfjslug" horiz-adv-x="1421" 
d="M872 580q-33 0 -32 34q0 12 9 24t23 11q14 0 24 -11t9 -24q0 -34 -33 -34zM997 612h-22v35h22q20 0 21 -16q-1 -19 -21 -19zM659 823q-33 0 -33 45t33 78l41 -80q-16 -43 -41 -43zM645 1056q0 30 29 29q27 -1 27 -35t-31 -69q-25 45 -25 75zM494 662l28 -97h17l22 70h2
l23 -70h16l29 97h-17l-20 -72h-2l-23 72h-14l-23 -72h-2l-20 72h-16zM270 662v-95h17v66l51 -66h14v95h-16v-66l-51 66h-15zM395 662v-95h70v15h-53v26h47v15h-47v24h53v15h-70zM750 567h16v35l37 60h-19l-26 -46l-27 46h-18l37 -60v-35zM872 565q20 1 34 15q33 33 1 68
q-15 16 -35 16t-34 -16t-14 -34q0 -20 14 -34t34 -15zM1034 631q0 31 -35 31h-41v-95h17v31h24l21 -31h18l-24 35q20 8 20 29zM1071 662v-95h16v25l17 16l31 -41h20l-41 54l37 41h-21l-40 -50h-3v50h-16zM729 1038q0 72 -55 72q-25 0 -41 -19q-17 -19 -17 -45t29 -79
q-47 -37 -47 -83q0 -91 59 -89q39 0 60 49h2l24 -49l25 12l-35 65q13 29 27 80l-27 6q-8 -37 -16 -61h-2l-33 64q47 43 47 77zM985 799q63 0 64 73v281h-33v-281q0 -45 -33 -45q-16 0 -41 11v-31q20 -8 43 -8zM377 1153v-352h31v162h96v-162h31v352h-31v-162h-96v162h-31z
M819 1153v-352h31v160h78v28h-78v135h88v29h-119zM1319 -410h-426l-16 29h-334l-17 -29h-424v621q29 0 48 19q18 19 18 46q0 26 -20 46t-46 20v1135h205l62 161h684l59 -161h207v-1887z" />
    <glyph glyph-name="A.sc" horiz-adv-x="1177" 
d="M586 938l-187 -494h373zM328 1026h522v-94h-158l322 -838h133v-94h-408v94h166l-96 254h-447l-94 -254h166v-94h-403v94h133l319 838h-155v94z" />
    <glyph glyph-name="B.sc" horiz-adv-x="1073" 
d="M594 0h-502v94h184v838h-184v94h483q179 0 267 -73t88 -176q0 -197 -201 -251q229 -57 229 -245q0 -127 -95 -204t-269 -77zM383 567h186q125 0 189 51q63 50 63 136t-63 132t-185 46h-190v-365zM383 94h217q122 0 186 52t64 139q0 193 -279 192h-188v-383z" />
    <glyph glyph-name="C.sc" horiz-adv-x="1124" 
d="M627 1047q155 0 267 -80t112 -174q0 -45 -26 -74t-64 -29t-62 24t-23 64q0 40 43 62q-26 40 -92 74t-155 34q-178 0 -296 -124t-118 -312t116 -310t296 -122t325 135l62 -74q-160 -159 -389 -159t-375 152q-146 153 -146 378t148 380t377 155z" />
    <glyph glyph-name="D.sc" horiz-adv-x="1234" 
d="M543 0h-451v94h184v838h-184v94h451q270 0 430 -136t160 -370t-157 -377t-433 -143zM383 94h172q227 0 348 117t121 310t-130 302t-351 109h-160v-838z" />
    <glyph glyph-name="E.sc" horiz-adv-x="1038" 
d="M915 0h-823v94h184v838h-184v94h823v-281h-102v187h-430v-365h352v-96h-352v-377h430v187h102v-281z" />
    <glyph glyph-name="F.sc" horiz-adv-x="995" 
d="M575 0h-483v94h184v838h-184v94h821v-281h-102v187h-428v-377h346v-96h-346v-365h192v-94z" />
    <glyph glyph-name="G.sc" horiz-adv-x="1202" 
d="M635 948q-188 0 -305 -127t-117 -315t118 -306q119 -118 291 -118t322 100v228h-291v94h396v-504h-103v88q-143 -104 -343 -104q-201 0 -351 143t-150 379t157 388t380 150q168 0 281 -76t112 -163q0 -45 -24 -72t-62 -27q-36 0 -60 24q-24 22 -24 60t37 60
q-35 38 -105 68t-159 30z" />
    <glyph glyph-name="H.sc" horiz-adv-x="1366" 
d="M92 0v94h184v838h-184v94h477v-94h-186v-365h600v365h-186v94h477v-94h-184v-838h184v-94h-477v94h186v375h-600v-375h186v-94h-477z" />
    <glyph glyph-name="I.sc" horiz-adv-x="667" 
d="M575 0h-483v94h189v838h-189v94h483v-94h-188v-838h188v-94z" />
    <glyph glyph-name="J.sc" horiz-adv-x="884" 
d="M354 82q84 0 140 57q66 72 65 226v567h-190v94h465v-94h-168v-572q0 -197 -95 -290q-84 -88 -215 -88t-218 76t-87 184q0 51 27 84q26 32 64 32t63 -22t25 -54t-18 -55q-17 -23 -48 -26q4 -41 55 -80t135 -39z" />
    <glyph glyph-name="K.sc" horiz-adv-x="1179" 
d="M1149 94v-94h-238l-348 502l-176 -174v-234h180l2 -94h-477v94h189v838h-189v94h465v-94h-170v-479l479 479h-164v94h428v-96h-141l-352 -355l340 -481h172z" />
    <glyph glyph-name="L.sc" horiz-adv-x="976" 
d="M797 94v197h102v-291h-807v94h184v838h-184v94h481v-94h-190v-838h414z" />
    <glyph glyph-name="M.sc" horiz-adv-x="1507" 
d="M1395 1026v-94h-185l41 -838h185v-94h-480v94h189l-27 754l-346 -705h-39l-348 705l-27 -754h191v-94h-477v94h186l37 838h-184v94h295l348 -715l348 715h293z" />
    <glyph glyph-name="N.sc" horiz-adv-x="1339" 
d="M991 932h-186v94h471v-94h-184v-938h-64l-651 858v-758h186v-94h-471v94h184v838h-184v94h281l618 -811v717z" />
    <glyph glyph-name="O.sc" 
d="M213 514q0 -192 115 -312q115 -122 296 -122t297 122q115 122 115 312t-115 313q-116 123 -296 123t-296 -122t-116 -314zM625 1049q229 0 375 -154t146 -380t-146 -380q-148 -153 -376 -153t-375 153q-147 154 -147 380t147 380t376 154z" />
    <glyph glyph-name="P.sc" horiz-adv-x="1001" 
d="M544 467q130 0 202 63t71 171q0 108 -77 169t-195 62h-162v-463q31 -2 161 -2zM92 1026h451q167 0 275 -87t108 -237t-104 -240q-104 -89 -279 -89q-131 0 -160 2v-281h188v-94h-479v94h184v838h-184v94z" />
    <glyph glyph-name="Q.sc" 
d="M629 80q170 0 289 126q118 126 118 312t-115 309q-116 123 -296 123t-296 -122t-116 -318t133 -324q113 -106 283 -106zM102 516q0 225 146 379t376 154t376 -154q146 -153 146 -361t-107 -346q-108 -138 -281 -176q49 -20 92 -49q113 -76 181 -76t132 39l47 -90
q-70 -53 -168 -53t-184 53q-31 18 -80 52t-67 44q-59 37 -158 56q-178 33 -281 125q-80 67 -125 175t-45 228z" />
    <glyph glyph-name="Q.sc_alt" 
d="M623 80q78 0 139 20l-117 189l84 53l123 -197q86 55 135 153t49 218q0 188 -115 311q-116 123 -296 123t-296 -122t-116 -314t115 -312q115 -122 295 -122zM624 1049q230 0 376 -154t147 -379q0 -145 -65 -266t-177 -191l113 -180l-84 -51l-119 186q-92 -33 -192 -32
q-227 0 -374 153q-147 154 -147 380t146 380t376 154z" />
    <glyph glyph-name="R.sc" horiz-adv-x="1093" 
d="M383 94h188v-94h-479v94h184v838h-184v94h455q176 0 278 -79t103 -216q0 -102 -62 -178t-166 -107l222 -352h159v-94h-233l-256 422q-34 -2 -102 -2t-107 2v-328zM543 932h-160v-416q49 -2 165 -2t194 56t79 156q-1 100 -75 152q-74 54 -203 54z" />
    <glyph glyph-name="S.sc" horiz-adv-x="931" 
d="M668 899q-41 53 -211 53q-81 0 -145 -47t-64 -130t110 -139q58 -30 143 -63t126 -51t97 -54q107 -69 106 -198t-104 -209q-103 -79 -261 -79t-260 66t-103 147q0 45 23 71t59 27q36 0 59 -22q23 -21 23 -57t-26 -71q68 -67 207 -67t207 52t67 138q0 86 -111 145
q-41 22 -127 52t-171 75q-84 44 -109 70q-64 68 -65 177q-1 108 94 184q94 75 240 75t240 -60t95 -144q0 -39 -23 -64q-22 -24 -58 -24t-60 22t-23 59q0 37 25 66z" />
    <glyph glyph-name="T.sc" horiz-adv-x="1071" 
d="M293 0v94h188v838h-295v-187h-102v281h903v-281h-104v187h-295v-838h188v-94h-483z" />
    <glyph glyph-name="U.sc" 
d="M623 -14q-186 0 -289 99q-102 99 -103 286v561h-172v94h463v-94h-184v-557q0 -139 77 -216t210 -77t210 76t76 215v559h-184v94h463v-94h-172v-557q0 -185 -104 -287t-291 -102z" />
    <glyph glyph-name="V.sc" horiz-adv-x="1132" 
d="M20 932v94h408v-94h-164l305 -772l305 772h-163v94h401v-94h-127l-387 -948h-63l-385 948h-130z" />
    <glyph glyph-name="W.sc" horiz-adv-x="1581" 
d="M23 932v94h430v-94h-166l219 -748l264 703h49l266 -703l218 748h-166v94h422v-94h-150l-289 -957h-61l-268 719l-269 -719h-61l-289 957h-149z" />
    <glyph glyph-name="X.sc" horiz-adv-x="1146" 
d="M1096 98v-98h-410v94h145l-262 367l-266 -367h166v-94h-418v98h133l322 424l-299 410h-137v94h417v-94h-153l239 -344l246 344h-153v94h411v-94h-143l-299 -406l319 -428h142z" />
    <glyph glyph-name="Y.sc" horiz-adv-x="1071" 
d="M1059 1026v-94h-146l-325 -543v-295h186v-94h-479v94h186v295l-323 543h-146v94h424v-94h-162l265 -455l264 455h-162v94h418z" />
    <glyph glyph-name="Z.sc" horiz-adv-x="989" 
d="M92 0v57l656 877h-527v-182h-102v274h782v-55l-653 -877h555v180h104v-274h-815z" />
    <glyph glyph-name="Aacute.sc" horiz-adv-x="1177" 
d="M821 1481q31 0 53 -22q22 -21 23 -61q0 -40 -72 -77l-311 -156l-25 39l256 236q45 41 76 41zM586 938l-187 -494h373zM328 1026h522v-94h-158l322 -838h133v-94h-408v94h166l-96 254h-447l-94 -254h166v-94h-403v94h133l319 838h-155v94z" />
    <glyph glyph-name="Abreve.sc" horiz-adv-x="1177" 
d="M590 1165q-104 0 -186 69q-81 69 -117 175l82 39q29 -78 90 -122t133 -44t131 46t88 120l82 -39q-37 -106 -118 -175t-185 -69zM586 938l-187 -494h373zM328 1026h522v-94h-158l322 -838h133v-94h-408v94h166l-96 254h-447l-94 -254h166v-94h-403v94h133l319 838h-155v94
z" />
    <glyph glyph-name="Acircumflex.sc" horiz-adv-x="1177" 
d="M346 1153l-51 61l295 275l295 -275l-51 -61l-244 186zM586 938l-187 -494h373zM328 1026h522v-94h-158l322 -838h133v-94h-408v94h166l-96 254h-447l-94 -254h166v-94h-403v94h133l319 838h-155v94z" />
    <glyph glyph-name="Adieresis.sc" horiz-adv-x="1177" 
d="M426 1198q-43 0 -72 31t-28 74q0 43 28 73t72 31q43 0 72 -31q28 -32 28 -74t-28 -73t-72 -31zM754 1198q-43 0 -72 31t-29 74t29 73t72 31q44 0 72 -31q28 -32 28 -74t-28 -73t-72 -31zM586 938l-187 -494h373zM328 1026h522v-94h-158l322 -838h133v-94h-408v94h166
l-96 254h-447l-94 -254h166v-94h-403v94h133l319 838h-155v94z" />
    <glyph glyph-name="AE.sc" horiz-adv-x="1411" 
d="M649 455v477h-14l-250 -477h264zM465 0v94h184v264h-315l-137 -264h157v-94h-385v94h117l444 838h-141v94h899v-281h-102v187h-430v-365h352v-96h-352v-377h430v187h102v-281h-823z" />
    <glyph glyph-name="AEacute.sc" horiz-adv-x="1411" 
d="M1002 1481q32 0 54 -22q22 -21 22 -61t-72 -77l-312 -156l-24 39l256 236q45 41 76 41zM649 455v477h-14l-250 -477h264zM465 0v94h184v264h-315l-137 -264h157v-94h-385v94h117l444 838h-141v94h899v-281h-102v187h-430v-365h352v-96h-352v-377h430v187h102v-281h-823z
" />
    <glyph glyph-name="Agrave.sc" horiz-adv-x="1177" 
d="M358 1481q30 0 76 -41l256 -236l-24 -39l-312 156q-72 37 -72 77t24 62q22 22 52 21zM586 938l-187 -494h373zM328 1026h522v-94h-158l322 -838h133v-94h-408v94h166l-96 254h-447l-94 -254h166v-94h-403v94h133l319 838h-155v94z" />
    <glyph glyph-name="Amacron.sc" horiz-adv-x="1177" 
d="M293 1229v106h594v-106h-594zM586 938l-187 -494h373zM328 1026h522v-94h-158l322 -838h133v-94h-408v94h166l-96 254h-447l-94 -254h166v-94h-403v94h133l319 838h-155v94z" />
    <glyph glyph-name="Aogonek.sc" horiz-adv-x="1177" 
d="M586 938l-187 -494h373zM962 -412q-102 0 -156 50t-54 133q0 135 143 229h-156v94h166l-96 254h-447l-94 -254h166v-94h-403v94h133l319 838h-155v94h522v-94h-158l322 -838h133v-94h-117q-176 -80 -176 -209q0 -111 117 -110q84 0 166 40l-7 -86q-65 -47 -168 -47z" />
    <glyph glyph-name="Aring.sc" horiz-adv-x="1177" 
d="M586 1030q51 0 84 36t32 89q0 53 -32 89q-33 36 -84 36t-84 -36t-33 -89t33 -89t84 -36zM586 938l-187 -494h373zM434 94v-94h-403v94h133l319 838h-155v94h104q-49 55 -49 135q0 79 59 141q60 62 144 62t143 -61t59 -139t-49 -138h111v-94h-158l322 -838h133v-94h-408
v94h166l-96 254h-447l-94 -254h166z" />
    </font>
</defs>
</svg>
