<?xml version="1.0" standalone="no"?>
<!DOCTYPE svg PUBLIC "-//W3C//DTD SVG 1.1//EN" "http://www.w3.org/Graphics/SVG/1.1/DTD/svg11.dtd" >
<svg xmlns="http://www.w3.org/2000/svg">
<metadata>
Created by FontPrep 20130207 at Sun Apr  5 22:22:18 2015
 By Tina Kumar
Copyright (C) 2000, 2007 Hoefler &#38; Frere-Jones. http://www.typography.com
</metadata>
<defs>
<font id="c70ed52bd3adf12e9cfe9270d54fc18f" horiz-adv-x='1024' >
  <font-face 
    font-family="Archer-BookItalic"
    font-weight="325"
    font-style="italic"
    font-stretch="normal"
    units-per-em="2048"
    panose-1="2 0 0 0 0 0 0 0 0 0"
    ascent="1638"
    descent="-410"
    x-height="860"
    cap-height="1348"
    bbox="-231.04 -547 2134 2140"
    underline-thickness="102"
    underline-position="-102"
    slope="-12"
    unicode-range="U+0020-FB04"
  />
<missing-glyph horiz-adv-x="1024" 
d="M512 492l-367 -799h734zM922 1384l-353 -770l353 -770v1540zM102 -156l353 770l-353 770v-1540zM145 1536l367 -799l367 799h-734zM0 -410v2048h1024v-2048h-1024z" />
    <glyph glyph-name="f_f" unicode="ff" horiz-adv-x="1159" 
d="M754 1274q-88 0 -88 96q-134 -25 -183 -240l-63 -270h434l78 332q35 150 117 232t200 81q66 -1 105 -29t39 -69t-25 -66q-26 -25 -62 -25t-60 26t-23 71q-57 -6 -109 -55t-82 -184l-71 -314h223l-23 -94h-223l-176 -766h-107l179 766h-435l-176 -766h-106l176 766h-154
l23 94h153l68 289q35 149 117 231t192 82q66 0 105 -28t39 -70t-24 -66t-58 -24z" />
    <glyph glyph-name="fi" unicode="fi" horiz-adv-x="1105" 
d="M754 1505q88 0 139 -38t51 -84q0 -47 -24 -73t-64 -26q-38 0 -60 26t-22 54t8 41q-29 4 -45 4q-191 0 -256 -289l-61 -260h555l-180 -645q-41 -149 49 -149q63 0 119 135l63 -21q-66 -193 -197 -192q-67 0 -111 41t-44 90t16 106l152 541h-443l-176 -766h-106l178 766
h-156l23 94h155l66 279q29 121 72 194q98 172 299 172z" />
    <glyph glyph-name="fl" unicode="fl" horiz-adv-x="1101" 
d="M856 1247q0 53 37 80q-49 82 -154 82t-176 -82q-49 -55 -67 -143l-76 -324h420l75 314q-59 20 -59 73zM739 1505q160 0 230 -121l63 115h60l-299 -1280q-15 -73 -15 -95t18 -40t46 -18q63 0 119 135l63 -21q-66 -193 -197 -192q-67 0 -111 41t-44 104q0 18 14 86l131 547
h-418l-176 -766h-106l178 766h-156l23 94h153l80 340q20 98 78 170q106 135 266 135z" />
    <glyph glyph-name="f_f_i" unicode="ffi" horiz-adv-x="1644" 
d="M741 1460q63 0 119 -25q55 -26 55 -75q-1 -49 -25 -73q-24 -23 -60 -23t-61 28q-24 28 -24 72h-12q-106 0 -178 -82q-51 -57 -70 -143l-65 -279h436l66 279q29 121 71 194q98 172 299 172q88 0 140 -38t51 -84q0 -47 -25 -73q-26 -26 -64 -26t-60 26t-22 54t9 41
q-29 4 -45 4q-123 0 -195 -123q-41 -72 -61 -166l-62 -260h555l-180 -645q-14 -51 -14 -82t17 -49t46 -18q63 0 119 135l64 -21q-66 -193 -197 -192q-68 0 -112 41t-44 90t17 106l151 541h-442l-176 -766h-107l179 766h-435l-176 -766h-106l178 766h-156l23 94h153l70 295
q23 98 78 170q106 135 278 135z" />
    <glyph glyph-name="f_f_l" unicode="ffl" horiz-adv-x="1640" 
d="M1395 1247q0 53 37 80q-49 82 -154 82t-176 -82q-50 -55 -68 -143l-76 -324h420l76 314q-59 20 -59 73zM741 1460q63 0 119 -25q55 -26 55 -75q-1 -49 -25 -73q-24 -23 -60 -23t-61 28q-24 28 -24 72h-12q-106 0 -178 -82q-51 -57 -70 -143l-65 -279h434l80 340
q20 98 78 170q106 135 266 135t229 -121l64 115h59l-299 -1280q-14 -73 -14 -95t17 -40t46 -18q63 0 119 135l64 -21q-66 -193 -197 -192q-68 0 -112 41t-44 104q0 18 15 86l131 547h-418l-176 -766h-107l179 766h-435l-176 -766h-106l178 766h-156l23 94h153l70 295
q23 98 78 170q106 135 278 135z" />
    <glyph glyph-name="f_b" unicode="fb" horiz-adv-x="1642" 
d="M856 1247q0 53 37 80q-49 82 -154 82t-176 -82q-49 -55 -67 -143l-76 -324h422l73 314q-59 20 -59 73zM1087 80q147 0 247 128t100 276t-62 222q-62 75 -174 74q-147 0 -257 -142t-110 -302q1 -116 69 -186t187 -70zM739 1505q160 0 230 -121l63 115h66l-189 -805
q129 182 308 183q143 1 237 -99t94 -264q0 -221 -139 -376t-319 -154q-113 0 -192 59t-101 160l-49 -203h-107l178 766h-420l-176 -766h-106l178 766h-156l23 94h153l80 340q20 98 78 170q106 135 266 135z" />
    <glyph glyph-name="f_h" unicode="fh" horiz-adv-x="1632" 
d="M856 1247q0 53 37 80q-49 82 -154 82t-176 -82q-49 -55 -67 -143l-76 -324h422l73 314q-59 20 -59 73zM739 1505q160 0 230 -121l63 115h66l-197 -829q127 205 301 204q106 0 177 -63t73 -160q0 -57 -20 -133l-82 -303q-38 -149 51 -149q63 0 117 135l63 -21
q-61 -193 -192 -192q-68 0 -113 41t-45 92t14 104l82 307q41 151 -30 212q-44 38 -109 38q-102 0 -204 -101t-142 -271l-94 -410h-107l178 766h-420l-176 -766h-106l178 766h-156l23 94h153l80 340q20 98 78 170q106 135 266 135z" />
    <glyph glyph-name="f_j" unicode="fj" horiz-adv-x="1034" 
d="M295 -313q-1 41 23 63t58 23q34 0 56 -24t23 -40q0 -16 -1 -21t-1 -7q55 6 96 40q66 57 98 201l195 844h-443l-176 -766h-106l178 766h-156l23 94h155l66 279q29 121 72 194q98 172 299 172q88 0 139 -38t51 -84q0 -47 -24 -73t-64 -26q-38 0 -60 26t-22 54t8 41
q-29 4 -45 4q-191 0 -256 -289l-61 -260h549l-221 -956q-74 -314 -318 -314q-55 0 -95 28t-40 69z" />
    <glyph glyph-name="f_k" unicode="fk" horiz-adv-x="1501" 
d="M856 1247q0 53 37 80q-49 82 -154 82t-176 -82q-49 -55 -67 -143l-76 -324h422l73 314q-59 20 -59 73zM739 1505q160 0 230 -121l63 115h66l-252 -1075q188 86 307 162t143 119q-18 7 -32 31t-14 54t26 59q26 28 66 28t66 -27t26 -72q0 -152 -375 -342l94 -237
q33 -84 53 -107t54 -22q61 0 98 157l67 -22q-47 -217 -176 -217q-65 0 -109 39t-77 120l-100 248l-138 -63l-77 -332h-107l178 766h-420l-176 -766h-106l178 766h-156l23 94h153l80 340q20 98 78 170q106 135 266 135z" />
    <glyph glyph-name="f_f_b" unicode="ffb" horiz-adv-x="2181" 
d="M1395 1247q0 53 37 80q-49 82 -154 82t-176 -82q-49 -55 -68 -143l-76 -324h422l74 314q-59 20 -59 73zM1626 80q147 0 247 128q99 128 99 276t-62 222q-62 75 -173 74q-147 0 -257 -142t-110 -302q0 -116 68 -186t188 -70zM741 1460q63 0 119 -25q55 -26 55 -75
q-1 -49 -25 -73q-24 -23 -60 -23t-61 28q-24 28 -24 72h-12q-106 0 -178 -82q-51 -57 -70 -143l-65 -279h434l80 340q20 98 78 170q106 135 266 135t229 -121l64 115h65l-188 -805q129 182 307 183q143 1 237 -99t95 -264q0 -221 -139 -376t-320 -154q-114 0 -192 59
t-101 160l-49 -203h-106l178 766h-420l-176 -766h-107l179 766h-435l-176 -766h-106l178 766h-156l23 94h153l70 295q23 98 78 170q106 135 278 135z" />
    <glyph glyph-name="f_f_h" unicode="ffh" horiz-adv-x="2170" 
d="M1395 1247q0 53 37 80q-49 82 -154 82t-176 -82q-49 -55 -68 -143l-76 -324h422l74 314q-59 20 -59 73zM741 1460q63 0 119 -25q55 -26 55 -75q-1 -49 -25 -73q-24 -23 -60 -23t-61 28q-24 28 -24 72h-12q-106 0 -178 -82q-51 -57 -70 -143l-65 -279h434l80 340
q20 98 78 170q106 135 266 135t229 -121l64 115h65l-196 -829q127 205 301 204q106 0 177 -63t73 -160q0 -57 -21 -133l-82 -303q-12 -47 -12 -80t17 -51t46 -18q63 0 117 135l64 -21q-61 -193 -193 -192q-69 0 -113 41t-44 92t14 104l82 307q41 151 -30 212q-44 38 -110 38
q-102 0 -204 -101t-142 -271l-94 -410h-106l178 766h-420l-176 -766h-107l179 766h-435l-176 -766h-106l178 766h-156l23 94h153l70 295q23 98 78 170q106 135 278 135z" />
    <glyph glyph-name="f_f_j" unicode="ffj" horiz-adv-x="1572" 
d="M741 1460q63 0 119 -25q55 -26 55 -75q-1 -49 -25 -73q-24 -23 -60 -23t-61 28q-24 28 -24 72h-12q-106 0 -178 -82q-51 -57 -70 -143l-65 -279h436l66 279q29 121 71 194q98 172 299 172q88 0 140 -38t51 -84q0 -47 -25 -73q-26 -26 -64 -26t-60 26t-22 54t9 41
q-29 4 -45 4q-123 0 -195 -123q-41 -72 -61 -166l-62 -260h549l-221 -956q-74 -314 -317 -314q-55 0 -96 28q-39 28 -39 69t24 63t56 23q34 0 57 -24t23 -40t-2 -21q-1 -5 -1 -7q55 6 96 40q66 57 99 201l194 844h-442l-176 -766h-107l179 766h-435l-176 -766h-106l178 766
h-156l23 94h153l70 295q23 98 78 170q106 135 278 135z" />
    <glyph glyph-name="f_f_k" unicode="ffk" horiz-adv-x="2039" 
d="M1395 1247q0 53 37 80q-49 82 -154 82t-176 -82q-49 -55 -68 -143l-76 -324h422l74 314q-59 20 -59 73zM741 1460q63 0 119 -25q55 -26 55 -75q-1 -49 -25 -73q-24 -23 -60 -23t-61 28q-24 28 -24 72h-12q-106 0 -178 -82q-51 -57 -70 -143l-65 -279h434l80 340
q20 98 78 170q106 135 266 135t229 -121l64 115h65l-252 -1075q188 86 308 162t143 119q-18 8 -33 31q-14 24 -14 54t27 59q27 28 67 28t65 -27q26 -27 25 -72q0 -152 -375 -342l95 -237q33 -84 53 -107t53 -22q61 0 98 157l68 -22q-47 -217 -176 -217q-66 0 -110 39
t-76 120l-101 248l-137 -63l-78 -332h-106l178 766h-420l-176 -766h-107l179 766h-435l-176 -766h-106l178 766h-156l23 94h153l70 295q23 98 78 170q106 135 278 135z" />
    <glyph glyph-name=".notdef" horiz-adv-x="1024" 
d="M512 492l-367 -799h734zM922 1384l-353 -770l353 -770v1540zM102 -156l353 770l-353 770v-1540zM145 1536l367 -799l367 799h-734zM0 -410v2048h1024v-2048h-1024z" />
    <glyph glyph-name=".null" 
 />
    <glyph glyph-name="nonmarkingreturn" horiz-adv-x="681" 
 />
    <glyph glyph-name="space" unicode=" " horiz-adv-x="430" 
 />
    <glyph glyph-name="exclam" unicode="!" horiz-adv-x="479" 
d="M184 -16q-42 0 -72 30t-30 74q0 43 30 75t72 32t73 -32q30 -32 30 -75q0 -44 -30 -74t-73 -30zM211 336l172 1010h139l-262 -1010h-49z" />
    <glyph glyph-name="quotedbl" unicode="&#x22;" horiz-adv-x="575" 
d="M317 1372q37 0 58 -21q20 -22 20 -52t-12 -56l-168 -342h-39l53 369q14 102 88 102zM580 1372q37 0 57 -22t20 -51q0 -30 -12 -56l-168 -342h-39l54 369q14 102 88 102z" />
    <glyph glyph-name="numbersign" unicode="#" horiz-adv-x="1062" 
d="M449 672l-87 -312h283l86 312h-282zM137 672l25 94h219l72 260h94l-72 -260h283l71 260h95l-72 -260h197l-25 -94h-199l-86 -312h219l-24 -94h-219l-74 -266h-94l74 266h-285l-72 -266h-94l74 266h-197l25 94h196l86 312h-217z" />
    <glyph glyph-name="dollar" unicode="$" horiz-adv-x="944" 
d="M555 940q-93 0 -161 -46t-68 -132t153 -164l99 342h-23zM698 254q0 74 -45 116t-133 87l-108 -373q14 -2 41 -2q98 0 172 49q73 49 73 123zM907 828q-1 -54 -27 -83t-62 -29t-58 24q-22 22 -23 61q0 39 37 73q-29 33 -115 54l-108 -365q194 -96 235 -185q20 -44 21 -99
q1 -131 -105 -211t-249 -80q-25 0 -66 4l-61 -207l-84 22q23 84 59 201q-106 31 -174 92q-68 62 -68 116t27 86t65 32q39 0 61 -24t22 -60t-44 -76q35 -47 142 -76l117 394q-111 53 -173 111q-61 58 -61 165q0 106 99 186t249 80l43 -2l41 142l84 -23l-39 -133
q94 -27 154 -81q60 -55 61 -109z" />
    <glyph glyph-name="percent" unicode="%" horiz-adv-x="1239" 
d="M760 198q0 -142 118 -141q58 0 113 66t55 137q0 70 -30 106t-88 36t-113 -66t-55 -138zM518 830q0 142 -119 141q-57 0 -112 -66t-55 -137t30 -106t88 -35q58 -1 113 65t55 138zM141 -18l-57 63l1049 997l57 -63zM878 -16q-100 0 -152 57t-52 157t77 188q77 89 177 89
t152 -57t52 -157q0 -101 -76 -189q-78 -88 -178 -88zM604 830q0 -100 -76 -188q-76 -89 -178 -89q-100 0 -152 57t-52 157q0 101 76 189q78 88 178 88t152 -57t52 -157z" />
    <glyph glyph-name="ampersand" unicode="&#x26;" horiz-adv-x="1200" 
d="M795 1016q0 76 -44 120q-44 46 -127 46q-82 0 -142 -72t-60 -180t51 -201q168 75 245 143t77 144zM127 292q-1 -102 59 -161t166 -59t190 55q83 55 163 154l-189 233q-23 29 -84 109q-154 -78 -230 -154q-76 -75 -75 -177zM14 284q0 138 98 236t275 176q-68 121 -68 252
q-1 130 91 228t219 98t199 -70t73 -154q0 -84 -29 -140t-106 -117t-246 -138q14 -23 72 -92l172 -209q86 129 151 188q67 58 137 58t101 -29t31 -67t-26 -63q-26 -26 -60 -25q-70 0 -86 73q-53 -14 -168 -184q-12 -18 -19 -26l203 -244l-74 -62l-190 236
q-201 -233 -426 -234q-147 0 -236 86q-88 85 -88 223z" />
    <glyph glyph-name="quotesingle" unicode="'" horiz-adv-x="313" 
d="M317 1372q37 0 58 -21q20 -22 20 -52t-12 -56l-168 -342h-39l53 369q14 102 88 102z" />
    <glyph glyph-name="parenleft" unicode="(" horiz-adv-x="696" 
d="M164 367q0 371 202 686t523 487l51 -80q-301 -170 -480 -466t-179 -627q0 -446 329 -742l-57 -74q-389 322 -389 816z" />
    <glyph glyph-name="parenright" unicode=")" horiz-adv-x="696" 
d="M500 725q0 446 -330 741l57 74q389 -322 389 -815q0 -371 -202 -687t-523 -487l-51 80q301 170 481 466q179 296 179 628z" />
    <glyph glyph-name="asterisk" unicode="*" horiz-adv-x="778" 
d="M354 868q-69 0 -69 69q0 34 41 60l174 113l-197 55q-63 18 -63 72q0 27 18 43t47 16t55 -22l160 -129l-6 205q-2 42 18 64t52 22t50 -31q19 -31 1 -76l-78 -190l195 65q18 6 42 6t43 -18t19 -47t-26 -47t-62 -15l-203 15l125 -166q20 -27 20 -55t-20 -45t-43 -17
q-55 0 -69 64l-50 204l-114 -174q-27 -41 -60 -41z" />
    <glyph glyph-name="plus" unicode="+" horiz-adv-x="817" 
d="M559 860l-61 -268h276l-22 -98h-277l-72 -310h-102l72 310h-277l23 98h276l62 268h102z" />
    <glyph glyph-name="comma" unicode="," horiz-adv-x="376" 
d="M138 205q46 0 78 -35t32 -88q0 -102 -86 -202t-258 -156l-23 45q104 47 167 115q62 69 69 116q-37 8 -61 39t-24 69t30 67q30 30 76 30z" />
    <glyph glyph-name="hyphen" unicode="-" horiz-adv-x="499" 
d="M68 512l26 106h367l-23 -106h-370z" />
    <glyph glyph-name="period" unicode="." horiz-adv-x="376" 
d="M139 -16q-45 0 -76 32t-30 78q0 47 30 79q31 32 76 32t76 -32t31 -79q0 -46 -31 -78t-76 -32z" />
    <glyph glyph-name="slash" unicode="/" horiz-adv-x="727" 
d="M-113 -424l-94 51l1045 1886l94 -51z" />
    <glyph glyph-name="zero" unicode="0" horiz-adv-x="1140" 
d="M532 82q180 0 299 147t119 351q0 152 -88 255t-219 103q-180 0 -299 -147t-119 -351q0 -152 88 -255t219 -103zM532 -18q-190 0 -305 133t-114 323q0 240 152 420q153 180 380 180q188 0 304 -133t116 -323q0 -240 -153 -420t-380 -180z" />
    <glyph glyph-name="one" unicode="1" horiz-adv-x="761" 
d="M4 0l23 94h245l187 809l-236 -59l-2 102l334 88l39 -18l-213 -922h242l-23 -94h-596z" />
    <glyph glyph-name="two" unicode="2" horiz-adv-x="970" 
d="M801 771q0 73 -65 123t-205 50t-220 -96q49 -20 49 -78q0 -36 -24 -60t-62 -24q-36 0 -64 27t-28 69q0 102 110 182t268 78q158 0 255 -76q96 -76 96 -194q0 -119 -112 -205q-112 -87 -281 -169q-168 -82 -254 -147t-135 -157h555l41 180h100l-63 -274h-756l-12 63
q55 139 181 235t301 186t250 152t75 135z" />
    <glyph glyph-name="three" unicode="3" horiz-adv-x="980" 
d="M394 -256q-164 0 -285 72t-121 184q0 47 27 78q28 31 67 31q38 0 60 -23q22 -24 22 -50t-18 -50t-48 -31q20 -45 96 -80t202 -35q128 0 218 76t90 192t-96 190t-246 73h-38l24 96h43q186 0 302 76t116 181q0 104 -72 162t-210 58t-214 -76q55 -20 55 -63t-24 -66t-60 -23
t-62 30q-26 28 -25 67q0 92 109 161q110 69 239 68q174 0 274 -84q101 -84 101 -216t-98 -214t-259 -112q121 -39 187 -119t65 -182q0 -155 -129 -263q-128 -108 -292 -108z" />
    <glyph glyph-name="four" unicode="4" horiz-adv-x="1069" 
d="M805 582l-84 -359h240l-23 -94h-238l-86 -375h-110l86 375h-582l-8 39l829 872l72 -63l-717 -754h426l74 316z" />
    <glyph glyph-name="five" unicode="5" horiz-adv-x="976" 
d="M346 -250q-139 0 -241 66q-101 66 -101 149q0 39 26 69t64 30t61 -22t23 -62t-37 -62q59 -70 211 -70t255 100t103 232q0 134 -78 195q-79 61 -206 61t-246 -59l-43 31l205 618h602l-22 -102h-516l-136 -418q70 31 183 31q162 -1 267 -93t105 -243q0 -183 -140 -317
t-339 -134z" />
    <glyph glyph-name="six" unicode="6" horiz-adv-x="1073" 
d="M229 367q0 -127 75 -205t213 -78t240 106q101 106 101 236t-67 203q-68 74 -191 73q-160 0 -266 -104t-105 -231zM770 1303q121 -1 207 -59t86 -138q0 -45 -24 -74q-23 -28 -63 -28t-64 22t-24 62t40 65q-48 55 -184 55t-269 -129q-85 -80 -153 -217t-93 -278
q53 88 151 152t248 65q150 -1 248 -101t97 -269q0 -169 -139 -308q-140 -139 -318 -139t-289 110q-111 111 -111 323q0 211 78 405q76 194 226 338t350 143z" />
    <glyph glyph-name="seven" unicode="7" horiz-adv-x="964" 
d="M152 -252l-86 51l774 1135h-555l-49 -195h-105l68 287h768l24 -47z" />
    <glyph glyph-name="eight" unicode="8" horiz-adv-x="997" 
d="M182 328q0 -112 78 -180t204 -68t217 83t91 197t-79 184t-205 70t-216 -87t-90 -199zM350 945q0 -105 67 -173t181 -67q114 -1 200 77q85 78 85 186t-67 174q-68 64 -186 64t-199 -78t-81 -183zM456 -16q-170 0 -278 95t-106 233q0 138 91 236t234 132q-156 94 -155 270
q0 135 116 244q117 109 278 109q161 -1 257 -91t96 -223t-77 -222t-212 -126q184 -98 185 -285q1 -150 -129 -261t-300 -111z" />
    <glyph glyph-name="nine" unicode="9" horiz-adv-x="1073" 
d="M877 661q0 129 -74 205t-212 76q-139 0 -241 -106t-102 -236t68 -203q68 -74 190 -73q160 0 266 104t105 233zM342 -256q-119 0 -205 58t-86 139q0 45 24 73q23 28 63 29t64 -21t24 -63t-40 -65q47 -56 182 -56t265 119q90 82 157 217t87 270q-51 -88 -151 -154t-249 -65
q-150 1 -247 101t-97 269t140 308q139 139 317 139t289 -110t111 -324q0 -213 -72 -394q-72 -180 -176 -284t-192 -145q-89 -41 -208 -41z" />
    <glyph glyph-name="colon" unicode=":" horiz-adv-x="417" 
d="M160 -16q-45 0 -76 32t-31 78q0 47 31 79t76 32t76 -32q30 -32 30 -79t-30 -79q-31 -31 -76 -31zM283 522q-45 0 -76 32t-31 79t31 79t76 32t75 -32t31 -79q-1 -47 -31 -79t-75 -32z" />
    <glyph glyph-name="semicolon" unicode=";" horiz-adv-x="417" 
d="M53 108q0 38 30 67q30 30 76 30t78 -35t31 -88q0 -102 -86 -202t-258 -156l-22 45q104 47 167 115q62 69 68 116q-37 8 -61 39t-23 69zM283 522q-45 0 -76 32t-31 79t31 79t76 32t75 -32t31 -79q-1 -47 -31 -79t-75 -32z" />
    <glyph glyph-name="less" unicode="&#x3c;" horiz-adv-x="817" 
d="M539 172l-435 334l11 41l571 325l49 -77l-483 -275l350 -270z" />
    <glyph glyph-name="equal" unicode="=" horiz-adv-x="817" 
d="M102 322l23 98h573l-22 -98h-574zM174 627l23 98h573l-22 -98h-574z" />
    <glyph glyph-name="greater" unicode="&#x3e;" horiz-adv-x="817" 
d="M176 180l-49 78l483 274l-350 271l64 78l434 -334l-10 -41z" />
    <glyph glyph-name="question" unicode="?" horiz-adv-x="903" 
d="M240 -16q-43 0 -73 30t-30 74q0 43 30 75t73 32q42 0 72 -32t30 -75q0 -44 -30 -74t-72 -30zM858 1042q0 109 -73 168q-73 60 -171 60t-164 -34t-83 -75q23 -8 41 -31q18 -24 18 -56t-28 -58t-66 -25q-38 0 -67 31q-28 31 -27 78q0 104 116 188t266 84t251 -90t101 -246
t-153 -294q-154 -136 -409 -160l-82 -244h-74l65 332q264 8 402 120q137 112 137 252z" />
    <glyph glyph-name="at" unicode="@" horiz-adv-x="1642" 
d="M1042 489q0 211 -208 211q-104 0 -182 -99q-79 -99 -79 -213q0 -218 179 -218q122 0 206 105t84 214zM676 -356q-260 0 -419 171t-159 427q0 414 261 702t618 289q264 0 420 -158q155 -158 155 -409q0 -252 -112 -420t-271 -168q-90 0 -132 52t-31 120q-41 -80 -115 -126
q-75 -46 -175 -46t-176 79t-75 210q0 172 115 299t266 127q100 1 158 -51t71 -124l41 168h96l-112 -452q-24 -84 -4 -129t78 -45q122 0 208 152t86 358t-134 346t-359 141q-324 0 -558 -267t-235 -650q0 -215 137 -368t359 -153q178 0 330 82l34 -67q-163 -90 -366 -90z" />
    <glyph glyph-name="A" unicode="A" horiz-adv-x="1445" 
d="M508 586h487l-88 669zM-53 0l24 102h125l684 1143h-159l24 103h557l-24 -103h-156l156 -1143h145l-25 -102h-413l24 102h150l-49 381h-564l-225 -381h174l-24 -102h-424z" />
    <glyph glyph-name="B" unicode="B" horiz-adv-x="1236" 
d="M606 102q196 0 307 111q72 72 72 178t-97 181t-278 75h-155l-127 -545h278zM664 745q186 0 302 77t116 203t-107 181q-78 39 -197 39h-186l-115 -500h187zM801 1348q150 0 252 -60q145 -84 145 -252q0 -137 -97 -232t-251 -118q108 -28 180 -106t72 -189
q0 -154 -115 -258q-143 -133 -395 -133h-576l25 102h170l264 1143h-190l24 103h492z" />
    <glyph glyph-name="C" unicode="C" horiz-adv-x="1419" 
d="M729 -25q-246 0 -412 160t-165 434q0 322 226 563t531 240q225 0 355 -108q129 -109 129 -215q0 -63 -32 -99t-75 -37q-42 0 -68 24t-26 60q0 61 68 97q-18 66 -112 120t-261 54q-165 0 -313 -106t-224 -261q-76 -156 -76 -317q0 -238 128 -370t339 -132q244 0 447 192
l65 -73q-229 -226 -524 -226z" />
    <glyph glyph-name="D" unicode="D" horiz-adv-x="1464" 
d="M502 102q389 0 602 213q186 186 186 478q0 188 -108 297q-78 78 -184 116t-277 39h-129l-264 -1143h174zM731 1348q197 0 323 -45t224 -144q137 -137 137 -360q0 -328 -209 -537q-262 -262 -727 -262h-463l25 102h170l264 1143h-190l24 103h422z" />
    <glyph glyph-name="E" unicode="E" horiz-adv-x="1204" 
d="M16 0l25 102h170l264 1143h-190l24 103h967l-72 -306h-112l47 203h-547l-117 -506h447l-23 -102h-446l-125 -535h546l48 203h112l-69 -305h-949z" />
    <glyph glyph-name="F" unicode="F" horiz-adv-x="1159" 
d="M16 0l25 102h170l264 1143h-190l24 103h951l-72 -306h-113l47 203h-530l-123 -530h438l-22 -103h-439l-118 -510h200l-24 -102h-488z" />
    <glyph glyph-name="G" unicode="G" horiz-adv-x="1474" 
d="M152 526q0 336 230 591t560 255q120 0 228 -39t178 -105t71 -151q1 -55 -31 -89t-75 -34t-69 24t-25 60q0 61 67 97q-18 27 -43 45q-119 88 -288 88t-296 -66t-209 -172t-129 -237q-46 -131 -47 -263q0 -200 113 -326t311 -126q244 0 435 158l73 301h-391l25 100h503
l-151 -637h-111l27 123q-193 -147 -426 -147t-382 151q-148 152 -148 399z" />
    <glyph glyph-name="H" unicode="H" horiz-adv-x="1589" 
d="M16 0l25 102h170l264 1143h-190l24 103h477l-24 -103h-170l-115 -500h785l112 500h-190l24 103h478l-25 -103h-170l-264 -1143h190l-24 -102h-478l25 102h170l127 539h-784l-125 -539h190l-24 -102h-478z" />
    <glyph glyph-name="I" unicode="I" horiz-adv-x="714" 
d="M10 0l25 102h190l262 1143h-190l25 103h497l-24 -103h-191l-262 -1143h190l-24 -102h-498z" />
    <glyph glyph-name="J" unicode="J" horiz-adv-x="1144" 
d="M414 -25q-147 0 -251 84q-103 84 -104 230q0 70 41 119q40 49 88 49t74 -24q26 -23 25 -61q0 -38 -33 -68t-88 -21q-8 -88 65 -147q75 -58 209 -58q254 0 332 366l182 801h-231l25 103h518l-25 -103h-170l-188 -819q-47 -201 -138 -309q-120 -142 -331 -142z" />
    <glyph glyph-name="K" unicode="K" horiz-adv-x="1335" 
d="M1309 1245l-564 -475l318 -668h182l-24 -102h-240l-328 696l-235 -200l-90 -394h190l-24 -102h-478l25 102h170l264 1143h-190l24 103h477l-24 -103h-170l-141 -612l718 612h-192l22 103h488l-23 -103h-155z" />
    <glyph glyph-name="L" unicode="L" horiz-adv-x="1130" 
d="M16 0l25 102h170l264 1143h-190l24 103h488l-25 -103h-180l-264 -1143h499l52 213h112l-73 -315h-902z" />
    <glyph glyph-name="M" unicode="M" horiz-adv-x="1789" 
d="M8 0l25 102h172l315 1143h-198l24 103h313l215 -996l676 996h303l-24 -103h-176l-213 -1143h192l-24 -102h-471l24 102h166l205 1053l-686 -1001h-25l-227 1001l-279 -1053h187l-25 -102h-469z" />
    <glyph glyph-name="N" unicode="N" horiz-adv-x="1556" 
d="M1145 -6l-578 1165l-243 -1057h190l-25 -102h-473l25 102h170l264 1143h-190l24 103h289l551 -1112l231 1009h-190l24 103h465l-24 -103h-164l-289 -1251h-57z" />
    <glyph glyph-name="O" unicode="O" horiz-adv-x="1503" 
d="M721 82q258 0 439 219t181 498q0 201 -114 334q-115 133 -334 133q-258 0 -439 -219t-182 -498q0 -201 115 -334t334 -133zM711 -25q-260 0 -410 162t-149 408q0 203 95 392t271 312t385 123q260 0 410 -162t149 -407q0 -203 -95 -392t-271 -313t-385 -123z" />
    <glyph glyph-name="P" unicode="P" horiz-adv-x="1146" 
d="M653 606q201 0 309 110t107 259q0 201 -201 254q-66 16 -141 16h-135l-146 -635q98 -4 207 -4zM743 1348q261 0 373 -145q70 -91 70 -218q0 -203 -148 -342t-403 -139q-121 0 -211 4l-96 -406h190l-24 -102h-478l25 102h170l264 1143h-190l24 103h434z" />
    <glyph glyph-name="Q" unicode="Q" horiz-adv-x="1503" 
d="M721 82q258 0 439 219t181 498q0 201 -114 334q-115 133 -334 133q-258 0 -439 -219t-182 -498q0 -201 115 -334t334 -133zM1462 803q0 -185 -80 -359t-227 -299t-328 -157q49 -80 135 -129t168 -49t150 34l37 -100q-88 -43 -170 -43q-147 0 -266 79t-191 195
q-252 8 -395 168q-143 161 -143 383t95 411t271 312t385 123q259 0 409 -162t150 -407z" />
    <glyph glyph-name="R" unicode="R" horiz-adv-x="1232" 
d="M639 668q199 0 315 90t115 233q0 100 -65 166q-88 88 -297 88h-115l-133 -573q98 -4 180 -4zM713 1348q262 0 385 -123q88 -88 88 -235q0 -146 -104 -258t-291 -150l229 -480h158l-25 -102h-215l-266 567q-26 -2 -88 -2t-148 4l-108 -467h190l-24 -102h-478l25 102h170
l264 1143h-190l24 103h404z" />
    <glyph glyph-name="S" unicode="S" horiz-adv-x="1114" 
d="M979 350q0 -162 -127 -268t-313 -107q-185 1 -319 95t-134 198q0 55 31 89t74 34q43 1 69 -25t25 -57q0 -66 -64 -102q35 -53 121 -91t210 -38t217 76t93 176t-59 162t-155 122t-141 92q-132 96 -169 184q-23 54 -23 122q0 148 121 254t288 106t285 -78t117 -180
q0 -55 -30 -87t-71 -32q-40 0 -66 26q-25 27 -25 71t59 79q-90 98 -268 99q-127 0 -210 -71t-83 -169t58 -158t162 -124t147 -95q119 -86 157 -180q23 -55 23 -123z" />
    <glyph glyph-name="T" unicode="T" horiz-adv-x="1296" 
d="M311 0l25 102h180l262 1143h-375l-49 -213h-112l73 316h1092l-74 -316h-112l49 213h-375l-262 -1143h201l-25 -102h-498z" />
    <glyph glyph-name="U" unicode="U" horiz-adv-x="1482" 
d="M703 -25q-213 1 -325 107t-112 283q0 70 19 147l170 733h-191l25 103h477l-25 -103h-170l-170 -739q-16 -76 -16 -137q0 -135 79 -213t244 -78t264 98t136 258l184 811h-190l24 103h478l-25 -103h-170l-190 -829q-45 -203 -175 -322t-341 -119z" />
    <glyph glyph-name="V" unicode="V" horiz-adv-x="1413" 
d="M567 -23l-200 1268h-148l25 103h413l-24 -103h-148l160 -1087l655 1087h-161l24 103h412l-25 -103h-127l-786 -1268h-70z" />
    <glyph glyph-name="W" unicode="W" horiz-adv-x="1902" 
d="M428 -23l-45 1268h-143l24 103h414l-25 -103h-168l29 -1057l559 986h49l113 -988l557 1059h-164l25 103h411l-24 -103h-135l-674 -1268h-66l-118 957l-553 -957h-66z" />
    <glyph glyph-name="X" unicode="X" horiz-adv-x="1445" 
d="M-25 0l25 102h158l567 598l-262 545h-176l24 103h477l-24 -103h-174l215 -479l448 479h-172l25 103h477l-24 -103h-170l-535 -563l285 -580h168l-25 -102h-477l24 102h183l-234 519l-485 -519h184l-24 -102h-478z" />
    <glyph glyph-name="Y" unicode="Y" horiz-adv-x="1275" 
d="M250 0l26 102h197l111 449l-234 694h-147l26 103h426l-22 -103h-162l195 -600l489 600h-154l27 103h426l-22 -103h-142l-598 -715l-100 -428h196l-22 -102h-516z" />
    <glyph glyph-name="Z" unicode="Z" horiz-adv-x="1239" 
d="M16 0v49l1127 1202h-709l-49 -209h-113l70 306h987v-50l-1126 -1202h741l49 209h113l-70 -305h-1020z" />
    <glyph glyph-name="bracketleft" unicode="[" horiz-adv-x="677" 
d="M25 -410l444 1909h442l-22 -96h-328l-401 -1716h327l-22 -97h-440z" />
    <glyph glyph-name="backslash" unicode="\" horiz-adv-x="595" 
d="M342 -408l-133 1899l106 8l134 -1898z" />
    <glyph glyph-name="bracketright" unicode="]" horiz-adv-x="677" 
d="M-184 -410l22 97h328l401 1716h-327l22 96h440l-444 -1909h-442z" />
    <glyph glyph-name="asciicircum" unicode="^" horiz-adv-x="897" 
d="M281 772l-48 62l359 272l217 -287l-53 -47l-187 176z" />
    <glyph glyph-name="underscore" unicode="_" horiz-adv-x="1028" 
d="M-76 -287l27 107h1067l-23 -107h-1071z" />
    <glyph glyph-name="grave" unicode="`" horiz-adv-x="1024" 
d="M610 1350q38 0 78 -56l170 -229l-33 -33l-241 156q-58 39 -58 78q0 40 23 62t61 22z" />
    <glyph glyph-name="a" unicode="a" horiz-adv-x="1130" 
d="M207 342q0 -122 58 -192q57 -70 165 -70t194 72q171 146 171 380q1 110 -61 179q-62 70 -177 69q-150 0 -250 -132t-100 -306zM410 -16q-141 0 -230 96q-88 96 -88 260q0 219 137 378t324 159q115 1 189 -59t94 -165l51 217h106l-159 -655q-14 -57 -14 -85t16 -46
q18 -18 47 -18q63 0 118 135l64 -21q-66 -193 -197 -192q-68 0 -110 39t-41 98v35q-133 -176 -307 -176z" />
    <glyph glyph-name="b" unicode="b" horiz-adv-x="1073" 
d="M518 80q147 0 247 128q99 128 99 276t-62 222q-62 75 -173 74q-147 0 -257 -142t-110 -302q0 -116 68 -186t188 -70zM979 514q0 -221 -139 -376t-320 -154q-114 0 -192 59t-101 160l-49 -203h-106l327 1405h-163l22 94h270l-188 -805q129 182 307 183q143 1 237 -99
t95 -264z" />
    <glyph glyph-name="c" unicode="c" horiz-adv-x="927" 
d="M460 -16q-161 0 -265 99t-105 265q0 205 143 367t340 162q147 0 227 -70t81 -148q0 -45 -28 -75t-62 -31q-33 0 -55 18t-22 46t14 51q13 23 34 28q-51 84 -196 84q-144 0 -256 -131t-111 -299q1 -122 75 -196t216 -74t272 123l-6 -113q-135 -106 -296 -106z" />
    <glyph glyph-name="d" unicode="d" horiz-adv-x="1136" 
d="M442 80q154 0 256 138t103 300q0 119 -66 191t-180 71q-150 0 -248 -131t-98 -305q0 -120 62 -192t171 -72zM94 342q0 221 136 378t317 157q113 1 193 -59t98 -165l174 752h-164l22 94h271l-301 -1284q-14 -57 -15 -82q0 -68 62 -67q66 0 121 135l63 -21
q-66 -193 -197 -192q-66 0 -108 40t-41 103q0 18 2 29q-133 -176 -307 -176q-143 0 -235 97q-91 97 -91 261z" />
    <glyph glyph-name="e" unicode="e" horiz-adv-x="962" 
d="M559 780q-111 0 -206 -82t-136 -206h549q16 50 16 114t-56 119t-167 55zM195 346q0 -127 86 -198q85 -70 211 -70t276 80l-25 -111q-127 -63 -281 -63t-264 97t-110 263q0 217 144 375t337 158q145 0 229 -84t85 -222q0 -76 -35 -170h-651q-2 -18 -2 -55z" />
    <glyph glyph-name="f" unicode="f" horiz-adv-x="620" 
d="M711 1505q67 -1 105 -29t38 -69t-25 -66t-61 -25t-60 26t-24 71q-57 -6 -108 -57t-82 -182l-72 -314h223l-22 -94h-224l-176 -766h-106l178 766h-156l23 94h153l78 332q35 150 117 232t201 81z" />
    <glyph glyph-name="g" unicode="g" horiz-adv-x="1073" 
d="M451 96q154 0 254 133t100 295q0 119 -65 188t-181 68q-152 0 -251 -125t-99 -297q-1 -122 65 -192t177 -70zM362 -410q-82 0 -166 30q-162 58 -163 153q-1 41 23 69t64 27q40 0 62 -27q22 -26 23 -60q0 -34 -19 -58q72 -43 194 -43q244 0 316 313l43 184
q-111 -178 -309 -178q-143 0 -240 97q-96 97 -96 259q0 217 138 369t327 152q117 1 193 -61t94 -163l51 217h107l-207 -890q-43 -186 -135 -279q-112 -111 -300 -111z" />
    <glyph glyph-name="h" unicode="h" horiz-adv-x="1062" 
d="M633 877q106 1 177 -63t73 -161q0 -59 -21 -135l-82 -303q-12 -47 -12 -80t17 -51t46 -18q63 0 117 135l64 -21q-61 -193 -193 -192q-69 0 -113 41t-44 92t14 104l82 307q41 152 -30 214q-44 38 -110 38q-102 0 -204 -102t-142 -272l-94 -410h-106l327 1405h-163l22 94
h270l-196 -829q127 207 301 207z" />
    <glyph glyph-name="i" unicode="i" horiz-adv-x="577" 
d="M291 -12q-68 0 -112 41t-44 90t17 106l151 541h-172l25 94h280l-180 -645q-14 -51 -14 -82t17 -49t46 -18q63 0 119 135l63 -21q-65 -192 -196 -192zM411 1229q35 0 61 -27q26 -28 26 -64t-26 -62t-61 -27q-36 1 -62 27t-25 63q0 37 26 63t61 27z" />
    <glyph glyph-name="j" unicode="j" horiz-adv-x="507" 
d="M417 1229q35 0 61 -27q26 -28 26 -64t-26 -62t-61 -27q-36 1 -62 27t-25 63q0 37 26 63t61 27zM-96 -410q-55 0 -95 28t-40 69q-1 41 23 63t58 23q34 0 56 -24t22 -44t-2 -24q59 6 97 40q66 57 98 201l194 844h-178l25 94h280l-221 -956q-74 -314 -317 -314z" />
    <glyph glyph-name="k" unicode="k" horiz-adv-x="931" 
d="M680 790q0 30 27 59q27 28 67 28t65 -27q26 -27 25 -72q0 -152 -375 -342l95 -237q33 -84 53 -107t53 -22q61 0 98 157l68 -22q-47 -217 -176 -217q-66 0 -110 39t-76 120l-101 248l-137 -63l-78 -332h-106l327 1405h-163l22 94h270l-252 -1075q188 86 308 162t143 119
q-18 8 -33 31q-14 24 -14 54z" />
    <glyph glyph-name="l" unicode="l" horiz-adv-x="542" 
d="M268 -12q-68 0 -112 41t-43 104q0 14 14 86l276 1186h-161l22 94h268l-299 -1280q-14 -73 -14 -95q-1 -22 17 -40t47 -18q63 0 118 135l64 -21q-66 -192 -197 -192z" />
    <glyph glyph-name="m" unicode="m" horiz-adv-x="1599" 
d="M1425 653q0 -45 -24 -135l-88 -301q-43 -151 49 -151q63 0 119 135l63 -21q-66 -193 -196 -192q-68 0 -112 41t-44 91t16 107l88 305q20 76 20 126t-36 88q-37 38 -98 38q-98 0 -196 -101t-144 -275l-107 -408h-106l137 532q20 76 20 126t-37 88q-38 38 -100 38
q-98 0 -199 -102t-145 -272l-102 -410h-107l193 766h-164l25 94h264l-56 -207q139 223 308 224q100 1 160 -57t63 -158q135 214 317 214q92 0 156 -62q64 -64 63 -161z" />
    <glyph glyph-name="n" unicode="n" horiz-adv-x="1087" 
d="M836 -12q-68 0 -112 41t-44 91t16 107l88 305q20 76 20 126t-41 88q-42 38 -108 38q-102 0 -204 -101t-146 -273l-102 -410h-107l193 766h-164l25 94h264l-54 -207q139 223 312 224q106 1 174 -63t67 -161q0 -45 -24 -135l-88 -301q-41 -151 49 -151q63 0 119 135l63 -21
q-65 -192 -196 -192z" />
    <glyph glyph-name="o" unicode="o" horiz-adv-x="1028" 
d="M457 80q157 0 265 128t107 302q0 121 -72 196q-73 75 -186 74q-157 0 -265 -128t-107 -302q1 -122 73 -196t185 -74zM451 -16q-166 0 -264 106q-97 106 -97 262q0 209 142 367t346 158q166 -1 263 -107t97 -262q0 -208 -142 -366t-345 -158z" />
    <glyph glyph-name="p" unicode="p" horiz-adv-x="1103" 
d="M549 80q147 0 247 128q99 128 99 276t-62 222q-62 75 -174 74q-147 0 -257 -142t-109 -300q1 -114 69 -186t187 -72zM-127 -401l23 94h133l258 1073h-164l22 94h265l-39 -166q129 182 307 183q143 1 237 -99t95 -264q0 -221 -140 -376t-319 -154q-109 0 -190 56t-107 150
l-117 -497h189l-23 -94h-430z" />
    <glyph glyph-name="q" unicode="q" horiz-adv-x="1075" 
d="M440 80q158 0 261 140t103 278t-62 211q-62 72 -177 71q-152 0 -255 -131t-103 -303q0 -122 62 -194t171 -72zM418 -16q-141 0 -234 98q-92 98 -92 262q0 217 139 375t328 158q111 1 187 -59t98 -161l49 203h106l-272 -1167h186l-22 -94h-295l133 561
q-129 -176 -311 -176z" />
    <glyph glyph-name="r" unicode="r" horiz-adv-x="743" 
d="M647 877q49 0 77 -26t28 -66q0 -39 -29 -69t-68 -30q-74 0 -90 70q-71 -40 -153 -142t-115 -237l-94 -377h-107l193 766h-164l25 94h264l-58 -233q182 250 291 250z" />
    <glyph glyph-name="s" unicode="s" horiz-adv-x="839" 
d="M287 666q1 -46 27 -76t59 -51t101 -55t113 -62q44 -28 80 -79q36 -50 35 -112q0 -115 -86 -181t-192 -66q-204 0 -315 112q-47 48 -47 94t24 74q26 28 62 29q36 0 56 -22q20 -21 19 -55q0 -34 -33 -69q8 -10 37 -28q81 -45 173 -45t144 39t52 99t-44 98t-143 87t-147 88
q-47 37 -64 73t-18 81q0 104 82 171t232 67t239 -91q47 -43 47 -92t-24 -76q-24 -26 -59 -26q-33 0 -55 20t-22 56t27 69q-50 50 -156 50q-106 -1 -155 -39q-49 -36 -49 -82z" />
    <glyph glyph-name="t" unicode="t" horiz-adv-x="663" 
d="M248 143q0 -27 19 -46t63 -19t176 86l45 -64q-160 -116 -243 -116t-128 41t-45 102q0 29 15 90l137 549h-152l25 94h149l53 211l115 33l-61 -244h266l-25 -94h-264l-135 -551q-10 -45 -10 -72z" />
    <glyph glyph-name="u" unicode="u" horiz-adv-x="1087" 
d="M250 198q0 -52 39 -87t104 -35q102 0 205 102q102 102 145 273l103 409h106l-161 -645q-15 -57 -15 -85t18 -46t46 -18q63 0 118 135l64 -21q-66 -193 -197 -192q-67 0 -107 39t-40 106q0 27 10 74q-135 -223 -311 -223q-104 0 -170 58t-66 153q0 43 19 116l119 455h-164
l24 94h271l-146 -557q-14 -53 -14 -105z" />
    <glyph glyph-name="v" unicode="v" horiz-adv-x="935" 
d="M688 782q0 38 27 67q27 28 69 28t70 -32q29 -32 29 -89q0 -112 -150 -350t-344 -441h-41l-141 801h-162l25 94h237l111 -745q127 141 225 301t127 270q-34 6 -58 32t-24 64z" />
    <glyph glyph-name="w" unicode="w" horiz-adv-x="1331" 
d="M1067 780q0 41 27 69q26 28 68 28t71 -31t29 -80q0 -244 -396 -801h-37l-131 602l-372 -602h-39l-70 801h-158l25 94h225l51 -696l353 584h32l138 -611q248 365 268 549q-84 16 -84 94z" />
    <glyph glyph-name="x" unicode="x" horiz-adv-x="1075" 
d="M138 -12q-60 0 -90 28t-30 67q0 37 26 63t60 26q68 0 86 -74q31 10 64 47t100 127l135 185l-118 309h-176l24 94h219l115 -332l106 152q139 197 252 197q57 0 89 -29t32 -67q0 -37 -26 -63t-60 -26q-70 0 -88 74q-43 -16 -143 -150l-123 -167l104 -252q34 -80 54 -106
t43 -25q51 0 92 133l61 -19q-53 -193 -170 -192q-59 0 -95 36t-69 123l-84 232l-135 -195q-74 -106 -134 -151q-61 -45 -121 -45z" />
    <glyph glyph-name="y" unicode="y" horiz-adv-x="970" 
d="M-37 -410q-47 0 -85 30t-38 70t25 68t61 27q80 0 86 -94h11q96 0 350 311l-154 764h-160l23 94h233l138 -756q322 420 356 582q-35 10 -59 37t-25 63q0 36 27 64q28 27 68 27t69 -32t29 -89q0 -111 -100 -277q-100 -167 -312 -439q-213 -272 -330 -361t-213 -89z" />
    <glyph glyph-name="z" unicode="z" horiz-adv-x="958" 
d="M328 123q62 0 151 -22q90 -21 142 -21t82 34t65 136l63 -14q-37 -141 -79 -197q-43 -55 -142 -55q-57 0 -169 28t-169 29q-115 0 -215 -55l-39 47l740 737h-457l-43 -168h-98l63 258h676l29 -45l-719 -715q57 23 119 23z" />
    <glyph glyph-name="braceleft" unicode="{" horiz-adv-x="651" 
d="M76 -108q0 132 162 282q122 111 122 170t-41 103t-131 45h-75l28 116h76q102 0 164 52q61 52 61 124t-53 188t-53 206q0 145 127 247t371 107l-21 -84q-186 -10 -278 -90q-93 -80 -93 -168t52 -207t53 -208q-1 -89 -63 -152t-160 -78q143 -43 143 -191q0 -106 -141 -235
t-142 -228q0 -190 224 -245l-21 -82q-151 18 -231 107t-80 221z" />
    <glyph glyph-name="bar" unicode="|" horiz-adv-x="540" 
d="M221 -410v1909h98v-1909h-98z" />
    <glyph glyph-name="braceright" unicode="}" horiz-adv-x="651" 
d="M262 -90q0 88 -52 207t-52 207t62 152t161 79q-143 43 -143 190q0 105 141 235t141 228q0 190 -223 246l20 82q152 -18 232 -108t80 -221q0 -132 -162 -281q-123 -111 -123 -170q0 -60 41 -104t131 -44h76l-29 -116h-76q-102 0 -163 -52q-62 -52 -62 -125q0 -71 53 -187
t54 -206q0 -146 -127 -248t-371 -106l20 84q186 10 279 90q92 80 92 168z" />
    <glyph glyph-name="asciitilde" unicode="~" horiz-adv-x="942" 
d="M611 389q-76 0 -154 82q-55 55 -92 55q-70 0 -115 -127l-84 29q18 88 76 148t132 61q75 0 161 -86q57 -53 88 -53q66 0 112 129l86 -29q-27 -96 -81 -152t-129 -57z" />
    <glyph glyph-name="uni00A0" unicode="&#xa0;" horiz-adv-x="430" 
 />
    <glyph glyph-name="exclamdown" unicode="&#xa1;" horiz-adv-x="479" 
d="M70 0l262 1010h49l-172 -1010h-139zM408 1151q-43 0 -73 32q-30 33 -30 75t30 73t73 31q42 0 72 -31t30 -74t-30 -75t-72 -31z" />
    <glyph glyph-name="cent" unicode="&#xa2;" horiz-adv-x="950" 
d="M219 422q0 -166 148 -234l200 670q-145 -20 -247 -145t-101 -291zM479 66q-41 0 -59 4l-84 -285l-82 22l84 283q-104 37 -166 127q-61 90 -61 213q0 201 143 361t342 167l63 216l82 -23l-57 -199q106 -16 172 -80t66 -120t-28 -86t-62 -31q-34 0 -56 18t-20 46
q0 28 13 51t34 28q-45 70 -152 82l-205 -694q33 -4 52 -4q176 0 305 123l-6 -113q-136 -106 -318 -106z" />
    <glyph glyph-name="sterling" unicode="&#xa3;" horiz-adv-x="966" 
d="M572 -172q100 0 210 82l49 -72q-117 -104 -282 -104q-85 0 -221 52t-193 52q-90 -96 -178 -96q-29 0 -49 18t-21 47q0 53 66 83t162 28q152 135 168 340h-207l22 90h185q-18 221 -19 238q0 200 104 328t285 128q123 0 206 -65t83 -141q0 -47 -26 -78t-60 -31t-58 22
q-22 21 -22 65t39 65q-10 27 -58 47t-108 20q-137 0 -212 -97t-75 -265l17 -236h354l-22 -90h-332q-10 -217 -172 -346q45 -6 155 -45t210 -39z" />
    <glyph glyph-name="yen" unicode="&#xa5;" horiz-adv-x="985" 
d="M164 453l20 88h226l-160 391h-117l23 94h352l-19 -94h-141l162 -406l344 406h-137l22 94h357l-21 -94h-108l-338 -391h211l-21 -88h-284l-27 -117h283l-21 -88h-283l-34 -154h157l-22 -94h-404l23 94h155l35 154h-280l20 88h281l26 117h-280z" />
    <glyph glyph-name="section" unicode="&#xa7;" horiz-adv-x="847" 
d="M233 518q0 -60 131 -112q48 -20 64 -26q16 -7 21 -9q207 37 206 133q0 40 -43 68t-127 61l-53 20q-92 -16 -145 -54t-54 -81zM526 954q-58 0 -103 -26q-46 -26 -46 -63q1 -35 25 -61t56 -41t98 -43t108 -50q40 -22 74 -61q34 -40 34 -89q0 -143 -235 -192q90 -58 90 -144
t-77 -144t-203 -58q-127 0 -197 52t-70 116q0 36 22 60t53 24q32 0 52 -21q20 -20 20 -50t-20 -50q37 -37 124 -37t133 26t46 66q0 41 -41 70q-41 30 -122 62t-122 54t-75 62t-35 100q0 60 65 110q66 50 172 70q-90 58 -90 146t77 144t200 56t195 -54t73 -116q0 -34 -22 -58
q-23 -24 -53 -24t-50 22t-20 52t20 51q-14 15 -56 27t-100 12z" />
    <glyph glyph-name="dieresis" unicode="&#xa8;" horiz-adv-x="1024" 
d="M524 1075q-44 0 -72 31t-28 74q0 44 29 74t71 30t72 -31q29 -31 29 -73t-29 -74q-29 -31 -72 -31zM852 1075q-43 0 -72 31t-28 74q0 44 28 74t72 30q43 0 72 -31q28 -31 28 -73t-28 -74q-28 -31 -72 -31z" />
    <glyph glyph-name="copyright" unicode="&#xa9;" horiz-adv-x="1224" 
d="M640 250q-124 0 -201 77t-77 195t80 195q80 78 178 78t154 -41q57 -41 57 -86q0 -23 -14 -40q-15 -18 -35 -18t-33 14t-14 33q0 20 10 31q-29 41 -113 41t-137 -60q-55 -59 -55 -145t56 -146t143 -60q86 0 158 67l43 -51q-76 -84 -200 -84zM612 49q188 0 314 135
q125 135 125 330t-125 330q-126 135 -314 135t-313 -135t-125 -330t125 -330t313 -135zM612 -16q-221 0 -367 154q-147 154 -147 375q0 222 146 376q146 153 368 153q221 0 368 -153q146 -154 146 -376t-146 -376q-147 -153 -368 -153z" />
    <glyph glyph-name="ordfeminine" unicode="&#xaa;" horiz-adv-x="694" 
d="M59 625l21 75h543l-21 -75h-543zM330 911q88 0 146 78t58 155t-35 117q-36 39 -109 39t-131 -74t-58 -155q0 -160 129 -160zM324 836q-98 0 -154 58q-55 58 -55 175t86 212q85 95 207 95t161 -114l27 108h78l-92 -385q-6 -27 -7 -47q0 -35 31 -35q37 0 72 80l49 -22
q-43 -123 -129 -123q-96 0 -100 98q-76 -100 -174 -100z" />
    <glyph glyph-name="guillemotleft" unicode="&#xab;" horiz-adv-x="921" 
d="M356 233l-266 328l410 322l57 -66l-324 -276l191 -256zM705 233l-267 328l410 322l57 -66l-323 -276l190 -256z" />
    <glyph glyph-name="registered" unicode="&#xae;" horiz-adv-x="790" 
d="M500 1069h37q80 0 79 59q0 55 -79 56h-37v-115zM399 883v53h41v248h-41v53h140q61 0 100 -28q39 -27 39 -87t-68 -88l56 -98h41v-53h-82l-74 135h-51v-82h47v-53h-148zM541 1358q-125 0 -210 -88t-85 -216t85 -216t208 -88t210 89t87 216t-85 215t-210 88zM905 1054
q0 -154 -106 -260t-259 -106t-258 106q-106 106 -106 260q0 153 106 259t258 106q153 0 259 -106t106 -259z" />
    <glyph glyph-name="macron" unicode="&#xaf;" horiz-adv-x="1024" 
d="M375 1106l26 106h588l-22 -106h-592z" />
    <glyph glyph-name="degree" unicode="&#xb0;" horiz-adv-x="659" 
d="M408 942q66 0 120 66q56 66 56 136t-37 110t-103 40t-120 -66q-56 -66 -56 -136t37 -110t103 -40zM402 862q-104 0 -160 62t-56 164t80 194t184 92t160 -61t56 -164t-80 -195t-184 -92z" />
    <glyph glyph-name="plusminus" unicode="&#xb1;" horiz-adv-x="817" 
d="M6 33l23 98h653l-23 -98h-653zM594 948l-66 -278h279l-23 -99h-278l-64 -278h-102l63 278h-274l23 99h274l66 278h102z" />
    <glyph glyph-name="two.sup" unicode="&#xb2;" horiz-adv-x="722" 
d="M741 1445q0 50 -38 80t-99 29q-113 0 -151 -57q25 -25 25 -51t-18 -44q-17 -18 -45 -18t-45 20t-18 52q0 64 73 122t179 58t168 -52t64 -134q0 -82 -58 -137t-184 -123q-203 -113 -264 -234h325l27 117h80l-43 -192h-488l-16 41q45 110 126 186t197 138t160 106
q43 44 43 93z" />
    <glyph glyph-name="three.sup" unicode="&#xb3;" horiz-adv-x="722" 
d="M770 1085q0 -99 -80 -157t-188 -58t-179 48t-71 112q0 28 18 50t44 22t42 -16t16 -45q0 -28 -28 -42q40 -51 138 -51t147 39t49 97t-55 100t-140 41h-28l18 80h31q102 0 163 38q60 39 60 97t-43 86t-116 28t-101 -34q20 -10 20 -36t-17 -42t-43 -16t-43 18t-17 49
q0 55 62 98q63 43 163 43t165 -52t65 -132t-60 -129q-59 -49 -150 -61q72 -18 115 -64t43 -111z" />
    <glyph glyph-name="acute" unicode="&#xb4;" horiz-adv-x="1024" 
d="M851 1350q34 0 54 -22t21 -48q0 -59 -76 -88l-389 -158l-23 39l340 246q39 31 73 31z" />
    <glyph glyph-name="paragraph" unicode="&#xb6;" horiz-adv-x="1150" 
d="M557 90h111l225 846h-111zM537 383q-281 0 -390 106q-66 66 -65 166q0 178 150 276q151 97 384 97l558 -2l-25 -94h-156l-225 -838h156l-25 -94h-631l25 90h164q76 293 80 293z" />
    <glyph glyph-name="periodcentered" unicode="&#xb7;" horiz-adv-x="376" 
d="M215 451q-45 -1 -76 31t-30 79q0 47 30 79q31 32 76 32t76 -32t31 -79t-31 -79t-76 -31z" />
    <glyph glyph-name="cedilla" unicode="&#xb8;" horiz-adv-x="1024" 
d="M369 -408q-131 0 -236 86l41 58q29 -20 85 -38t103 -20q92 0 93 70q0 31 -36 50t-95 9l-29 29l113 209l59 -16l-51 -138q72 -8 110 -48q38 -41 37 -103q0 -62 -57 -105t-137 -43z" />
    <glyph glyph-name="one.sup" unicode="&#xb9;" horiz-adv-x="722" 
d="M233 881l19 80h209l133 571l-211 -41v82l276 59l41 -20l-149 -651h205l-19 -80h-504z" />
    <glyph glyph-name="ordmasculine" unicode="&#xba;" horiz-adv-x="679" 
d="M592 1132q0 166 -152 166q-74 0 -134 -68q-58 -69 -58 -150t39 -124t113 -43t134 69q58 69 58 150zM90 625l21 75h467l-21 -75h-467zM396 838q-112 0 -172 63q-58 63 -58 175t83 205t195 93t171 -63t59 -175t-83 -205t-195 -93z" />
    <glyph glyph-name="guillemotright" unicode="&#xbb;" horiz-adv-x="921" 
d="M141 231l-57 66l324 276l-191 256l68 52l266 -328zM489 231l-57 66l324 276l-191 256l68 52l266 -328z" />
    <glyph glyph-name="onequarter" unicode="&#xbc;" horiz-adv-x="1628" 
d="M373 -25l-56 48q37 45 264 312t828 992l55 -47q-152 -184 -551 -651q-61 -74 -540 -654zM145 573l19 80h209l133 572l-211 -41v82l276 59l41 -20l-149 -652h205l-19 -80h-504zM1231 72l35 145h-340l-11 39l494 506l55 -51l-420 -424h240l39 157l90 35l-43 -188h125
l-18 -74h-125l-33 -145h100l-16 -72h-320l17 72h131z" />
    <glyph glyph-name="onehalf" unicode="&#xbd;" horiz-adv-x="1628" 
d="M340 -25l-55 48q47 58 551 651q61 74 540 653l56 -47q-37 -45 -309 -365q-272 -321 -783 -940zM123 573l18 80h209l133 572l-211 -41v82l277 59l41 -20l-150 -652h205l-18 -80h-504zM1446 564q0 50 -38 80t-99 30q-113 0 -152 -58q25 -26 25 -52t-18 -43t-45 -17
q-28 0 -45 19t-17 52q0 63 72 122q73 59 179 59t170 -52q62 -52 62 -135q0 -82 -58 -137t-184 -123q-203 -113 -264 -233h326l26 117h80l-43 -193h-487l-16 41q45 111 126 187q82 76 198 138t159 105t43 93z" />
    <glyph glyph-name="threequarters" unicode="&#xbe;" horiz-adv-x="1628" 
d="M352 -25l-55 48q37 45 264 312t828 992l55 -47q-37 -45 -309 -365q-272 -321 -783 -940zM1214 72l35 145h-340l-10 39l494 506l55 -51l-420 -424h240l39 157l90 35l-43 -188h125l-19 -74h-125l-32 -145h100l-17 -72h-319l16 72h131zM694 778q0 -98 -80 -156t-188 -59
q-106 0 -178 47t-72 113q0 29 18 51t45 21q26 -1 42 -17t16 -44t-29 -42q40 -51 138 -51t147 39t49 97q0 57 -55 99t-139 42h-29l18 79h31q102 0 163 39q60 38 60 96t-43 87q-44 29 -116 29t-101 -36q21 -10 21 -36t-18 -41q-18 -17 -43 -17q-26 0 -43 18t-17 50q0 55 62 98
q63 43 163 43t165 -52t65 -132t-60 -129q-59 -49 -149 -62q73 -18 115 -64t42 -110z" />
    <glyph glyph-name="questiondown" unicode="&#xbf;" horiz-adv-x="903" 
d="M406 -16q-150 0 -251 90t-102 231q0 172 154 308t409 161l82 244h74l-65 -332q-263 -8 -401 -120t-138 -253q0 -109 73 -168t171 -59t165 34t82 75q-23 9 -41 31t-18 54t28 59q28 26 66 26t67 -31q28 -31 27 -78q0 -104 -116 -188t-266 -84zM786 1161q-42 0 -72 32
t-30 75q0 44 30 74t72 30t73 -31q30 -31 30 -73t-30 -75q-30 -32 -73 -32z" />
    <glyph glyph-name="Agrave" unicode="&#xc0;" horiz-adv-x="1445" 
d="M824 1780q38 0 79 -56l170 -229l-33 -33l-241 156q-57 39 -57 78q0 40 22 62t60 22zM508 586h487l-88 669zM-53 0l24 102h125l684 1143h-159l24 103h557l-24 -103h-156l156 -1143h145l-25 -102h-413l24 102h150l-49 381h-564l-225 -381h174l-24 -102h-424z" />
    <glyph glyph-name="Aacute" unicode="&#xc1;" horiz-adv-x="1445" 
d="M1265 1780q34 0 54 -22t20 -48q0 -59 -75 -88l-390 -158l-22 39l340 246q39 31 73 31zM508 586h487l-88 669zM-53 0l24 102h125l684 1143h-159l24 103h557l-24 -103h-156l156 -1143h145l-25 -102h-413l24 102h150l-49 381h-564l-225 -381h174l-24 -102h-424z" />
    <glyph glyph-name="Acircumflex" unicode="&#xc2;" horiz-adv-x="1445" 
d="M715 1462l-47 62l358 272l217 -287l-53 -47l-186 176zM508 586h487l-88 669zM-53 0l24 102h125l684 1143h-159l24 103h557l-24 -103h-156l156 -1143h145l-25 -102h-413l24 102h150l-49 381h-564l-225 -381h174l-24 -102h-424z" />
    <glyph glyph-name="Atilde" unicode="&#xc3;" horiz-adv-x="1445" 
d="M1086 1462q-76 0 -154 82q-55 55 -98 55q-72 0 -117 -124l-76 24q19 87 77 149t134 62t154 -82q53 -55 98 -55q72 0 117 125l75 -25q-18 -87 -76 -149t-134 -62zM508 586h487l-88 669zM-53 0l24 102h125l684 1143h-159l24 103h557l-24 -103h-156l156 -1143h145l-25 -102
h-413l24 102h150l-49 381h-564l-225 -381h174l-24 -102h-424z" />
    <glyph glyph-name="Adieresis" unicode="&#xc4;" horiz-adv-x="1445" 
d="M827 1505q-43 0 -71 31t-29 74q0 44 29 74q30 30 72 30t71 -31t29 -73t-29 -74q-29 -31 -72 -31zM1155 1505q-43 0 -72 31t-28 74q1 44 29 74t71 30t72 -31t29 -73t-30 -74q-28 -31 -71 -31zM508 586h487l-88 669zM-53 0l24 102h125l684 1143h-159l24 103h557l-24 -103
h-156l156 -1143h145l-25 -102h-413l24 102h150l-49 381h-564l-225 -381h174l-24 -102h-424z" />
    <glyph glyph-name="Aring" unicode="&#xc5;" horiz-adv-x="1445" 
d="M508 586h487l-88 669zM1061 1516q0 54 -27 82q-26 30 -74 30t-88 -46t-38 -99q0 -53 26 -83t75 -30q48 0 87 46t39 100zM969 1708q86 0 130 -49t44 -117t-32 -122q-32 -52 -81 -72h172l-24 -103h-156l156 -1143h145l-25 -102h-413l24 102h150l-49 381h-564l-225 -381h174
l-24 -102h-424l24 102h125l684 1143h-159l24 103h176q-67 47 -67 135q0 89 64 157t151 68z" />
    <glyph glyph-name="AE" unicode="&#xc6;" horiz-adv-x="1847" 
d="M594 584h391l156 667h-41zM-88 0l25 102h169l867 1143h-178l24 103h1100l-72 -306h-112l47 203h-527l-116 -506h426l-23 -102h-426l-125 -535h527l47 203h112l-69 -305h-928l25 102h169l89 381h-445l-289 -381h199l-25 -102h-491z" />
    <glyph glyph-name="Ccedilla" unicode="&#xc7;" horiz-adv-x="1419" 
d="M594 -408q-131 0 -236 86l41 58q29 -20 85 -38t104 -20q92 0 92 70q0 31 -36 50t-95 9l-29 29l82 152q-201 40 -326 192t-124 389q0 322 226 563t531 240q225 0 355 -108q129 -109 129 -215q0 -63 -32 -99t-75 -37q-42 0 -68 24t-26 60q0 61 68 97q-18 66 -112 120
t-261 54q-165 0 -313 -106t-224 -261q-76 -156 -76 -317q0 -238 128 -370t339 -132q244 0 447 192l65 -73q-229 -225 -524 -226q-18 0 -55 5l-33 -89q72 -8 110 -48t37 -89q0 -76 -57 -119t-137 -43z" />
    <glyph glyph-name="Egrave" unicode="&#xc8;" horiz-adv-x="1204" 
d="M696 1780q38 0 78 -56l170 -229l-33 -33l-241 156q-58 39 -58 78q0 40 23 62t61 22zM16 0l25 102h170l264 1143h-190l24 103h967l-72 -306h-112l47 203h-547l-117 -506h447l-23 -102h-446l-125 -535h546l48 203h112l-69 -305h-949z" />
    <glyph glyph-name="Eacute" unicode="&#xc9;" horiz-adv-x="1204" 
d="M1135 1780q33 0 55 -22t20 -48q0 -59 -75 -88l-390 -158l-22 39l340 246q39 31 72 31zM16 0l25 102h170l264 1143h-190l24 103h967l-72 -306h-112l47 203h-547l-117 -506h447l-23 -102h-446l-125 -535h546l48 203h112l-69 -305h-949z" />
    <glyph glyph-name="Ecircumflex" unicode="&#xca;" horiz-adv-x="1204" 
d="M586 1462l-47 62l358 272l217 -287l-53 -47l-187 176zM16 0l25 102h170l264 1143h-190l24 103h967l-72 -306h-112l47 203h-547l-117 -506h447l-23 -102h-446l-125 -535h546l48 203h112l-69 -305h-949z" />
    <glyph glyph-name="Edieresis" unicode="&#xcb;" horiz-adv-x="1204" 
d="M698 1505q-44 0 -72 31t-28 74q0 44 29 74t71 30t72 -31q29 -31 29 -73t-29 -74q-29 -31 -72 -31zM1026 1505q-43 0 -72 31t-28 74q0 44 28 74t72 30q43 0 72 -31q28 -31 28 -73t-28 -74q-28 -31 -72 -31zM16 0l25 102h170l264 1143h-190l24 103h967l-72 -306h-112
l47 203h-547l-117 -506h447l-23 -102h-446l-125 -535h546l48 203h112l-69 -305h-949z" />
    <glyph glyph-name="Igrave" unicode="&#xcc;" horiz-adv-x="714" 
d="M381 1696q1 40 23 62t60 22t79 -56l170 -229l-33 -33l-242 156q-57 39 -57 78zM10 0l25 102h190l262 1143h-190l25 103h497l-24 -103h-191l-262 -1143h190l-24 -102h-498z" />
    <glyph glyph-name="Iacute" unicode="&#xcd;" horiz-adv-x="714" 
d="M904 1780q34 0 54 -22t21 -48q0 -59 -76 -88l-389 -158l-22 39l339 246q39 31 73 31zM10 0l25 102h190l262 1143h-190l25 103h497l-24 -103h-191l-262 -1143h190l-24 -102h-498z" />
    <glyph glyph-name="Icircumflex" unicode="&#xce;" horiz-adv-x="714" 
d="M354 1462l-47 62l359 272l217 -287l-54 -47l-186 176zM10 0l25 102h190l262 1143h-190l25 103h497l-24 -103h-191l-262 -1143h190l-24 -102h-498z" />
    <glyph glyph-name="Idieresis" unicode="&#xcf;" horiz-adv-x="714" 
d="M467 1505q-43 0 -72 31t-28 74q1 44 29 74t71 30t72 -31t29 -73t-30 -74q-28 -31 -71 -31zM795 1505q-43 0 -72 31t-29 74q0 44 29 74t72 30t71 -31t29 -73q-1 -42 -29 -74q-28 -31 -71 -31zM10 0l25 102h190l262 1143h-190l25 103h497l-24 -103h-191l-262 -1143h190
l-24 -102h-498z" />
    <glyph glyph-name="Eth" unicode="&#xd0;" horiz-adv-x="1464" 
d="M502 102q389 0 602 213q186 186 186 478q0 188 -108 297q-78 78 -184 116t-277 39h-129l-117 -504h277l-25 -102h-276l-123 -537h174zM731 1348q197 0 323 -45t224 -144q137 -137 137 -360q0 -328 -209 -537q-262 -262 -727 -262h-463l25 102h170l123 537h-176l24 102
h176l117 504h-190l24 103h422z" />
    <glyph glyph-name="Ntilde" unicode="&#xd1;" horiz-adv-x="1556" 
d="M1139 1462q-76 0 -154 82q-55 55 -98 55q-72 0 -117 -124l-76 24q18 87 76 149t135 62q76 0 154 -82q53 -55 98 -55q72 0 117 125l76 -25q-18 -87 -76 -149t-135 -62zM1145 -6l-578 1165l-243 -1057h190l-25 -102h-473l25 102h170l264 1143h-190l24 103h289l551 -1112
l231 1009h-190l24 103h465l-24 -103h-164l-289 -1251h-57z" />
    <glyph glyph-name="Ograve" unicode="&#xd2;" horiz-adv-x="1503" 
d="M774 1696q0 40 23 62t61 22t78 -56l170 -229l-33 -33l-242 156q-57 39 -57 78zM721 82q258 0 439 219t181 498q0 201 -114 334q-115 133 -334 133q-258 0 -439 -219t-182 -498q0 -201 115 -334t334 -133zM711 -25q-260 0 -410 162t-149 408q0 203 95 392t271 312t385 123
q260 0 410 -162t149 -407q0 -203 -95 -392t-271 -313t-385 -123z" />
    <glyph glyph-name="Oacute" unicode="&#xd3;" horiz-adv-x="1503" 
d="M1298 1780q34 0 54 -22t20 -48q0 -59 -76 -88l-389 -158l-22 39l340 246q39 31 73 31zM721 82q258 0 439 219t181 498q0 201 -114 334q-115 133 -334 133q-258 0 -439 -219t-182 -498q0 -201 115 -334t334 -133zM711 -25q-260 0 -410 162t-149 408q0 203 95 392t271 312
t385 123q260 0 410 -162t149 -407q0 -203 -95 -392t-271 -313t-385 -123z" />
    <glyph glyph-name="Ocircumflex" unicode="&#xd4;" horiz-adv-x="1503" 
d="M748 1462l-48 62l359 272l217 -287l-53 -47l-187 176zM721 82q258 0 439 219t181 498q0 201 -114 334q-115 133 -334 133q-258 0 -439 -219t-182 -498q0 -201 115 -334t334 -133zM711 -25q-260 0 -410 162t-149 408q0 203 95 392t271 312t385 123q260 0 410 -162
t149 -407q0 -203 -95 -392t-271 -313t-385 -123z" />
    <glyph glyph-name="Otilde" unicode="&#xd5;" horiz-adv-x="1503" 
d="M1118 1462q-76 0 -153 82q-55 55 -99 55q-72 0 -116 -124l-76 24q18 87 76 149t134 62t154 -82q53 -55 99 -55q72 0 116 125l76 -25q-19 -87 -77 -149t-134 -62zM721 82q258 0 439 219t181 498q0 201 -114 334q-115 133 -334 133q-258 0 -439 -219t-182 -498
q0 -201 115 -334t334 -133zM711 -25q-260 0 -410 162t-149 408q0 203 95 392t271 312t385 123q260 0 410 -162t149 -407q0 -203 -95 -392t-271 -313t-385 -123z" />
    <glyph glyph-name="Odieresis" unicode="&#xd6;" horiz-adv-x="1503" 
d="M860 1505q-43 0 -72 31t-28 74q0 44 28 74t72 30q43 0 72 -31t29 -73t-29 -74q-29 -31 -72 -31zM1188 1505q-43 0 -72 31t-29 74q0 44 29 74t72 30t72 -31q28 -31 28 -73t-28 -74q-28 -31 -72 -31zM721 82q258 0 439 219t181 498q0 201 -114 334q-115 133 -334 133
q-258 0 -439 -219t-182 -498q0 -201 115 -334t334 -133zM711 -25q-260 0 -410 162t-149 408q0 203 95 392t271 312t385 123q260 0 410 -162t149 -407q0 -203 -95 -392t-271 -313t-385 -123z" />
    <glyph glyph-name="multiply" unicode="&#xd7;" horiz-adv-x="817" 
d="M272 838l168 -220l258 207l66 -82l-258 -208l170 -218l-86 -69l-170 219l-256 -207l-66 82l258 207l-170 219z" />
    <glyph glyph-name="Oslash" unicode="&#xd8;" horiz-adv-x="1503" 
d="M721 80q260 0 441 220t181 499q0 129 -45 227l-929 -795q121 -151 352 -151zM270 549q0 -127 45 -230l930 797q-121 152 -352 152q-259 0 -441 -220t-182 -499zM711 -25q-276 0 -428 183l-207 -176l-68 81l215 183q-71 130 -71 316t95 375t271 312t385 123
q272 0 428 -182l213 182l70 -80l-223 -190q71 -134 71 -318t-95 -373t-271 -313t-385 -123z" />
    <glyph glyph-name="Ugrave" unicode="&#xd9;" horiz-adv-x="1482" 
d="M828 1780q38 0 79 -56l170 -229l-33 -33l-241 156q-57 39 -57 78q0 40 22 62t60 22zM703 -25q-213 1 -325 107t-112 283q0 70 19 147l170 733h-191l25 103h477l-25 -103h-170l-170 -739q-16 -76 -16 -137q0 -135 79 -213t244 -78t264 98t136 258l184 811h-190l24 103h478
l-25 -103h-170l-190 -829q-45 -203 -175 -322t-341 -119z" />
    <glyph glyph-name="Uacute" unicode="&#xda;" horiz-adv-x="1482" 
d="M1269 1780q34 0 54 -22t20 -48q0 -59 -75 -88l-389 -158l-23 39l340 246q39 31 73 31zM703 -25q-213 1 -325 107t-112 283q0 70 19 147l170 733h-191l25 103h477l-25 -103h-170l-170 -739q-16 -76 -16 -137q0 -135 79 -213t244 -78t264 98t136 258l184 811h-190l24 103
h478l-25 -103h-170l-190 -829q-45 -203 -175 -322t-341 -119z" />
    <glyph glyph-name="Ucircumflex" unicode="&#xdb;" horiz-adv-x="1482" 
d="M721 1462l-47 62l358 272l217 -287l-53 -47l-186 176zM703 -25q-213 1 -325 107t-112 283q0 70 19 147l170 733h-191l25 103h477l-25 -103h-170l-170 -739q-16 -76 -16 -137q0 -135 79 -213t244 -78t264 98t136 258l184 811h-190l24 103h478l-25 -103h-170l-190 -829
q-45 -203 -175 -322t-341 -119z" />
    <glyph glyph-name="Udieresis" unicode="&#xdc;" horiz-adv-x="1482" 
d="M831 1505q-43 0 -71 31t-29 74q0 44 29 74q30 30 72 30t71 -31t29 -73t-29 -74q-29 -31 -72 -31zM1159 1505q-43 0 -72 31t-28 74q1 44 29 74t71 30t72 -31t29 -73t-29 -74q-29 -31 -72 -31zM703 -25q-213 1 -325 107t-112 283q0 70 19 147l170 733h-191l25 103h477
l-25 -103h-170l-170 -739q-16 -76 -16 -137q0 -135 79 -213t244 -78t264 98t136 258l184 811h-190l24 103h478l-25 -103h-170l-190 -829q-45 -203 -175 -322t-341 -119z" />
    <glyph glyph-name="Yacute" unicode="&#xdd;" horiz-adv-x="1275" 
d="M1159 1780q33 0 55 -22t21 -48q0 -59 -76 -88l-389 -158l-22 39l339 246q39 31 72 31zM250 0l26 102h197l111 449l-234 694h-147l26 103h426l-22 -103h-162l195 -600l489 600h-154l27 103h426l-22 -103h-142l-598 -715l-100 -428h196l-22 -102h-516z" />
    <glyph glyph-name="Thorn" unicode="&#xde;" horiz-adv-x="1167" 
d="M655 981h-125l-135 -594q99 -4 203 -4q203 0 308 94t106 250q0 254 -357 254zM662 1083q258 0 376 -114q90 -88 90 -238q0 -199 -147 -325t-401 -125q-119 0 -209 4l-43 -183h190l-24 -102h-478l25 102h170l264 1143h-190l24 103h477l-24 -103h-170l-37 -162h107z" />
    <glyph glyph-name="germandbls" unicode="&#xdf;" horiz-adv-x="1089" 
d="M676 -14q-90 0 -172 52t-82 132q0 39 24 68q25 28 62 28q36 0 60 -24t24 -57q0 -34 -31 -64q8 -17 45 -31t76 -14q86 0 139 56t53 145t-131 217q-73 72 -107 124t-34 123q0 72 39 125q39 52 103 98t94 72q29 26 57 78q29 53 29 122t-58 121t-140 52q-84 0 -150 -72
t-93 -202l-260 -1135h-106l176 766h-154l23 94h153l66 289q39 174 134 265t221 91t209 -78t83 -180t-33 -170q-33 -67 -69 -101t-102 -80q-64 -46 -92 -80t-28 -86t123 -171q150 -145 150 -277t-79 -214t-222 -82z" />
    <glyph glyph-name="agrave" unicode="&#xe0;" horiz-adv-x="1130" 
d="M459 1266q1 40 23 62t60 22t79 -56l170 -229l-33 -33l-242 156q-57 39 -57 78zM207 342q0 -122 58 -192q57 -70 165 -70t194 72q171 146 171 380q1 110 -61 179q-62 70 -177 69q-150 0 -250 -132t-100 -306zM410 -16q-141 0 -230 96q-88 96 -88 260q0 219 137 378
t324 159q115 1 189 -59t94 -165l51 217h106l-159 -655q-14 -57 -14 -85t16 -46q18 -18 47 -18q63 0 118 135l64 -21q-66 -193 -197 -192q-68 0 -110 39t-41 98v35q-133 -176 -307 -176z" />
    <glyph glyph-name="aacute" unicode="&#xe1;" horiz-adv-x="1130" 
d="M982 1350q34 0 54 -22t21 -48q0 -59 -76 -88l-389 -158l-23 39l340 246q39 31 73 31zM207 342q0 -122 58 -192q57 -70 165 -70t194 72q171 146 171 380q1 110 -61 179q-62 70 -177 69q-150 0 -250 -132t-100 -306zM410 -16q-141 0 -230 96q-88 96 -88 260q0 219 137 378
t324 159q115 1 189 -59t94 -165l51 217h106l-159 -655q-14 -57 -14 -85t16 -46q18 -18 47 -18q63 0 118 135l64 -21q-66 -193 -197 -192q-68 0 -110 39t-41 98v35q-133 -176 -307 -176z" />
    <glyph glyph-name="acircumflex" unicode="&#xe2;" horiz-adv-x="1130" 
d="M432 1032l-47 62l358 272l218 -287l-54 -47l-186 176zM207 342q0 -122 58 -192q57 -70 165 -70t194 72q171 146 171 380q1 110 -61 179q-62 70 -177 69q-150 0 -250 -132t-100 -306zM410 -16q-141 0 -230 96q-88 96 -88 260q0 219 137 378t324 159q115 1 189 -59t94 -165
l51 217h106l-159 -655q-14 -57 -14 -85t16 -46q18 -18 47 -18q63 0 118 135l64 -21q-66 -193 -197 -192q-68 0 -110 39t-41 98v35q-133 -176 -307 -176z" />
    <glyph glyph-name="atilde" unicode="&#xe3;" horiz-adv-x="1130" 
d="M803 1032q-76 0 -154 82q-55 55 -98 55q-72 0 -117 -125l-76 25q18 87 76 149t135 62t141 -68t111 -69q72 0 117 125l76 -25q-18 -87 -76 -149t-135 -62zM207 342q0 -122 58 -192q57 -70 165 -70t194 72q171 146 171 380q1 110 -61 179q-62 70 -177 69q-150 0 -250 -132
t-100 -306zM410 -16q-141 0 -230 96q-88 96 -88 260q0 219 137 378t324 159q115 1 189 -59t94 -165l51 217h106l-159 -655q-14 -57 -14 -85t16 -46q18 -18 47 -18q63 0 118 135l64 -21q-66 -193 -197 -192q-68 0 -110 39t-41 98v35q-133 -176 -307 -176z" />
    <glyph glyph-name="adieresis" unicode="&#xe4;" horiz-adv-x="1130" 
d="M543 1075q-43 0 -72 31t-29 74q0 44 29 74t72 30t71 -31t29 -73q-1 -42 -29 -74q-28 -31 -71 -31zM870 1075q-44 0 -72 31t-28 74q0 44 29 74t71 30t72 -31q29 -31 29 -73t-29 -74q-29 -31 -72 -31zM207 342q0 -122 58 -192q57 -70 165 -70t194 72q171 146 171 380
q1 110 -61 179q-62 70 -177 69q-150 0 -250 -132t-100 -306zM410 -16q-141 0 -230 96q-88 96 -88 260q0 219 137 378t324 159q115 1 189 -59t94 -165l51 217h106l-159 -655q-14 -57 -14 -85t16 -46q18 -18 47 -18q63 0 118 135l64 -21q-66 -193 -197 -192q-68 0 -110 39
t-41 98v35q-133 -176 -307 -176z" />
    <glyph glyph-name="aring" unicode="&#xe5;" horiz-adv-x="1130" 
d="M606 1210q0 -54 26 -82q26 -30 75 -30q48 0 88 46q39 46 39 99t-27 83t-75 30t-87 -46t-39 -100zM740 1436q86 0 130 -50t45 -136q-1 -86 -65 -159t-150 -73t-131 49t-45 136t65 160t151 73zM207 342q0 -122 58 -192q57 -70 165 -70t194 72q171 146 171 380
q1 110 -61 179q-62 70 -177 69q-150 0 -250 -132t-100 -306zM410 -16q-141 0 -230 96q-88 96 -88 260q0 219 137 378t324 159q115 1 189 -59t94 -165l51 217h106l-159 -655q-14 -57 -14 -85t16 -46q18 -18 47 -18q63 0 118 135l64 -21q-66 -193 -197 -192q-68 0 -110 39
t-41 98v35q-133 -176 -307 -176z" />
    <glyph glyph-name="ae" unicode="&#xe6;" horiz-adv-x="1605" 
d="M1201 780q-112 0 -207 -82t-134 -206h549q16 50 16 114t-56 119t-168 55zM340 80q135 0 255 93t150 233h-170q-395 0 -395 -209q0 -49 43 -83t117 -34zM838 346q0 -127 86 -198q86 -70 212 -70t275 80l-25 -111q-127 -63 -271 -63t-234 74t-121 194q-55 -121 -171 -195
q-116 -73 -250 -73t-201 66t-66 145q0 143 126 219t349 75h207q-2 127 -68 209t-181 82t-138 -30q20 -27 20 -58q0 -32 -25 -56q-24 -24 -58 -24t-58 27t-25 66q0 88 107 139q66 33 155 33q279 0 332 -265q66 125 173 195q108 70 238 70t216 -84q84 -84 84 -222
q0 -76 -35 -170h-649q-4 -37 -4 -55z" />
    <glyph glyph-name="ccedilla" unicode="&#xe7;" horiz-adv-x="927" 
d="M342 -408q-131 0 -236 86l41 58q29 -20 85 -38t104 -20q92 0 92 70q0 31 -36 50t-95 9l-29 29l86 160q-120 31 -192 123t-72 229q0 205 143 367t340 162q147 0 227 -70t81 -148q0 -45 -28 -75t-62 -31q-33 0 -55 18t-22 46t14 51q13 23 34 28q-51 84 -196 84
q-144 0 -256 -131t-111 -299q1 -122 75 -196t216 -74t272 123l-6 -113q-135 -106 -297 -106q-25 0 -35 2l-35 -95q72 -8 110 -48q38 -41 38 -103q1 -62 -57 -105t-138 -43z" />
    <glyph glyph-name="egrave" unicode="&#xe8;" horiz-adv-x="962" 
d="M410 1266q0 40 22 62t60 22t79 -56l170 -229l-32 -33l-242 156q-57 39 -57 78zM559 780q-111 0 -206 -82t-136 -206h549q16 50 16 114t-56 119t-167 55zM195 346q0 -127 86 -198q85 -70 211 -70t276 80l-25 -111q-127 -63 -281 -63t-264 97t-110 263q0 217 144 375
t337 158q145 0 229 -84t85 -222q0 -76 -35 -170h-651q-2 -18 -2 -55z" />
    <glyph glyph-name="eacute" unicode="&#xe9;" horiz-adv-x="962" 
d="M933 1350q34 0 54 -22t21 -48q0 -59 -76 -88l-389 -158l-23 39l340 246q39 31 73 31zM559 780q-111 0 -206 -82t-136 -206h549q16 50 16 114t-56 119t-167 55zM195 346q0 -127 86 -198q85 -70 211 -70t276 80l-25 -111q-127 -63 -281 -63t-264 97t-110 263q0 217 144 375
t337 158q145 0 229 -84t85 -222q0 -76 -35 -170h-651q-2 -18 -2 -55z" />
    <glyph glyph-name="ecircumflex" unicode="&#xea;" horiz-adv-x="962" 
d="M383 1032l-47 62l358 272l217 -287l-53 -47l-186 176zM559 780q-111 0 -206 -82t-136 -206h549q16 50 16 114t-56 119t-167 55zM195 346q0 -127 86 -198q85 -70 211 -70t276 80l-25 -111q-127 -63 -281 -63t-264 97t-110 263q0 217 144 375t337 158q145 0 229 -84
t85 -222q0 -76 -35 -170h-651q-2 -18 -2 -55z" />
    <glyph glyph-name="edieresis" unicode="&#xeb;" horiz-adv-x="962" 
d="M494 1075q-43 0 -72 31t-29 74q0 44 29 74t72 30q44 0 72 -31t28 -73t-28 -74q-28 -31 -72 -31zM821 1075q-43 0 -71 31t-29 74q0 44 29 74q30 30 72 30t71 -31t29 -73t-29 -74q-29 -31 -72 -31zM559 780q-111 0 -206 -82t-136 -206h549q16 50 16 114t-56 119t-167 55z
M195 346q0 -127 86 -198q85 -70 211 -70t276 80l-25 -111q-127 -63 -281 -63t-264 97t-110 263q0 217 144 375t337 158q145 0 229 -84t85 -222q0 -76 -35 -170h-651q-2 -18 -2 -55z" />
    <glyph glyph-name="igrave" unicode="&#xec;" horiz-adv-x="577" 
d="M197 1266q1 40 23 62t60 22t78 -56l170 -229l-32 -33l-242 156q-57 39 -57 78zM291 -12q-68 0 -112 41t-44 90t17 106l151 541h-172l25 94h280l-180 -645q-14 -51 -14 -82t17 -49t46 -18q63 0 119 135l63 -21q-65 -192 -196 -192z" />
    <glyph glyph-name="iacute" unicode="&#xed;" horiz-adv-x="577" 
d="M720 1350q34 0 54 -22t21 -48q0 -59 -76 -88l-389 -158l-23 39l340 246q39 31 73 31zM291 -12q-68 0 -112 41t-44 90t17 106l151 541h-172l25 94h280l-180 -645q-14 -51 -14 -82t17 -49t46 -18q63 0 119 135l63 -21q-65 -192 -196 -192z" />
    <glyph glyph-name="icircumflex" unicode="&#xee;" horiz-adv-x="577" 
d="M170 1032l-47 62l358 272l217 -287l-53 -47l-186 176zM291 -12q-68 0 -112 41t-44 90t17 106l151 541h-172l25 94h280l-180 -645q-14 -51 -14 -82t17 -49t46 -18q63 0 119 135l63 -21q-65 -192 -196 -192z" />
    <glyph glyph-name="idieresis" unicode="&#xef;" horiz-adv-x="577" 
d="M281 1075q-43 0 -72 31t-29 74q0 44 29 74t72 30t71 -31t29 -73q-1 -42 -29 -74q-28 -31 -71 -31zM608 1075q-44 0 -72 31t-28 74q0 44 29 74t71 30t72 -31q29 -31 29 -73t-29 -74q-29 -31 -72 -31zM291 -12q-68 0 -112 41t-44 90t17 106l151 541h-172l25 94h280
l-180 -645q-14 -51 -14 -82t17 -49t46 -18q63 0 119 135l63 -21q-65 -192 -196 -192z" />
    <glyph glyph-name="eth" unicode="&#xf0;" horiz-adv-x="1007" 
d="M444 84q118 0 226 112q107 112 106 287q0 115 -69 184q-70 69 -181 68q-137 0 -236 -119t-100 -280q0 -112 68 -182t186 -70zM428 -14q-164 0 -256 100t-92 250q0 194 133 346t309 152q233 0 297 -209q8 106 8 172q0 240 -112 409l-271 -245l-61 67l274 250
q-88 90 -206 125q-18 -70 -82 -70q-35 0 -59 24q-24 23 -24 59t29 62t78 25q174 0 334 -162l184 168l62 -67l-189 -170q62 -86 100 -212t38 -257q0 -487 -203 -690q-127 -127 -291 -127z" />
    <glyph glyph-name="ntilde" unicode="&#xf1;" horiz-adv-x="1087" 
d="M809 1032q-76 0 -154 82q-55 55 -98 55q-72 0 -117 -125l-75 25q18 87 76 149t134 62t154 -82q53 -55 98 -55q72 0 117 125l76 -25q-18 -87 -76 -149t-135 -62zM836 -12q-68 0 -112 41t-44 91t16 107l88 305q20 76 20 126t-41 88q-42 38 -108 38q-102 0 -204 -101
t-146 -273l-102 -410h-107l193 766h-164l25 94h264l-54 -207q139 223 312 224q106 1 174 -63t67 -161q0 -45 -24 -135l-88 -301q-41 -151 49 -151q63 0 119 135l63 -21q-65 -192 -196 -192z" />
    <glyph glyph-name="ograve" unicode="&#xf2;" horiz-adv-x="1028" 
d="M522 1350q38 0 78 -56l170 -229l-33 -33l-241 156q-58 39 -58 78q0 40 23 62t61 22zM457 80q157 0 265 128t107 302q0 121 -72 196q-73 75 -186 74q-157 0 -265 -128t-107 -302q1 -122 73 -196t185 -74zM451 -16q-166 0 -264 106q-97 106 -97 262q0 209 142 367t346 158
q166 -1 263 -107t97 -262q0 -208 -142 -366t-345 -158z" />
    <glyph glyph-name="oacute" unicode="&#xf3;" horiz-adv-x="1028" 
d="M962 1350q34 0 54 -22t20 -48q0 -59 -75 -88l-390 -158l-22 39l340 246q39 31 73 31zM457 80q157 0 265 128t107 302q0 121 -72 196q-73 75 -186 74q-157 0 -265 -128t-107 -302q1 -122 73 -196t185 -74zM451 -16q-166 0 -264 106q-97 106 -97 262q0 209 142 367t346 158
q166 -1 263 -107t97 -262q0 -208 -142 -366t-345 -158z" />
    <glyph glyph-name="ocircumflex" unicode="&#xf4;" horiz-adv-x="1028" 
d="M412 1032l-47 62l358 272l217 -287l-53 -47l-187 176zM457 80q157 0 265 128t107 302q0 121 -72 196q-73 75 -186 74q-157 0 -265 -128t-107 -302q1 -122 73 -196t185 -74zM451 -16q-166 0 -264 106q-97 106 -97 262q0 209 142 367t346 158q166 -1 263 -107t97 -262
q0 -208 -142 -366t-345 -158z" />
    <glyph glyph-name="otilde" unicode="&#xf5;" horiz-adv-x="1028" 
d="M783 1032q-76 0 -154 82q-55 55 -99 55q-72 0 -116 -125l-76 25q18 87 76 149t135 62q76 0 153 -82q53 -55 99 -55q72 0 117 125l75 -25q-18 -87 -76 -149t-134 -62zM457 80q157 0 265 128t107 302q0 121 -72 196q-73 75 -186 74q-157 0 -265 -128t-107 -302
q1 -122 73 -196t185 -74zM451 -16q-166 0 -264 106q-97 106 -97 262q0 209 142 367t346 158q166 -1 263 -107t97 -262q0 -208 -142 -366t-345 -158z" />
    <glyph glyph-name="odieresis" unicode="&#xf6;" horiz-adv-x="1028" 
d="M522 1075q-44 0 -72 31t-28 74q0 44 29 74t71 30t72 -31q29 -31 29 -73t-29 -74q-29 -31 -72 -31zM850 1075q-43 0 -72 31t-28 74q0 44 28 74t72 30q43 0 72 -31q28 -31 28 -73t-28 -74q-28 -31 -72 -31zM457 80q157 0 265 128t107 302q0 121 -72 196q-73 75 -186 74
q-157 0 -265 -128t-107 -302q1 -122 73 -196t185 -74zM451 -16q-166 0 -264 106q-97 106 -97 262q0 209 142 367t346 158q166 -1 263 -107t97 -262q0 -208 -142 -366t-345 -158z" />
    <glyph glyph-name="divide" unicode="&#xf7;" horiz-adv-x="817" 
d="M457 274q1 -36 -25 -62t-60 -26t-60 27t-26 61t26 62q26 26 60 26t60 -26t25 -62zM497 899q33 0 59 -27q26 -28 26 -62t-26 -60t-59 -27q-34 0 -60 27q-25 28 -25 62t26 60t59 27zM96 494l23 98h655l-22 -98h-656z" />
    <glyph glyph-name="oslash" unicode="&#xf8;" horiz-adv-x="1028" 
d="M482 80q142 0 250 126t108 302q0 66 -19 115l-547 -467q66 -76 208 -76zM209 352q0 -76 20 -125l549 471q-72 82 -196 82q-156 0 -264 -125t-109 -303zM465 -16q-164 0 -266 108l-127 -108l-58 73l131 109q-45 82 -45 188q0 211 138 367t346 156q168 0 270 -113l129 113
l59 -72l-137 -117q43 -90 43 -182q0 -210 -139 -366t-344 -156z" />
    <glyph glyph-name="ugrave" unicode="&#xf9;" horiz-adv-x="1087" 
d="M453 1266q1 40 23 62t60 22t78 -56l170 -229l-32 -33l-242 156q-57 39 -57 78zM250 198q0 -52 39 -87t104 -35q102 0 205 102q102 102 145 273l103 409h106l-161 -645q-15 -57 -15 -85t18 -46t46 -18q63 0 118 135l64 -21q-66 -193 -197 -192q-67 0 -107 39t-40 106
q0 27 10 74q-135 -223 -311 -223q-104 0 -170 58t-66 153q0 43 19 116l119 455h-164l24 94h271l-146 -557q-14 -53 -14 -105z" />
    <glyph glyph-name="uacute" unicode="&#xfa;" horiz-adv-x="1087" 
d="M975 1350q33 0 55 -22t21 -48q0 -59 -76 -88l-389 -158l-23 39l340 246q39 31 72 31zM250 198q0 -52 39 -87t104 -35q102 0 205 102q102 102 145 273l103 409h106l-161 -645q-15 -57 -15 -85t18 -46t46 -18q63 0 118 135l64 -21q-66 -193 -197 -192q-67 0 -107 39
t-40 106q0 27 10 74q-135 -223 -311 -223q-104 0 -170 58t-66 153q0 43 19 116l119 455h-164l24 94h271l-146 -557q-14 -53 -14 -105z" />
    <glyph glyph-name="ucircumflex" unicode="&#xfb;" horiz-adv-x="1087" 
d="M426 1032l-47 62l358 272l217 -287l-53 -47l-186 176zM250 198q0 -52 39 -87t104 -35q102 0 205 102q102 102 145 273l103 409h106l-161 -645q-15 -57 -15 -85t18 -46t46 -18q63 0 118 135l64 -21q-66 -193 -197 -192q-67 0 -107 39t-40 106q0 27 10 74
q-135 -223 -311 -223q-104 0 -170 58t-66 153q0 43 19 116l119 455h-164l24 94h271l-146 -557q-14 -53 -14 -105z" />
    <glyph glyph-name="udieresis" unicode="&#xfc;" horiz-adv-x="1087" 
d="M864 1075q-44 0 -72 31t-28 74q0 44 29 74t71 30t72 -31q29 -31 29 -73t-29 -74q-29 -31 -72 -31zM537 1075q-43 0 -72 31t-29 74q0 44 29 74t72 30t71 -31t29 -73q-1 -42 -29 -74q-28 -31 -71 -31zM250 198q0 -52 39 -87t104 -35q102 0 205 102q102 102 145 273l103 409
h106l-161 -645q-15 -57 -15 -85t18 -46t46 -18q63 0 118 135l64 -21q-66 -193 -197 -192q-67 0 -107 39t-40 106q0 27 10 74q-135 -223 -311 -223q-104 0 -170 58t-66 153q0 43 19 116l119 455h-164l24 94h271l-146 -557q-14 -53 -14 -105z" />
    <glyph glyph-name="yacute" unicode="&#xfd;" horiz-adv-x="970" 
d="M929 1350q34 0 54 -22t21 -48q0 -59 -76 -88l-389 -158l-23 39l340 246q39 31 73 31zM-37 -410q-47 0 -85 30t-38 70t25 68t61 27q80 0 86 -94h11q96 0 350 311l-154 764h-160l23 94h233l138 -756q322 420 356 582q-35 10 -59 37t-25 63q0 36 27 64q28 27 68 27t69 -32
t29 -89q0 -111 -100 -277q-100 -167 -312 -439q-213 -272 -330 -361t-213 -89z" />
    <glyph glyph-name="thorn" unicode="&#xfe;" horiz-adv-x="1073" 
d="M518 78q147 0 247 129q99 129 99 277t-62 222q-62 75 -173 74q-147 0 -257 -142t-110 -302q0 -114 68 -186t188 -72zM979 514q0 -221 -139 -377t-320 -155q-106 0 -189 55t-108 151l-117 -495h189l-23 -94h-430l23 94h133l408 1712h-164l22 94h273l-191 -797
q121 174 301 175q143 1 237 -99t95 -264z" />
    <glyph glyph-name="ydieresis" unicode="&#xff;" horiz-adv-x="970" 
d="M819 1075q-43 0 -71 31t-29 74q0 44 29 74q30 30 72 30t71 -31t29 -73t-29 -74q-29 -31 -72 -31zM492 1075q-43 0 -72 31t-29 74q0 44 29 74t72 30q44 0 72 -31t28 -73t-28 -74q-28 -31 -72 -31zM-37 -410q-47 0 -85 30t-38 70t25 68t61 27q80 0 86 -94h11q96 0 350 311
l-154 764h-160l23 94h233l138 -756q322 420 356 582q-35 10 -59 37t-25 63q0 36 27 64q28 27 68 27t69 -32t29 -89q0 -111 -100 -277q-100 -167 -312 -439q-213 -272 -330 -361t-213 -89z" />
    <glyph glyph-name="Amacron" unicode="&#x100;" horiz-adv-x="1445" 
d="M678 1536l27 106h587l-22 -106h-592zM508 586h487l-88 669zM-53 0l24 102h125l684 1143h-159l24 103h557l-24 -103h-156l156 -1143h145l-25 -102h-413l24 102h150l-49 381h-564l-225 -381h174l-24 -102h-424z" />
    <glyph glyph-name="amacron" unicode="&#x101;" horiz-adv-x="1130" 
d="M395 1106l27 106h588l-23 -106h-592zM207 342q0 -122 58 -192q57 -70 165 -70t194 72q171 146 171 380q1 110 -61 179q-62 70 -177 69q-150 0 -250 -132t-100 -306zM410 -16q-141 0 -230 96q-88 96 -88 260q0 219 137 378t324 159q115 1 189 -59t94 -165l51 217h106
l-159 -655q-14 -57 -14 -85t16 -46q18 -18 47 -18q63 0 118 135l64 -21q-66 -193 -197 -192q-68 0 -110 39t-41 98v35q-133 -176 -307 -176z" />
    <glyph glyph-name="Abreve" unicode="&#x102;" horiz-adv-x="1445" 
d="M968 1473q-104 -1 -168 71t-81 182l76 27q33 -166 191 -166t257 164l68 -41q-55 -104 -147 -170t-196 -67zM508 586h487l-88 669zM-53 0l24 102h125l684 1143h-159l24 103h557l-24 -103h-156l156 -1143h145l-25 -102h-413l24 102h150l-49 381h-564l-225 -381h174
l-24 -102h-424z" />
    <glyph glyph-name="abreve" unicode="&#x103;" horiz-adv-x="1130" 
d="M684 1042q-104 0 -168 72t-80 182l76 27q33 -166 191 -166t258 164l67 -41q-56 -104 -148 -171t-196 -67zM207 342q0 -122 58 -192q57 -70 165 -70t194 72q171 146 171 380q1 110 -61 179q-62 70 -177 69q-150 0 -250 -132t-100 -306zM410 -16q-141 0 -230 96
q-88 96 -88 260q0 219 137 378t324 159q115 1 189 -59t94 -165l51 217h106l-159 -655q-14 -57 -14 -85t16 -46q18 -18 47 -18q63 0 118 135l64 -21q-66 -193 -197 -192q-68 0 -110 39t-41 98v35q-133 -176 -307 -176z" />
    <glyph glyph-name="Aogonek" unicode="&#x104;" horiz-adv-x="1445" 
d="M508 586h487l-88 669zM969 -238q0 -80 94 -79q53 0 100 18l-18 -86q-45 -27 -119 -27t-116 39t-42 105q0 137 183 268h-166l24 102h150l-49 381h-564l-225 -381h174l-24 -102h-424l24 102h125l684 1143h-159l24 103h557l-24 -103h-156l156 -1143h145l-25 -102h-153
q-176 -127 -176 -238z" />
    <glyph glyph-name="aogonek" unicode="&#x105;" horiz-adv-x="1130" 
d="M432 80q158 0 260 142t102 282t-60 208q-62 69 -177 68q-150 0 -250 -132t-100 -306q0 -122 58 -192t167 -70zM717 120q0 30 2 40q-139 -176 -309 -176q-141 0 -230 96q-88 96 -88 260q0 219 137 378t324 159q115 1 189 -59t94 -163l51 215h106l-159 -655
q-14 -57 -15 -82q0 -63 60 -63q70 0 122 131l64 -21q-25 -76 -70 -127q-20 -25 -88 -82q-69 -57 -103 -106t-34 -103q0 -80 94 -79q53 0 101 18l-19 -86q-44 -27 -118 -27t-116 39t-42 105q0 131 172 260q-76 12 -107 67q-18 31 -18 61z" />
    <glyph glyph-name="Cacute" unicode="&#x106;" horiz-adv-x="1419" 
d="M1262 1780q32 0 54 -22t21 -48q0 -59 -75 -88l-390 -158l-22 39l340 246q39 31 72 31zM729 -25q-246 0 -412 160t-165 434q0 322 226 563t531 240q225 0 355 -108q129 -109 129 -215q0 -63 -32 -99t-75 -37q-42 0 -68 24t-26 60q0 61 68 97q-18 66 -112 120t-261 54
q-165 0 -313 -106t-224 -261q-76 -156 -76 -317q0 -238 128 -370t339 -132q244 0 447 192l65 -73q-229 -226 -524 -226z" />
    <glyph glyph-name="cacute" unicode="&#x107;" horiz-adv-x="927" 
d="M950 1350q32 0 55 -22q22 -22 21 -48q0 -59 -76 -88l-389 -158l-22 39l340 246q39 31 71 31zM460 -16q-161 0 -265 99t-105 265q0 205 143 367t340 162q147 0 227 -70t81 -148q0 -45 -28 -75t-62 -31q-33 0 -55 18t-22 46t14 51q13 23 34 28q-51 84 -196 84
q-144 0 -256 -131t-111 -299q1 -122 75 -196t216 -74t272 123l-6 -113q-135 -106 -296 -106z" />
    <glyph glyph-name="Cdotaccent" unicode="&#x10a;" horiz-adv-x="1419" 
d="M989 1501q-45 0 -75 32t-29 77q0 45 29 77q30 31 75 31t75 -32t30 -76q0 -45 -30 -77t-75 -32zM729 -25q-246 0 -412 160t-165 434q0 322 226 563t531 240q225 0 355 -108q129 -109 129 -215q0 -63 -32 -99t-75 -37q-42 0 -68 24t-26 60q0 61 68 97q-18 66 -112 120
t-261 54q-165 0 -313 -106t-224 -261q-76 -156 -76 -317q0 -238 128 -370t339 -132q244 0 447 192l65 -73q-229 -226 -524 -226z" />
    <glyph glyph-name="cdotaccent" unicode="&#x10b;" horiz-adv-x="927" 
d="M676 1071q-45 0 -75 32t-30 77q0 44 30 76t75 32t75 -32q29 -32 29 -76t-30 -77q-30 -32 -74 -32zM460 -16q-161 0 -265 99t-105 265q0 205 143 367t340 162q147 0 227 -70t81 -148q0 -45 -28 -75t-62 -31q-33 0 -55 18t-22 46t14 51q13 23 34 28q-51 84 -196 84
q-144 0 -256 -131t-111 -299q1 -122 75 -196t216 -74t272 123l-6 -113q-135 -106 -296 -106z" />
    <glyph glyph-name="Ccaron" unicode="&#x10c;" horiz-adv-x="1419" 
d="M961 1470l-218 287l54 47l186 -176l289 176l47 -61zM729 -25q-246 0 -412 160t-165 434q0 322 226 563t531 240q225 0 355 -108q129 -109 129 -215q0 -63 -32 -99t-75 -37q-42 0 -68 24t-26 60q0 61 68 97q-18 66 -112 120t-261 54q-165 0 -313 -106t-224 -261
q-76 -156 -76 -317q0 -238 128 -370t339 -132q244 0 447 192l65 -73q-229 -226 -524 -226z" />
    <glyph glyph-name="ccaron" unicode="&#x10d;" horiz-adv-x="927" 
d="M649 1040l-217 287l53 47l187 -176l289 176l47 -61zM460 -16q-161 0 -265 99t-105 265q0 205 143 367t340 162q147 0 227 -70t81 -148q0 -45 -28 -75t-62 -31q-33 0 -55 18t-22 46t14 51q13 23 34 28q-51 84 -196 84q-144 0 -256 -131t-111 -299q1 -122 75 -196t216 -74
t272 123l-6 -113q-135 -106 -296 -106z" />
    <glyph glyph-name="Dcaron" unicode="&#x10e;" horiz-adv-x="1464" 
d="M903 1470l-217 287l53 47l187 -176l288 176l48 -61zM502 102q389 0 602 213q186 186 186 478q0 188 -108 297q-78 78 -184 116t-277 39h-129l-264 -1143h174zM731 1348q197 0 323 -45t224 -144q137 -137 137 -360q0 -328 -209 -537q-262 -262 -727 -262h-463l25 102h170
l264 1143h-190l24 103h422z" />
    <glyph glyph-name="dcaron" unicode="&#x10f;" horiz-adv-x="1136" 
d="M1331 1499q68 1 68 -73q1 -74 -61 -170t-187 -195l-31 33q96 104 121 196q6 27 8 72t4 59q10 78 78 78zM442 80q154 0 256 138t103 300q0 119 -66 191t-180 71q-150 0 -248 -131t-98 -305q0 -120 62 -192t171 -72zM94 342q0 221 136 378t317 157q113 1 193 -59t98 -165
l174 752h-164l22 94h271l-301 -1284q-14 -57 -15 -82q0 -68 62 -67q66 0 121 135l63 -21q-66 -193 -197 -192q-66 0 -108 40t-41 103q0 18 2 29q-133 -176 -307 -176q-143 0 -235 97q-91 97 -91 261z" />
    <glyph glyph-name="Dcroat" unicode="&#x110;" horiz-adv-x="1464" 
d="M502 102q389 0 602 213q186 186 186 478q0 188 -108 297q-78 78 -184 116t-277 39h-129l-117 -504h277l-25 -102h-276l-123 -537h174zM731 1348q197 0 323 -45t224 -144q137 -137 137 -360q0 -328 -209 -537q-262 -262 -727 -262h-463l25 102h170l123 537h-176l24 102
h176l117 504h-190l24 103h422z" />
    <glyph glyph-name="dcroat" unicode="&#x111;" horiz-adv-x="1136" 
d="M442 80q154 0 256 138t103 300q0 119 -66 191t-180 71q-150 0 -248 -131t-98 -305q0 -120 62 -192t171 -72zM725 131q0 18 2 29q-133 -176 -307 -176q-143 0 -235 97q-91 97 -91 261q0 221 136 378t317 157q113 1 193 -59t98 -165l100 434h-326l21 97h328l51 221h-164
l22 94h271l-74 -315h160l-21 -97h-162l-204 -872q-14 -57 -15 -82q0 -68 62 -67q66 0 121 135l63 -21q-66 -193 -197 -192q-66 0 -108 40t-41 103z" />
    <glyph glyph-name="Emacron" unicode="&#x112;" horiz-adv-x="1204" 
d="M549 1536l26 106h588l-22 -106h-592zM16 0l25 102h170l264 1143h-190l24 103h967l-72 -306h-112l47 203h-547l-117 -506h447l-23 -102h-446l-125 -535h546l48 203h112l-69 -305h-949z" />
    <glyph glyph-name="emacron" unicode="&#x113;" horiz-adv-x="962" 
d="M346 1106l27 106h588l-23 -106h-592zM559 780q-111 0 -206 -82t-136 -206h549q16 50 16 114t-56 119t-167 55zM195 346q0 -127 86 -198q85 -70 211 -70t276 80l-25 -111q-127 -63 -281 -63t-264 97t-110 263q0 217 144 375t337 158q145 0 229 -84t85 -222q0 -76 -35 -170
h-651q-2 -18 -2 -55z" />
    <glyph glyph-name="Ebreve" unicode="&#x114;" horiz-adv-x="1204" 
d="M838 1473q-104 -1 -168 71t-80 182l76 27q32 -166 190 -166t258 164l68 -41q-56 -104 -148 -170t-196 -67zM16 0l25 102h170l264 1143h-190l24 103h967l-72 -306h-112l47 203h-547l-117 -506h447l-23 -102h-446l-125 -535h546l48 203h112l-69 -305h-949z" />
    <glyph glyph-name="ebreve" unicode="&#x115;" horiz-adv-x="962" 
d="M636 1042q-104 0 -168 72t-81 182l76 27q33 -166 191 -166t257 164l68 -41q-55 -104 -147 -171t-196 -67zM559 780q-111 0 -206 -82t-136 -206h549q16 50 16 114t-56 119t-167 55zM195 346q0 -127 86 -198q85 -70 211 -70t276 80l-25 -111q-127 -63 -281 -63t-264 97
t-110 263q0 217 144 375t337 158q145 0 229 -84t85 -222q0 -76 -35 -170h-651q-2 -18 -2 -55z" />
    <glyph glyph-name="Edotaccent" unicode="&#x116;" horiz-adv-x="1204" 
d="M862 1501q-45 0 -75 32t-29 77q0 45 29 77q30 31 75 31t75 -32t30 -76q0 -45 -30 -77t-75 -32zM16 0l25 102h170l264 1143h-190l24 103h967l-72 -306h-112l47 203h-547l-117 -506h447l-23 -102h-446l-125 -535h546l48 203h112l-69 -305h-949z" />
    <glyph glyph-name="edotaccent" unicode="&#x117;" horiz-adv-x="962" 
d="M657 1071q-45 0 -75 32t-29 77q0 44 30 76q31 32 75 32t74 -32t30 -76t-30 -77q-30 -32 -75 -32zM559 780q-111 0 -206 -82t-136 -206h549q16 50 16 114t-56 119t-167 55zM195 346q0 -127 86 -198q85 -70 211 -70t276 80l-25 -111q-127 -63 -281 -63t-264 97t-110 263
q0 217 144 375t337 158q145 0 229 -84t85 -222q0 -76 -35 -170h-651q-2 -18 -2 -55z" />
    <glyph glyph-name="Eogonek" unicode="&#x118;" horiz-adv-x="1204" 
d="M760 -412q-74 0 -116 39t-42 105q0 137 182 268h-768l25 102h170l264 1143h-190l24 103h967l-72 -306h-112l47 203h-547l-117 -506h447l-23 -102h-446l-125 -535h546l48 203h112l-69 -305h-86q-176 -127 -177 -238q0 -80 95 -79q53 0 100 18l-18 -86q-45 -27 -119 -27z
" />
    <glyph glyph-name="eogonek" unicode="&#x119;" horiz-adv-x="962" 
d="M559 780q-111 0 -206 -82t-136 -206h549q16 50 16 114t-56 119t-167 55zM531 -412q-74 0 -116 39t-42 107t47 136t125 120q-37 -6 -78 -6q-159 0 -269 97t-110 263q0 217 144 375t337 158q145 0 229 -84t85 -222q0 -76 -35 -170h-651q-2 -18 -2 -55q0 -127 86 -198
q85 -70 211 -70t276 80l-25 -109q-102 -49 -186 -127t-84 -159t94 -80q53 0 101 18l-19 -86q-44 -27 -118 -27z" />
    <glyph glyph-name="Ecaron" unicode="&#x11a;" horiz-adv-x="1204" 
d="M834 1470l-218 287l54 47l186 -176l289 176l47 -61zM16 0l25 102h170l264 1143h-190l24 103h967l-72 -306h-112l47 203h-547l-117 -506h447l-23 -102h-446l-125 -535h546l48 203h112l-69 -305h-949z" />
    <glyph glyph-name="ecaron" unicode="&#x11b;" horiz-adv-x="962" 
d="M631 1040l-217 287l53 47l186 -176l289 176l47 -61zM559 780q-111 0 -206 -82t-136 -206h549q16 50 16 114t-56 119t-167 55zM195 346q0 -127 86 -198q85 -70 211 -70t276 80l-25 -111q-127 -63 -281 -63t-264 97t-110 263q0 217 144 375t337 158q145 0 229 -84t85 -222
q0 -76 -35 -170h-651q-2 -18 -2 -55z" />
    <glyph glyph-name="Gbreve" unicode="&#x11e;" horiz-adv-x="1474" 
d="M978 1473q-104 -1 -168 71t-81 182l76 27q33 -166 191 -166t257 164l68 -41q-55 -104 -147 -171q-92 -66 -196 -66zM152 526q0 336 230 591t560 255q120 0 228 -39t178 -105t71 -151q1 -55 -31 -89t-75 -34t-69 24t-25 60q0 61 67 97q-18 27 -43 45q-119 88 -288 88
t-296 -66t-209 -172t-129 -237q-46 -131 -47 -263q0 -200 113 -326t311 -126q244 0 435 158l73 301h-391l25 100h503l-151 -637h-111l27 123q-193 -147 -426 -147t-382 151q-148 152 -148 399z" />
    <glyph glyph-name="gbreve" unicode="&#x11f;" horiz-adv-x="1073" 
d="M682 1042q-104 0 -168 72t-80 182l76 27q33 -166 191 -166t257 164l68 -41q-56 -104 -148 -171t-196 -67zM451 96q154 0 254 133t100 295q0 119 -65 188t-181 68q-152 0 -251 -125t-99 -297q-1 -122 65 -192t177 -70zM362 -410q-82 0 -166 30q-162 58 -163 153
q-1 41 23 69t64 27q40 0 62 -27q22 -26 23 -60q0 -34 -19 -58q72 -43 194 -43q244 0 316 313l43 184q-111 -178 -309 -178q-143 0 -240 97q-96 97 -96 259q0 217 138 369t327 152q117 1 193 -61t94 -163l51 217h107l-207 -890q-43 -186 -135 -279q-112 -111 -300 -111z" />
    <glyph glyph-name="Gdotaccent" unicode="&#x120;" horiz-adv-x="1474" 
d="M1001 1501q-45 0 -75 32t-29 77q0 45 30 77q31 31 75 31t74 -32t30 -76q0 -45 -30 -77t-75 -32zM152 526q0 336 230 591t560 255q120 0 228 -39t178 -105t71 -151q1 -55 -31 -89t-75 -34t-69 24t-25 60q0 61 67 97q-18 27 -43 45q-119 88 -288 88t-296 -66t-209 -172
t-129 -237q-46 -131 -47 -263q0 -200 113 -326t311 -126q244 0 435 158l73 301h-391l25 100h503l-151 -637h-111l27 123q-193 -147 -426 -147t-382 151q-148 152 -148 399z" />
    <glyph glyph-name="gdotaccent" unicode="&#x121;" horiz-adv-x="1073" 
d="M707 1071q-45 0 -75 32t-30 77q0 44 30 76t75 32t75 -32t29 -76q1 -44 -29 -77q-30 -32 -75 -32zM451 96q154 0 254 133t100 295q0 119 -65 188t-181 68q-152 0 -251 -125t-99 -297q-1 -122 65 -192t177 -70zM362 -410q-82 0 -166 30q-162 58 -163 153q-1 41 23 69t64 27
q40 0 62 -27q22 -26 23 -60q0 -34 -19 -58q72 -43 194 -43q244 0 316 313l43 184q-111 -178 -309 -178q-143 0 -240 97q-96 97 -96 259q0 217 138 369t327 152q117 1 193 -61t94 -163l51 217h107l-207 -890q-43 -186 -135 -279q-112 -111 -300 -111z" />
    <glyph glyph-name="Gcommaaccent" unicode="&#x122;" horiz-adv-x="1474" 
d="M512 -202q0 34 26 61t68 27t70 -32q29 -30 29 -79q0 -91 -78 -181t-232 -141l-20 41q94 40 150 102t61 105q-33 8 -54 35q-20 28 -20 62zM152 526q0 336 230 591t560 255q120 0 228 -39t178 -105t71 -151q1 -55 -31 -89t-75 -34t-69 24t-25 60q0 61 67 97q-18 27 -43 45
q-119 88 -288 88t-296 -66t-209 -172t-129 -237q-46 -131 -47 -263q0 -200 113 -326t311 -126q244 0 435 158l73 301h-391l25 100h503l-151 -637h-111l27 123q-193 -147 -426 -147t-382 151q-148 152 -148 399z" />
    <glyph glyph-name="gcommaaccent" unicode="&#x123;" horiz-adv-x="1073" 
d="M712 1087q-42 0 -71 31t-29 80q0 92 78 182t232 140l20 -41q-94 -41 -150 -103t-61 -104q33 -8 53 -35t20 -61t-25 -62q-25 -27 -67 -27zM451 96q154 0 254 133t100 295q0 119 -65 188t-181 68q-152 0 -251 -125t-99 -297q-1 -122 65 -192t177 -70zM362 -410
q-82 0 -166 30q-162 58 -163 153q-1 41 23 69t64 27q40 0 62 -27q22 -26 23 -60q0 -34 -19 -58q72 -43 194 -43q244 0 316 313l43 184q-111 -178 -309 -178q-143 0 -240 97q-96 97 -96 259q0 217 138 369t327 152q117 1 193 -61t94 -163l51 217h107l-207 -890
q-43 -186 -135 -279q-112 -111 -300 -111z" />
    <glyph glyph-name="Hbar" unicode="&#x126;" horiz-adv-x="1589" 
d="M477 745h785l47 213h-783zM1595 1057l-22 -99h-150l-196 -856h190l-24 -102h-478l25 102h170l127 539h-784l-125 -539h190l-24 -102h-478l25 102h170l197 856h-142l23 99h141l45 188h-190l24 103h477l-24 -103h-170l-43 -188h782l43 188h-190l24 103h478l-25 -103h-170
l-45 -188h149z" />
    <glyph glyph-name="hbar" unicode="&#x127;" horiz-adv-x="1062" 
d="M633 877q106 1 177 -63t73 -161q0 -59 -21 -135l-82 -303q-12 -47 -12 -80t17 -51t46 -18q63 0 117 135l64 -21q-61 -193 -193 -192q-69 0 -113 41t-44 92t14 104l82 307q41 152 -30 214q-44 38 -110 38q-102 0 -204 -102t-142 -272l-94 -410h-106l254 1087h-160l20 97
h162l51 221h-163l22 94h270l-75 -315h327l-20 -97h-330l-98 -417q127 207 301 207z" />
    <glyph glyph-name="Imacron" unicode="&#x12a;" horiz-adv-x="714" 
d="M317 1536l27 106h588l-23 -106h-592zM10 0l25 102h190l262 1143h-190l25 103h497l-24 -103h-191l-262 -1143h190l-24 -102h-498z" />
    <glyph glyph-name="imacron" unicode="&#x12b;" horiz-adv-x="577" 
d="M133 1106l27 106h588l-23 -106h-592zM291 -12q-68 0 -112 41t-44 90t17 106l151 541h-172l25 94h280l-180 -645q-14 -51 -14 -82t17 -49t46 -18q63 0 119 135l63 -21q-65 -192 -196 -192z" />
    <glyph glyph-name="Ibreve" unicode="&#x12c;" horiz-adv-x="714" 
d="M606 1473q-104 -1 -168 71t-80 182l76 27q33 -166 191 -166t258 164l67 -41q-55 -104 -147 -171q-93 -66 -197 -66zM10 0l25 102h190l262 1143h-190l25 103h497l-24 -103h-191l-262 -1143h190l-24 -102h-498z" />
    <glyph glyph-name="ibreve" unicode="&#x12d;" horiz-adv-x="577" 
d="M422 1042q-104 0 -168 72t-80 182l76 27q32 -166 190 -166t258 164l68 -41q-56 -104 -148 -171t-196 -67zM291 -12q-68 0 -112 41t-44 90t17 106l151 541h-172l25 94h280l-180 -645q-14 -51 -14 -82t17 -49t46 -18q63 0 119 135l63 -21q-65 -192 -196 -192z" />
    <glyph glyph-name="Iogonek" unicode="&#x12e;" horiz-adv-x="714" 
d="M129 -238q0 -80 94 -79q53 0 101 18l-19 -86q-45 -27 -119 -27t-115 39q-42 39 -42 105q0 137 182 268h-201l25 102h190l262 1143h-190l25 103h497l-24 -103h-191l-262 -1143h190l-24 -102h-203q-176 -127 -176 -238z" />
    <glyph glyph-name="iogonek" unicode="&#x12f;" horiz-adv-x="577" 
d="M411 1229q35 0 61 -27q26 -28 26 -64t-26 -62t-61 -27q-36 1 -62 27t-25 63q0 37 26 63t61 27zM250 -412q-74 0 -116 39t-42 105q0 135 172 258q-59 8 -94 47t-35 85t17 103l151 541h-172l25 94h280l-180 -645q-14 -51 -14 -82q0 -66 61 -65q66 0 121 133l63 -21
q-25 -78 -59 -116t-100 -95t-101 -105t-34 -102q0 -80 94 -79q53 0 100 18l-18 -86q-45 -27 -119 -27z" />
    <glyph glyph-name="Idotaccent" unicode="&#x130;" horiz-adv-x="714" 
d="M631 1501q-45 0 -75 32t-30 77t30 77q30 31 75 31t75 -32t30 -76q0 -45 -30 -77t-75 -32zM10 0l25 102h190l262 1143h-190l25 103h497l-24 -103h-191l-262 -1143h190l-24 -102h-498z" />
    <glyph glyph-name="dotlessi" unicode="&#x131;" horiz-adv-x="577" 
d="M291 -12q-68 0 -112 41t-44 90t17 106l151 541h-172l25 94h280l-180 -645q-14 -51 -14 -82t17 -49t46 -18q63 0 119 135l63 -21q-65 -192 -196 -192z" />
    <glyph glyph-name="Kcommaaccent" unicode="&#x136;" horiz-adv-x="1335" 
d="M672 -225q0 -91 -78 -181t-232 -141l-20 41q94 40 150 102t61 105q-33 8 -53 35q-20 28 -20 62t25 61t67 27t71 -32q29 -30 29 -79zM1309 1245l-564 -475l318 -668h182l-24 -102h-240l-328 696l-235 -200l-90 -394h190l-24 -102h-478l25 102h170l264 1143h-190l24 103
h477l-24 -103h-170l-141 -612l718 612h-192l22 103h488l-23 -103h-155z" />
    <glyph glyph-name="kcommaaccent" unicode="&#x137;" horiz-adv-x="931" 
d="M412 -225q0 -91 -78 -181t-232 -141l-20 41q94 40 150 102t61 105q-33 8 -53 35q-20 28 -20 62t25 61t67 27t71 -32q29 -30 29 -79zM680 790q0 30 27 59q27 28 67 28t65 -27q26 -27 25 -72q0 -152 -375 -342l95 -237q33 -84 53 -107t53 -22q61 0 98 157l68 -22
q-47 -217 -176 -217q-66 0 -110 39t-76 120l-101 248l-137 -63l-78 -332h-106l327 1405h-163l22 94h270l-252 -1075q188 86 308 162t143 119q-18 8 -33 31q-14 24 -14 54z" />
    <glyph glyph-name="Lacute" unicode="&#x139;" horiz-adv-x="1130" 
d="M1022 1741q0 -59 -76 -88l-389 -158l-22 39l339 246q74 59 126 10q22 -20 22 -49zM16 0l25 102h170l264 1143h-190l24 103h488l-25 -103h-180l-264 -1143h499l52 213h112l-73 -315h-902z" />
    <glyph glyph-name="lacute" unicode="&#x13a;" horiz-adv-x="542" 
d="M826 1903q34 0 54 -22t21 -48q0 -59 -76 -88l-389 -158l-22 39l340 246q38 31 72 31zM268 -12q-68 0 -112 41t-43 104q0 14 14 86l276 1186h-161l22 94h268l-299 -1280q-14 -73 -14 -95q-1 -22 17 -40t47 -18q63 0 118 135l64 -21q-66 -192 -197 -192z" />
    <glyph glyph-name="Lcommaaccent" unicode="&#x13b;" horiz-adv-x="1130" 
d="M334 -202q0 34 25 61q26 27 68 27t71 -32q29 -30 28 -79q0 -92 -77 -182q-78 -89 -232 -140l-20 41q94 40 150 102t61 105q-33 8 -54 35q-20 28 -20 62zM16 0l25 102h170l264 1143h-190l24 103h488l-25 -103h-180l-264 -1143h499l52 213h112l-73 -315h-902z" />
    <glyph glyph-name="lcommaaccent" unicode="&#x13c;" horiz-adv-x="542" 
d="M295 -225q1 -91 -77 -181t-232 -141l-21 41q95 40 151 102t60 105q-33 8 -53 35q-21 28 -21 62t26 61t68 27t70 -32q28 -30 29 -79zM268 -12q-68 0 -112 41t-43 104q0 14 14 86l276 1186h-161l22 94h268l-299 -1280q-14 -73 -14 -95q-1 -22 17 -40t47 -18q63 0 118 135
l64 -21q-66 -192 -197 -192z" />
    <glyph glyph-name="Lcaron" unicode="&#x13d;" horiz-adv-x="1130" 
d="M1010 1348q68 0 68 -74t-62 -170t-187 -195l-30 33q96 104 121 197q6 27 8 71t4 60q10 78 78 78zM16 0l25 102h170l264 1143h-190l24 103h488l-25 -103h-180l-264 -1143h499l52 213h112l-73 -315h-902z" />
    <glyph glyph-name="lcaron" unicode="&#x13e;" horiz-adv-x="542" 
d="M719 1499q67 1 67 -73t-61 -170t-186 -195l-31 33q96 104 121 196q6 27 8 72t4 59q10 78 78 78zM268 -12q-68 0 -112 41t-43 104q0 14 14 86l276 1186h-161l22 94h268l-299 -1280q-14 -73 -14 -95q-1 -22 17 -40t47 -18q63 0 118 135l64 -21q-66 -192 -197 -192z" />
    <glyph glyph-name="Ldot" unicode="&#x13f;" horiz-adv-x="1130" 
d="M997 602q-45 0 -75 32t-29 77q0 45 30 77q31 32 75 31q44 0 74 -32q30 -33 30 -77t-30 -76t-75 -32zM16 0l25 102h170l264 1143h-190l24 103h488l-25 -103h-180l-264 -1143h499l52 213h112l-73 -315h-902z" />
    <glyph glyph-name="ldot" unicode="&#x140;" horiz-adv-x="636" 
d="M610 582q-44 0 -74 32t-30 76q0 45 30 77t74 32t75 -32q30 -32 30 -77q0 -44 -30 -76t-75 -32zM268 -12q-68 0 -112 41t-43 104q0 14 14 86l276 1186h-161l22 94h268l-299 -1280q-14 -73 -14 -95q-1 -22 17 -40t47 -18q63 0 118 135l64 -21q-66 -192 -197 -192z" />
    <glyph glyph-name="Lslash" unicode="&#x141;" horiz-adv-x="1130" 
d="M16 0l25 102h170l111 480l-195 -66l-33 90l252 86l129 553h-190l24 103h488l-25 -103h-180l-119 -512l252 86l33 -90l-309 -106l-121 -521h499l52 213h112l-73 -315h-902z" />
    <glyph glyph-name="lslash" unicode="&#x142;" horiz-adv-x="604" 
d="M299 -12q-68 0 -112 41t-44 104q0 14 15 86l127 545l-203 -82l-33 84l260 104l125 535h-162l23 94h268l-135 -575l238 100l32 -84l-295 -125l-139 -596q-14 -73 -14 -95t17 -40t46 -18q63 0 119 135l64 -21q-66 -192 -197 -192z" />
    <glyph glyph-name="Nacute" unicode="&#x143;" horiz-adv-x="1556" 
d="M1318 1780q34 0 54 -22t21 -48q0 -59 -76 -88l-389 -158l-23 39l340 246q39 31 73 31zM1145 -6l-578 1165l-243 -1057h190l-25 -102h-473l25 102h170l264 1143h-190l24 103h289l551 -1112l231 1009h-190l24 103h465l-24 -103h-164l-289 -1251h-57z" />
    <glyph glyph-name="nacute" unicode="&#x144;" horiz-adv-x="1087" 
d="M987 1350q33 0 55 -22t21 -48q0 -59 -76 -88l-389 -158l-23 39l340 246q39 31 72 31zM836 -12q-68 0 -112 41t-44 91t16 107l88 305q20 76 20 126t-41 88q-42 38 -108 38q-102 0 -204 -101t-146 -273l-102 -410h-107l193 766h-164l25 94h264l-54 -207q139 223 312 224
q106 1 174 -63t67 -161q0 -45 -24 -135l-88 -301q-41 -151 49 -151q63 0 119 135l63 -21q-65 -192 -196 -192z" />
    <glyph glyph-name="Ncommaaccent" unicode="&#x145;" horiz-adv-x="1556" 
d="M578 -202q0 34 25 61q26 27 68 27q43 0 71 -32q28 -30 28 -79q0 -91 -78 -181t-231 -141l-21 41q94 40 150 102t61 105q-33 8 -53 35q-20 28 -20 62zM1145 -6l-578 1165l-243 -1057h190l-25 -102h-473l25 102h170l264 1143h-190l24 103h289l551 -1112l231 1009h-190
l24 103h465l-24 -103h-164l-289 -1251h-57z" />
    <glyph glyph-name="ncommaaccent" unicode="&#x146;" horiz-adv-x="1087" 
d="M326 -202q0 34 25 61q26 27 68 27q43 0 71 -32q28 -30 28 -79q0 -91 -78 -181t-231 -141l-21 41q94 40 150 102t61 105q-33 8 -53 35q-20 28 -20 62zM836 -12q-68 0 -112 41t-44 91t16 107l88 305q20 76 20 126t-41 88q-42 38 -108 38q-102 0 -204 -101t-146 -273
l-102 -410h-107l193 766h-164l25 94h264l-54 -207q139 223 312 224q106 1 174 -63t67 -161q0 -45 -24 -135l-88 -301q-41 -151 49 -151q63 0 119 135l63 -21q-65 -192 -196 -192z" />
    <glyph glyph-name="Ncaron" unicode="&#x147;" horiz-adv-x="1556" 
d="M1018 1470l-217 287l53 47l186 -176l289 176l47 -61zM1145 -6l-578 1165l-243 -1057h190l-25 -102h-473l25 102h170l264 1143h-190l24 103h289l551 -1112l231 1009h-190l24 103h465l-24 -103h-164l-289 -1251h-57z" />
    <glyph glyph-name="ncaron" unicode="&#x148;" horiz-adv-x="1087" 
d="M686 1040l-217 287l53 47l187 -176l288 176l47 -61zM836 -12q-68 0 -112 41t-44 91t16 107l88 305q20 76 20 126t-41 88q-42 38 -108 38q-102 0 -204 -101t-146 -273l-102 -410h-107l193 766h-164l25 94h264l-54 -207q139 223 312 224q106 1 174 -63t67 -161
q0 -45 -24 -135l-88 -301q-41 -151 49 -151q63 0 119 135l63 -21q-65 -192 -196 -192z" />
    <glyph glyph-name="Omacron" unicode="&#x14c;" horiz-adv-x="1503" 
d="M711 1536l26 106h588l-22 -106h-592zM721 82q258 0 439 219t181 498q0 201 -114 334q-115 133 -334 133q-258 0 -439 -219t-182 -498q0 -201 115 -334t334 -133zM711 -25q-260 0 -410 162t-149 408q0 203 95 392t271 312t385 123q260 0 410 -162t149 -407
q0 -203 -95 -392t-271 -313t-385 -123z" />
    <glyph glyph-name="omacron" unicode="&#x14d;" horiz-adv-x="1028" 
d="M375 1106l26 106h588l-22 -106h-592zM457 80q157 0 265 128t107 302q0 121 -72 196q-73 75 -186 74q-157 0 -265 -128t-107 -302q1 -122 73 -196t185 -74zM451 -16q-166 0 -264 106q-97 106 -97 262q0 209 142 367t346 158q166 -1 263 -107t97 -262q0 -208 -142 -366
t-345 -158z" />
    <glyph glyph-name="Obreve" unicode="&#x14e;" horiz-adv-x="1503" 
d="M1000 1473q-104 -1 -168 71t-80 182l75 27q33 -166 191 -166t258 164l67 -41q-55 -104 -147 -170t-196 -67zM721 82q258 0 439 219t181 498q0 201 -114 334q-115 133 -334 133q-258 0 -439 -219t-182 -498q0 -201 115 -334t334 -133zM711 -25q-260 0 -410 162t-149 408
q0 203 95 392t271 312t385 123q260 0 410 -162t149 -407q0 -203 -95 -392t-271 -313t-385 -123z" />
    <glyph glyph-name="obreve" unicode="&#x14f;" horiz-adv-x="1028" 
d="M664 1042q-104 0 -168 72t-80 182l76 27q32 -166 190 -166t258 164l68 -41q-56 -104 -148 -171t-196 -67zM457 80q157 0 265 128t107 302q0 121 -72 196q-73 75 -186 74q-157 0 -265 -128t-107 -302q1 -122 73 -196t185 -74zM451 -16q-166 0 -264 106q-97 106 -97 262
q0 209 142 367t346 158q166 -1 263 -107t97 -262q0 -208 -142 -366t-345 -158z" />
    <glyph glyph-name="Ohungarumlaut" unicode="&#x150;" horiz-adv-x="1503" 
d="M1452 1772q31 0 49 -20t19 -52q0 -51 -78 -82l-320 -139l-20 41l274 217q45 35 76 35zM1065 1784q31 0 51 -20t20 -58q0 -39 -71 -76l-309 -162l-25 39l258 236q45 41 76 41zM721 82q258 0 439 219t181 498q0 201 -114 334q-115 133 -334 133q-258 0 -439 -219t-182 -498
q0 -201 115 -334t334 -133zM711 -25q-260 0 -410 162t-149 408q0 203 95 392t271 312t385 123q260 0 410 -162t149 -407q0 -203 -95 -392t-271 -313t-385 -123z" />
    <glyph glyph-name="ohungarumlaut" unicode="&#x151;" horiz-adv-x="1028" 
d="M786 1049l-20 41l274 217q81 63 125 14q18 -20 19 -51q0 -51 -78 -82zM729 1354q31 0 51 -20t20 -58q0 -39 -71 -76l-309 -162l-25 39l258 236q45 41 76 41zM457 80q157 0 265 128t107 302q0 121 -72 196q-73 75 -186 74q-157 0 -265 -128t-107 -302q1 -122 73 -196
t185 -74zM451 -16q-166 0 -264 106q-97 106 -97 262q0 209 142 367t346 158q166 -1 263 -107t97 -262q0 -208 -142 -366t-345 -158z" />
    <glyph glyph-name="OE" unicode="&#x152;" horiz-adv-x="1912" 
d="M831 102h89l264 1143h-133q-389 0 -602 -213q-186 -186 -187 -477q0 -188 109 -297q78 -78 183 -117t277 -39zM821 0q-197 0 -323 45t-224 143q-137 137 -137 361q0 328 209 536q262 262 727 263h912l-72 -306h-113l47 203h-547l-116 -506h446l-22 -102h-447l-125 -535
h547l47 203h113l-70 -305h-852z" />
    <glyph glyph-name="oe" unicode="&#x153;" horiz-adv-x="1679" 
d="M1276 780q-111 0 -206 -82t-136 -206h549q16 50 16 114t-56 119t-167 55zM457 80q157 0 265 128t107 302q0 121 -72 196q-73 75 -186 74q-157 0 -265 -128t-107 -302q1 -122 73 -196t185 -74zM1196 -16q-137 0 -230 66t-124 173q-150 -240 -391 -239q-166 0 -264 106
q-97 106 -97 262q0 209 142 367t346 158q128 0 210 -65t115 -175q139 240 383 240q146 0 230 -84t83 -222q0 -76 -34 -170h-652q-2 -18 -2 -55q0 -127 86 -198q86 -70 212 -70t276 80l-25 -111q-127 -63 -264 -63z" />
    <glyph glyph-name="Racute" unicode="&#x154;" horiz-adv-x="1232" 
d="M1131 1780q33 0 55 -22t20 -48q0 -59 -76 -88l-389 -158l-22 39l340 246q39 31 72 31zM639 668q199 0 315 90t115 233q0 100 -65 166q-88 88 -297 88h-115l-133 -573q98 -4 180 -4zM713 1348q262 0 385 -123q88 -88 88 -235q0 -146 -104 -258t-291 -150l229 -480h158
l-25 -102h-215l-266 567q-26 -2 -88 -2t-148 4l-108 -467h190l-24 -102h-478l25 102h170l264 1143h-190l24 103h404z" />
    <glyph glyph-name="racute" unicode="&#x155;" horiz-adv-x="743" 
d="M868 1350q34 0 54 -22t20 -48q0 -59 -76 -88l-389 -158l-22 39l340 246q39 31 73 31zM647 877q49 0 77 -26t28 -66q0 -39 -29 -69t-68 -30q-74 0 -90 70q-71 -40 -153 -142t-115 -237l-94 -377h-107l193 766h-164l25 94h264l-58 -233q182 250 291 250z" />
    <glyph glyph-name="Rcommaaccent" unicode="&#x156;" horiz-adv-x="1232" 
d="M623 -225q0 -91 -78 -181t-232 -141l-20 41q94 40 150 102t61 105q-33 8 -53 35q-21 28 -21 62t26 61t68 27t70 -32q29 -30 29 -79zM639 668q199 0 315 90t115 233q0 100 -65 166q-88 88 -297 88h-115l-133 -573q98 -4 180 -4zM713 1348q262 0 385 -123q88 -88 88 -235
q0 -146 -104 -258t-291 -150l229 -480h158l-25 -102h-215l-266 567q-26 -2 -88 -2t-148 4l-108 -467h190l-24 -102h-478l25 102h170l264 1143h-190l24 103h404z" />
    <glyph glyph-name="rcommaaccent" unicode="&#x157;" horiz-adv-x="743" 
d="M213 -225q1 -91 -77 -181t-232 -141l-21 41q95 40 151 102t60 105q-33 8 -53 35q-21 28 -21 62t26 61t68 27t70 -32q28 -30 29 -79zM647 877q49 0 77 -26t28 -66q0 -39 -29 -69t-68 -30q-74 0 -90 70q-71 -40 -153 -142t-115 -237l-94 -377h-107l193 766h-164l25 94h264
l-58 -233q182 250 291 250z" />
    <glyph glyph-name="Rcaron" unicode="&#x158;" horiz-adv-x="1232" 
d="M829 1470l-217 287l54 47l186 -176l289 176l47 -61zM639 668q199 0 315 90t115 233q0 100 -65 166q-88 88 -297 88h-115l-133 -573q98 -4 180 -4zM713 1348q262 0 385 -123q88 -88 88 -235q0 -146 -104 -258t-291 -150l229 -480h158l-25 -102h-215l-266 567
q-26 -2 -88 -2t-148 4l-108 -467h190l-24 -102h-478l25 102h170l264 1143h-190l24 103h404z" />
    <glyph glyph-name="rcaron" unicode="&#x159;" horiz-adv-x="743" 
d="M565 1040l-217 287l53 47l187 -176l289 176l47 -61zM647 877q49 0 77 -26t28 -66q0 -39 -29 -69t-68 -30q-74 0 -90 70q-71 -40 -153 -142t-115 -237l-94 -377h-107l193 766h-164l25 94h264l-58 -233q182 250 291 250z" />
    <glyph glyph-name="Sacute" unicode="&#x15a;" horiz-adv-x="1114" 
d="M1122 1780q32 0 55 -22q22 -22 21 -48q0 -59 -76 -88l-389 -158l-22 39l340 246q39 31 71 31zM979 350q0 -162 -127 -268t-313 -107q-185 1 -319 95t-134 198q0 55 31 89t74 34q43 1 69 -25t25 -57q0 -66 -64 -102q35 -53 121 -91t210 -38t217 76t93 176t-59 162
t-155 122t-141 92q-132 96 -169 184q-23 54 -23 122q0 148 121 254t288 106t285 -78t117 -180q0 -55 -30 -87t-71 -32q-40 0 -66 26q-25 27 -25 71t59 79q-90 98 -268 99q-127 0 -210 -71t-83 -169t58 -158t162 -124t147 -95q119 -86 157 -180q23 -55 23 -123z" />
    <glyph glyph-name="sacute" unicode="&#x15b;" horiz-adv-x="839" 
d="M888 1350q34 0 54 -22t21 -48q0 -59 -76 -88l-389 -158l-23 39l340 246q39 31 73 31zM287 666q1 -46 27 -76t59 -51t101 -55t113 -62q44 -28 80 -79q36 -50 35 -112q0 -115 -86 -181t-192 -66q-204 0 -315 112q-47 48 -47 94t24 74q26 28 62 29q36 0 56 -22
q20 -21 19 -55q0 -34 -33 -69q8 -10 37 -28q81 -45 173 -45t144 39t52 99t-44 98t-143 87t-147 88q-47 37 -64 73t-18 81q0 104 82 171t232 67t239 -91q47 -43 47 -92t-24 -76q-24 -26 -59 -26q-33 0 -55 20t-22 56t27 69q-50 50 -156 50q-106 -1 -155 -39q-49 -36 -49 -82z
" />
    <glyph glyph-name="Scedilla" unicode="&#x15e;" horiz-adv-x="1114" 
d="M494 -408q-131 0 -236 86l41 58q29 -20 85 -38t103 -20q92 0 93 70q0 31 -36 50t-95 9l-29 29l76 141q-176 11 -293 103t-117 188q0 55 31 89t74 34q43 1 69 -25t25 -57q0 -66 -64 -102q35 -53 121 -91t210 -38t217 76t93 176t-59 162t-155 122t-141 92q-132 96 -169 184
q-23 54 -23 122q0 148 121 254t288 106t285 -78t117 -180q0 -55 -30 -87t-71 -32q-40 0 -66 26q-25 27 -25 71t59 79q-90 98 -268 99q-127 0 -210 -71t-83 -169t58 -158t162 -124t147 -95q119 -86 157 -180q23 -55 23 -123q0 -156 -118 -259t-290 -114l-30 -86
q71 -8 109 -48q38 -41 38 -103t-57 -105t-137 -43z" />
    <glyph glyph-name="scedilla" unicode="&#x15f;" horiz-adv-x="839" 
d="M287 666q1 -46 27 -76t59 -51t101 -55t113 -62q44 -28 80 -79q36 -50 35 -112q0 -115 -87 -181t-209 -66h-7l-34 -93q71 -8 109 -48q38 -41 38 -103t-58 -105t-137 -43q-131 0 -235 86l41 58q29 -20 85 -38t103 -20q92 0 92 70q0 31 -35 50q-36 19 -96 9l-28 29l82 156
q-139 23 -217 104q-47 48 -47 94t24 74q26 28 62 29q36 0 56 -22q20 -21 19 -55q0 -34 -33 -69q8 -10 37 -28q81 -45 173 -45t144 39t52 99t-44 98t-143 87t-147 88q-47 37 -64 73t-18 81q0 104 82 171t232 67t239 -91q47 -43 47 -92t-24 -76q-24 -26 -59 -26q-33 0 -55 20
t-22 56t27 69q-50 50 -156 50q-106 -1 -155 -39q-49 -36 -49 -82z" />
    <glyph glyph-name="Scaron" unicode="&#x160;" horiz-adv-x="1114" 
d="M821 1470l-217 287l53 47l187 -176l289 176l47 -61zM979 350q0 -162 -127 -268t-313 -107q-185 1 -319 95t-134 198q0 55 31 89t74 34q43 1 69 -25t25 -57q0 -66 -64 -102q35 -53 121 -91t210 -38t217 76t93 176t-59 162t-155 122t-141 92q-132 96 -169 184
q-23 54 -23 122q0 148 121 254t288 106t285 -78t117 -180q0 -55 -30 -87t-71 -32q-40 0 -66 26q-25 27 -25 71t59 79q-90 98 -268 99q-127 0 -210 -71t-83 -169t58 -158t162 -124t147 -95q119 -86 157 -180q23 -55 23 -123z" />
    <glyph glyph-name="scaron" unicode="&#x161;" horiz-adv-x="839" 
d="M586 1040l-217 287l53 47l186 -176l289 176l47 -61zM287 666q1 -46 27 -76t59 -51t101 -55t113 -62q44 -28 80 -79q36 -50 35 -112q0 -115 -86 -181t-192 -66q-204 0 -315 112q-47 48 -47 94t24 74q26 28 62 29q36 0 56 -22q20 -21 19 -55q0 -34 -33 -69q8 -10 37 -28
q81 -45 173 -45t144 39t52 99t-44 98t-143 87t-147 88q-47 37 -64 73t-18 81q0 104 82 171t232 67t239 -91q47 -43 47 -92t-24 -76q-24 -26 -59 -26q-33 0 -55 20t-22 56t27 69q-50 50 -156 50q-106 -1 -155 -39q-49 -36 -49 -82z" />
    <glyph glyph-name="Tcommaaccent" unicode="&#x162;" horiz-adv-x="1296" 
d="M625 -225q0 -91 -78 -181t-232 -141l-20 41q94 40 150 102t61 105q-33 8 -53 35q-21 28 -21 62t26 61t68 27t70 -32q29 -30 29 -79zM311 0l25 102h180l262 1143h-375l-49 -213h-112l73 316h1092l-74 -316h-112l49 213h-375l-262 -1143h201l-25 -102h-498z" />
    <glyph glyph-name="tcommaaccent" unicode="&#x163;" horiz-adv-x="663" 
d="M166 -202q0 34 25 61q26 27 68 27t71 -32q29 -30 28 -79q0 -92 -77 -182q-78 -89 -232 -140l-20 41q94 40 150 102t61 105q-33 8 -54 35q-20 28 -20 62zM248 143q0 -27 19 -46t63 -19t176 86l45 -64q-160 -116 -243 -116t-128 41t-45 102q0 29 15 90l137 549h-152l25 94
h149l53 211l115 33l-61 -244h266l-25 -94h-264l-135 -551q-10 -45 -10 -72z" />
    <glyph glyph-name="Tcaron" unicode="&#x164;" horiz-adv-x="1296" 
d="M893 1470l-217 287l53 47l186 -176l289 176l47 -61zM311 0l25 102h180l262 1143h-375l-49 -213h-112l73 316h1092l-74 -316h-112l49 213h-375l-262 -1143h201l-25 -102h-498z" />
    <glyph glyph-name="tcaron" unicode="&#x165;" horiz-adv-x="663" 
d="M737 1391q68 0 68 -74q1 -73 -61 -169t-187 -196l-31 33q96 104 121 197q6 28 8 72t4 59q10 78 78 78zM248 143q0 -27 19 -46t63 -19t176 86l45 -64q-160 -116 -243 -116t-128 41t-45 102q0 29 15 90l137 549h-152l25 94h149l53 211l115 33l-61 -244h266l-25 -94h-264
l-135 -551q-10 -45 -10 -72z" />
    <glyph glyph-name="Umacron" unicode="&#x16a;" horiz-adv-x="1482" 
d="M684 1536l27 106h587l-22 -106h-592zM703 -25q-213 1 -325 107t-112 283q0 70 19 147l170 733h-191l25 103h477l-25 -103h-170l-170 -739q-16 -76 -16 -137q0 -135 79 -213t244 -78t264 98t136 258l184 811h-190l24 103h478l-25 -103h-170l-190 -829q-45 -203 -175 -322
t-341 -119z" />
    <glyph glyph-name="umacron" unicode="&#x16b;" horiz-adv-x="1087" 
d="M389 1106l27 106h588l-23 -106h-592zM250 198q0 -52 39 -87t104 -35q102 0 205 102q102 102 145 273l103 409h106l-161 -645q-15 -57 -15 -85t18 -46t46 -18q63 0 118 135l64 -21q-66 -193 -197 -192q-67 0 -107 39t-40 106q0 27 10 74q-135 -223 -311 -223
q-104 0 -170 58t-66 153q0 43 19 116l119 455h-164l24 94h271l-146 -557q-14 -53 -14 -105z" />
    <glyph glyph-name="Ubreve" unicode="&#x16c;" horiz-adv-x="1482" 
d="M972 1473q-104 -1 -168 71t-81 182l76 27q33 -166 191 -166t257 164l68 -41q-55 -104 -147 -170t-196 -67zM703 -25q-213 1 -325 107t-112 283q0 70 19 147l170 733h-191l25 103h477l-25 -103h-170l-170 -739q-16 -76 -16 -137q0 -135 79 -213t244 -78t264 98t136 258
l184 811h-190l24 103h478l-25 -103h-170l-190 -829q-45 -203 -175 -322t-341 -119z" />
    <glyph glyph-name="ubreve" unicode="&#x16d;" horiz-adv-x="1087" 
d="M678 1042q-104 0 -168 72t-80 182l76 27q32 -166 190 -166t258 164l68 -41q-56 -104 -148 -171t-196 -67zM250 198q0 -52 39 -87t104 -35q102 0 205 102q102 102 145 273l103 409h106l-161 -645q-15 -57 -15 -85t18 -46t46 -18q63 0 118 135l64 -21q-66 -193 -197 -192
q-67 0 -107 39t-40 106q0 27 10 74q-135 -223 -311 -223q-104 0 -170 58t-66 153q0 43 19 116l119 455h-164l24 94h271l-146 -557q-14 -53 -14 -105z" />
    <glyph glyph-name="Uring" unicode="&#x16e;" horiz-adv-x="1482" 
d="M893 1640q1 -54 27 -82q26 -30 74 -30t87 46t39 99t-26 83q-27 30 -75 30t-87 -46t-39 -100zM1202 1681q0 -87 -64 -160t-151 -73q-86 0 -131 49t-45 136t65 160q64 73 150 73t131 -49t45 -136zM703 -25q-213 1 -325 107t-112 283q0 70 19 147l170 733h-191l25 103h477
l-25 -103h-170l-170 -739q-16 -76 -16 -137q0 -135 79 -213t244 -78t264 98t136 258l184 811h-190l24 103h478l-25 -103h-170l-190 -829q-45 -203 -175 -322t-341 -119z" />
    <glyph glyph-name="uring" unicode="&#x16f;" horiz-adv-x="1087" 
d="M600 1210q0 -54 26 -82q26 -30 75 -30q48 0 87 46t39 99t-26 83q-27 30 -75 30t-87 -46t-39 -100zM734 1436q86 0 130 -50q45 -50 45 -136q-1 -86 -65 -159t-150 -73t-131 49t-45 136t65 160t151 73zM250 198q0 -52 39 -87t104 -35q102 0 205 102q102 102 145 273
l103 409h106l-161 -645q-15 -57 -15 -85t18 -46t46 -18q63 0 118 135l64 -21q-66 -193 -197 -192q-67 0 -107 39t-40 106q0 27 10 74q-135 -223 -311 -223q-104 0 -170 58t-66 153q0 43 19 116l119 455h-164l24 94h271l-146 -557q-14 -53 -14 -105z" />
    <glyph glyph-name="Uhungarumlaut" unicode="&#x170;" horiz-adv-x="1482" 
d="M1426 1772q30 0 48 -20t19 -52q0 -51 -78 -82l-319 -139l-21 41l275 217q46 35 76 35zM1038 1784q30 0 52 -20q20 -20 20 -58q0 -39 -72 -76l-309 -162l-24 39l258 236q45 41 75 41zM703 -25q-213 1 -325 107t-112 283q0 70 19 147l170 733h-191l25 103h477l-25 -103
h-170l-170 -739q-16 -76 -16 -137q0 -135 79 -213t244 -78t264 98t136 258l184 811h-190l24 103h478l-25 -103h-170l-190 -829q-45 -203 -175 -322t-341 -119z" />
    <glyph glyph-name="uhungarumlaut" unicode="&#x171;" horiz-adv-x="1087" 
d="M1198 1270q0 -51 -78 -82l-319 -139l-21 41l275 217q80 62 125 14q18 -20 18 -51zM744 1354q30 0 50 -20t21 -58q0 -39 -72 -76l-309 -162l-24 39l258 236q46 41 76 41zM250 198q0 -52 39 -87t104 -35q102 0 205 102q102 102 145 273l103 409h106l-161 -645
q-15 -57 -15 -85t18 -46t46 -18q63 0 118 135l64 -21q-66 -193 -197 -192q-67 0 -107 39t-40 106q0 27 10 74q-135 -223 -311 -223q-104 0 -170 58t-66 153q0 43 19 116l119 455h-164l24 94h271l-146 -557q-14 -53 -14 -105z" />
    <glyph glyph-name="Uogonek" unicode="&#x172;" horiz-adv-x="1482" 
d="M508 -268q0 125 151 245q-190 11 -291 115t-102 273q0 70 19 147l170 733h-191l25 103h477l-25 -103h-170l-170 -739q-16 -76 -16 -137q0 -135 79 -213t244 -78t264 98t136 258l184 811h-190l24 103h478l-25 -103h-170l-190 -829q-43 -188 -159 -305t-306 -134
q-145 -117 -146 -215q0 -80 94 -79q53 0 101 18l-19 -86q-44 -27 -118 -27t-116 39t-42 105z" />
    <glyph glyph-name="uogonek" unicode="&#x173;" horiz-adv-x="1087" 
d="M727 -238q0 -80 94 -79q53 0 101 18l-19 -86q-45 -27 -119 -27t-115 39q-42 39 -42 105q0 135 172 258q-55 8 -88 46t-33 81t10 88q-131 -219 -309 -219q-104 0 -170 58t-66 153q0 49 17 114l119 455h-164l24 94h271l-146 -557q-12 -45 -12 -100t39 -90t104 -35
q102 0 204 101q101 101 144 272l103 409h106l-161 -645q-14 -57 -15 -82q0 -66 62 -65q65 0 120 133l64 -21q-25 -78 -59 -116q-35 -38 -101 -95t-100 -105t-35 -102z" />
    <glyph glyph-name="Wcircumflex" unicode="&#x174;" horiz-adv-x="1902" 
d="M932 1462l-47 62l358 272l217 -287l-53 -47l-186 176zM428 -23l-45 1268h-143l24 103h414l-25 -103h-168l29 -1057l559 986h49l113 -988l557 1059h-164l25 103h411l-24 -103h-135l-674 -1268h-66l-118 957l-553 -957h-66z" />
    <glyph glyph-name="wcircumflex" unicode="&#x175;" horiz-adv-x="1331" 
d="M563 1032l-47 62l358 272l218 -287l-54 -47l-186 176zM1067 780q0 41 27 69q26 28 68 28t71 -31t29 -80q0 -244 -396 -801h-37l-131 602l-372 -602h-39l-70 801h-158l25 94h225l51 -696l353 584h32l138 -611q248 365 268 549q-84 16 -84 94z" />
    <glyph glyph-name="Ycircumflex" unicode="&#x176;" horiz-adv-x="1275" 
d="M610 1462l-47 62l359 272l217 -287l-54 -47l-186 176zM250 0l26 102h197l111 449l-234 694h-147l26 103h426l-22 -103h-162l195 -600l489 600h-154l27 103h426l-22 -103h-142l-598 -715l-100 -428h196l-22 -102h-516z" />
    <glyph glyph-name="ycircumflex" unicode="&#x177;" horiz-adv-x="970" 
d="M379 1032l-47 62l358 272l217 -287l-53 -47l-186 176zM-37 -410q-47 0 -85 30t-38 70t25 68t61 27q80 0 86 -94h11q96 0 350 311l-154 764h-160l23 94h233l138 -756q322 420 356 582q-35 10 -59 37t-25 63q0 36 27 64q28 27 68 27t69 -32t29 -89q0 -111 -100 -277
q-100 -167 -312 -439q-213 -272 -330 -361t-213 -89z" />
    <glyph glyph-name="Ydieresis" unicode="&#x178;" horiz-adv-x="1275" 
d="M723 1505q-43 0 -72 31t-28 74q1 44 29 74t71 30t72 -31t29 -73t-30 -74q-28 -31 -71 -31zM1051 1505q-43 0 -72 31t-29 74q0 44 29 74t72 30t71 -31t29 -73q-1 -42 -29 -74q-28 -31 -71 -31zM250 0l26 102h197l111 449l-234 694h-147l26 103h426l-22 -103h-162l195 -600
l489 600h-154l27 103h426l-22 -103h-142l-598 -715l-100 -428h196l-22 -102h-516z" />
    <glyph glyph-name="Zacute" unicode="&#x179;" horiz-adv-x="1239" 
d="M1162 1780q34 0 54 -22t21 -48q0 -59 -76 -88l-389 -158l-22 39l340 246q38 31 72 31zM16 0v49l1127 1202h-709l-49 -209h-113l70 306h987v-50l-1126 -1202h741l49 209h113l-70 -305h-1020z" />
    <glyph glyph-name="zacute" unicode="&#x17a;" horiz-adv-x="958" 
d="M922 1350q32 0 54 -22t21 -48q0 -59 -75 -88l-390 -158l-22 39l340 246q39 31 72 31zM328 123q62 0 151 -22q90 -21 142 -21t82 34t65 136l63 -14q-37 -141 -79 -197q-43 -55 -142 -55q-57 0 -169 28t-169 29q-115 0 -215 -55l-39 47l740 737h-457l-43 -168h-98l63 258
h676l29 -45l-719 -715q57 23 119 23z" />
    <glyph glyph-name="Zdotaccent" unicode="&#x17b;" horiz-adv-x="1239" 
d="M889 1501q-45 0 -75 32t-30 77t30 77q30 31 75 31t75 -32t30 -76q0 -45 -30 -77t-75 -32zM16 0v49l1127 1202h-709l-49 -209h-113l70 306h987v-50l-1126 -1202h741l49 209h113l-70 -305h-1020z" />
    <glyph glyph-name="zdotaccent" unicode="&#x17c;" horiz-adv-x="958" 
d="M647 1071q-45 0 -75 32t-29 77q-1 44 29 76t75 32t75 -32t30 -76t-30 -77q-30 -32 -75 -32zM328 123q62 0 151 -22q90 -21 142 -21t82 34t65 136l63 -14q-37 -141 -79 -197q-43 -55 -142 -55q-57 0 -169 28t-169 29q-115 0 -215 -55l-39 47l740 737h-457l-43 -168h-98
l63 258h676l29 -45l-719 -715q57 23 119 23z" />
    <glyph glyph-name="Zcaron" unicode="&#x17d;" horiz-adv-x="1239" 
d="M860 1470l-217 287l53 47l187 -176l288 176l48 -61zM16 0v49l1127 1202h-709l-49 -209h-113l70 306h987v-50l-1126 -1202h741l49 209h113l-70 -305h-1020z" />
    <glyph glyph-name="zcaron" unicode="&#x17e;" horiz-adv-x="958" 
d="M621 1040l-218 287l54 47l186 -176l289 176l47 -61zM328 123q62 0 151 -22q90 -21 142 -21t82 34t65 136l63 -14q-37 -141 -79 -197q-43 -55 -142 -55q-57 0 -169 28t-169 29q-115 0 -215 -55l-39 47l740 737h-457l-43 -168h-98l63 258h676l29 -45l-719 -715
q57 23 119 23z" />
    <glyph glyph-name="Aringacute" unicode="&#x1fa;" horiz-adv-x="1445" 
d="M1359 2140q34 0 54 -22t21 -47q0 -59 -76 -89l-389 -157l-23 39l340 245q39 31 73 31zM508 586h487l-88 669zM1061 1516q0 54 -27 82q-26 30 -74 30t-88 -46t-38 -99q0 -53 26 -83t75 -30q48 0 87 46t39 100zM969 1708q86 0 130 -49t44 -117t-32 -122q-32 -52 -81 -72
h172l-24 -103h-156l156 -1143h145l-25 -102h-413l24 102h150l-49 381h-564l-225 -381h174l-24 -102h-424l24 102h125l684 1143h-159l24 103h176q-67 47 -67 135q0 89 64 157t151 68z" />
    <glyph glyph-name="aringacute" unicode="&#x1fb;" horiz-adv-x="1130" 
d="M606 1210q0 -54 26 -82q26 -30 75 -30q48 0 88 46q39 46 39 99t-27 83t-75 30t-87 -46t-39 -100zM741 1573l-22 39l340 246q74 59 126 10q22 -20 21 -49q0 -59 -76 -88zM740 1436q86 0 130 -50t45 -136q-1 -86 -65 -159t-150 -73t-131 49t-45 136t65 160t151 73zM207 342
q0 -122 58 -192q57 -70 165 -70t194 72q171 146 171 380q1 110 -61 179q-62 70 -177 69q-150 0 -250 -132t-100 -306zM410 -16q-141 0 -230 96q-88 96 -88 260q0 219 137 378t324 159q115 1 189 -59t94 -165l51 217h106l-159 -655q-14 -57 -14 -85t16 -46q18 -18 47 -18
q63 0 118 135l64 -21q-66 -193 -197 -192q-68 0 -110 39t-41 98v35q-133 -176 -307 -176z" />
    <glyph glyph-name="AEacute" unicode="&#x1fc;" horiz-adv-x="1847" 
d="M1629 1780q34 0 54 -22t21 -48q0 -59 -76 -88l-389 -158l-22 39l339 246q39 31 73 31zM594 584h391l156 667h-41zM-88 0l25 102h169l867 1143h-178l24 103h1100l-72 -306h-112l47 203h-527l-116 -506h426l-23 -102h-426l-125 -535h527l47 203h112l-69 -305h-928l25 102
h169l89 381h-445l-289 -381h199l-25 -102h-491z" />
    <glyph glyph-name="aeacute" unicode="&#x1fd;" horiz-adv-x="1605" 
d="M1246 1350q32 0 54 -22t21 -48q0 -59 -76 -88l-389 -158l-22 39l340 246q40 31 72 31zM1201 780q-112 0 -207 -82t-134 -206h549q16 50 16 114t-56 119t-168 55zM340 80q135 0 255 93t150 233h-170q-395 0 -395 -209q0 -49 43 -83t117 -34zM838 346q0 -127 86 -198
q86 -70 212 -70t275 80l-25 -111q-127 -63 -271 -63t-234 74t-121 194q-55 -121 -171 -195q-116 -73 -250 -73t-201 66t-66 145q0 143 126 219t349 75h207q-2 127 -68 209t-181 82t-138 -30q20 -27 20 -58q0 -32 -25 -56q-24 -24 -58 -24t-58 27t-25 66q0 88 107 139
q66 33 155 33q279 0 332 -265q66 125 173 195q108 70 238 70t216 -84q84 -84 84 -222q0 -76 -35 -170h-649q-4 -37 -4 -55z" />
    <glyph glyph-name="Oslashacute" unicode="&#x1fe;" horiz-adv-x="1503" 
d="M1302 1780q34 0 54 -22t20 -48q0 -59 -76 -88l-389 -158l-22 39l340 246q39 31 73 31zM721 80q260 0 441 220t181 499q0 129 -45 227l-929 -795q121 -151 352 -151zM270 549q0 -127 45 -230l930 797q-121 152 -352 152q-259 0 -441 -220t-182 -499zM711 -25
q-276 0 -428 183l-207 -176l-68 81l215 183q-71 130 -71 316t95 375t271 312t385 123q272 0 428 -182l213 182l70 -80l-223 -190q71 -134 71 -318t-95 -373t-271 -313t-385 -123z" />
    <glyph glyph-name="oslashacute" unicode="&#x1ff;" horiz-adv-x="1028" 
d="M975 1350q33 0 55 -22t21 -48q0 -59 -76 -88l-389 -158l-23 39l340 246q39 31 72 31zM482 80q142 0 250 126t108 302q0 66 -19 115l-547 -467q66 -76 208 -76zM209 352q0 -76 20 -125l549 471q-72 82 -196 82q-156 0 -264 -125t-109 -303zM465 -16q-164 0 -266 108
l-127 -108l-58 73l131 109q-45 82 -45 188q0 211 138 367t346 156q168 0 270 -113l129 113l59 -72l-137 -117q43 -90 43 -182q0 -210 -139 -366t-344 -156z" />
    <glyph glyph-name="Scommaaccent" unicode="&#x218;" horiz-adv-x="1114" 
d="M547 -225q1 -91 -77 -181t-232 -141l-21 41q95 40 151 102t60 105q-33 8 -53 35q-21 28 -21 62t26 61t68 27t70 -32q29 -30 29 -79zM979 350q0 -162 -127 -268t-313 -107q-185 1 -319 95t-134 198q0 55 31 89t74 34q43 1 69 -25t25 -57q0 -66 -64 -102q35 -53 121 -91
t210 -38t217 76t93 176t-59 162t-155 122t-141 92q-132 96 -169 184q-23 54 -23 122q0 148 121 254t288 106t285 -78t117 -180q0 -55 -30 -87t-71 -32q-40 0 -66 26q-25 27 -25 71t59 79q-90 98 -268 99q-127 0 -210 -71t-83 -169t58 -158t162 -124t147 -95
q119 -86 157 -180q23 -55 23 -123z" />
    <glyph glyph-name="scommaaccent" unicode="&#x219;" horiz-adv-x="839" 
d="M418 -225q0 -91 -78 -181t-231 -141l-21 41q94 40 150 102t61 105q-33 8 -53 35q-20 28 -20 62t25 61t67 27t71 -32q29 -30 29 -79zM287 666q1 -46 27 -76t59 -51t101 -55t113 -62q44 -28 80 -79q36 -50 35 -112q0 -115 -86 -181t-192 -66q-204 0 -315 112q-47 48 -47 94
t24 74q26 28 62 29q36 0 56 -22q20 -21 19 -55q0 -34 -33 -69q8 -10 37 -28q81 -45 173 -45t144 39t52 99t-44 98t-143 87t-147 88q-47 37 -64 73t-18 81q0 104 82 171t232 67t239 -91q47 -43 47 -92t-24 -76q-24 -26 -59 -26q-33 0 -55 20t-22 56t27 69q-50 50 -156 50
q-106 -1 -155 -39q-49 -36 -49 -82z" />
    <glyph glyph-name="schwa" unicode="&#x259;" horiz-adv-x="962" 
d="M402 80q110 0 206 82t137 207h-548q-48 -148 39 -234q56 -55 166 -55zM80 289q0 76 35 170h649q4 37 4 55q0 127 -86 198q-86 70 -212 70t-275 -80l24 111q127 63 281 63t264 -96q110 -98 110 -264q0 -217 -144 -375t-337 -157q-145 0 -229 84t-84 221z" />
    <glyph glyph-name="circumflex" unicode="&#x2c6;" horiz-adv-x="1024" 
d="M420 1032l-47 62l358 272l217 -287l-53 -47l-186 176z" />
    <glyph glyph-name="caron" unicode="&#x2c7;" horiz-adv-x="1024" 
d="M649 1040l-217 287l53 47l187 -176l289 176l47 -61z" />
    <glyph glyph-name="breve" unicode="&#x2d8;" horiz-adv-x="1024" 
d="M648 1042q-104 0 -168 72t-81 182l76 27q33 -166 191 -166t258 164l67 -41q-55 -104 -147 -171t-196 -67z" />
    <glyph glyph-name="dotaccent" unicode="&#x2d9;" horiz-adv-x="1024" 
d="M684 1071q-45 0 -75 32t-29 77q0 44 30 76t74 32q45 0 75 -32q29 -32 29 -76t-30 -77q-30 -32 -74 -32z" />
    <glyph glyph-name="ring" unicode="&#x2da;" horiz-adv-x="1024" 
d="M683 1098q48 0 87 46t39 99t-27 83q-26 30 -74 30t-87 -46t-39 -100t26 -83q27 -29 75 -29zM715 1436q86 0 131 -50t45 -136q-1 -86 -65 -159t-150 -73t-131 49t-45 136t64 160q65 73 151 73z" />
    <glyph glyph-name="ogonek" unicode="&#x2db;" horiz-adv-x="1028" 
d="M336 -238q0 -80 94 -79q53 0 100 18l-18 -86q-45 -27 -119 -27q-73 0 -115 39t-42 118t82 168q84 89 219 161l65 -15q-266 -162 -266 -297z" />
    <glyph glyph-name="tilde" unicode="&#x2dc;" horiz-adv-x="1024" 
d="M805 1032q-76 0 -154 82q-55 55 -98 55q-72 0 -117 -125l-76 25q18 87 76 149t135 62t141 -68t111 -69q72 0 117 125l76 -25q-18 -87 -76 -149t-135 -62z" />
    <glyph glyph-name="hungarumlaut" unicode="&#x2dd;" horiz-adv-x="1024" 
d="M666 1049l-21 41l275 217q80 62 124 14q18 -20 19 -51q0 -51 -78 -82zM608 1354q31 0 51 -20q21 -20 21 -58q0 -39 -72 -76l-309 -162l-25 39l258 236q45 41 76 41z" />
    <glyph glyph-name="commaaccent" unicode="&#x326;" horiz-adv-x="430" 
d="M367 -225q0 -91 -78 -181t-232 -141l-20 41q94 40 150 102t61 105q-33 8 -53 35q-21 28 -21 62t26 61t68 27t70 -32q29 -30 29 -79z" />
    <glyph glyph-name="Wgrave" unicode="&#x1e80;" horiz-adv-x="1902" 
d="M1040 1780q38 0 78 -56l170 -229l-33 -33l-241 156q-58 39 -58 78q0 40 23 62t61 22zM428 -23l-45 1268h-143l24 103h414l-25 -103h-168l29 -1057l559 986h49l113 -988l557 1059h-164l25 103h411l-24 -103h-135l-674 -1268h-66l-118 957l-553 -957h-66z" />
    <glyph glyph-name="wgrave" unicode="&#x1e81;" horiz-adv-x="1331" 
d="M590 1266q0 40 22 62t61 22q38 0 79 -56l170 -229l-33 -33l-242 156q-57 39 -57 78zM1067 780q0 41 27 69q26 28 68 28t71 -31t29 -80q0 -244 -396 -801h-37l-131 602l-372 -602h-39l-70 801h-158l25 94h225l51 -696l353 584h32l138 -611q248 365 268 549q-84 16 -84 94z
" />
    <glyph glyph-name="Wacute" unicode="&#x1e82;" horiz-adv-x="1902" 
d="M1479 1780q33 0 55 -22t20 -48q0 -59 -75 -88l-389 -158l-23 39l340 246q39 31 72 31zM428 -23l-45 1268h-143l24 103h414l-25 -103h-168l29 -1057l559 986h49l113 -988l557 1059h-164l25 103h411l-24 -103h-135l-674 -1268h-66l-118 957l-553 -957h-66z" />
    <glyph glyph-name="wacute" unicode="&#x1e83;" horiz-adv-x="1331" 
d="M1113 1350q34 0 54 -22t21 -48q0 -59 -76 -88l-389 -158l-23 39l340 246q39 31 73 31zM1067 780q0 41 27 69q26 28 68 28t71 -31t29 -80q0 -244 -396 -801h-37l-131 602l-372 -602h-39l-70 801h-158l25 94h225l51 -696l353 584h32l138 -611q248 365 268 549
q-84 16 -84 94z" />
    <glyph glyph-name="Wdieresis" unicode="&#x1e84;" horiz-adv-x="1902" 
d="M1042 1505q-44 0 -72 31t-28 74q0 44 29 74t71 30t72 -31q29 -31 29 -73t-29 -74q-29 -31 -72 -31zM1370 1505q-43 0 -72 31t-28 74q0 44 28 74t72 30q43 0 72 -31q28 -31 28 -73t-28 -74q-28 -31 -72 -31zM428 -23l-45 1268h-143l24 103h414l-25 -103h-168l29 -1057
l559 986h49l113 -988l557 1059h-164l25 103h411l-24 -103h-135l-674 -1268h-66l-118 957l-553 -957h-66z" />
    <glyph glyph-name="wdieresis" unicode="&#x1e85;" horiz-adv-x="1331" 
d="M1004 1075q-43 0 -72 31t-29 74q0 44 29 74t72 30q44 0 72 -31t28 -73t-28 -74q-28 -31 -72 -31zM676 1075q-43 0 -72 31t-29 74q0 44 29 74t72 30t72 -31q28 -31 28 -73t-28 -74q-28 -31 -72 -31zM1067 780q0 41 27 69q26 28 68 28t71 -31t29 -80q0 -244 -396 -801h-37
l-131 602l-372 -602h-39l-70 801h-158l25 94h225l51 -696l353 584h32l138 -611q248 365 268 549q-84 16 -84 94z" />
    <glyph glyph-name="Ygrave" unicode="&#x1ef2;" horiz-adv-x="1275" 
d="M637 1696q1 40 23 62t60 22t79 -56l170 -229l-33 -33l-242 156q-57 39 -57 78zM250 0l26 102h197l111 449l-234 694h-147l26 103h426l-22 -103h-162l195 -600l489 600h-154l27 103h426l-22 -103h-142l-598 -715l-100 -428h196l-22 -102h-516z" />
    <glyph glyph-name="ygrave" unicode="&#x1ef3;" horiz-adv-x="970" 
d="M406 1266q0 40 22 62t60 22t79 -56l170 -229l-32 -33l-242 156q-57 39 -57 78zM-37 -410q-47 0 -85 30t-38 70t25 68t61 27q80 0 86 -94h11q96 0 350 311l-154 764h-160l23 94h233l138 -756q322 420 356 582q-35 10 -59 37t-25 63q0 36 27 64q28 27 68 27t69 -32t29 -89
q0 -111 -100 -277q-100 -167 -312 -439q-213 -272 -330 -361t-213 -89z" />
    <glyph glyph-name="enspace" unicode="&#x2002;" horiz-adv-x="1024" 
 />
    <glyph glyph-name="emspace" unicode="&#x2003;" horiz-adv-x="2048" 
 />
    <glyph glyph-name="threeperemspace" unicode="&#x2004;" horiz-adv-x="681" 
 />
    <glyph glyph-name="fourperemspace" unicode="&#x2005;" horiz-adv-x="512" 
 />
    <glyph glyph-name="figurespace" unicode="&#x2007;" horiz-adv-x="1085" 
 />
    <glyph glyph-name="thinspace" unicode="&#x2009;" horiz-adv-x="272" 
 />
    <glyph glyph-name="hairspace" unicode="&#x200a;" horiz-adv-x="153" 
 />
    <glyph glyph-name="endash" unicode="&#x2013;" horiz-adv-x="808" 
d="M47 512l27 106h717l-23 -106h-721z" />
    <glyph glyph-name="emdash" unicode="&#x2014;" horiz-adv-x="1263" 
d="M47 512l27 106h1171l-22 -106h-1176z" />
    <glyph glyph-name="quoteleft" unicode="&#x2018;" horiz-adv-x="399" 
d="M316 870q-48 0 -78 35t-31 90q0 102 99 212t257 175l23 -45q-104 -61 -162 -131t-72 -123q76 -29 76 -102q0 -45 -32 -78t-80 -33z" />
    <glyph glyph-name="quoteright" unicode="&#x2019;" horiz-adv-x="399" 
d="M289 1270q0 45 32 78q31 32 79 32t79 -34t31 -91q0 -101 -99 -211t-257 -176l-23 45q104 61 162 131q57 70 72 123q-76 29 -76 103z" />
    <glyph glyph-name="quotesinglbase" unicode="&#x201a;" horiz-adv-x="397" 
d="M43 108q0 38 30 67q29 30 75 30t78 -35t32 -88q0 -102 -86 -202t-258 -156l-23 45q104 47 167 115q62 69 69 116q-37 8 -61 39t-23 69z" />
    <glyph glyph-name="quotedblleft" unicode="&#x201c;" horiz-adv-x="776" 
d="M316 870q-48 0 -78 35t-31 90q0 102 99 212t257 175l23 -45q-104 -61 -162 -131t-72 -123q76 -29 76 -102q0 -45 -32 -78t-80 -33zM693 870q-48 0 -79 35t-30 90q0 102 99 212t257 175l23 -45q-103 -61 -161 -131t-73 -123q76 -29 76 -102q0 -45 -32 -78t-80 -33z" />
    <glyph glyph-name="quotedblright" unicode="&#x201d;" horiz-adv-x="776" 
d="M289 1270q0 45 32 78q31 32 79 32t79 -34t31 -91q0 -101 -99 -211t-257 -176l-23 45q104 61 162 131q57 70 72 123q-76 29 -76 103zM887 1255q1 -101 -99 -211t-258 -176l-22 45q104 61 162 131q57 70 71 123q-76 29 -75 103q0 45 31 78q32 32 80 32t79 -34t31 -91z" />
    <glyph glyph-name="quotedblbase" unicode="&#x201e;" horiz-adv-x="768" 
d="M43 108q0 38 30 67q29 30 75 30t78 -35t32 -88q0 -102 -86 -202t-258 -156l-23 45q104 47 167 115q62 69 69 116q-37 8 -61 39t-23 69zM519 205q46 0 78 -35t32 -88q0 -102 -86 -202t-258 -156l-23 45q104 47 167 115q62 69 69 116q-37 8 -61 39q-23 31 -23 69t29 67
q30 30 76 30z" />
    <glyph glyph-name="dagger" unicode="&#x2020;" horiz-adv-x="917" 
d="M98 809q0 41 32 72t68 31t78 -9l224 -41l20 334q6 106 84 107q56 1 70 -47t-10 -99l-117 -303l223 49q45 8 57 8q49 1 77 -29t28 -72t-24 -70t-64 -28t-69 34q-28 34 -23 85l-187 -28l-225 -807h-61l174 817l-174 18q4 -51 -24 -85t-69 -34q-40 0 -64 28t-24 69z" />
    <glyph glyph-name="daggerdbl" unicode="&#x2021;" horiz-adv-x="958" 
d="M110 84q-36 0 -71 30t-35 68t26 67q26 27 66 27t69 -32q28 -32 23 -80l152 20l106 346l37 338l-147 21q4 -49 -24 -81t-68 -32t-67 28q-25 28 -25 66t34 69q34 30 70 30t78 -8l182 -39l19 274q6 106 83 107q56 1 70 -47t-10 -99l-92 -235l162 39q40 8 76 8t71 -30t35 -69
q0 -38 -26 -66t-66 -28t-69 32q-28 32 -24 81l-151 -21l-107 -346l-36 -338l147 -20q-4 49 24 81q28 31 68 31t67 -28q25 -28 25 -66t-34 -68t-70 -30t-78 8l-182 39l-19 -274q-6 -106 -84 -107q-57 0 -70 47t11 99l92 235l-162 -39q-40 -8 -76 -8z" />
    <glyph glyph-name="bullet" unicode="&#x2022;" horiz-adv-x="550" 
d="M303 373q-74 0 -122 51t-48 125t48 126t122 52t122 -52t48 -126t-48 -125t-122 -51z" />
    <glyph glyph-name="ellipsis" unicode="&#x2026;" horiz-adv-x="1159" 
d="M109 -16q-45 0 -76 32t-31 78q0 47 31 79t76 32t75 -32t31 -79q-1 -46 -31 -78t-75 -32zM500 -16q-45 0 -76 32t-31 78q0 47 31 79t76 32q46 0 76 -32t30 -79q0 -46 -30 -78t-76 -32zM891 -16q-45 0 -76 32t-31 78q0 47 31 79t76 32t76 -32t31 -79t-31 -79
q-31 -31 -76 -31z" />
    <glyph glyph-name="perthousand" unicode="&#x2030;" horiz-adv-x="1699" 
d="M518 830q0 142 -119 141q-57 0 -112 -66t-55 -137t30 -106t88 -35q58 -1 113 65t55 138zM1278 198q0 -142 120 -141q58 0 112 66t54 137q0 70 -30 106t-88 36t-113 -66t-55 -138zM760 198q0 -142 118 -141q58 0 113 66t55 137q0 70 -30 106t-88 36t-113 -66t-55 -138z
M141 -18l-57 63l1049 997l57 -63zM1396 -16q-100 0 -152 57t-52 157t77 188q77 89 177 89t152 -57t52 -157q0 -101 -76 -189q-78 -88 -178 -88zM878 -16q-100 0 -152 57t-52 157t77 188q77 89 177 89t152 -57t52 -157q0 -101 -76 -189q-78 -88 -178 -88zM604 830
q0 -100 -76 -188q-76 -89 -178 -89q-100 0 -152 57t-52 157q0 101 76 189q78 88 178 88t152 -57t52 -157z" />
    <glyph glyph-name="guilsinglleft" unicode="&#x2039;" horiz-adv-x="573" 
d="M356 233l-266 328l410 322l57 -66l-324 -276l191 -256z" />
    <glyph glyph-name="guilsinglright" unicode="&#x203a;" horiz-adv-x="573" 
d="M141 231l-57 66l324 276l-191 256l68 52l266 -328z" />
    <glyph glyph-name="fraction" unicode="&#x2044;" horiz-adv-x="1024" 
d="M-12 -25l-56 48q37 45 264 312t828 992l55 -47q-152 -184 -551 -651q-61 -74 -540 -654z" />
    <glyph glyph-name="zero.sup" unicode="&#x2070;" horiz-adv-x="722" 
d="M500 948q100 0 169 125t68 275q0 207 -141 206q-100 0 -169 -124t-69 -275q1 -207 142 -207zM494 868q-106 0 -167 76q-60 76 -61 205q0 195 95 340t241 145q106 0 167 -75q60 -76 60 -205q0 -194 -95 -340t-240 -146z" />
    <glyph glyph-name="four.sup" unicode="&#x2074;" horiz-adv-x="722" 
d="M547 952l35 146h-340l-11 39l494 505l55 -51l-420 -424h240l39 158l90 35l-43 -189h125l-18 -73h-125l-33 -146h100l-16 -71h-320l17 71h131z" />
    <glyph glyph-name="five.sup" unicode="&#x2075;" horiz-adv-x="722" 
d="M461 866q-86 0 -153 41t-66 94q0 29 17 49t43 19q26 0 42 -15q16 -16 16 -38t-14 -37q39 -35 127 -35t152 57q63 57 63 127q0 142 -147 142q-86 0 -162 -35l-43 33l115 354h391l-19 -84h-319l-72 -219q66 27 146 27t140 -56t60 -156q0 -102 -92 -185t-225 -83z" />
    <glyph glyph-name="six.sup" unicode="&#x2076;" horiz-adv-x="722" 
d="M559 1272q-72 0 -130 -58t-58 -122q1 -64 41 -105t114 -41t129 56t55 125t-39 107q-40 38 -112 38zM666 1636q78 0 132 -39t54 -79t-18 -59t-44 -19t-42 16t-16 40t18 40q-25 25 -82 25q-90 0 -178 -83t-119 -245q82 115 211 115q98 0 159 -58t61 -158t-83 -183t-193 -83
t-179 69t-69 193t45 234q44 110 119 178q102 96 224 96z" />
    <glyph glyph-name="seven.sup" unicode="&#x2077;" horiz-adv-x="722" 
d="M338 881l450 665h-331l-29 -125h-84l49 201h494l20 -41l-467 -700h-102z" />
    <glyph glyph-name="eight.sup" unicode="&#x2078;" horiz-adv-x="722" 
d="M517 948q75 0 127 42t52 102t-45 97q-45 38 -121 38t-126 -42q-52 -41 -52 -101t45 -98t120 -38zM598 1300q66 0 113 39t47 93t-41 89q-41 33 -109 33t-114 -36t-48 -92q0 -56 44 -91q42 -35 108 -35zM521 868q-117 0 -189 60t-72 141q0 82 57 139t140 70
q-102 47 -103 152q0 80 72 141t180 61t176 -53t68 -131t-48 -127t-126 -68q112 -49 112 -152t-76 -168t-191 -65z" />
    <glyph glyph-name="nine.sup" unicode="&#x2079;" horiz-adv-x="722" 
d="M592 1556q-74 0 -129 -56t-55 -124t40 -107q40 -38 111 -38q72 0 130 57q59 58 59 122t-41 105t-115 41zM537 1155q-98 1 -160 59t-62 158t84 182q83 82 193 82t179 -68t69 -193q0 -123 -44 -233t-120 -179q-102 -96 -223 -97q-78 0 -132 39q-55 39 -55 79t18 59t44 19
q25 0 42 -15q17 -16 17 -40t-18 -40q25 -25 82 -25q91 0 179 85t118 241q-82 -113 -211 -113z" />
    <glyph glyph-name="zero.inf" unicode="&#x2080;" horiz-adv-x="722" 
d="M229 -219q100 0 169 125t69 274q0 207 -141 207q-100 0 -169 -125t-69 -274q0 -207 141 -207zM223 -299q-106 0 -167 76q-60 76 -60 205q0 195 95 340t241 145q106 0 166 -76t61 -205q1 -195 -95 -340t-241 -145z" />
    <glyph glyph-name="one.inf" unicode="&#x2081;" horiz-adv-x="722" 
d="M-37 -287l19 80h208l134 572l-211 -41v82l276 59l41 -21l-149 -651h204l-18 -80h-504z" />
    <glyph glyph-name="two.inf" unicode="&#x2082;" horiz-adv-x="722" 
d="M471 278q0 50 -38 80t-99 29q-113 0 -152 -57q25 -26 25 -52q1 -26 -17 -44t-46 -17q-28 -1 -45 19t-17 53q0 63 73 121t179 59q106 0 168 -52t63 -134q0 -81 -58 -137t-183 -123q-203 -113 -265 -234h326l27 117h80l-43 -193h-488l-16 41q45 111 126 187t197 138
t160 105q43 44 43 94z" />
    <glyph glyph-name="three.inf" unicode="&#x2083;" horiz-adv-x="722" 
d="M500 -82q0 -98 -81 -156t-189 -59q-108 0 -178 47q-71 47 -70 113q0 29 18 51t44 20q26 0 42 -16t16 -44t-28 -42q39 -51 137 -51t147 39q50 39 50 97t-56 99t-139 41h-29l19 80h30q102 0 163 39q60 39 60 96t-42 86q-43 29 -116 29t-101 -35q20 -10 20 -36t-17 -42
t-43 -16t-43 18q-18 18 -18 62t62 86q62 43 164 43q100 0 164 -52t65 -132q0 -80 -59 -129t-150 -62q72 -18 115 -64t43 -110z" />
    <glyph glyph-name="four.inf" unicode="&#x2084;" horiz-adv-x="722" 
d="M276 -215l35 145h-340l-10 39l494 506l55 -51l-420 -424h240l39 158l90 35l-43 -189h125l-19 -74h-125l-32 -145h100l-16 -72h-320l16 72h131z" />
    <glyph glyph-name="five.inf" unicode="&#x2085;" horiz-adv-x="722" 
d="M190 -301q-86 0 -152 41t-67 94q-1 29 17 48q18 20 44 20t42 -16t16 -38t-14 -36q39 -35 127 -35t151 57q64 56 64 126t-38 106t-117 36t-154 -34l-43 32l114 355h391l-18 -84h-320l-71 -219q66 26 146 26t139 -55q61 -55 61 -157t-92 -184t-226 -83z" />
    <glyph glyph-name="six.inf" unicode="&#x2086;" horiz-adv-x="722" 
d="M256 -221q74 0 129 56q55 57 55 125t-40 106t-112 38t-129 -57q-59 -57 -59 -121t41 -106q41 -41 115 -41zM532 -36q0 -100 -84 -182t-192 -84q-110 0 -179 69t-69 193t44 234t120 179q102 96 223 96q78 0 132 -39q55 -39 55 -79t-18 -59q-18 -20 -44 -20q-25 0 -42 16
t-17 41q0 24 18 40q-25 25 -82 24q-90 0 -178 -83t-119 -244q82 115 211 114q97 0 159 -58t62 -158z" />
    <glyph glyph-name="seven.inf" unicode="&#x2087;" horiz-adv-x="722" 
d="M68 -287l450 666h-332l-28 -125h-84l49 201h493l21 -41l-467 -701h-102z" />
    <glyph glyph-name="eight.inf" unicode="&#x2088;" horiz-adv-x="722" 
d="M247 -219q75 0 127 42t52 101q0 60 -45 98t-121 38t-127 -43q-51 -42 -51 -101t45 -97t120 -38zM176 258q0 -55 44 -90t108 -35q66 0 112 39t47 93q0 54 -41 88q-40 34 -108 34t-115 -37t-47 -92zM251 -299q-116 0 -189 59q-72 60 -72 142t57 139t139 70
q-102 47 -102 151q0 80 72 141t180 61t176 -52q68 -54 68 -132t-48 -126t-126 -68q112 -48 112 -152t-76 -168t-191 -65z" />
    <glyph glyph-name="nine.inf" unicode="&#x2089;" horiz-adv-x="722" 
d="M289 63q72 -1 130 57t58 122q-1 64 -41 106q-40 41 -114 41t-129 -56q-55 -57 -55 -125t39 -106q40 -38 112 -39zM45 204q0 100 84 182q83 82 193 83q110 0 179 -69q69 -68 69 -192t-45 -234q-44 -110 -119 -179q-102 -96 -224 -96q-78 0 -132 39t-54 79t18 59
q18 20 43 20t42 -16t17 -41q0 -24 -18 -40q25 -25 82 -24q90 0 168 73q100 96 129 252q-82 -113 -211 -112q-98 0 -160 58q-61 58 -61 158z" />
    <glyph glyph-name="Euro" unicode="&#x20ac;" horiz-adv-x="1159" 
d="M180 430q0 84 25 164h-123l20 88h138q72 156 215 256t317 100t267 -85t94 -181q0 -47 -29 -84t-68 -37q-82 0 -82 80q0 20 18 47t42 35q-55 127 -252 127q-127 0 -236 -72t-172 -186h404l-21 -88h-422q-29 -82 -28 -164h430l-21 -88h-403q25 -125 117 -194t219 -68
q176 0 332 119l55 -80q-190 -137 -404 -137q-162 0 -280 95t-146 265h-145l20 88h119z" />
    <glyph glyph-name="published" unicode="&#x2117;" horiz-adv-x="1224" 
d="M778 602q0 51 -37 81t-94 30h-72v-224l74 -2q59 0 94 32t35 83zM438 236v63h68v414h-68v63h211q89 0 145 -47t56 -128t-55 -128t-130 -47t-90 2v-129h72v-63h-209zM612 49q188 0 314 135q125 135 125 330t-125 330q-126 135 -314 135t-313 -135t-125 -330t125 -330
t313 -135zM612 -16q-221 0 -367 154q-147 154 -147 375q0 222 146 376q146 153 368 153q221 0 368 -153q146 -154 146 -376t-146 -376q-147 -153 -368 -153z" />
    <glyph glyph-name="servicemark" unicode="&#x2120;" horiz-adv-x="1296" 
d="M639 846l14 63h74l107 375h-76l14 64h158l71 -326l226 326h170l-15 -64h-77l-72 -375h78l-15 -63h-206l14 63h61l68 338l-236 -340h-34l-78 340l-90 -338h63l-14 -63h-205zM419 838q-81 0 -135 36t-55 91q1 29 17 47t41 18q49 0 49 -49q0 -29 -21 -45q31 -35 89 -35
q58 -1 86 19t28 51t-21 51q-22 20 -77 50t-86 63t-31 86t48 94t125 41t124 -36t47 -77q0 -68 -55 -67q-51 0 -51 47q0 25 20 45q-19 24 -73 24t-80 -20t-27 -49q1 -29 23 -48t75 -51q117 -63 117 -145q0 -59 -48 -100t-129 -41z" />
    <glyph glyph-name="trademark" unicode="&#x2122;" horiz-adv-x="1296" 
d="M238 846l14 63h78l90 379h-129l-21 -80h-69l32 140h469l-32 -140h-72l20 80h-126l-91 -379h76l-14 -63h-225zM639 846l14 63h74l107 375h-76l14 64h158l71 -326l226 326h170l-15 -64h-77l-72 -375h78l-15 -63h-206l14 63h61l68 338l-236 -340h-34l-78 340l-90 -338h63
l-14 -63h-205z" />
    <glyph glyph-name="onethird" unicode="&#x2153;" horiz-adv-x="1628" 
d="M365 -25l-56 48q37 45 264 312t828 992l55 -47q-37 -45 -290 -343t-801 -962zM1485 205q0 -99 -81 -157q-82 -58 -188 -58t-178 47t-71 113q0 28 18 50t44 22t42 -17q16 -16 16 -44t-28 -42q39 -51 137 -51t147 38t49 98q0 58 -54 99q-56 41 -140 41h-29l19 80h31
q102 0 162 39q61 39 61 96t-43 86t-116 29t-101 -35q20 -10 20 -36t-17 -42t-43 -16t-43 18t-18 49q1 54 63 98t162 44t166 -52q64 -52 64 -133q0 -80 -59 -129t-150 -61q72 -19 115 -65t43 -109zM150 573l18 80h209l133 572l-211 -41v82l276 59l41 -20l-149 -652h205
l-19 -80h-503z" />
    <glyph glyph-name="twothirds" unicode="&#x2154;" horiz-adv-x="1628" 
d="M362 -25l-55 48q37 45 264 312t828 992l55 -47q-37 -45 -309 -365q-272 -321 -783 -940zM1481 205q0 -99 -81 -157q-82 -58 -188 -58t-178 47t-71 113q0 28 18 50t44 22t42 -17q16 -16 16 -44t-28 -42q39 -51 137 -51t147 38t49 98q0 58 -54 99q-56 41 -140 41h-29l19 80
h30q102 0 163 39t61 96t-43 86t-116 29t-101 -35q20 -10 20 -36t-17 -42t-43 -16t-43 18t-18 49q1 54 63 98t162 44t166 -52q64 -52 64 -133q0 -80 -59 -129t-150 -61q72 -19 115 -65t43 -109zM524 1329q106 0 168 -52t64 -134q0 -82 -58 -137t-184 -123
q-203 -113 -264 -234h325l27 117h80l-43 -193h-487l-17 41q45 111 126 187t197 138t160 105q44 44 44 94t-38 80t-100 29q-113 0 -151 -57q25 -26 25 -52t-18 -43q-17 -17 -45 -17t-45 18q-17 20 -18 53q0 63 73 121t179 59z" />
    <glyph glyph-name="onefifth" unicode="&#x2155;" horiz-adv-x="1628" 
d="M354 -25l-55 48q37 45 264 312t828 992l55 -47q-37 -45 -309 -365q-272 -321 -783 -940zM1169 -14q-87 0 -153 41t-66 94q0 29 18 48t43 19q26 0 42 -15t16 -37t-14 -38q39 -35 127 -35q88 -1 151 57t63 128q1 141 -147 141q-86 0 -162 -35l-43 33l115 354h391l-18 -84
h-320l-71 -219q65 27 145 27t140 -55t60 -157q0 -103 -92 -185t-225 -82zM141 573l19 80h209l133 572l-211 -41v82l276 59l41 -20l-149 -652h205l-19 -80h-504z" />
    <glyph glyph-name="twofifths" unicode="&#x2156;" horiz-adv-x="1628" 
d="M387 -25l-55 48q47 58 551 651q61 74 540 653l56 -47q-37 -45 -309 -365q-272 -321 -783 -940zM1178 -14q-86 0 -153 41t-67 94q0 29 18 48t43 19q26 0 42 -15t16 -37t-14 -38q39 -35 127 -35q88 -1 151 57t63 128q1 141 -147 141q-86 0 -161 -35l-43 33l114 354h392
l-19 -84h-319l-72 -219q65 27 145 27t140 -55t61 -157q0 -103 -92 -185t-225 -82zM700 1138q0 50 -37 80q-38 30 -100 29q-113 0 -151 -57q24 -26 24 -52t-17 -43t-45 -17t-45 18q-17 20 -18 53q0 63 73 121t179 59q107 0 169 -52t62 -134t-58 -137t-183 -123
q-203 -113 -264 -234h325l27 117h80l-43 -193h-488l-16 41q45 111 126 187q82 76 198 138t159 105q43 44 43 94z" />
    <glyph glyph-name="threefifths" unicode="&#x2157;" horiz-adv-x="1628" 
d="M342 -25l-55 48q47 58 551 651q61 74 540 653l56 -47q-37 -45 -309 -365q-272 -321 -783 -940zM1161 -14q-87 0 -153 41t-66 94q0 29 17 48t43 19t42 -15t16 -37t-13 -38q39 -35 127 -35q88 -1 150 57q64 58 64 128q1 141 -147 141q-86 0 -162 -35l-43 33l115 354h391
l-18 -84h-320l-71 -219q65 27 145 27t140 -55t60 -157q0 -103 -92 -185t-225 -82zM698 778q0 -98 -80 -156t-188 -59q-106 0 -178 47t-72 113q0 29 18 51t45 21q26 -1 42 -17t16 -44t-29 -42q40 -51 138 -51t147 39t49 97q0 57 -55 99t-139 42h-29l18 79h31q102 0 163 39
q60 38 60 96t-43 87q-44 29 -116 29t-101 -36q21 -10 21 -36t-18 -41q-18 -17 -43 -17q-26 0 -43 18t-17 50q0 55 62 98q63 43 163 43t165 -52t65 -132t-60 -129t-149 -62q73 -18 115 -64t42 -110z" />
    <glyph glyph-name="fourfifths" unicode="&#x2158;" horiz-adv-x="1628" 
d="M362 -25l-55 48q37 45 264 312t828 992l55 -47q-37 -45 -309 -365q-272 -321 -783 -940zM479 645l35 146h-340l-10 38l493 506l56 -51l-420 -424h239l39 158l91 35l-44 -189h125l-18 -73h-125l-33 -146h101l-17 -72h-319l16 72h131zM1180 -14q-86 0 -153 41t-66 94
q0 29 17 48t43 19t42 -15t16 -37t-14 -38q39 -35 127 -35q88 -1 151 57t63 128t-37 105q-39 36 -117 36t-154 -35l-43 33l114 354h392l-19 -84h-319l-72 -219q65 27 145 27t140 -55t61 -157q0 -103 -92 -185t-225 -82z" />
    <glyph glyph-name="onesixth" unicode="&#x2159;" horiz-adv-x="1628" 
d="M1053 212q1 -64 41 -105t114 -41t129 56t55 124t-39 107q-40 38 -112 38t-130 -57q-58 -58 -58 -122zM346 -25l-55 48q37 45 269 318t822 986l56 -47q-37 -45 -309 -365q-272 -321 -783 -940zM129 573l18 80h209l133 572l-210 -41v82l276 59l41 -20l-150 -652h205
l-18 -80h-504zM1534 638q0 -77 -64 -79q-24 0 -40 16t-16 40t18 40q-25 25 -82 25q-90 0 -178 -83t-119 -245q82 115 211 115q98 0 159 -58t61 -158q0 -101 -83 -183t-193 -82t-179 68q-69 69 -69 193q0 123 45 233q44 110 119 179q102 96 224 97q78 0 132 -39t54 -79z" />
    <glyph glyph-name="fivesixths" unicode="&#x215a;" horiz-adv-x="1628" 
d="M1196 66q74 0 129 56t55 124t-40 107q-40 38 -112 38t-129 -57q-59 -58 -59 -122t41 -105t115 -41zM326 -25l-56 48q37 45 264 312t828 992l55 -47q-152 -184 -551 -651q-61 -74 -540 -654zM608 820q0 142 -154 143q-78 0 -155 -35l-43 33l115 354h391l-19 -84h-319
l-72 -219q66 26 146 26t140 -55t60 -157t-92 -184q-92 -83 -225 -83q-86 0 -153 41t-66 94q0 29 17 48q17 20 43 20t42 -16t16 -37q0 -22 -14 -37q39 -35 127 -35t152 57q63 56 63 126zM1251 467q97 0 159 -58t62 -158q0 -101 -83 -183t-193 -82t-179 68q-69 69 -69 193
q0 123 44 233t120 179q102 96 223 97q78 0 132 -39q55 -39 55 -79t-18 -59t-44 -19q-25 0 -42 15q-17 16 -17 40t18 40q-25 25 -82 25q-90 0 -178 -83t-119 -245q82 115 211 115z" />
    <glyph glyph-name="oneeighth" unicode="&#x215b;" horiz-adv-x="1628" 
d="M332 -25l-56 48q37 45 264 312t828 992l55 -47q-152 -184 -551 -651q-61 -74 -540 -654zM1203 68q75 0 127 42t52 101t-45 97t-121 38t-126 -42q-52 -42 -52 -101t45 -97t120 -38zM1284 420q66 0 113 39t47 93t-41 88t-109 34t-114 -37t-47 -92q0 -55 43 -90
q42 -35 108 -35zM1475 220q0 -104 -76 -168t-192 -64q-117 0 -189 59t-72 141t58 140t139 69q-102 47 -103 152q0 80 72 141q72 62 180 62t176 -54t68 -131q0 -78 -48 -127t-126 -67q113 -49 113 -153zM135 573l19 80h208l134 572l-211 -41v82l276 59l41 -20l-149 -652h204
l-18 -80h-504z" />
    <glyph glyph-name="threeeighths" unicode="&#x215c;" horiz-adv-x="1628" 
d="M338 -25l-55 48q47 58 551 651q61 74 540 653l56 -47q-37 -45 -309 -365q-272 -321 -783 -940zM1055 203q0 -59 45 -97t120 -38t127 42t52 101t-45 97t-121 38t-127 -42t-51 -101zM1300 420q66 0 113 39t47 93t-41 88t-109 34t-114 -37q-47 -37 -47 -92t43 -90
q42 -35 108 -35zM1491 220q1 -104 -75 -168t-192 -64t-189 59t-72 141q0 82 57 140t139 69q-102 47 -102 152q0 80 71 141q72 62 180 62t177 -54q67 -54 67 -131q0 -78 -48 -127t-126 -67q113 -49 113 -153zM698 778q0 -98 -80 -156t-188 -59q-106 0 -178 47t-72 113
q0 29 18 51t45 21q26 -1 42 -17t16 -44t-29 -42q40 -51 138 -51t147 39t49 97q0 57 -55 99t-139 42h-29l18 79h31q102 0 163 39q60 38 60 96t-43 87q-44 29 -116 29t-101 -36q21 -10 21 -36t-18 -41q-18 -17 -43 -17q-26 0 -43 18t-17 50q0 55 62 98q63 43 163 43t165 -52
t65 -132t-60 -129t-149 -62q73 -18 115 -64t42 -110z" />
    <glyph glyph-name="fiveeighths" unicode="&#x215d;" horiz-adv-x="1628" 
d="M315 -25l-55 48q37 45 264 312t828 992l55 -47q-37 -45 -309 -365q-272 -321 -783 -940zM1024 203q0 -59 45 -97t120 -38t127 42t52 101t-45 97t-121 38t-127 -42t-51 -101zM1118 545q0 -55 44 -90t108 -35q66 0 112 39t48 93q0 54 -41 88t-109 34t-115 -37t-47 -92z
M1193 -12q-117 0 -189 59t-72 141t57 140t139 69q-102 47 -102 152q0 80 72 141q72 62 180 62t176 -54t68 -131q0 -78 -48 -127t-126 -67q112 -49 112 -153t-76 -168t-191 -64zM387 559q-86 0 -153 41t-66 94q0 29 17 48q17 20 43 20t42 -16t16 -37q0 -22 -14 -37
q39 -35 127 -35t152 57q63 56 63 126q0 142 -147 143q-86 0 -162 -35l-43 33l115 354h391l-18 -84h-320l-72 -219q66 26 146 26t140 -55t60 -157t-92 -184q-92 -83 -225 -83z" />
    <glyph glyph-name="seveneighths" unicode="&#x215e;" horiz-adv-x="1628" 
d="M264 -25l-55 48q37 45 269 318t822 986l56 -47q-37 -45 -309 -365q-272 -321 -783 -940zM1022 203q0 -59 45 -97t120 -38t127 42t52 101t-45 97t-121 38t-127 -42t-51 -101zM1116 545q0 -55 44 -90t108 -35q66 0 112 39t47 93q0 54 -41 88q-40 34 -108 34t-115 -37
t-47 -92zM1191 -12q-116 0 -189 59t-72 141q0 82 57 140t139 69q-102 47 -102 152q0 80 72 141q72 62 180 62t176 -54t68 -131q0 -78 -48 -127t-126 -67q112 -49 112 -153t-76 -168t-191 -64zM289 573l450 666h-331l-29 -125h-84l49 201h494l20 -41l-467 -701h-102z" />
    <glyph glyph-name="minus" unicode="&#x2212;" horiz-adv-x="817" 
d="M96 494l23 98h655l-22 -98h-656z" />
    <glyph glyph-name="Q.alt" horiz-adv-x="1503" 
d="M721 82q115 0 209 43l-96 268l98 31l88 -250q145 98 233 268t88 364t-114 327q-115 133 -334 133q-258 0 -439 -219t-182 -498q0 -201 115 -334t334 -133zM711 -25q-260 0 -410 162t-149 408q0 203 95 392t271 312t385 123q260 0 410 -162q149 -162 149 -393t-110 -433
t-295 -312l98 -269l-98 -30l-90 254q-121 -52 -256 -52z" />
    <glyph glyph-name="zero.lin" horiz-adv-x="1265" 
d="M266 488q0 -184 85 -294q85 -112 237 -112t272 119q121 119 187 297q65 178 65 361t-85 295t-237 112t-272 -119t-186 -297t-66 -362zM576 -25q-186 -1 -309 137q-124 138 -124 366t86 435t237 333q150 126 336 126t310 -137t123 -365q0 -228 -86 -436
q-87 -207 -237 -333t-336 -126z" />
    <glyph glyph-name="one.lin" horiz-adv-x="868" 
d="M0 0l25 102h284l260 1127l-286 -70v109l379 94l49 -25l-285 -1235h279l-25 -102h-680z" />
    <glyph glyph-name="two.lin" horiz-adv-x="1114" 
d="M975 1040q0 100 -75 162q-74 62 -192 64q-118 0 -200 -41t-111 -90q47 -43 47 -84t-26 -68t-67 -27q-39 0 -67 30t-28 75q0 109 131 210t315 101t291 -93t107 -233t-102 -242t-327 -228q-226 -126 -336 -232t-171 -242h629l45 203h114l-69 -305h-850l-19 51
q84 201 210 334t356 259t313 212q82 84 82 184z" />
    <glyph glyph-name="three.lin" horiz-adv-x="1048" 
d="M938 371q0 -171 -140 -279t-322 -108t-311 81q-128 81 -128 177q0 45 28 81q29 35 71 35t65 -24t23 -52t-19 -52q-18 -24 -47 -31q32 -41 114 -76t191 -35q160 0 256 79t96 204t-112 201t-281 77h-27l23 103h37q209 0 327 82t119 195q0 113 -80 173t-205 62
q-178 0 -243 -86q55 -20 55 -76q0 -34 -28 -56t-62 -22t-63 28q-28 28 -27 70q0 100 112 174q113 74 277 74q163 0 275 -93t112 -234t-110 -231t-265 -118q127 -35 208 -119t81 -204z" />
    <glyph glyph-name="four.lin" horiz-adv-x="1107" 
d="M913 868l-84 -366h238l-23 -101h-239l-68 -299h197l-23 -102h-559l23 102h246l67 299h-618l-9 45l906 930l77 -69l-786 -805h455l71 313z" />
    <glyph glyph-name="five.lin" horiz-adv-x="1042" 
d="M412 -25q-135 0 -249 70t-114 156q0 41 26 71q25 30 63 31t62 -21t24 -62t-38 -62q72 -80 245 -80t287 115t114 256t-78 211q-76 70 -212 71q-136 0 -268 -57l-47 41l211 633h639l-24 -111h-545l-150 -444q90 43 209 43q173 0 279 -102t106 -280q0 -180 -150 -330
t-390 -149z" />
    <glyph glyph-name="six.lin" horiz-adv-x="1132" 
d="M264 376q0 -132 84 -214t223 -82t252 117t113 274q0 121 -77 195t-221 74t-258 -116q-116 -116 -116 -248zM139 467q0 199 83 403t231 342q170 160 378 160q127 0 219 -63t93 -148q0 -49 -30 -78t-66 -29q-37 0 -63 24q-26 22 -26 65t41 71q-47 57 -170 58
q-164 0 -307 -133q-92 -85 -164 -227t-98 -294q60 90 164 157t240 67q178 0 286 -106t109 -261q0 -188 -150 -344t-340 -156t-310 120t-120 372z" />
    <glyph glyph-name="seven.lin" horiz-adv-x="1003" 
d="M135 0l830 1245h-605l-47 -203h-112l71 306h844l21 -39l-865 -1309h-137z" />
    <glyph glyph-name="eight.lin" horiz-adv-x="1112" 
d="M899 371q0 121 -90 199t-240 79q-151 0 -247 -84t-96 -204q0 -121 90 -199t234 -78t247 83q102 83 102 204zM381 1008q0 -108 86 -182t215 -74t222 78t93 186t-79 178q-80 70 -218 70t-228 -74q-91 -74 -91 -182zM1014 373q0 -165 -132 -279t-324 -114t-321 108
q-128 108 -128 260t102 250t250 123q-84 39 -139 121t-56 174q0 140 121 246t302 106t303 -97t122 -243q0 -258 -319 -344q91 -35 155 -120t64 -191z" />
    <glyph glyph-name="nine.lin" horiz-adv-x="1132" 
d="M604 608q144 0 260 116t115 248q0 132 -84 214t-223 82t-252 -117t-113 -274q0 -121 77 -195q76 -74 220 -74zM184 872q0 188 150 344t340 156t310 -120t120 -371q0 -199 -83 -404t-230 -342q-170 -160 -379 -160q-127 -1 -219 63t-93 148q0 49 30 78t66 29t62 -23
q26 -24 27 -66q0 -42 -41 -71q47 -57 170 -57q164 0 307 133q92 84 164 226t96 292q-61 -90 -165 -156t-236 -65q-178 0 -287 105t-109 261z" />
    <glyph glyph-name="bullet.alt" horiz-adv-x="1282" 
d="M644 -96q-230 0 -377 154q-146 155 -146 382t146 382q147 155 377 155t376 -155t147 -382q0 -227 -146 -382q-147 -154 -377 -154z" />
    <glyph glyph-name="hyphen.lin" horiz-adv-x="499" 
d="M115 643l26 107h367l-23 -107h-370z" />
    <glyph glyph-name="endash.lin" horiz-adv-x="808" 
d="M94 643l27 107h717l-23 -107h-721z" />
    <glyph glyph-name="emdash.lin" horiz-adv-x="1263" 
d="M94 643l27 107h1171l-22 -107h-1176z" />
    <glyph glyph-name="parenleft.lin" horiz-adv-x="696" 
d="M164 489q0 371 202 687t523 487l51 -80q-301 -170 -480 -466t-179 -628q0 -446 329 -741l-57 -74q-389 322 -389 815z" />
    <glyph glyph-name="parenright.lin" horiz-adv-x="696" 
d="M520 848q0 446 -330 741l58 74q389 -322 389 -815q1 -370 -201 -686t-524 -488l-51 80q301 170 480 466t179 628z" />
    <glyph glyph-name="bracketleft.lin" horiz-adv-x="677" 
d="M66 -287l444 1909h442l-22 -96h-328l-401 -1716h327l-22 -97h-440z" />
    <glyph glyph-name="bracketright.lin" horiz-adv-x="677" 
d="M-164 -287l23 97h327l402 1716h-328l23 96h440l-444 -1909h-443z" />
    <glyph glyph-name="braceleft.lin" horiz-adv-x="651" 
d="M117 15q0 132 162 282q122 111 122 170t-41 103t-131 44h-75l28 117h76q102 0 164 52q61 52 61 124q0 71 -53 187t-53 206q0 146 127 248t370 107l-20 -84q-186 -10 -278 -90t-93 -168q1 -88 53 -207t52 -208q0 -88 -62 -152t-161 -78q143 -43 143 -191q0 -106 -142 -235
t-141 -228q0 -190 224 -245l-21 -82q-152 18 -232 107t-79 221z" />
    <glyph glyph-name="braceright.lin" horiz-adv-x="651" 
d="M178 448q0 88 62 152t161 78q-143 43 -143 190q0 106 141 236t142 227q0 190 -224 246l21 82q152 -17 232 -107t79 -222q0 -132 -162 -281q-123 -111 -123 -171t42 -103q41 -44 131 -44h75l-28 -117h-76q-102 0 -164 -52t-61 -124q0 -72 53 -188t53 -205
q0 -145 -127 -247t-371 -107l21 84q186 10 278 90t92 168t-52 207q-52 120 -52 208z" />
    <glyph glyph-name="registered.alt" horiz-adv-x="1224" 
d="M541 528h61q61 0 99 28t38 77q0 98 -133 98h-65v-203zM403 254v63h68v414h-68v62h205q94 0 148 -42t55 -116q0 -109 -113 -148l105 -170h63v-63h-110l-125 215h-90v-152h69v-63h-207zM612 49q188 0 314 135q125 135 125 330t-125 330q-126 135 -314 135t-313 -135
t-125 -330t125 -330t313 -135zM612 -16q-221 0 -367 154q-147 154 -147 375q0 222 146 376q146 153 368 153q221 0 368 -153q146 -154 146 -376t-146 -376q-147 -153 -368 -153z" />
    <glyph glyph-name="copyright.lin" horiz-adv-x="1601" 
d="M830 336q-154 0 -252 99t-98 249t100 250q102 100 245 100q103 0 179 -51t75 -115q0 -31 -18 -51t-45 -20t-44 16t-18 43q0 27 21 39q-39 57 -150 57t-183 -78t-73 -190q0 -112 73 -190q74 -78 186 -78t204 88l55 -62q-102 -106 -257 -106zM801 43q252 0 429 185
q177 186 177 446t-177 445t-429 185t-429 -184q-177 -186 -177 -446t177 -446t429 -185zM801 -25q-287 0 -486 204t-198 495q1 290 199 494t485 204t485 -204t199 -494q-1 -290 -199 -495q-198 -204 -485 -204z" />
    <glyph glyph-name="published.lin" horiz-adv-x="1601" 
d="M993 794q0 66 -45 103t-117 37h-90v-281l93 -2q76 0 118 39q42 38 41 104zM569 338v78h84v518h-84v78h265q110 0 180 -60t70 -160q0 -101 -70 -159q-70 -57 -187 -58h-86v-159h90v-78h-262zM801 43q252 0 429 185q177 186 177 446t-177 445t-429 185t-429 -184
q-177 -186 -177 -446t177 -446t429 -185zM801 -25q-287 0 -486 204t-198 495q1 290 199 494t485 204t485 -204t199 -494q-1 -290 -199 -495q-198 -204 -485 -204z" />
    <glyph glyph-name="registered.lin" horiz-adv-x="1601" 
d="M715 694h78q77 0 123 35t47 94q0 123 -166 123h-82v-252zM545 350v78h84v518h-84v78h256q115 0 183 -52t69 -132q0 -151 -140 -197l129 -215h80v-78h-133l-153 268h-121v-190h88v-78h-258zM801 43q252 0 429 185q177 186 177 446t-177 445t-429 185t-429 -184
q-177 -186 -177 -446t177 -446t429 -185zM801 -25q-287 0 -486 204t-198 495q1 290 199 494t485 204t485 -204t199 -494q-1 -290 -199 -495q-198 -204 -485 -204z" />
    <glyph glyph-name="dollar.lin" horiz-adv-x="1114" 
d="M412 1016q0 -94 52 -148t152 -108l148 483l-49 2q-127 -3 -215 -69t-88 -160zM883 356q1 86 -57 142t-171 114l-155 -508q16 -2 53 -2q147 0 239 68t91 186zM68 282q0 66 30 100q31 34 73 34t69 -26t26 -56q0 -66 -63 -103q51 -82 211 -114l166 534q-137 70 -211 145
q-74 74 -74 210t123 238t313 104q18 0 64 -5l55 191l94 -27l-53 -184q111 -31 183 -95t71 -129q0 -65 -31 -97t-71 -32q-39 0 -65 26t-26 71t60 80q-61 55 -162 82l-156 -508q130 -67 193 -122q63 -53 88 -109t24 -125q0 -169 -126 -267t-328 -98q-51 0 -74 4l-63 -215
l-95 27l60 207q-133 35 -219 115q-86 78 -86 144z" />
    <glyph glyph-name="sterling.lin" horiz-adv-x="1124" 
d="M475 872q0 -52 23 -251h354l-23 -95h-327q-6 -242 -183 -354q115 -17 238 -68q60 -20 159 -20t208 76l57 -80q-117 -104 -291 -105q-78 0 -130 17t-85 29q-143 53 -244 55q-31 -45 -79 -74t-86 -29q-84 0 -84 70q0 109 219 123q104 80 147 164t45 196h-219l23 95h190
q-23 215 -22 249q0 219 120 361q121 141 322 141q115 0 208 -66t93 -153q0 -53 -28 -84t-70 -31t-68 26q-27 26 -27 72t39 70q-10 20 -54 40t-97 20q-150 0 -239 -115t-89 -279z" />
    <glyph glyph-name="Euro.lin" horiz-adv-x="1499" 
d="M829 82q227 0 420 192l76 -73q-221 -225 -506 -226q-213 -1 -355 135t-165 345h-225l24 98h197q4 113 33 217h-181l23 98h190q88 222 266 362t394 140q111 0 198 -34q149 -58 209 -191q25 -53 25 -107t-32 -90t-74 -37q-42 0 -69 24q-26 24 -26 60q0 59 68 97
q-16 68 -92 120q-75 52 -231 54q-156 0 -298 -110t-219 -288h551l-22 -98h-564q-27 -104 -30 -217h544l-24 -98h-516q18 -165 127 -269t284 -104z" />
    <glyph glyph-name="yen.lin" horiz-adv-x="1275" 
d="M233 545l23 98h295l-215 602h-150l25 103h428l-25 -103h-157l209 -600l475 600h-156l25 103h428l-25 -103h-137l-492 -602h279l-23 -98h-344l-32 -146h344l-23 -98h-344l-45 -199h199l-25 -102h-516l25 102h198l45 199h-344l23 98h344l33 146h-345z" />
    <glyph glyph-name="cent.lin" horiz-adv-x="950" 
d="M217 604q0 -166 148 -233l200 669q-145 -20 -247 -145t-101 -291zM477 248q-41 0 -59 4l-84 -285l-82 23l84 282q-104 37 -166 127q-61 90 -61 213q0 201 143 361t342 168l70 235l81 -22l-63 -219q106 -15 172 -79t66 -120t-28 -88q-28 -31 -62 -31q-34 1 -56 19t-20 46
q0 28 13 50q13 23 34 29q-45 70 -152 81l-205 -694q33 -4 52 -4q176 0 305 123l-6 -113q-136 -106 -318 -106z" />
    <glyph glyph-name="numbersign.lin" horiz-adv-x="1183" 
d="M565 860l-106 -389h264l108 389h-266zM1073 1346l-108 -392h262l-27 -94h-262l-109 -389h273l-27 -94h-272l-105 -377h-106l104 377h-264l-104 -377h-107l105 377h-263l27 94h262l109 389h-273l27 94h272l109 392h106l-110 -392h266l109 392h106z" />
    <glyph glyph-name="paragraph.lin" horiz-adv-x="1366" 
d="M743 96h134l266 1155h-133zM649 502q-237 0 -355 98t-118 274q0 207 159 340t406 134h721l-22 -103h-183l-264 -1143h183l-25 -102h-719l25 102h170l92 400h-70z" />
    <glyph glyph-name="section.lin" horiz-adv-x="1021" 
d="M264 684q0 -64 60 -104q60 -39 150 -72t97 -37q133 17 221 73t87 120q1 64 -61 105q-62 40 -148 71t-101 37q-133 -17 -219 -73t-86 -120zM145 682q1 90 91 154t229 92q-125 74 -125 188t103 186q103 71 255 70q190 0 291 -104q53 -56 53 -106t-24 -80t-65 -30t-65 26
t-24 63t35 71q-7 16 -59 39t-152 23t-166 -43t-66 -107t61 -106q60 -42 161 -78q100 -37 142 -56q121 -56 157 -124q20 -41 20 -94q0 -90 -88 -154t-231 -94q125 -76 125 -189q1 -113 -103 -183t-256 -71q-197 0 -294 109q-50 52 -50 102t25 80t65 29q40 0 64 -26
q25 -27 25 -63t-35 -71q2 -9 52 -35t154 -26t171 43q65 43 65 107t-60 105q-60 42 -161 79t-143 56q-124 57 -156 124q-21 41 -21 94z" />
    <glyph glyph-name="ordfeminine.lin" horiz-adv-x="694" 
d="M94 778l21 76h542l-20 -76h-543zM569 1298q0 156 -144 156q-73 0 -131 -74t-58 -156q0 -159 129 -159q88 0 146 78t58 155zM358 989q-98 1 -153 59t-55 174t86 212t208 96t160 -115l27 109h78l-93 -385q-6 -29 -6 -47q0 -35 31 -35q37 0 72 80l49 -23q-43 -123 -129 -123
q-96 0 -101 99q-76 -101 -174 -101z" />
    <glyph glyph-name="ordmasculine.lin" horiz-adv-x="679" 
d="M436 1067q74 0 132 69q58 70 58 150t-38 123q-39 43 -114 43t-133 -69t-58 -149t39 -124q40 -43 114 -43zM125 778l20 76h467l-20 -76h-467zM430 991q-112 -1 -170 63t-59 176q0 112 83 204q83 94 195 94q113 0 171 -64t58 -174q0 -112 -82 -206q-84 -94 -196 -93z" />
    <glyph glyph-name="degree.lin" horiz-adv-x="659" 
d="M442 1096q66 0 121 66t55 136t-36 110q-37 40 -103 40t-121 -66t-55 -136t37 -110q36 -40 102 -40zM486 1528q104 0 159 -62t55 -164t-80 -194t-184 -92t-160 61q-55 61 -55 164t80 195q81 92 185 92z" />
    <glyph glyph-name="percent.lin" horiz-adv-x="1394" 
d="M478 874q77 0 139 75q63 75 63 158t-41 128t-118 45t-139 -75t-62 -158t40 -128q41 -45 118 -45zM990 76q77 0 139 75q63 75 63 157t-41 128q-41 45 -118 45q-77 -1 -139 -75t-62 -157t40 -128q41 -45 118 -45zM145 -18l-69 61l1290 1331l70 -61zM984 -16q-120 0 -184 70
t-65 190q0 118 92 224q93 106 213 105t184 -71t64 -188t-92 -224t-212 -106zM472 782q-120 0 -184 71t-65 189q0 118 92 224q93 106 213 106t184 -70t64 -190q0 -118 -92 -224t-212 -106z" />
    <glyph glyph-name="perthousand.lin" horiz-adv-x="2076" 
d="M478 874q77 0 139 75q63 75 63 158t-41 128t-118 45t-139 -75t-62 -158t40 -128q41 -45 118 -45zM1672 76q77 0 139 75q63 75 63 157t-41 128q-41 45 -118 45q-77 -1 -139 -75t-62 -157t40 -128q41 -45 118 -45zM990 76q77 0 139 75q63 75 63 157t-41 128q-41 45 -118 45
q-77 -1 -139 -75t-62 -157t40 -128q41 -45 118 -45zM145 -18l-69 61l1290 1331l70 -61zM1666 -16q-120 0 -184 70t-65 190q0 118 92 224q93 106 213 105t184 -71t64 -188t-92 -224t-212 -106zM984 -16q-120 0 -184 70t-65 190q0 118 92 224q93 106 213 105t184 -71t64 -188
t-92 -224t-212 -106zM472 782q-120 0 -184 71t-65 189q0 118 92 224q93 106 213 106t184 -70t64 -190q0 -118 -92 -224t-212 -106z" />
    <glyph glyph-name="quotedbl.lin" horiz-adv-x="575" 
d="M430 1454q0 -28 -12 -57l-168 -342h-39l53 368q14 102 88 103q38 0 58 -22t20 -50zM692 1454q0 -28 -12 -57l-168 -342h-39l53 368q14 102 88 103q38 0 58 -22t20 -50z" />
    <glyph glyph-name="quotesingle.lin" horiz-adv-x="313" 
d="M430 1454q0 -28 -12 -57l-168 -342h-39l53 368q14 102 88 103q38 0 58 -22t20 -50z" />
    <glyph glyph-name="plus.lin" horiz-adv-x="817" 
d="M594 1014l-62 -269h277l-23 -98h-276l-72 -309h-102l72 309h-277l23 98h276l62 269h102z" />
    <glyph glyph-name="minus.lin" horiz-adv-x="817" 
d="M131 647l23 98h655l-23 -98h-655z" />
    <glyph glyph-name="divide.lin" horiz-adv-x="817" 
d="M407 516q33 0 59 -27t26 -61t-26 -62q-26 -26 -59 -26q-34 0 -60 27q-25 27 -25 61t26 62q26 26 59 26zM531 877q-33 1 -59 27t-26 61t26 61t60 27q34 0 59 -27q25 -28 25 -62t-25 -61q-26 -26 -60 -26zM131 647l23 98h655l-23 -98h-655z" />
    <glyph glyph-name="equal.lin" horiz-adv-x="817" 
d="M131 475l23 98h573l-22 -98h-574zM203 780l22 99h574l-23 -99h-573z" />
    <glyph glyph-name="multiply.lin" horiz-adv-x="817" 
d="M285 991l168 -219l258 207l65 -82l-258 -209l170 -217l-86 -70l-170 220l-256 -207l-65 82l258 206l-170 220z" />
    <glyph glyph-name="less.lin" horiz-adv-x="817" 
d="M565 326l-434 333l10 41l572 326l49 -78l-483 -274l350 -271z" />
    <glyph glyph-name="greater.lin" horiz-adv-x="817" 
d="M201 334l-49 78l483 274l-350 270l63 78l434 -334l-10 -41z" />
    <glyph glyph-name="plusminus.lin" horiz-adv-x="817" 
d="M27 186l22 99h653l-22 -99h-653zM614 1102l-65 -279h278l-22 -98h-279l-63 -279h-103l64 279h-274l22 98h274l66 279h102z" />
    <glyph glyph-name="zero.tab" horiz-adv-x="1085" 
d="M246 473q0 -179 63 -285t187 -106t229 121q106 121 166 305q59 184 59 364t-63 286t-187 106t-229 -121t-165 -305t-60 -365zM1073 882q0 -228 -80 -442q-80 -213 -217 -340t-300 -127t-258 131t-95 360q0 230 80 442t217 339t300 127t258 -131t95 -359z" />
    <glyph glyph-name="one.tab" horiz-adv-x="1085" 
d="M47 0l25 102h346l266 1127l-344 -84v106l436 111l49 -25l-290 -1235h339l-24 -102h-803z" />
    <glyph glyph-name="two.tab" horiz-adv-x="1085" 
d="M950 1039q0 101 -70 164q-71 63 -184 63q-114 0 -190 -41t-105 -92q47 -43 47 -84t-26 -68q-27 -27 -67 -27q-39 0 -67 30t-28 75q0 109 126 211t305 102t281 -92t103 -233q0 -141 -97 -243q-98 -102 -312 -226q-214 -126 -320 -234t-164 -242h600l45 203h115l-70 -305
h-821l-18 51q80 201 203 335q124 134 342 257t295 209t77 187z" />
    <glyph glyph-name="three.tab" horiz-adv-x="1085" 
d="M961 371q-1 -170 -143 -279q-142 -108 -326 -108t-312 82q-127 82 -127 184q0 45 28 81t71 36q44 0 66 -24q22 -25 22 -53t-18 -52t-48 -31q33 -45 116 -82t191 -37q162 0 259 79q98 79 98 205t-108 202t-281 75h-41l22 103h51q213 0 328 81t115 194t-83 175t-189 62
t-172 -28q-67 -28 -95 -67q55 -20 55 -75q0 -35 -28 -57q-28 -21 -62 -21t-62 28t-28 70q0 102 115 179t279 77t279 -93q114 -93 114 -234q1 -141 -109 -231t-270 -118q131 -37 212 -120t81 -203z" />
    <glyph glyph-name="four.tab" horiz-adv-x="1085" 
d="M897 868l-84 -366h231l-22 -101h-234l-67 -299h197l-23 -102h-559l22 102h246l68 299h-602l-9 45l883 930l78 -69l-772 -805h446l72 313z" />
    <glyph glyph-name="five.tab" horiz-adv-x="1085" 
d="M432 -25q-141 0 -255 72t-114 162q0 41 26 72t64 31q37 0 61 -22t24 -62t-37 -62q75 -88 253 -88t296 116q116 116 116 257t-79 211t-221 70t-281 -58l-47 41l211 633h661l-25 -111h-567l-149 -444q98 43 219 43q180 0 290 -100t109 -263q-1 -197 -155 -347t-400 -151z
" />
    <glyph glyph-name="six.tab" horiz-adv-x="1085" 
d="M270 376q0 -132 78 -214t209 -82t238 117q106 117 106 256t-71 213t-189 73q-151 1 -261 -115t-110 -248zM1108 1161q0 -49 -30 -77t-65 -29q-36 1 -63 23q-26 22 -26 65t41 71q-43 57 -160 58q-158 0 -291 -133q-86 -85 -155 -225t-93 -289q60 89 158 153t225 64
q171 0 275 -106t104 -277q0 -172 -143 -328t-327 -156t-292 115q-121 123 -121 377q0 199 79 403t222 342q164 160 363 160q123 0 211 -63t88 -148z" />
    <glyph glyph-name="seven.tab" horiz-adv-x="1085" 
d="M182 0l842 1245h-645l-47 -203h-113l72 306h885l20 -39l-877 -1309h-137z" />
    <glyph glyph-name="eight.tab" horiz-adv-x="1085" 
d="M874 371q0 121 -86 199t-230 79q-144 0 -239 -84q-94 -84 -94 -205q0 -120 86 -198q87 -78 227 -78t238 83t98 204zM989 373q0 -166 -128 -280q-127 -113 -319 -113t-313 104t-121 260t102 254q101 98 245 123q-82 39 -136 121q-53 82 -53 174q0 140 117 246t294 106
t295 -97t118 -237t-86 -226q-86 -85 -226 -124q86 -35 148 -120t63 -191zM381 1009q0 -109 82 -183t207 -74t214 78t89 186t-77 178t-209 70t-219 -73t-87 -182z" />
    <glyph glyph-name="nine.tab" horiz-adv-x="1085" 
d="M660 1268q-132 0 -238 -117t-106 -256t71 -213q72 -74 206 -74t244 116q109 116 109 248t-78 214t-208 82zM204 293q36 0 62 -23q26 -24 27 -66q0 -42 -41 -71q43 -57 160 -57q158 0 290 133q86 84 154 224t92 288q-59 -87 -156 -151t-225 -64q-170 0 -274 105
q-105 105 -105 277t144 328t328 156t290 -115q121 -123 121 -376q0 -199 -79 -404t-222 -342q-164 -160 -362 -160q-123 -1 -211 63t-88 148q0 49 29 78q30 29 66 29z" />
    <glyph glyph-name="period.tab" horiz-adv-x="542" 
d="M223 -20q-49 0 -81 34t-31 82q0 49 31 83q32 34 81 34t81 -34t32 -83q0 -48 -32 -82t-81 -34z" />
    <glyph glyph-name="comma.tab" horiz-adv-x="542" 
d="M222 209q48 0 82 -36t34 -91q0 -102 -89 -205t-261 -160l-23 45q104 45 167 116q62 71 69 120q-39 8 -64 39t-25 71t31 70q31 31 79 31z" />
    <glyph glyph-name="colon.tab" horiz-adv-x="542" 
d="M346 516q-49 0 -81 34t-32 83t32 83t81 34t81 -34t32 -83t-32 -83t-81 -34zM223 -20q-49 0 -81 34t-31 82q0 49 31 83q32 34 81 34t81 -34t32 -83q0 -48 -32 -82t-81 -34z" />
    <glyph glyph-name="semicolon.tab" horiz-adv-x="542" 
d="M346 516q-49 0 -81 34t-32 83t32 83t81 34t81 -34t32 -83t-32 -83t-81 -34zM222 209q48 0 82 -36t34 -91q0 -102 -89 -205t-261 -160l-23 45q104 45 167 116q62 71 69 120q-39 8 -64 39t-25 71t31 70q31 31 79 31z" />
    <glyph glyph-name="twodotleader.tab" horiz-adv-x="1085" 
d="M766 -20q-49 0 -81 34t-32 82q0 49 32 83t81 34t81 -34t32 -83q0 -48 -32 -82t-81 -34zM223 -20q-49 0 -81 34t-31 82q0 49 31 83q32 34 81 34t81 -34t32 -83q0 -48 -32 -82t-81 -34z" />
    <glyph glyph-name="periodcentered.tab" horiz-adv-x="542" 
d="M299 444q-49 0 -81 34t-32 83t32 83t81 34t81 -34t32 -83t-32 -83t-81 -34z" />
    <glyph glyph-name="slash.tab" horiz-adv-x="1085" 
d="M-78 -430l-88 61l1329 1889l88 -62z" />
    <glyph glyph-name="bar.tab" horiz-adv-x="542" 
d="M223 -410v1909h99v-1909h-99z" />
    <glyph glyph-name="underscore.tab" horiz-adv-x="1085" 
d="M-76 -287l27 107h1124l-22 -107h-1129z" />
    <glyph glyph-name="dollar.tab" horiz-adv-x="1085" 
d="M412 1025q0 -93 50 -151t140 -112l148 481q-16 2 -50 2q-124 -3 -206 -65t-82 -155zM539 102q141 0 228 66t87 166q0 102 -55 160t-158 116l-156 -506q16 -2 54 -2zM68 282q0 66 30 100q31 34 73 34t69 -26t26 -56q0 -66 -63 -103q49 -78 196 -114l166 534
q-127 70 -199 150t-71 215q0 135 119 233t303 99q43 0 63 -5l56 191l94 -27l-53 -184q104 -33 172 -97q67 -64 67 -128t-31 -96t-71 -32t-65 26t-25 71t59 80q-51 51 -147 80l-156 -506q115 -63 203 -143q88 -82 88 -234t-122 -248t-319 -96q-29 0 -73 4l-64 -215l-94 27
l59 209q-126 37 -208 115q-82 76 -82 142z" />
    <glyph glyph-name="sterling.tab" horiz-adv-x="1085" 
d="M471 885q0 -96 29 -264h329l-22 -95h-303q-6 -238 -182 -354q66 -9 136 -35q69 -26 79 -29q10 -4 30 -10q45 -14 135 -14t199 76l57 -80q-117 -104 -284 -105q-86 -1 -219 49t-222 52q-31 -45 -79 -74t-86 -29q-84 0 -84 70q0 109 219 123q104 80 147 164t45 196h-219
l23 95h190q-29 229 -29 262q0 219 118 354t315 135q113 0 203 -66t89 -153q1 -53 -27 -84t-70 -31t-68 26t-27 72q0 46 39 70q-10 20 -52 40t-94 20q-145 0 -230 -110t-85 -271z" />
    <glyph glyph-name="Euro.tab" horiz-adv-x="1085" 
d="M602 80q158 0 277 186l82 -67q-158 -225 -375 -226q-166 0 -263 129t-98 361h-155l24 98h133q8 90 33 207h-123l23 98h127q74 226 212 366t304 140q135 0 213 -86t78 -207q0 -63 -32 -99t-75 -36t-67 25t-25 59q0 34 21 63q22 28 55 39q-37 135 -178 136
q-119 0 -219 -112t-160 -288h303l-23 -98h-309q-27 -106 -35 -207h295l-24 -98h-273q2 -179 67 -281t187 -102z" />
    <glyph glyph-name="yen.tab" horiz-adv-x="1085" 
d="M180 545l23 98h258l-158 602h-129l25 103h428l-25 -103h-178l145 -592l416 592h-176l25 103h428l-25 -103h-117l-440 -602h248l-23 -98h-303l-33 -146h303l-22 -98h-303l-45 -199h198l-24 -102h-516l24 102h199l45 199h-303l22 98h304l32 146h-303z" />
    <glyph glyph-name="cent.tab" horiz-adv-x="1085" 
d="M272 614q0 -88 45 -152t123 -95l201 673q-153 -24 -261 -148t-108 -278zM551 248q-39 0 -57 2l-84 -283l-82 23l82 278q-113 37 -180 128t-66 216q0 201 149 360q150 159 357 169l69 235l82 -22l-63 -217q118 -16 188 -81t70 -121t-28 -87t-62 -31q-34 1 -55 19t-21 46
t13 50q13 23 34 29q-51 74 -172 81l-205 -696q16 -2 49 -2q189 0 328 123l-6 -113q-141 -106 -340 -106z" />
    <glyph glyph-name="numbersign.tab" horiz-adv-x="1085" 
d="M528 860l-106 -389h240l108 389h-242zM1012 1346l-109 -392h234l-27 -94h-233l-109 -389h244l-27 -94h-244l-104 -377h-107l105 377h-240l-104 -377h-107l105 377h-234l27 94h233l109 389h-244l27 94h244l108 392h107l-111 -392h242l108 392h107z" />
    <glyph glyph-name="paragraph.tab" horiz-adv-x="1085" 
d="M578 96h100l268 1155h-100zM553 502q-184 0 -298 101t-114 271q0 207 159 340t407 134h516l-23 -103h-151l-265 -1143h152l-23 -102h-630l22 102h170l94 400h-16z" />
    <glyph glyph-name="section.tab" horiz-adv-x="1085" 
d="M270 684q0 -64 67 -104q67 -39 189 -80l84 -29q144 17 236 73t92 124q0 42 -42 78t-89 56t-105 38t-106 37q-142 -17 -234 -73t-92 -120zM463 1124q1 -64 67 -106t176 -79q110 -38 156 -56q45 -18 96 -50q99 -62 99 -159q0 -182 -334 -254q139 -76 139 -190t-110 -184
t-275 -71q-217 0 -319 107q-52 50 -52 102t25 82t65 29q40 0 64 -26q24 -27 25 -63q0 -36 -35 -71q6 -12 39 -26q77 -35 193 -35t190 43t74 107t-67 105q-67 42 -177 79t-157 56q-132 55 -171 124q-22 41 -22 94q0 90 94 152t239 92q-139 72 -139 188t111 188q111 71 274 70
q207 0 316 -104q55 -56 55 -106t-25 -80t-65 -30t-64 26t-24 63t37 73q-75 60 -213 60t-212 -43t-73 -107z" />
    <glyph glyph-name="degree.tab" horiz-adv-x="1085" 
d="M623 872q133 0 226 106t93 224q0 120 -62 184t-159 64q-133 0 -226 -105t-93 -224t62 -184q63 -65 159 -65zM618 793q-141 0 -225 88t-84 219q0 168 120 299t296 131q141 0 225 -88t84 -219q0 -168 -120 -299t-296 -131z" />
    <glyph glyph-name="percent.tab" horiz-adv-x="1085" 
d="M745 74q70 0 120 85t50 165q0 158 -108 159q-70 0 -120 -85t-50 -183q-1 -141 108 -141zM397 872q70 0 120 85t50 166q0 159 -108 159q-70 0 -120 -85t-50 -183q-1 -142 108 -142zM115 -18l-70 61l1045 1331l69 -61zM733 -16q-86 0 -139 59t-53 156q0 151 82 263t198 111
q84 0 137 -59t54 -156q0 -152 -81 -263t-198 -111zM385 782q-86 0 -139 60t-53 155q0 152 81 264q82 112 199 111q84 0 137 -59t54 -156q0 -151 -81 -263t-198 -112z" />
    <glyph glyph-name="quotedbl.tab" horiz-adv-x="1085" 
d="M944 1526q78 0 78 -80q0 -29 -14 -64l-183 -405h-41l62 436q6 57 36 85t62 28zM563 1526q78 0 78 -80q0 -29 -14 -64l-183 -405h-41l62 436q6 57 36 85t62 28z" />
    <glyph glyph-name="quotesingle.tab" horiz-adv-x="542" 
d="M481 1526q78 0 78 -80q0 -29 -14 -64l-183 -405h-40l61 436q6 57 36 85t62 28z" />
    <glyph glyph-name="plus.tab" horiz-adv-x="1085" 
d="M739 1055l-73 -310h319l-22 -98h-320l-80 -350h-102l80 350h-316l23 98h315l74 310h102z" />
    <glyph glyph-name="minus.tab" horiz-adv-x="1085" 
d="M225 647l23 98h737l-22 -98h-738z" />
    <glyph glyph-name="divide.tab" horiz-adv-x="1085" 
d="M531 299q-33 0 -59 27q-26 28 -26 62t26 61t60 27t59 -28q25 -26 25 -61t-26 -61t-59 -27zM677 1094q33 0 59 -27t26 -61t-26 -62q-26 -26 -59 -26q-34 0 -60 26t-25 62q0 36 26 62t59 26zM225 647l23 98h737l-22 -98h-738z" />
    <glyph glyph-name="equal.tab" horiz-adv-x="1085" 
d="M221 455l23 98h655l-22 -98h-656zM301 801l23 98h655l-23 -98h-655z" />
    <glyph glyph-name="multiply.tab" horiz-adv-x="1085" 
d="M383 1036l207 -264l301 244l65 -82l-303 -244l207 -264l-86 -70l-207 262l-301 -241l-65 82l301 243l-205 265z" />
    <glyph glyph-name="less.tab" horiz-adv-x="1085" 
d="M715 281l-504 381l6 28l672 379l49 -78l-559 -321l399 -312z" />
    <glyph glyph-name="greater.tab" horiz-adv-x="1085" 
d="M485 1079l504 -381l-6 -28l-672 -379l-49 78l559 321l-399 311z" />
    <glyph glyph-name="plusminus.tab" horiz-adv-x="1085" 
d="M109 156l22 98h735l-22 -98h-735zM762 1163l-74 -319h320l-23 -99h-319l-74 -319h-103l74 319h-315l22 99h316l73 319h103z" />
    <glyph glyph-name="zero.idx_P2D" horiz-adv-x="2252" 
d="M1395 628q0 176 -73 286t-195 110q-121 0 -195 -110t-74 -286t74 -287q74 -110 195 -110q122 0 195 110t73 287zM1125 131q-161 0 -269 139q-108 138 -108 358t109 358q111 138 271 138t269 -139t109 -358t-110 -358q-110 -138 -271 -138zM1126 1552q-387 0 -657 -274
t-270 -664t270 -663q270 -275 657 -275q388 0 658 274t270 664q0 389 -270 664q-271 274 -658 274zM1126 1622q274 0 506 -135t366 -367q136 -232 136 -506t-135 -505t-367 -367t-506 -135q-274 0 -505 135q-231 134 -367 366t-135 506q0 274 135 506q134 232 366 366
q232 136 506 136z" />
    <glyph glyph-name="one.idx_P2D" horiz-adv-x="2252" 
d="M1405 150h-551v96h225v747l-213 -47l-22 96l291 68h51v-864h219v-96zM1126 1552q-387 0 -657 -274t-270 -664t270 -663q270 -275 657 -275q388 0 658 274t270 664q0 389 -270 664q-271 274 -658 274zM1126 1622q274 0 506 -135t366 -367q136 -232 136 -506t-135 -505
t-367 -367t-506 -135q-274 0 -505 135q-231 134 -367 366t-135 506q0 274 135 506q134 232 366 366q232 136 506 136z" />
    <glyph glyph-name="two.idx_P2D" horiz-adv-x="2252" 
d="M825 899q0 47 34 99t108 89q73 37 183 37t199 -74t89 -186q0 -110 -56 -176t-186 -156q-213 -147 -264 -290h426v149h96v-241h-625l-28 47q41 135 126 230t197 174t158 131q45 52 45 126t-58 122t-154 48t-152 -53q-16 -12 -23 -31q47 -23 47 -63q-1 -39 -23 -61t-58 -22
t-58 28q-22 26 -23 73zM1126 1552q-387 0 -657 -274t-270 -664t270 -663q270 -275 657 -275q388 0 658 274t270 664q0 389 -270 664q-271 274 -658 274zM1126 1622q274 0 506 -135t366 -367q136 -232 136 -506t-135 -505t-367 -367t-506 -135q-274 0 -505 135
q-231 134 -367 366t-135 506q0 274 135 506q134 232 366 366q232 136 506 136z" />
    <glyph glyph-name="three.idx_P2D" horiz-adv-x="2252" 
d="M1317 875q0 149 -212 149q-106 0 -155 -55q37 -23 37 -57q-1 -34 -23 -56t-53 -20q-31 0 -55 26t-25 68q0 43 33 84q84 106 262 106q127 0 213 -66t86 -180t-108 -182q-47 -31 -103 -43q53 -8 103 -35q131 -72 131 -198t-93 -204q-93 -77 -254 -77t-253 103
q-43 49 -43 94q-1 44 23 72t56 28t54 -22t20 -57q0 -34 -34 -54q46 -65 212 -67q82 0 144 50q62 52 63 126q0 106 -108 157q-68 33 -178 33h-37v96h43q113 0 183 54t71 127zM1126 1552q-387 0 -657 -274t-270 -664t270 -663q270 -275 657 -275q388 0 658 274t270 664
q0 389 -270 664q-271 274 -658 274zM1126 1622q274 0 506 -135t366 -367q136 -232 136 -506t-135 -505t-367 -367t-506 -135q-274 0 -505 135q-231 134 -367 366t-135 506q0 274 135 506q134 232 366 366q232 136 506 136z" />
    <glyph glyph-name="four.idx_P2D" horiz-adv-x="2252" 
d="M1012 150v92h172v190h-441l-22 45l500 653l82 -59l-426 -551h307v203l106 45v-248h162v-90h-162v-188h131v-92h-409zM1126 1552q-387 0 -657 -274t-270 -664t270 -663q270 -275 657 -275q388 0 658 274t270 664q0 389 -270 664q-271 274 -658 274zM1126 1622
q274 0 506 -135t366 -367q136 -232 136 -506t-135 -505t-367 -367t-506 -135q-274 0 -505 135q-231 134 -367 366t-135 506q0 274 135 506q134 232 366 366q232 136 506 136z" />
    <glyph glyph-name="five.idx_P2D" horiz-adv-x="2252" 
d="M1446 450q0 -144 -92 -231q-92 -88 -226 -88q-133 0 -229 53t-96 121q0 35 21 59q22 24 56 24t56 -24q22 -22 20 -52q0 -30 -18 -44q16 -16 70 -28t112 -13q100 -1 158 63t59 158q0 94 -54 152q-54 57 -172 57t-220 -47l-47 25l47 471h495v-102h-407l-29 -273
q70 25 196 25t213 -81t87 -225zM1126 1552q-387 0 -657 -274t-270 -664t270 -663q270 -275 657 -275q388 0 658 274t270 664q0 389 -270 664q-271 274 -658 274zM1126 1622q274 0 506 -135t366 -367q136 -232 136 -506t-135 -505t-367 -367t-506 -135q-274 0 -505 135
q-231 134 -367 366t-135 506q0 274 135 506q134 232 366 366q232 136 506 136z" />
    <glyph glyph-name="six.idx_P2D" horiz-adv-x="2252" 
d="M1138 643q-97 1 -164 -59t-67 -145t70 -148t164 -63t156 58q62 60 63 150q0 90 -62 148t-160 59zM1419 958q1 -39 -21 -60t-56 -21q-34 -1 -54 21t-20 50t14 47q-33 33 -108 33q-119 0 -199 -119t-84 -309q35 59 105 99t149 40q141 0 232 -86t91 -215t-93 -218t-237 -89
q-144 -1 -248 103t-104 354t116 394q116 142 276 142q96 0 168 -47t73 -119zM1126 1552q-387 0 -657 -274t-270 -664t270 -663q270 -275 657 -275q388 0 658 274t270 664q0 389 -270 664q-271 274 -658 274zM1126 1622q274 0 506 -135t366 -367q136 -232 136 -506t-135 -505
t-367 -367t-506 -135q-274 0 -505 135q-231 134 -367 366t-135 506q0 274 135 506q134 232 366 366q232 136 506 136z" />
    <glyph glyph-name="seven.idx_P2D" horiz-adv-x="2252" 
d="M936 1014v-156h-100v248h630l21 -43l-420 -913h-113l400 864h-418zM1126 1552q-387 0 -657 -274t-270 -664t270 -663q270 -275 657 -275q388 0 658 274t270 664q0 389 -270 664q-271 274 -658 274zM1126 1622q274 0 506 -135t366 -367q136 -232 136 -506t-135 -505
t-367 -367t-506 -135q-274 0 -505 135q-231 134 -367 366t-135 506q0 274 135 506q134 232 366 366q232 136 506 136z" />
    <glyph glyph-name="eight.idx_P2D" horiz-adv-x="2252" 
d="M1125 598q-93 0 -159 -54t-65 -132t63 -130t161 -51q99 -1 161 51t64 130q0 78 -66 132t-159 54zM1126 688q84 0 144 50q59 50 59 121t-57 119q-58 48 -146 48t-146 -48t-58 -119t60 -121t144 -50zM1458 408q0 -119 -94 -196t-239 -77q-146 0 -239 76t-93 197
q0 84 58 152t136 87q-76 25 -125 85t-49 130q0 119 90 189q90 69 223 69t223 -69q89 -70 89 -189q0 -70 -49 -130t-125 -85q78 -20 136 -88t58 -151zM1126 1552q-387 0 -657 -274t-270 -664t270 -663q270 -275 657 -275q388 0 658 274t270 664q0 389 -270 664
q-271 274 -658 274zM1126 1622q274 0 506 -135t366 -367q136 -232 136 -506t-135 -505t-367 -367t-506 -135q-274 0 -505 135q-231 134 -367 366t-135 506q0 274 135 506q134 232 366 366q232 136 506 136z" />
    <glyph glyph-name="nine.idx_P2D" horiz-adv-x="2252" 
d="M1348 812q0 89 -69 154q-69 64 -163 64t-158 -60t-63 -154q0 -94 62 -153q61 -59 159 -59t165 60t67 148zM831 293q0 43 22 65q21 22 53 21q32 0 54 -22q22 -21 21 -51q0 -30 -14 -44q31 -35 118 -35q119 0 198 112t81 306q-34 -59 -104 -97t-150 -38q-141 0 -231 84
q-91 84 -91 218t94 223t236 89q143 0 247 -104q103 -104 103 -358q0 -255 -110 -393t-277 -138q-131 0 -209 78q-41 41 -41 84zM1126 1552q-387 0 -657 -274t-270 -664t270 -663q270 -275 657 -275q388 0 658 274t270 664q0 389 -270 664q-271 274 -658 274zM1126 1622
q274 0 506 -135t366 -367q136 -232 136 -506t-135 -505t-367 -367t-506 -135q-274 0 -505 135q-231 134 -367 366t-135 506q0 274 135 506q134 232 366 366q232 136 506 136z" />
    <glyph glyph-name="space.tab" horiz-adv-x="542" 
 />
    <glyph glyph-name="NUL" 
 />
    <glyph glyph-name="hfjslug" horiz-adv-x="1421" 
d="M872 580q-33 0 -32 34q0 12 9 24t23 11q14 0 24 -11t9 -24q0 -34 -33 -34zM997 612h-22v35h22q20 0 21 -16q-1 -19 -21 -19zM659 823q-33 0 -33 45t33 78l41 -80q-16 -43 -41 -43zM645 1056q0 30 29 29q27 -1 27 -35t-31 -69q-25 45 -25 75zM494 662l28 -97h17l22 70h2
l23 -70h16l29 97h-17l-20 -72h-2l-23 72h-14l-23 -72h-2l-20 72h-16zM270 662v-95h17v66l51 -66h14v95h-16v-66l-51 66h-15zM395 662v-95h70v15h-53v26h47v15h-47v24h53v15h-70zM750 567h16v35l37 60h-19l-26 -46l-27 46h-18l37 -60v-35zM872 565q20 1 34 15q33 33 1 68
q-15 16 -35 16t-34 -16t-14 -34q0 -20 14 -34t34 -15zM1034 631q0 31 -35 31h-41v-95h17v31h24l21 -31h18l-24 35q20 8 20 29zM1071 662v-95h16v25l17 16l31 -41h20l-41 54l37 41h-21l-40 -50h-3v50h-16zM729 1038q0 72 -55 72q-25 0 -41 -19q-17 -19 -17 -45t29 -79
q-47 -37 -47 -83q0 -91 59 -89q39 0 60 49h2l24 -49l25 12l-35 65q13 29 27 80l-27 6q-8 -37 -16 -61h-2l-33 64q47 43 47 77zM985 799q63 0 64 73v281h-33v-281q0 -45 -33 -45q-16 0 -41 11v-31q20 -8 43 -8zM377 1153v-352h31v162h96v-162h31v352h-31v-162h-96v162h-31z
M819 1153v-352h31v160h78v28h-78v135h88v29h-119zM1319 -410h-426l-16 29h-334l-17 -29h-424v621q29 0 48 19q18 19 18 46q0 26 -20 46t-46 20v1135h205l62 161h684l59 -161h207v-1887z" />
    <glyph glyph-name="i.dot" horiz-adv-x="577" 
d="M291 -12q-68 0 -112 41t-44 90t17 106l151 541h-172l25 94h280l-180 -645q-14 -51 -14 -82t17 -49t46 -18q63 0 119 135l63 -21q-65 -192 -196 -192zM411 1229q35 0 61 -27q26 -28 26 -64t-26 -62t-61 -27q-36 1 -62 27t-25 63q0 37 26 63t61 27z" />
    <glyph glyph-name="zero.num" horiz-adv-x="722" 
d="M375 641q100 0 169 125t68 274q0 207 -141 207q-100 0 -169 -125t-69 -274q1 -207 142 -207zM369 561q-106 0 -167 76q-60 76 -61 205q-1 195 95 340t241 145q107 0 167 -76t61 -204q1 -195 -95 -341t-241 -145z" />
    <glyph glyph-name="one.num" horiz-adv-x="722" 
d="M109 573l18 80h209l133 572l-211 -41v82l277 59l40 -20l-149 -652h205l-19 -80h-503z" />
    <glyph glyph-name="two.num" horiz-adv-x="722" 
d="M616 1138q0 50 -37 80q-38 30 -100 29q-113 0 -151 -57q24 -26 24 -52t-17 -43t-45 -17t-45 18q-17 20 -18 53q0 63 73 121t179 59q107 0 169 -52t62 -134t-58 -137t-183 -123q-203 -113 -264 -234h325l27 117h80l-43 -193h-488l-16 41q45 111 126 187q82 76 198 138
t159 105q43 44 43 94z" />
    <glyph glyph-name="three.num" horiz-adv-x="722" 
d="M645 778q-1 -98 -81 -156t-186 -59q-106 0 -179 47q-72 47 -72 113q0 29 18 51t44 21t42 -17q17 -16 17 -44t-29 -42q39 -51 137 -51t148 39q49 39 49 97q0 57 -55 99t-140 42h-28l18 79h31q102 0 163 39q60 38 60 96t-43 87t-115 29t-102 -36q20 -10 20 -36t-17 -41
q-17 -17 -43 -17t-43 18t-17 50q0 55 62 98t162 43t166 -52q64 -52 64 -132t-59 -129t-150 -62q72 -18 115 -64t43 -110z" />
    <glyph glyph-name="four.num" horiz-adv-x="722" 
d="M422 645l35 146h-340l-11 38l494 506l55 -51l-419 -424h239l39 158l90 35l-43 -189h125l-18 -73h-125l-33 -146h100l-16 -72h-320l17 72h131z" />
    <glyph glyph-name="five.num" horiz-adv-x="722" 
d="M563 820q-1 142 -155 143q-78 0 -154 -35l-43 33l115 354h391l-19 -84h-319l-72 -219q65 26 145 26t140 -55t61 -157q0 -102 -92 -184q-92 -83 -225 -83q-86 0 -153 41t-66 94q0 29 17 48q17 20 43 20t42 -16q17 -16 17 -37q0 -22 -15 -37q39 -35 127 -35t152 57
q63 56 63 126z" />
    <glyph glyph-name="six.num" horiz-adv-x="722" 
d="M434 965q-72 1 -130 -57t-58 -122t40 -106q40 -41 115 -41q74 0 129 56q56 57 56 125t-40 106t-112 39zM541 1329q78 0 132 -39t54 -79t-18 -59t-43 -19t-42 16q-18 16 -18 40t19 40q-25 25 -82 24q-90 -1 -178 -83t-119 -244q82 115 211 114q98 0 159 -58
q62 -58 62 -158t-84 -182q-84 -83 -194 -83t-178 69q-68 68 -68 192t44 234t119 179q102 96 224 96z" />
    <glyph glyph-name="seven.num" horiz-adv-x="722" 
d="M213 573l451 666h-332l-29 -125h-84l49 201h494l20 -41l-467 -701h-102z" />
    <glyph glyph-name="eight.num" horiz-adv-x="722" 
d="M392 641q75 0 127 42t52 101q0 60 -45 98q-44 38 -120 38t-127 -42t-51 -102t44 -97q45 -38 120 -38zM474 993q66 0 112 39q47 39 47 93t-41 88t-109 34q-69 0 -115 -37t-46 -92t43 -90t109 -35zM664 794q0 -104 -76 -168t-192 -65t-188 59t-73 142t57 139t140 70
q-102 47 -103 151q0 80 72 142t180 61q108 0 176 -53t68 -131t-48 -127t-126 -68q113 -48 113 -152z" />
    <glyph glyph-name="nine.num" horiz-adv-x="722" 
d="M467 1249q-74 0 -129 -56q-55 -57 -55 -125t40 -106q39 -38 111 -38t130 57t58 121t-40 106q-41 41 -115 41zM412 848q-98 0 -160 58t-62 158t84 182t194 83q110 -1 178 -69q69 -68 69 -192t-44 -234t-120 -179q-102 -96 -223 -96q-78 0 -132 39t-54 79t18 59
q18 20 43 20t42 -16t17 -41q0 -24 -18 -40q25 -25 82 -24q90 0 179 85t118 241q-82 -113 -211 -113z" />
    <glyph glyph-name="zero.den" horiz-adv-x="722" 
d="M242 68q100 0 169 125t68 274q0 207 -141 207q-100 0 -169 -125t-69 -275q1 -206 142 -206zM236 -12q-106 0 -167 75q-60 76 -61 205q0 195 95 340t241 146q106 0 166 -76t61 -205q0 -195 -95 -340t-240 -145z" />
    <glyph glyph-name="one.den" horiz-adv-x="722" 
d="M-25 0l19 80h209l133 571l-211 -41v82l276 60l41 -21l-149 -651h205l-19 -80h-504z" />
    <glyph glyph-name="two.den" horiz-adv-x="722" 
d="M483 564q0 50 -38 80t-99 30q-113 0 -151 -58q25 -26 25 -52t-18 -43q-17 -17 -45 -17t-45 19t-18 52q0 63 73 121t179 60q106 0 168 -52t64 -135q0 -82 -58 -137t-184 -123q-203 -113 -264 -233h325l27 117h80l-43 -193h-488l-16 41q45 111 126 187t197 138t160 105
q43 43 43 93z" />
    <glyph glyph-name="three.den" horiz-adv-x="722" 
d="M512 205q0 -99 -80 -157t-188 -58t-179 47t-71 113q0 28 18 50t44 22t42 -17q16 -16 16 -44t-28 -42q40 -51 138 -51t147 38t49 98q0 58 -55 99t-140 41h-28l18 80h31q102 0 163 39q60 39 60 96t-43 86t-116 29t-101 -35q20 -10 20 -36t-17 -42t-43 -16t-43 18t-17 49
q0 54 62 98q63 44 163 44t165 -52t65 -133q0 -80 -60 -129q-59 -49 -150 -61q72 -19 115 -65t43 -109z" />
    <glyph glyph-name="four.den" horiz-adv-x="722" 
d="M289 72l35 145h-340l-11 39l494 506l55 -51l-420 -424h240l39 157l90 35l-43 -188h125l-18 -74h-125l-33 -145h100l-16 -72h-320l17 72h131z" />
    <glyph glyph-name="five.den" horiz-adv-x="722" 
d="M203 -14q-86 0 -153 41t-66 94q0 29 17 48t43 19t42 -15t16 -37t-14 -38q39 -35 127 -35q87 -1 151 57t64 128q0 142 -147 141q-86 0 -162 -35l-43 33l115 354h391l-19 -84h-319l-72 -219q66 27 146 27t140 -55t60 -157q0 -103 -92 -185t-225 -82z" />
    <glyph glyph-name="six.den" horiz-adv-x="722" 
d="M113 212q1 -64 41 -105t114 -41t129 56t55 124t-39 107q-40 38 -112 38t-130 -57q-58 -58 -58 -122zM20 247q0 123 44 233t120 179q102 96 224 97q78 0 132 -39t54 -79t-18 -59t-44 -19q-25 0 -42 15q-17 16 -17 40t19 40q-25 25 -82 25q-90 0 -178 -83t-119 -245
q82 115 211 115q98 0 159 -58t61 -158q0 -101 -83 -183t-193 -82t-179 68q-69 69 -69 193z" />
    <glyph glyph-name="seven.den" horiz-adv-x="722" 
d="M80 0l450 666h-331l-29 -125h-84l49 200h494l20 -41l-467 -700h-102z" />
    <glyph glyph-name="eight.den" horiz-adv-x="722" 
d="M94 203q0 -59 45 -97t120 -38t127 42t52 101t-45 97t-121 38t-127 -42t-51 -101zM350 674q-68 0 -114 -37t-48 -92q0 -55 44 -90t108 -35q66 0 113 39t47 93t-41 88t-109 34zM263 -12q-117 0 -189 59t-72 141t57 140t140 69q-102 47 -103 152q0 80 72 141q72 62 180 62
t176 -54t68 -131q0 -78 -48 -127t-126 -67q112 -49 112 -153t-75 -168q-76 -64 -192 -64z" />
    <glyph glyph-name="nine.den" horiz-adv-x="722" 
d="M334 676q-74 0 -129 -56t-55 -125t40 -107t111 -38q72 0 130 58t58 122t-40 105q-41 41 -115 41zM279 274q-98 0 -160 58t-62 158t84 183q83 83 193 83t179 -69t69 -193t-44 -234t-120 -178q-102 -96 -223 -96q-78 0 -133 39q-54 39 -54 79t18 59t44 19q25 0 42 -16
t17 -40t-18 -40q25 -25 82 -25q91 0 179 85t117 241q-82 -113 -210 -113z" />
    <glyph glyph-name="caron.alt" horiz-adv-x="1024" 
d="M567 1491q68 0 68 -74q1 -74 -61 -169t-187 -195l-31 32q96 104 121 197q6 27 8 72t4 59q10 78 78 78z" />
    <glyph glyph-name="g.sc" 
 />
    <glyph glyph-name="gbreve.sc" 
 />
    <glyph glyph-name="i.sc" 
 />
    <glyph glyph-name="iacute.sc" 
 />
    <glyph glyph-name="ibreve.sc" 
 />
    <glyph glyph-name="icircumflex.sc" 
 />
    <glyph glyph-name="idieresis.sc" 
 />
    <glyph glyph-name="igrave.sc" 
 />
    <glyph glyph-name="imacron.sc" 
 />
    <glyph glyph-name="iogonek.sc" 
 />
    <glyph glyph-name="S.sc" 
 />
    <glyph glyph-name="Sacute.sc" 
 />
    <glyph glyph-name="Aring.sc" 
 />
    <glyph glyph-name="Aringacute.sc" 
 />
    <glyph glyph-name="E.sc" 
 />
    <glyph glyph-name="Eacute.sc" 
 />
    <glyph glyph-name="Ebreve.sc" 
 />
    <glyph glyph-name="Ecircumflex.sc" 
 />
    <glyph glyph-name="Edieresis.sc" 
 />
    <glyph glyph-name="Egrave.sc" 
 />
    <glyph glyph-name="Emacron.sc" 
 />
    <glyph glyph-name="Eogonek.sc" 
 />
    <glyph glyph-name="N.sc" 
 />
    <glyph glyph-name="Nacute.sc" 
 />
    <glyph glyph-name="Ntilde.sc" 
 />
    <glyph glyph-name="a.sc" 
 />
    <glyph glyph-name="aogonek.sc" 
 />
    <glyph glyph-name="L.sc" 
 />
    <glyph glyph-name="Lacute.sc" 
 />
    <glyph glyph-name="s.sc" 
 />
    <glyph glyph-name="sacute.sc" 
 />
    <glyph glyph-name="aring.sc" 
 />
    <glyph glyph-name="aringacute.sc" 
 />
    <glyph glyph-name="C.sc" 
 />
    <glyph glyph-name="Cacute.sc" 
 />
    <glyph glyph-name="e.sc" 
 />
    <glyph glyph-name="eacute.sc" 
 />
    <glyph glyph-name="ebreve.sc" 
 />
    <glyph glyph-name="ecircumflex.sc" 
 />
    <glyph glyph-name="edieresis.sc" 
 />
    <glyph glyph-name="egrave.sc" 
 />
    <glyph glyph-name="emacron.sc" 
 />
    <glyph glyph-name="eogonek.sc" 
 />
    <glyph glyph-name="n.sc" 
 />
    <glyph glyph-name="nacute.sc" 
 />
    <glyph glyph-name="ntilde.sc" 
 />
    <glyph glyph-name="l.sc" 
 />
    <glyph glyph-name="lacute.sc" 
 />
    <glyph glyph-name="c.sc" 
 />
    <glyph glyph-name="cacute.sc" 
 />
    <glyph glyph-name="R.sc" 
 />
    <glyph glyph-name="Racute.sc" 
 />
    <glyph glyph-name="G.sc" 
 />
    <glyph glyph-name="Gbreve.sc" 
 />
    <glyph glyph-name="I.sc" 
 />
    <glyph glyph-name="Iacute.sc" 
 />
    <glyph glyph-name="Ibreve.sc" 
 />
    <glyph glyph-name="Icircumflex.sc" 
 />
    <glyph glyph-name="Idieresis.sc" 
 />
    <glyph glyph-name="Igrave.sc" 
 />
    <glyph glyph-name="Imacron.sc" 
 />
    <glyph glyph-name="Iogonek.sc" 
 />
    <glyph glyph-name="r.sc" 
 />
    <glyph glyph-name="racute.sc" 
 />
    <glyph glyph-name="A.sc" 
 />
    <glyph glyph-name="Aogonek.sc" 
 />
    </font>
</defs>
</svg>
