<?xml version="1.0" standalone="no"?>
<!DOCTYPE svg PUBLIC "-//W3C//DTD SVG 1.1//EN" "http://www.w3.org/Graphics/SVG/1.1/DTD/svg11.dtd" >
<svg xmlns="http://www.w3.org/2000/svg">
<metadata>
Created by FontPrep 20130207 at Sun Apr  5 22:23:00 2015
 By Tina Kumar
Copyright (C) 2000, 2007 Hoefler &#38; Frere-Jones. http://www.typography.com
</metadata>
<defs>
<font id="9bcb381ff7f6bd962556094841ec6fe0" horiz-adv-x='1024' >
  <font-face 
    font-family="Archer-Hairline"
    font-weight="250"
    font-stretch="normal"
    units-per-em="2048"
    panose-1="2 0 0 0 0 0 0 0 0 0"
    ascent="1638"
    descent="-410"
    x-height="827"
    cap-height="1348"
    bbox="-98 -461 2632 1855"
    underline-thickness="102"
    underline-position="-102"
    unicode-range="U+0020-FB04"
  />
<missing-glyph horiz-adv-x="1024" 
d="M512 492l-367 -799h734zM922 1384l-353 -770l353 -770v1540zM102 -156l353 770l-353 770v-1540zM145 1536l367 -799l367 799h-734zM0 -410v2048h1024v-2048h-1024z" />
    <glyph glyph-name="f_f" unicode="ff" horiz-adv-x="983" 
d="M242 827h450v390q0 168 72 239q55 55 133 55q39 0 64 -14t24 -35q0 -23 -22 -22q-16 0 -20 16q-3 16 15 29q-23 16 -61 16q-74 0 -125 -51q-68 -68 -67 -233v-390h233v-10h-233v-807h172v-10h-355v10h170v807h-450v-807h172v-10h-355v10h170v807h-170v10h170v347
q0 168 72 239q55 55 133 55q39 0 64 -14t24 -35q0 -23 -22 -22q-16 0 -20 16q-3 16 16 29q-23 16 -62 16q-74 0 -125 -51q-68 -68 -67 -233v-347z" />
    <glyph glyph-name="fi" unicode="fi" horiz-adv-x="880" 
d="M668 827v-817h172v-10h-355v10h170v807h-413v-807h172v-10h-355v10h170v807h-170v10h170v359q0 176 84 252q61 59 158 59q47 0 78 -18t31 -41t-23 -23q-18 1 -20 19t16 28q-33 25 -82 25q-90 0 -149 -57q-80 -72 -80 -244v-359h426z" />
    <glyph glyph-name="fl" unicode="fl" horiz-adv-x="927" 
d="M473 1497q-98 -1 -165 -65t-66 -207v-398h452v457h-6q-20 0 -20 20t20 25q-16 68 -55 107q-62 61 -160 61zM524 10h170v807h-452v-807h172v-10h-355v10h170v807h-170v10h170v398q0 151 70 217t173 66q102 0 158 -57q56 -56 66 -114l2 150h9v-1477h172v-10h-355v10z" />
    <glyph glyph-name="f_f_i" unicode="ffi" horiz-adv-x="1343" 
d="M478 1450q-108 0 -169 -68q-68 -68 -67 -227v-328h450v359q0 176 84 252q61 59 158 59q48 0 78 -18t30 -41t-20 -23q-20 1 -22 19t16 28q-33 25 -82 25q-90 0 -150 -57q-80 -72 -79 -244v-359h425v-817h173v-10h-355v10h170v807h-413v-807h172v-10h-355v10h170v807h-450
v-807h172v-10h-355v10h170v807h-170v10h170v328q0 158 69 232q69 73 169 73t134 -34t34 -64t-23 -29q-14 1 -19 13t1 26t22 17q-30 61 -138 61z" />
    <glyph glyph-name="f_f_l" unicode="ffl" horiz-adv-x="1390" 
d="M705 1225v-398h452v457h-6q-20 0 -21 21q0 16 21 24q-16 68 -55 107q-62 61 -160 61q-98 -1 -164 -65t-67 -207zM477 1450q-107 0 -168 -68q-67 -67 -67 -227v-328h450v398q0 151 70 217t173 66t167 -64q45 -49 57 -109l2 152h8v-1477h172v-10h-354v10h170v807h-452v-807
h172v-10h-355v10h170v807h-450v-807h172v-10h-355v10h170v807h-170v10h170v328q0 158 69 232q69 73 169 73t134 -34t34 -64t-23 -29q-14 1 -19 13t0 25t21 18q-30 61 -137 61z" />
    <glyph glyph-name="f_b" unicode="fb" horiz-adv-x="1556" 
d="M668 1304q0 19 20 25q-16 68 -55 107q-61 61 -159 61q-98 -1 -166 -65q-67 -64 -66 -207v-398h452v457h-6q-20 1 -20 20zM1053 -2q169 0 285 120t116 297t-112 296t-293 119t-342 -183v-495q72 -66 167 -110t179 -44zM694 0v817h-452v-807h172v-10h-355v10h170v807h-170
v10h170v398q0 151 70 217t173 66q102 0 158 -57q56 -56 66 -114l2 150h9v-825q162 178 346 178t299 -121q114 -121 114 -304t-120 -305t-293 -122q-174 0 -346 149l-5 -137h-8z" />
    <glyph glyph-name="f_h" unicode="fh" horiz-adv-x="1523" 
d="M668 1304q0 19 20 25q-16 68 -55 107q-61 61 -159 61q-98 -1 -166 -65q-67 -64 -66 -207v-398h452v457h-6q-20 1 -20 20zM694 10v807h-452v-807h172v-10h-355v10h170v807h-170v10h170v398q0 151 70 217t173 66q102 0 158 -57q56 -56 66 -114l2 150h9v-871
q168 223 362 224q154 0 213 -121q31 -61 31 -193v-516h170v-10h-355v10h172v516q0 129 -28 187q-57 117 -203 116q-195 0 -362 -231v-588h172v-10h-355v10h170z" />
    <glyph glyph-name="f_j" unicode="fj" horiz-adv-x="837" 
d="M655 817h-413v-807h172v-10h-355v10h170v807h-170v10h170v359q0 176 84 252q61 59 158 59q47 0 78 -18t31 -41t-23 -23q-18 1 -20 19t16 28q-33 25 -82 25q-90 0 -149 -57q-80 -72 -80 -244v-359h426v-852q0 -137 -16 -215t-69 -124q-54 -46 -120 -46t-106 33t-40 66
t23 32q20 0 20 -21t-26 -28q33 -72 129 -71q61 0 112 44q51 43 65 119t15 211v842z" />
    <glyph glyph-name="f_k" unicode="fk" horiz-adv-x="1454" 
d="M242 1225v-398h452v457h-6q-20 0 -20 20t20 25q-16 68 -55 107q-61 61 -159 61q-98 -1 -166 -65q-66 -64 -66 -207zM707 1487v-1172l526 502h-223v10h405v-10h-168l-319 -305l350 -502h139v-10h-147l-350 504l-213 -203v-291h172v-10h-355v10h170v807h-452v-807h172v-10
h-355v10h170v807h-170v10h170v398q0 151 70 217t173 66q102 0 158 -57q56 -56 66 -114l2 150h9z" />
    <glyph glyph-name="f_f_b" unicode="ffb" horiz-adv-x="2019" 
d="M1130 1304q0 19 21 25q-16 68 -55 107q-62 61 -160 61q-98 -1 -165 -65t-66 -207v-398h452v457h-6q-21 1 -21 20zM1516 -2q168 0 284 120t117 297q0 177 -112 296t-293 119t-343 -183v-495q71 -66 167 -110t180 -44zM478 1450q-108 0 -169 -68q-68 -68 -67 -227v-328h450
v398q0 151 70 217t173 66t159 -57q56 -56 65 -120l2 156h8v-825q163 178 347 178t299 -121t115 -304t-121 -305q-119 -122 -293 -122t-347 149l-4 -137h-8v817h-452v-807h172v-10h-355v10h170v807h-450v-807h172v-10h-355v10h170v807h-170v10h170v328q0 158 69 232
q69 73 169 73t134 -34t34 -64t-23 -29q-14 1 -19 13t1 25t22 18q-30 61 -138 61z" />
    <glyph glyph-name="f_f_h" unicode="ffh" horiz-adv-x="1986" 
d="M705 1225v-398h452v457h-6q-20 0 -21 21q0 18 21 24q-16 68 -55 107q-62 61 -160 61q-98 -1 -164 -65t-67 -207zM477 1450q-107 0 -168 -68q-68 -68 -67 -227v-328h450v398q0 151 70 217t173 66t159 -57q56 -56 65 -116l2 152h8v-871q168 223 363 224q154 0 213 -121
q31 -61 31 -193v-516h170v-10h-355v10h172v516q0 129 -28 187q-57 117 -203 116q-195 0 -363 -231v-588h172v-10h-354v10h170v807h-452v-807h172v-10h-355v10h170v807h-450v-807h172v-10h-355v10h170v807h-170v10h170v328q0 158 69 232q69 73 169 73t134 -34t34 -64t-23 -29
q-14 1 -19 13t0 25t21 18q-30 61 -137 61z" />
    <glyph glyph-name="f_f_j" unicode="ffj" horiz-adv-x="1300" 
d="M478 1450q-108 0 -169 -68q-68 -68 -67 -227v-328h450v359q0 176 84 252q61 59 158 59q47 0 78 -18q30 -18 30 -41t-20 -23q-20 1 -22 19t16 28q-33 25 -82 25q-90 0 -150 -57q-80 -72 -79 -244v-359h425v-852q0 -137 -15 -215t-69 -124t-120 -46t-106 33t-40 66t23 32
q20 0 20 -21t-26 -28q33 -72 129 -71q61 0 112 44q52 43 66 119t14 211v842h-413v-807h172v-10h-355v10h170v807h-450v-807h172v-10h-355v10h170v807h-170v10h170v328q0 158 69 232q69 73 169 73t134 -34t34 -64t-23 -29q-14 1 -19 13t1 26t22 17q-30 61 -138 61z" />
    <glyph glyph-name="f_f_k" unicode="ffk" horiz-adv-x="1916" 
d="M705 1225v-398h452v457h-6q-20 0 -21 21q0 16 21 24q-16 68 -55 107q-62 61 -160 61q-98 -1 -164 -65t-67 -207zM478 1450q-108 0 -169 -68q-68 -68 -67 -227v-328h450v398q0 151 70 217t173 66t159 -57q56 -56 65 -116l2 152h8v-1172l527 502h-223v10h405v-10h-168
l-319 -305l350 -502h139v-10h-147l-351 504l-213 -203v-291h172v-10h-354v10h170v807h-452v-807h172v-10h-355v10h170v807h-450v-807h172v-10h-355v10h170v807h-170v10h170v328q0 158 69 232q69 73 169 73t134 -34t34 -64t-23 -29q-14 1 -19 13t1 26t22 17q-30 61 -138 61z
" />
    <glyph glyph-name=".notdef" horiz-adv-x="1024" 
d="M512 492l-367 -799h734zM922 1384l-353 -770l353 -770v1540zM102 -156l353 770l-353 770v-1540zM145 1536l367 -799l367 799h-734zM0 -410v2048h1024v-2048h-1024z" />
    <glyph glyph-name=".null" horiz-adv-x="0" 
 />
    <glyph glyph-name="nonmarkingreturn" horiz-adv-x="681" 
 />
    <glyph glyph-name="space" unicode=" " horiz-adv-x="471" 
 />
    <glyph glyph-name="exclam" unicode="!" horiz-adv-x="356" 
d="M178 -16q-24 0 -24 24t24 25q24 -1 25 -25q0 -24 -25 -24zM174 301l-2 1047h14l-2 -1047h-10z" />
    <glyph glyph-name="quotedbl" unicode="&#x22;" horiz-adv-x="413" 
d="M125 1362q10 0 10 -10l-8 -250h-4l-8 250q0 10 10 10zM289 1362q10 0 10 -10l-8 -250h-4l-8 250q0 10 10 10z" />
    <glyph glyph-name="numbersign" unicode="#" horiz-adv-x="944" 
d="M324 713l-60 -389h354l60 389h-354zM94 713v12h219l45 287h13l-45 -287h354l45 287h12l-45 -287h221v-12h-223l-59 -389h219v-13h-221l-47 -311h-13l47 311h-354l-47 -311h-12l47 311h-219v13h221l59 389h-217z" />
    <glyph glyph-name="dollar" unicode="$" horiz-adv-x="833" 
d="M430 983q-125 1 -206 -61t-81 -153t68 -145t207 -106l35 465h-23zM410 6q137 0 225 65t88 163t-71 155t-224 115l-37 -498h19zM715 827q0 -37 -23 -36q-20 1 -20 25t28 28q-12 49 -77 90q-66 41 -160 49l-35 -467q156 -56 232 -118t75 -164q0 -102 -92 -170t-233 -68h-19
l-16 -205h-10l16 205q-137 6 -219 67t-82 136q0 37 21 37t22 -25q0 -29 -29 -29q8 -66 86 -118t201 -58l37 500q-150 55 -218 111q-68 55 -69 151q0 96 84 161t215 64h23l10 158h10l-10 -158q106 -8 179 -58t73 -108z" />
    <glyph glyph-name="percent" unicode="%" horiz-adv-x="1171" 
d="M846 434q-84 0 -140 -61t-56 -149t56 -150t140 -62t141 62t57 149t-57 149t-141 62zM846 444q88 0 149 -64t61 -157t-60 -157q-62 -64 -150 -64t-149 65q-60 65 -60 157t60 156q61 64 149 64zM193 -20l-11 6l779 1018l10 -7zM326 594q84 0 140 61t56 149t-56 150t-140 62
t-142 -62t-57 -149q0 -86 57 -149q58 -62 142 -62zM326 584q-88 0 -150 64q-61 65 -61 157t61 157q62 64 150 64t148 -64t60 -157t-60 -157t-148 -64z" />
    <glyph glyph-name="ampersand" unicode="&#x26;" horiz-adv-x="1138" 
d="M684 1020q0 94 -62 154t-164 61q-102 -1 -167 -71q-66 -70 -66 -191t154 -295q233 133 281 235q24 49 24 107zM379 -6q248 0 424 250l-297 288q-78 76 -129 132q-145 -84 -222 -172t-77 -211t81 -205t220 -82zM1108 604h-123q-70 -215 -168 -356l266 -256l-8 -8l-264 254
q-180 -254 -432 -254q-145 0 -229 85t-84 213t77 216q78 88 226 174q-156 180 -156 303t70 197t176 73q106 0 172 -63q65 -63 65 -172t-98 -195q-73 -65 -211 -145q78 -82 127 -129l295 -287q100 150 164 350h-144v10h279v-10z" />
    <glyph glyph-name="quotesingle" unicode="'" horiz-adv-x="249" 
d="M125 1362q10 0 10 -10l-8 -250h-4l-8 250q0 10 10 10z" />
    <glyph glyph-name="parenleft" unicode="(" horiz-adv-x="593" 
d="M139 532q0 272 118 542t349 452l8 -8q-229 -180 -346 -448q-233 -535 0 -1074q117 -268 346 -449l-8 -8q-231 181 -349 451t-118 542z" />
    <glyph glyph-name="parenright" unicode=")" horiz-adv-x="593" 
d="M455 532q0 -272 -118 -542t-349 -451l-8 8q229 181 346 449t116 536q0 268 -116 536t-346 450l8 8q231 -182 349 -452t118 -542z" />
    <glyph glyph-name="asterisk" unicode="*" horiz-adv-x="671" 
d="M84 1255q0 8 10 7l238 -82l-4 250q0 8 8 8t8 -8l-4 -250l238 82q10 2 10 -6t-6 -11l-240 -74l150 -198q6 -11 -2 -15t-13 5l-141 202l-141 -202q-5 -9 -13 -5t-2 15l150 198l-240 74q-6 2 -6 10z" />
    <glyph glyph-name="plus" unicode="+" horiz-adv-x="745" 
d="M367 244v284h-277v11h277v284h12v-284h276v-11h-276v-284h-12z" />
    <glyph glyph-name="comma" unicode="," horiz-adv-x="233" 
d="M90 12q0 23 21 23q29 0 28 -49q0 -90 -80 -176l-6 6q74 86 74 172q-14 -8 -26 1q-11 9 -11 23z" />
    <glyph glyph-name="hyphen" unicode="-" horiz-adv-x="466" 
d="M70 541v12h327v-12h-327z" />
    <glyph glyph-name="period" unicode="." horiz-adv-x="233" 
d="M117 -16q-25 0 -25 24t25 25q25 0 24 -25q1 -24 -24 -24z" />
    <glyph glyph-name="slash" unicode="/" horiz-adv-x="808" 
d="M-70 -406l-10 7l840 1896l10 -6z" />
    <glyph glyph-name="zero" unicode="0" horiz-adv-x="999" 
d="M500 -6q180 0 298 146t118 364t-118 363q-118 147 -298 147t-298 -146t-118 -364t118 -364t298 -146zM500 -16q-186 0 -307 148t-121 372t121 372t307 148t307 -148t121 -372t-121 -372t-307 -148z" />
    <glyph glyph-name="one" unicode="1" horiz-adv-x="671" 
d="M109 0v10h241v996l-229 -68l-2 10l237 70h6v-1008h244v-10h-497z" />
    <glyph glyph-name="two" unicode="2" horiz-adv-x="892" 
d="M426 1014q-190 0 -274 -135q-23 -37 -27 -76q27 -7 27 -29t-20 -22t-21 40q0 40 32 95q88 137 283 137q143 0 222 -70t79 -175t-63 -181t-179 -157q-117 -81 -173 -126t-126 -129t-104 -176h659v189h13v-199h-682l-4 6q47 132 144 230q98 98 238 194t202 171t62 177
t-75 169q-76 67 -213 67z" />
    <glyph glyph-name="three" unicode="3" horiz-adv-x="886" 
d="M82 -42q0 44 20 44t20 -22t-26 -29q8 -43 33 -76q86 -121 291 -121q156 0 254 93t98 235q0 221 -235 297q-86 27 -207 27h-15v10h15q117 0 209 35q211 82 211 284q0 115 -85 197t-233 82q-188 0 -274 -131q-23 -39 -31 -78q27 -6 27 -29t-21 -22q-20 0 -20 40t37 97
q88 133 282 133q154 0 242 -84t88 -196q0 -223 -223 -306q-57 -20 -111 -26q49 -2 109 -21q248 -76 247 -309q0 -146 -101 -242t-263 -96q-209 0 -299 121q-39 49 -39 93z" />
    <glyph glyph-name="four" unicode="4" horiz-adv-x="894" 
d="M618 -246v416h-600l-4 4l621 858l10 -6l-612 -846h585v438l13 5v-443h239v-10h-239v-416h-13z" />
    <glyph glyph-name="five" unicode="5" horiz-adv-x="854" 
d="M74 -39q0 39 19 39t19 -22t-24 -27q10 -41 35 -74q89 -117 269 -117t286 104t106 268q0 165 -108 259q-110 94 -272 94t-269 -61l-8 6l68 582h522v-13h-512l-66 -561q109 58 271 58t274 -98q113 -98 113 -266q0 -169 -111 -275q-111 -107 -294 -107t-275 117
q-43 55 -43 94z" />
    <glyph glyph-name="six" unicode="6" horiz-adv-x="958" 
d="M502 -8q158 0 266 114t106 275q0 159 -104 267t-265 108t-267 -115t-107 -258q0 -76 29 -156t80 -131q104 -104 262 -104zM559 1266q-182 0 -310 -188t-128 -552q0 -80 2 -114q13 169 150 277q97 77 248 77t259 -110t107 -276q0 -166 -111 -282q-110 -116 -274 -116
t-273 108q-121 125 -121 464t132 530q131 191 319 192q141 0 225 -84q45 -45 45 -85t-19 -40t-19 23t24 28q-12 39 -39 66q-78 82 -217 82z" />
    <glyph glyph-name="seven" unicode="7" horiz-adv-x="804" 
d="M84 1001v-262h-12v273h688l2 -4l-520 -1250l-11 4l517 1239h-664z" />
    <glyph glyph-name="eight" unicode="8" horiz-adv-x="929" 
d="M463 -8q158 0 262 94t104 234t-106 234q-106 93 -260 93t-260 -93q-107 -93 -107 -233q0 -141 104 -235t263 -94zM463 655q143 0 242 86q98 87 98 217t-96 219q-95 89 -243 89t-244 -89t-97 -219q0 -130 98 -217q99 -86 242 -86zM463 -18q-163 0 -271 97t-108 235t88 228
q88 91 227 109q-127 17 -208 103t-81 213t100 218q99 91 253 91t253 -91t99 -219t-81 -212t-210 -103q138 -16 228 -108t90 -229q0 -136 -108 -234t-271 -98z" />
    <glyph glyph-name="nine" unicode="9" horiz-adv-x="958" 
d="M106 620q0 -162 104 -270t266 -108q161 0 267 118t107 263q0 75 -29 155t-80 131q-104 105 -262 105q-157 0 -265 -116t-108 -278zM426 -279q-141 0 -225 84q-45 45 -45 85t20 40q18 0 18 -22t-24 -29q12 -39 39 -65q78 -82 217 -82q182 0 308 191t126 556q0 80 -2 115
q-13 -169 -152 -283q-97 -80 -247 -80q-149 0 -257 112t-108 278q0 167 112 285t274 118t272 -109q121 -125 120 -436q0 -369 -130 -563t-316 -195z" />
    <glyph glyph-name="colon" unicode=":" horiz-adv-x="270" 
d="M135 -16q-25 0 -25 24t26 25q24 -1 24 -25t-25 -24zM135 616q-25 0 -24 25t25 25t24 -25t-25 -25z" />
    <glyph glyph-name="semicolon" unicode=";" horiz-adv-x="270" 
d="M113 12q0 23 20 23q29 0 29 -49q0 -90 -80 -176l-6 6q74 86 74 172q-14 -8 -26 1q-11 9 -11 23zM135 616q-25 0 -24 25t25 25t24 -25t-25 -25z" />
    <glyph glyph-name="less" unicode="&#x3c;" horiz-adv-x="704" 
d="M561 219l-450 295v4l450 295l6 -8l-442 -289l442 -289z" />
    <glyph glyph-name="equal" unicode="=" horiz-adv-x="745" 
d="M90 377v10h565v-10h-565zM90 641v10h565v-10h-565z" />
    <glyph glyph-name="greater" unicode="&#x3e;" horiz-adv-x="704" 
d="M143 219l-6 8l443 289l-443 289l6 8l451 -295v-4z" />
    <glyph glyph-name="question" unicode="?" horiz-adv-x="782" 
d="M381 8q0 -25 -25 -24q-24 0 -24 24t24 25q24 0 25 -25zM37 1092q0 46 39 108q98 156 309 156q154 0 255 -98t101 -239q0 -143 -102 -245t-274 -137l-3 -336h-10l-2 344q174 35 277 134q102 99 102 239t-97 233q-97 94 -247 95q-205 0 -301 -154q-29 -43 -33 -94
q27 -6 27 -28t-21 -23q-20 -1 -20 45z" />
    <glyph glyph-name="at" unicode="@" horiz-adv-x="1540" 
d="M696 92q152 0 246 138t94 305q0 111 -58 177t-157 66q-143 0 -245 -125t-103 -301q1 -120 59 -190t164 -70zM621 -336q-242 0 -385 160q-144 160 -144 421t113 484t305 353t428 130t378 -148t142 -384t-99 -406q-99 -172 -231 -172q-168 0 -131 203q-47 -99 -125 -161
t-184 -62t-166 73q-61 73 -61 197q0 180 105 308t255 128q119 0 177 -82t46 -202l68 276h12l-110 -448q-25 -102 4 -160t110 -59q127 0 223 168q95 169 95 399t-139 376t-383 146q-334 0 -577 -282t-243 -676q0 -254 140 -412t377 -158q195 0 354 86l6 -8q-159 -88 -360 -88
z" />
    <glyph glyph-name="A" unicode="A" horiz-adv-x="1376" 
d="M397 545h582l-291 792zM2 0v10h186l488 1327h-221v11h471v-11h-226l488 -1327h186v-10h-438v10h240l-193 525h-590l-192 -525h239v-10h-438z" />
    <glyph glyph-name="B" unicode="B" horiz-adv-x="1177" 
d="M295 694h336q180 0 283 90q104 90 104 230t-99 231q-99 92 -292 92h-332v-643zM295 10h336q190 0 308 90t118 245t-109 247t-313 92h-340v-674zM68 0v10h215v1327h-215v11h559q199 0 301 -96t102 -231q0 -134 -87 -225t-234 -106q174 -14 267 -108t93 -245t-120 -244
t-318 -93h-563z" />
    <glyph glyph-name="C" unicode="C" horiz-adv-x="1402" 
d="M787 -27q-297 0 -489 199t-192 496q0 296 195 500t481 206q207 2 352 -108q144 -111 144 -236q0 -39 -25 -39q-20 0 -20 23q0 12 9 20t22 6q-2 113 -140 218t-342 106q-283 0 -473 -202t-190 -494t188 -489q188 -196 475 -195q146 0 274 59t218 164l8 -8
q-199 -226 -495 -226z" />
    <glyph glyph-name="D" unicode="D" horiz-adv-x="1433" 
d="M295 10h283q344 0 534 184t190 483q0 300 -190 480t-541 180h-276v-1327zM68 0v10h215v1327h-215v11h503q354 0 549 -184t195 -488t-194 -490t-543 -186h-510z" />
    <glyph glyph-name="E" unicode="E" horiz-adv-x="1138" 
d="M68 0v10h215v1327h-215v11h938v-306h-13v295h-698v-643h524v-10h-524v-674h698v295h13v-305h-938z" />
    <glyph glyph-name="F" unicode="F" horiz-adv-x="1083" 
d="M68 0v10h215v1327h-215v11h917v-306h-12v295h-678v-643h504v-10h-504v-674h225v-10h-452z" />
    <glyph glyph-name="G" unicode="G" horiz-adv-x="1470" 
d="M789 -27q-302 0 -492 199t-191 496q0 296 195 500t481 206q216 2 364 -100t148 -211q0 -39 -21 -39t-22 23q0 31 31 26q-8 101 -150 197t-350 94q-283 -2 -473 -204t-190 -494t187 -487q187 -196 470 -195q319 0 518 235v359h-473v10h486v-588h-13v203
q-203 -230 -505 -230z" />
    <glyph glyph-name="H" unicode="H" horiz-adv-x="1529" 
d="M68 0v10h215v1327h-215v11h446v-11h-219v-639h940v639h-219v11h446v-11h-215v-1327h215v-10h-446v10h219v678h-940v-678h219v-10h-446z" />
    <glyph glyph-name="I" unicode="I" horiz-adv-x="598" 
d="M68 0v10h225v1327h-225v11h462v-11h-225v-1327h225v-10h-462z" />
    <glyph glyph-name="J" unicode="J" horiz-adv-x="993" 
d="M407 -27q-135 1 -229 93t-94 233q0 45 25 45q18 0 18 -22q0 -31 -31 -31q2 -133 93 -220t221 -87t217 90q113 115 112 358v905h-239v11h446v-11h-194v-905q0 -250 -117 -366q-93 -93 -228 -93z" />
    <glyph glyph-name="K" unicode="K" horiz-adv-x="1316" 
d="M68 0v10h215v1327h-215v11h446v-11h-219v-827l821 827h-252v11h447v-11h-178l-572 -575l549 -752h213v-10h-219l-551 754l-258 -260v-484h219v-10h-446z" />
    <glyph glyph-name="L" unicode="L" horiz-adv-x="1038" 
d="M68 0v10h215v1327h-215v11h452v-11h-225v-1327h663v295h13v-305h-903z" />
    <glyph glyph-name="M" unicode="M" horiz-adv-x="1701" 
d="M47 0v10h223l47 1327h-221v11h234l520 -1137l522 1137h234v-11h-222l48 -1327h223v-10h-436v10h200l-45 1315l-520 -1132h-8l-518 1132l-45 -1315h200v-10h-436z" />
    <glyph glyph-name="N" unicode="N" horiz-adv-x="1505" 
d="M295 10h225v-10h-452v10h215v1327h-215v11h225l940 -1338v1327h-219v11h446v-11h-215v-1349h-10l-940 1337v-1315z" />
    <glyph glyph-name="O" unicode="O" horiz-adv-x="1560" 
d="M780 -16q283 0 472 200t190 490q0 290 -190 490t-472 200q-283 0 -472 -201t-189 -489t189 -490q189 -200 472 -200zM780 -27q-286 0 -480 204t-194 497q0 292 194 496t480 204t481 -204q193 -204 193 -496t-194 -497q-194 -204 -480 -204z" />
    <glyph glyph-name="P" unicode="P" horiz-adv-x="1103" 
d="M575 553q221 0 338 109q117 108 117 284t-116 284t-318 107h-301v-776q110 -8 280 -8zM68 0v10h215v1327h-215v11h528q209 0 328 -111q118 -111 118 -291t-120 -292t-347 -111q-170 0 -280 8v-541h219v-10h-446z" />
    <glyph glyph-name="Q" unicode="Q" horiz-adv-x="1560" 
d="M792 -16q272 0 460 200q189 200 190 490q0 290 -190 490t-472 200q-283 0 -472 -201t-189 -501t217 -504q184 -174 456 -174zM1377 -285q-83 0 -149 31q-66 30 -164 96q-97 66 -168 92t-189 41q-227 33 -379 175q-222 205 -222 511q0 305 194 509t480 204t481 -204
q193 -204 193 -496t-191 -496q-191 -205 -481 -205q146 -27 266 -107t186 -111q155 -71 300 20l6 -8q-80 -52 -163 -52z" />
    <glyph glyph-name="R" unicode="R" horiz-adv-x="1189" 
d="M576 618q194 0 318 98t124 263q0 166 -114 262t-318 96h-291v-714q87 -5 281 -5zM68 0v10h215v1327h-215v11h518q208 0 326 -98t118 -260q0 -161 -98 -257t-268 -119l358 -604h178v-10h-186l-363 612q-37 -4 -153 -4t-203 4v-602h225v-10h-452z" />
    <glyph glyph-name="S" unicode="S" horiz-adv-x="1017" 
d="M507 -27q-175 0 -287 82t-111 178q0 39 21 39t22 -24q0 -29 -31 -29q11 -90 117 -163q106 -72 273 -72t277 90t109 237q0 147 -110 234t-225 130q-114 43 -165 69q-159 79 -209 179q-31 62 -30 140q0 133 106 222t263 89t257 -75t101 -169q0 -39 -23 -38q-20 0 -20 24
q0 29 30 29q-8 87 -105 153t-243 66t-250 -86t-104 -227t123 -229q63 -44 110 -68t129 -56t140 -62q152 -79 207 -187q31 -63 30 -144q1 -145 -113 -239t-289 -93z" />
    <glyph glyph-name="T" unicode="T" horiz-adv-x="1249" 
d="M393 0v10h225v1327h-540v-295h-12v306h1118v-306h-13v295h-540v-1327h225v-10h-463z" />
    <glyph glyph-name="U" unicode="U" horiz-adv-x="1363" 
d="M682 -27q-206 0 -316 127t-110 369v868h-215v11h442v-11h-215v-868q0 -237 106 -361t308 -124q203 0 308 124t106 361v868h-215v11h442v-11h-215v-868q0 -242 -110 -369t-316 -127z" />
    <glyph glyph-name="V" unicode="V" horiz-adv-x="1376" 
d="M2 1337v11h438v-11h-233l481 -1345l481 1345h-233v11h438v-11h-192l-490 -1366h-8l-489 1366h-193z" />
    <glyph glyph-name="W" unicode="W" horiz-adv-x="1953" 
d="M-10 1337v11h463v-11h-246l395 -1343l371 1159h8l371 -1159l395 1343h-246v11h463v-11h-205l-403 -1366h-8l-371 1157l-371 -1157h-8l-403 1366h-205z" />
    <glyph glyph-name="X" unicode="X" horiz-adv-x="1359" 
d="M25 0v10h178l471 682l-445 645h-172v11h392v-11h-205l436 -635l436 635h-205v11h392v-11h-173l-444 -645l471 -682h178v-10h-387v10h195l-463 672l-463 -672h195v-10h-387z" />
    <glyph glyph-name="Y" unicode="Y" horiz-adv-x="1269" 
d="M403 0v10h226v574l-424 753h-205v11h463v-11h-244l416 -743l416 743h-244v11h463v-11h-205l-424 -753v-574h225v-10h-463z" />
    <glyph glyph-name="Z" unicode="Z" horiz-adv-x="1153" 
d="M82 0v6l950 1331h-895v-295h-12v306h924v-7l-951 -1331h963v295h12v-305h-991z" />
    <glyph glyph-name="bracketleft" unicode="[" horiz-adv-x="595" 
d="M217 -410v1909h361v-10h-349v-1888h349v-11h-361z" />
    <glyph glyph-name="backslash" unicode="\" horiz-adv-x="808" 
d="M879 -406l-840 1897l10 6l840 -1896z" />
    <glyph glyph-name="bracketright" unicode="]" horiz-adv-x="595" 
d="M18 -410v11h349v1888h-349v10h361v-1909h-361z" />
    <glyph glyph-name="asciicircum" unicode="^" horiz-adv-x="806" 
d="M166 838l-4 4l241 192l242 -192l-4 -4l-238 178z" />
    <glyph glyph-name="underscore" unicode="_" horiz-adv-x="972" 
d="M-10 -240v13h993v-13h-993z" />
    <glyph glyph-name="grave" unicode="`" horiz-adv-x="1024" 
d="M278 1155q8 0 15 -4l291 -143l-2 -4l-299 131q-13 6 -13 13t8 7z" />
    <glyph glyph-name="a" unicode="a" horiz-adv-x="915" 
d="M352 -2q193 0 340 195v198q-154 63 -293 63t-220 -66q-81 -67 -81 -164q0 -98 64 -162t190 -64zM352 -12q-130 0 -198 66t-68 169q0 102 85 172t226 70t295 -62v156q0 119 -45 178q-70 92 -225 92q-98 -1 -169 -39t-93 -81q22 -6 22 -28t-21 -22t-21 35t81 90
q82 55 201 56q166 0 237 -99q45 -61 46 -180v-551h169v-10h-182v176q-145 -188 -340 -188z" />
    <glyph glyph-name="b" unicode="b" horiz-adv-x="1048" 
d="M545 -2q169 0 285 120t116 297t-111 296t-293 119t-343 -183v-495q72 -66 167 -110t179 -44zM545 -12q-174 0 -346 149l-4 -137h-9v1452h-170v10h183v-800q162 178 346 178t299 -121q114 -121 114 -304t-120 -305t-293 -122z" />
    <glyph glyph-name="c" unicode="c" horiz-adv-x="909" 
d="M509 -12q-177 0 -299 114t-122 302q0 190 121 313t287 123q131 0 221 -72t90 -156q0 -31 -21 -30q-23 0 -22 24q0 27 29 29q-13 76 -97 135t-200 59q-162 -1 -279 -121t-117 -303t119 -295t294 -112t280 92v-12q-107 -90 -284 -90z" />
    <glyph glyph-name="d" unicode="d" horiz-adv-x="1081" 
d="M508 -2q182 0 342 182v496q-72 66 -167 110t-179 43q-168 1 -285 -119t-117 -297t112 -296t294 -119zM504 -12q-184 0 -299 121t-115 304t120 305t294 122t346 -150v762h-170v10h182v-1452h170v-10h-182v166q-162 -178 -346 -178z" />
    <glyph glyph-name="e" unicode="e" horiz-adv-x="925" 
d="M482 829q-158 0 -264 -107q-105 -108 -116 -276h721q-2 162 -92 272q-91 110 -249 111zM836 436h-734v-16q0 -194 112 -308t283 -114t294 90v-12q-125 -88 -297 -88t-288 116t-116 308q0 190 112 309t278 119t261 -116q94 -116 95 -282v-6z" />
    <glyph glyph-name="f" unicode="f" horiz-adv-x="520" 
d="M500 1440q-16 0 -20 16q-3 16 16 29q-23 16 -62 16q-74 0 -125 -51q-68 -68 -67 -233v-390h233v-10h-233v-807h172v-10h-355v10h170v807h-170v10h170v390q0 168 72 239q55 55 133 55q39 0 64 -14t24 -35q1 -22 -22 -22z" />
    <glyph glyph-name="g" unicode="g" horiz-adv-x="1064" 
d="M500 829q-168 1 -283 -119t-115 -297t110 -296t286 -119t338 182v496q-168 153 -336 153zM848 817v-872q0 -156 -55 -230q-92 -125 -301 -125q-129 0 -208 43t-102 95q-6 14 -6 26q0 29 22 29t21 -23q0 -23 -24 -28q23 -51 99 -91t198 -40q203 0 290 120q53 74 54 224
v221q-162 -178 -340 -178t-292 121t-114 304t119 305t287 122t340 -150v137h182v-10h-170z" />
    <glyph glyph-name="h" unicode="h" horiz-adv-x="1044" 
d="M215 1452h-170v10h182v-846q168 223 363 224q154 0 213 -121q31 -61 31 -193v-516h170v-10h-355v10h172v516q0 129 -28 187q-57 117 -203 116q-195 0 -363 -231v-588h172v-10h-354v10h170v1442z" />
    <glyph glyph-name="i" unicode="i" horiz-adv-x="454" 
d="M59 0v10h170v807h-170v10h183v-817h172v-10h-355zM225 1186q-25 0 -25 24t26 25q24 -1 24 -25t-25 -24z" />
    <glyph glyph-name="j" unicode="j" horiz-adv-x="421" 
d="M229 1186q-25 0 -25 24t26 25q24 -1 24 -25t-25 -24zM47 -410q-65 0 -105 33t-40 66t22 32q20 0 20 -21t-26 -28q33 -72 129 -71q61 0 113 44q51 43 65 119t15 211v842h-207v10h219v-852q0 -137 -15 -215t-69 -124t-121 -46z" />
    <glyph glyph-name="k" unicode="k" horiz-adv-x="974" 
d="M45 0v10h170v1442h-170v10h182v-1147l527 502h-224v10h406v-10h-168l-319 -305l350 -502h139v-10h-147l-351 504l-213 -203v-291h172v-10h-354z" />
    <glyph glyph-name="l" unicode="l" horiz-adv-x="448" 
d="M45 0v10h170v1442h-170v10h182v-1452h172v-10h-354z" />
    <glyph glyph-name="m" unicode="m" horiz-adv-x="1632" 
d="M59 0v10h170v807h-170v10h183v-211q168 223 358 224q150 0 205 -123q23 -49 24 -103q170 225 357 226q143 0 205 -121q31 -61 30 -193v-516h170v-10h-354v10h172v516q0 129 -29 187q-57 117 -194 116q-182 0 -355 -231v-588h170v-10h-354v10h172v516q0 131 -24 185
q-53 119 -195 118q-190 0 -358 -231v-588h172v-10h-355z" />
    <glyph glyph-name="n" unicode="n" horiz-adv-x="1058" 
d="M242 827v-213q166 225 362 226q154 0 213 -121q31 -61 31 -193v-516h170v-10h-354v10h172v516q0 129 -29 187q-57 117 -203 116q-195 0 -362 -231v-588h172v-10h-355v10h170v807h-170v10h183z" />
    <glyph glyph-name="o" unicode="o" horiz-adv-x="1003" 
d="M501 -2q171 0 285 121t115 296q0 175 -114 295q-115 120 -285 120t-285 -122q-115 -120 -115 -295t114 -295t285 -120zM501 -12q-175 0 -293 123t-118 302t119 303t294 124t293 -123t118 -302t-120 -303q-118 -124 -293 -124z" />
    <glyph glyph-name="p" unicode="p" horiz-adv-x="1056" 
d="M562 -2q167 0 280 119q112 119 112 298t-106 297t-280 118t-341 -185v-493q168 -154 335 -154zM45 -401v10h170v1208h-170v10h182v-165q162 178 340 178t289 -120t111 -304t-116 -306t-284 -122t-340 149v-528h172v-10h-354z" />
    <glyph glyph-name="q" unicode="q" horiz-adv-x="1036" 
d="M508 -2q182 0 342 182v496q-72 66 -167 110t-179 43q-168 1 -285 -119t-117 -297t112 -296t294 -119zM678 -401v10h172v557q-162 -178 -346 -178t-299 121t-115 304t120 305t294 122t346 -150l4 137h8v-1218h170v-10h-354z" />
    <glyph glyph-name="r" unicode="r" horiz-adv-x="657" 
d="M524 840q84 0 84 -45q0 -27 -21 -27t-22 20q0 20 17 27q-18 14 -58 14q-147 0 -282 -225v-594h172v-10h-355v10h170v807h-170v10h183v-204q126 217 282 217z" />
    <glyph glyph-name="s" unicode="s" horiz-adv-x="784" 
d="M670 682q0 -31 -22 -31t-21 24q0 24 28 25q-6 20 -26 45q-76 84 -236 84q-115 0 -189 -56t-73 -141q0 -85 66 -125t211 -76t215 -83q69 -47 69 -141q0 -95 -83 -157t-203 -62t-197 40q-76 40 -107 95q-16 29 -16 55t22 25q22 0 21 -24q0 -24 -27 -25q16 -56 94 -106
t202 -50q122 0 202 58t80 153t-83 142q-64 38 -206 73q-141 35 -207 78t-66 130t79 147q78 60 196 61q172 0 248 -92q29 -35 29 -66z" />
    <glyph glyph-name="t" unicode="t" horiz-adv-x="555" 
d="M342 -12q-121 0 -149 108q-10 39 -11 117v604h-153v10h153v238l13 2v-240h307v-10h-307v-604q0 -76 10 -115q27 -100 139 -100q74 0 152 47l2 -10q-82 -47 -156 -47z" />
    <glyph glyph-name="u" unicode="u" horiz-adv-x="1048" 
d="M455 -12q-154 0 -213 121q-31 61 -31 192v516h-170v10h182v-526q0 -129 29 -186q57 -117 203 -117q195 0 362 231v588h-172v10h184v-817h170v-10h-182v211q-167 -223 -362 -223z" />
    <glyph glyph-name="v" unicode="v" horiz-adv-x="962" 
d="M-8 817v10h346v-10h-191l334 -827l334 827h-190v10h346v-10h-144l-340 -842h-12l-340 842h-143z" />
    <glyph glyph-name="w" unicode="w" horiz-adv-x="1306" 
d="M-8 817v10h346v-10h-191l226 -827l276 735h8l277 -735l225 827h-190v10h346v-10h-144l-231 -842h-12l-275 730l-274 -730h-12l-232 842h-143z" />
    <glyph glyph-name="x" unicode="x" horiz-adv-x="960" 
d="M31 0v10h135l307 418l-287 389h-141v10h324v-10h-168l280 -381l279 381h-168v10h323v-10h-141l-285 -389l306 -418h135v-10h-324v10h174l-299 410l-301 -410h174v-10h-323z" />
    <glyph glyph-name="y" unicode="y" horiz-adv-x="942" 
d="M94 -342q14 0 20 -15t-8 -30q16 -12 48 -12q92 0 159 92q49 68 117 229l37 90l-330 805h-143v10h346v-10h-190l323 -790l324 790h-191v10h346v-10h-143l-367 -893q-66 -161 -128 -247t-160 -87q-35 0 -58 14q-22 14 -22 34t20 20z" />
    <glyph glyph-name="z" unicode="z" horiz-adv-x="753" 
d="M61 0v10l615 807h-557v-188h-13v198h584v-10l-614 -807h600v189h12v-199h-627z" />
    <glyph glyph-name="braceleft" unicode="{" horiz-adv-x="569" 
d="M129 -169q0 105 135 269q125 144 125 230t-68 147q-69 61 -182 62h-47v8h47q115 0 183 60q68 59 68 145t-126 231q-135 163 -135 269t97 188t255 86v-10q-151 -4 -245 -83t-94 -183t132 -261q127 -143 127 -228t-54 -145t-142 -73q88 -15 142 -75t54 -145t-127 -229
q-133 -158 -133 -261q1 -103 95 -182t245 -83v-10q-158 4 -255 86t-97 187z" />
    <glyph glyph-name="bar" unicode="|" horiz-adv-x="442" 
d="M215 -410v1909h12v-1909h-12z" />
    <glyph glyph-name="braceright" unicode="}" horiz-adv-x="569" 
d="M428 -167q0 103 -133 261q-127 142 -127 228t54 145t143 76q-88 14 -143 73q-54 58 -54 144t127 229q133 158 133 261q0 102 -94 182t-246 84v10q158 -4 255 -86t97 -188t-135 -269q-125 -145 -125 -230t68 -145t182 -61h47v-8h-47q-114 1 -182 -61t-68 -147t125 -231
q135 -164 135 -270t-97 -186q-97 -82 -255 -86v10q152 4 246 83t94 182z" />
    <glyph glyph-name="asciitilde" unicode="~" horiz-adv-x="778" 
d="M528 451q-53 1 -142 63t-134 61q-86 0 -137 -133l-9 4q55 139 148 140q51 0 140 -62t136 -63q86 0 134 121l8 -4q-52 -127 -144 -127z" />
    <glyph glyph-name="uni00A0" unicode="&#xa0;" horiz-adv-x="471" 
 />
    <glyph glyph-name="exclamdown" unicode="&#xa1;" horiz-adv-x="356" 
d="M170 0l2 1047h10l2 -1047h-14zM178 1315q-24 1 -24 25t24 24t25 -24q0 -24 -25 -25z" />
    <glyph glyph-name="cent" unicode="&#xa2;" horiz-adv-x="864" 
d="M487 924q-165 0 -285 -120t-120 -293t95 -279t247 -132l72 824h-9zM807 707q0 -31 -22 -31t-21 24q0 25 29 27q-13 76 -93 134t-194 63l-72 -826q49 -4 74 -4q143 0 278 78v-12q-135 -76 -278 -76q-29 0 -74 4l-26 -299h-11l27 301q-158 24 -256 134t-98 287t123 300
t294 123h11l20 233h10l-20 -233q127 -6 213 -76t86 -151z" />
    <glyph glyph-name="sterling" unicode="&#xa3;" horiz-adv-x="856" 
d="M647 305h-362q12 -57 12 -129q0 -197 -154 -319q35 10 95 10t180 -39q119 -39 188 -39q143 0 219 115l9 -6q-80 -119 -228 -119q-76 0 -194 39t-180 39t-99 -13q-47 -53 -67 -53t-19 12q0 25 74 47q164 127 164 326q0 70 -13 129h-192v10h190q-8 45 -24 99
q-58 184 -58 308t90 212t217 88t201 -60t74 -135q0 -41 -21 -41t-22 25q0 10 9 19t22 10q-10 68 -81 120t-187 52t-202 -85q-87 -85 -87 -209t55 -298q20 -72 27 -105h364v-10z" />
    <glyph glyph-name="yen" unicode="&#xa5;" horiz-adv-x="901" 
d="M137 481v11h309l-313 509h-147v11h336v-11h-175l310 -503l309 503h-174v11h336v-11h-148l-313 -509h309v-11h-313v-200h313v-11h-313v-260h190v-10h-405v10h203v260h-314v11h314v200h-314z" />
    <glyph glyph-name="section" unicode="&#xa7;" horiz-adv-x="819" 
d="M688 493q0 67 -61 105t-191 70l-39 10q-109 -8 -183 -51t-75 -110t61 -105t191 -70l39 -10q106 8 182 51t76 110zM170 864q0 68 74 114t184 46t180 -41t70 -92q0 -27 -22 -27t-21 24q0 24 27 25q-18 43 -80 72t-161 29t-169 -42t-70 -113t58 -107t195 -73
q136 -36 201 -76q64 -41 64 -109t-72 -112t-175 -56q106 -33 155 -72q49 -40 49 -108q1 -68 -73 -114t-185 -46t-181 41t-68 92q0 27 22 26q20 0 21 -22q0 -25 -27 -27q14 -40 78 -70t162 -30q100 0 170 42t69 113q0 71 -58 107q-59 36 -195 73q-136 36 -201 76
q-65 41 -65 109t74 113q73 45 175 55q-106 31 -156 71q-49 41 -49 109z" />
    <glyph glyph-name="dieresis" unicode="&#xa8;" horiz-adv-x="1024" 
d="M410 1042q-25 0 -25 25t25 25t25 -25t-25 -25zM614 1042q-25 0 -24 25q0 25 24 25t25 -25q0 -25 -25 -25z" />
    <glyph glyph-name="copyright" unicode="&#xa9;" horiz-adv-x="1142" 
d="M588 784q-102 0 -176 -74t-74 -186q0 -110 70 -187t174 -77t188 74l8 -8q-86 -76 -196 -76t-184 80q-72 80 -72 194t77 193q79 78 171 78t150 -41t58 -81t-19 -40q-19 1 -19 23t24 26q-12 42 -63 72t-117 30zM571 -16q221 0 368 153q146 154 146 376t-146 376
q-145 153 -367 153t-368 -154t-146 -375t146 -375t367 -154zM571 -27q-227 0 -377 156t-149 383q0 227 150 384q151 157 377 157t376 -157t150 -384t-150 -383t-377 -156z" />
    <glyph glyph-name="ordfeminine" unicode="&#xaa;" horiz-adv-x="577" 
d="M219 852q115 0 203 119v114q-94 39 -175 39t-129 -40t-48 -97t38 -96t111 -39zM59 690v10h480v-10h-480zM219 842q-80 0 -121 41t-41 105q-1 64 51 105q52 42 134 42t180 -37v98q0 68 -25 104q-37 56 -141 56t-143 -62q16 -6 16 -26t-19 -19q-20 0 -20 27q0 26 48 58
t138 32t132 -59q27 -37 26 -111v-336h105v-10h-117v104q-86 -112 -203 -112z" />
    <glyph glyph-name="guillemotleft" unicode="&#xab;" horiz-adv-x="774" 
d="M389 223l-342 318l342 317l8 -8l-334 -309l334 -310zM676 223l-342 318l342 317l8 -8l-334 -309l334 -310z" />
    <glyph glyph-name="registered" unicode="&#xae;" horiz-adv-x="724" 
d="M297 1044h57q53 0 88 27t35 70q0 96 -119 96h-61v-193zM362 1409q-147 0 -243 -103q-96 -104 -96 -252t96 -252t243 -104q148 0 244 104t96 252q0 149 -96 252q-97 103 -244 103zM362 688q-154 0 -252 106t-100 259q0 154 100 260t252 106q154 0 253 -106t99 -260
q0 -153 -98 -259q-100 -106 -254 -106zM215 874v11h70v352h-70v10h143q131 0 131 -106q1 -39 -27 -67t-69 -36l86 -153h64v-11h-72l-90 162q-16 -2 -31 -2h-53v-149h68v-11h-150z" />
    <glyph glyph-name="macron" unicode="&#xaf;" horiz-adv-x="1024" 
d="M256 1063v12h512v-12h-512z" />
    <glyph glyph-name="degree" unicode="&#xb0;" horiz-adv-x="503" 
d="M252 901q88 -1 148 63t61 154q-1 90 -61 154t-148 63q-88 0 -148 -63q-60 -64 -61 -154q1 -90 61 -154t148 -63zM252 891q-92 1 -157 67t-64 160q0 94 64 161q65 67 157 67t157 -67t65 -161t-65 -161q-65 -66 -157 -66z" />
    <glyph glyph-name="plusminus" unicode="&#xb1;" horiz-adv-x="745" 
d="M90 188v11h565v-11h-565zM367 332v284h-277v11h277v284h12v-284h276v-11h-276v-284h-12z" />
    <glyph glyph-name="two.sup" unicode="&#xb2;" 
d="M598 1453q0 73 -59 124t-153 51t-158 -43t-74 -96q26 -7 26 -29t-22 -22t-21 30q0 58 69 114t173 56q103 0 167 -54t64 -131t-54 -134t-173 -129q-203 -123 -252 -297h473v156h12v-166h-491l-6 8q45 180 256 307q115 70 169 126t54 129z" />
    <glyph glyph-name="three.sup" unicode="&#xb3;" 
d="M380 870q-104 0 -183 44q-78 44 -78 106q0 23 20 22q23 0 23 -20t-25 -27q14 -49 84 -82t162 -33t162 56q69 55 69 140t-75 135q-76 50 -205 53h-37v10h37q110 0 184 54t74 129t-60 122t-150 47t-150 -34t-74 -79q24 -6 24 -26t-22 -21q-20 0 -21 23q0 55 70 101t168 46
t163 -49q64 -49 64 -124t-60 -129t-149 -64q113 -12 172 -64t59 -135q0 -85 -70 -143q-72 -58 -176 -58z" />
    <glyph glyph-name="acute" unicode="&#xb4;" horiz-adv-x="1024" 
d="M746 1155q7 0 8 -8q0 -6 -13 -12l-299 -131l-2 4l291 143q8 4 15 4z" />
    <glyph glyph-name="paragraph" unicode="&#xb6;" horiz-adv-x="968" 
d="M602 10h119v991h-119v-991zM408 0v10h182v373q-49 -4 -144 -4q-160 0 -261 87t-101 228q0 142 105 230t264 88h454v-11h-174v-991h174v-10h-499z" />
    <glyph glyph-name="periodcentered" unicode="&#xb7;" horiz-adv-x="397" 
d="M199 451q-25 1 -25 25t25 24t24 -25q1 -24 -24 -24z" />
    <glyph glyph-name="cedilla" unicode="&#xb8;" horiz-adv-x="1024" 
d="M678 -277q0 -61 -43 -97t-131 -36t-176 39l2 11q88 -39 176 -39q160 0 160 123q0 111 -183 120h-10l-4 4l27 146l10 -2l-23 -137q87 -4 141 -38t54 -94z" />
    <glyph glyph-name="one.sup" unicode="&#xb9;" 
d="M156 883v10h219v723l-219 -60l-2 11l225 61h8v-735h215v-10h-446z" />
    <glyph glyph-name="ordmasculine" unicode="&#xba;" horiz-adv-x="618" 
d="M307 854q102 0 171 72t69 177t-68 177t-170 72t-171 -73q-68 -73 -68 -177t68 -176t169 -72zM307 844q-106 0 -178 75t-72 183t73 184q74 76 180 76t178 -75t71 -185q0 -110 -73 -184t-179 -74zM86 690v10h446v-10h-446z" />
    <glyph glyph-name="guillemotright" unicode="&#xbb;" horiz-adv-x="774" 
d="M98 223l-8 8l334 310l-334 309l8 8l342 -317zM385 223l-8 8l334 310l-334 309l8 8l342 -317z" />
    <glyph glyph-name="onequarter" unicode="&#xbc;" horiz-adv-x="1628" 
d="M1194 -2v10h149v219h-397l-4 4l418 512l10 -6l-409 -499h382v251l13 5v-256h149v-11h-149v-219h129v-10h-291zM442 -18l-10 4l404 659l409 676l10 -4l-413 -682zM156 575v11h219v723l-219 -60l-2 11l225 61h8v-735h215v-11h-446z" />
    <glyph glyph-name="onehalf" unicode="&#xbd;" horiz-adv-x="1628" 
d="M403 -18l-10 4l404 659l409 676l11 -4zM1270 743q-94 0 -158 -43t-74 -96q27 -6 27 -28t-22 -23q-22 0 -21 31q0 59 69 114q69 56 173 56t168 -54t63 -132q0 -77 -54 -134t-173 -129q-203 -123 -252 -297h473v156h12v-166h-491l-6 8q45 180 256 307q114 70 168 126
t54 129t-58 124q-60 51 -154 51zM117 575v11h219v723l-219 -60l-2 11l225 61h8v-735h215v-11h-446z" />
    <glyph glyph-name="threequarters" unicode="&#xbe;" horiz-adv-x="1628" 
d="M1206 -2v10h150v219h-398l-4 4l418 512l10 -6l-409 -499h383v251l12 5v-256h150v-11h-150v-219h129v-10h-291zM475 -18l-10 4l813 1335l10 -4zM657 764q1 -84 -71 -142t-176 -59q-104 0 -183 44q-78 44 -77 106q0 23 20 22q23 0 23 -20t-25 -27q14 -49 84 -82t162 -33
q92 -1 161 55q70 56 70 141t-76 135t-204 52h-37v11h37q109 0 183 54t75 129q-1 75 -61 122t-149 47t-149 -34t-76 -79q25 -6 25 -26t-23 -21q-20 0 -20 23q0 55 70 101t168 46t162 -49t65 -124q-1 -75 -61 -129t-148 -64q113 -11 172 -63t59 -136z" />
    <glyph glyph-name="questiondown" unicode="&#xbf;" horiz-adv-x="782" 
d="M451 1341q0 -25 -25 -25t-25 26q0 24 25 24t25 -25zM725 303q20 0 20 -46t-38 -107q-98 -156 -310 -156q-154 0 -255 97t-101 239t102 245q102 102 275 138l2 336h10l2 -344q-174 -35 -276 -135t-102 -238q0 -140 96 -234q98 -94 247 -94q205 0 301 154q29 43 33 94
q-27 6 -27 28t21 23z" />
    <glyph glyph-name="Agrave" unicode="&#xc0;" horiz-adv-x="1376" 
d="M449 1619q0 7 7 7t15 -4l291 -143l-2 -4l-299 131q-12 6 -12 13zM397 545h582l-291 792zM2 0v10h186l488 1327h-221v11h471v-11h-226l488 -1327h186v-10h-438v10h240l-193 525h-590l-192 -525h239v-10h-438z" />
    <glyph glyph-name="Aacute" unicode="&#xc1;" horiz-adv-x="1376" 
d="M924 1626q8 0 8 -7t-12 -13l-299 -131l-3 4l291 143q7 4 15 4zM397 545h582l-291 792zM2 0v10h186l488 1327h-221v11h471v-11h-226l488 -1327h186v-10h-438v10h240l-193 525h-590l-192 -525h239v-10h-438z" />
    <glyph glyph-name="Acircumflex" unicode="&#xc2;" horiz-adv-x="1376" 
d="M453 1460l-4 4l241 193l242 -193l-4 -4l-238 178zM397 545h582l-291 792zM2 0v10h186l488 1327h-221v11h471v-11h-226l488 -1327h186v-10h-438v10h240l-193 525h-590l-192 -525h239v-10h-438z" />
    <glyph glyph-name="Atilde" unicode="&#xc3;" horiz-adv-x="1376" 
d="M831 1501q-53 0 -142 63t-134 62q-86 0 -137 -133l-8 4q55 139 147 139q51 0 141 -62t136 -63q86 0 133 121l8 -4q-52 -127 -144 -127zM397 545h582l-291 792zM2 0v10h186l488 1327h-221v11h471v-11h-226l488 -1327h186v-10h-438v10h240l-193 525h-590l-192 -525h239v-10
h-438z" />
    <glyph glyph-name="Adieresis" unicode="&#xc4;" horiz-adv-x="1376" 
d="M588 1513q-25 0 -25 25t25 25t25 -25t-25 -25zM793 1513q-25 0 -25 25t25 25t25 -25t-25 -25zM397 545h582l-291 792zM2 0v10h186l488 1327h-221v11h471v-11h-226l488 -1327h186v-10h-438v10h240l-193 525h-590l-192 -525h239v-10h-438z" />
    <glyph glyph-name="Aring" unicode="&#xc5;" horiz-adv-x="1376" 
d="M688 1348q53 0 88 36t35 88q0 54 -35 91t-88 37t-88 -38q-35 -36 -35 -89t35 -89t88 -36zM397 545h582l-291 792zM823 1473q0 -96 -84 -125h187v-11h-226l488 -1327h198v-10h-462v10h252l-193 525h-590l-192 -525h252v-10h-463v10h198l488 1327h-221v11h180
q-82 33 -82 125q0 57 38 97t97 40t97 -40t38 -97z" />
    <glyph glyph-name="AE" unicode="&#xc6;" horiz-adv-x="1699" 
d="M844 547v790h-8l-428 -790h436zM-74 0v10h178l719 1327h-205v11h949v-306h-13v295h-698v-643h524v-10h-524v-674h698v295h13v-305h-949v10h226v527h-443l-284 -527h194v-10h-385z" />
    <glyph glyph-name="Ccedilla" unicode="&#xc7;" horiz-adv-x="1402" 
d="M752 -422q-88 0 -177 39l3 10q88 -39 176 -39q160 0 159 123q0 111 -182 121h-10l-4 4l26 137q-279 16 -457 212t-180 487q0 290 195 496t481 206q209 0 353 -109q143 -110 143 -235q0 -39 -25 -39q-20 0 -20 25t31 24q-2 113 -140 218t-342 106q-283 0 -473 -202
t-190 -494t188 -489q188 -196 475 -195q146 0 274 59t218 164l8 -8q-199 -225 -528 -226l-23 -131q88 -4 141 -38q54 -34 54 -94t-43 -96t-131 -36z" />
    <glyph glyph-name="Egrave" unicode="&#xc8;" horiz-adv-x="1138" 
d="M346 1619q0 7 7 7t16 -4l290 -143l-2 -4l-299 131q-12 6 -12 13zM68 0v10h215v1327h-215v11h938v-306h-13v295h-698v-643h524v-10h-524v-674h698v295h13v-305h-938z" />
    <glyph glyph-name="Eacute" unicode="&#xc9;" horiz-adv-x="1138" 
d="M822 1626q7 0 7 -7t-12 -13l-299 -131l-2 4l291 143q8 4 15 4zM68 0v10h215v1327h-215v11h938v-306h-13v295h-698v-643h524v-10h-524v-674h698v295h13v-305h-938z" />
    <glyph glyph-name="Ecircumflex" unicode="&#xca;" horiz-adv-x="1138" 
d="M350 1460l-4 4l242 193l241 -193l-4 -4l-237 178zM68 0v10h215v1327h-215v11h938v-306h-13v295h-698v-643h524v-10h-524v-674h698v295h13v-305h-938z" />
    <glyph glyph-name="Edieresis" unicode="&#xcb;" horiz-adv-x="1138" 
d="M485 1513q-25 0 -24 25t25 25t24 -25t-25 -25zM690 1513q-25 0 -24 25q0 25 24 25t25 -25q0 -25 -25 -25zM68 0v10h215v1327h-215v11h938v-306h-13v295h-698v-643h524v-10h-524v-674h698v295h13v-305h-938z" />
    <glyph glyph-name="Igrave" unicode="&#xcc;" horiz-adv-x="598" 
d="M64 1626q8 0 16 -4l291 -143l-2 -4l-299 131q-12 6 -12 13q-2 7 6 7zM68 0v10h225v1327h-225v11h462v-11h-225v-1327h225v-10h-462z" />
    <glyph glyph-name="Iacute" unicode="&#xcd;" horiz-adv-x="598" 
d="M533 1626q7 0 8 -8q0 -6 -13 -12l-299 -131l-2 4l291 143q8 4 15 4zM68 0v10h225v1327h-225v11h462v-11h-225v-1327h225v-10h-462z" />
    <glyph glyph-name="Icircumflex" unicode="&#xce;" horiz-adv-x="598" 
d="M61 1460l-4 4l242 193l242 -193l-4 -4l-238 178zM68 0v10h225v1327h-225v11h462v-11h-225v-1327h225v-10h-462z" />
    <glyph glyph-name="Idieresis" unicode="&#xcf;" horiz-adv-x="598" 
d="M197 1513q-25 0 -25 25t25 25t25 -25t-25 -25zM401 1513q-25 0 -24 25t25 25t24 -25t-25 -25zM68 0v10h225v1327h-225v11h462v-11h-225v-1327h225v-10h-462z" />
    <glyph glyph-name="Eth" unicode="&#xd0;" horiz-adv-x="1433" 
d="M295 10h283q344 0 534 184t190 483q0 300 -190 480t-541 180h-276v-641h354v-10h-354v-676zM283 686h-174v10h174v641h-215v11h503q354 0 549 -184t195 -488t-194 -490t-543 -186h-510v10h215v676z" />
    <glyph glyph-name="Ntilde" unicode="&#xd1;" horiz-adv-x="1505" 
d="M897 1501q-53 0 -142 63t-134 62q-86 0 -138 -133l-8 4q55 139 148 139q51 0 140 -62t136 -63q86 0 133 121l8 -4q-51 -127 -143 -127zM295 10h225v-10h-452v10h215v1327h-215v11h225l940 -1338v1327h-219v11h446v-11h-215v-1349h-10l-940 1337v-1315z" />
    <glyph glyph-name="Ograve" unicode="&#xd2;" horiz-adv-x="1560" 
d="M539 1619q0 7 7 7t15 -4l291 -143l-2 -4l-299 131q-12 6 -12 13zM780 -16q283 0 472 200t190 490q0 290 -190 490t-472 200q-283 0 -472 -201t-189 -489t189 -490q189 -200 472 -200zM780 -27q-286 0 -480 204t-194 497q0 292 194 496t480 204t481 -204
q193 -204 193 -496t-194 -497q-194 -204 -480 -204z" />
    <glyph glyph-name="Oacute" unicode="&#xd3;" horiz-adv-x="1560" 
d="M1014 1626q8 0 8 -7t-12 -13l-299 -131l-2 4l290 143q7 4 15 4zM780 -16q283 0 472 200t190 490q0 290 -190 490t-472 200q-283 0 -472 -201t-189 -489t189 -490q189 -200 472 -200zM780 -27q-286 0 -480 204t-194 497q0 292 194 496t480 204t481 -204q193 -204 193 -496
t-194 -497q-194 -204 -480 -204z" />
    <glyph glyph-name="Ocircumflex" unicode="&#xd4;" horiz-adv-x="1560" 
d="M543 1460l-4 4l241 193l242 -193l-4 -4l-238 178zM780 -16q283 0 472 200t190 490q0 290 -190 490t-472 200q-283 0 -472 -201t-189 -489t189 -490q189 -200 472 -200zM780 -27q-286 0 -480 204t-194 497q0 292 194 496t480 204t481 -204q193 -204 193 -496t-194 -497
q-194 -204 -480 -204z" />
    <glyph glyph-name="Otilde" unicode="&#xd5;" horiz-adv-x="1560" 
d="M922 1501q-52 0 -142 63t-135 62q-86 0 -137 -133l-8 4q55 139 147 139q51 0 141 -62t136 -63q86 0 133 121l8 -4q-51 -127 -143 -127zM780 -16q283 0 472 200t190 490q0 290 -190 490t-472 200q-283 0 -472 -201t-189 -489t189 -490q189 -200 472 -200zM780 -27
q-286 0 -480 204t-194 497q0 292 194 496t480 204t481 -204q193 -204 193 -496t-194 -497q-194 -204 -480 -204z" />
    <glyph glyph-name="Odieresis" unicode="&#xd6;" horiz-adv-x="1560" 
d="M678 1513q-25 0 -25 25t25 25t25 -25t-25 -25zM883 1513q-25 0 -25 25t25 25t25 -25t-25 -25zM780 -16q283 0 472 200t190 490q0 290 -190 490t-472 200q-283 0 -472 -201t-189 -489t189 -490q189 -200 472 -200zM780 -27q-286 0 -480 204t-194 497q0 292 194 496
t480 204t481 -204q193 -204 193 -496t-194 -497q-194 -204 -480 -204z" />
    <glyph glyph-name="multiply" unicode="&#xd7;" horiz-adv-x="745" 
d="M639 264l-264 264l-264 -264l-9 8l265 265l-265 264l9 8l264 -264l264 264l8 -8l-264 -264l264 -265z" />
    <glyph glyph-name="Oslash" unicode="&#xd8;" horiz-adv-x="1560" 
d="M780 1364q-283 0 -472 -200t-189 -496q0 -295 205 -500l886 1034q-182 162 -430 162zM792 -16q272 0 460 200q190 200 190 503q0 302 -223 509l-889 -1034q190 -178 462 -178zM1454 689q0 -308 -194 -512t-472 -204t-464 181l-172 -201l-9 6l172 201q-209 209 -209 508
q0 298 194 502t480 204q252 0 439 -164l161 189l9 -6l-162 -189q227 -207 227 -515z" />
    <glyph glyph-name="Ugrave" unicode="&#xd9;" horiz-adv-x="1363" 
d="M448 1626q8 0 15 -4l291 -143l-2 -4l-299 131q-13 6 -13 13t8 7zM682 -27q-206 0 -316 127t-110 369v868h-215v11h442v-11h-215v-868q0 -237 106 -361t308 -124q203 0 308 124t106 361v868h-215v11h442v-11h-215v-868q0 -242 -110 -369t-316 -127z" />
    <glyph glyph-name="Uacute" unicode="&#xda;" horiz-adv-x="1363" 
d="M916 1626q7 0 8 -8q0 -6 -13 -12l-299 -131l-2 4l291 143q8 4 15 4zM682 -27q-206 0 -316 127t-110 369v868h-215v11h442v-11h-215v-868q0 -237 106 -361t308 -124q203 0 308 124t106 361v868h-215v11h442v-11h-215v-868q0 -242 -110 -369t-316 -127z" />
    <glyph glyph-name="Ucircumflex" unicode="&#xdb;" horiz-adv-x="1363" 
d="M444 1460l-4 4l242 193l242 -193l-4 -4l-238 178zM682 -27q-206 0 -316 127t-110 369v868h-215v11h442v-11h-215v-868q0 -237 106 -361t308 -124q203 0 308 124t106 361v868h-215v11h442v-11h-215v-868q0 -242 -110 -369t-316 -127z" />
    <glyph glyph-name="Udieresis" unicode="&#xdc;" horiz-adv-x="1363" 
d="M580 1513q-25 0 -25 25t25 25t25 -25t-25 -25zM784 1513q-25 0 -24 25q0 25 24 25t25 -25q0 -25 -25 -25zM682 -27q-206 0 -316 127t-110 369v868h-215v11h442v-11h-215v-868q0 -237 106 -361t308 -124q203 0 308 124t106 361v868h-215v11h442v-11h-215v-868
q0 -242 -110 -369t-316 -127z" />
    <glyph glyph-name="Yacute" unicode="&#xdd;" horiz-adv-x="1269" 
d="M869 1626q7 0 8 -8q0 -6 -13 -12l-299 -131l-2 4l291 143q8 4 15 4zM403 0v10h226v574l-424 753h-205v11h463v-11h-244l416 -743l416 743h-244v11h463v-11h-205l-424 -753v-574h225v-10h-463z" />
    <glyph glyph-name="Thorn" unicode="&#xde;" horiz-adv-x="1138" 
d="M586 315q219 1 337 103t117 268q0 166 -117 268q-118 102 -337 103q-154 0 -281 -8v-725q127 -9 281 -9zM68 0v10h225v1327h-225v11h462v-11h-225v-278q127 8 281 8q225 0 346 -105q121 -106 121 -276t-121 -275t-346 -106q-154 0 -281 8v-303h225v-10h-462z" />
    <glyph glyph-name="germandbls" unicode="&#xdf;" horiz-adv-x="1024" 
d="M924 211q0 -99 -73 -161t-185 -62t-166 30q-56 30 -56 60q0 29 21 28q20 0 20 -20t-14 -31q49 -57 176 -57t196 58t69 157q-1 126 -139 219q-138 94 -193 134q-37 28 -77 82t-40 104t19 79q42 64 57 76q14 11 32 29t43 42t53 54q28 31 55 90q28 59 28 123q0 117 -69 186
t-185 68q-160 0 -224 -139q-31 -66 -30 -223v-1137h-183v10h170v807h-170v10h170v310q0 156 33 229q66 143 234 143q122 -1 194 -71t72 -193q0 -63 -28 -123t-58 -95q-30 -36 -102 -104q-73 -68 -86 -106q-13 -37 -13 -75t39 -90t76 -81q38 -29 106 -73t106 -72
q38 -29 80 -89t42 -126z" />
    <glyph glyph-name="agrave" unicode="&#xe0;" horiz-adv-x="915" 
d="M189 1155q7 0 16 -4l291 -143l-2 -4l-299 131q-13 6 -13 13t7 7zM352 -2q193 0 340 195v198q-154 63 -293 63t-220 -66q-81 -67 -81 -164q0 -98 64 -162t190 -64zM352 -12q-130 0 -198 66t-68 169q0 102 85 172t226 70t295 -62v156q0 119 -45 178q-70 92 -225 92
q-98 -1 -169 -39t-93 -81q22 -6 22 -28t-21 -22t-21 35t81 90q82 55 201 56q166 0 237 -99q45 -61 46 -180v-551h169v-10h-182v176q-145 -188 -340 -188z" />
    <glyph glyph-name="aacute" unicode="&#xe1;" horiz-adv-x="915" 
d="M658 1155q7 0 8 -8q0 -6 -13 -12l-299 -131l-2 4l291 143q8 4 15 4zM352 -2q193 0 340 195v198q-154 63 -293 63t-220 -66q-81 -67 -81 -164q0 -98 64 -162t190 -64zM352 -12q-130 0 -198 66t-68 169q0 102 85 172t226 70t295 -62v156q0 119 -45 178q-70 92 -225 92
q-98 -1 -169 -39t-93 -81q22 -6 22 -28t-21 -22t-21 35t81 90q82 55 201 56q166 0 237 -99q45 -61 46 -180v-551h169v-10h-182v176q-145 -188 -340 -188z" />
    <glyph glyph-name="acircumflex" unicode="&#xe2;" horiz-adv-x="915" 
d="M186 989l-4 4l242 193l242 -193l-4 -4l-238 178zM352 -2q193 0 340 195v198q-154 63 -293 63t-220 -66q-81 -67 -81 -164q0 -98 64 -162t190 -64zM352 -12q-130 0 -198 66t-68 169q0 102 85 172t226 70t295 -62v156q0 119 -45 178q-70 92 -225 92q-98 -1 -169 -39
t-93 -81q22 -6 22 -28t-21 -22t-21 35t81 90q82 55 201 56q166 0 237 -99q45 -61 46 -180v-551h169v-10h-182v176q-145 -188 -340 -188z" />
    <glyph glyph-name="atilde" unicode="&#xe3;" horiz-adv-x="915" 
d="M565 1030q-53 0 -142 63t-134 62q-86 0 -137 -133l-9 4q55 139 148 139q51 0 140 -62t136 -63q86 0 133 121l9 -4q-52 -127 -144 -127zM352 -2q193 0 340 195v198q-154 63 -293 63t-220 -66q-81 -67 -81 -164q0 -98 64 -162t190 -64zM352 -12q-130 0 -198 66t-68 169
q0 102 85 172t226 70t295 -62v156q0 119 -45 178q-70 92 -225 92q-98 -1 -169 -39t-93 -81q22 -6 22 -28t-21 -22t-21 35t81 90q82 55 201 56q166 0 237 -99q45 -61 46 -180v-551h169v-10h-182v176q-145 -188 -340 -188z" />
    <glyph glyph-name="adieresis" unicode="&#xe4;" horiz-adv-x="915" 
d="M322 1042q-25 0 -25 25t25 25t25 -25t-25 -25zM526 1042q-25 0 -24 25q0 25 24 25t25 -25q0 -25 -25 -25zM352 -2q193 0 340 195v198q-154 63 -293 63t-220 -66q-81 -67 -81 -164q0 -98 64 -162t190 -64zM352 -12q-130 0 -198 66t-68 169q0 102 85 172t226 70t295 -62
v156q0 119 -45 178q-70 92 -225 92q-98 -1 -169 -39t-93 -81q22 -6 22 -28t-21 -22t-21 35t81 90q82 55 201 56q166 0 237 -99q45 -61 46 -180v-551h169v-10h-182v176q-145 -188 -340 -188z" />
    <glyph glyph-name="aring" unicode="&#xe5;" horiz-adv-x="915" 
d="M424 1026q53 0 88 36t35 89t-35 90t-88 37t-88 -37t-35 -90t35 -89t88 -36zM424 1016q-59 0 -97 39t-38 96t38 97t97 40t97 -40t38 -97t-38 -96t-97 -39zM352 -2q193 0 340 195v198q-154 63 -293 63t-220 -66q-81 -67 -81 -164q0 -98 64 -162t190 -64zM352 -12
q-130 0 -198 66t-68 169q0 102 85 172t226 70t295 -62v156q0 119 -45 178q-70 92 -225 92q-98 -1 -169 -39t-93 -81q22 -6 22 -28t-21 -22t-21 35t81 90q82 55 201 56q166 0 237 -99q45 -61 46 -180v-551h169v-10h-182v176q-145 -188 -340 -188z" />
    <glyph glyph-name="ae" unicode="&#xe6;" horiz-adv-x="1513" 
d="M1076 829q-158 0 -260 -107q-101 -108 -111 -276h706q-2 162 -89 272q-88 110 -246 111zM98 224q0 -98 64 -162t184 -64q119 0 219 62t164 157q-33 82 -37 174q-154 63 -293 63t-220 -66q-81 -67 -81 -164zM161 659q-21 0 -21 35t81 90q82 55 201 56q166 0 237 -99
q45 -61 46 -180v-37q29 140 128 228t232 88q176 0 267 -115t91 -283v-6h-718v-16q-1 -198 107 -310t275 -112t291 92v-12q-127 -90 -282 -90q-260 0 -363 217q-66 -93 -166 -155t-223 -62q-122 0 -190 66t-68 169q0 102 85 172t226 70t295 -62v156q0 119 -45 178
q-70 92 -225 92q-98 -1 -168 -39t-94 -81q22 -6 22 -28t-21 -22z" />
    <glyph glyph-name="ccedilla" unicode="&#xe7;" horiz-adv-x="909" 
d="M651 -277q0 -61 -43 -97t-131 -36t-176 39l2 11q88 -39 176 -39q160 0 160 123q0 111 -182 120h-11l-4 4l29 142q-167 14 -275 126t-108 295t121 306t287 123q131 0 221 -72t90 -156q0 -31 -21 -30q-23 0 -22 24q0 27 29 29q-13 76 -97 135t-200 59q-162 -1 -279 -121
t-117 -303t119 -295t294 -112t280 92v-12q-106 -90 -277 -90h-33l-26 -133q88 -4 141 -38t53 -94z" />
    <glyph glyph-name="egrave" unicode="&#xe8;" horiz-adv-x="925" 
d="M221 1148q0 7 7 7t16 -4l291 -143l-3 -4l-299 131q-12 6 -12 13zM482 829q-158 0 -264 -107q-105 -108 -116 -276h721q-2 162 -92 272q-91 110 -249 111zM836 436h-734v-16q0 -194 112 -308t283 -114t294 90v-12q-125 -88 -297 -88t-288 116t-116 308q0 190 112 309
t278 119t261 -116q94 -116 95 -282v-6z" />
    <glyph glyph-name="eacute" unicode="&#xe9;" horiz-adv-x="925" 
d="M697 1155q7 0 8 -8q0 -6 -13 -12l-299 -131l-2 4l291 143q8 4 15 4zM482 829q-158 0 -264 -107q-105 -108 -116 -276h721q-2 162 -92 272q-91 110 -249 111zM836 436h-734v-16q0 -194 112 -308t283 -114t294 90v-12q-125 -88 -297 -88t-288 116t-116 308q0 190 112 309
t278 119t261 -116q94 -116 95 -282v-6z" />
    <glyph glyph-name="ecircumflex" unicode="&#xea;" horiz-adv-x="925" 
d="M225 989l-4 4l242 193l242 -193l-5 -4l-237 178zM482 829q-158 0 -264 -107q-105 -108 -116 -276h721q-2 162 -92 272q-91 110 -249 111zM836 436h-734v-16q0 -194 112 -308t283 -114t294 90v-12q-125 -88 -297 -88t-288 116t-116 308q0 190 112 309t278 119t261 -116
q94 -116 95 -282v-6z" />
    <glyph glyph-name="edieresis" unicode="&#xeb;" horiz-adv-x="925" 
d="M360 1042q-25 0 -24 25q0 25 24 25t25 -25q0 -25 -25 -25zM565 1042q-25 0 -24 25t25 25t24 -25t-25 -25zM482 829q-158 0 -264 -107q-105 -108 -116 -276h721q-2 162 -92 272q-91 110 -249 111zM836 436h-734v-16q0 -194 112 -308t283 -114t294 90v-12
q-125 -88 -297 -88t-288 116t-116 308q0 190 112 309t278 119t261 -116q94 -116 95 -282v-6z" />
    <glyph glyph-name="igrave" unicode="&#xec;" horiz-adv-x="509" 
d="M-26 1155q7 0 16 -4l291 -143l-2 -4l-299 131q-12 6 -12 13t6 7zM59 0v10h170v807h-170v10h183v-817h172v-10h-355z" />
    <glyph glyph-name="iacute" unicode="&#xed;" horiz-adv-x="509" 
d="M443 1155q7 0 8 -8q0 -6 -13 -12l-299 -131l-2 4l291 143q8 4 15 4zM59 0v10h170v807h-170v10h183v-817h172v-10h-355z" />
    <glyph glyph-name="icircumflex" unicode="&#xee;" horiz-adv-x="509" 
d="M-29 989l-4 4l242 193l242 -193l-5 -4l-237 178zM59 0v10h170v807h-170v10h183v-817h172v-10h-355z" />
    <glyph glyph-name="idieresis" unicode="&#xef;" horiz-adv-x="509" 
d="M106 1042q-25 0 -24 25q0 25 24 25t25 -25q0 -25 -25 -25zM311 1042q-25 0 -24 25t25 25t24 -25t-25 -25zM59 0v10h170v807h-170v10h183v-817h172v-10h-355z" />
    <glyph glyph-name="eth" unicode="&#xf0;" horiz-adv-x="1017" 
d="M907 426q1 152 -113 274t-289 121q-175 0 -289 -120q-114 -121 -114 -293t113 -291t287 -119q211 0 325 162q80 114 80 266zM938 532q0 -240 -98 -376q-119 -168 -338 -168q-178 0 -295 122t-117 299t117 300t299 123t298 -126q116 -124 116 -294v-11q6 55 6 131
q0 420 -287 736l-301 -275l-6 8l301 273q-95 98 -201 160t-196 69q-6 -31 -29 -30q-17 1 -17 21t28 20t69 -9q178 -41 354 -225l203 186l6 -8l-203 -184q291 -317 291 -742z" />
    <glyph glyph-name="ntilde" unicode="&#xf1;" horiz-adv-x="1058" 
d="M680 1030q-53 0 -142 63t-135 62q-86 0 -137 -133l-8 4q55 139 148 139q51 0 140 -62t136 -63q86 0 133 121l8 -4q-51 -127 -143 -127zM242 827v-213q166 225 362 226q154 0 213 -121q31 -61 31 -193v-516h170v-10h-354v10h172v516q0 129 -29 187q-57 117 -203 116
q-195 0 -362 -231v-588h172v-10h-355v10h170v807h-170v10h183z" />
    <glyph glyph-name="ograve" unicode="&#xf2;" horiz-adv-x="1003" 
d="M260 1148q0 7 7 7t16 -4l290 -143l-2 -4l-299 131q-12 6 -12 13zM501 -2q171 0 285 121t115 296q0 175 -114 295q-115 120 -285 120t-285 -122q-115 -120 -115 -295t114 -295t285 -120zM501 -12q-175 0 -293 123t-118 302t119 303t294 124t293 -123t118 -302t-120 -303
q-118 -124 -293 -124z" />
    <glyph glyph-name="oacute" unicode="&#xf3;" horiz-adv-x="1003" 
d="M736 1155q7 0 7 -7t-12 -13l-299 -131l-2 4l291 143q8 4 15 4zM501 -2q171 0 285 121t115 296q0 175 -114 295q-115 120 -285 120t-285 -122q-115 -120 -115 -295t114 -295t285 -120zM501 -12q-175 0 -293 123t-118 302t119 303t294 124t293 -123t118 -302t-120 -303
q-118 -124 -293 -124z" />
    <glyph glyph-name="ocircumflex" unicode="&#xf4;" horiz-adv-x="1003" 
d="M264 989l-4 4l242 193l241 -193l-4 -4l-237 178zM501 -2q171 0 285 121t115 296q0 175 -114 295q-115 120 -285 120t-285 -122q-115 -120 -115 -295t114 -295t285 -120zM501 -12q-175 0 -293 123t-118 302t119 303t294 124t293 -123t118 -302t-120 -303
q-118 -124 -293 -124z" />
    <glyph glyph-name="otilde" unicode="&#xf5;" horiz-adv-x="1003" 
d="M643 1030q-53 0 -142 63t-134 62q-86 0 -138 -133l-8 4q55 139 148 139q51 0 140 -62t136 -63q86 0 133 121l8 -4q-51 -127 -143 -127zM501 -2q171 0 285 121t115 296q0 175 -114 295q-115 120 -285 120t-285 -122q-115 -120 -115 -295t114 -295t285 -120zM501 -12
q-175 0 -293 123t-118 302t119 303t294 124t293 -123t118 -302t-120 -303q-118 -124 -293 -124z" />
    <glyph glyph-name="odieresis" unicode="&#xf6;" horiz-adv-x="1003" 
d="M399 1042q-25 0 -24 25t25 25t24 -25t-25 -25zM604 1042q-25 0 -24 25q0 25 24 25t25 -25q0 -25 -25 -25zM501 -2q171 0 285 121t115 296q0 175 -114 295q-115 120 -285 120t-285 -122q-115 -120 -115 -295t114 -295t285 -120zM501 -12q-175 0 -293 123t-118 302t119 303
t294 124t293 -123t118 -302t-120 -303q-118 -124 -293 -124z" />
    <glyph glyph-name="divide" unicode="&#xf7;" horiz-adv-x="745" 
d="M373 276q-25 0 -25 25t25 25t25 -25t-25 -25zM373 741q-25 0 -25 25t25 25t25 -25t-25 -25zM655 528h-565v11h565v-11z" />
    <glyph glyph-name="oslash" unicode="&#xf8;" horiz-adv-x="1003" 
d="M494 829q-162 -1 -277 -121t-115 -300t121 -297l539 622q-106 96 -268 96zM507 -2q165 0 279 121t115 303q0 182 -131 303l-539 -623q111 -104 276 -104zM913 422q-1 -186 -119 -310t-288 -124t-283 106l-106 -125l-8 8l106 125q-125 122 -125 306t119 308t285 124
t276 -99l121 142l8 -9l-121 -141q135 -125 135 -311z" />
    <glyph glyph-name="ugrave" unicode="&#xf9;" horiz-adv-x="1048" 
d="M273 1155q7 0 16 -4l291 -143l-2 -4l-299 131q-13 6 -13 13t7 7zM455 -12q-154 0 -213 121q-31 61 -31 192v516h-170v10h182v-526q0 -129 29 -186q57 -117 203 -117q195 0 362 231v588h-172v10h184v-817h170v-10h-182v211q-167 -223 -362 -223z" />
    <glyph glyph-name="uacute" unicode="&#xfa;" horiz-adv-x="1048" 
d="M742 1155q7 0 8 -8q0 -6 -13 -12l-299 -131l-2 4l291 143q8 4 15 4zM455 -12q-154 0 -213 121q-31 61 -31 192v516h-170v10h182v-526q0 -129 29 -186q57 -117 203 -117q195 0 362 231v588h-172v10h184v-817h170v-10h-182v211q-167 -223 -362 -223z" />
    <glyph glyph-name="ucircumflex" unicode="&#xfb;" horiz-adv-x="1048" 
d="M270 989l-4 4l242 193l242 -193l-5 -4l-237 178zM455 -12q-154 0 -213 121q-31 61 -31 192v516h-170v10h182v-526q0 -129 29 -186q57 -117 203 -117q195 0 362 231v588h-172v10h184v-817h170v-10h-182v211q-167 -223 -362 -223z" />
    <glyph glyph-name="udieresis" unicode="&#xfc;" horiz-adv-x="1048" 
d="M406 1042q-25 0 -25 25t25 25t25 -25t-25 -25zM610 1042q-25 0 -24 25q0 25 24 25t25 -25q0 -25 -25 -25zM455 -12q-154 0 -213 121q-31 61 -31 192v516h-170v10h182v-526q0 -129 29 -186q57 -117 203 -117q195 0 362 231v588h-172v10h184v-817h170v-10h-182v211
q-167 -223 -362 -223z" />
    <glyph glyph-name="yacute" unicode="&#xfd;" horiz-adv-x="942" 
d="M708 1155q8 0 7 -7q0 -7 -13 -13l-299 -131l-2 4l291 143q8 4 16 4zM94 -342q14 0 20 -15t-8 -30q16 -12 48 -12q92 0 159 92q49 68 117 229l37 90l-330 805h-143v10h346v-10h-190l323 -790l324 790h-191v10h346v-10h-143l-367 -893q-66 -161 -128 -247t-160 -87
q-35 0 -58 14q-22 14 -22 34t20 20z" />
    <glyph glyph-name="thorn" unicode="&#xfe;" horiz-adv-x="1048" 
d="M545 -2q169 0 285 120t116 297t-111 296t-293 119t-343 -183v-495q72 -66 167 -110t179 -44zM16 -401v10h170v1843h-170v10h183v-800q162 178 346 178t299 -121q114 -121 114 -304t-120 -305t-293 -122q-174 0 -346 149v-528h172v-10h-355z" />
    <glyph glyph-name="ydieresis" unicode="&#xff;" horiz-adv-x="942" 
d="M371 1042q-25 0 -25 25t25 25t25 -25t-25 -25zM575 1042q-25 0 -24 25t25 25t24 -25t-25 -25zM94 -342q14 0 20 -15t-8 -30q16 -12 48 -12q92 0 159 92q49 68 117 229l37 90l-330 805h-143v10h346v-10h-190l323 -790l324 790h-191v10h346v-10h-143l-367 -893
q-66 -161 -128 -247t-160 -87q-35 0 -58 14q-22 14 -22 34t20 20z" />
    <glyph glyph-name="Amacron" unicode="&#x100;" horiz-adv-x="1376" 
d="M434 1534v12h512v-12h-512zM397 545h582l-291 792zM2 0v10h186l488 1327h-221v11h471v-11h-226l488 -1327h186v-10h-438v10h240l-193 525h-590l-192 -525h239v-10h-438z" />
    <glyph glyph-name="amacron" unicode="&#x101;" horiz-adv-x="915" 
d="M168 1063v12h512v-12h-512zM352 -2q193 0 340 195v198q-154 63 -293 63t-220 -66q-81 -67 -81 -164q0 -98 64 -162t190 -64zM352 -12q-130 0 -198 66t-68 169q0 102 85 172t226 70t295 -62v156q0 119 -45 178q-70 92 -225 92q-98 -1 -169 -39t-93 -81q22 -6 22 -28
t-21 -22t-21 35t81 90q82 55 201 56q166 0 237 -99q45 -61 46 -180v-551h169v-10h-182v176q-145 -188 -340 -188z" />
    <glyph glyph-name="Abreve" unicode="&#x102;" horiz-adv-x="1376" 
d="M690 1470q-80 0 -143 54t-94 141l6 2q33 -82 92 -132t139 -50t139 50t93 132l6 -2q-30 -87 -94 -141t-144 -54zM397 545h582l-291 792zM2 0v10h186l488 1327h-221v11h471v-11h-226l488 -1327h186v-10h-438v10h240l-193 525h-590l-192 -525h239v-10h-438z" />
    <glyph glyph-name="abreve" unicode="&#x103;" horiz-adv-x="915" 
d="M424 999q-80 1 -143 55t-95 140l7 2q33 -82 92 -132t139 -50t139 50t92 132l7 -2q-30 -86 -94 -140t-144 -55zM352 -2q193 0 340 195v198q-154 63 -293 63t-220 -66q-81 -67 -81 -164q0 -98 64 -162t190 -64zM352 -12q-130 0 -198 66t-68 169q0 102 85 172t226 70
t295 -62v156q0 119 -45 178q-70 92 -225 92q-98 -1 -169 -39t-93 -81q22 -6 22 -28t-21 -22t-21 35t81 90q82 55 201 56q166 0 237 -99q45 -61 46 -180v-551h169v-10h-182v176q-145 -188 -340 -188z" />
    <glyph glyph-name="Aogonek" unicode="&#x104;" horiz-adv-x="1376" 
d="M397 545h582l-291 792zM1176 -412q-78 0 -124 46t-46 118q0 147 159 248h-229v10h240l-193 525h-590l-192 -525h239v-10h-438v10h186l488 1327h-221v11h471v-11h-226l488 -1327h186v-10h-192q-164 -102 -164 -248q0 -68 44 -110t119 -43q75 0 132 47v-13
q-59 -45 -137 -45z" />
    <glyph glyph-name="aogonek" unicode="&#x105;" horiz-adv-x="915" 
d="M352 -4q193 0 340 194v201q-154 63 -293 63t-220 -66q-81 -67 -81 -164q0 -96 64 -162t190 -66zM694 -412q-78 0 -124 46t-46 119t45 139t123 112v170q-145 -188 -340 -188q-130 0 -198 68t-68 169q0 102 85 172t226 70t295 -62v156q0 119 -45 178q-70 92 -225 92
q-98 -1 -169 -39t-93 -81q22 -6 22 -28t-21 -22t-21 35t81 90q82 55 201 56q166 0 237 -99q45 -61 46 -180v-551h169v-10h-172q-166 -100 -165 -248q0 -68 44 -110q45 -42 119 -43q74 0 131 47v-13q-59 -45 -137 -45z" />
    <glyph glyph-name="Cacute" unicode="&#x106;" horiz-adv-x="1402" 
d="M990 1626q7 0 7 -7t-12 -13l-299 -131l-2 4l291 143q8 4 15 4zM787 -27q-297 0 -489 199t-192 496q0 296 195 500t481 206q207 2 352 -108q144 -111 144 -236q0 -39 -25 -39q-20 0 -20 23q0 12 9 20t22 6q-2 113 -140 218t-342 106q-283 0 -473 -202t-190 -494t188 -489
q188 -196 475 -195q146 0 274 59t218 164l8 -8q-199 -226 -495 -226z" />
    <glyph glyph-name="cacute" unicode="&#x107;" horiz-adv-x="909" 
d="M734 1155q7 0 7 -7t-12 -13l-299 -131l-2 4l291 143q8 4 15 4zM509 -12q-177 0 -299 114t-122 302q0 190 121 313t287 123q131 0 221 -72t90 -156q0 -31 -21 -30q-23 0 -22 24q0 27 29 29q-13 76 -97 135t-200 59q-162 -1 -279 -121t-117 -303t119 -295t294 -112t280 92
v-12q-107 -90 -284 -90z" />
    <glyph glyph-name="Cdotaccent" unicode="&#x10a;" horiz-adv-x="1402" 
d="M756 1513q-25 0 -25 25t25 25t25 -25t-25 -25zM787 -27q-297 0 -489 199t-192 496q0 296 195 500t481 206q207 2 352 -108q144 -111 144 -236q0 -39 -25 -39q-20 0 -20 23q0 12 9 20t22 6q-2 113 -140 218t-342 106q-283 0 -473 -202t-190 -494t188 -489
q188 -196 475 -195q146 0 274 59t218 164l8 -8q-199 -226 -495 -226z" />
    <glyph glyph-name="cdotaccent" unicode="&#x10b;" horiz-adv-x="909" 
d="M500 1042q-25 0 -25 25t25 25t25 -25t-25 -25zM509 -12q-177 0 -299 114t-122 302q0 190 121 313t287 123q131 0 221 -72t90 -156q0 -31 -21 -30q-23 0 -22 24q0 27 29 29q-13 76 -97 135t-200 59q-162 -1 -279 -121t-117 -303t119 -295t294 -112t280 92v-12
q-107 -90 -284 -90z" />
    <glyph glyph-name="Ccaron" unicode="&#x10c;" horiz-adv-x="1402" 
d="M993 1657l4 -4l-241 -193l-242 193l4 4l238 -178zM787 -27q-297 0 -489 199t-192 496q0 296 195 500t481 206q207 2 352 -108q144 -111 144 -236q0 -39 -25 -39q-20 0 -20 23q0 12 9 20t22 6q-2 113 -140 218t-342 106q-283 0 -473 -202t-190 -494t188 -489
q188 -196 475 -195q146 0 274 59t218 164l8 -8q-199 -226 -495 -226z" />
    <glyph glyph-name="ccaron" unicode="&#x10d;" horiz-adv-x="909" 
d="M737 1186l4 -4l-241 -193l-242 193l4 4l238 -178zM509 -12q-177 0 -299 114t-122 302q0 190 121 313t287 123q131 0 221 -72t90 -156q0 -31 -21 -30q-23 0 -22 24q0 27 29 29q-13 76 -97 135t-200 59q-162 -1 -279 -121t-117 -303t119 -295t294 -112t280 92v-12
q-107 -90 -284 -90z" />
    <glyph glyph-name="Dcaron" unicode="&#x10e;" horiz-adv-x="1433" 
d="M928 1657l4 -4l-242 -193l-241 193l4 4l237 -178zM295 10h283q344 0 534 184t190 483q0 300 -190 480t-541 180h-276v-1327zM68 0v10h215v1327h-215v11h503q354 0 549 -184t195 -488t-194 -490t-543 -186h-510z" />
    <glyph glyph-name="dcaron" unicode="&#x10f;" horiz-adv-x="1081" 
d="M1020 1462q10 0 10 -16q2 -135 -35 -260l-4 2q23 82 23 176l-4 86q0 12 10 12zM508 -2q182 0 342 182v496q-72 66 -167 110t-179 43q-168 1 -285 -119t-117 -297t112 -296t294 -119zM504 -12q-184 0 -299 121t-115 304t120 305t294 122t346 -150v762h-170v10h182v-1452
h170v-10h-182v166q-162 -178 -346 -178z" />
    <glyph glyph-name="Dcroat" unicode="&#x110;" horiz-adv-x="1433" 
d="M295 10h283q344 0 534 184t190 483q0 300 -190 480t-541 180h-276v-641h354v-10h-354v-676zM283 686h-174v10h174v641h-215v11h503q354 0 549 -184t195 -488t-194 -490t-543 -186h-510v10h215v676z" />
    <glyph glyph-name="dcroat" unicode="&#x111;" horiz-adv-x="1081" 
d="M508 -2q182 0 342 182v496q-72 66 -167 110t-179 43q-168 1 -285 -119t-117 -297t112 -296t294 -119zM492 1165v11h358v276h-170v10h182v-286h170v-11h-170v-1155h170v-10h-182v166q-162 -178 -346 -178t-299 121t-115 304t120 305t294 122t346 -150v475h-358z" />
    <glyph glyph-name="Emacron" unicode="&#x112;" horiz-adv-x="1138" 
d="M332 1534v12h512v-12h-512zM68 0v10h215v1327h-215v11h938v-306h-13v295h-698v-643h524v-10h-524v-674h698v295h13v-305h-938z" />
    <glyph glyph-name="emacron" unicode="&#x113;" horiz-adv-x="925" 
d="M207 1063v12h512v-12h-512zM482 829q-158 0 -264 -107q-105 -108 -116 -276h721q-2 162 -92 272q-91 110 -249 111zM836 436h-734v-16q0 -194 112 -308t283 -114t294 90v-12q-125 -88 -297 -88t-288 116t-116 308q0 190 112 309t278 119t261 -116q94 -116 95 -282v-6z
" />
    <glyph glyph-name="Ebreve" unicode="&#x114;" horiz-adv-x="1138" 
d="M588 1470q-80 0 -144 54t-94 141l6 2q32 -82 92 -132t140 -50t139 50t92 132l6 -2q-31 -87 -94 -141t-143 -54zM68 0v10h215v1327h-215v11h938v-306h-13v295h-698v-643h524v-10h-524v-674h698v295h13v-305h-938z" />
    <glyph glyph-name="ebreve" unicode="&#x115;" horiz-adv-x="925" 
d="M463 999q-79 1 -143 55t-95 140l6 2q33 -82 93 -132t139 -50q80 0 139 50t92 132l6 -2q-31 -86 -94 -140t-143 -55zM482 829q-158 0 -264 -107q-105 -108 -116 -276h721q-2 162 -92 272q-91 110 -249 111zM836 436h-734v-16q0 -194 112 -308t283 -114t294 90v-12
q-125 -88 -297 -88t-288 116t-116 308q0 190 112 309t278 119t261 -116q94 -116 95 -282v-6z" />
    <glyph glyph-name="Edotaccent" unicode="&#x116;" horiz-adv-x="1138" 
d="M588 1513q-25 0 -25 25t25 25t25 -25t-25 -25zM68 0v10h215v1327h-215v11h938v-306h-13v295h-698v-643h524v-10h-524v-674h698v295h13v-305h-938z" />
    <glyph glyph-name="edotaccent" unicode="&#x117;" horiz-adv-x="925" 
d="M463 1042q-25 0 -25 25t25 25t25 -25t-25 -25zM482 829q-158 0 -264 -107q-105 -108 -116 -276h721q-2 162 -92 272q-91 110 -249 111zM836 436h-734v-16q0 -194 112 -308t283 -114t294 90v-12q-125 -88 -297 -88t-288 116t-116 308q0 190 112 309t278 119t261 -116
q94 -116 95 -282v-6z" />
    <glyph glyph-name="Eogonek" unicode="&#x118;" horiz-adv-x="1148" 
d="M78 0v10h215v1327h-215v11h938v-306h-12v295h-699v-643h524v-10h-524v-674h699v295h12v-305h-123q-164 -100 -164 -248q0 -68 44 -110t119 -43q75 0 132 47v-13q-59 -45 -137 -45t-124 46t-46 118q0 147 160 248h-799z" />
    <glyph glyph-name="eogonek" unicode="&#x119;" horiz-adv-x="925" 
d="M482 829q-158 0 -265 -107q-106 -108 -115 -276h721q-2 162 -92 272q-91 110 -249 111zM836 436h-734v-16q0 -194 112 -308t290 -114q137 0 287 90v-12q-274 -147 -275 -334q0 -61 43 -102t122 -41t130 47v-13q-59 -45 -137 -45t-124 43t-46 111q0 160 190 285
q-92 -39 -190 -39q-182 0 -298 116t-116 308q0 190 112 309t278 119t261 -116q94 -116 95 -282v-6z" />
    <glyph glyph-name="Ecaron" unicode="&#x11a;" horiz-adv-x="1138" 
d="M825 1657l4 -4l-241 -193l-242 193l4 4l238 -178zM68 0v10h215v1327h-215v11h938v-306h-13v295h-698v-643h524v-10h-524v-674h698v295h13v-305h-938z" />
    <glyph glyph-name="ecaron" unicode="&#x11b;" horiz-adv-x="925" 
d="M700 1186l5 -4l-242 -193l-242 193l4 4l238 -178zM482 829q-158 0 -264 -107q-105 -108 -116 -276h721q-2 162 -92 272q-91 110 -249 111zM836 436h-734v-16q0 -194 112 -308t283 -114t294 90v-12q-125 -88 -297 -88t-288 116t-116 308q0 190 112 309t278 119t261 -116
q94 -116 95 -282v-6z" />
    <glyph glyph-name="Gbreve" unicode="&#x11e;" horiz-adv-x="1470" 
d="M778 1470q-80 0 -143 54t-94 141l6 2q33 -82 92 -132t139 -50t140 50q59 50 92 132l6 -2q-30 -87 -94 -141t-144 -54zM789 -27q-302 0 -492 199t-191 496q0 296 195 500t481 206q216 2 364 -100t148 -211q0 -39 -21 -39t-22 23q0 31 31 26q-8 101 -150 197t-350 94
q-283 -2 -473 -204t-190 -494t187 -487q187 -196 470 -195q319 0 518 235v359h-473v10h486v-588h-13v203q-203 -230 -505 -230z" />
    <glyph glyph-name="gbreve" unicode="&#x11f;" horiz-adv-x="1064" 
d="M557 999q-80 1 -143 55t-95 140l7 2q33 -82 92 -132t139 -50t139 50t92 132l7 -2q-31 -86 -95 -140t-143 -55zM500 829q-168 1 -283 -119t-115 -297t110 -296t286 -119t338 182v496q-168 153 -336 153zM848 817v-872q0 -156 -55 -230q-92 -125 -301 -125q-129 0 -208 43
t-102 95q-6 14 -6 26q0 29 22 29t21 -23q0 -23 -24 -28q23 -51 99 -91t198 -40q203 0 290 120q53 74 54 224v221q-162 -178 -340 -178t-292 121t-114 304t119 305t287 122t340 -150v137h182v-10h-170z" />
    <glyph glyph-name="Gdotaccent" unicode="&#x120;" horiz-adv-x="1470" 
d="M778 1513q-25 0 -24 25q0 25 24 25t25 -25q0 -25 -25 -25zM789 -27q-302 0 -492 199t-191 496q0 296 195 500t481 206q216 2 364 -100t148 -211q0 -39 -21 -39t-22 23q0 31 31 26q-8 101 -150 197t-350 94q-283 -2 -473 -204t-190 -494t187 -487q187 -196 470 -195
q319 0 518 235v359h-473v10h486v-588h-13v203q-203 -230 -505 -230z" />
    <glyph glyph-name="gdotaccent" unicode="&#x121;" horiz-adv-x="1064" 
d="M557 1042q-25 0 -25 25t25 25t25 -25t-25 -25zM500 829q-168 1 -283 -119t-115 -297t110 -296t286 -119t338 182v496q-168 153 -336 153zM848 817v-872q0 -156 -55 -230q-92 -125 -301 -125q-129 0 -208 43t-102 95q-6 14 -6 26q0 29 22 29t21 -23q0 -23 -24 -28
q23 -51 99 -91t198 -40q203 0 290 120q53 74 54 224v221q-162 -178 -340 -178t-292 121t-114 304t119 305t287 122t340 -150v137h182v-10h-170z" />
    <glyph glyph-name="Gcommaaccent" unicode="&#x122;" horiz-adv-x="1470" 
d="M758 -154q0 23 20 23q29 0 29 -49q0 -90 -80 -176l-6 6q74 86 74 172q-14 -8 -26 1q-11 9 -11 23zM789 -27q-302 0 -492 199t-191 496q0 296 195 500t481 206q216 2 364 -100t148 -211q0 -39 -21 -39t-22 23q0 31 31 26q-8 101 -150 197t-350 94q-283 -2 -473 -204
t-190 -494t187 -487q187 -196 470 -195q319 0 518 235v359h-473v10h486v-588h-13v203q-203 -230 -505 -230z" />
    <glyph glyph-name="gcommaaccent" unicode="&#x123;" horiz-adv-x="1064" 
d="M553 1055q0 -23 -21 -23q-29 0 -28 49q0 90 80 176l6 -6q-74 -86 -74 -172q14 8 26 -1t11 -23zM500 829q-168 1 -283 -119t-115 -297t110 -296t286 -119t338 182v496q-168 153 -336 153zM848 817v-872q0 -156 -55 -230q-92 -125 -301 -125q-129 0 -208 43t-102 95
q-6 14 -6 26q0 29 22 29t21 -23q0 -23 -24 -28q23 -51 99 -91t198 -40q203 0 290 120q53 74 54 224v221q-162 -178 -340 -178t-292 121t-114 304t119 305t287 122t340 -150v137h182v-10h-170z" />
    <glyph glyph-name="Hbar" unicode="&#x126;" horiz-adv-x="1529" 
d="M295 698h940v314h-940v-314zM109 1012v10h174v315h-215v11h446v-11h-219v-315h940v315h-219v11h446v-11h-215v-315h172v-10h-172v-1002h215v-10h-446v10h219v678h-940v-678h219v-10h-446v10h215v1002h-174z" />
    <glyph glyph-name="hbar" unicode="&#x127;" horiz-adv-x="1044" 
d="M215 1452h-170v10h182v-286h359v-11h-359v-549q168 223 363 224q154 0 213 -121q31 -61 31 -193v-516h170v-10h-355v10h172v516q0 129 -28 187q-57 117 -203 116q-195 0 -363 -231v-588h172v-10h-354v10h170v1155h-170v11h170v276z" />
    <glyph glyph-name="Imacron" unicode="&#x12a;" horiz-adv-x="598" 
d="M43 1534v12h512v-12h-512zM68 0v10h225v1327h-225v11h462v-11h-225v-1327h225v-10h-462z" />
    <glyph glyph-name="imacron" unicode="&#x12b;" horiz-adv-x="509" 
d="M-47 1063v12h512v-12h-512zM59 0v10h170v807h-170v10h183v-817h172v-10h-355z" />
    <glyph glyph-name="Ibreve" unicode="&#x12c;" horiz-adv-x="598" 
d="M299 1470q-80 0 -143 54t-95 141l7 2q33 -82 92 -132t139 -50t139 50t92 132l7 -2q-31 -87 -95 -141t-143 -54zM68 0v10h225v1327h-225v11h462v-11h-225v-1327h225v-10h-462z" />
    <glyph glyph-name="ibreve" unicode="&#x12d;" horiz-adv-x="509" 
d="M209 999q-80 1 -143 55t-95 140l6 2q33 -82 93 -132t139 -50q80 0 139 50t92 132l6 -2q-31 -86 -94 -140t-143 -55zM59 0v10h170v807h-170v10h183v-817h172v-10h-355z" />
    <glyph glyph-name="Iogonek" unicode="&#x12e;" horiz-adv-x="598" 
d="M68 0v10h225v1327h-225v11h462v-11h-225v-1327h225v-10h-229q-164 -100 -164 -248q0 -68 44 -110t119 -43q75 0 132 47v-13q-59 -45 -137 -45t-124 46t-46 118q0 147 160 248h-217z" />
    <glyph glyph-name="iogonek" unicode="&#x12f;" horiz-adv-x="454" 
d="M225 1186q-25 0 -25 24t26 25q24 -1 24 -25t-25 -24zM59 0v10h170v807h-170v10h183v-817h172v-10h-178q-152 -102 -152 -248q0 -68 43 -110t122 -43q79 0 130 47v-13q-59 -45 -137 -45t-124 46t-46 118q0 145 147 248h-160z" />
    <glyph glyph-name="Idotaccent" unicode="&#x130;" horiz-adv-x="598" 
d="M299 1513q-25 0 -25 25t25 25t25 -25t-25 -25zM68 0v10h225v1327h-225v11h462v-11h-225v-1327h225v-10h-462z" />
    <glyph glyph-name="dotlessi" unicode="&#x131;" horiz-adv-x="509" 
d="M59 0v10h170v807h-170v10h183v-817h172v-10h-355z" />
    <glyph glyph-name="Kcommaaccent" unicode="&#x136;" horiz-adv-x="1316" 
d="M688 -154q0 23 21 23q29 0 28 -49q0 -90 -80 -176l-6 6q74 86 74 172q-14 -8 -26 1q-11 9 -11 23zM68 0v10h215v1327h-215v11h446v-11h-219v-827l821 827h-252v11h447v-11h-178l-572 -575l549 -752h213v-10h-219l-551 754l-258 -260v-484h219v-10h-446z" />
    <glyph glyph-name="kcommaaccent" unicode="&#x137;" horiz-adv-x="974" 
d="M506 -131q29 0 29 -49q0 -90 -80 -176l-6 6q74 86 73 172q-14 -8 -25 1t-11 27t20 19zM45 0v10h170v1442h-170v10h182v-1147l527 502h-224v10h406v-10h-168l-319 -305l350 -502h139v-10h-147l-351 504l-213 -203v-291h172v-10h-354z" />
    <glyph glyph-name="Lacute" unicode="&#x139;" horiz-adv-x="1048" 
d="M574 1626q7 0 8 -8q0 -6 -13 -12l-299 -131l-2 4l291 143q8 4 15 4zM78 0v10h215v1327h-215v11h452v-11h-225v-1327h664v295h12v-305h-903z" />
    <glyph glyph-name="lacute" unicode="&#x13a;" horiz-adv-x="448" 
d="M456 1708q8 0 7 -7q0 -7 -12 -13l-299 -132l-2 5l290 143q8 4 16 4zM45 0v10h170v1442h-170v10h182v-1452h172v-10h-354z" />
    <glyph glyph-name="Lcommaaccent" unicode="&#x13b;" horiz-adv-x="1038" 
d="M514 -154q0 23 21 23q29 0 28 -49q0 -90 -80 -176l-6 6q74 86 74 172q-14 -8 -26 1q-11 9 -11 23zM68 0v10h215v1327h-215v11h452v-11h-225v-1327h663v295h13v-305h-903z" />
    <glyph glyph-name="lcommaaccent" unicode="&#x13c;" horiz-adv-x="448" 
d="M201 -154q0 23 20 23q29 0 29 -49q0 -90 -80 -176l-6 6q74 86 74 172q-14 -8 -26 1q-11 9 -11 23zM45 0v10h170v1442h-170v10h182v-1452h172v-10h-354z" />
    <glyph glyph-name="Lcaron" unicode="&#x13d;" horiz-adv-x="1048" 
d="M682 1343q10 0 10 -16q2 -135 -35 -260l-4 2q23 82 23 176l-4 86q0 12 10 12zM78 0v10h215v1327h-215v11h452v-11h-225v-1327h664v295h12v-305h-903z" />
    <glyph glyph-name="lcaron" unicode="&#x13e;" horiz-adv-x="448" 
d="M385 1462q10 0 10 -16q2 -135 -35 -260l-4 2q23 82 23 176l-4 86q0 12 10 12zM45 0v10h170v1442h-170v10h182v-1452h172v-10h-354z" />
    <glyph glyph-name="Ldot" unicode="&#x13f;" horiz-adv-x="1048" 
d="M823 692q-25 0 -24 25q0 25 24 24q25 -1 25 -25t-25 -24zM78 0v10h215v1327h-215v11h452v-11h-225v-1327h664v295h12v-305h-903z" />
    <glyph glyph-name="ldot" unicode="&#x140;" horiz-adv-x="501" 
d="M475 707q-25 1 -25 25t26 24q24 0 24 -24t-25 -25zM45 0v10h170v1442h-170v10h182v-1452h172v-10h-354z" />
    <glyph glyph-name="Lslash" unicode="&#x141;" horiz-adv-x="1048" 
d="M78 0v10h215v623l-232 -137l-6 8l238 141v692h-215v11h452v-11h-225v-684l379 226l6 -9l-385 -229v-631h664v295h12v-305h-903z" />
    <glyph glyph-name="lslash" unicode="&#x142;" horiz-adv-x="448" 
d="M45 0v10h170v815l-209 -125l-6 9l215 129v614h-170v10h182v-618l189 112l6 -8l-195 -117v-821h172v-10h-354z" />
    <glyph glyph-name="Nacute" unicode="&#x143;" horiz-adv-x="1505" 
d="M990 1626q7 0 7 -7t-12 -13l-299 -131l-2 4l291 143q8 4 15 4zM295 10h225v-10h-452v10h215v1327h-215v11h225l940 -1338v1327h-219v11h446v-11h-215v-1349h-10l-940 1337v-1315z" />
    <glyph glyph-name="nacute" unicode="&#x144;" horiz-adv-x="1058" 
d="M773 1155q7 0 7 -7t-12 -13l-299 -131l-2 4l291 143q8 4 15 4zM242 827v-213q166 225 362 226q154 0 213 -121q31 -61 31 -193v-516h170v-10h-354v10h172v516q0 129 -29 187q-57 117 -203 116q-195 0 -362 -231v-588h172v-10h-355v10h170v807h-170v10h183z" />
    <glyph glyph-name="Ncommaaccent" unicode="&#x145;" horiz-adv-x="1505" 
d="M735 -154q0 23 21 23q29 0 28 -49q1 -90 -79 -176l-7 6q74 86 74 172q-14 -8 -26 1q-11 9 -11 23zM295 10h225v-10h-452v10h215v1327h-215v11h225l940 -1338v1327h-219v11h446v-11h-215v-1349h-10l-940 1337v-1315z" />
    <glyph glyph-name="ncommaaccent" unicode="&#x146;" horiz-adv-x="1058" 
d="M518 -154q0 23 21 23q29 0 28 -49q0 -90 -80 -176l-6 6q74 86 74 172q-14 -8 -26 1q-11 9 -11 23zM242 827v-213q166 225 362 226q154 0 213 -121q31 -61 31 -193v-516h170v-10h-354v10h172v516q0 129 -29 187q-57 117 -203 116q-195 0 -362 -231v-588h172v-10h-355v10
h170v807h-170v10h183z" />
    <glyph glyph-name="Ncaron" unicode="&#x147;" horiz-adv-x="1505" 
d="M993 1657l4 -4l-241 -193l-242 193l4 4l238 -178zM295 10h225v-10h-452v10h215v1327h-215v11h225l940 -1338v1327h-219v11h446v-11h-215v-1349h-10l-940 1337v-1315z" />
    <glyph glyph-name="ncaron" unicode="&#x148;" horiz-adv-x="1058" 
d="M776 1186l4 -4l-241 -193l-242 193l4 4l238 -178zM242 827v-213q166 225 362 226q154 0 213 -121q31 -61 31 -193v-516h170v-10h-354v10h172v516q0 129 -29 187q-57 117 -203 116q-195 0 -362 -231v-588h172v-10h-355v10h170v807h-170v10h183z" />
    <glyph glyph-name="Omacron" unicode="&#x14c;" horiz-adv-x="1560" 
d="M524 1534v12h512v-12h-512zM780 -16q283 0 472 200t190 490q0 290 -190 490t-472 200q-283 0 -472 -201t-189 -489t189 -490q189 -200 472 -200zM780 -27q-286 0 -480 204t-194 497q0 292 194 496t480 204t481 -204q193 -204 193 -496t-194 -497q-194 -204 -480 -204z
" />
    <glyph glyph-name="omacron" unicode="&#x14d;" horiz-adv-x="1003" 
d="M246 1063v12h512v-12h-512zM501 -2q171 0 285 121t115 296q0 175 -114 295q-115 120 -285 120t-285 -122q-115 -120 -115 -295t114 -295t285 -120zM501 -12q-175 0 -293 123t-118 302t119 303t294 124t293 -123t118 -302t-120 -303q-118 -124 -293 -124z" />
    <glyph glyph-name="Obreve" unicode="&#x14e;" horiz-adv-x="1560" 
d="M780 1470q-80 0 -143 54t-94 141l6 2q33 -82 92 -132t139 -50t140 50q59 50 92 132l6 -2q-30 -87 -94 -141t-144 -54zM780 -16q283 0 472 200t190 490q0 290 -190 490t-472 200q-283 0 -472 -201t-189 -489t189 -490q189 -200 472 -200zM780 -27q-286 0 -480 204
t-194 497q0 292 194 496t480 204t481 -204q193 -204 193 -496t-194 -497q-194 -204 -480 -204z" />
    <glyph glyph-name="obreve" unicode="&#x14f;" horiz-adv-x="1003" 
d="M502 999q-80 1 -144 55t-94 140l6 2q33 -82 92 -132q60 -50 140 -50t139 50t92 132l6 -2q-31 -86 -94 -140t-143 -55zM501 -2q171 0 285 121t115 296q0 175 -114 295q-115 120 -285 120t-285 -122q-115 -120 -115 -295t114 -295t285 -120zM501 -12q-175 0 -293 123
t-118 302t119 303t294 124t293 -123t118 -302t-120 -303q-118 -124 -293 -124z" />
    <glyph glyph-name="Ohungarumlaut" unicode="&#x150;" horiz-adv-x="1560" 
d="M1180 1634q8 0 8 -7t-12 -13l-289 -152l-2 4l278 164q9 4 17 4zM872 1634q8 0 9 -8q0 -6 -13 -12l-288 -152l-2 4l278 164q8 4 16 4zM780 -16q283 0 472 200t190 490q0 290 -190 490t-472 200q-283 0 -472 -201t-189 -489t189 -490q189 -200 472 -200zM780 -27
q-286 0 -480 204t-194 497q0 292 194 496t480 204t481 -204q193 -204 193 -496t-194 -497q-194 -204 -480 -204z" />
    <glyph glyph-name="ohungarumlaut" unicode="&#x151;" horiz-adv-x="1003" 
d="M901 1163q8 0 8 -7t-12 -13l-289 -152l-2 4l279 164q8 4 16 4zM594 1163q8 0 8 -7t-12 -13l-289 -152l-2 4l279 164q8 4 16 4zM501 -2q171 0 285 121t115 296q0 175 -114 295q-115 120 -285 120t-285 -122q-115 -120 -115 -295t114 -295t285 -120zM501 -12
q-175 0 -293 123t-118 302t119 303t294 124t293 -123t118 -302t-120 -303q-118 -124 -293 -124z" />
    <glyph glyph-name="OE" unicode="&#x152;" horiz-adv-x="1818" 
d="M850 10h113v1327h-119q-344 0 -534 -183t-191 -483q0 -300 190 -481q191 -180 541 -180zM850 0q-354 0 -549 184t-195 488t194 489q194 186 544 187h842v-306h-13v295h-698v-643h524v-10h-524v-674h698v295h13v-305h-836z" />
    <glyph glyph-name="oe" unicode="&#x153;" horiz-adv-x="1736" 
d="M1294 829q-158 0 -265 -107q-105 -108 -116 -276h721q-2 162 -92 272t-248 111zM501 -2q171 0 285 121t115 296q0 175 -114 295q-115 120 -285 120t-285 -122q-115 -120 -115 -295t114 -295t285 -120zM913 420q0 -194 112 -308t283 -114t294 90v-12q-125 -88 -289 -88
t-275 97t-131 267q-23 -158 -135 -261t-280 -103q-166 0 -284 123t-118 302t119 303t286 124t279 -102t133 -259q17 158 123 259q106 102 267 102t255 -116t95 -282v-6h-734v-16z" />
    <glyph glyph-name="Racute" unicode="&#x154;" horiz-adv-x="1189" 
d="M816 1626q7 0 7 -7t-12 -13l-299 -131l-2 4l291 143q8 4 15 4zM576 618q194 0 318 98t124 263q0 166 -114 262t-318 96h-291v-714q87 -5 281 -5zM68 0v10h215v1327h-215v11h518q208 0 326 -98t118 -260q0 -161 -98 -257t-268 -119l358 -604h178v-10h-186l-363 612
q-37 -4 -153 -4t-203 4v-602h225v-10h-452z" />
    <glyph glyph-name="racute" unicode="&#x155;" horiz-adv-x="657" 
d="M568 1155q7 0 7 -7t-12 -13l-299 -131l-2 4l291 143q8 4 15 4zM524 840q84 0 84 -45q0 -27 -21 -27t-22 20q0 20 17 27q-18 14 -58 14q-147 0 -282 -225v-594h172v-10h-355v10h170v807h-170v10h183v-204q126 217 282 217z" />
    <glyph glyph-name="Rcommaaccent" unicode="&#x156;" horiz-adv-x="1200" 
d="M600 -154q0 23 21 23q29 0 28 -49q0 -90 -80 -176l-6 6q74 86 74 172q-14 -8 -26 1q-11 9 -11 23zM586 618q194 0 318 98t124 263q0 166 -114 262t-318 96h-291v-714q87 -5 281 -5zM78 0v10h215v1327h-215v11h518q209 0 327 -98q117 -98 117 -260q0 -161 -98 -257
t-268 -119l358 -604h178v-10h-186l-362 612q-37 -4 -154 -4t-203 4v-602h225v-10h-452z" />
    <glyph glyph-name="rcommaaccent" unicode="&#x157;" horiz-adv-x="657" 
d="M221 -154q0 23 21 23q29 0 28 -49q0 -90 -80 -176l-6 6q74 86 74 172q-14 -8 -26 1q-11 9 -11 23zM524 840q84 0 84 -45q0 -27 -21 -27t-22 20q0 20 17 27q-18 14 -58 14q-147 0 -282 -225v-594h172v-10h-355v10h170v807h-170v10h183v-204q126 217 282 217z" />
    <glyph glyph-name="Rcaron" unicode="&#x158;" horiz-adv-x="1189" 
d="M819 1657l4 -4l-241 -193l-242 193l4 4l238 -178zM576 618q194 0 318 98t124 263q0 166 -114 262t-318 96h-291v-714q87 -5 281 -5zM68 0v10h215v1327h-215v11h518q208 0 326 -98t118 -260q0 -161 -98 -257t-268 -119l358 -604h178v-10h-186l-363 612q-37 -4 -153 -4
t-203 4v-602h225v-10h-452z" />
    <glyph glyph-name="rcaron" unicode="&#x159;" horiz-adv-x="657" 
d="M571 1186l4 -4l-241 -193l-242 193l4 4l238 -178zM524 840q84 0 84 -45q0 -27 -21 -27t-22 20q0 20 17 27q-18 14 -58 14q-147 0 -282 -225v-594h172v-10h-355v10h170v807h-170v10h183v-204q126 217 282 217z" />
    <glyph glyph-name="Sacute" unicode="&#x15a;" horiz-adv-x="1017" 
d="M771 1626q7 0 7 -7t-12 -13l-299 -131l-2 4l291 143q8 4 15 4zM507 -27q-175 0 -287 82t-111 178q0 39 21 39t22 -24q0 -29 -31 -29q11 -90 117 -163q106 -72 273 -72t277 90t109 237q0 147 -110 234t-225 130q-114 43 -165 69q-159 79 -209 179q-31 62 -30 140
q0 133 106 222t263 89t257 -75t101 -169q0 -39 -23 -38q-20 0 -20 24q0 29 30 29q-8 87 -105 153t-243 66t-250 -86t-104 -227t123 -229q63 -44 110 -68t129 -56t140 -62q152 -79 207 -187q31 -63 30 -144q1 -145 -113 -239t-289 -93z" />
    <glyph glyph-name="sacute" unicode="&#x15b;" horiz-adv-x="784" 
d="M624 1155q8 0 7 -7q0 -7 -13 -13l-299 -131l-2 4l291 143q8 4 16 4zM670 682q0 -31 -22 -31t-21 24q0 24 28 25q-6 20 -26 45q-76 84 -236 84q-115 0 -189 -56t-73 -141q0 -85 66 -125t211 -76t215 -83q69 -47 69 -141q0 -95 -83 -157t-203 -62t-197 40q-76 40 -107 95
q-16 29 -16 55t22 25q22 0 21 -24q0 -24 -27 -25q16 -56 94 -106t202 -50q122 0 202 58t80 153t-83 142q-64 38 -206 73q-141 35 -207 78t-66 130t79 147q78 60 196 61q172 0 248 -92q29 -35 29 -66z" />
    <glyph glyph-name="Scedilla" unicode="&#x15e;" horiz-adv-x="1017" 
d="M514 -422q-88 0 -176 39l2 10q88 -39 176 -39q160 0 160 123q0 111 -182 121h-11l-4 4l27 137q-172 0 -285 82t-112 178q0 39 21 39t22 -24q0 -29 -31 -29q11 -90 117 -163q106 -72 273 -72t277 90t109 237q0 147 -110 234t-225 130q-114 43 -165 69q-159 79 -209 179
q-31 62 -30 140q0 133 106 222t263 89t257 -75t101 -169q0 -39 -23 -38q-20 0 -20 24q0 29 30 29q-8 87 -105 153t-243 66t-250 -86t-104 -227t123 -229q63 -44 110 -68t129 -56t140 -62q152 -79 207 -187q31 -63 30 -144q1 -143 -109 -235t-284 -97l-22 -131q88 -4 141 -38
t53 -94t-43 -96t-131 -36z" />
    <glyph glyph-name="scedilla" unicode="&#x15f;" horiz-adv-x="784" 
d="M563 -277q0 -61 -43 -97t-131 -36t-176 39l2 11q88 -39 176 -39q160 0 160 123q0 111 -182 120h-11l-4 4l27 142q-102 2 -176 42q-75 40 -97 80t-22 66t22 25q22 0 21 -24q0 -24 -27 -25q16 -58 94 -106t202 -48q122 0 202 58t80 152t-83 141q-64 38 -206 73
q-141 35 -207 78t-66 129t79 145q78 59 196 60q172 0 248 -93q29 -35 29 -65t-22 -31q-22 0 -21 24q0 24 28 25q-6 20 -26 45q-76 84 -236 84q-113 0 -187 -56t-75 -139q0 -83 66 -123t211 -76t215 -83q69 -47 69 -141q0 -93 -83 -155t-218 -62l-22 -135q88 -4 141 -38
t53 -94z" />
    <glyph glyph-name="Scaron" unicode="&#x160;" horiz-adv-x="1017" 
d="M774 1657l4 -4l-241 -193l-242 193l4 4l238 -178zM507 -27q-175 0 -287 82t-111 178q0 39 21 39t22 -24q0 -29 -31 -29q11 -90 117 -163q106 -72 273 -72t277 90t109 237q0 147 -110 234t-225 130q-114 43 -165 69q-159 79 -209 179q-31 62 -30 140q0 133 106 222t263 89
t257 -75t101 -169q0 -39 -23 -38q-20 0 -20 24q0 29 30 29q-8 87 -105 153t-243 66t-250 -86t-104 -227t123 -229q63 -44 110 -68t129 -56t140 -62q152 -79 207 -187q31 -63 30 -144q1 -145 -113 -239t-289 -93z" />
    <glyph glyph-name="scaron" unicode="&#x161;" horiz-adv-x="784" 
d="M627 1186l4 -4l-242 -193l-242 193l5 4l237 -178zM670 682q0 -31 -22 -31t-21 24q0 24 28 25q-6 20 -26 45q-76 84 -236 84q-115 0 -189 -56t-73 -141q0 -85 66 -125t211 -76t215 -83q69 -47 69 -141q0 -95 -83 -157t-203 -62t-197 40q-76 40 -107 95q-16 29 -16 55
t22 25q22 0 21 -24q0 -24 -27 -25q16 -56 94 -106t202 -50q122 0 202 58t80 153t-83 142q-64 38 -206 73q-141 35 -207 78t-66 130t79 147q78 60 196 61q172 0 248 -92q29 -35 29 -66z" />
    <glyph glyph-name="Tcommaaccent" unicode="&#x162;" horiz-adv-x="1249" 
d="M604 -154q0 23 21 23q29 0 28 -49q0 -90 -80 -176l-6 6q74 86 74 172q-14 -8 -26 1q-11 9 -11 23zM393 0v10h225v1327h-540v-295h-12v306h1118v-306h-13v295h-540v-1327h225v-10h-463z" />
    <glyph glyph-name="tcommaaccent" unicode="&#x163;" horiz-adv-x="555" 
d="M279 -154q0 23 20 23q29 0 29 -49q0 -90 -80 -176l-6 6q74 86 73 172q-14 -8 -25 1t-11 23zM342 -12q-121 0 -149 108q-10 39 -11 117v604h-153v10h153v238l13 2v-240h307v-10h-307v-604q0 -76 10 -115q27 -100 139 -100q74 0 152 47l2 -10q-82 -47 -156 -47z" />
    <glyph glyph-name="Tcaron" unicode="&#x164;" horiz-adv-x="1249" 
d="M862 1657l4 -4l-241 -193l-242 193l4 4l238 -178zM393 0v10h225v1327h-540v-295h-12v306h1118v-306h-13v295h-540v-1327h225v-10h-463z" />
    <glyph glyph-name="tcaron" unicode="&#x165;" horiz-adv-x="555" 
d="M352 1286q10 0 10 -16q3 -135 -34 -260l-4 2q23 82 22 176l-4 86q0 12 10 12zM342 -12q-121 0 -149 108q-10 39 -11 117v604h-153v10h153v238l13 2v-240h307v-10h-307v-604q0 -76 10 -115q27 -100 139 -100q74 0 152 47l2 -10q-82 -47 -156 -47z" />
    <glyph glyph-name="Umacron" unicode="&#x16a;" horiz-adv-x="1363" 
d="M426 1534v12h512v-12h-512zM682 -27q-206 0 -316 127t-110 369v868h-215v11h442v-11h-215v-868q0 -237 106 -361t308 -124q203 0 308 124t106 361v868h-215v11h442v-11h-215v-868q0 -242 -110 -369t-316 -127z" />
    <glyph glyph-name="umacron" unicode="&#x16b;" horiz-adv-x="1048" 
d="M252 1063v12h512v-12h-512zM455 -12q-154 0 -213 121q-31 61 -31 192v516h-170v10h182v-526q0 -129 29 -186q57 -117 203 -117q195 0 362 231v588h-172v10h184v-817h170v-10h-182v211q-167 -223 -362 -223z" />
    <glyph glyph-name="Ubreve" unicode="&#x16c;" horiz-adv-x="1363" 
d="M682 1470q-80 0 -143 54t-95 141l7 2q33 -82 92 -132t139 -50t139 50t92 132l7 -2q-30 -87 -94 -141t-144 -54zM682 -27q-206 0 -316 127t-110 369v868h-215v11h442v-11h-215v-868q0 -237 106 -361t308 -124q203 0 308 124t106 361v868h-215v11h442v-11h-215v-868
q0 -242 -110 -369t-316 -127z" />
    <glyph glyph-name="ubreve" unicode="&#x16d;" horiz-adv-x="1048" 
d="M508 999q-80 1 -143 55t-95 140l6 2q32 -82 92 -132t140 -50t139 50t92 132l6 -2q-31 -86 -94 -140t-143 -55zM455 -12q-154 0 -213 121q-31 61 -31 192v516h-170v10h182v-526q0 -129 29 -186q57 -117 203 -117q195 0 362 231v588h-172v10h184v-817h170v-10h-182v211
q-167 -223 -362 -223z" />
    <glyph glyph-name="Uring" unicode="&#x16e;" horiz-adv-x="1363" 
d="M682 1473q53 -1 88 35t35 89t-35 91t-88 36q-53 0 -88 -36t-35 -90t35 -90t88 -35zM682 1462q-59 0 -97 39t-38 96t38 97t97 41q59 0 97 -40q38 -39 38 -97t-38 -97t-97 -39zM682 -27q-206 0 -316 127t-110 369v868h-215v11h442v-11h-215v-868q0 -237 106 -361t308 -124
q203 0 308 124t106 361v868h-215v11h442v-11h-215v-868q0 -242 -110 -369t-316 -127z" />
    <glyph glyph-name="uring" unicode="&#x16f;" horiz-adv-x="1048" 
d="M508 1026q53 0 88 36t35 89t-35 90t-88 37t-88 -37t-35 -90t35 -89t88 -36zM508 1016q-59 0 -97 39t-38 96t38 97t97 40t97 -40t38 -97t-38 -96t-97 -39zM455 -12q-154 0 -213 121q-31 61 -31 192v516h-170v10h182v-526q0 -129 29 -186q57 -117 203 -117q195 0 362 231
v588h-172v10h184v-817h170v-10h-182v211q-167 -223 -362 -223z" />
    <glyph glyph-name="Uhungarumlaut" unicode="&#x170;" horiz-adv-x="1363" 
d="M1081 1634q8 0 9 -8q0 -6 -13 -12l-289 -152l-2 4l279 164q8 4 16 4zM774 1634q8 0 8 -7t-12 -13l-289 -152l-2 4l279 164q8 4 16 4zM682 -27q-206 0 -316 127t-110 369v868h-215v11h442v-11h-215v-868q0 -237 106 -361t308 -124q203 0 308 124t106 361v868h-215v11h442
v-11h-215v-868q0 -242 -110 -369t-316 -127z" />
    <glyph glyph-name="uhungarumlaut" unicode="&#x171;" horiz-adv-x="1048" 
d="M907 1163q8 0 8 -7t-12 -13l-289 -152l-2 4l279 164q8 4 16 4zM600 1163q8 0 8 -7t-12 -13l-289 -152l-2 4l279 164q8 4 16 4zM455 -12q-154 0 -213 121q-31 61 -31 192v516h-170v10h182v-526q0 -129 29 -186q57 -117 203 -117q195 0 362 231v588h-172v10h184v-817h170
v-10h-182v211q-167 -223 -362 -223z" />
    <glyph glyph-name="Uogonek" unicode="&#x172;" horiz-adv-x="1363" 
d="M682 -18q-206 0 -316 127t-110 368v860h-215v11h442v-11h-215v-860q0 -237 106 -361t308 -124q203 0 308 124t106 361v860h-215v11h442v-11h-215v-860q0 -229 -99 -356t-288 -137q-137 -98 -137 -232q0 -68 43 -110t122 -43q79 0 130 47v-13q-59 -45 -137 -45t-125 46
q-46 46 -46 118q0 135 129 230h-18z" />
    <glyph glyph-name="uogonek" unicode="&#x173;" horiz-adv-x="1048" 
d="M819 -412q-78 0 -124 46t-46 119t45 139t123 112v207q-168 -223 -362 -223q-154 0 -213 121q-31 61 -31 192v516h-170v10h182v-526q0 -129 29 -186q57 -117 203 -117q195 0 362 231v588h-172v10h184v-817h170v-10h-172q-166 -100 -165 -248q0 -68 44 -110t118 -43
q74 0 132 47v-13q-59 -45 -137 -45z" />
    <glyph glyph-name="Wcircumflex" unicode="&#x174;" horiz-adv-x="1953" 
d="M743 1440l-4 4l242 192l242 -192l-4 -4l-238 178zM-10 1337v11h463v-11h-246l395 -1343l371 1159h8l371 -1159l395 1343h-246v11h463v-11h-205l-403 -1366h-8l-371 1157l-371 -1157h-8l-403 1366h-205z" />
    <glyph glyph-name="wcircumflex" unicode="&#x175;" horiz-adv-x="1306" 
d="M418 969l-4 4l241 192l242 -192l-4 -4l-238 178zM-8 817v10h346v-10h-191l226 -827l276 735h8l277 -735l225 827h-190v10h346v-10h-144l-231 -842h-12l-275 730l-274 -730h-12l-232 842h-143z" />
    <glyph glyph-name="Ycircumflex" unicode="&#x176;" horiz-adv-x="1269" 
d="M397 1460l-4 4l242 193l242 -193l-5 -4l-237 178zM403 0v10h226v574l-424 753h-205v11h463v-11h-244l416 -743l416 743h-244v11h463v-11h-205l-424 -753v-574h225v-10h-463z" />
    <glyph glyph-name="ycircumflex" unicode="&#x177;" horiz-adv-x="942" 
d="M236 989l-5 4l242 193l242 -193l-4 -4l-238 178zM94 -342q14 0 20 -15t-8 -30q16 -12 48 -12q92 0 159 92q49 68 117 229l37 90l-330 805h-143v10h346v-10h-190l323 -790l324 790h-191v10h346v-10h-143l-367 -893q-66 -161 -128 -247t-160 -87q-35 0 -58 14
q-22 14 -22 34t20 20z" />
    <glyph glyph-name="Ydieresis" unicode="&#x178;" horiz-adv-x="1269" 
d="M532 1513q-25 0 -24 25q0 25 24 25t25 -25q0 -25 -25 -25zM737 1513q-25 0 -24 25t25 25t24 -25t-25 -25zM403 0v10h226v574l-424 753h-205v11h463v-11h-244l416 -743l416 743h-244v11h463v-11h-205l-424 -753v-574h225v-10h-463z" />
    <glyph glyph-name="Zacute" unicode="&#x179;" horiz-adv-x="1153" 
d="M818 1626q7 0 7 -7t-12 -13l-299 -131l-2 4l291 143q8 4 15 4zM82 0v6l950 1331h-895v-295h-12v306h924v-7l-951 -1331h963v295h12v-305h-991z" />
    <glyph glyph-name="zacute" unicode="&#x17a;" horiz-adv-x="753" 
d="M622 1155q8 0 7 -7q0 -7 -13 -13l-299 -131l-2 4l291 143q8 4 16 4zM61 0v10l615 807h-557v-188h-13v198h584v-10l-614 -807h600v189h12v-199h-627z" />
    <glyph glyph-name="Zdotaccent" unicode="&#x17b;" horiz-adv-x="1153" 
d="M584 1513q-25 0 -25 25t25 25t25 -25t-25 -25zM82 0v6l950 1331h-895v-295h-12v306h924v-7l-951 -1331h963v295h12v-305h-991z" />
    <glyph glyph-name="zdotaccent" unicode="&#x17c;" horiz-adv-x="753" 
d="M387 1042q-25 0 -25 25t25 25t25 -25t-25 -25zM61 0v10l615 807h-557v-188h-13v198h584v-10l-614 -807h600v189h12v-199h-627z" />
    <glyph glyph-name="Zcaron" unicode="&#x17d;" horiz-adv-x="1153" 
d="M821 1657l4 -4l-241 -193l-242 193l4 4l238 -178zM82 0v6l950 1331h-895v-295h-12v306h924v-7l-951 -1331h963v295h12v-305h-991z" />
    <glyph glyph-name="zcaron" unicode="&#x17e;" horiz-adv-x="753" 
d="M625 1186l4 -4l-242 -193l-242 193l5 4l237 -178zM61 0v10l615 807h-557v-188h-13v198h584v-10l-614 -807h600v189h12v-199h-627z" />
    <glyph glyph-name="Aringacute" unicode="&#x1fa;" horiz-adv-x="1376" 
d="M922 1855q8 0 8 -7t-12 -13l-300 -131l-2 4l291 143q7 4 15 4zM688 1348q53 0 88 36t35 88q0 54 -35 91t-88 37t-88 -38q-35 -36 -35 -89t35 -89t88 -36zM397 545h582l-291 792zM823 1473q0 -96 -84 -125h187v-11h-226l488 -1327h198v-10h-462v10h252l-193 525h-590
l-192 -525h252v-10h-463v10h198l488 1327h-221v11h180q-82 33 -82 125q0 57 38 97t97 40t97 -40t38 -97z" />
    <glyph glyph-name="aringacute" unicode="&#x1fb;" horiz-adv-x="915" 
d="M658 1567q7 0 8 -8q0 -6 -13 -13l-299 -131l-2 4l291 144q8 4 15 4zM424 1026q53 0 88 36t35 89t-35 90t-88 37t-88 -37t-35 -90t35 -89t88 -36zM424 1016q-59 0 -97 39t-38 96t38 97t97 40t97 -40t38 -97t-38 -96t-97 -39zM352 -2q193 0 340 195v198q-154 63 -293 63
t-220 -66q-81 -67 -81 -164q0 -98 64 -162t190 -64zM352 -12q-130 0 -198 66t-68 169q0 102 85 172t226 70t295 -62v156q0 119 -45 178q-70 92 -225 92q-98 -1 -169 -39t-93 -81q22 -6 22 -28t-21 -22t-21 35t81 90q82 55 201 56q166 0 237 -99q45 -61 46 -180v-551h169v-10
h-182v176q-145 -188 -340 -188z" />
    <glyph glyph-name="AEacute" unicode="&#x1fc;" horiz-adv-x="1699" 
d="M1211 1626q7 0 8 -8q0 -6 -13 -12l-299 -131l-2 4l291 143q8 4 15 4zM844 547v790h-8l-428 -790h436zM-74 0v10h178l719 1327h-205v11h949v-306h-13v295h-698v-643h524v-10h-524v-674h698v295h13v-305h-949v10h226v527h-443l-284 -527h194v-10h-385z" />
    <glyph glyph-name="aeacute" unicode="&#x1fd;" horiz-adv-x="1513" 
d="M988 1155q7 0 7 -7t-12 -13l-299 -131l-2 4l291 143q8 4 15 4zM1076 829q-158 0 -260 -107q-101 -108 -111 -276h706q-2 162 -89 272q-88 110 -246 111zM98 224q0 -98 64 -162t184 -64q119 0 219 62t164 157q-33 82 -37 174q-154 63 -293 63t-220 -66q-81 -67 -81 -164z
M161 659q-21 0 -21 35t81 90q82 55 201 56q166 0 237 -99q45 -61 46 -180v-37q29 140 128 228t232 88q176 0 267 -115t91 -283v-6h-718v-16q-1 -198 107 -310t275 -112t291 92v-12q-127 -90 -282 -90q-260 0 -363 217q-66 -93 -166 -155t-223 -62q-122 0 -190 66t-68 169
q0 102 85 172t226 70t295 -62v156q0 119 -45 178q-70 92 -225 92q-98 -1 -168 -39t-94 -81q22 -6 22 -28t-21 -22z" />
    <glyph glyph-name="Oslashacute" unicode="&#x1fe;" horiz-adv-x="1560" 
d="M1014 1626q8 0 8 -7t-12 -13l-299 -131l-2 4l290 143q7 4 15 4zM780 1364q-283 0 -472 -200t-189 -496q0 -295 205 -500l886 1034q-182 162 -430 162zM792 -16q272 0 460 200q190 200 190 503q0 302 -223 509l-889 -1034q190 -178 462 -178zM1454 689q0 -308 -194 -512
t-472 -204t-464 181l-172 -201l-9 6l172 201q-209 209 -209 508q0 298 194 502t480 204q252 0 439 -164l161 189l9 -6l-162 -189q227 -207 227 -515z" />
    <glyph glyph-name="oslashacute" unicode="&#x1ff;" horiz-adv-x="1003" 
d="M736 1155q7 0 7 -7t-12 -13l-299 -131l-2 4l291 143q8 4 15 4zM494 829q-162 -1 -277 -121t-115 -300t121 -297l539 622q-106 96 -268 96zM507 -2q165 0 279 121t115 303q0 182 -131 303l-539 -623q111 -104 276 -104zM913 422q-1 -186 -119 -310t-288 -124t-283 106
l-106 -125l-8 8l106 125q-125 122 -125 306t119 308t285 124t276 -99l121 142l8 -9l-121 -141q135 -125 135 -311z" />
    <glyph glyph-name="Scommaaccent" unicode="&#x218;" horiz-adv-x="1017" 
d="M504 -131q29 0 28 -49q1 -90 -79 -176l-7 6q74 86 74 172q-14 -8 -25 1t-11 27t20 19zM507 -27q-175 0 -287 82t-111 178q0 39 21 39t22 -24q0 -29 -31 -29q11 -90 117 -163q106 -72 273 -72t277 90t109 237q0 147 -110 234t-225 130q-114 43 -165 69q-159 79 -209 179
q-31 62 -30 140q0 133 106 222t263 89t257 -75t101 -169q0 -39 -23 -38q-20 0 -20 24q0 29 30 29q-8 87 -105 153t-243 66t-250 -86t-104 -227t123 -229q63 -44 110 -68t129 -56t140 -62q152 -79 207 -187q31 -63 30 -144q1 -145 -113 -239t-289 -93z" />
    <glyph glyph-name="scommaaccent" unicode="&#x219;" horiz-adv-x="784" 
d="M369 -154q0 23 20 23q29 0 29 -49q0 -90 -80 -176l-6 6q74 86 74 172q-14 -8 -26 1q-11 9 -11 23zM670 682q0 -31 -22 -31t-21 24q0 24 28 25q-6 20 -26 45q-76 84 -236 84q-115 0 -189 -56t-73 -141q0 -85 66 -125t211 -76t215 -83q69 -47 69 -141q0 -95 -83 -157
t-203 -62t-197 40q-76 40 -107 95q-16 29 -16 55t22 25q22 0 21 -24q0 -24 -27 -25q16 -56 94 -106t202 -50q122 0 202 58t80 153t-83 142q-64 38 -206 73q-141 35 -207 78t-66 130t79 147q78 60 196 61q172 0 248 -92q29 -35 29 -66z" />
    <glyph glyph-name="schwa" unicode="&#x259;" horiz-adv-x="925" 
d="M444 -2q158 0 265 108q106 109 114 275h-721q2 -163 92 -273q92 -110 250 -110zM836 416q0 -190 -112 -309t-278 -119q-167 0 -262 115q-94 116 -94 282v6h733v17q1 194 -111 308t-283 114t-294 -91v13q125 88 297 88t288 -117t116 -307z" />
    <glyph glyph-name="circumflex" unicode="&#x2c6;" horiz-adv-x="1024" 
d="M274 989l-4 4l242 193l242 -193l-4 -4l-238 178z" />
    <glyph glyph-name="caron" unicode="&#x2c7;" horiz-adv-x="1024" 
d="M750 1186l4 -4l-242 -193l-242 193l4 4l238 -178z" />
    <glyph glyph-name="breve" unicode="&#x2d8;" horiz-adv-x="1024" 
d="M512 999q-80 1 -143 55t-95 140l7 2q33 -82 92 -132t139 -50t139 50t92 132l7 -2q-30 -86 -94 -140t-144 -55z" />
    <glyph glyph-name="dotaccent" unicode="&#x2d9;" horiz-adv-x="1024" 
d="M512 1042q-25 0 -25 25t25 25t25 -25t-25 -25z" />
    <glyph glyph-name="ring" unicode="&#x2da;" horiz-adv-x="1024" 
d="M512 1026q53 0 88 36t35 89t-35 90t-88 37t-88 -37t-35 -90t35 -89t88 -36zM512 1016q-59 0 -97 39t-38 96t38 97t97 40t97 -40t38 -97t-38 -96t-97 -39z" />
    <glyph glyph-name="ogonek" unicode="&#x2db;" horiz-adv-x="1024" 
d="M481 -412q-78 0 -124 46t-46 118q0 154 170 254l15 -2q-80 -47 -126 -113q-46 -67 -46 -137t44 -112t118 -43q74 0 132 47v-13q-59 -45 -137 -45z" />
    <glyph glyph-name="tilde" unicode="&#x2dc;" horiz-adv-x="1024" 
d="M649 1030q-53 0 -142 63t-134 62q-86 0 -137 -133l-9 4q55 139 148 139q51 0 140 -62t136 -63q86 0 133 121l9 -4q-52 -127 -144 -127z" />
    <glyph glyph-name="hungarumlaut" unicode="&#x2dd;" horiz-adv-x="1024" 
d="M878 1163q8 0 9 -7q0 -7 -13 -13l-288 -152l-2 4l278 164q8 4 16 4zM571 1163q8 0 9 -8q0 -6 -13 -12l-288 -152l-3 4l279 164q8 4 16 4z" />
    <glyph glyph-name="commaaccent" unicode="&#x326;" horiz-adv-x="436" 
d="M164 -154q0 23 20 23q29 0 29 -49q0 -90 -80 -176l-6 6q74 86 74 172q-14 -8 -26 1q-11 9 -11 23z" />
    <glyph glyph-name="Wgrave" unicode="&#x1e80;" horiz-adv-x="1953" 
d="M1051 1454l-299 131q-12 6 -13 12q0 8 9 9q6 0 14 -4l291 -144zM-10 1337v11h463v-11h-246l395 -1343l371 1159h8l371 -1159l395 1343h-246v11h463v-11h-205l-403 -1366h-8l-371 1157l-371 -1157h-8l-403 1366h-205z" />
    <glyph glyph-name="wgrave" unicode="&#x1e81;" horiz-adv-x="1306" 
d="M414 1127q0 7 8 8q6 0 14 -5l291 -143l-2 -4l-299 131q-12 6 -12 13zM-8 817v10h346v-10h-191l226 -827l276 735h8l277 -735l225 827h-190v10h346v-10h-144l-231 -842h-12l-275 730l-274 -730h-12l-232 842h-143z" />
    <glyph glyph-name="Wacute" unicode="&#x1e82;" horiz-adv-x="1953" 
d="M1215 1606q7 0 7 -8t-12 -13l-299 -131l-2 4l291 144q8 4 15 4zM-10 1337v11h463v-11h-246l395 -1343l371 1159h8l371 -1159l395 1343h-246v11h463v-11h-205l-403 -1366h-8l-371 1157l-371 -1157h-8l-403 1366h-205z" />
    <glyph glyph-name="wacute" unicode="&#x1e83;" horiz-adv-x="1306" 
d="M901 1128q0 -8 -12 -14l-299 -131l-2 4l291 143q8 4 14 5q8 1 8 -7zM-8 817v10h346v-10h-191l226 -827l276 735h8l277 -735l225 827h-190v10h346v-10h-144l-231 -842h-12l-275 730l-274 -730h-12l-232 842h-143z" />
    <glyph glyph-name="Wdieresis" unicode="&#x1e84;" horiz-adv-x="1953" 
d="M879 1493q-25 0 -25 25t25 24q25 0 24 -24q1 -25 -24 -25zM1083 1493q-25 0 -24 25q0 25 24 24q25 0 25 -24t-25 -25zM-10 1337v11h463v-11h-246l395 -1343l371 1159h8l371 -1159l395 1343h-246v11h463v-11h-205l-403 -1366h-8l-371 1157l-371 -1157h-8l-403 1366h-205z
" />
    <glyph glyph-name="wdieresis" unicode="&#x1e85;" horiz-adv-x="1306" 
d="M553 1022q-25 0 -25 25t25 25t25 -26q0 -24 -25 -24zM758 1022q-25 0 -25 25t25 24q25 0 24 -24q1 -25 -24 -25zM-8 817v10h346v-10h-191l226 -827l276 735h8l277 -735l225 827h-190v10h346v-10h-144l-231 -842h-12l-275 730l-274 -730h-12l-232 842h-143z" />
    <glyph glyph-name="Ygrave" unicode="&#x1ef2;" horiz-adv-x="1269" 
d="M400 1626q7 0 16 -4l291 -143l-2 -4l-299 131q-12 6 -12 13t6 7zM403 0v10h226v574l-424 753h-205v11h463v-11h-244l416 -743l416 743h-244v11h463v-11h-205l-424 -753v-574h225v-10h-463z" />
    <glyph glyph-name="ygrave" unicode="&#x1ef3;" horiz-adv-x="942" 
d="M238 1155q8 0 16 -4l291 -143l-2 -4l-299 131q-12 6 -12 13q-2 7 6 7zM94 -342q14 0 20 -15t-8 -30q16 -12 48 -12q92 0 159 92q49 68 117 229l37 90l-330 805h-143v10h346v-10h-190l323 -790l324 790h-191v10h346v-10h-143l-367 -893q-66 -161 -128 -247t-160 -87
q-35 0 -58 14q-22 14 -22 34t20 20z" />
    <glyph glyph-name="enspace" unicode="&#x2002;" horiz-adv-x="1024" 
 />
    <glyph glyph-name="emspace" unicode="&#x2003;" horiz-adv-x="2048" 
 />
    <glyph glyph-name="threeperemspace" unicode="&#x2004;" horiz-adv-x="681" 
 />
    <glyph glyph-name="fourperemspace" unicode="&#x2005;" horiz-adv-x="512" 
 />
    <glyph glyph-name="figurespace" unicode="&#x2007;" horiz-adv-x="1085" 
 />
    <glyph glyph-name="thinspace" unicode="&#x2009;" horiz-adv-x="272" 
 />
    <glyph glyph-name="hairspace" unicode="&#x200a;" horiz-adv-x="153" 
 />
    <glyph glyph-name="endash" unicode="&#x2013;" horiz-adv-x="794" 
d="M49 541v12h696v-12h-696z" />
    <glyph glyph-name="emdash" unicode="&#x2014;" horiz-adv-x="1296" 
d="M49 541v12h1198v-12h-1198z" />
    <glyph glyph-name="quoteleft" unicode="&#x2018;" horiz-adv-x="229" 
d="M119 1149q-29 0 -29 49q0 90 80 176l6 -6q-74 -86 -74 -172q14 8 26 -1t11 -24q0 -22 -20 -22z" />
    <glyph glyph-name="quoteright" unicode="&#x2019;" horiz-adv-x="229" 
d="M90 1337q0 23 21 23q29 0 28 -49q0 -90 -80 -176l-6 6q74 86 74 172q-14 -8 -26 1q-11 9 -11 23z" />
    <glyph glyph-name="quotesinglbase" unicode="&#x201a;" horiz-adv-x="233" 
d="M90 12q0 23 21 23q29 0 28 -49q0 -90 -80 -176l-6 6q74 86 74 172q-14 -8 -26 1q-11 9 -11 23z" />
    <glyph glyph-name="quotedblleft" unicode="&#x201c;" horiz-adv-x="372" 
d="M119 1149q-29 0 -29 49q0 90 80 176l6 -6q-74 -86 -74 -172q14 8 26 -1t11 -24q0 -22 -20 -22zM262 1149q-29 0 -29 49q0 90 80 176l6 -6q-74 -86 -73 -172q14 8 25 -1t12 -24q-1 -22 -21 -22z" />
    <glyph glyph-name="quotedblright" unicode="&#x201d;" horiz-adv-x="372" 
d="M90 1337q0 23 21 23q29 0 28 -49q0 -90 -80 -176l-6 6q74 86 74 172q-14 -8 -26 1q-11 9 -11 23zM254 1360q29 0 29 -49q0 -90 -80 -176l-6 6q74 86 73 172q-14 -8 -25 1q-11 10 -11 28t20 18z" />
    <glyph glyph-name="quotedblbase" unicode="&#x201e;" horiz-adv-x="376" 
d="M90 12q0 23 21 23q29 0 28 -49q0 -90 -80 -176l-6 6q74 86 74 172q-14 -8 -26 1q-11 9 -11 23zM254 35q29 0 29 -49q0 -90 -80 -176l-6 6q74 86 73 172q-14 -8 -25 1t-11 27t20 19z" />
    <glyph glyph-name="dagger" unicode="&#x2020;" horiz-adv-x="761" 
d="M51 866q0 24 27 25q6 0 18 -2l279 -45l-4 434q0 10 10 10t10 -10l-4 -434l279 45q12 2 18 2q27 0 27 -25t-25 -24q-25 0 -22 32l-275 -40l-4 -838h-8l-4 838l-275 40q4 -33 -22 -32q-25 0 -25 24z" />
    <glyph glyph-name="daggerdbl" unicode="&#x2021;" horiz-adv-x="761" 
d="M381 -252q-10 0 -10 10l4 373l-269 -45q-12 -2 -18 -2q-27 0 -27 25t25 24q25 0 23 -33l264 41l4 377l-4 377l-264 41q2 -33 -23 -33t-25 25t27 24q6 0 18 -2l269 -45l-4 373q0 10 10 10t10 -10l-4 -373l268 45q12 2 19 2q27 0 26 -24q0 -25 -24 -25t-23 33l-264 -41
l-4 -377l4 -377l264 -41q-2 33 23 33t24 -24q0 -25 -26 -25q-6 0 -19 2l-268 45l4 -373q0 -10 -10 -10z" />
    <glyph glyph-name="bullet" unicode="&#x2022;" horiz-adv-x="438" 
d="M219 418q-55 0 -94 39t-39 94t39 94t94 39t94 -39t39 -94t-39 -94t-94 -39z" />
    <glyph glyph-name="ellipsis" unicode="&#x2026;" horiz-adv-x="765" 
d="M117 -16q-25 0 -25 24t25 25q25 0 24 -25q1 -24 -24 -24zM383 -16q-25 0 -25 24t25 25q25 -1 25 -25t-25 -24zM649 -16q-25 0 -25 24t26 25q24 -1 24 -25t-25 -24z" />
    <glyph glyph-name="perthousand" unicode="&#x2030;" horiz-adv-x="1662" 
d="M1337 12q83 0 141 62t58 149t-57 149t-141 62t-141 -61q-56 -61 -56 -149t56 -150t140 -62zM1337 2q-88 0 -148 65q-61 65 -61 157t60 156t149 64q88 0 150 -64q61 -65 61 -157q0 -93 -62 -157t-149 -64zM846 12q84 0 141 62t57 149t-57 149t-141 62t-140 -61t-56 -149
t56 -150t140 -62zM846 2q-88 0 -149 65q-60 65 -60 157t60 156q61 64 149 64t149 -64t61 -157t-60 -157q-62 -64 -150 -64zM326 594q84 0 140 61t56 149t-56 150t-140 62t-142 -62t-57 -149q0 -86 57 -149q58 -62 142 -62zM193 -20l-11 6l779 1018l10 -7zM326 584
q-88 0 -150 64q-61 65 -61 157t61 157q62 64 150 64t148 -64t60 -157t-60 -157t-148 -64z" />
    <glyph glyph-name="guilsinglleft" unicode="&#x2039;" horiz-adv-x="487" 
d="M389 223l-342 318l342 317l8 -8l-334 -309l334 -310z" />
    <glyph glyph-name="guilsinglright" unicode="&#x203a;" horiz-adv-x="487" 
d="M98 223l-8 8l334 310l-334 309l8 8l342 -317z" />
    <glyph glyph-name="fraction" unicode="&#x2044;" horiz-adv-x="942" 
d="M78 -18l-10 4l813 1335l10 -4z" />
    <glyph glyph-name="zero.sup" unicode="&#x2070;" 
d="M360 883q113 0 187 103t74 270q0 168 -74 270t-186 102q-111 0 -185 -103t-74 -271t72 -269q72 -102 186 -102zM360 872q-118 0 -194 106t-76 277t78 277t194 106t194 -105q77 -105 77 -277t-78 -278t-195 -106z" />
    <glyph glyph-name="four.sup" unicode="&#x2074;" 
d="M334 883v10h149v219h-397l-4 4l418 512l10 -6l-410 -500h383v252l13 4v-256h149v-10h-149v-219h129v-10h-291z" />
    <glyph glyph-name="five.sup" unicode="&#x2075;" 
d="M375 1319q109 0 177 -57q68 -58 66 -160q0 -102 -76 -168t-178 -66t-174 41t-71 92q1 25 23 25t22 -20t-27 -27q17 -41 79 -71t134 -29q111 0 184 62q72 63 72 161t-64 152q-65 54 -171 54t-197 -44l-10 4l43 356h368v-10h-360l-39 -338q90 43 199 43z" />
    <glyph glyph-name="six.sup" unicode="&#x2076;" 
d="M129 1104q-1 -94 65 -160t172 -65t177 67q72 66 71 160q0 94 -66 157q-67 62 -170 62t-176 -63q-73 -64 -73 -158zM590 1531q0 -26 -25 -26q-20 1 -20 21t26 24q-10 14 -18 25q-53 53 -145 53q-121 0 -205 -112t-84 -324v-59q10 74 63 127q76 76 191 76t185 -66t69 -164
q0 -98 -75 -168q-74 -70 -186 -70t-186 74t-74 272t88 311q88 114 214 113q100 0 155 -55q27 -26 27 -52z" />
    <glyph glyph-name="seven.sup" unicode="&#x2077;" 
d="M133 1614v-139h-12v149h508l2 -4l-359 -737h-12l356 731h-483z" />
    <glyph glyph-name="eight.sup" unicode="&#x2078;" 
d="M360 881q109 0 180 51q70 51 70 137t-72 140q-74 55 -178 55t-176 -54t-72 -141q0 -86 70 -137q69 -51 178 -51zM359 1624q-97 0 -163 -47t-65 -127t67 -129t161 -49t164 49t69 128t-68 127t-165 48zM360 870q-116 0 -188 54t-72 140q0 85 58 139t147 65q-80 10 -133 59
t-53 128t69 129q70 50 172 50t174 -50t70 -129q0 -79 -54 -128t-134 -59q90 -10 148 -66t58 -139q0 -85 -73 -139q-74 -54 -189 -54z" />
    <glyph glyph-name="nine.sup" unicode="&#x2079;" 
d="M594 1402q0 94 -66 160t-170 66q-106 0 -178 -66t-72 -161q0 -94 67 -157q67 -62 170 -62t176 63t73 157zM316 879q120 -1 204 111t84 325v55q-14 -74 -63 -123q-76 -76 -191 -76q-114 0 -184 66t-70 164t75 168q75 69 187 69t185 -74t73 -270q0 -198 -88 -312t-200 -114
t-168 56q-27 26 -27 52t25 25q20 0 20 -20t-26 -25q44 -77 164 -77z" />
    <glyph glyph-name="zero.inf" unicode="&#x2080;" 
d="M360 -285q113 -1 187 103t74 271t-74 269t-186 102q-111 0 -185 -102q-74 -104 -74 -271t72 -269t186 -103zM360 -295q-118 -1 -194 105t-76 278t78 278t194 105q116 0 194 -105q77 -106 77 -278t-78 -278t-195 -105z" />
    <glyph glyph-name="one.inf" unicode="&#x2081;" 
d="M156 -285v11h219v723l-219 -60l-2 10l225 62h8v-735h215v-11h-446z" />
    <glyph glyph-name="two.inf" unicode="&#x2082;" 
d="M598 286q0 73 -59 124t-153 51t-158 -43t-74 -96q26 -6 26 -28t-20 -24q-23 0 -23 31q0 59 69 115t173 55q103 0 167 -54t64 -131t-54 -134t-173 -129q-203 -123 -252 -297h473v155h12v-166h-491l-6 9q45 180 256 307q115 70 169 126t54 129z" />
    <glyph glyph-name="three.inf" unicode="&#x2083;" 
d="M380 -297q-104 0 -183 44q-78 44 -78 106q0 23 20 22q23 0 23 -20t-25 -27q14 -49 84 -82t162 -33q92 -1 162 55q69 56 69 141t-75 135q-76 50 -205 52h-37v10h37q110 0 184 54t74 130q0 75 -60 122t-150 47t-150 -34t-74 -79q25 -6 24 -27q0 -20 -21 -20t-22 23
q0 55 70 101t168 46t163 -49q64 -49 64 -124t-60 -129t-149 -65q113 -12 172 -63t59 -135t-70 -142q-72 -58 -176 -59z" />
    <glyph glyph-name="four.inf" unicode="&#x2084;" 
d="M334 -285v11h149v219h-397l-4 4l418 512l10 -6l-410 -500h383v252l13 4v-256h149v-10h-149v-219h129v-11h-291z" />
    <glyph glyph-name="five.inf" unicode="&#x2085;" 
d="M375 152q109 0 177 -58t66 -160q0 -102 -76 -168t-178 -65q-102 0 -174 41t-71 92q1 25 23 25q22 -1 22 -21t-27 -26q17 -41 79 -71t154 -30q92 1 164 63q73 62 72 160q0 98 -64 153q-65 54 -171 54t-197 -45l-10 4l43 357h368v-11h-360l-39 -337q90 43 199 43z" />
    <glyph glyph-name="six.inf" unicode="&#x2086;" 
d="M129 -63q-1 -94 65 -160t172 -66t177 67q72 67 71 161q0 94 -66 156q-67 63 -170 63t-176 -64t-73 -157zM590 363q0 -26 -25 -25q-20 0 -20 20t26 25q-10 14 -18 25q-53 53 -145 53q-121 0 -205 -112t-84 -324v-58q10 72 63 125q76 76 191 76t185 -66t69 -164
q0 -98 -75 -167q-74 -70 -186 -70t-186 74q-74 73 -74 271t88 312t202 113q112 0 167 -55q27 -27 27 -53z" />
    <glyph glyph-name="seven.inf" unicode="&#x2087;" 
d="M133 446v-139h-12v150h508l2 -4l-359 -738h-12l356 731h-483z" />
    <glyph glyph-name="eight.inf" unicode="&#x2088;" 
d="M360 -287q109 0 180 51q70 52 70 138t-72 140q-74 54 -178 54t-176 -54t-72 -140t70 -138q69 -52 178 -51zM359 457q-97 0 -163 -47t-65 -127q1 -79 67 -129t161 -50t164 50t69 128q0 79 -68 127t-165 48zM360 -297q-116 0 -188 54q-72 53 -72 139t58 140t147 64
q-80 10 -133 60t-53 128q0 79 69 129q70 50 172 50t174 -50t70 -129q0 -79 -54 -128t-134 -60q90 -10 148 -65t58 -139t-73 -138q-74 -54 -189 -55z" />
    <glyph glyph-name="nine.inf" unicode="&#x2089;" 
d="M594 236q0 94 -66 160t-170 65q-106 0 -178 -67t-72 -161t68 -156q66 -63 169 -63t176 64t73 158zM316 -289q120 0 204 112t84 324v56q-14 -74 -63 -123q-76 -76 -191 -76q-114 0 -184 66t-70 164t75 167q75 70 187 70t185 -74q73 -73 73 -271t-88 -312t-200 -113
q-112 0 -168 55q-27 27 -27 53t25 25q20 0 20 -20t-26 -25q44 -78 164 -78z" />
    <glyph glyph-name="Euro" unicode="&#x20ac;" horiz-adv-x="1069" 
d="M51 627v10h139q41 169 165 277q123 108 279 109t254 -81t99 -174q0 -41 -21 -41t-22 25q0 10 9 19t22 9q-7 88 -101 161t-242 72t-270 -105q-121 -104 -159 -271h469v-10h-471q-26 -134 -2 -242h473v-10h-471q35 -170 156 -276q121 -105 305 -105t315 131l6 -8
q-133 -133 -321 -133t-313 108q-124 108 -161 283h-137v10h135q-10 61 -10 121t12 121h-137z" />
    <glyph glyph-name="published" unicode="&#x2117;" horiz-adv-x="1142" 
d="M626 449q68 0 117 44q49 43 49 115t-52 115t-132 43h-100v-311q50 -6 118 -6zM608 776q86 0 142 -46t55 -122q1 -76 -53 -123t-124 -47t-120 6v-198h92v-10h-194v10h90v520h-90v10h202zM571 -16q221 0 368 153q146 154 146 376t-146 376q-145 153 -367 153t-368 -154
t-146 -375t146 -375t367 -154zM571 -27q-227 0 -377 156t-149 383q0 227 150 384q151 157 377 157t376 -157t150 -384t-150 -383t-377 -156z" />
    <glyph glyph-name="servicemark" unicode="&#x2120;" horiz-adv-x="1013" 
d="M175 829q-71 0 -113 29t-42 62t19 32q20 0 20 -20t-22 -27q31 -66 139 -65q66 0 107 34t41 84q0 90 -136 142q-42 16 -70 30t-52 44t-23 74q0 44 41 77t99 33q57 0 97 -28t40 -58t-20 -31q-19 -1 -19 19t22 26q-27 61 -117 62q-55 0 -93 -31t-38 -78t38 -76t102 -53
q141 -53 141 -152q0 -57 -45 -93t-116 -36zM387 846v10h74l16 481h-71v11h88l196 -424l197 424h88v-11h-72l17 -481h73v-10h-166v10h80l-14 477l-197 -424h-12l-197 424l-14 -477h80v-10h-166z" />
    <glyph glyph-name="trademark" unicode="&#x2122;" horiz-adv-x="1122" 
d="M150 846v10h75v481h-192v-102h-13v113h422v-113h-12v102h-192v-481h75v-10h-163zM496 846v10h73l17 481h-72v11h88l197 -424l196 424h88v-11h-71l16 -481h74v-10h-166v10h80l-15 477l-196 -424h-12l-197 424l-14 -477h80v-10h-166z" />
    <glyph glyph-name="onethird" unicode="&#x2153;" horiz-adv-x="1628" 
d="M432 -18l-10 4l813 1335l10 -4zM1532 186q0 -84 -72 -142t-176 -58t-182 44t-78 105q0 23 22 23t21 -20q0 -20 -25 -27q14 -49 84 -82t162 -33t162 55t70 140t-76 135t-205 53h-37v10h37q109 0 183 54t75 129q0 75 -60 122q-59 47 -149 47q-90 1 -150 -33t-75 -79
q25 -6 24 -27q0 -20 -21 -20t-22 22q0 56 70 102t168 46t163 -50t65 -124t-61 -128q-60 -54 -149 -65q112 -12 172 -63q60 -52 60 -136zM145 575v11h220v723l-220 -60l-2 11l226 61h8v-735h215v-11h-447z" />
    <glyph glyph-name="twothirds" unicode="&#x2154;" horiz-adv-x="1628" 
d="M1544 186q0 -84 -72 -142t-176 -58t-182 44t-78 105q0 23 22 23t21 -23q0 -18 -24 -24q14 -49 84 -82q69 -33 161 -33t162 55t70 140t-76 135t-205 53h-37v10h37q109 0 184 54t75 129t-61 122q-59 47 -149 47q-90 1 -150 -33t-75 -79q25 -7 25 -27t-22 -20t-21 22
q0 55 69 102q70 46 168 46t163 -50t65 -124t-60 -128t-149 -65q113 -12 172 -63q59 -52 59 -136zM465 -18l-10 4l813 1335l10 -4zM604 1146q0 73 -59 124t-153 51t-158 -43t-74 -96q26 -6 26 -28t-20 -24q-23 0 -23 31q0 59 69 115t173 55q103 0 167 -54t64 -131t-54 -134
t-173 -129q-203 -123 -252 -297h473v155h13v-166h-492l-6 9q45 180 256 307q115 70 169 126t54 129z" />
    <glyph glyph-name="onefifth" unicode="&#x2155;" horiz-adv-x="1628" 
d="M1284 434q108 0 176 -57t68 -159t-76 -168t-178 -66t-174 41t-72 92q0 25 23 24q23 0 22 -20q0 -20 -26 -27q16 -40 78 -70t154 -30q93 0 165 62t72 160t-65 154q-65 54 -171 54t-197 -45l-10 4l43 356h369v-10h-361l-39 -338q90 43 199 43zM426 -18l-10 4l813 1335
l10 -4zM139 575v11h219v723l-219 -60l-2 11l225 61h9v-735h215v-11h-447z" />
    <glyph glyph-name="twofifths" unicode="&#x2156;" horiz-adv-x="1628" 
d="M1296 -16q-102 0 -174 41t-71 92q0 25 22 24q23 0 23 -20t-27 -27q17 -40 79 -70t154 -30t164 62t72 160t-64 154q-66 54 -172 54t-196 -45l-10 4l43 356h368v-10h-360l-39 -338q90 43 198 43t177 -57q67 -57 67 -159t-75 -169q-77 -65 -179 -65zM459 -18l-10 4l813 1335
l10 -4zM608 1146q0 73 -59 124t-153 51t-158 -43q-63 -43 -74 -96q26 -6 26 -28t-20 -24q-23 0 -23 31q0 59 69 115t173 55q103 0 167 -54t64 -131t-54 -134t-173 -129q-203 -123 -252 -297h473v155h13v-166h-492l-6 9q45 180 256 307q115 70 169 126t54 129z" />
    <glyph glyph-name="threefifths" unicode="&#x2157;" horiz-adv-x="1628" 
d="M1286 434q108 0 176 -57t68 -159t-76 -168t-178 -66t-174 41t-72 92q0 25 23 24q23 0 22 -20q0 -20 -26 -27q16 -40 78 -70t154 -30q93 0 165 62t72 160t-65 154q-65 54 -171 54t-197 -45l-10 4l43 356h369v-10h-361l-39 -338q90 43 199 43zM428 -18l-10 4l813 1335
l10 -4zM384 563q-104 0 -183 44q-78 44 -78 106q0 23 20 22q23 0 23 -20t-25 -27q14 -49 84 -82t162 -33q92 -1 162 55q69 56 69 141t-75 135q-76 50 -205 52h-37v11h37q110 0 184 54t74 129t-60 122t-150 47t-149 -34q-60 -34 -75 -79q24 -6 24 -26t-22 -21q-20 0 -21 23
q0 55 70 101t168 46t163 -49q64 -49 64 -124t-60 -129t-149 -64q113 -11 172 -63t59 -136t-70 -142q-72 -58 -176 -59z" />
    <glyph glyph-name="fourfifths" unicode="&#x2158;" horiz-adv-x="1628" 
d="M1290 434q108 0 176 -57t68 -159t-76 -168t-178 -66t-174 41t-72 92q0 25 23 24q23 0 22 -20q0 -20 -26 -27q17 -40 79 -70t154 -30t164 62t72 160t-65 154q-65 54 -171 54t-196 -45l-11 4l43 356h369v-10h-361l-38 -338q90 43 198 43zM461 -18l-10 4l813 1335l10 -4z
M342 575v11h150v219h-398l-4 4l418 512l10 -6l-409 -500h383v252l12 4v-256h149v-10h-149v-219h129v-11h-291z" />
    <glyph glyph-name="onesixth" unicode="&#x2159;" horiz-adv-x="1628" 
d="M135 575v11h219v723l-219 -60l-2 11l225 61h9v-735h215v-11h-447zM422 -18l-10 4l813 1335l10 -4zM1036 220q0 -94 66 -160t170 -66q106 0 178 66t72 161t-67 157t-170 62t-176 -63t-73 -157zM1497 646q0 -26 -24 -25q-20 0 -21 20q0 20 27 25q-8 14 -19 24
q-53 53 -145 53q-121 1 -205 -111t-84 -325v-59q10 74 64 127q76 76 190 76t184 -66t70 -164t-75 -168q-75 -69 -187 -69t-185 74t-73 270q0 198 88 312t200 114t168 -56q27 -26 27 -52z" />
    <glyph glyph-name="fivesixths" unicode="&#x215a;" horiz-adv-x="1628" 
d="M426 -18l-10 4l813 1335l10 -4zM366 561q-102 0 -174 41t-71 92q1 25 23 25q22 -1 22 -21t-27 -26q17 -41 79 -71t154 -30q92 1 164 63t72 160t-64 153q-65 54 -171 54t-197 -45l-10 5l43 356h369v-10h-361l-39 -338q90 43 199 43t177 -58t67 -159q0 -102 -76 -168
q-77 -66 -179 -66zM1030 220q0 -94 66 -160t170 -66q106 0 178 66t72 161t-67 157t-170 62t-176 -63t-73 -157zM1303 743q-115 1 -199 -111t-84 -325v-59q10 74 63 127q76 76 191 76q114 0 184 -66t70 -164t-75 -168q-75 -69 -187 -69t-185 74t-73 270q0 198 88 312t200 114
t168 -56q27 -26 27 -52t-25 -25q-20 0 -20 20t27 25q-55 77 -170 77z" />
    <glyph glyph-name="oneeighth" unicode="&#x215b;" horiz-adv-x="1628" 
d="M1282 -4q110 0 180 51t70 137t-73 140t-177 55q-104 0 -176 -54q-72 -55 -72 -141t70 -137t178 -51zM1281 387q95 0 164 49t69 128t-68 127t-165 48t-163 -47t-66 -127t68 -129q66 -49 161 -49zM1282 -14q-116 0 -188 54t-72 139t57 139t148 65q-80 10 -133 59
q-54 49 -54 128t70 129q70 51 172 51t173 -50t71 -130q0 -79 -54 -128t-135 -59q91 -9 149 -65t58 -140t-74 -138t-188 -54zM430 -18l-10 4l813 1335l10 -4zM154 575v11h219v723l-219 -60l-2 11l225 61h8v-735h215v-11h-446z" />
    <glyph glyph-name="threeeighths" unicode="&#x215c;" horiz-adv-x="1628" 
d="M1292 -4q110 0 180 51t70 137t-73 140t-177 55q-104 0 -176 -54q-72 -55 -72 -141t70 -137t178 -51zM1291 387q95 0 164 49t69 128t-68 127t-165 48t-163 -47t-66 -127t68 -129q66 -49 161 -49zM1292 -14q-116 0 -188 54t-72 139t58 139t147 65q-80 10 -133 59t-53 128
t69 129q70 51 172 51t173 -50t71 -130q0 -79 -54 -128t-134 -59q90 -9 148 -65t58 -140t-74 -138t-188 -54zM426 -18l-10 4l813 1335l10 -4zM376 563q-104 0 -183 44q-78 44 -78 106q0 23 20 22q23 0 23 -20t-25 -27q14 -49 84 -82t162 -33q92 -1 162 55q69 56 69 141
t-75 135q-76 50 -205 52h-37v11h37q110 0 184 54t74 129t-60 122t-150 47t-150 -34t-74 -79q24 -6 24 -26t-22 -21q-20 0 -21 23q0 55 70 101t168 46t163 -49q64 -49 64 -124t-60 -129t-149 -64q113 -11 172 -63t59 -136t-70 -142q-72 -58 -176 -59z" />
    <glyph glyph-name="fiveeighths" unicode="&#x215d;" horiz-adv-x="1628" 
d="M1282 -4q110 0 180 51t70 137t-73 140t-177 55q-104 0 -176 -54q-72 -55 -72 -141t70 -137t178 -51zM1281 387q95 0 164 49t69 128t-68 127t-165 48t-163 -47t-66 -127t68 -129q66 -49 161 -49zM1282 -14q-116 0 -188 54t-72 139t57 139t148 65q-80 10 -133 59
q-54 49 -54 128t70 129q70 51 172 51t173 -50t71 -130q0 -79 -54 -128t-135 -59q91 -9 149 -65t58 -140t-74 -138t-188 -54zM420 -18l-10 4l813 1335l10 -4zM376 561q-102 0 -174 41t-71 92q0 25 23 25t22 -21q0 -20 -26 -26q16 -41 78 -71t154 -30q92 1 164 63t72 160
t-64 153q-65 54 -171 54t-197 -45l-10 5l43 356h369v-10h-361l-39 -338q90 43 199 43t177 -58t67 -159q0 -102 -76 -168q-77 -66 -179 -66z" />
    <glyph glyph-name="seveneighths" unicode="&#x215e;" horiz-adv-x="1628" 
d="M1243 -4q109 0 179 51t71 137q0 86 -73 140t-177 55q-104 0 -176 -54q-72 -55 -72 -141q-1 -86 69 -137t179 -51zM1242 387q95 0 164 49t69 128t-68 127t-165 48t-163 -47q-65 -47 -65 -127t66 -129t162 -49zM1243 -14q-115 0 -187 54t-73 139q0 85 57 139t148 65
q-80 10 -133 59t-53 128t69 129q70 51 172 51t173 -50t71 -130q0 -79 -54 -128t-135 -59q90 -9 148 -65t59 -140t-73 -138t-189 -54zM330 -18l-11 4l404 659l410 676l10 -4zM160 1307v-140h-13v150h508l2 -4l-358 -738h-12l356 732h-483z" />
    <glyph glyph-name="minus" unicode="&#x2212;" horiz-adv-x="745" 
d="M90 528v11h565v-11h-565z" />
    <glyph glyph-name="Q.alt" horiz-adv-x="1560" 
d="M780 -16q154 0 285 63l-203 322l10 6l203 -324q168 86 267 252t100 371q0 290 -190 490t-472 200q-283 0 -472 -201t-189 -489t189 -490q189 -200 472 -200zM780 -27q-286 0 -480 204t-194 497q0 292 194 496t480 204t481 -204q194 -204 193 -496q0 -207 -101 -376
t-272 -255l142 -221l-11 -6l-141 223q-135 -66 -291 -66z" />
    <glyph glyph-name="a.sc" horiz-adv-x="1187" 
d="M594 1001l-232 -591h463zM367 1012h454v-11h-215l387 -991h195v-10h-447v10h240l-152 389h-471l-151 -389h239v-10h-446v10h195l387 991h-215v11z" />
    <glyph glyph-name="b.sc" horiz-adv-x="1005" 
d="M563 0h-514v10h215v991h-215v11h522q147 0 223 -72t76 -170t-63 -168t-180 -82q121 -10 195 -77t75 -185q0 -118 -91 -188t-243 -70zM276 526h293q141 0 215 69t74 169t-73 169t-214 68h-295v-475zM276 10h287q145 0 234 68q88 68 88 188t-89 185q-89 66 -235 65h-285
v-506z" />
    <glyph glyph-name="c.sc" horiz-adv-x="1110" 
d="M622 -14q-226 0 -371 148t-145 368t146 372t360 152q156 0 267 -80t110 -174q0 -39 -21 -39t-22 23q0 31 31 28q-11 88 -115 160t-250 72q-211 0 -352 -148t-141 -364t139 -362q140 -146 364 -146t365 162l8 -8q-147 -164 -373 -164z" />
    <glyph glyph-name="d.sc" horiz-adv-x="1163" 
d="M483 0h-434v10h215v991h-215v11h434q266 0 424 -135t158 -365t-155 -370q-155 -142 -427 -142zM276 10h207q266 0 418 138t152 364t-155 357q-155 132 -415 132h-207v-991z" />
    <glyph glyph-name="e.sc" horiz-adv-x="954" 
d="M831 0h-782v10h215v991h-215v11h782v-238h-12v227h-543v-479h410v-10h-410v-502h543v228h12v-238z" />
    <glyph glyph-name="f.sc" horiz-adv-x="909" 
d="M502 0h-453v10h215v991h-215v11h776v-238h-12v227h-537v-489h388v-10h-388v-492h226v-10z" />
    <glyph glyph-name="g.sc" horiz-adv-x="1157" 
d="M608 1016q-211 0 -354 -148t-143 -364t139 -362t360 -146t377 166v274h-334v10h346v-446h-12v147q-158 -161 -379 -161t-365 148q-145 148 -145 368t146 372t364 152q164 0 275 -76t110 -155q0 -39 -21 -39t-22 22q0 12 8 22t23 7q-13 77 -117 143t-256 66z" />
    <glyph glyph-name="h.sc" horiz-adv-x="1284" 
d="M49 0v10h215v991h-215v11h447v-11h-220v-485h732v485h-220v11h447v-11h-215v-991h215v-10h-447v10h220v496h-732v-496h220v-10h-447z" />
    <glyph glyph-name="i.sc" horiz-adv-x="552" 
d="M504 0h-455v10h221v991h-221v11h455v-11h-221v-991h221v-10z" />
    <glyph glyph-name="j.sc" horiz-adv-x="892" 
d="M368 -4q114 0 197 85q84 85 84 292v628h-219v11h426v-11h-194v-628q0 -213 -88 -300t-208 -87t-202 72t-82 171q0 45 24 45q18 0 19 -22q0 -31 -31 -31q4 -93 82 -159t192 -66z" />
    <glyph glyph-name="k.sc" horiz-adv-x="1079" 
d="M1079 10v-10h-217l-397 555l-189 -193v-352h220v-10h-447v10h215v991h-215v11h447v-11h-220v-622l611 622h-232v11h406v-11h-158l-430 -438l395 -553h211z" />
    <glyph glyph-name="l.sc" horiz-adv-x="880" 
d="M801 10v228h12v-238h-764v10h215v991h-215v11h453v-11h-226v-991h525z" />
    <glyph glyph-name="m.sc" horiz-adv-x="1413" 
d="M1327 1012v-11h-190l39 -991h176v-10h-394v10h205l-39 983l-413 -850h-9l-413 850l-39 -983h205v-10h-394v10h177l38 991h-190v11h207l414 -850l413 850h207z" />
    <glyph glyph-name="n.sc" horiz-adv-x="1271" 
d="M1008 1001h-220v11h447v-11h-215v-1007h-10l-734 995v-979h220v-10h-447v10h215v991h-215v11h225l734 -996v985z" />
    <glyph glyph-name="o.sc" horiz-adv-x="1214" 
d="M111 506q0 -218 139 -364t357 -146t358 146q139 146 139 364t-139 363q-139 147 -357 147t-358 -146q-139 -146 -139 -364zM606 1026q223 0 367 -149q143 -150 143 -371t-143 -371q-143 -149 -367 -149t-365 150q-142 150 -143 370q0 220 142 370t366 150z" />
    <glyph glyph-name="p.sc" horiz-adv-x="911" 
d="M502 426q146 0 232 79q87 79 87 208t-92 209t-248 79h-205v-569q80 -6 226 -6zM49 1012h432q160 0 256 -83q97 -83 97 -216t-90 -215t-265 -82q-123 0 -203 6v-412h220v-10h-447v10h215v991h-215v11z" />
    <glyph glyph-name="q.sc" horiz-adv-x="1214" 
d="M617 -4q208 0 348 146q139 146 139 364t-139 363q-139 147 -357 147t-358 -146q-139 -146 -139 -374q0 -226 161 -375q137 -125 345 -125zM1062 -207q-62 0 -114 23q-52 24 -114 64t-112 65t-177 43q-170 23 -283 127q-164 147 -164 379t142 383q142 149 366 149
q223 0 367 -149q143 -150 143 -370t-141 -370t-361 -151q70 -10 118 -34t110 -64q128 -84 201 -85q73 0 135 37l6 -8q-60 -39 -122 -39z" />
    <glyph glyph-name="q.sc_alt" horiz-adv-x="1214" 
d="M1104 506q0 217 -139 363q-139 147 -357 147t-358 -146q-139 -146 -139 -364t139 -364t356 -146q96 0 185 33l-146 237l10 6l146 -239q139 57 221 184t82 289zM1116 506q0 -166 -83 -295t-226 -188l113 -181l-11 -6l-112 182q-92 -33 -191 -32q-223 0 -365 150t-143 370
q0 221 142 371q142 149 366 149q223 0 367 -149q143 -150 143 -371z" />
    <glyph glyph-name="r.sc" horiz-adv-x="1003" 
d="M276 10h220v-10h-447v10h215v991h-215v11h443q158 0 250 -75t92 -195t-74 -194t-203 -89l277 -449h170v-10h-179l-280 457q-29 -4 -93 -4t-176 4v-447zM492 1001h-216v-534q111 -4 199 -4q158 0 252 74q94 73 94 197q-1 124 -89 196t-240 71z" />
    <glyph glyph-name="s.sc" horiz-adv-x="851" 
d="M686 842q0 10 8 19t21 9q-10 58 -87 102t-195 44t-201 -66t-82 -164q0 -124 133 -195q47 -26 77 -37t90 -34q132 -49 201 -97q99 -69 99 -183q0 -115 -92 -185q-92 -69 -236 -69q-143 0 -232 53q-88 53 -88 113q0 39 23 38q20 0 20 -24q0 -10 -8 -20t-20 -9
q12 -55 94 -98t215 -43t222 68t89 176q0 109 -87 169t-185 94q-97 34 -135 52t-91 51q-102 65 -102 174q0 110 86 178t213 68t210 -51t83 -119q1 -39 -21 -39t-22 25z" />
    <glyph glyph-name="t.sc" horiz-adv-x="987" 
d="M266 0v10h221v991h-387v-227h-12v238h811v-238h-12v227h-387v-991h221v-10h-455z" />
    <glyph glyph-name="u.sc" horiz-adv-x="1210" 
d="M258 1001v-639q0 -178 89 -272t258 -94t258 93t89 273v639h-219v11h447v-11h-215v-639q-1 -184 -93 -280t-267 -96t-267 96t-92 280v639h-215v11h446v-11h-219z" />
    <glyph glyph-name="v.sc" horiz-adv-x="1171" 
d="M0 1001v11h449v-11h-240l377 -1011l377 1011h-240v11h448v-11h-196l-383 -1026h-12l-383 1026h-197z" />
    <glyph glyph-name="w.sc" horiz-adv-x="1650" 
d="M0 1001v11h449v-11h-240l315 -1011l297 876h8l297 -876l316 1011h-240v11h449v-11h-197l-321 -1026h-13l-295 871l-295 -871h-12l-321 1026h-197z" />
    <glyph glyph-name="x.sc" horiz-adv-x="1105" 
d="M1096 10v-10h-387v10h194l-362 502l-361 -502h195v-10h-387v10h178l366 510l-346 481h-172v11h392v-11h-205l340 -473l340 473h-205v11h391v-11h-172l-346 -481l369 -510h178z" />
    <glyph glyph-name="y.sc" horiz-adv-x="1114" 
d="M1114 1012v-11h-188l-363 -616v-375h221v-10h-454v10h221v375l-363 616h-188v11h432v-11h-229l354 -604l354 604h-229v11h432z" />
    <glyph glyph-name="z.sc" horiz-adv-x="915" 
d="M86 0v6l731 995h-698v-227h-13v238h728v-6l-732 -996h723v228h13v-238h-752z" />
    <glyph glyph-name="aacute.sc" horiz-adv-x="1187" 
d="M838 1319q8 0 8 -7t-12 -14l-299 -131l-3 4l291 144q7 4 15 4zM594 1001l-232 -591h463zM367 1012h454v-11h-215l387 -991h195v-10h-447v10h240l-152 389h-471l-151 -389h239v-10h-446v10h195l387 991h-215v11z" />
    <glyph glyph-name="abreve.sc" horiz-adv-x="1187" 
d="M604 1163q-80 1 -143 55t-94 140l6 2q33 -82 92 -132t139 -50t139 50t93 132l6 -2q-30 -86 -94 -140t-144 -55zM594 1001l-232 -591h463zM367 1012h454v-11h-215l387 -991h195v-10h-447v10h240l-152 389h-471l-151 -389h239v-10h-446v10h195l387 991h-215v11z" />
    <glyph glyph-name="acircumflex.sc" horiz-adv-x="1187" 
d="M367 1153l-5 4l242 193l242 -193l-4 -4l-238 178zM594 1001l-232 -591h463zM367 1012h454v-11h-215l387 -991h195v-10h-447v10h240l-152 389h-471l-151 -389h239v-10h-446v10h195l387 991h-215v11z" />
    <glyph glyph-name="adieresis.sc" horiz-adv-x="1187" 
d="M502 1206q-25 0 -25 25t25 24q25 0 24 -24q1 -25 -24 -25zM707 1206q-25 0 -25 25t25 24q25 0 24 -24q1 -25 -24 -25zM594 1001l-232 -591h463zM367 1012h454v-11h-215l387 -991h195v-10h-447v10h240l-152 389h-471l-151 -389h239v-10h-446v10h195l387 991h-215v11z" />
    <glyph glyph-name="ae.sc" horiz-adv-x="1390" 
d="M700 410v591h-8l-338 -591h346zM485 0v10h215v389h-352l-221 -389h195v-10h-383v10h176l565 991h-215v11h803v-238h-13v227h-542v-479h409v-10h-409v-502h542v228h13v-238h-783z" />
    <glyph glyph-name="aeacute.sc" horiz-adv-x="1390" 
d="M1025 1319q7 0 7 -7t-12 -14l-299 -131l-2 4l291 144q8 4 15 4zM700 410v591h-8l-338 -591h346zM485 0v10h215v389h-352l-221 -389h195v-10h-383v10h176l565 991h-215v11h803v-238h-13v227h-542v-479h409v-10h-409v-502h542v228h13v-238h-783z" />
    <glyph glyph-name="agrave.sc" horiz-adv-x="1187" 
d="M370 1319q8 0 15 -4l291 -144l-2 -4l-299 131q-13 6 -13 14t8 7zM594 1001l-232 -591h463zM367 1012h454v-11h-215l387 -991h195v-10h-447v10h240l-152 389h-471l-151 -389h239v-10h-446v10h195l387 991h-215v11z" />
    <glyph glyph-name="amacron.sc" horiz-adv-x="1187" 
d="M348 1227v12h512v-12h-512zM594 1001l-232 -591h463zM367 1012h454v-11h-215l387 -991h195v-10h-447v10h240l-152 389h-471l-151 -389h239v-10h-446v10h195l387 991h-215v11z" />
    <glyph glyph-name="aogonek.sc" horiz-adv-x="1167" 
d="M573 1001l-231 -591h463zM963 -412q-78 0 -124 46t-46 118q0 147 159 248h-231v10h240l-152 389h-471l-152 -389h240v-10h-446v10h194l387 991h-215v11h455v-11h-215l387 -991h194v-10h-198q-164 -102 -164 -248q0 -68 44 -110t119 -43q75 0 132 47v-13q-59 -45 -137 -45
z" />
    <glyph glyph-name="aring.sc" horiz-adv-x="1187" 
d="M594 1012q53 0 88 36t35 89t-35 90t-88 37t-88 -37t-35 -90t35 -89t88 -36zM594 1001l-232 -591h463zM446 0h-446v10h195l387 991h-215v11h174q-82 33 -82 125q0 57 38 97t97 40t97 -40t38 -97q0 -96 -84 -125h176v-11h-215l387 -991h195v-10h-447v10h240l-152 389h-471
l-151 -389h239v-10z" />
    <glyph glyph-name="aringacute.sc" horiz-adv-x="1167" 
d="M818 1546q7 0 7 -7t-12 -13l-299 -131l-2 4l291 143q8 4 15 4zM594 1012q53 0 88 36t35 89t-35 90t-88 37t-88 -37t-35 -90t35 -89t88 -36zM594 1001l-232 -591h463zM446 0h-446v10h195l387 991h-215v11h174q-82 33 -82 125q0 57 38 97t97 40t97 -40t38 -97
q0 -96 -84 -125h176v-11h-215l387 -991h195v-10h-447v10h240l-152 389h-471l-151 -389h239v-10z" />
    <glyph glyph-name="atilde.sc" horiz-adv-x="1187" 
d="M745 1194q-53 0 -142 62t-134 63q-86 0 -137 -133l-8 4q55 139 147 139q51 0 140 -62t137 -63q86 0 133 121l8 -4q-52 -127 -144 -127zM594 1001l-232 -591h463zM367 1012h454v-11h-215l387 -991h195v-10h-447v10h240l-152 389h-471l-151 -389h239v-10h-446v10h195
l387 991h-215v11z" />
    <glyph glyph-name="cacute.sc" horiz-adv-x="1110" 
d="M832 1319q7 0 8 -8q0 -6 -13 -13l-299 -131l-2 4l291 144q8 4 15 4zM622 -14q-226 0 -371 148t-145 368t146 372t360 152q156 0 267 -80t110 -174q0 -39 -21 -39t-22 23q0 31 31 28q-11 88 -115 160t-250 72q-211 0 -352 -148t-141 -364t139 -362q140 -146 364 -146
t365 162l8 -8q-147 -164 -373 -164z" />
    <glyph glyph-name="ccaron.sc" horiz-adv-x="1110" 
d="M836 1350l4 -4l-242 -193l-242 193l4 4l238 -179zM622 -14q-226 0 -371 148t-145 368t146 372t360 152q156 0 267 -80t110 -174q0 -39 -21 -39t-22 23q0 31 31 28q-11 88 -115 160t-250 72q-211 0 -352 -148t-141 -364t139 -362q140 -146 364 -146t365 162l8 -8
q-147 -164 -373 -164z" />
    <glyph glyph-name="ccedilla.sc" horiz-adv-x="1110" 
d="M766 -277q0 -61 -43 -97t-131 -36t-176 39l2 11q88 -39 176 -39q160 0 160 123q0 111 -183 120h-10l-4 4l27 138q-209 14 -343 159q-135 145 -135 361t146 368t360 152q156 0 267 -80t110 -174q0 -39 -21 -39t-22 23q0 31 31 28q-11 88 -115 160t-250 72
q-211 0 -352 -148t-141 -364t139 -362t363 -146t366 162l8 -8q-147 -164 -381 -164h-20l-23 -131q87 -4 141 -38t54 -94z" />
    <glyph glyph-name="cdotaccent.sc" horiz-adv-x="1110" 
d="M598 1206q-25 0 -25 25t25 25t25 -26q0 -24 -25 -24zM622 -14q-226 0 -371 148t-145 368t146 372t360 152q156 0 267 -80t110 -174q0 -39 -21 -39t-22 23q0 31 31 28q-11 88 -115 160t-250 72q-211 0 -352 -148t-141 -364t139 -362q140 -146 364 -146t365 162l8 -8
q-147 -164 -373 -164z" />
    <glyph glyph-name="dcaron.sc" horiz-adv-x="1163" 
d="M776 1350l4 -4l-241 -193l-242 193l4 4l238 -179zM483 0h-434v10h215v991h-215v11h434q266 0 424 -135t158 -365t-155 -370q-155 -142 -427 -142zM276 10h207q266 0 418 138t152 364t-155 357q-155 132 -415 132h-207v-991z" />
    <glyph glyph-name="dcroat.sc" horiz-adv-x="1169" 
d="M283 10h206q266 0 418 138t152 364t-155 357q-155 132 -415 132h-206v-481h247v-10h-247v-500zM489 0h-434v10h215v500h-174v10h174v481h-215v11h434q266 0 424 -135t158 -365t-155 -370q-155 -142 -427 -142z" />
    <glyph glyph-name="eacute.sc" horiz-adv-x="954" 
d="M718 1319q8 0 7 -7q0 -7 -12 -14l-299 -131l-2 4l290 144q8 4 16 4zM831 0h-782v10h215v991h-215v11h782v-238h-12v227h-543v-479h410v-10h-410v-502h543v228h12v-238z" />
    <glyph glyph-name="ebreve.sc" horiz-adv-x="954" 
d="M483 1163q-80 1 -143 55t-94 140l6 2q33 -82 92 -132t139 -50t140 50q59 50 92 132l6 -2q-31 -86 -95 -140t-143 -55zM831 0h-782v10h215v991h-215v11h782v-238h-12v227h-543v-479h410v-10h-410v-502h543v228h12v-238z" />
    <glyph glyph-name="ecaron.sc" horiz-adv-x="954" 
d="M721 1350l4 -4l-242 -193l-241 193l4 4l237 -179zM831 0h-782v10h215v991h-215v11h782v-238h-12v227h-543v-479h410v-10h-410v-502h543v228h12v-238z" />
    <glyph glyph-name="ecircumflex.sc" horiz-adv-x="954" 
d="M246 1153l-4 4l241 193l242 -193l-4 -4l-238 178zM831 0h-782v10h215v991h-215v11h782v-238h-12v227h-543v-479h410v-10h-410v-502h543v228h12v-238z" />
    <glyph glyph-name="edieresis.sc" horiz-adv-x="954" 
d="M381 1206q-25 0 -25 25t25 25t25 -26q0 -24 -25 -24zM586 1206q-25 0 -25 25t25 24q25 0 24 -24q1 -25 -24 -25zM831 0h-782v10h215v991h-215v11h782v-238h-12v227h-543v-479h410v-10h-410v-502h543v228h12v-238z" />
    <glyph glyph-name="edotaccent.sc" horiz-adv-x="954" 
d="M483 1206q-25 0 -24 25q0 25 24 24q25 -1 25 -25t-25 -24zM831 0h-782v10h215v991h-215v11h782v-238h-12v227h-543v-479h410v-10h-410v-502h543v228h12v-238z" />
    <glyph glyph-name="egrave.sc" horiz-adv-x="954" 
d="M242 1312q0 8 7 7q7 0 15 -4l291 -144l-2 -4l-299 131q-12 6 -12 14zM831 0h-782v10h215v991h-215v11h782v-238h-12v227h-543v-479h410v-10h-410v-502h543v228h12v-238z" />
    <glyph glyph-name="emacron.sc" horiz-adv-x="954" 
d="M227 1227v12h512v-12h-512zM831 0h-782v10h215v991h-215v11h782v-238h-12v227h-543v-479h410v-10h-410v-502h543v228h12v-238z" />
    <glyph glyph-name="eogonek.sc" horiz-adv-x="960" 
d="M701 -412q-78 0 -124 46t-47 118q0 147 160 248h-635v10h215v991h-215v11h783v-238h-13v227h-542v-479h409v-10h-409v-502h542v228h13v-238h-131q-164 -100 -164 -248q0 -68 44 -110t119 -43q75 0 132 47v-13q-59 -45 -137 -45z" />
    <glyph glyph-name="eth.sc" horiz-adv-x="1169" 
d="M283 10h206q266 0 418 138t152 364t-155 357q-155 132 -415 132h-206v-481h247v-10h-247v-500zM489 0h-434v10h215v500h-174v10h174v481h-215v11h434q266 0 424 -135t158 -365t-155 -370q-155 -142 -427 -142z" />
    <glyph glyph-name="gbreve.sc" horiz-adv-x="1157" 
d="M602 1163q-80 1 -143 55t-94 140l6 2q33 -82 92 -132t139 -50t139 50t93 132l6 -2q-30 -86 -94 -140t-144 -55zM608 1016q-211 0 -354 -148t-143 -364t139 -362t360 -146t377 166v274h-334v10h346v-446h-12v147q-158 -161 -379 -161t-365 148q-145 148 -145 368t146 372
t364 152q164 0 275 -76t110 -155q0 -39 -21 -39t-22 22q0 12 8 22t23 7q-13 77 -117 143t-256 66z" />
    <glyph glyph-name="gcommaaccent.sc" horiz-adv-x="1157" 
d="M582 -154q0 23 20 23q29 0 29 -49q0 -90 -80 -176l-6 6q74 86 73 172q-14 -8 -25 1t-11 23zM608 1016q-211 0 -354 -148t-143 -364t139 -362t360 -146t377 166v274h-334v10h346v-446h-12v147q-158 -161 -379 -161t-365 148q-145 148 -145 368t146 372t364 152
q164 0 275 -76t110 -155q0 -39 -21 -39t-22 22q0 12 8 22t23 7q-13 77 -117 143t-256 66z" />
    <glyph glyph-name="gdotaccent.sc" horiz-adv-x="1157" 
d="M602 1206q-25 0 -24 25q0 25 24 24q25 -1 25 -25t-25 -24zM608 1016q-211 0 -354 -148t-143 -364t139 -362t360 -146t377 166v274h-334v10h346v-446h-12v147q-158 -161 -379 -161t-365 148q-145 148 -145 368t146 372t364 152q164 0 275 -76t110 -155q0 -39 -21 -39
t-22 22q0 12 8 22t23 7q-13 77 -117 143t-256 66z" />
    <glyph glyph-name="hbar.sc" horiz-adv-x="1296" 
d="M283 516h731v238h-731v-238zM1200 764v-10h-174v-744h215v-10h-446v10h219v496h-731v-496h219v-10h-447v10h215v744h-174v10h174v237h-215v11h447v-11h-219v-237h731v237h-219v11h446v-11h-215v-237h174z" />
    <glyph glyph-name="iacute.sc" horiz-adv-x="552" 
d="M513 1319q7 0 7 -7t-12 -14l-299 -131l-2 4l291 144q8 4 15 4zM504 0h-455v10h221v991h-221v11h455v-11h-221v-991h221v-10z" />
    <glyph glyph-name="ibreve.sc" horiz-adv-x="552" 
d="M279 1163q-79 1 -143 55t-95 140l6 2q33 -82 92 -132t139 -50t140 50q59 50 92 132l6 -2q-31 -86 -94 -140t-143 -55zM504 0h-455v10h221v991h-221v11h455v-11h-221v-991h221v-10z" />
    <glyph glyph-name="icircumflex.sc" horiz-adv-x="552" 
d="M41 1153l-4 4l242 193l241 -193l-4 -4l-237 178zM504 0h-455v10h221v991h-221v11h455v-11h-221v-991h221v-10z" />
    <glyph glyph-name="idieresis.sc" horiz-adv-x="552" 
d="M176 1206q-25 0 -24 25q0 25 24 24q25 -1 25 -25t-25 -24zM381 1206q-25 0 -25 25t25 25t25 -26q0 -24 -25 -24zM504 0h-455v10h221v991h-221v11h455v-11h-221v-991h221v-10z" />
    <glyph glyph-name="idotaccent.sc" horiz-adv-x="552" 
d="M279 1206q-25 0 -25 25t25 24q25 0 24 -24q1 -25 -24 -25zM504 0h-455v10h221v991h-221v11h455v-11h-221v-991h221v-10z" />
    <glyph glyph-name="dotlessi.sc" horiz-adv-x="565" 
d="M510 0h-455v10h221v991h-221v11h455v-11h-221v-991h221v-10z" />
    <glyph glyph-name="igrave.sc" horiz-adv-x="552" 
d="M37 1312q0 8 7 7q7 0 15 -4l291 -144l-2 -4l-299 131q-12 6 -12 14zM504 0h-455v10h221v991h-221v11h455v-11h-221v-991h221v-10z" />
    <glyph glyph-name="imacron.sc" horiz-adv-x="552" 
d="M23 1227v12h512v-12h-512zM504 0h-455v10h221v991h-221v11h455v-11h-221v-991h221v-10z" />
    <glyph glyph-name="iogonek.sc" horiz-adv-x="565" 
d="M281 -412q-78 0 -124 46t-46 118q0 147 159 248h-215v10h221v991h-221v11h455v-11h-221v-991h221v-10h-223q-164 -100 -164 -248q0 -68 44 -110t119 -43q75 0 132 47v-13q-59 -45 -137 -45z" />
    <glyph glyph-name="kcommaaccent.sc" horiz-adv-x="1079" 
d="M555 -154q0 23 20 23q29 0 29 -49q0 -90 -80 -176l-6 6q74 86 74 172q-14 -8 -26 1q-11 9 -11 23zM1079 10v-10h-217l-397 555l-189 -193v-352h220v-10h-447v10h215v991h-215v11h447v-11h-220v-622l611 622h-232v11h406v-11h-158l-430 -438l395 -553h211z" />
    <glyph glyph-name="lacute.sc" horiz-adv-x="886" 
d="M536 1319q8 0 7 -7q0 -7 -13 -14l-299 -131l-2 4l291 144q8 4 16 4zM807 10v228h12v-238h-764v10h215v991h-215v11h453v-11h-225v-991h524z" />
    <glyph glyph-name="lcaron.sc" horiz-adv-x="886" 
d="M621 913l-5 86q0 12 11 13q10 0 10 -17q2 -135 -35 -260l-4 2q23 82 23 176zM807 10v228h12v-238h-764v10h215v991h-215v11h453v-11h-225v-991h524z" />
    <glyph glyph-name="lcommaaccent.sc" horiz-adv-x="880" 
d="M424 -154q0 23 20 23q29 0 29 -49q0 -90 -80 -176l-6 6q74 86 74 172q-14 -8 -26 1q-11 9 -11 23zM801 10v228h12v-238h-764v10h215v991h-215v11h453v-11h-226v-991h525z" />
    <glyph glyph-name="ldot.sc" horiz-adv-x="886" 
d="M721 510q-25 0 -25 25t25 24q25 0 24 -24q1 -25 -24 -25zM807 10v228h12v-238h-764v10h215v991h-215v11h453v-11h-225v-991h524z" />
    <glyph glyph-name="lslash.sc" horiz-adv-x="886" 
d="M807 10v228h12v-238h-764v10h215v463l-225 -127l-6 8l231 131v516h-215v11h453v-11h-225v-509l352 198l6 -8l-358 -203v-469h524z" />
    <glyph glyph-name="nacute.sc" horiz-adv-x="1271" 
d="M869 1319q7 0 8 -8q0 -6 -13 -13l-299 -131l-2 4l291 144q8 4 15 4zM1008 1001h-220v11h447v-11h-215v-1007h-10l-734 995v-979h220v-10h-447v10h215v991h-215v11h225l734 -996v985z" />
    <glyph glyph-name="ncaron.sc" horiz-adv-x="1271" 
d="M872 1350l5 -4l-242 -193l-242 193l4 4l238 -179zM1008 1001h-220v11h447v-11h-215v-1007h-10l-734 995v-979h220v-10h-447v10h215v991h-215v11h225l734 -996v985z" />
    <glyph glyph-name="ncommaaccent.sc" horiz-adv-x="1271" 
d="M635 -131q29 0 29 -49q0 -90 -80 -176l-6 6q74 86 73 172q-14 -8 -25 1q-12 9 -12 27t21 19zM1008 1001h-220v11h447v-11h-215v-1007h-10l-734 995v-979h220v-10h-447v10h215v991h-215v11h225l734 -996v985z" />
    <glyph glyph-name="ntilde.sc" horiz-adv-x="1271" 
d="M776 1194q-53 0 -142 62t-134 63q-86 0 -138 -133l-8 4q55 139 148 139q51 0 140 -62t136 -63q86 0 133 121l9 -4q-52 -127 -144 -127zM1008 1001h-220v11h447v-11h-215v-1007h-10l-734 995v-979h220v-10h-447v10h215v991h-215v11h225l734 -996v985z" />
    <glyph glyph-name="oacute.sc" horiz-adv-x="1214" 
d="M840 1319q8 0 8 -7t-12 -14l-299 -131l-2 4l290 144q7 4 15 4zM111 506q0 -218 139 -364t357 -146t358 146q139 146 139 364t-139 363q-139 147 -357 147t-358 -146q-139 -146 -139 -364zM606 1026q223 0 367 -149q143 -150 143 -371t-143 -371q-143 -149 -367 -149
t-365 150q-142 150 -143 370q0 220 142 370t366 150z" />
    <glyph glyph-name="obreve.sc" horiz-adv-x="1214" 
d="M606 1163q-80 1 -143 55t-94 140l6 2q33 -82 92 -132t139 -50t139 50t93 132l6 -2q-30 -86 -94 -140t-144 -55zM111 506q0 -218 139 -364t357 -146t358 146q139 146 139 364t-139 363q-139 147 -357 147t-358 -146q-139 -146 -139 -364zM606 1026q223 0 367 -149
q143 -150 143 -371t-143 -371q-143 -149 -367 -149t-365 150q-142 150 -143 370q0 220 142 370t366 150z" />
    <glyph glyph-name="ocircumflex.sc" horiz-adv-x="1214" 
d="M369 1153l-4 4l241 193l242 -193l-4 -4l-238 178zM111 506q0 -218 139 -364t357 -146t358 146q139 146 139 364t-139 363q-139 147 -357 147t-358 -146q-139 -146 -139 -364zM606 1026q223 0 367 -149q143 -150 143 -371t-143 -371q-143 -149 -367 -149t-365 150
q-142 150 -143 370q0 220 142 370t366 150z" />
    <glyph glyph-name="odieresis.sc" horiz-adv-x="1214" 
d="M504 1206q-25 0 -25 25t25 24q25 0 24 -24q1 -25 -24 -25zM709 1206q-25 0 -25 25t25 24q25 0 24 -24q1 -25 -24 -25zM111 506q0 -218 139 -364t357 -146t358 146q139 146 139 364t-139 363q-139 147 -357 147t-358 -146q-139 -146 -139 -364zM606 1026q223 0 367 -149
q143 -150 143 -371t-143 -371q-143 -149 -367 -149t-365 150q-142 150 -143 370q0 220 142 370t366 150z" />
    <glyph glyph-name="oe.sc" horiz-adv-x="1574" 
d="M791 1012h661v-238h-12v227h-543v-479h410v-10h-410v-502h543v228h12v-238h-661q-266 0 -424 135t-158 365t155 370q155 142 427 142zM885 10v991h-94q-266 0 -418 -138t-152 -363q0 -226 155 -358t415 -132h94z" />
    <glyph glyph-name="ograve.sc" horiz-adv-x="1214" 
d="M365 1312q0 8 7 7q7 0 15 -4l291 -144l-2 -4l-299 131q-12 6 -12 14zM111 506q0 -218 139 -364t357 -146t358 146q139 146 139 364t-139 363q-139 147 -357 147t-358 -146q-139 -146 -139 -364zM606 1026q223 0 367 -149q143 -150 143 -371t-143 -371
q-143 -149 -367 -149t-365 150q-142 150 -143 370q0 220 142 370t366 150z" />
    <glyph glyph-name="ohungarumlaut.sc" horiz-adv-x="1214" 
d="M1006 1327q8 0 8 -7t-13 -13l-288 -152l-2 4l278 164q9 4 17 4zM698 1327q8 0 9 -8q0 -6 -13 -12l-288 -152l-3 4l279 164q8 4 16 4zM111 506q0 -218 139 -364t357 -146t358 146q139 146 139 364t-139 363q-139 147 -357 147t-358 -146q-139 -146 -139 -364zM606 1026
q223 0 367 -149q143 -150 143 -371t-143 -371q-143 -149 -367 -149t-365 150q-142 150 -143 370q0 220 142 370t366 150z" />
    <glyph glyph-name="omacron.sc" horiz-adv-x="1214" 
d="M350 1227v12h512v-12h-512zM111 506q0 -218 139 -364t357 -146t358 146q139 146 139 364t-139 363q-139 147 -357 147t-358 -146q-139 -146 -139 -364zM606 1026q223 0 367 -149q143 -150 143 -371t-143 -371q-143 -149 -367 -149t-365 150q-142 150 -143 370
q0 220 142 370t366 150z" />
    <glyph glyph-name="oslash.sc" horiz-adv-x="1214" 
d="M594 1016q-205 0 -344 -146t-139 -370q0 -223 153 -373l670 770q-135 119 -340 119zM616 -4q209 0 349 146q139 146 139 372t-162 375l-670 -768q135 -125 344 -125zM615 -14q-214 0 -351 127l-121 -138l-8 7l121 137q-158 147 -158 377t142 381q142 149 353 149
q210 0 347 -119l119 133l8 -6l-117 -135q166 -154 166 -384t-143 -380q-144 -149 -358 -149z" />
    <glyph glyph-name="oslashacute.sc" horiz-adv-x="1214" 
d="M840 1319q8 0 8 -7t-12 -14l-299 -131l-2 4l290 144q7 4 15 4zM594 1016q-205 0 -344 -146t-139 -370q0 -223 153 -373l670 770q-135 119 -340 119zM616 -4q209 0 349 146q139 146 139 372t-162 375l-670 -768q135 -125 344 -125zM615 -14q-214 0 -351 127l-121 -138
l-8 7l121 137q-158 147 -158 377t142 381q142 149 353 149q210 0 347 -119l119 133l8 -6l-117 -135q166 -154 166 -384t-143 -380q-144 -149 -358 -149z" />
    <glyph glyph-name="otilde.sc" horiz-adv-x="1214" 
d="M748 1194q-52 0 -142 62t-135 63q-86 0 -137 -133l-8 4q55 139 147 139q51 0 141 -62t136 -63q86 0 133 121l8 -4q-51 -127 -143 -127zM111 506q0 -218 139 -364t357 -146t358 146q139 146 139 364t-139 363q-139 147 -357 147t-358 -146q-139 -146 -139 -364zM606 1026
q223 0 367 -149q143 -150 143 -371t-143 -371q-143 -149 -367 -149t-365 150q-142 150 -143 370q0 220 142 370t366 150z" />
    <glyph glyph-name="racute.sc" horiz-adv-x="1003" 
d="M718 1319q8 0 7 -7q0 -7 -12 -14l-299 -131l-2 4l290 144q8 4 16 4zM276 10h220v-10h-447v10h215v991h-215v11h443q158 0 250 -75t92 -195t-74 -194t-203 -89l277 -449h170v-10h-179l-280 457q-29 -4 -93 -4t-176 4v-447zM492 1001h-216v-534q111 -4 199 -4q158 0 252 74
q94 73 94 197q-1 124 -89 196t-240 71z" />
    <glyph glyph-name="rcaron.sc" horiz-adv-x="1003" 
d="M721 1350l4 -4l-242 -193l-241 193l4 4l237 -179zM276 10h220v-10h-447v10h215v991h-215v11h443q158 0 250 -75t92 -195t-74 -194t-203 -89l277 -449h170v-10h-179l-280 457q-29 -4 -93 -4t-176 4v-447zM492 1001h-216v-534q111 -4 199 -4q158 0 252 74q94 73 94 197
q-1 124 -89 196t-240 71z" />
    <glyph glyph-name="rcommaaccent.sc" horiz-adv-x="1009" 
d="M500 -154q0 23 20 23q29 0 29 -49q0 -90 -80 -176l-6 6q74 86 74 172q-14 -8 -26 1q-11 9 -11 23zM283 10h219v-10h-447v10h215v991h-215v11h443q158 0 250 -75t92 -195t-74 -194t-203 -89l277 -449h170v-10h-179l-280 457q-29 -4 -93 -4t-175 4v-447zM498 1001h-215
v-534q111 -4 198 -4q158 0 252 74q94 73 94 197q-1 124 -89 196t-240 71z" />
    <glyph glyph-name="sacute.sc" horiz-adv-x="851" 
d="M683 1319q7 0 7 -7t-12 -14l-299 -131l-2 4l291 144q8 4 15 4zM686 842q0 10 8 19t21 9q-10 58 -87 102t-195 44t-201 -66t-82 -164q0 -124 133 -195q47 -26 77 -37t90 -34q132 -49 201 -97q99 -69 99 -183q0 -115 -92 -185q-92 -69 -236 -69q-143 0 -232 53
q-88 53 -88 113q0 39 23 38q20 0 20 -24q0 -10 -8 -20t-20 -9q12 -55 94 -98t215 -43t222 68t89 176q0 109 -87 169t-185 94q-97 34 -135 52t-91 51q-102 65 -102 174q0 110 86 178t213 68t210 -51t83 -119q1 -39 -21 -39t-22 25z" />
    <glyph glyph-name="scaron.sc" horiz-adv-x="851" 
d="M686 1350l4 -4l-241 -193l-242 193l4 4l238 -179zM686 842q0 10 8 19t21 9q-10 58 -87 102t-195 44t-201 -66t-82 -164q0 -124 133 -195q47 -26 77 -37t90 -34q132 -49 201 -97q99 -69 99 -183q0 -115 -92 -185q-92 -69 -236 -69q-143 0 -232 53q-88 53 -88 113
q0 39 23 38q20 0 20 -24q0 -10 -8 -20t-20 -9q12 -55 94 -98t215 -43t222 68t89 176q0 109 -87 169t-185 94q-97 34 -135 52t-91 51q-102 65 -102 174q0 110 86 178t213 68t210 -51t83 -119q1 -39 -21 -39t-22 25z" />
    <glyph glyph-name="scedilla.sc" horiz-adv-x="851" 
d="M575 -277q0 -61 -43 -97t-131 -36t-176 39l2 11q88 -39 176 -39q160 0 160 123q0 111 -182 120h-10l-4 4l24 138q-129 8 -209 58t-80 108q0 39 23 38q20 0 20 -24q0 -10 -8 -20t-20 -9q12 -55 94 -98t215 -43t222 68t89 176q0 109 -87 169t-185 94q-97 34 -135 52t-91 51
q-102 65 -102 174q0 110 86 178t213 68t210 -51t83 -119q0 -39 -21 -39t-22 25q0 10 8 19t21 9q-10 58 -87 102t-195 44t-201 -66t-82 -164q0 -124 133 -195q47 -26 77 -37t90 -34q132 -49 201 -97q99 -69 99 -183q0 -115 -92 -185t-238 -69h-19l-20 -131q88 -4 141 -38
t53 -94z" />
    <glyph glyph-name="scommaaccent.sc" horiz-adv-x="851" 
d="M428 -154q0 23 21 23q29 0 28 -49q0 -90 -80 -176l-6 6q74 86 74 172q-14 -8 -26 1q-11 9 -11 23zM686 842q0 10 8 19t21 9q-10 58 -87 102t-195 44t-201 -66t-82 -164q0 -124 133 -195q47 -26 77 -37t90 -34q132 -49 201 -97q99 -69 99 -183q0 -115 -92 -185
q-92 -69 -236 -69q-143 0 -232 53q-88 53 -88 113q0 39 23 38q20 0 20 -24q0 -10 -8 -20t-20 -9q12 -55 94 -98t215 -43t222 68t89 176q0 109 -87 169t-185 94q-97 34 -135 52t-91 51q-102 65 -102 174q0 110 86 178t213 68t210 -51t83 -119q1 -39 -21 -39t-22 25z" />
    <glyph glyph-name="tcaron.sc" horiz-adv-x="987" 
d="M731 1350l4 -4l-241 -193l-242 193l4 4l238 -179zM266 0v10h221v991h-387v-227h-12v238h811v-238h-12v227h-387v-991h221v-10h-455z" />
    <glyph glyph-name="tcommaaccent.sc" horiz-adv-x="987" 
d="M473 -154q0 23 21 23q29 0 28 -49q0 -90 -80 -176l-6 6q74 86 74 172q-14 -8 -26 1q-11 9 -11 23zM266 0v10h221v991h-387v-227h-12v238h811v-238h-12v227h-387v-991h221v-10h-455z" />
    <glyph glyph-name="thorn.sc" horiz-adv-x="917" 
d="M508 236q145 0 232 78t87 208q0 129 -92 209t-248 80q-63 0 -204 -6v-563q80 -6 225 -6zM487 821q160 0 256 -83q97 -83 97 -216t-90 -215t-265 -82q-123 0 -202 6v-221h219v-10h-447v10h215v991h-215v11h447v-11h-219v-186q141 6 204 6z" />
    <glyph glyph-name="uacute.sc" horiz-adv-x="1210" 
d="M838 1319q8 0 8 -7t-12 -14l-299 -131l-3 4l291 144q7 4 15 4zM258 1001v-639q0 -178 89 -272t258 -94t258 93t89 273v639h-219v11h447v-11h-215v-639q-1 -184 -93 -280t-267 -96t-267 96t-92 280v639h-215v11h446v-11h-219z" />
    <glyph glyph-name="ubreve.sc" horiz-adv-x="1210" 
d="M604 1163q-80 1 -143 55t-94 140l6 2q33 -82 92 -132t139 -50t139 50t93 132l6 -2q-30 -86 -94 -140t-144 -55zM258 1001v-639q0 -178 89 -272t258 -94t258 93t89 273v639h-219v11h447v-11h-215v-639q-1 -184 -93 -280t-267 -96t-267 96t-92 280v639h-215v11h446v-11
h-219z" />
    <glyph glyph-name="ucircumflex.sc" horiz-adv-x="1210" 
d="M367 1153l-5 4l242 193l242 -193l-4 -4l-238 178zM258 1001v-639q0 -178 89 -272t258 -94t258 93t89 273v639h-219v11h447v-11h-215v-639q-1 -184 -93 -280t-267 -96t-267 96t-92 280v639h-215v11h446v-11h-219z" />
    <glyph glyph-name="udieresis.sc" horiz-adv-x="1210" 
d="M502 1206q-25 0 -25 25t25 24q25 0 24 -24q1 -25 -24 -25zM707 1206q-25 0 -25 25t25 24q25 0 24 -24q1 -25 -24 -25zM258 1001v-639q0 -178 89 -272t258 -94t258 93t89 273v639h-219v11h447v-11h-215v-639q-1 -184 -93 -280t-267 -96t-267 96t-92 280v639h-215v11h446
v-11h-219z" />
    <glyph glyph-name="ugrave.sc" horiz-adv-x="1210" 
d="M370 1319q8 0 15 -4l291 -144l-2 -4l-299 131q-13 6 -13 14t8 7zM258 1001v-639q0 -178 89 -272t258 -94t258 93t89 273v639h-219v11h447v-11h-215v-639q-1 -184 -93 -280t-267 -96t-267 96t-92 280v639h-215v11h446v-11h-219z" />
    <glyph glyph-name="uhungarumlaut.sc" horiz-adv-x="1210" 
d="M1003 1327q8 0 9 -8q0 -6 -13 -12l-288 -152l-2 4l278 164q8 4 16 4zM696 1327q8 0 9 -8q0 -6 -13 -12l-289 -152l-2 4l279 164q8 4 16 4zM258 1001v-639q0 -178 89 -272t258 -94t258 93t89 273v639h-219v11h447v-11h-215v-639q-1 -184 -93 -280t-267 -96t-267 96
t-92 280v639h-215v11h446v-11h-219z" />
    <glyph glyph-name="umacron.sc" horiz-adv-x="1210" 
d="M348 1227v12h512v-12h-512zM258 1001v-639q0 -178 89 -272t258 -94t258 93t89 273v639h-219v11h447v-11h-215v-639q-1 -184 -93 -280t-267 -96t-267 96t-92 280v639h-215v11h446v-11h-219z" />
    <glyph glyph-name="uogonek.sc" horiz-adv-x="1210" 
d="M258 1001v-639q0 -178 89 -272t258 -94t258 93t89 273v639h-219v11h447v-11h-215v-639q0 -178 -86 -273t-250 -103q-141 -102 -142 -234q0 -68 44 -110t119 -43q75 0 132 47v-13q-59 -45 -137 -45t-124 46t-46 118q0 133 137 234h-8q-174 0 -266 96t-92 280v639h-215v11
h446v-11h-219z" />
    <glyph glyph-name="uring.sc" horiz-adv-x="1210" 
d="M604 1190q53 0 88 36t35 89t-35 90t-88 37t-88 -37t-35 -90t35 -89t88 -36zM604 1180q-59 0 -97 39t-38 96t38 97t97 40t97 -40t38 -97t-38 -96t-97 -39zM258 1001v-639q0 -178 89 -272t258 -94t258 93t89 273v639h-219v11h447v-11h-215v-639q-1 -184 -93 -280t-267 -96
t-267 96t-92 280v639h-215v11h446v-11h-219z" />
    <glyph glyph-name="wacute.sc" horiz-adv-x="1650" 
d="M1060 1319q8 0 7 -7q0 -7 -12 -14l-299 -131l-2 4l290 144q8 4 16 4zM0 1001v11h449v-11h-240l315 -1011l297 876h8l297 -876l316 1011h-240v11h449v-11h-197l-321 -1026h-13l-295 871l-295 -871h-12l-321 1026h-197z" />
    <glyph glyph-name="wcircumflex.sc" horiz-adv-x="1650" 
d="M588 1153l-4 4l241 193l242 -193l-4 -4l-238 178zM0 1001v11h449v-11h-240l315 -1011l297 876h8l297 -876l316 1011h-240v11h449v-11h-197l-321 -1026h-13l-295 871l-295 -871h-12l-321 1026h-197z" />
    <glyph glyph-name="wdieresis.sc" horiz-adv-x="1650" 
d="M723 1206q-25 0 -25 25t25 25t25 -26q0 -24 -25 -24zM928 1206q-25 0 -25 25t25 24q25 0 24 -24q1 -25 -24 -25zM0 1001v11h449v-11h-240l315 -1011l297 876h8l297 -876l316 1011h-240v11h449v-11h-197l-321 -1026h-13l-295 871l-295 -871h-12l-321 1026h-197z" />
    <glyph glyph-name="wgrave.sc" horiz-adv-x="1650" 
d="M584 1312q0 8 7 7q7 0 15 -4l291 -144l-2 -4l-299 131q-12 6 -12 14zM0 1001v11h449v-11h-240l315 -1011l297 876h8l297 -876l316 1011h-240v11h449v-11h-197l-321 -1026h-13l-295 871l-295 -871h-12l-321 1026h-197z" />
    <glyph glyph-name="yacute.sc" horiz-adv-x="1114" 
d="M792 1319q8 0 7 -7q0 -7 -13 -14l-299 -131l-2 4l291 144q8 4 16 4zM1114 1012v-11h-188l-363 -616v-375h221v-10h-454v10h221v375l-363 616h-188v11h432v-11h-229l354 -604l354 604h-229v11h432z" />
    <glyph glyph-name="ycircumflex.sc" horiz-adv-x="1114" 
d="M319 1153l-4 4l242 193l242 -193l-4 -4l-238 178zM1114 1012v-11h-188l-363 -616v-375h221v-10h-454v10h221v375l-363 616h-188v11h432v-11h-229l354 -604l354 604h-229v11h432z" />
    <glyph glyph-name="ydieresis.sc" horiz-adv-x="1114" 
d="M455 1206q-25 0 -25 25t25 24q25 0 24 -24q1 -25 -24 -25zM659 1206q-25 0 -24 25q0 25 24 24q25 -1 25 -25t-25 -24zM1114 1012v-11h-188l-363 -616v-375h221v-10h-454v10h221v375l-363 616h-188v11h432v-11h-229l354 -604l354 604h-229v11h432z" />
    <glyph glyph-name="ygrave.sc" horiz-adv-x="1114" 
d="M322 1319q8 0 16 -4l291 -144l-2 -4l-299 131q-12 6 -12 14q-2 8 6 7zM1114 1012v-11h-188l-363 -616v-375h221v-10h-454v10h221v375l-363 616h-188v11h432v-11h-229l354 -604l354 604h-229v11h432z" />
    <glyph glyph-name="zacute.sc" horiz-adv-x="915" 
d="M695 1319q7 0 7 -7t-12 -14l-299 -131l-2 4l291 144q8 4 15 4zM86 0v6l731 995h-698v-227h-13v238h728v-6l-732 -996h723v228h13v-238h-752z" />
    <glyph glyph-name="zcaron.sc" horiz-adv-x="915" 
d="M698 1350l4 -4l-241 -193l-242 193l4 4l238 -179zM86 0v6l731 995h-698v-227h-13v238h728v-6l-732 -996h723v228h13v-238h-752z" />
    <glyph glyph-name="zdotaccent.sc" horiz-adv-x="915" 
d="M461 1206q-25 0 -25 25t25 24q25 0 24 -24q1 -25 -24 -25zM86 0v6l731 995h-698v-227h-13v238h728v-6l-732 -996h723v228h13v-238h-752z" />
    <glyph glyph-name="zero.lin" horiz-adv-x="1163" 
d="M582 -6q200 0 330 189t130 493t-132 496t-328 192t-329 -192q-132 -192 -132 -495t131 -493t330 -190zM582 -16q-205 0 -339 192t-134 502q0 309 136 503q136 193 337 193t337 -194t136 -502q0 -310 -134 -502t-339 -192z" />
    <glyph glyph-name="one.lin" horiz-adv-x="677" 
d="M88 0v10h266v1340l-250 -78l-2 10l256 80h9v-1352h268v-10h-547z" />
    <glyph glyph-name="two.lin" horiz-adv-x="1011" 
d="M143 1058q0 44 21 97q39 99 132 157t212 58q170 0 266 -94t96 -234t-78 -243q-78 -104 -239 -227q-160 -122 -277 -256t-167 -306h784v295h12v-305h-805l-4 8q53 178 169 311t280 261q165 128 239 225q74 98 74 235q0 136 -93 228t-257 92q-115 0 -205 -56
q-135 -84 -147 -239q28 -6 28 -29t-20 -22q-21 0 -21 44z" />
    <glyph glyph-name="three.lin" horiz-adv-x="962" 
d="M446 -6q170 0 278 101t107 255q0 240 -256 324q-92 29 -225 28h-16v11h16q123 0 228 39q229 88 229 307q0 125 -92 215t-252 90q-203 0 -299 -143q-27 -41 -35 -88q27 -6 27 -29t-20 -23t-21 45q0 45 39 101q102 147 309 147q166 0 261 -93t95 -222q0 -227 -237 -318
q-66 -25 -127 -32q61 -6 125 -25q264 -86 264 -334q0 -158 -111 -262t-287 -104q-221 0 -323 135q-41 53 -41 99t20 46t20 -22t-26 -29q6 -47 37 -88q96 -131 313 -131z" />
    <glyph glyph-name="four.lin" horiz-adv-x="1028" 
d="M420 0v10h260v414h-635l-4 4l674 942l10 -6l-666 -930h621v520l12 4v-524h250v-10h-250v-414h226v-10h-498z" />
    <glyph glyph-name="five.lin" horiz-adv-x="940" 
d="M424 -6q186 0 299 112t113 292q0 182 -115 284t-299 102q-141 0 -268 -65l-9 6l70 623h549v-13h-539l-67 -602q123 61 264 62q190 1 308 -105t118 -292t-116 -300t-308 -114t-291 127q-41 55 -41 93t20 38t19 -23q0 -23 -25 -29q12 -43 37 -73q95 -123 281 -123z" />
    <glyph glyph-name="six.lin" horiz-adv-x="1054" 
d="M538 -6q172 0 286 123t114 294t-113 283t-281 113q-168 0 -284 -118q-117 -118 -117 -283q0 -80 29 -162t82 -135q111 -115 284 -115zM885 1195q-1 -42 -21 -42t-20 23t26 28q-12 43 -41 72q-88 88 -231 88q-197 0 -334 -203t-137 -592q0 -100 6 -168q-4 129 66 232
q55 86 145 135t197 49q180 0 295 -115q114 -114 114 -290t-118 -302t-294 -126q-177 0 -292 116q-68 72 -100 178t-31 291q0 393 141 599t342 206q150 0 240 -90q47 -47 47 -89z" />
    <glyph glyph-name="seven.lin" horiz-adv-x="892" 
d="M109 1337v-288h-13v299h740l2 -5l-562 -1343h-12l559 1337h-714z" />
    <glyph glyph-name="eight.lin" horiz-adv-x="1040" 
d="M520 -8q170 0 283 101t113 253t-115 252t-281 100t-280 -100t-115 -252q1 -152 113 -253t282 -101zM521 707q157 0 261 93t104 234q0 140 -102 236q-104 96 -264 96t-263 -95t-103 -237t105 -234q105 -93 262 -93zM521 -18q-175 0 -292 104t-117 252t97 246
q96 98 240 118q-133 18 -221 110t-87 230t107 236t272 98t272 -97t107 -235q0 -138 -87 -231q-87 -92 -220 -111q144 -20 240 -118t96 -246t-116 -252t-291 -104z" />
    <glyph glyph-name="nine.lin" horiz-adv-x="1054" 
d="M512 551q168 0 285 118t116 283q0 80 -28 162q-29 82 -82 135q-111 115 -284 115t-287 -123t-114 -294t114 -283q112 -112 280 -113zM172 164q0 43 20 43t19 -23q0 -23 -25 -28q8 -41 41 -74q88 -88 232 -88q197 0 334 203t137 591q0 96 -6 168q0 -131 -60 -224
t-151 -142q-90 -49 -197 -49q-180 1 -295 115t-115 290t118 302t295 126t292 -117q67 -72 99 -178t32 -291q0 -393 -141 -599t-342 -205q-150 0 -240 90q-47 47 -47 90z" />
    <glyph glyph-name="bullet.alt" horiz-adv-x="1228" 
d="M614 -94q-214 0 -364 152t-150 362t151 362t363 152t364 -152q150 -152 150 -362t-150 -363q-151 -151 -364 -151z" />
    <glyph glyph-name="hyphen.lin" horiz-adv-x="466" 
d="M70 664v12h327v-12h-327z" />
    <glyph glyph-name="endash.lin" horiz-adv-x="794" 
d="M49 664v12h696v-12h-696z" />
    <glyph glyph-name="emdash.lin" horiz-adv-x="1296" 
d="M49 664v12h1198v-12h-1198z" />
    <glyph glyph-name="parenleft.lin" horiz-adv-x="593" 
d="M139 655q0 271 118 541t349 453l8 -9q-229 -180 -346 -448q-233 -534 0 -1073q117 -268 346 -449l-8 -8q-231 182 -349 452t-118 541z" />
    <glyph glyph-name="parenright.lin" horiz-adv-x="593" 
d="M455 656q0 -272 -118 -542t-349 -452l-8 8q229 180 346 448t116 537q0 269 -116 537t-346 448l8 9q231 -181 349 -451t118 -542z" />
    <glyph glyph-name="bracketleft.lin" horiz-adv-x="595" 
d="M217 -287v1909h361v-10h-349v-1888h349v-11h-361z" />
    <glyph glyph-name="bracketright.lin" horiz-adv-x="595" 
d="M18 -287v11h349v1888h-349v10h361v-1909h-361z" />
    <glyph glyph-name="braceleft.lin" horiz-adv-x="569" 
d="M129 -46q0 105 135 269q125 145 125 231t-68 146q-69 61 -182 62h-47v8h47q115 0 183 60t68 146t-126 230q-135 164 -135 270t97 187q97 82 255 86v-11q-151 -4 -245 -83t-94 -182t132 -261q127 -143 127 -228q0 -84 -54 -144t-142 -74q88 -16 142 -76t54 -144
q0 -85 -127 -229q-133 -158 -133 -261q1 -103 95 -182t245 -83v-10q-158 4 -255 86t-97 187z" />
    <glyph glyph-name="braceright.lin" horiz-adv-x="569" 
d="M428 -44q0 103 -133 261q-127 143 -127 229t54 144q54 59 143 76q-88 14 -143 73q-54 59 -54 145t127 228q133 158 133 261t-94 182t-246 83v11q158 -4 255 -86q97 -81 97 -187t-135 -270q-125 -145 -125 -230q0 -86 68 -146t182 -60h47v-8h-47q-114 0 -182 -62t-68 -146
q0 -85 125 -231q135 -163 135 -269t-97 -188t-255 -85v10q152 4 246 83t94 182z" />
    <glyph glyph-name="registered.alt" horiz-adv-x="1142" 
d="M551 782h-92v-276h90q74 0 120 37t46 100t-45 101t-119 38zM551 254h-203v10h98v518h-98v11h205q80 0 127 -41q47 -40 47 -102t-37 -101t-96 -49l137 -236h86v-10h-94l-141 244q-16 -2 -35 -2h-88v-232h92v-10zM571 -27q-227 0 -377 156t-149 383q0 227 150 384
q151 157 377 157t376 -157t150 -384t-150 -383t-377 -156zM571 -16q221 0 368 153q146 154 146 376t-146 376q-145 153 -367 153t-368 -154t-146 -375t146 -375t367 -154z" />
    <glyph glyph-name="copyright.lin" horiz-adv-x="1568" 
d="M807 1018q-131 0 -223 -96t-92 -236t89 -236q89 -98 225 -98t236 94l7 -8q-101 -96 -243 -96t-235 100q-92 100 -92 244t95 243t233 99q98 0 170 -52t72 -116q0 -31 -22 -31t-21 25q0 25 28 27q-12 55 -78 96t-149 41zM786 1350q-278 0 -466 -197t-189 -481
q0 -284 187 -478q186 -196 464 -196t467 197t189 481t-188 478q-186 196 -464 196zM783 -12q-282 0 -473 198t-191 487q1 287 193 487t474 200t472 -199q192 -199 192 -487t-192 -486q-192 -200 -475 -200z" />
    <glyph glyph-name="published.lin" horiz-adv-x="1568" 
d="M807 614q105 0 169 54t64 142q0 89 -64 140q-65 51 -177 51h-109v-383q62 -4 117 -4zM807 604q-55 0 -117 4v-260h105v-10h-220v10h103v653h-103v11h224q117 0 185 -54t69 -148q-1 -94 -67 -150t-179 -56zM786 1350q-278 0 -466 -197t-189 -481q0 -284 187 -478
q186 -196 464 -196t467 197t189 481t-188 478q-186 196 -464 196zM783 -12q-282 0 -473 198t-191 487q1 287 193 487t474 200t472 -199q192 -199 192 -487t-192 -486q-192 -200 -475 -200z" />
    <glyph glyph-name="registered.lin" horiz-adv-x="1568" 
d="M655 659h150q72 -1 131 49t59 129t-58 128t-155 49h-127v-355zM655 649v-289h105v-10h-219v10h102v654h-102v10h241q102 0 164 -51t62 -133t-58 -134t-133 -57l199 -289h94v-10h-100l-205 299h-150zM786 1350q-278 0 -466 -197t-189 -481q0 -284 187 -478
q186 -196 464 -196t467 197t189 481t-188 478q-186 196 -464 196zM783 -12q-282 0 -473 198t-191 487q1 287 193 487t474 200t472 -199q192 -199 192 -487t-192 -486q-192 -200 -475 -200z" />
    <glyph glyph-name="dollar.lin" horiz-adv-x="1048" 
d="M186 1044q0 -124 86 -202t260 -144l52 637h-33q-165 0 -265 -84t-100 -207zM930 315q0 133 -92 214t-293 153l-53 -672l40 -2q176 0 287 87t111 220zM111 266q0 41 21 41t22 -24q0 -29 -31 -29q10 -88 106 -160t250 -84l53 676q-180 68 -269 151t-89 209t104 212
q104 87 273 88h35l14 182l12 -2l-14 -183q139 -13 231 -79t93 -146q0 -37 -22 -37t-21 25q0 10 8 19t20 10q-10 72 -97 130t-214 68l-51 -639q211 -76 304 -160t93 -220t-114 -226t-296 -90q-14 0 -40 2l-17 -193l-12 3l16 190q-168 12 -268 92t-100 174z" />
    <glyph glyph-name="sterling.lin" horiz-adv-x="1026" 
d="M113 20q0 23 82 52q178 135 178 354q0 61 -15 143h-233v11h231q-16 68 -37 135q-57 184 -57 295q0 152 96 246t230 94t216 -66q81 -66 81 -143q1 -41 -21 -41t-22 24q0 10 9 20t21 9q-10 74 -86 130t-200 56t-218 -91q-93 -91 -94 -238q0 -98 46 -259t49 -171h366v-11
h-364q14 -78 14 -168t-50 -180t-118 -143q39 10 97 10t138 -22q78 -22 123 -33q45 -12 84 -23t105 -12q145 0 203 160l10 -4q-59 -166 -213 -166q-72 0 -232 45t-222 45t-103 -15q-55 -57 -75 -57t-19 14z" />
    <glyph glyph-name="Euro.lin" horiz-adv-x="1345" 
d="M33 813v10h211q43 233 195 384q153 151 347 153t313 -104q118 -106 118 -216q1 -39 -21 -39t-22 23q0 12 9 20t21 7q-6 109 -120 205t-300 94t-336 -150t-192 -377h580v-10h-582q-12 -73 -12 -153t12 -154h582v-10h-580q43 -222 187 -362t339 -140q250 0 418 172l6 -8
q-170 -174 -424 -174q-199 0 -346 142t-192 370h-211v10h209q-26 161 0 307h-209z" />
    <glyph glyph-name="yen.lin" horiz-adv-x="1275" 
d="M403 0v10h226v334h-359v10h359v228h-359v10h355l-420 745h-205v11h463v-11h-244l416 -743l416 743h-244v11h463v-11h-205l-420 -745h356v-10h-360v-228h360v-10h-360v-334h225v-10h-463z" />
    <glyph glyph-name="cent.lin" horiz-adv-x="905" 
d="M100 697q0 -173 94 -278t242 -130l72 825h-2q-168 0 -287 -122t-119 -295zM88 698q0 178 123 302t295 124h4l22 248l13 -2l-23 -246q127 -6 212 -76t85 -151q1 -31 -21 -31t-22 25t29 27q-12 74 -92 133t-193 63l-71 -827q41 -4 67 -4q178 0 283 92v-13
q-106 -90 -283 -90q-23 0 -67 4l-29 -313l-12 2l28 314q-154 25 -251 133t-97 286z" />
    <glyph glyph-name="numbersign.lin" horiz-adv-x="1060" 
d="M389 901l-74 -473h355l73 473h-354zM113 901v12h266l65 433h13l-66 -433h354l66 433h12l-65 -433h264v-12h-266l-74 -473h264v-12h-266l-64 -416h-12l64 416h-355l-63 -416h-12l63 416h-264v12h266l74 473h-264z" />
    <glyph glyph-name="paragraph.lin" horiz-adv-x="1234" 
d="M758 10h170v1327h-170v-1327zM526 0v10h219v500q-57 -6 -143 -6q-221 0 -353 116t-132 307t140 306t353 115h545v-11h-215v-1327h215v-10h-629z" />
    <glyph glyph-name="section.lin" horiz-adv-x="1009" 
d="M129 689q0 -73 67 -121t139 -68q71 -21 138 -41l70 -21q324 59 323 228q0 90 -107 143q-80 40 -237 84l-71 20q-166 -31 -244 -91t-78 -133zM811 202q0 -84 -90 -148q-89 -64 -221 -64t-212 41t-106 83q-24 42 -24 68t20 25q22 0 23 -23q0 -25 -27 -26q20 -58 102 -108
t215 -50t221 59q87 59 87 147t-76 140t-207 90t-180 54q-146 49 -193 112q-27 37 -26 84q0 170 315 234q-125 39 -185 84q-61 46 -61 134t94 156t238 68q201 0 289 -105q33 -39 33 -71t-22 -31q-22 0 -21 24q0 24 26 25q-6 27 -28 51q-88 96 -277 97q-137 0 -228 -66
t-91 -156t81 -136q82 -46 248 -91t258 -97t92 -136t-79 -146q-80 -62 -240 -92q133 -45 193 -95t59 -135z" />
    <glyph glyph-name="ordfeminine.lin" horiz-adv-x="577" 
d="M219 1004q115 0 203 118v115q-94 39 -175 39t-129 -40t-48 -97t38 -96t111 -39zM59 842v10h480v-10h-480zM219 993q-80 0 -121 41t-41 105q-1 63 51 105t134 42t180 -37v99q0 68 -25 104q-37 55 -141 55t-143 -61q16 -6 16 -23q0 -23 -20 -22q-19 1 -19 27t48 58t138 32
t132 -60q27 -37 26 -110v-336h105v-11h-117v105q-86 -113 -203 -113z" />
    <glyph glyph-name="ordmasculine.lin" horiz-adv-x="618" 
d="M313 1006q102 0 171 72t69 176q0 106 -68 178t-170 72t-171 -74q-68 -72 -68 -176t67 -177q68 -71 170 -71zM313 995q-106 0 -178 75q-72 76 -72 184t73 184q74 76 180 76t178 -76q72 -74 72 -184t-74 -184q-73 -74 -179 -75zM92 842v10h447v-10h-447z" />
    <glyph glyph-name="degree.lin" horiz-adv-x="503" 
d="M252 1047q88 0 148 63q60 64 60 154t-60 153t-148 63t-148 -62q-60 -64 -61 -154q0 -90 60 -154q61 -63 149 -63zM252 1036q-92 0 -157 67t-64 161t65 160t156 67q92 0 157 -67q65 -66 65 -160t-66 -161q-64 -67 -156 -67z" />
    <glyph glyph-name="percent.lin" horiz-adv-x="1241" 
d="M657 274q0 -114 76 -196t187 -82q110 0 186 82t76 196t-76 197q-76 82 -186 82t-187 -82q-76 -82 -76 -197zM645 274q0 119 79 204t196 85q118 0 196 -85t78 -204q0 -120 -79 -204t-195 -84t-196 84q-79 84 -79 204zM174 -2l-10 6l907 1350l10 -6zM59 1073
q0 -115 76 -197t187 -81q110 0 186 82q76 83 76 197t-76 196t-186 82t-187 -82q-76 -82 -76 -197zM47 1073q0 119 79 204t196 85q118 0 196 -85t78 -204t-79 -204t-195 -85t-196 85q-79 85 -79 204z" />
    <glyph glyph-name="perthousand.lin" horiz-adv-x="1873" 
d="M1290 274q0 -114 76 -196t186 -82t187 82q76 82 76 196t-76 197q-76 82 -187 82q-110 0 -186 -82t-76 -197zM1278 274q0 119 79 204t195 85t196 -85q79 -85 79 -204q0 -120 -79 -204t-196 -84q-118 0 -196 84t-78 204zM657 274q0 -114 76 -196t187 -82q110 0 186 82
t76 196t-76 197q-76 82 -186 82t-187 -82q-76 -82 -76 -197zM645 274q0 119 79 204t196 85q118 0 196 -85t78 -204q0 -120 -79 -204t-195 -84t-196 84q-79 84 -79 204zM174 -2l-10 6l907 1350l10 -6zM59 1073q0 -115 76 -197t187 -81q110 0 186 82q76 83 76 197t-76 196
t-186 82t-187 -82q-76 -82 -76 -197zM47 1073q0 119 79 204t196 85q118 0 196 -85t78 -204t-79 -204t-195 -85t-196 85q-79 85 -79 204z" />
    <glyph glyph-name="quotedbl.lin" horiz-adv-x="413" 
d="M125 1509q10 0 10 -10l-8 -250h-4l-8 250q0 10 10 10zM289 1509q10 0 10 -10l-8 -250h-4l-8 250q0 10 10 10z" />
    <glyph glyph-name="quotesingle.lin" horiz-adv-x="249" 
d="M125 1509q10 0 10 -10l-8 -250h-4l-8 250q0 10 10 10z" />
    <glyph glyph-name="plus.lin" horiz-adv-x="745" 
d="M367 393v285h-277v10h277v285h12v-285h276v-10h-276v-285h-12z" />
    <glyph glyph-name="minus.lin" horiz-adv-x="745" 
d="M90 678v10h565v-10h-565z" />
    <glyph glyph-name="divide.lin" horiz-adv-x="745" 
d="M373 426q-25 0 -25 25t25 24q25 0 24 -24q1 -25 -24 -25zM373 891q-25 1 -25 25t25 24t24 -25q1 -24 -24 -24zM655 678h-565v10h565v-10z" />
    <glyph glyph-name="equal.lin" horiz-adv-x="745" 
d="M90 526v11h565v-11h-565zM90 791v10h565v-10h-565z" />
    <glyph glyph-name="multiply.lin" horiz-adv-x="745" 
d="M639 414l-264 264l-264 -264l-9 8l265 264l-265 264l9 8l264 -264l264 264l8 -8l-264 -264l264 -264z" />
    <glyph glyph-name="less.lin" horiz-adv-x="704" 
d="M561 369l-450 295v4l450 295l6 -9l-442 -288l442 -289z" />
    <glyph glyph-name="greater.lin" horiz-adv-x="704" 
d="M143 369l-6 8l443 289l-443 288l6 9l451 -295v-4z" />
    <glyph glyph-name="plusminus.lin" horiz-adv-x="745" 
d="M90 338v10h565v-10h-565zM367 481v285h-277v10h277v285h12v-285h276v-10h-276v-285h-12z" />
    <glyph glyph-name="zero.tab" horiz-adv-x="1085" 
d="M543 1364q-187 0 -315 -192t-128 -494q0 -304 126 -494t316 -190t317 190q126 190 126 494t-127 494q-127 192 -315 192zM543 -16q-197 0 -326 192t-129 502q0 309 130 503q130 193 325 193t325 -194t129 -502q-1 -310 -129 -502t-325 -192z" />
    <glyph glyph-name="one.tab" horiz-adv-x="1085" 
d="M205 0v10h354v1340l-348 -109l-2 10l354 111h8v-1352h357v-10h-723z" />
    <glyph glyph-name="two.tab" horiz-adv-x="1085" 
d="M543 1370q177 0 279 -94t102 -234t-82 -239q-82 -101 -220 -207t-214 -174t-160 -180t-119 -232h817v295h12v-305h-837l-4 8q60 196 191 329q131 134 289 255q157 121 236 217t79 232q0 135 -99 227q-98 92 -270 92q-121 0 -217 -60q-144 -89 -156 -256q29 -6 29 -28
q-1 -22 -21 -23q-20 0 -20 47t20 101q39 105 139 167t226 62z" />
    <glyph glyph-name="three.tab" horiz-adv-x="1085" 
d="M508 -16q-246 0 -361 145q-41 53 -41 115q0 31 21 30q20 0 20 -22t-26 -29q6 -47 37 -88q111 -141 350 -141q188 0 307 101t119 255q0 240 -285 324q-94 29 -237 28h-37v11h37q129 0 241 39q256 88 256 305q0 127 -103 217t-282 90q-229 0 -336 -156q-31 -45 -38 -96
q26 -6 26 -29t-20 -22q-20 0 -21 31q0 63 43 122q115 160 346 160q184 0 290 -93t108 -224q0 -223 -265 -316q-72 -25 -141 -32q68 -6 137 -25q293 -88 293 -334q0 -158 -122 -262t-316 -104z" />
    <glyph glyph-name="four.tab" horiz-adv-x="1085" 
d="M483 0v10h260v414h-675l-5 4l715 942l10 -6l-706 -930h661v520l13 4v-524h250v-10h-250v-414h225v-10h-498z" />
    <glyph glyph-name="five.tab" horiz-adv-x="1085" 
d="M965 398q0 -184 -129 -300q-129 -114 -345 -114t-329 127q-45 51 -45 91t19 40q20 0 20 -23t-25 -29q6 -39 39 -73q109 -123 321 -123q213 0 337 112t124 291t-128 281t-337 102q-154 0 -311 -69l78 637h612v-13h-600l-76 -606q137 61 297 62q215 -1 347 -105t131 -288z
" />
    <glyph glyph-name="six.tab" horiz-adv-x="1085" 
d="M555 -6q176 0 293 123t117 295t-115 284t-288 111q-173 0 -293 -118q-119 -117 -119 -291t114 -289t291 -115zM887 1153q-20 0 -21 23q0 23 27 28q-10 39 -43 72q-88 88 -236 88q-199 0 -340 -203t-141 -592q0 -100 6 -168q-8 125 68 232q125 184 350 184q184 0 302 -115
q118 -114 118 -290t-120 -302t-304 -126t-297 116q-70 72 -102 178t-33 291q0 393 145 599t348 206q154 0 244 -90q49 -49 49 -90t-20 -41z" />
    <glyph glyph-name="seven.tab" horiz-adv-x="1085" 
d="M156 1337v-288h-13v299h863l2 -5l-623 -1343h-12l620 1337h-837z" />
    <glyph glyph-name="eight.tab" horiz-adv-x="1085" 
d="M543 707q163 0 273 93t110 234q0 140 -109 236t-275 96t-274 -95t-108 -237t110 -234q110 -93 273 -93zM543 1376q171 0 283 -98t112 -236t-91 -228q-91 -91 -233 -112q152 -20 252 -118t100 -246t-121 -252q-122 -104 -302 -104t-302 104t-122 252t100 246t252 118
q-141 20 -232 112t-91 228q0 138 111 236q112 98 284 98zM543 -8q172 0 292 102q119 102 119 252t-121 251q-122 101 -290 101t-290 -101t-122 -251t120 -252t292 -102z" />
    <glyph glyph-name="nine.tab" horiz-adv-x="1085" 
d="M534 1364q-176 0 -292 -123t-117 -295q0 -172 115 -284q116 -112 288 -111q172 0 292 118q120 117 120 291t-115 289t-291 115zM969 788q1 -393 -145 -599t-349 -205q-154 0 -244 90q-49 49 -49 90t20 41t21 -23q0 -23 -26 -28q10 -39 43 -72q88 -88 235 -88
q199 0 340 203t141 591q0 96 -6 168q4 -127 -67 -231q-125 -184 -351 -184q-184 1 -302 115t-118 290t120 302t304 126t298 -117q70 -73 102 -179t33 -290z" />
    <glyph glyph-name="period.tab" horiz-adv-x="542" 
d="M272 -16q-26 0 -26 26t26 27q26 -1 27 -27q0 -26 -27 -26z" />
    <glyph glyph-name="comma.tab" horiz-adv-x="542" 
d="M242 12q0 25 24 25q29 0 29 -53q0 -91 -80 -177l-6 7q74 86 74 172q-14 -8 -28 1q-13 9 -13 25z" />
    <glyph glyph-name="colon.tab" horiz-adv-x="542" 
d="M272 612q-27 0 -26 27q0 27 26 27t27 -27q0 -27 -27 -27zM272 -16q-26 0 -26 26t26 27q26 -1 27 -27q0 -26 -27 -26z" />
    <glyph glyph-name="semicolon.tab" horiz-adv-x="542" 
d="M272 612q-27 0 -26 27q0 27 26 27t27 -27q0 -27 -27 -27zM246 12q0 25 24 25q29 0 29 -53q0 -91 -80 -177l-6 7q74 86 74 172q-14 -8 -28 1q-13 9 -13 25z" />
    <glyph glyph-name="twodotleader.tab" horiz-adv-x="1085" 
d="M815 -16q-27 0 -27 26t27 27q27 -1 27 -27t-27 -26zM272 -16q-26 0 -26 26t26 27q26 -1 27 -27q0 -26 -27 -26z" />
    <glyph glyph-name="periodcentered.tab" horiz-adv-x="542" 
d="M272 449q-26 1 -26 27t26 26t27 -26q0 -26 -27 -27z" />
    <glyph glyph-name="slash.tab" horiz-adv-x="1085" 
d="M-33 -406l-10 7l1044 1896l11 -6z" />
    <glyph glyph-name="bar.tab" horiz-adv-x="542" 
d="M266 -410v1909h13v-1909h-13z" />
    <glyph glyph-name="underscore.tab" horiz-adv-x="1085" 
d="M-10 -240v13h1106v-13h-1106z" />
    <glyph glyph-name="dollar.tab" horiz-adv-x="1085" 
d="M195 1045q0 -123 88 -201t268 -146l53 637h-35q-168 0 -271 -84t-103 -206zM551 8q180 0 294 89q113 89 113 219t-94 212q-94 80 -301 154l-53 -674h41zM182 1046q0 126 106 212q106 87 281 88h35l14 182l13 -2l-15 -183q143 -12 239 -80q95 -69 95 -151q0 -37 -21 -37
t-22 25q0 10 8 19t21 9q-10 74 -100 134t-222 71l-51 -639q213 -76 310 -160t97 -219q0 -133 -116 -225q-117 -92 -303 -92h-41l-16 -191l-13 3l17 190q-174 12 -277 94q-102 82 -102 178q0 41 21 41t22 -24q0 -29 -31 -29q9 -90 109 -164t258 -86l53 676q-186 70 -278 152
q-91 82 -91 208z" />
    <glyph glyph-name="sterling.tab" horiz-adv-x="1085" 
d="M127 18q0 25 86 52q184 137 184 354q0 78 -14 143h-244v11h240q-14 63 -55 195t-41 237q0 152 100 246q99 94 239 94t224 -66t84 -143q0 -41 -24 -41t-23 24q0 10 10 20t25 9q-8 74 -88 130t-212 56q-130 0 -226 -91t-97 -238q0 -98 41 -234t55 -198h381v-11h-377
q14 -66 15 -143q0 -209 -168 -346q34 8 98 8t226 -45t244 -45q81 0 128 44t78 116l10 -4q-70 -166 -223 -166q-75 0 -241 45t-230 45t-107 -15q-57 -57 -77 -57t-21 14z" />
    <glyph glyph-name="Euro.tab" horiz-adv-x="1085" 
d="M932 1042q0 12 9 20t22 7q-5 99 -95 191t-227 90q-164 -2 -282 -148t-152 -379h500v-10h-502q-10 -81 -10 -153t10 -154h502v-10h-500q33 -227 147 -365q115 -137 273 -137q193 0 331 172l9 -8q-145 -174 -340 -174q-162 0 -280 140t-152 372h-168v10h166q-20 162 0 307
h-166v10h168q35 238 155 386q120 149 278 151t252 -97t95 -204q0 -39 -23 -39q-20 -1 -20 22z" />
    <glyph glyph-name="yen.tab" horiz-adv-x="1085" 
d="M332 0v10h203v334h-316v10h316v228h-316v10h311l-378 745h-162v11h393v-11h-217l375 -743l374 743h-217v11h394v-11h-162l-379 -745h313v-10h-317v-228h317v-10h-317v-334h203v-10h-418z" />
    <glyph glyph-name="cent.tab" horiz-adv-x="1085" 
d="M174 698q0 -174 98 -279t254 -130l74 825q-180 0 -303 -121t-123 -295zM610 272q-45 0 -73 4l-27 -313l-12 2l26 314q-160 25 -261 133t-101 286t127 302t311 124l23 248l12 -2l-23 -246q133 -4 225 -74q91 -71 91 -153q0 -33 -23 -33t-22 25q0 27 30 29q-12 76 -97 135
t-204 61l-73 -827q45 -4 71 -4q186 0 297 92v-13q-113 -90 -297 -90z" />
    <glyph glyph-name="numbersign.tab" horiz-adv-x="1085" 
d="M395 901l-73 -473h366l72 473h-365zM113 901v12h272l66 433h12l-66 -433h365l67 433h13l-68 -433h273v-12h-275l-72 -473h271v-12h-273l-63 -416h-12l63 416h-367l-63 -416h-12l63 416h-270v12h272l74 473h-270z" />
    <glyph glyph-name="paragraph.tab" horiz-adv-x="1085" 
d="M563 504q-209 0 -334 116t-125 306q0 192 132 307t335 115h459v-11h-205v-1327h205v-10h-571v10h192v498q-33 -4 -88 -4zM664 10h149v1327h-149v-1327z" />
    <glyph glyph-name="section.tab" horiz-adv-x="1085" 
d="M147 686q0 -90 116 -142q84 -39 249 -85l72 -21q342 61 342 228q0 59 -56 104q-56 44 -124 68t-185 55l-74 20q-340 -63 -340 -227zM198 207q22 0 21 -24q0 -24 -26 -25q23 -58 109 -108t228 -50t235 60t93 146t-80 139q-80 52 -212 88t-218 63t-127 57q-86 62 -86 136
q0 75 81 136t255 93q-133 38 -200 84t-66 122q0 102 100 170t252 68q215 0 307 -105q35 -37 35 -69t-21 -33q-21 0 -22 23q0 25 27 26q-6 27 -27 47q-88 100 -299 101q-147 0 -243 -66t-97 -155q0 -89 84 -136t218 -81q135 -34 189 -52q154 -51 201 -111q29 -38 29 -85
q0 -78 -81 -140t-255 -94q144 -45 206 -95t62 -135q0 -84 -96 -148t-234 -64t-227 41q-135 63 -137 149q0 26 22 27z" />
    <glyph glyph-name="degree.tab" horiz-adv-x="1085" 
d="M539 1491q-147 0 -239 -99q-92 -98 -93 -240q0 -142 92 -242q91 -100 239 -99q148 0 240 99q92 98 92 240t-92 242t-239 99zM539 801q-154 0 -249 101q-95 100 -95 248t95 250t249 101q155 0 249 -101q94 -100 94 -248t-94 -250q-95 -102 -249 -101z" />
    <glyph glyph-name="percent.tab" horiz-adv-x="1085" 
d="M580 274q0 -114 62 -196t158 -82t159 82t63 196t-62 197q-62 82 -159 82t-159 -82t-62 -197zM567 274q0 121 67 205t167 84t167 -84q66 -84 66 -205q0 -120 -66 -204t-167 -84q-100 0 -167 84t-67 204zM51 1073q0 121 67 205t167 84t167 -84q66 -84 66 -205t-66 -205
t-167 -84q-100 0 -167 84t-67 205zM133 -2l-10 6l833 1350l11 -6zM63 1073q1 -115 63 -197t158 -81q96 0 159 82q63 83 63 197t-62 196t-159 82q-96 0 -159 -82t-63 -197z" />
    <glyph glyph-name="quotedbl.tab" horiz-adv-x="1085" 
d="M706 1509q12 0 13 -12l-10 -412h-4l-11 412q0 12 12 12zM379 1509q12 0 12 -12l-10 -412h-4l-10 412q0 12 12 12z" />
    <glyph glyph-name="quotesingle.tab" horiz-adv-x="542" 
d="M272 1509q12 0 13 -12l-11 -412h-4l-10 412q0 12 12 12z" />
    <glyph glyph-name="plus.tab" horiz-adv-x="1085" 
d="M537 352v326h-318v10h318v326h12v-326h317v-10h-317v-326h-12z" />
    <glyph glyph-name="minus.tab" horiz-adv-x="1085" 
d="M219 678v10h647v-10h-647z" />
    <glyph glyph-name="divide.tab" horiz-adv-x="1085" 
d="M543 385q-25 0 -25 25t25 24q25 0 24 -24q1 -25 -24 -25zM543 932q-25 0 -25 24t25 25q25 0 24 -25q1 -24 -24 -24zM866 678h-647v10h647v-10z" />
    <glyph glyph-name="equal.tab" horiz-adv-x="1085" 
d="M219 500v10h647v-10h-647zM219 817v10h647v-10h-647z" />
    <glyph glyph-name="multiply.tab" horiz-adv-x="1085" 
d="M850 373l-305 305l-305 -305l-9 8l306 305l-306 305l9 8l305 -305l305 305l8 -8l-305 -305l305 -305z" />
    <glyph glyph-name="less.tab" horiz-adv-x="1085" 
d="M793 328l-533 336v4l533 336l6 -9l-525 -329l525 -330z" />
    <glyph glyph-name="greater.tab" horiz-adv-x="1085" 
d="M293 1004l532 -336v-4l-532 -336l-6 8l524 330l-524 329z" />
    <glyph glyph-name="plusminus.tab" horiz-adv-x="1085" 
d="M219 317v11h647v-11h-647zM537 461v325h-318v11h318v325h12v-325h317v-11h-317v-325h-12z" />
    <glyph glyph-name="zero.idx_P2D" horiz-adv-x="2191" 
d="M764 629q0 -215 94 -349t235 -135q142 1 237 135t95 349t-94 349t-236 134q-143 0 -237 -134t-94 -349zM1093 135q-146 0 -244 137q-97 138 -97 358t98 356t244 136t245 -137t99 -356t-100 -357t-245 -137zM1096 1612q-406 0 -686 -291t-279 -707q0 -416 280 -706
q279 -290 685 -291q406 0 686 291q280 290 278 706q0 416 -279 707t-685 291zM1096 1622q270 0 495 -135t353 -367t129 -506q0 -274 -128 -505q-127 -231 -353 -367t-496 -135q-270 0 -496 135q-225 134 -353 366t-128 506t128 506t353 367q226 135 496 135z" />
    <glyph glyph-name="one.idx_P2D" horiz-adv-x="2191" 
d="M1346 150h-472v10h230v942l-223 -62l-2 11l229 63h8v-954h230v-10zM1096 1612q-406 0 -686 -291t-279 -707q0 -416 280 -706q279 -290 685 -291q406 0 686 291q280 290 278 706q0 416 -279 707t-685 291zM1096 1622q270 0 495 -135t353 -367t129 -506q0 -274 -128 -505
q-127 -231 -353 -367t-496 -135q-270 0 -496 135q-225 134 -353 366t-128 506t128 506t353 367q226 135 496 135z" />
    <glyph glyph-name="two.idx_P2D" horiz-adv-x="2191" 
d="M850 868q-20 0 -21 32q0 32 17 71q62 153 274 153q108 0 178 -66q72 -66 72 -166q0 -99 -58 -173t-173 -158q-264 -195 -332 -401h579v207h13v-217h-602l-4 6q70 217 337 413q111 80 169 153q59 73 59 168t-69 160q-69 64 -170 64q-197 -1 -261 -143q-10 -23 -14 -51
q26 -6 26 -29t-20 -23zM1096 1612q-406 0 -686 -291t-279 -707q0 -416 280 -706q279 -290 685 -291q406 0 686 291q280 290 278 706q0 416 -279 707t-685 291zM1096 1622q270 0 495 -135t353 -367t129 -506q0 -274 -128 -505q-127 -231 -353 -367t-496 -135q-270 0 -496 135
q-225 134 -353 366t-128 506t128 506t353 367q226 135 496 135z" />
    <glyph glyph-name="three.idx_P2D" horiz-adv-x="2191" 
d="M817 306q1 38 21 38t20 -22t-27 -29q4 -33 25 -55q72 -92 211 -92t217 71q78 72 78 178q0 166 -186 228q-57 18 -148 18h-18v10h18q82 0 150 27q166 59 165 217q0 86 -66 149q-67 64 -195 64t-201 -100q-20 -29 -27 -58q27 -6 27 -28q-1 -22 -21 -23q-20 0 -20 35t30 80
q76 104 212 104t204 -66q70 -66 70 -157q0 -164 -174 -227q-37 -14 -74 -21q35 -4 72 -14q195 -63 194 -238q0 -113 -81 -187t-227 -73q-146 0 -220 96q-29 37 -29 75zM1096 1612q-406 0 -686 -291t-279 -707q0 -416 280 -706q279 -290 685 -291q406 0 686 291
q280 290 278 706q0 416 -279 707t-685 291zM1096 1622q270 0 495 -135t353 -367t129 -506q0 -274 -128 -505q-127 -231 -353 -367t-496 -135q-270 0 -496 135q-225 134 -353 366t-128 506t128 506t353 367q226 135 496 135z" />
    <glyph glyph-name="four.idx_P2D" horiz-adv-x="2191" 
d="M930 150v10h229v297h-473l-4 4l500 665l10 -6l-492 -653h459v342l12 4v-346h224v-10h-224v-297h199v-10h-440zM1096 1612q-406 0 -686 -291t-279 -707q0 -416 280 -706q279 -290 685 -291q406 0 686 291q280 290 278 706q0 416 -279 707t-685 291zM1096 1622
q270 0 495 -135t353 -367t129 -506q0 -274 -128 -505q-127 -231 -353 -367t-496 -135q-270 0 -496 135q-225 134 -353 366t-128 506t128 506t353 367q226 135 496 135z" />
    <glyph glyph-name="five.idx_P2D" horiz-adv-x="2191" 
d="M1084 139q-116 0 -196 50q-79 50 -79 110q0 33 19 33q20 0 20 -23t-25 -28q16 -51 88 -91q71 -40 177 -40t189 80t83 208q0 129 -82 202t-206 73t-216 -49l-6 4l45 440h422v-10h-410l-43 -418q90 43 214 43t209 -76t85 -209t-86 -216t-202 -83zM1096 1612
q-406 0 -686 -291t-279 -707q0 -416 280 -706q279 -290 685 -291q406 0 686 291q280 290 278 706q0 416 -279 707t-685 291zM1096 1622q270 0 495 -135t353 -367t129 -506q0 -274 -128 -505q-127 -231 -353 -367t-496 -135q-270 0 -496 135q-225 134 -353 366t-128 506
t128 506t353 367q226 135 496 135z" />
    <glyph glyph-name="six.idx_P2D" horiz-adv-x="2191" 
d="M803 434q0 -125 83 -208t205 -83q121 0 205 87t84 209t-81 202t-207 80t-207 -81q-82 -81 -82 -206zM1348 986q0 -34 -20 -34t-21 23q0 23 24 29q-6 23 -26 43q-59 63 -168 63q-143 0 -243 -143t-99 -418v-66q14 109 96 179t208 70t210 -84q84 -83 84 -210t-87 -216
t-215 -89t-218 90q-91 89 -91 347t104 404t251 146q115 0 176 -65q35 -35 35 -69zM1096 1612q-406 0 -686 -291t-279 -707q0 -416 280 -706q279 -290 685 -291q406 0 686 291q280 290 278 706q0 416 -279 707t-685 291zM1096 1622q270 0 495 -135t353 -367t129 -506
q0 -274 -128 -505q-127 -231 -353 -367t-496 -135q-270 0 -496 135q-225 134 -353 366t-128 506t128 506t353 367q226 135 496 135z" />
    <glyph glyph-name="seven.idx_P2D" horiz-adv-x="2191" 
d="M842 1071v-194h-13v204h605l2 -4l-422 -952h-13l420 946h-579zM1096 1612q-406 0 -686 -291t-279 -707q0 -416 280 -706q279 -290 685 -291q406 0 686 291q280 290 278 706q0 416 -279 707t-685 291zM1096 1622q270 0 495 -135t353 -367t129 -506q0 -274 -128 -505
q-127 -231 -353 -367t-496 -135q-270 0 -496 135q-225 134 -353 366t-128 506t128 506t353 367q226 135 496 135z" />
    <glyph glyph-name="eight.idx_P2D" horiz-adv-x="2191" 
d="M1096 147q122 0 202 72t80 177t-82 175t-200 70t-201 -70q-82 -70 -82 -175t81 -177t202 -72zM1096 649q110 0 186 66t76 163q0 96 -75 164t-187 68t-188 -68q-74 -68 -74 -164t76 -163q76 -66 186 -66zM1096 137q-125 0 -210 75t-85 177t66 171q67 69 167 85
q-94 16 -153 81t-59 160t77 165q78 69 197 69q118 0 196 -70t78 -164q0 -95 -59 -160t-154 -81q104 -16 169 -85q65 -70 65 -172t-85 -176t-210 -75zM1096 1612q-406 0 -686 -291t-279 -707q0 -416 280 -706q279 -290 685 -291q406 0 686 291q280 290 278 706
q0 416 -279 707t-685 291zM1096 1622q270 0 495 -135t353 -367t129 -506q0 -274 -128 -505q-127 -231 -353 -367t-496 -135q-270 0 -496 135q-225 134 -353 366t-128 506t128 506t353 367q226 135 496 135z" />
    <glyph glyph-name="nine.idx_P2D" horiz-adv-x="2191" 
d="M1393 819q0 125 -83 208t-205 83t-206 -87t-84 -209t81 -202t207 -80t208 81t82 206zM848 267q0 34 19 34q19 1 19 -21t-22 -30q8 -25 27 -43q59 -63 168 -64q143 -1 243 143t99 419v67q-14 -110 -96 -180t-208 -70t-210 83t-84 210t87 216t215 89t218 -89t90 -347
t-103 -404t-251 -147q-111 0 -176 66q-35 34 -35 68zM1096 1612q-406 0 -686 -291t-279 -707q0 -416 280 -706q279 -290 685 -291q406 0 686 291q280 290 278 706q0 416 -279 707t-685 291zM1096 1622q270 0 495 -135t353 -367t129 -506q0 -274 -128 -505
q-127 -231 -353 -367t-496 -135q-270 0 -496 135q-225 134 -353 366t-128 506t128 506t353 367q226 135 496 135z" />
    <glyph glyph-name="space.tab" horiz-adv-x="542" 
 />
    <glyph glyph-name="NUL" horiz-adv-x="0" 
 />
    <glyph glyph-name="hfjslug" horiz-adv-x="1421" 
d="M872 580q-33 0 -32 34q0 12 9 24t23 11q14 0 24 -11t9 -24q0 -34 -33 -34zM997 612h-22v35h22q20 0 21 -16q-1 -19 -21 -19zM659 823q-33 0 -33 45t33 78l41 -80q-16 -43 -41 -43zM645 1056q0 30 29 29q27 -1 27 -35t-31 -69q-25 45 -25 75zM494 662l28 -97h17l22 70h2
l23 -70h16l29 97h-17l-20 -72h-2l-23 72h-14l-23 -72h-2l-20 72h-16zM270 662v-95h17v66l51 -66h14v95h-16v-66l-51 66h-15zM395 662v-95h70v15h-53v26h47v15h-47v24h53v15h-70zM750 567h16v35l37 60h-19l-26 -46l-27 46h-18l37 -60v-35zM872 565q20 1 34 15q33 33 1 68
q-15 16 -35 16t-34 -16t-14 -34q0 -20 14 -34t34 -15zM1034 631q0 31 -35 31h-41v-95h17v31h24l21 -31h18l-24 35q20 8 20 29zM1071 662v-95h16v25l17 16l31 -41h20l-41 54l37 41h-21l-40 -50h-3v50h-16zM729 1038q0 72 -55 72q-25 0 -41 -19q-17 -19 -17 -45t29 -79
q-47 -37 -47 -83q0 -91 59 -89q39 0 60 49h2l24 -49l25 12l-35 65q13 29 27 80l-27 6q-8 -37 -16 -61h-2l-33 64q47 43 47 77zM985 799q63 0 64 73v281h-33v-281q0 -45 -33 -45q-16 0 -41 11v-31q20 -8 43 -8zM377 1153v-352h31v162h96v-162h31v352h-31v-162h-96v162h-31z
M819 1153v-352h31v160h78v28h-78v135h88v29h-119zM1319 -410h-426l-16 29h-334l-17 -29h-424v621q29 0 48 19q18 19 18 46q0 26 -20 46t-46 20v1135h205l62 161h684l59 -161h207v-1887z" />
    <glyph glyph-name="A.sc" horiz-adv-x="1187" 
d="M594 1001l-232 -591h463zM367 1012h454v-11h-215l387 -991h195v-10h-447v10h240l-152 389h-471l-151 -389h239v-10h-446v10h195l387 991h-215v11z" />
    <glyph glyph-name="B.sc" horiz-adv-x="1005" 
d="M563 0h-514v10h215v991h-215v11h522q147 0 223 -72t76 -170t-63 -168t-180 -82q121 -10 195 -77t75 -185q0 -118 -91 -188t-243 -70zM276 526h293q141 0 215 69t74 169t-73 169t-214 68h-295v-475zM276 10h287q145 0 234 68q88 68 88 188t-89 185q-89 66 -235 65h-285
v-506z" />
    <glyph glyph-name="C.sc" horiz-adv-x="1110" 
d="M622 -14q-226 0 -371 148t-145 368t146 372t360 152q156 0 267 -80t110 -174q0 -39 -21 -39t-22 23q0 31 31 28q-11 88 -115 160t-250 72q-211 0 -352 -148t-141 -364t139 -362q140 -146 364 -146t365 162l8 -8q-147 -164 -373 -164z" />
    <glyph glyph-name="D.sc" horiz-adv-x="1163" 
d="M483 0h-434v10h215v991h-215v11h434q266 0 424 -135t158 -365t-155 -370q-155 -142 -427 -142zM276 10h207q266 0 418 138t152 364t-155 357q-155 132 -415 132h-207v-991z" />
    <glyph glyph-name="E.sc" horiz-adv-x="954" 
d="M831 0h-782v10h215v991h-215v11h782v-238h-12v227h-543v-479h410v-10h-410v-502h543v228h12v-238z" />
    <glyph glyph-name="F.sc" horiz-adv-x="909" 
d="M502 0h-453v10h215v991h-215v11h776v-238h-12v227h-537v-489h388v-10h-388v-492h226v-10z" />
    <glyph glyph-name="G.sc" horiz-adv-x="1157" 
d="M608 1016q-211 0 -354 -148t-143 -364t139 -362t360 -146t377 166v274h-334v10h346v-446h-12v147q-158 -161 -379 -161t-365 148q-145 148 -145 368t146 372t364 152q164 0 275 -76t110 -155q0 -39 -21 -39t-22 22q0 12 8 22t23 7q-13 77 -117 143t-256 66z" />
    <glyph glyph-name="H.sc" horiz-adv-x="1284" 
d="M49 0v10h215v991h-215v11h447v-11h-220v-485h732v485h-220v11h447v-11h-215v-991h215v-10h-447v10h220v496h-732v-496h220v-10h-447z" />
    <glyph glyph-name="I.sc" horiz-adv-x="552" 
d="M504 0h-455v10h221v991h-221v11h455v-11h-221v-991h221v-10z" />
    <glyph glyph-name="J.sc" horiz-adv-x="892" 
d="M368 -4q114 0 197 85q84 85 84 292v628h-219v11h426v-11h-194v-628q0 -213 -88 -300t-208 -87t-202 72t-82 171q0 45 24 45q18 0 19 -22q0 -31 -31 -31q4 -93 82 -159t192 -66z" />
    <glyph glyph-name="K.sc" horiz-adv-x="1079" 
d="M1079 10v-10h-217l-397 555l-189 -193v-352h220v-10h-447v10h215v991h-215v11h447v-11h-220v-622l611 622h-232v11h406v-11h-158l-430 -438l395 -553h211z" />
    <glyph glyph-name="L.sc" horiz-adv-x="880" 
d="M801 10v228h12v-238h-764v10h215v991h-215v11h453v-11h-226v-991h525z" />
    <glyph glyph-name="M.sc" horiz-adv-x="1413" 
d="M1327 1012v-11h-190l39 -991h176v-10h-394v10h205l-39 983l-413 -850h-9l-413 850l-39 -983h205v-10h-394v10h177l38 991h-190v11h207l414 -850l413 850h207z" />
    <glyph glyph-name="N.sc" horiz-adv-x="1271" 
d="M1008 1001h-220v11h447v-11h-215v-1007h-10l-734 995v-979h220v-10h-447v10h215v991h-215v11h225l734 -996v985z" />
    <glyph glyph-name="O.sc" horiz-adv-x="1214" 
d="M111 506q0 -218 139 -364t357 -146t358 146q139 146 139 364t-139 363q-139 147 -357 147t-358 -146q-139 -146 -139 -364zM606 1026q223 0 367 -149q143 -150 143 -371t-143 -371q-143 -149 -367 -149t-365 150q-142 150 -143 370q0 220 142 370t366 150z" />
    <glyph glyph-name="P.sc" horiz-adv-x="911" 
d="M502 426q146 0 232 79q87 79 87 208t-92 209t-248 79h-205v-569q80 -6 226 -6zM49 1012h432q160 0 256 -83q97 -83 97 -216t-90 -215t-265 -82q-123 0 -203 6v-412h220v-10h-447v10h215v991h-215v11z" />
    <glyph glyph-name="Q.sc" horiz-adv-x="1214" 
d="M617 -4q208 0 348 146q139 146 139 364t-139 363q-139 147 -357 147t-358 -146q-139 -146 -139 -374q0 -226 161 -375q137 -125 345 -125zM1062 -207q-62 0 -114 23q-52 24 -114 64t-112 65t-177 43q-170 23 -283 127q-164 147 -164 379t142 383q142 149 366 149
q223 0 367 -149q143 -150 143 -370t-141 -370t-361 -151q70 -10 118 -34t110 -64q128 -84 201 -85q73 0 135 37l6 -8q-60 -39 -122 -39z" />
    <glyph glyph-name="Q.sc_alt" horiz-adv-x="1214" 
d="M1104 506q0 217 -139 363q-139 147 -357 147t-358 -146q-139 -146 -139 -364t139 -364t356 -146q96 0 185 33l-146 237l10 6l146 -239q139 57 221 184t82 289zM1116 506q0 -166 -83 -295t-226 -188l113 -181l-11 -6l-112 182q-92 -33 -191 -32q-223 0 -365 150t-143 370
q0 221 142 371q142 149 366 149q223 0 367 -149q143 -150 143 -371z" />
    <glyph glyph-name="R.sc" horiz-adv-x="1003" 
d="M276 10h220v-10h-447v10h215v991h-215v11h443q158 0 250 -75t92 -195t-74 -194t-203 -89l277 -449h170v-10h-179l-280 457q-29 -4 -93 -4t-176 4v-447zM492 1001h-216v-534q111 -4 199 -4q158 0 252 74q94 73 94 197q-1 124 -89 196t-240 71z" />
    <glyph glyph-name="S.sc" horiz-adv-x="851" 
d="M686 842q0 10 8 19t21 9q-10 58 -87 102t-195 44t-201 -66t-82 -164q0 -124 133 -195q47 -26 77 -37t90 -34q132 -49 201 -97q99 -69 99 -183q0 -115 -92 -185q-92 -69 -236 -69q-143 0 -232 53q-88 53 -88 113q0 39 23 38q20 0 20 -24q0 -10 -8 -20t-20 -9
q12 -55 94 -98t215 -43t222 68t89 176q0 109 -87 169t-185 94q-97 34 -135 52t-91 51q-102 65 -102 174q0 110 86 178t213 68t210 -51t83 -119q1 -39 -21 -39t-22 25z" />
    <glyph glyph-name="T.sc" horiz-adv-x="987" 
d="M266 0v10h221v991h-387v-227h-12v238h811v-238h-12v227h-387v-991h221v-10h-455z" />
    <glyph glyph-name="U.sc" horiz-adv-x="1210" 
d="M258 1001v-639q0 -178 89 -272t258 -94t258 93t89 273v639h-219v11h447v-11h-215v-639q-1 -184 -93 -280t-267 -96t-267 96t-92 280v639h-215v11h446v-11h-219z" />
    <glyph glyph-name="V.sc" horiz-adv-x="1171" 
d="M0 1001v11h449v-11h-240l377 -1011l377 1011h-240v11h448v-11h-196l-383 -1026h-12l-383 1026h-197z" />
    <glyph glyph-name="W.sc" horiz-adv-x="1650" 
d="M0 1001v11h449v-11h-240l315 -1011l297 876h8l297 -876l316 1011h-240v11h449v-11h-197l-321 -1026h-13l-295 871l-295 -871h-12l-321 1026h-197z" />
    <glyph glyph-name="X.sc" horiz-adv-x="1105" 
d="M1096 10v-10h-387v10h194l-362 502l-361 -502h195v-10h-387v10h178l366 510l-346 481h-172v11h392v-11h-205l340 -473l340 473h-205v11h391v-11h-172l-346 -481l369 -510h178z" />
    <glyph glyph-name="Y.sc" horiz-adv-x="1114" 
d="M1114 1012v-11h-188l-363 -616v-375h221v-10h-454v10h221v375l-363 616h-188v11h432v-11h-229l354 -604l354 604h-229v11h432z" />
    <glyph glyph-name="Z.sc" horiz-adv-x="915" 
d="M86 0v6l731 995h-698v-227h-13v238h728v-6l-732 -996h723v228h13v-238h-752z" />
    <glyph glyph-name="Aacute.sc" horiz-adv-x="1187" 
d="M838 1319q8 0 8 -7t-12 -14l-299 -131l-3 4l291 144q7 4 15 4zM594 1001l-232 -591h463zM367 1012h454v-11h-215l387 -991h195v-10h-447v10h240l-152 389h-471l-151 -389h239v-10h-446v10h195l387 991h-215v11z" />
    <glyph glyph-name="Abreve.sc" horiz-adv-x="1187" 
d="M604 1163q-80 1 -143 55t-94 140l6 2q33 -82 92 -132t139 -50t139 50t93 132l6 -2q-30 -86 -94 -140t-144 -55zM594 1001l-232 -591h463zM367 1012h454v-11h-215l387 -991h195v-10h-447v10h240l-152 389h-471l-151 -389h239v-10h-446v10h195l387 991h-215v11z" />
    <glyph glyph-name="Acircumflex.sc" horiz-adv-x="1187" 
d="M367 1153l-5 4l242 193l242 -193l-4 -4l-238 178zM594 1001l-232 -591h463zM367 1012h454v-11h-215l387 -991h195v-10h-447v10h240l-152 389h-471l-151 -389h239v-10h-446v10h195l387 991h-215v11z" />
    <glyph glyph-name="Adieresis.sc" horiz-adv-x="1187" 
d="M502 1206q-25 0 -25 25t25 24q25 0 24 -24q1 -25 -24 -25zM707 1206q-25 0 -25 25t25 24q25 0 24 -24q1 -25 -24 -25zM594 1001l-232 -591h463zM367 1012h454v-11h-215l387 -991h195v-10h-447v10h240l-152 389h-471l-151 -389h239v-10h-446v10h195l387 991h-215v11z" />
    <glyph glyph-name="AE.sc" horiz-adv-x="1390" 
d="M700 410v591h-8l-338 -591h346zM485 0v10h215v389h-352l-221 -389h195v-10h-383v10h176l565 991h-215v11h803v-238h-13v227h-542v-479h409v-10h-409v-502h542v228h13v-238h-783z" />
    <glyph glyph-name="AEacute.sc" horiz-adv-x="1390" 
d="M1025 1319q7 0 7 -7t-12 -14l-299 -131l-2 4l291 144q8 4 15 4zM700 410v591h-8l-338 -591h346zM485 0v10h215v389h-352l-221 -389h195v-10h-383v10h176l565 991h-215v11h803v-238h-13v227h-542v-479h409v-10h-409v-502h542v228h13v-238h-783z" />
    <glyph glyph-name="Agrave.sc" horiz-adv-x="1187" 
d="M370 1319q8 0 15 -4l291 -144l-2 -4l-299 131q-13 6 -13 14t8 7zM594 1001l-232 -591h463zM367 1012h454v-11h-215l387 -991h195v-10h-447v10h240l-152 389h-471l-151 -389h239v-10h-446v10h195l387 991h-215v11z" />
    <glyph glyph-name="Amacron.sc" horiz-adv-x="1187" 
d="M348 1227v12h512v-12h-512zM594 1001l-232 -591h463zM367 1012h454v-11h-215l387 -991h195v-10h-447v10h240l-152 389h-471l-151 -389h239v-10h-446v10h195l387 991h-215v11z" />
    <glyph glyph-name="Aogonek.sc" horiz-adv-x="1167" 
d="M573 1001l-231 -591h463zM963 -412q-78 0 -124 46t-46 118q0 147 159 248h-231v10h240l-152 389h-471l-152 -389h240v-10h-446v10h194l387 991h-215v11h455v-11h-215l387 -991h194v-10h-198q-164 -102 -164 -248q0 -68 44 -110t119 -43q75 0 132 47v-13q-59 -45 -137 -45
z" />
    <glyph glyph-name="Aring.sc" horiz-adv-x="1187" 
d="M594 1012q53 0 88 36t35 89t-35 90t-88 37t-88 -37t-35 -90t35 -89t88 -36zM594 1001l-232 -591h463zM446 0h-446v10h195l387 991h-215v11h174q-82 33 -82 125q0 57 38 97t97 40t97 -40t38 -97q0 -96 -84 -125h176v-11h-215l387 -991h195v-10h-447v10h240l-152 389h-471
l-151 -389h239v-10z" />
    <glyph glyph-name="Aringacute.sc" horiz-adv-x="1167" 
d="M818 1546q7 0 7 -7t-12 -13l-299 -131l-2 4l291 143q8 4 15 4zM594 1012q53 0 88 36t35 89t-35 90t-88 37t-88 -37t-35 -90t35 -89t88 -36zM594 1001l-232 -591h463zM446 0h-446v10h195l387 991h-215v11h174q-82 33 -82 125q0 57 38 97t97 40t97 -40t38 -97
q0 -96 -84 -125h176v-11h-215l387 -991h195v-10h-447v10h240l-152 389h-471l-151 -389h239v-10z" />
    <glyph glyph-name="Atilde.sc" horiz-adv-x="1187" 
d="M745 1194q-53 0 -142 62t-134 63q-86 0 -137 -133l-8 4q55 139 147 139q51 0 140 -62t137 -63q86 0 133 121l8 -4q-52 -127 -144 -127zM594 1001l-232 -591h463zM367 1012h454v-11h-215l387 -991h195v-10h-447v10h240l-152 389h-471l-151 -389h239v-10h-446v10h195
l387 991h-215v11z" />
    <glyph glyph-name="Cacute.sc" horiz-adv-x="1110" 
d="M832 1319q7 0 8 -8q0 -6 -13 -13l-299 -131l-2 4l291 144q8 4 15 4zM622 -14q-226 0 -371 148t-145 368t146 372t360 152q156 0 267 -80t110 -174q0 -39 -21 -39t-22 23q0 31 31 28q-11 88 -115 160t-250 72q-211 0 -352 -148t-141 -364t139 -362q140 -146 364 -146
t365 162l8 -8q-147 -164 -373 -164z" />
    <glyph glyph-name="Ccaron.sc" horiz-adv-x="1110" 
d="M836 1350l4 -4l-242 -193l-242 193l4 4l238 -179zM622 -14q-226 0 -371 148t-145 368t146 372t360 152q156 0 267 -80t110 -174q0 -39 -21 -39t-22 23q0 31 31 28q-11 88 -115 160t-250 72q-211 0 -352 -148t-141 -364t139 -362q140 -146 364 -146t365 162l8 -8
q-147 -164 -373 -164z" />
    <glyph glyph-name="Ccedilla.sc" horiz-adv-x="1110" 
d="M766 -277q0 -61 -43 -97t-131 -36t-176 39l2 11q88 -39 176 -39q160 0 160 123q0 111 -183 120h-10l-4 4l27 138q-209 14 -343 159q-135 145 -135 361t144 368q144 150 362 150q156 0 267 -79t110 -173q0 -39 -21 -39t-22 23q0 31 31 28q-11 88 -115 159t-250 71
q-211 0 -352 -148t-141 -362q0 -216 139 -362t363 -146t366 162l8 -8q-147 -164 -381 -164h-20l-23 -131q87 -4 141 -38t54 -94z" />
    <glyph glyph-name="Cdotaccent.sc" horiz-adv-x="1110" 
d="M598 1206q-25 0 -25 25t25 25t25 -26q0 -24 -25 -24zM622 -14q-226 0 -371 148t-145 368t146 372t360 152q156 0 267 -80t110 -174q0 -39 -21 -39t-22 23q0 31 31 28q-11 88 -115 160t-250 72q-211 0 -352 -148t-141 -364t139 -362q140 -146 364 -146t365 162l8 -8
q-147 -164 -373 -164z" />
    <glyph glyph-name="Dcaron.sc" horiz-adv-x="1163" 
d="M776 1350l4 -4l-241 -193l-242 193l4 4l238 -179zM483 0h-434v10h215v991h-215v11h434q266 0 424 -135t158 -365t-155 -370q-155 -142 -427 -142zM276 10h207q266 0 418 138t152 364t-155 357q-155 132 -415 132h-207v-991z" />
    <glyph glyph-name="Dcroat.sc" horiz-adv-x="1169" 
d="M283 10h206q266 0 418 138t152 364t-155 357q-155 132 -415 132h-206v-481h247v-10h-247v-500zM489 0h-434v10h215v500h-174v10h174v481h-215v11h434q266 0 424 -135t158 -365t-155 -370q-155 -142 -427 -142z" />
    <glyph glyph-name="Eacute.sc" horiz-adv-x="954" 
d="M718 1319q8 0 7 -7q0 -7 -12 -14l-299 -131l-2 4l290 144q8 4 16 4zM831 0h-782v10h215v991h-215v11h782v-238h-12v227h-543v-479h410v-10h-410v-502h543v228h12v-238z" />
    <glyph glyph-name="Ebreve.sc" horiz-adv-x="954" 
d="M483 1163q-80 1 -143 55t-94 140l6 2q33 -82 92 -132t139 -50t140 50q59 50 92 132l6 -2q-31 -86 -95 -140t-143 -55zM831 0h-782v10h215v991h-215v11h782v-238h-12v227h-543v-479h410v-10h-410v-502h543v228h12v-238z" />
    <glyph glyph-name="Ecaron.sc" horiz-adv-x="954" 
d="M721 1350l4 -4l-242 -193l-241 193l4 4l237 -179zM831 0h-782v10h215v991h-215v11h782v-238h-12v227h-543v-479h410v-10h-410v-502h543v228h12v-238z" />
    <glyph glyph-name="Ecircumflex.sc" horiz-adv-x="954" 
d="M246 1153l-4 4l241 193l242 -193l-4 -4l-238 178zM831 0h-782v10h215v991h-215v11h782v-238h-12v227h-543v-479h410v-10h-410v-502h543v228h12v-238z" />
    <glyph glyph-name="Edieresis.sc" horiz-adv-x="954" 
d="M381 1206q-25 0 -25 25t25 25t25 -26q0 -24 -25 -24zM586 1206q-25 0 -25 25t25 24q25 0 24 -24q1 -25 -24 -25zM831 0h-782v10h215v991h-215v11h782v-238h-12v227h-543v-479h410v-10h-410v-502h543v228h12v-238z" />
    <glyph glyph-name="Edotaccent.sc" horiz-adv-x="954" 
d="M483 1206q-25 0 -24 25q0 25 24 24q25 -1 25 -25t-25 -24zM831 0h-782v10h215v991h-215v11h782v-238h-12v227h-543v-479h410v-10h-410v-502h543v228h12v-238z" />
    <glyph glyph-name="Egrave.sc" horiz-adv-x="954" 
d="M242 1312q0 8 7 7q7 0 15 -4l291 -144l-2 -4l-299 131q-12 6 -12 14zM831 0h-782v10h215v991h-215v11h782v-238h-12v227h-543v-479h410v-10h-410v-502h543v228h12v-238z" />
    <glyph glyph-name="Emacron.sc" horiz-adv-x="954" 
d="M227 1227v12h512v-12h-512zM831 0h-782v10h215v991h-215v11h782v-238h-12v227h-543v-479h410v-10h-410v-502h543v228h12v-238z" />
    <glyph glyph-name="Eogonek.sc" horiz-adv-x="960" 
d="M701 -412q-78 0 -124 46t-47 118q0 147 160 248h-635v10h215v991h-215v11h783v-238h-13v227h-542v-479h409v-10h-409v-502h542v228h13v-238h-131q-164 -100 -164 -248q0 -68 44 -110t119 -43q75 0 132 47v-13q-59 -45 -137 -45z" />
    <glyph glyph-name="Eth.sc" horiz-adv-x="1169" 
d="M283 10h206q266 0 418 138t152 364t-155 357q-155 132 -415 132h-206v-481h247v-10h-247v-500zM489 0h-434v10h215v500h-174v10h174v481h-215v11h434q266 0 424 -135t158 -365t-155 -370q-155 -142 -427 -142z" />
    <glyph glyph-name="Gbreve.sc" horiz-adv-x="1157" 
d="M602 1163q-80 1 -143 55t-94 140l6 2q33 -82 92 -132t139 -50t139 50t93 132l6 -2q-30 -86 -94 -140t-144 -55zM608 1016q-211 0 -354 -148t-143 -364t139 -362t360 -146t377 166v274h-334v10h346v-446h-12v147q-158 -161 -379 -161t-365 148q-145 148 -145 368t146 372
t364 152q164 0 275 -76t110 -155q0 -39 -21 -39t-22 22q0 12 8 22t23 7q-13 77 -117 143t-256 66z" />
    <glyph glyph-name="Gcommaaccent.sc" horiz-adv-x="1157" 
d="M582 -154q0 23 20 23q29 0 29 -49q0 -90 -80 -176l-6 6q74 86 73 172q-14 -8 -25 1t-11 23zM608 1016q-211 0 -354 -148t-143 -364t139 -362t360 -146t377 166v274h-334v10h346v-446h-12v147q-158 -161 -379 -161t-365 148q-145 148 -145 368t146 372t364 152
q164 0 275 -76t110 -155q0 -39 -21 -39t-22 22q0 12 8 22t23 7q-13 77 -117 143t-256 66z" />
    <glyph glyph-name="Gdotaccent.sc" horiz-adv-x="1157" 
d="M602 1206q-25 0 -24 25q0 25 24 24q25 -1 25 -25t-25 -24zM608 1016q-211 0 -354 -148t-143 -364t139 -362t360 -146t377 166v274h-334v10h346v-446h-12v147q-158 -161 -379 -161t-365 148q-145 148 -145 368t146 372t364 152q164 0 275 -76t110 -155q0 -39 -21 -39
t-22 22q0 12 8 22t23 7q-13 77 -117 143t-256 66z" />
    <glyph glyph-name="Hbar.sc" horiz-adv-x="1296" 
d="M283 516h731v238h-731v-238zM1200 764v-10h-174v-744h215v-10h-446v10h219v496h-731v-496h219v-10h-447v10h215v744h-174v10h174v237h-215v11h447v-11h-219v-237h731v237h-219v11h446v-11h-215v-237h174z" />
    <glyph glyph-name="Iacute.sc" horiz-adv-x="552" 
d="M513 1319q7 0 7 -7t-12 -14l-299 -131l-2 4l291 144q8 4 15 4zM504 0h-455v10h221v991h-221v11h455v-11h-221v-991h221v-10z" />
    <glyph glyph-name="Ibreve.sc" horiz-adv-x="552" 
d="M279 1163q-79 1 -143 55t-95 140l6 2q33 -82 92 -132t139 -50t140 50q59 50 92 132l6 -2q-31 -86 -94 -140t-143 -55zM504 0h-455v10h221v991h-221v11h455v-11h-221v-991h221v-10z" />
    <glyph glyph-name="Icircumflex.sc" horiz-adv-x="552" 
d="M41 1153l-4 4l242 193l241 -193l-4 -4l-237 178zM504 0h-455v10h221v991h-221v11h455v-11h-221v-991h221v-10z" />
    <glyph glyph-name="Idieresis.sc" horiz-adv-x="552" 
d="M176 1206q-25 0 -24 25q0 25 24 24q25 -1 25 -25t-25 -24zM381 1206q-25 0 -25 25t25 25t25 -26q0 -24 -25 -24zM504 0h-455v10h221v991h-221v11h455v-11h-221v-991h221v-10z" />
    <glyph glyph-name="Idotaccent.sc" horiz-adv-x="552" 
d="M279 1206q-25 0 -25 25t25 24q25 0 24 -24q1 -25 -24 -25zM504 0h-455v10h221v991h-221v11h455v-11h-221v-991h221v-10z" />
    <glyph glyph-name="Igrave.sc" horiz-adv-x="552" 
d="M37 1312q0 8 7 7q7 0 15 -4l291 -144l-2 -4l-299 131q-12 6 -12 14zM504 0h-455v10h221v991h-221v11h455v-11h-221v-991h221v-10z" />
    <glyph glyph-name="Imacron.sc" horiz-adv-x="552" 
d="M23 1227v12h512v-12h-512zM504 0h-455v10h221v991h-221v11h455v-11h-221v-991h221v-10z" />
    <glyph glyph-name="Iogonek.sc" horiz-adv-x="565" 
d="M281 -412q-78 0 -124 46t-46 118q0 147 159 248h-215v10h221v991h-221v11h455v-11h-221v-991h221v-10h-223q-164 -100 -164 -248q0 -68 44 -110t119 -43q75 0 132 47v-13q-59 -45 -137 -45z" />
    <glyph glyph-name="Kcommaaccent.sc" horiz-adv-x="1079" 
d="M555 -154q0 23 20 23q29 0 29 -49q0 -90 -80 -176l-6 6q74 86 74 172q-14 -8 -26 1q-11 9 -11 23zM1079 10v-10h-217l-397 555l-189 -193v-352h220v-10h-447v10h215v991h-215v11h447v-11h-220v-622l611 622h-232v11h406v-11h-158l-430 -438l395 -553h211z" />
    <glyph glyph-name="Lacute.sc" horiz-adv-x="886" 
d="M536 1319q8 0 7 -7q0 -7 -13 -14l-299 -131l-2 4l291 144q8 4 16 4zM807 10v228h12v-238h-764v10h215v991h-215v11h453v-11h-225v-991h524z" />
    </font>
</defs>
</svg>
