<?xml version="1.0" standalone="no"?>
<!DOCTYPE svg PUBLIC "-//W3C//DTD SVG 1.1//EN" "http://www.w3.org/Graphics/SVG/1.1/DTD/svg11.dtd" >
<svg xmlns="http://www.w3.org/2000/svg">
<metadata>
Created by FontPrep 20130207 at Sun Apr  5 22:22:55 2015
 By Tina Kumar
Copyright (C) 2000, 2007 Hoefler &#38; Frere-Jones. http://www.typography.com
</metadata>
<defs>
<font id="7616edb274882cfe5f8486309f953215" horiz-adv-x='1024' >
  <font-face 
    font-family="Archer-HairlineItalic"
    font-weight="250"
    font-style="italic"
    font-stretch="normal"
    units-per-em="2048"
    panose-1="0 0 0 0 0 0 0 0 0 0"
    ascent="1638"
    descent="-410"
    x-height="827"
    cap-height="1348"
    bbox="-244 -451 2073 1917"
    underline-thickness="102"
    underline-position="-102"
    slope="-12"
    unicode-range="U+0020-FB04"
  />
<missing-glyph horiz-adv-x="1024" 
d="M512 492l-367 -799h734zM922 1384l-353 -770l353 -770v1540zM102 -156l353 770l-353 770v-1540zM145 1536l367 -799l367 799h-734zM0 -410v2048h1024v-2048h-1024z" />
    <glyph glyph-name="f_f" unicode="ff" horiz-adv-x="985" 
d="M750 1386q-25 0 -25 25q0 14 10 25q-23 12 -57 12q-84 0 -156 -69t-116 -263l-68 -289h450l78 332q47 203 124 273t161 69q43 0 68 -14t25 -36t-21 -21q-25 0 -25 24q0 14 10 25q-20 12 -57 12q-83 -1 -155 -69t-117 -263l-78 -332h235l-2 -10h-235l-189 -817h-12
l188 817h-450l-189 -817h-12l189 817h-166l2 10h166l67 289q47 202 124 272t161 70q44 0 68 -14t24 -36t-20 -22z" />
    <glyph glyph-name="fi" unicode="fi" horiz-adv-x="905" 
d="M698 1499q70 0 114 -33q44 -32 44 -64t-20 -32t-21 23q0 23 25 26q-33 70 -142 70q-156 0 -227 -158q-33 -70 -55 -172l-78 -332h426l-166 -561q-33 -106 -33 -158t27 -82q27 -28 72 -28q46 0 80 39t65 125l10 -2q-33 -92 -69 -132t-87 -40q-52 0 -81 32t-29 83
q0 52 33 163l164 551h-414l-189 -817h-12l189 817h-166l2 10h166l77 332q25 106 56 174q74 166 239 166z" />
    <glyph glyph-name="fl" unicode="fl" horiz-adv-x="952" 
d="M866 1235q-20 0 -20 20q0 29 31 29v14q1 88 -51 142t-140 55q-197 0 -252 -256l-96 -412h440l94 408h-6zM686 1505q96 0 152 -62t47 -159l49 201h8l-297 -1284q-12 -51 -12 -96q1 -45 27 -76t72 -31t81 39t66 125l10 -2q-33 -90 -70 -131t-89 -41t-81 34t-29 78t13 101
l143 616h-440l-189 -817h-12l189 817h-166l2 10h166l96 414q20 96 57 152q76 112 207 112z" />
    <glyph glyph-name="f_f_i" unicode="ffi" horiz-adv-x="1368" 
d="M1126 -2q87 0 146 164l10 -2q-33 -92 -69 -132t-88 -40t-81 32q-28 32 -28 83q0 52 33 163l163 551h-413l-189 -817h-12l188 817h-450l-189 -817h-12l189 817h-166l2 10h166l67 289q47 202 124 272t161 70q44 0 68 -14t24 -36t-20 -22q-25 0 -25 25q0 14 10 25
q-25 12 -57 12q-84 0 -156 -69t-116 -263l-68 -289h450l78 332q25 106 56 174q74 166 239 166q70 0 114 -33q44 -32 44 -64q-1 -32 -21 -32t-20 23t25 26q-33 70 -142 70q-156 0 -227 -158q-33 -70 -55 -172l-78 -332h426l-166 -561q-33 -106 -33 -158t27 -82q27 -28 71 -28
z" />
    <glyph glyph-name="f_f_l" unicode="ffl" horiz-adv-x="1415" 
d="M1329 1235q-20 0 -20 20q0 29 30 29v14q0 88 -51 142t-139 55q-199 0 -252 -256l-96 -412h440l94 408h-6zM1149 1505q96 0 151 -62t48 -159l49 201h8l-297 -1284q-12 -53 -12 -97t26 -75t73 -31q46 0 81 39t65 125l11 -2q-33 -90 -70 -131t-89 -41t-81 34t-29 78t13 101
l143 616h-440l-189 -817h-12l188 817h-450l-189 -817h-12l189 817h-166l2 10h166l92 400q49 232 246 231q66 0 104 -24t39 -56q0 -31 -21 -30q-20 0 -20 24t22 27q-27 49 -124 49q-127 0 -189 -100q-27 -43 -45 -121l-92 -400h450l97 414q20 96 57 152q76 112 207 112z" />
    <glyph glyph-name="f_b" unicode="fb" horiz-adv-x="1486" 
d="M846 1255q0 29 31 29v14q1 88 -51 142t-140 55q-197 0 -252 -256l-96 -412h440l94 408h-6q-20 0 -20 20zM977 -2q180 0 296 154t116 329t-75 261t-200 87q-125 -1 -224 -81q-100 -80 -152 -196t-52 -246t80 -218q80 -90 211 -90zM1113 840q132 0 210 -90t78 -270
t-119 -336q-119 -157 -305 -156q-137 0 -219 92t-82 242v14l-78 -336h-12l190 817h-440l-189 -817h-12l189 817h-166l2 10h166l96 414q20 96 57 152q76 113 207 112q96 0 152 -62t47 -157l49 199h8l-219 -944q57 129 157 214t233 85z" />
    <glyph glyph-name="f_h" unicode="fh" horiz-adv-x="1484" 
d="M846 1255q0 29 31 29v14q1 88 -51 142t-140 55q-197 0 -252 -256l-96 -412h440l94 408h-6q-20 0 -20 20zM1171 112q0 -52 27 -84q27 -30 72 -30q90 0 149 164l11 -2q-33 -90 -70 -131t-90 -41t-82 34t-29 88t33 154l63 205q37 115 37 188q0 172 -180 172
q-137 0 -261 -139t-173 -346l-80 -344h-12l190 817h-440l-189 -817h-12l189 817h-166l2 10h166l96 414q20 96 57 152q76 113 207 112q96 0 152 -62t47 -159l49 201h8l-237 -1026q61 168 174 274q113 107 220 107q204 1 206 -183q0 -74 -37 -188l-64 -205q-33 -100 -33 -152z
" />
    <glyph glyph-name="f_j" unicode="fj" horiz-adv-x="839" 
d="M236 -377q0 20 22 21q27 0 27 -27q0 -8 -6 -14q4 -2 14 -2q104 0 164 94q76 119 141 426l152 696h-414l-189 -817h-12l189 817h-166l2 10h166l77 332q25 106 56 174q74 166 239 166q70 0 114 -33q44 -32 44 -64t-20 -32t-21 23q0 23 25 26q-33 70 -142 70
q-156 0 -227 -158q-33 -70 -55 -172l-78 -332h426l-154 -708q-68 -311 -143 -430q-66 -98 -174 -99q-57 0 -57 33z" />
    <glyph glyph-name="f_k" unicode="fk" horiz-adv-x="1392" 
d="M846 1255q0 29 31 29v14q1 88 -51 142t-140 55q-197 0 -252 -256l-96 -412h440l94 408h-6q-20 0 -20 20zM1241 817q0 23 22 23t21 -39q0 -139 -389 -342l119 -283q45 -102 76 -140t69 -38q94 0 139 188l11 -2q-45 -197 -152 -196q-43 0 -78 42t-78 144l-116 279
q-80 -41 -203 -93l-84 -360h-12l190 817h-440l-189 -817h-12l189 817h-166l2 10h166l96 414q20 96 57 152q76 113 207 112q96 0 152 -62t47 -159l49 201h8l-258 -1112q288 115 471 264q109 88 117 154q-12 -2 -22 6q-9 8 -9 20z" />
    <glyph glyph-name="f_f_b" unicode="ffb" horiz-adv-x="1949" 
d="M1329 1235q-20 0 -20 20q0 29 30 29v14q0 88 -51 142t-139 55q-199 0 -252 -256l-96 -412h438l92 390l4 18h-6zM1440 -2q180 0 296 154t115 348q-1 156 -75 242t-199 87q-125 -1 -224 -81t-151 -196t-53 -246q0 -130 80 -218q80 -90 211 -90zM1149 1505q96 0 151 -62
t48 -159l49 201h8l-219 -944q57 129 157 214q101 85 233 85t210 -90t78 -270t-119 -336q-119 -157 -305 -156q-137 0 -219 92t-82 242v12l-78 -334h-12l188 817h-438l-189 -817h-12l188 817h-450l-189 -817h-12l189 817h-166l2 10h166l92 400q49 232 246 231q66 0 104 -24
t39 -56q0 -31 -21 -30q-20 0 -20 24t22 27q-27 49 -124 49q-127 0 -189 -100q-27 -43 -45 -121l-92 -400h450l97 414q20 96 57 152q76 112 207 112z" />
    <glyph glyph-name="f_f_h" unicode="ffh" horiz-adv-x="1947" 
d="M1329 1235q-20 0 -20 20q0 29 30 29v14q0 88 -51 142t-139 55q-199 0 -252 -256l-96 -412h438l92 390l4 18h-6zM1149 1505q96 0 151 -62t48 -159l49 201h8l-238 -1026q61 168 174 274q113 107 221 107q206 1 205 -183q0 -74 -36 -188l-64 -205q-33 -100 -33 -152t27 -84
q27 -30 72 -30q90 0 149 164l10 -2q-34 -90 -70 -131t-89 -41t-82 34t-29 88t33 154l63 205q37 115 37 188q0 172 -180 172q-137 0 -261 -139t-173 -346l-80 -344h-12l188 817h-438l-189 -817h-12l188 817h-450l-189 -817h-12l189 817h-166l2 10h166l92 400q49 232 246 231
q66 0 104 -24t39 -56q0 -31 -21 -30q-20 0 -20 24t22 27q-27 49 -124 49q-127 0 -189 -100q-27 -43 -45 -121l-92 -400h450l97 414q20 96 57 152q76 112 207 112z" />
    <glyph glyph-name="f_f_j" unicode="ffj" horiz-adv-x="1302" 
d="M678 1458q44 0 68 -14t24 -36t-20 -22q-25 0 -25 25q0 14 10 25q-25 12 -57 12q-84 0 -156 -69t-116 -263l-68 -289h450l78 332q25 106 56 174q74 166 239 166q70 0 114 -33q44 -32 44 -64q-1 -32 -21 -32t-20 23t25 26q-33 70 -142 70q-156 0 -227 -158
q-33 -70 -55 -172l-78 -332h426l-154 -708q-68 -311 -143 -430q-66 -98 -174 -99q-57 0 -58 33q0 20 23 21q27 0 27 -27q0 -8 -7 -14q4 -2 15 -2q104 0 164 94q76 119 141 426l151 696h-413l-189 -817h-12l188 817h-450l-189 -817h-12l189 817h-166l2 10h166l67 289
q47 202 124 272t161 70z" />
    <glyph glyph-name="f_f_k" unicode="ffk" horiz-adv-x="1855" 
d="M1329 1235q-20 0 -20 20q0 29 30 29v14q0 88 -51 142t-139 55q-199 0 -252 -256l-96 -412h438l92 390l4 18h-6zM1149 1505q96 0 151 -62t48 -159l49 201h8l-258 -1112q186 71 382 197t206 221q-12 -2 -22 6q-9 8 -9 20q0 23 22 23t21 -39q0 -139 -389 -342l119 -283
q45 -102 75 -141q31 -37 70 -37q94 0 139 188l11 -2q-45 -197 -152 -196q-43 0 -78 42t-78 144l-116 279q-96 -51 -203 -95l-84 -358h-12l188 817h-438l-189 -817h-12l188 817h-450l-189 -817h-12l189 817h-166l2 10h166l92 400q49 232 246 231q66 0 104 -24t39 -56
q0 -31 -21 -30q-20 0 -20 24t22 27q-27 49 -124 49q-127 0 -189 -100q-27 -43 -45 -121l-92 -400h450l97 414q20 96 57 152q76 112 207 112z" />
    <glyph glyph-name=".notdef" horiz-adv-x="1024" 
d="M512 492l-367 -799h734zM922 1384l-353 -770l353 -770v1540zM102 -156l353 770l-353 770v-1540zM145 1536l367 -799l367 799h-734zM0 -410v2048h1024v-2048h-1024z" />
    <glyph glyph-name=".null" 
 />
    <glyph glyph-name="nonmarkingreturn" horiz-adv-x="681" 
 />
    <glyph glyph-name="space" unicode=" " horiz-adv-x="395" 
 />
    <glyph glyph-name="exclam" unicode="!" horiz-adv-x="358" 
d="M84 -16q-25 0 -25 24t25 25q25 -1 25 -25t-25 -24zM145 301l238 1047h14l-241 -1047h-11z" />
    <glyph glyph-name="quotedbl" unicode="&#x22;" horiz-adv-x="413" 
d="M277 1362q9 0 10 -8q0 -6 -2 -13l-64 -239h-4l49 246q2 14 11 14zM441 1362q9 0 10 -8q0 -6 -2 -13l-64 -239h-4l49 246q2 14 11 14z" />
    <glyph glyph-name="numbersign" unicode="#" horiz-adv-x="1026" 
d="M397 715l-108 -391h346l108 391h-346zM158 715l2 10h227l80 291h12l-80 -291h346l80 291h13l-80 -291h200l-2 -10h-200l-109 -391h225l-2 -11h-225l-86 -313h-12l86 313h-346l-86 -313h-13l86 313h-202l2 11h202l109 391h-227z" />
    <glyph glyph-name="dollar" unicode="$" horiz-adv-x="817" 
d="M502 991q-117 -1 -199 -59t-82 -142t52 -141t157 -117l133 455q-41 4 -61 4zM666 245q0 85 -58 146t-170 127l-143 -487q29 -4 59 -4q141 0 227 66q85 67 85 152zM50 254q21 0 22 -23q0 -31 -31 -26q6 -57 74 -107t170 -65l143 489q-111 62 -165 122t-54 147t86 149
t207 61q23 0 63 -4l49 166l11 -4l-50 -164q97 -16 157 -65q60 -48 60 -94t-22 -45q-20 0 -20 22q0 13 9 21t21 6q-8 47 -63 89t-144 56l-133 -457q238 -133 238 -272q0 -102 -88 -171t-236 -69q-41 0 -61 4l-66 -227l-10 4l66 226q-106 16 -181 73q-74 57 -73 117
q0 41 21 41z" />
    <glyph glyph-name="percent" unicode="%" horiz-adv-x="1253" 
d="M869 -4q-91 0 -140 55t-49 146t69 173t159 81q90 1 140 -55t50 -147t-69 -172t-160 -81zM390 567q-91 -1 -140 55t-49 147t68 172q69 81 160 81t140 -55t49 -146t-68 -173q-69 -81 -160 -81zM390 578q85 0 151 78q65 78 65 164q0 88 -46 140t-131 52t-151 -78t-65 -165
q0 -87 46 -139t131 -52zM135 -45l-8 8l999 1059l9 -8zM869 6q85 0 151 78t66 165t-47 139q-46 52 -131 52q-84 0 -150 -78t-66 -165t46 -139t131 -52z" />
    <glyph glyph-name="ampersand" unicode="&#x26;" horiz-adv-x="1138" 
d="M840 1054q0 72 -56 122t-152 51q-98 0 -174 -83t-75 -207q0 -124 74 -249q77 33 111 47t98 50t93 68q81 86 81 201zM346 -12q125 0 222 76t194 206l-172 211q-88 106 -139 193q-175 -74 -279 -168t-104 -252q0 -119 76 -193q77 -73 202 -73zM55 254q0 172 127 276
q105 88 264 154q-76 129 -76 255t81 212q80 86 181 86q100 0 160 -53t60 -135t-44 -157q-19 -35 -115 -105q-22 -15 -78 -42t-73 -33t-81 -34q49 -82 139 -191l168 -206q117 153 173 201q57 48 111 49t54 -19t-23 -20q-12 0 -20 9t-6 21q-59 -2 -115 -54t-168 -196l225 -274
l-10 -6l-221 270q-66 -88 -116 -140t-135 -98t-193 -46t-189 75q-80 76 -80 201z" />
    <glyph glyph-name="quotesingle" unicode="'" horiz-adv-x="249" 
d="M277 1362q9 0 10 -8q0 -6 -2 -13l-64 -239h-4l49 246q2 14 11 14z" />
    <glyph glyph-name="parenleft" unicode="(" horiz-adv-x="593" 
d="M539 -451q-393 334 -394 838q0 363 195 669t524 478l6 -8q-326 -172 -520 -475t-192 -664q0 -500 389 -829z" />
    <glyph glyph-name="parenright" unicode=")" horiz-adv-x="593" 
d="M469 696q0 500 -389 830l8 8q393 -334 393 -838q-1 -362 -195 -668t-524 -479l-6 9q326 172 520 475t193 663z" />
    <glyph glyph-name="asterisk" unicode="*" horiz-adv-x="671" 
d="M606 930q-8 0 -10 8l-94 229l-178 -166q-4 -4 -10 -4t-8 5q-3 5 3 12l189 162l-211 120q-8 4 -8 12t6 7q6 0 10 -2l207 -131l53 241q2 8 10 9q10 0 6 -13l-61 -239l248 26h6q8 0 8 -8t-10 -8l-252 -19l100 -223q4 -8 4 -13t-8 -5z" />
    <glyph glyph-name="plus" unicode="+" horiz-adv-x="743" 
d="M475 823l-65 -280h274l-2 -11h-274l-72 -303h-12l71 303h-276l2 11h276l66 280h12z" />
    <glyph glyph-name="comma" unicode="," horiz-adv-x="217" 
d="M39 35q29 0 29 -41q0 -100 -123 -182l-4 6q115 84 114 170q-14 -8 -25 1q-12 9 -12 27t21 19z" />
    <glyph glyph-name="hyphen" unicode="-" horiz-adv-x="446" 
d="M90 541l2 12h307l-2 -12h-307z" />
    <glyph glyph-name="period" unicode="." horiz-adv-x="221" 
d="M47 -16q-25 0 -25 24t26 25q24 -1 24 -25t-25 -24z" />
    <glyph glyph-name="slash" unicode="/" horiz-adv-x="712" 
d="M-168 -403l-10 4l1044 1894l11 -4z" />
    <glyph glyph-name="zero" unicode="0" horiz-adv-x="974" 
d="M432 -4q201 0 341 188t140 434q0 186 -90 292t-233 106q-207 0 -347 -188t-141 -435q0 -189 92 -293t238 -104zM432 -14q-154 0 -248 108t-94 299q0 253 143 443t357 190q147 0 241 -108t95 -300q0 -250 -144 -441t-350 -191z" />
    <glyph glyph-name="one" unicode="1" horiz-adv-x="661" 
d="M4 0l2 10h242l231 1000l-264 -68v12l274 70l5 -6l-234 -1008h242l-2 -10h-496z" />
    <glyph glyph-name="two" unicode="2" horiz-adv-x="899" 
d="M799 794q0 99 -77 160q-77 62 -208 62t-215 -67t-88 -150q12 2 21 -6q10 -8 10 -26t-21 -17q-23 0 -22 38q0 90 87 164t225 74t219 -64t81 -168q0 -103 -66 -173q-67 -69 -189 -135t-225 -126t-156 -116q-115 -120 -144 -234h624l60 264h12l-61 -274h-643l-5 8
q41 165 179 268q137 103 305 192t232 158t65 168z" />
    <glyph glyph-name="three" unicode="3" horiz-adv-x="905" 
d="M328 -254q-139 0 -240 72q-100 72 -100 172q0 39 21 39t22 -23q0 -12 -9 -20t-22 -6q6 -92 101 -158t227 -66q180 0 285 104t105 244q0 142 -97 223q-98 81 -277 81h-20l2 10h20q223 0 349 92t126 238q0 116 -80 192t-209 76t-217 -60t-96 -137q31 -1 31 -25t-22 -24
t-21 39q4 86 96 152q92 65 228 65q135 0 219 -80t84 -208t-109 -220t-303 -106q147 -16 228 -98t81 -218q-1 -138 -109 -244t-294 -106z" />
    <glyph glyph-name="four" unicode="4" horiz-adv-x="870" 
d="M655 627l-104 -447h248l-2 -10h-248l-96 -416h-13l97 416h-564l-2 6l772 850l9 -6l-762 -840h549l102 438z" />
    <glyph glyph-name="five" unicode="5" horiz-adv-x="833" 
d="M276 -258q-121 0 -215 62t-94 141q-1 39 21 39t22 -23q0 -12 -9 -20t-21 -7q8 -70 98 -126t198 -56q174 0 298 124t124 302q0 139 -84 220t-221 81t-250 -47l-8 6l195 576h504l-3 -10h-493q-147 -434 -188 -558q113 43 249 43q136 -1 224 -83t88 -228q1 -182 -127 -309
t-308 -127z" />
    <glyph glyph-name="six" unicode="6" horiz-adv-x="968" 
d="M536 741q-158 1 -275 -125q-118 -126 -118 -284t92 -246t249 -88t273 131t115 303q0 137 -89 223t-247 86zM482 -12q-163 0 -260 96t-97 278t78 407q78 224 219 364t332 141q111 0 174 -55t63 -107t-21 -53q-21 0 -22 22q0 9 9 19t22 10q-7 57 -67 105t-158 49
q-184 0 -324 -138t-215 -357q-76 -218 -78 -386q23 153 137 261t270 108q155 0 248 -89t93 -248t-120 -293t-283 -134z" />
    <glyph glyph-name="seven" unicode="7" horiz-adv-x="776" 
d="M68 -244l-11 6l795 1242h-641l-61 -265h-13l64 275h661l4 -8z" />
    <glyph glyph-name="eight" unicode="8" horiz-adv-x="913" 
d="M412 -2q152 0 263 99q112 99 111 259q0 127 -90 215t-219 88q-167 0 -279 -106q-112 -105 -112 -245t87 -225t239 -85zM526 668q152 0 262 93t109 219q0 126 -81 205q-82 79 -218 79t-236 -96t-100 -240q0 -108 78 -184t186 -76zM410 -12q-156 0 -246 88t-90 230t108 249
q109 106 277 113q-92 23 -151 94q-58 72 -58 166q0 146 103 246t245 100t227 -82q84 -82 84 -210t-104 -221t-256 -102q111 -23 181 -107t69 -196q0 -164 -116 -266q-117 -102 -273 -102z" />
    <glyph glyph-name="nine" unicode="9" horiz-adv-x="968" 
d="M131 586q0 -138 89 -226t247 -88q157 0 275 126t118 284t-92 246t-250 88t-272 -128t-115 -302zM250 -260q-111 0 -174 55q-64 55 -64 107t22 53q22 0 21 -23q0 -10 -9 -19t-21 -9q6 -58 66 -106t159 -48q184 0 324 138t214 356q76 217 78 387q-22 -153 -138 -261
t-270 -108t-246 91q-93 91 -93 251t119 291q118 131 282 131t261 -96t97 -278t-77 -407t-219 -365t-332 -140z" />
    <glyph glyph-name="colon" unicode=":" horiz-adv-x="241" 
d="M66 -16q-25 0 -25 24t25 25q25 0 24 -25q1 -24 -24 -24zM211 616q-25 0 -25 25t25 25t25 -25t-25 -25z" />
    <glyph glyph-name="semicolon" unicode=";" horiz-adv-x="237" 
d="M41 12q0 23 20 23q29 0 29 -41q0 -100 -123 -182l-4 6q115 84 115 170q-14 -8 -26 1q-11 9 -11 23zM211 616q-25 0 -25 25t25 25t25 -25t-25 -25z" />
    <glyph glyph-name="less" unicode="&#x3c;" horiz-adv-x="704" 
d="M508 207l-377 309v6l526 287l7 -10l-517 -281l369 -303z" />
    <glyph glyph-name="equal" unicode="=" horiz-adv-x="743" 
d="M76 367l2 10h563l-2 -10h-563zM141 641l2 10h564l-2 -10h-564z" />
    <glyph glyph-name="greater" unicode="&#x3e;" horiz-adv-x="704" 
d="M88 215l-6 10l516 281l-369 303l9 8l376 -309v-6z" />
    <glyph glyph-name="question" unicode="?" horiz-adv-x="841" 
d="M188 -16q-24 0 -24 24t24 25q24 -1 25 -25q0 -24 -25 -24zM885 1059q0 125 -84 205t-220 80t-231 -78q-94 -78 -98 -176q12 2 21 -6t10 -21q0 -23 -22 -23t-21 39q0 103 97 189t241 86t231 -83q88 -83 88 -212q0 -166 -136 -280t-421 -144l-78 -328h-10l78 338
q285 29 420 139t135 275z" />
    <glyph glyph-name="at" unicode="@" horiz-adv-x="1540" 
d="M696 92q152 0 246 138t94 305q0 111 -58 177t-157 66q-143 0 -245 -125t-103 -301q1 -120 59 -190t164 -70zM621 -336q-242 0 -385 160q-144 160 -144 421t113 484t305 353t428 130t378 -148t142 -384t-99 -406q-99 -172 -231 -172q-168 0 -131 203q-47 -99 -125 -161
t-184 -62t-166 73q-61 73 -61 197q0 180 105 308t255 128q119 0 177 -82t46 -202l68 276h12l-110 -448q-25 -102 4 -160t110 -59q127 0 223 168q95 169 95 399t-139 376t-383 146q-334 0 -577 -282t-243 -676q0 -254 140 -412t377 -158q195 0 354 86l6 -8q-159 -88 -360 -88
z" />
    <glyph glyph-name="A" unicode="A" horiz-adv-x="1388" 
d="M426 539h596l-113 800zM-29 0l2 10h119l803 1327h-199l2 11h420l-2 -11h-194l188 -1327h141l-2 -10h-344l2 10h191l-74 518h-604l-314 -518h211l-2 -10h-344z" />
    <glyph glyph-name="B" unicode="B" horiz-adv-x="1140" 
d="M432 10q152 0 266 24t203 107q109 99 109 241t-98 227t-291 85h-261l-157 -684h229zM629 705q229 0 351 97t122 261t-139 231q-88 43 -263 43h-192l-146 -632h267zM700 1348q180 0 271 -45q143 -72 143 -252q0 -141 -106 -241t-312 -112q160 -14 243 -98t83 -203
q0 -162 -113 -264q-93 -85 -209 -109t-272 -24h-444l2 10h204l306 1327h-224l2 11h426z" />
    <glyph glyph-name="C" unicode="C" horiz-adv-x="1290" 
d="M706 -18q-258 0 -402 162t-144 403q0 201 90 388t260 311t371 124t313 -90t111 -201q1 -39 -21 -39t-22 23q0 12 9 20t21 7q-4 104 -113 187q-111 83 -303 83t-359 -122t-256 -307t-89 -403t141 -378q141 -158 381 -158q125 0 251 53t224 148l9 -9q-214 -202 -472 -202z
" />
    <glyph glyph-name="D" unicode="D" horiz-adv-x="1339" 
d="M395 10q449 0 684 240q219 219 219 545q0 231 -141 372q-170 170 -502 170h-147l-305 -1327h192zM655 1348q338 0 510 -172q145 -145 146 -381q0 -331 -232 -563t-684 -232h-411l2 10h204l306 1327h-224l2 11h381z" />
    <glyph glyph-name="E" unicode="E" horiz-adv-x="1095" 
d="M-16 0l2 10h204l306 1327h-224l2 11h904l-64 -277h-12l61 266h-655l-148 -643h508l-2 -10h-508l-155 -674h653l62 266h12l-64 -276h-882z" />
    <glyph glyph-name="F" unicode="F" horiz-adv-x="1040" 
d="M-16 0l2 10h204l306 1327h-224l2 11h883l-63 -277h-13l62 266h-635l-154 -667h508l-2 -11h-508l-149 -649h205l-2 -10h-422z" />
    <glyph glyph-name="G" unicode="G" horiz-adv-x="1374" 
d="M678 -18q-240 0 -377 150t-137 369q0 221 92 415t268 324t399 130t337 -127q74 -82 73 -170q1 -31 -21 -31t-22 25q0 12 8 20t21 7q-9 72 -61 133t-142 97t-203 36q-211 0 -383 -128t-263 -321t-91 -409t134 -362q134 -148 368 -148q137 0 259 54t204 136l98 391h-457
l2 11h469l-145 -584h-12l41 164q-84 -78 -204 -130t-255 -52z" />
    <glyph glyph-name="H" unicode="H" horiz-adv-x="1462" 
d="M-16 0l2 10h204l306 1327h-224l2 11h447l-2 -11h-211l-146 -632h871l145 632h-229l2 11h446l-2 -11h-204l-306 -1327h224l-2 -10h-435l2 10h199l158 684h-871l-157 -684h217l-2 -10h-434z" />
    <glyph glyph-name="I" unicode="I" horiz-adv-x="598" 
d="M-10 0l2 10h209l305 1327h-209l2 11h430l-2 -11h-209l-305 -1327h209l-2 -10h-430z" />
    <glyph glyph-name="J" unicode="J" horiz-adv-x="1007" 
d="M360 -18q-131 0 -217 74t-86 206q0 53 27 53q18 0 18 -20q0 -15 -9 -25t-23 -8q0 -127 83 -199t209 -71q190 0 293 168q63 104 125 370l187 807h-234l2 11h443l-2 -11h-197l-186 -807q-61 -270 -127 -376q-105 -172 -306 -172z" />
    <glyph glyph-name="K" unicode="K" horiz-adv-x="1249" 
d="M1257 1337l-675 -581l370 -746h193l-2 -10h-199l-373 748l-249 -216l-119 -522h217l-2 -10h-434l2 10h204l306 1327h-224l2 11h447l-2 -11h-211l-182 -786l915 786h-252l2 11h420l-2 -11h-152z" />
    <glyph glyph-name="L" unicode="L" horiz-adv-x="985" 
d="M-16 0l2 10h204l306 1327h-224l2 11h447l-2 -11h-211l-305 -1327h600l61 266h13l-64 -276h-829z" />
    <glyph glyph-name="M" unicode="M" horiz-adv-x="1640" 
d="M-29 0l2 10h205l352 1327h-221l2 11h234l231 -1129l748 1129h215l-2 -11h-201l-260 -1327h223l-2 -10h-434l2 10h199l258 1315l-744 -1122h-10l-229 1118l-349 -1311h218l-2 -10h-435z" />
    <glyph glyph-name="N" unicode="N" horiz-adv-x="1464" 
d="M1096 -12l-592 1343l-299 -1321h217l-2 -10h-434l2 10h205l301 1327h-220l2 11h232l592 -1342l305 1331h-229l2 11h446l-2 -11h-205l-309 -1349h-12z" />
    <glyph glyph-name="O" unicode="O" horiz-adv-x="1452" 
d="M694 -8q201 0 368 122t256 307t89 403t-141 378q-141 158 -381 158q-201 0 -368 -122t-256 -307t-89 -403t141 -378q141 -158 381 -158zM694 -18q-246 0 -390 162t-144 403q0 201 90 388t260 311t375 124q246 0 390 -162t144 -403q0 -201 -90 -388t-260 -311t-375 -124z
" />
    <glyph glyph-name="P" unicode="P" horiz-adv-x="1054" 
d="M549 559q260 0 407 125t148 322q0 110 -60 194t-160 110t-216 27h-160l-176 -764q139 -14 217 -14zM229 1337v11h439q281 0 385 -141q63 -87 63 -201q0 -201 -150 -329t-417 -128q-80 0 -219 14l-127 -553h217l-2 -10h-434l2 10h204l306 1327h-267z" />
    <glyph glyph-name="Q" unicode="Q" horiz-adv-x="1462" 
d="M694 -8q201 0 368 122t256 307t89 403t-141 378q-141 158 -381 158q-201 0 -368 -122t-256 -307t-89 -403t141 -378q141 -158 381 -158zM694 -18h-6q66 -106 174 -184t214 -77q108 0 202 46l4 -11q-94 -45 -206 -45t-225 80q-112 80 -177 191q-236 8 -375 169t-139 379
t90 405t260 311t375 124q246 0 390 -162t144 -403q0 -201 -90 -388t-260 -311t-375 -124z" />
    <glyph glyph-name="R" unicode="R" horiz-adv-x="1150" 
d="M561 618q257 0 401 106t144 284q0 139 -76 215q-113 115 -368 114h-154l-164 -710q84 -9 217 -9zM500 608q-74 0 -158 8l-139 -606h217l-2 -10h-434l2 10h204l306 1327h-224l2 11h388q262 0 376 -117q80 -79 80 -233t-122 -260t-341 -126l258 -602h166l-2 -10h-172
l-262 610h-16l-40 -2h-87z" />
    <glyph glyph-name="S" unicode="S" horiz-adv-x="980" 
d="M450 -18q-172 0 -276 80t-104 178q0 35 24 34q18 0 19 -22q0 -31 -31 -25q8 -91 108 -163t263 -72t270 94q106 94 106 233q0 107 -59 185q-60 78 -198 182t-198 186t-61 185q1 139 107 226t261 87t240 -72t85 -163q0 -35 -25 -35q-18 0 -18 22q0 31 30 25q-6 86 -87 149
q-82 64 -228 64t-249 -84t-103 -219q0 -98 59 -179t197 -187q138 -105 199 -183t61 -205t-110 -224t-282 -97z" />
    <glyph glyph-name="T" unicode="T" horiz-adv-x="1136" 
d="M274 0l2 10h193l305 1327h-485l-64 -278h-12l66 289h1007l-65 -289h-13l64 278h-486l-305 -1327h213l-2 -10h-418z" />
    <glyph glyph-name="U" unicode="U" horiz-adv-x="1359" 
d="M625 -18q-164 0 -268 89q-103 89 -103 269q0 72 33 215l180 782h-223l2 11h446l-2 -11h-211l-180 -782q-33 -143 -33 -215q0 -176 100 -262t261 -86q199 0 313 124t174 396l191 825h-230l2 11h447l-2 -11h-205l-191 -825q-66 -282 -182 -406t-319 -124z" />
    <glyph glyph-name="V" unicode="V" horiz-adv-x="1370" 
d="M573 -37l-184 1374h-147l2 11h360l-2 -11h-201l181 -1349l790 1349h-213l2 11h361l-2 -11h-134l-806 -1374h-7z" />
    <glyph glyph-name="W" unicode="W" horiz-adv-x="1900" 
d="M475 -37l-72 1374h-157l2 11h370l-2 -11h-200l69 -1347l602 1155h9l104 -1155l698 1347h-200l2 11h371l-3 -11h-155l-715 -1374h-8l-105 1151l-602 -1151h-8z" />
    <glyph glyph-name="X" unicode="X" horiz-adv-x="1357" 
d="M-63 0l2 10h172l626 682l-288 645h-175l2 11h392l-2 -11h-205l284 -637l584 637h-203l2 11h390l-2 -11h-173l-593 -647l307 -680h174l-2 -10h-391l2 10h204l-303 672l-616 -672h203l-2 -10h-389z" />
    <glyph glyph-name="Y" unicode="Y" horiz-adv-x="1259" 
d="M317 0l2 10h205l131 565l-284 762h-135l2 11h360l-2 -11h-213l281 -751l639 751h-213l2 11h360l-2 -11h-133l-649 -764l-131 -563h217l-2 -10h-435z" />
    <glyph glyph-name="Z" unicode="Z" horiz-adv-x="1153" 
d="M-10 0v8l1251 1329h-889l-61 -266h-12l63 277h915v-9l-1249 -1329h936l62 266h12l-64 -276h-964z" />
    <glyph glyph-name="bracketleft" unicode="[" horiz-adv-x="595" 
d="M25 -410l444 1909h360l-2 -10h-348l-440 -1888h348l-2 -11h-360z" />
    <glyph glyph-name="backslash" unicode="\" horiz-adv-x="808" 
d="M528 -401l-127 1896h13l127 -1896h-13z" />
    <glyph glyph-name="bracketright" unicode="]" horiz-adv-x="595" 
d="M-174 -410l2 11h348l440 1888h-348l2 10h361l-445 -1909h-360z" />
    <glyph glyph-name="asciicircum" unicode="^" horiz-adv-x="831" 
d="M254 825l-4 4l295 193l188 -193l-4 -4l-186 179z" />
    <glyph glyph-name="underscore" unicode="_" horiz-adv-x="972" 
d="M-158 -240l2 13h992l-2 -13h-992z" />
    <glyph glyph-name="grave" unicode="`" horiz-adv-x="1024" 
d="M621 1189q0 7 6 7t12 -4l252 -184l-2 -4l-258 172q-10 6 -10 13z" />
    <glyph glyph-name="a" unicode="a" horiz-adv-x="1032" 
d="M367 -2q176 0 298 167t121 355q0 137 -78 223q-79 86 -200 86q-174 -1 -292 -159t-118 -361q0 -147 74 -229t195 -82zM363 -12q-125 0 -201 85t-76 236q0 207 121 369t301 162q129 0 209 -89t80 -231q0 -20 -2 -28l84 335h12l-156 -626q-12 -51 -12 -96t25 -76
q26 -31 72 -31t81 39t68 125l10 -2q-37 -94 -73 -133t-88 -39t-80 34t-28 78t13 101l18 73q-55 -126 -154 -206t-224 -80z" />
    <glyph glyph-name="b" unicode="b" horiz-adv-x="1005" 
d="M496 -2q180 0 296 154t115 348q-1 156 -75 242t-199 87q-125 -1 -224 -81t-151 -196t-53 -246q0 -130 80 -218q80 -90 211 -90zM632 840q132 0 210 -90t78 -270t-119 -336q-119 -157 -305 -156q-137 0 -220 92q-82 92 -81 242v14l-78 -336h-13l347 1489h-179l2 10h191
l-223 -958q55 131 156 215q102 84 234 84z" />
    <glyph glyph-name="c" unicode="c" horiz-adv-x="847" 
d="M423 -12q-144 0 -242 97q-97 97 -97 279t127 328q127 147 317 148q125 0 200 -62t75 -141q1 -39 -21 -39t-22 23q0 12 9 20t22 6q-6 74 -76 128t-187 54q-184 0 -308 -145q-124 -146 -124 -322t93 -270t237 -94t260 88l-2 -14q-117 -84 -261 -84z" />
    <glyph glyph-name="d" unicode="d" horiz-adv-x="1056" 
d="M373 -2q125 0 224 81t151 197t53 245q0 130 -80 219t-211 89q-180 1 -296 -153t-116 -329t75 -262t200 -87zM86 348q0 180 119 336t305 156q137 0 219 -92t82 -242v-12l229 995h-178l2 10h191l-299 -1298q-29 -122 12 -172q25 -31 72 -31t82 39t67 125l10 -2
q-37 -94 -73 -133t-87 -39q-52 0 -80 34t-28 78t12 101l21 86q-56 -129 -158 -214t-233 -85t-209 90t-78 270z" />
    <glyph glyph-name="e" unicode="e" horiz-adv-x="878" 
d="M506 829q-134 0 -246 -105t-149 -267h655q10 47 10 100q0 127 -67 200q-69 72 -203 72zM418 -2q140 0 268 72l-2 -13q-123 -69 -267 -69t-238 93q-93 93 -93 253q0 206 126 356t310 150q127 0 197 -76t69 -207q0 -54 -12 -111h-667q-10 -61 -11 -112q0 -156 90 -246
t230 -90z" />
    <glyph glyph-name="f" unicode="f" horiz-adv-x="522" 
d="M688 1501q43 0 68 -14q24 -14 24 -36t-20 -21q-25 0 -25 24q0 14 10 25q-18 12 -57 12q-84 -1 -156 -69t-116 -263l-78 -332h235l-2 -10h-235l-189 -817h-12l189 817h-166l2 10h166l77 332q47 203 125 273t160 69z" />
    <glyph glyph-name="g" unicode="g" horiz-adv-x="976" 
d="M391 -2q178 0 302 170t124 348q0 137 -84 225t-217 88q-178 1 -296 -155t-118 -326t78 -260t211 -90zM297 -410q-67 0 -137 26t-94 60t-25 62t21 29q22 0 22 -24t-27 -30q18 -49 91 -81t149 -31q195 0 295 118q72 84 115 267l71 307q-55 -131 -157 -218
q-101 -87 -235 -87t-215 93t-81 267t122 334q122 158 304 158q139 0 225 -91t86 -235v-10l74 323h12l-194 -841q-43 -186 -117 -273q-104 -123 -305 -123z" />
    <glyph glyph-name="h" unicode="h" horiz-adv-x="1005" 
d="M825 664q0 -80 -37 -195l-63 -205q-33 -100 -33 -152t27 -84q27 -30 72 -30q90 0 149 164l10 -2q-34 -90 -70 -131t-90 -41t-82 34t-28 88t33 154l63 205q37 115 37 188q0 172 -180 172q-137 0 -261 -139t-173 -346l-82 -344h-13l353 1489h-178l2 10h190l-246 -1040
q63 170 175 275q112 106 220 106t156 -48q49 -48 49 -128z" />
    <glyph glyph-name="i" unicode="i" horiz-adv-x="503" 
d="M264 -2q87 0 146 164l10 -2q-33 -92 -69 -132t-88 -40t-81 32q-28 32 -28 83q0 52 32 163l164 551h-178l2 10h191l-166 -561q-33 -106 -33 -158t27 -82q27 -28 71 -28zM391 1094q-25 0 -25 24t26 25q24 -1 24 -25t-25 -24z" />
    <glyph glyph-name="j" unicode="j" horiz-adv-x="421" 
d="M365 1094q-25 0 -25 24t25 25q25 0 24 -25q1 -24 -24 -24zM-125 -410q-57 0 -57 33q0 20 22 21q27 0 27 -27q0 -8 -6 -14q4 -2 14 -2q104 0 164 94q76 119 141 426l152 696h-178l2 10h190l-153 -708q-68 -311 -144 -430q-65 -99 -174 -99z" />
    <glyph glyph-name="k" unicode="k" horiz-adv-x="913" 
d="M281 1489v10h184l-260 -1126q271 105 470 264q110 88 118 154q-12 -2 -22 6q-9 8 -9 20q0 23 22 23t21 -39q0 -139 -389 -342l119 -283q45 -102 75 -141q31 -37 70 -37q94 0 139 188l10 -2q-45 -197 -151 -196q-43 0 -78 42t-78 144l-116 279q-90 -47 -205 -95l-82 -358
h-13l345 1489h-170z" />
    <glyph glyph-name="l" unicode="l" horiz-adv-x="477" 
d="M251 -12q-52 0 -81 34t-29 78t13 101l299 1288h-170v10h184l-301 -1298q-12 -51 -12 -96t26 -76t73 -31q46 0 81 39t65 125l11 -2q-33 -90 -70 -131t-89 -41z" />
    <glyph glyph-name="m" unicode="m" horiz-adv-x="1527" 
d="M809 674q0 -72 -29 -180q70 156 176 250t222 96q80 0 125 -47t45 -129t-37 -195l-64 -205q-33 -100 -33 -152t27 -84q27 -30 72 -30q90 0 149 164l11 -2q-33 -90 -70 -131t-90 -41t-82 34t-29 88t33 154l63 205q37 115 37 193t-42 123q-42 44 -117 44q-136 0 -260 -138
t-175 -343l-94 -348h-12l127 469q35 127 35 201t-42 116t-116 43q-137 0 -258 -139t-172 -346l-86 -344h-12l204 817h-178l2 10h191l-88 -350q68 164 175 263q108 99 224 100q78 0 123 -47t45 -119z" />
    <glyph glyph-name="n" unicode="n" horiz-adv-x="1015" 
d="M801 -12q-53 0 -82 34t-29 88t33 154l63 205q37 115 37 188q0 172 -180 172q-137 0 -260 -139t-174 -346l-86 -344h-12l204 817h-178l2 10h191l-88 -350q68 162 176 262q109 101 214 101q202 1 204 -183q0 -74 -37 -188l-64 -205q-33 -100 -33 -152t27 -84q27 -30 72 -30
q90 0 149 164l11 -2q-33 -90 -70 -131t-90 -41z" />
    <glyph glyph-name="o" unicode="o" horiz-adv-x="946" 
d="M428 -2q180 0 300 144t120 322t-93 271q-93 94 -237 94q-180 0 -300 -144q-120 -143 -120 -321t94 -272t236 -94zM428 -12q-147 0 -245 97q-97 97 -97 279t124 328q124 147 308 148q150 0 246 -98t96 -278q0 -182 -124 -329t-308 -147z" />
    <glyph glyph-name="p" unicode="p" horiz-adv-x="1019" 
d="M510 -2q180 0 296 154t116 329t-75 261t-200 87q-125 -1 -224 -81t-151 -196t-53 -246q0 -130 80 -218q80 -90 211 -90zM646 840q132 0 210 -90t78 -270t-119 -336q-119 -157 -305 -156q-137 0 -219 92t-82 242v16l-170 -729h180l-2 -10h-315l2 10h123l282 1208h-178
l2 10h191l-66 -282q56 127 156 211t232 84z" />
    <glyph glyph-name="q" unicode="q" horiz-adv-x="983" 
d="M377 -2q125 0 224 81t151 197t53 245q0 130 -80 219t-211 89q-180 1 -296 -153t-116 -329t75 -262t200 -87zM378 -12q-132 0 -210 90t-78 270t119 336t305 156q137 0 219 -92t82 -242v-17l78 338h12l-282 -1218h178l-2 -10h-191l160 688q-54 -131 -156 -215t-234 -84z
" />
    <glyph glyph-name="r" unicode="r" horiz-adv-x="575" 
d="M537 840q31 0 50 -14t19 -36q0 -20 -20 -20q-25 0 -25 25q0 18 12 26q-16 8 -36 8q-89 0 -175 -131t-145 -368l-82 -330h-12l203 817h-179l3 10h190l-82 -329q57 164 130 253t149 89z" />
    <glyph glyph-name="s" unicode="s" horiz-adv-x="753" 
d="M358 -12q-104 0 -171 32t-99 79q-32 46 -33 81t21 35t22 -25q0 -31 -28 -26q20 -82 124 -133q65 -33 163 -33q99 0 169 57t70 139t-52 129q-52 48 -156 98t-158 99t-54 128t73 135t175 57q158 0 233 -88q31 -37 31 -69t-21 -32t-22 25q0 27 29 26q-8 23 -25 43
q-70 84 -225 84q-98 0 -167 -53t-69 -127t50 -120t154 -97q106 -51 161 -100t55 -137t-73 -148q-73 -59 -177 -59z" />
    <glyph glyph-name="t" unicode="t" horiz-adv-x="546" 
d="M244 -2q82 0 188 100l6 -8q-109 -102 -194 -102q-125 0 -125 133q0 41 18 110l146 586h-168l2 10h168l59 236l12 2l-59 -238h274l-2 -10h-274l-145 -586q-18 -69 -18 -119t29 -82q30 -32 83 -32z" />
    <glyph glyph-name="u" unicode="u" horiz-adv-x="1030" 
d="M178 166q0 -72 45 -120t125 -48q137 0 259 139t173 346l86 344h13l-156 -626q-12 -51 -12 -96q1 -45 25 -76t71 -31t82 39t67 125l11 -2q-37 -94 -73 -133t-88 -39t-80 34t-28 80t13 99l39 153q-68 -166 -177 -266t-227 -100q-86 0 -133 51t-47 125t37 223l106 430h-178
l2 10h191l-109 -440q-37 -149 -37 -221z" />
    <glyph glyph-name="v" unicode="v" horiz-adv-x="880" 
d="M788 791q-27 0 -26 26q0 23 20 23q37 0 37 -76q0 -309 -463 -799h-4l-127 852h-162l3 10h170l124 -843q446 485 447 780q0 18 -4 31q-6 -4 -15 -4z" />
    <glyph glyph-name="w" unicode="w" horiz-adv-x="1263" 
d="M1171 762q0 18 -4 31q-8 -4 -14 -5q-27 0 -27 25t21 25q37 0 37 -76q0 -128 -104 -362t-246 -435h-9l-147 723l-391 -723h-6l-54 852h-164l3 10h174l51 -831l387 715h6l150 -727q137 199 237 427t100 351z" />
    <glyph glyph-name="x" unicode="x" horiz-adv-x="937" 
d="M842 840q61 0 61 -50q0 -22 -21 -22t-22 23q0 18 23 22q-16 16 -41 16q-90 0 -234 -196q-66 -88 -137 -209l90 -236q45 -110 75 -150t69 -40q72 0 116 160l10 -2q-49 -168 -126 -168q-45 0 -78 41t-78 157l-86 226q-251 -424 -391 -424q-29 0 -45 13t-17 32q0 27 23 26
q20 0 20 -20t-22 -25q16 -16 41 -16q94 0 235 197q104 147 152 229l-150 393h-153l2 10h161l148 -391q74 123 135 207q143 197 240 197z" />
    <glyph glyph-name="y" unicode="y" horiz-adv-x="866" 
d="M-76 -399q-62 0 -61 34q0 20 22 21q27 0 27 -27q0 -10 -6 -16q4 -2 14 -2q61 0 181 89t270 273l-166 844h-160l2 10h168l164 -843q174 215 296 446t122 342q0 10 -4 23q-8 -4 -15 -4q-27 0 -26 26q0 23 20 23q37 0 37 -68q0 -112 -127 -350q-126 -238 -288 -438
t-285 -292q-123 -91 -185 -91z" />
    <glyph glyph-name="z" unicode="z" horiz-adv-x="794" 
d="M164 37q84 0 184 -22t137 -21q78 0 125 53t78 164l10 -2q-31 -113 -80 -169t-133 -56q-37 0 -137 22t-189 21q-89 0 -167 -41l-6 8l788 823h-575l-43 -180h-13l45 190h600l3 -8l-779 -813q68 31 152 31z" />
    <glyph glyph-name="braceleft" unicode="{" horiz-adv-x="540" 
d="M31 -145q0 89 43 155t119 137q158 150 157 254q0 61 -52 103t-153 43h-57l2 10h55q129 0 203 53q74 52 74 146t-67 225t-66 227q0 131 110 217q111 86 295 88v-10q-178 -2 -286 -84t-107 -211q0 -94 67 -227q129 -257 5 -367q-61 -53 -164 -63q70 -8 112 -49t41 -101
q0 -109 -160 -261t-159 -277q0 -94 61 -166t166 -107l-4 -10q-109 37 -172 111t-63 164z" />
    <glyph glyph-name="bar" unicode="|" horiz-adv-x="442" 
d="M215 -410v1909h12v-1909h-12z" />
    <glyph glyph-name="braceright" unicode="}" horiz-adv-x="540" 
d="M291 -115q0 93 -67 227q-66 134 -66 224t61 143t164 64q-70 8 -112 49t-42 100q0 108 160 260t160 279q1 94 -61 166t-166 106l4 10q109 -37 172 -111t63 -163q0 -90 -43 -156t-119 -137q-158 -150 -157 -254q0 -61 52 -103t152 -42h58l-2 -10h-56q-128 1 -202 -53
t-74 -147t67 -224t66 -228q-1 -131 -111 -217t-294 -88v10q178 2 286 84t107 211z" />
    <glyph glyph-name="asciitilde" unicode="~" horiz-adv-x="942" 
d="M637 455q-57 0 -149 62t-140 63q-80 0 -133 -123l-8 4q57 129 143 129q54 0 146 -62t143 -63q86 0 143 127l9 -4q-60 -133 -154 -133z" />
    <glyph glyph-name="uni00A0" unicode="&#xa0;" horiz-adv-x="395" 
 />
    <glyph glyph-name="exclamdown" unicode="&#xa1;" horiz-adv-x="358" 
d="M80 0l242 1047h10l-238 -1047h-14zM393 1315q-25 1 -25 25t26 24q24 0 24 -24t-25 -25z" />
    <glyph glyph-name="cent" unicode="&#xa2;" horiz-adv-x="833" 
d="M113 430q0 -127 58 -209t155 -108l241 817q-188 8 -321 -136t-133 -364zM418 90q-39 0 -84 10l-90 -305l-13 2l93 305q-100 27 -162 112q-61 85 -62 216q0 224 140 372t331 138l66 223l12 -2l-65 -221q106 -8 173 -72t66 -135q0 -39 -21 -39t-22 23q0 12 10 20t21 6
q-3 63 -67 121t-164 66l-244 -819q45 -10 82 -11q141 0 270 99l-2 -15q-129 -94 -268 -94z" />
    <glyph glyph-name="sterling" unicode="&#xa3;" horiz-adv-x="860" 
d="M850 836q0 -39 -22 -39t-21 22q0 13 9 21t22 6q-6 63 -71 113t-165 51q-172 0 -258 -112t-86 -265q0 -68 11 -173t14 -149h362l-2 -10h-360v-18q0 -246 -234 -422q97 16 245 -37t228 -53q113 0 230 94l8 -8q-122 -97 -222 -97t-252 54t-249 34q-43 -51 -65 -51t-21 13
q0 23 74 45q246 176 245 428v18h-194l2 10h192q-2 43 -13 151t-11 171q0 159 90 273t266 114q112 0 180 -57t68 -127z" />
    <glyph glyph-name="yen" unicode="&#xa5;" horiz-adv-x="921" 
d="M141 459l2 10h316l-203 541h-133l2 10h346l-2 -10h-201l201 -537l451 537h-197l2 10h346l-2 -10h-135l-455 -541h318l-2 -10h-322l-43 -187h322l-2 -10h-322l-57 -252h196l-2 -10h-405l2 10h196l58 252h-320l2 10h320l43 187h-320z" />
    <glyph glyph-name="section" unicode="&#xa7;" horiz-adv-x="819" 
d="M705 487q0 96 -211 179l-50 20q-276 -37 -276 -162q0 -57 50 -96t147 -78l57 -24q283 37 283 161zM506 1016q-94 0 -156 -43t-61 -107q0 -64 52 -107q53 -44 157 -84t161 -83t58 -105q0 -131 -281 -168q78 -35 117 -75t39 -100q0 -62 -65 -110t-169 -48t-176 47t-71 104
q0 27 21 27t22 -23q0 -25 -27 -26q14 -47 79 -83q66 -36 158 -36t154 45t62 110t-52 105t-160 82q-106 43 -159 85t-53 101q0 131 274 168q-78 37 -116 77q-38 39 -38 103t65 109t170 45t172 -46t67 -99q0 -27 -22 -27t-21 24q0 24 26 25q-13 45 -73 79t-154 34z" />
    <glyph glyph-name="dieresis" unicode="&#xa8;" horiz-adv-x="1024" 
d="M532 1042q-25 0 -24 25q0 25 24 25t25 -25q0 -25 -25 -25zM737 1042q-25 0 -24 25t25 25t24 -25t-25 -25z" />
    <glyph glyph-name="copyright" unicode="&#xa9;" horiz-adv-x="1173" 
d="M620 250q-110 0 -183 80t-73 194t78 193q78 78 170 78t151 -41q58 -41 58 -81t-19 -40q-20 1 -20 23t25 26q-11 43 -63 73t-117 29q-102 0 -176 -74t-74 -186q-1 -110 69 -187t174 -77t189 74l8 -8q-87 -76 -197 -76zM610 -16q221 0 368 153q146 154 146 376t-146 376
q-146 153 -368 153t-367 -154q-147 -154 -147 -375t146 -375t368 -154zM610 -27q-227 0 -377 156t-149 383q0 227 149 384q150 157 377 157t377 -157t150 -384t-150 -383t-377 -156z" />
    <glyph glyph-name="ordfeminine" unicode="&#xaa;" horiz-adv-x="583" 
d="M121 690l2 10h487l-2 -10h-487zM328 850q106 0 181 102t75 200t-47 152q-47 52 -119 52q-106 0 -178 -98t-72 -204t44 -155t116 -49zM324 840q-74 0 -121 52t-47 162t75 212q76 100 187 100q76 0 125 -52t51 -136l45 180h12l-96 -387q-8 -31 -8 -60q0 -61 52 -61t91 100
l10 -4q-41 -106 -100 -106q-66 0 -65 71q0 29 8 60l8 30q-37 -73 -95 -117t-132 -44z" />
    <glyph glyph-name="guillemotleft" unicode="&#xab;" horiz-adv-x="745" 
d="M350 221l-272 320l426 317l6 -10l-416 -309l264 -310zM596 221l-272 320l426 317l6 -10l-416 -309l264 -310z" />
    <glyph glyph-name="registered" unicode="&#xae;" horiz-adv-x="747" 
d="M455 1044h57q53 0 88 27t35 70q0 96 -119 96h-61v-193zM520 1409q-148 0 -244 -103q-96 -104 -96 -252t96 -252t244 -104t244 104t96 252q0 149 -96 252q-97 103 -244 103zM520 688q-154 0 -253 106t-99 259q0 154 99 260t253 106t253 -106t99 -260q0 -153 -99 -259
t-253 -106zM373 874v11h69v352h-69v10h143q131 0 131 -106q1 -39 -27 -67t-69 -36l86 -153h63v-11h-71l-90 162q-16 -2 -31 -2h-53v-149h67v-11h-149z" />
    <glyph glyph-name="macron" unicode="&#xaf;" horiz-adv-x="1024" 
d="M358 1063l2 12h512l-2 -12h-512z" />
    <glyph glyph-name="degree" unicode="&#xb0;" horiz-adv-x="628" 
d="M186 1094q0 -98 54 -152t152 -55q97 0 170 80t73 179t-53 152q-52 54 -150 54t-172 -80t-74 -178zM431 1362q103 0 159 -56t57 -158q-1 -102 -77 -187q-76 -84 -178 -84t-160 57q-58 58 -58 160t77 185t180 83z" />
    <glyph glyph-name="plusminus" unicode="&#xb1;" horiz-adv-x="743" 
d="M37 195l2 10h563l-2 -10h-563zM494 915l-66 -280h274l-2 -10h-274l-72 -303h-12l72 303h-277l2 10h277l65 280h13z" />
    <glyph glyph-name="two.sup" unicode="&#xb2;" horiz-adv-x="722" 
d="M827 1468q0 68 -52 112t-142 44t-159 -47t-75 -102q11 1 21 -7t10 -20q0 -23 -22 -23t-21 39q0 62 73 116t171 54t153 -46q56 -46 56 -121t-60 -129t-148 -102t-120 -68q-130 -78 -181 -145q-51 -68 -73 -132h451l43 180h12l-45 -190h-471l-4 6q46 133 148 211
q101 78 210 135q225 113 225 235z" />
    <glyph glyph-name="three.sup" unicode="&#xb3;" horiz-adv-x="722" 
d="M770 1080q0 -78 -74 -142t-180 -64t-173 50t-67 98q0 49 22 49t21 -22q0 -13 -9 -21t-21 -6q6 -53 68 -95t161 -42q100 0 170 60q70 61 70 141t-54 128t-139 48h-47l2 10h39q109 0 185 57t75 131q0 74 -55 119q-54 45 -142 45t-146 -36t-64 -81q31 4 30 -24
q0 -23 -22 -23t-21 44t63 87t156 43t154 -48t59 -120q0 -72 -62 -129t-159 -71q72 -10 116 -60q44 -48 44 -126z" />
    <glyph glyph-name="acute" unicode="&#xb4;" horiz-adv-x="1024" 
d="M502 1001l-2 5l274 165q8 4 12 5q8 0 8 -8t-10 -13z" />
    <glyph glyph-name="paragraph" unicode="&#xb6;" horiz-adv-x="1001" 
d="M502 10h123l268 1000h-123zM164 659q0 161 117 261t307 100h465l-2 -10h-146l-268 -1000h145l-2 -10h-446l2 10h153l101 373q-262 0 -354 92q-72 72 -72 184z" />
    <glyph glyph-name="periodcentered" unicode="&#xb7;" horiz-adv-x="397" 
d="M213 451q-25 1 -25 25t25 24t25 -24t-25 -25z" />
    <glyph glyph-name="cedilla" unicode="&#xb8;" horiz-adv-x="1024" 
d="M528 -276q0 -54 -45 -94t-134 -40t-191 58l4 10q100 -57 185 -57q85 -1 127 35t42 88t-39 84t-123 32l-2 4l64 152l10 -4l-57 -142q79 -2 119 -36t40 -90z" />
    <glyph glyph-name="one.sup" unicode="&#xb9;" horiz-adv-x="722" 
d="M289 881l2 10h211l172 727l-240 -80v12l248 82l6 -4l-174 -737h207l-2 -10h-430z" />
    <glyph glyph-name="ordmasculine" unicode="&#xba;" horiz-adv-x="618" 
d="M229 1072q1 -112 61 -172t162 -60t178 91q77 91 77 203q1 112 -59 172t-162 60t-180 -91q-77 -91 -77 -203zM162 690l2 10h461l-2 -10h-461zM452 829q-108 -1 -171 63t-63 180t79 210t187 94t171 -63t63 -180t-79 -211t-187 -93z" />
    <glyph glyph-name="guillemotright" unicode="&#xbb;" horiz-adv-x="745" 
d="M55 221l-6 10l416 310l-264 309l8 8l272 -319zM301 221l-6 10l416 310l-265 309l9 8l272 -319z" />
    <glyph glyph-name="onequarter" unicode="&#xbc;" horiz-adv-x="1628" 
d="M193 573l2 11h211l172 727l-240 -80v12l248 82l6 -4l-174 -737h207l-2 -11h-430zM311 -6l-8 6l1098 1311l8 -6zM1233 8l53 232h-377l-2 8l508 502l8 -9l-497 -491h362l55 235l15 9l-58 -244h152l-2 -10h-152l-53 -232h123l-2 -10h-279l3 10h143z" />
    <glyph glyph-name="onehalf" unicode="&#xbd;" horiz-adv-x="1628" 
d="M172 573l2 11h211l172 727l-240 -80v12l248 82l6 -4l-174 -737h207l-2 -11h-430zM289 -6l-8 6l1097 1311l8 -6zM1466 586q0 68 -52 112t-142 43q-90 0 -159 -47t-75 -102q12 2 22 -6t9 -21q0 -23 -20 -22q-23 0 -23 39q0 61 73 115q73 55 171 55t153 -46t55 -121
t-58 -129q-60 -54 -148 -102t-122 -68q-127 -74 -179 -144t-74 -134h451l43 180h12l-45 -190h-471l-4 6q46 133 148 211q101 78 210 135q225 113 225 236z" />
    <glyph glyph-name="threequarters" unicode="&#xbe;" horiz-adv-x="1628" 
d="M350 -6l-8 6l1098 1311l8 -6zM1233 8l53 232h-377l-2 8l508 502l8 -9l-497 -491h362l55 235l15 9l-58 -244h152l-2 -10h-152l-53 -232h123l-2 -10h-279l3 10h143zM727 772q-1 -78 -75 -142t-180 -63q-106 0 -172 49q-67 48 -67 98q-1 50 21 50t22 -23q0 -12 -9 -20
t-21 -6q6 -53 68 -95t161 -42t169 60t71 140q-1 80 -55 128t-138 48h-47l2 11h39q108 0 184 57t76 131t-55 119t-143 45t-145 -36q-58 -36 -64 -81q31 4 30 -24q1 -23 -21 -23t-22 44t62 87t157 43q93 0 153 -48t60 -120t-62 -129t-159 -72q72 -10 116 -59t44 -127z" />
    <glyph glyph-name="questiondown" unicode="&#xbf;" horiz-adv-x="841" 
d="M382 -6q-144 0 -232 83t-89 212q1 165 137 279t420 145l78 327h11l-78 -338q-285 -30 -420 -140t-135 -273q0 -125 84 -205t220 -80t230 78t99 176q-12 -2 -22 6q-9 8 -9 21q0 23 20 22q23 0 23 -39q0 -104 -97 -189q-96 -85 -240 -85zM770 1315q-25 1 -25 25t25 24
t25 -24t-25 -25z" />
    <glyph glyph-name="Agrave" unicode="&#xc0;" horiz-adv-x="1388" 
d="M764 1660q0 7 6 7t12 -4l252 -184l-2 -4l-258 172q-10 6 -10 13zM426 539h596l-113 800zM-29 0l2 10h119l803 1327h-199l2 11h420l-2 -11h-194l188 -1327h141l-2 -10h-344l2 10h191l-74 518h-604l-314 -518h211l-2 -10h-344z" />
    <glyph glyph-name="Aacute" unicode="&#xc1;" horiz-adv-x="1388" 
d="M1128 1638q0 -8 -10 -12l-282 -153l-2 4l274 165q8 4 12 5q8 -1 8 -9zM426 539h596l-113 800zM-29 0l2 10h119l803 1327h-199l2 11h420l-2 -11h-194l188 -1327h141l-2 -10h-344l2 10h191l-74 518h-604l-314 -518h211l-2 -10h-344z" />
    <glyph glyph-name="Acircumflex" unicode="&#xc2;" horiz-adv-x="1388" 
d="M688 1460l-4 4l295 193l188 -193l-4 -4l-186 178zM426 539h596l-113 800zM-29 0l2 10h119l803 1327h-199l2 11h420l-2 -11h-194l188 -1327h141l-2 -10h-344l2 10h191l-74 518h-604l-314 -518h211l-2 -10h-344z" />
    <glyph glyph-name="Atilde" unicode="&#xc3;" horiz-adv-x="1388" 
d="M1100 1501q-58 1 -150 63t-139 62q-80 0 -133 -123l-8 4q57 129 143 129q55 0 147 -62t142 -63q86 0 143 127l8 -4q-59 -133 -153 -133zM426 539h596l-113 800zM-29 0l2 10h119l803 1327h-199l2 11h420l-2 -11h-194l188 -1327h141l-2 -10h-344l2 10h191l-74 518h-604
l-314 -518h211l-2 -10h-344z" />
    <glyph glyph-name="Adieresis" unicode="&#xc4;" horiz-adv-x="1388" 
d="M848 1513q-25 0 -25 25t25 25t25 -25t-25 -25zM1053 1513q-25 0 -25 25t25 25t25 -25t-25 -25zM426 539h596l-113 800zM-29 0l2 10h119l803 1327h-199l2 11h420l-2 -11h-194l188 -1327h141l-2 -10h-344l2 10h191l-74 518h-604l-314 -518h211l-2 -10h-344z" />
    <glyph glyph-name="Aring" unicode="&#xc5;" horiz-adv-x="1388" 
d="M426 539h596l-113 800zM815 1466q-1 -52 27 -86q28 -32 79 -32t92 47q40 47 40 100t-28 85t-80 32t-91 -47t-39 -99zM945 1622q58 0 89 -35t31 -86t-30 -95t-74 -58h157l-2 -11h-194l188 -1327h141l-2 -10h-344l2 10h191l-74 518h-604l-314 -518h211l-2 -10h-344l2 10
h119l803 1327h-199l2 11h174q-70 26 -70 100t43 124q42 50 100 50z" />
    <glyph glyph-name="AE" unicode="&#xc6;" horiz-adv-x="1652" 
d="M424 547h446l183 790h-9zM-133 0l2 10h119l1042 1327h-203l2 11h906l-64 -277h-12l61 266h-655l-147 -643h507l-2 -10h-508l-155 -674h653l62 266h12l-64 -276h-882l2 10h205l120 527h-452l-414 -527h211l-2 -10h-344z" />
    <glyph glyph-name="Ccedilla" unicode="&#xc7;" horiz-adv-x="1290" 
d="M721 -276q0 -54 -45 -94t-134 -40t-192 58l4 10q100 -57 186 -57q86 -1 127 35q42 36 42 88t-39 84t-123 32l-2 4l59 144q-208 30 -326 186t-118 365t90 396t260 311t371 124t313 -90t111 -201q1 -39 -21 -39t-22 23q0 12 9 20t21 7q-4 104 -113 187q-111 83 -303 83
t-359 -122t-256 -307t-89 -403t141 -378q141 -158 381 -158q125 0 251 53t224 148l9 -9q-213 -203 -484 -202q-29 0 -78 4l-55 -136q80 -2 120 -36t40 -90z" />
    <glyph glyph-name="Egrave" unicode="&#xc8;" horiz-adv-x="1095" 
d="M624 1667q6 0 13 -4l252 -184l-2 -4l-258 172q-11 6 -11 13t6 7zM-16 0l2 10h204l306 1327h-224l2 11h904l-64 -277h-12l61 266h-655l-148 -643h508l-2 -10h-508l-155 -674h653l62 266h12l-64 -276h-882z" />
    <glyph glyph-name="Eacute" unicode="&#xc9;" horiz-adv-x="1095" 
d="M983 1638q0 -8 -10 -12l-283 -153l-2 4l275 165q8 4 12 5q8 -1 8 -9zM-16 0l2 10h204l306 1327h-224l2 11h904l-64 -277h-12l61 266h-655l-148 -643h508l-2 -10h-508l-155 -674h653l62 266h12l-64 -276h-882z" />
    <glyph glyph-name="Ecircumflex" unicode="&#xca;" horiz-adv-x="1095" 
d="M543 1460l-4 4l295 193l188 -193l-4 -4l-187 178zM-16 0l2 10h204l306 1327h-224l2 11h904l-64 -277h-12l61 266h-655l-148 -643h508l-2 -10h-508l-155 -674h653l62 266h12l-64 -276h-882z" />
    <glyph glyph-name="Edieresis" unicode="&#xcb;" horiz-adv-x="1095" 
d="M702 1513q-25 0 -24 25q0 25 24 25t25 -25q0 -25 -25 -25zM907 1513q-25 0 -24 25t25 25t24 -25t-25 -25zM-16 0l2 10h204l306 1327h-224l2 11h904l-64 -277h-12l61 266h-655l-148 -643h508l-2 -10h-508l-155 -674h653l62 266h12l-64 -276h-882z" />
    <glyph glyph-name="Igrave" unicode="&#xcc;" horiz-adv-x="598" 
d="M373 1660q0 7 6 7t12 -4l252 -184l-2 -4l-258 172q-10 6 -10 13zM-10 0l2 10h209l305 1327h-209l2 11h430l-2 -11h-209l-305 -1327h209l-2 -10h-430z" />
    <glyph glyph-name="Iacute" unicode="&#xcd;" horiz-adv-x="598" 
d="M737 1638q0 -8 -10 -12l-283 -153l-2 4l275 165q8 4 12 5q8 -1 8 -9zM-10 0l2 10h209l305 1327h-209l2 11h430l-2 -11h-209l-305 -1327h209l-2 -10h-430z" />
    <glyph glyph-name="Icircumflex" unicode="&#xce;" horiz-adv-x="598" 
d="M297 1460l-4 4l295 193l188 -193l-4 -4l-186 178zM-10 0l2 10h209l305 1327h-209l2 11h430l-2 -11h-209l-305 -1327h209l-2 -10h-430z" />
    <glyph glyph-name="Idieresis" unicode="&#xcf;" horiz-adv-x="598" 
d="M457 1513q-25 0 -25 25t25 25t25 -25t-25 -25zM662 1513q-25 0 -25 25t25 25t25 -25t-25 -25zM-10 0l2 10h209l305 1327h-209l2 11h430l-2 -11h-209l-305 -1327h209l-2 -10h-430z" />
    <glyph glyph-name="Eth" unicode="&#xd0;" horiz-adv-x="1359" 
d="M395 10q449 0 684 240q219 219 219 545q0 231 -141 372q-170 170 -502 170h-147l-148 -643h316l-2 -10h-316l-155 -674h192zM655 1348q338 0 510 -172q145 -145 146 -381q0 -331 -232 -563t-684 -232h-411l2 10h204l156 674h-180l2 10h180l148 643h-224l2 11h381z" />
    <glyph glyph-name="Ntilde" unicode="&#xd1;" horiz-adv-x="1464" 
d="M1137 1501q-57 1 -149 63t-140 62q-80 0 -133 -123l-8 4q57 129 143 129q55 0 146 -62t143 -63q86 0 143 127l8 -4q-59 -133 -153 -133zM1096 -12l-592 1343l-299 -1321h217l-2 -10h-434l2 10h205l301 1327h-220l2 11h232l592 -1342l305 1331h-229l2 11h446l-2 -11h-205
l-309 -1349h-12z" />
    <glyph glyph-name="Ograve" unicode="&#xd2;" horiz-adv-x="1452" 
d="M799 1660q0 7 6 7t12 -4l252 -184l-2 -4l-258 172q-10 6 -10 13zM694 -8q201 0 368 122t256 307t89 403t-141 378q-141 158 -381 158q-201 0 -368 -122t-256 -307t-89 -403t141 -378q141 -158 381 -158zM694 -18q-246 0 -390 162t-144 403q0 201 90 388t260 311t375 124
q246 0 390 -162t144 -403q0 -201 -90 -388t-260 -311t-375 -124z" />
    <glyph glyph-name="Oacute" unicode="&#xd3;" horiz-adv-x="1452" 
d="M1161 1638q0 -8 -10 -12l-283 -153l-2 4l275 165q8 4 12 5q8 -1 8 -9zM694 -8q201 0 368 122t256 307t89 403t-141 378q-141 158 -381 158q-201 0 -368 -122t-256 -307t-89 -403t141 -378q141 -158 381 -158zM694 -18q-246 0 -390 162t-144 403q0 201 90 388t260 311
t375 124q246 0 390 -162t144 -403q0 -201 -90 -388t-260 -311t-375 -124z" />
    <glyph glyph-name="Ocircumflex" unicode="&#xd4;" horiz-adv-x="1452" 
d="M723 1460l-4 4l295 193l188 -193l-4 -4l-186 178zM694 -8q201 0 368 122t256 307t89 403t-141 378q-141 158 -381 158q-201 0 -368 -122t-256 -307t-89 -403t141 -378q141 -158 381 -158zM694 -18q-246 0 -390 162t-144 403q0 201 90 388t260 311t375 124q246 0 390 -162
t144 -403q0 -201 -90 -388t-260 -311t-375 -124z" />
    <glyph glyph-name="Otilde" unicode="&#xd5;" horiz-adv-x="1452" 
d="M1135 1501q-57 1 -149 63t-140 62q-80 0 -133 -123l-8 4q57 129 143 129q55 0 146 -62t143 -63q86 0 143 127l8 -4q-59 -133 -153 -133zM694 -8q201 0 368 122t256 307t89 403t-141 378q-141 158 -381 158q-201 0 -368 -122t-256 -307t-89 -403t141 -378
q141 -158 381 -158zM694 -18q-246 0 -390 162t-144 403q0 201 90 388t260 311t375 124q246 0 390 -162t144 -403q0 -201 -90 -388t-260 -311t-375 -124z" />
    <glyph glyph-name="Odieresis" unicode="&#xd6;" horiz-adv-x="1452" 
d="M883 1513q-25 0 -25 25t25 25t25 -25t-25 -25zM1087 1513q-25 0 -24 25t25 25t24 -25t-25 -25zM694 -8q201 0 368 122t256 307t89 403t-141 378q-141 158 -381 158q-201 0 -368 -122t-256 -307t-89 -403t141 -378q141 -158 381 -158zM694 -18q-246 0 -390 162t-144 403
q0 201 90 388t260 311t375 124q246 0 390 -162t144 -403q0 -201 -90 -388t-260 -311t-375 -124z" />
    <glyph glyph-name="multiply" unicode="&#xd7;" horiz-adv-x="743" 
d="M199 815l207 -268l317 256l6 -10l-317 -256l213 -275l-9 -8l-213 274l-321 -260l-6 11l321 260l-207 268z" />
    <glyph glyph-name="Oslash" unicode="&#xd8;" horiz-adv-x="1452" 
d="M172 558q0 -188 78 -320l1059 907q-145 215 -424 215q-201 0 -368 -122t-256 -307t-89 -373zM694 -8q201 0 368 122t256 307t89 377t-92 337l-1061 -906q66 -111 180 -174t260 -63zM694 -18q-299 0 -448 239l-273 -233l-6 8l275 233q-82 139 -82 329t90 377t260 311
t375 124q287 0 434 -217l250 213l6 -8l-250 -215q94 -145 94 -342t-90 -384t-260 -311t-375 -124z" />
    <glyph glyph-name="Ugrave" unicode="&#xd9;" horiz-adv-x="1359" 
d="M743 1667q6 0 13 -4l252 -184l-2 -4l-258 172q-10 6 -10 13t5 7zM625 -18q-164 0 -268 89q-103 89 -103 269q0 72 33 215l180 782h-223l2 11h446l-2 -11h-211l-180 -782q-33 -143 -33 -215q0 -176 100 -262t261 -86q199 0 313 124t174 396l191 825h-230l2 11h447l-2 -11
h-205l-191 -825q-66 -282 -182 -406t-319 -124z" />
    <glyph glyph-name="Uacute" unicode="&#xda;" horiz-adv-x="1359" 
d="M1102 1638q0 -8 -10 -12l-283 -153l-2 4l274 165q8 4 13 5q8 -1 8 -9zM625 -18q-164 0 -268 89q-103 89 -103 269q0 72 33 215l180 782h-223l2 11h446l-2 -11h-211l-180 -782q-33 -143 -33 -215q0 -176 100 -262t261 -86q199 0 313 124t174 396l191 825h-230l2 11h447
l-2 -11h-205l-191 -825q-66 -282 -182 -406t-319 -124z" />
    <glyph glyph-name="Ucircumflex" unicode="&#xdb;" horiz-adv-x="1359" 
d="M664 1460l-5 4l295 193l189 -193l-4 -4l-187 178zM625 -18q-164 0 -268 89q-103 89 -103 269q0 72 33 215l180 782h-223l2 11h446l-2 -11h-211l-180 -782q-33 -143 -33 -215q0 -176 100 -262t261 -86q199 0 313 124t174 396l191 825h-230l2 11h447l-2 -11h-205l-191 -825
q-66 -282 -182 -406t-319 -124z" />
    <glyph glyph-name="Udieresis" unicode="&#xdc;" horiz-adv-x="1359" 
d="M821 1513q-25 0 -24 25t25 25t24 -25t-25 -25zM1026 1513q-25 0 -25 25t25 25t25 -25t-25 -25zM625 -18q-164 0 -268 89q-103 89 -103 269q0 72 33 215l180 782h-223l2 11h446l-2 -11h-211l-180 -782q-33 -143 -33 -215q0 -176 100 -262t261 -86q199 0 313 124t174 396
l191 825h-230l2 11h447l-2 -11h-205l-191 -825q-66 -282 -182 -406t-319 -124z" />
    <glyph glyph-name="Yacute" unicode="&#xdd;" horiz-adv-x="1259" 
d="M1061 1638q0 -8 -10 -12l-283 -153l-2 4l274 165q8 4 13 5q8 -1 8 -9zM317 0l2 10h205l131 565l-284 762h-135l2 11h360l-2 -11h-213l281 -751l639 751h-213l2 11h360l-2 -11h-133l-649 -764l-131 -563h217l-2 -10h-435z" />
    <glyph glyph-name="Thorn" unicode="&#xde;" horiz-adv-x="1054" 
d="M504 307q246 0 392 116t146 302q0 139 -75 221q-106 115 -344 115h-179l-170 -739q126 -15 230 -15zM623 1071q244 0 352 -119q80 -86 80 -227q0 -190 -150 -309t-401 -119q-106 0 -232 14l-69 -301h209l-2 -10h-430l2 10h208l306 1327h-209l2 11h430l-2 -11h-209
l-62 -266h177z" />
    <glyph glyph-name="germandbls" unicode="&#xdf;" horiz-adv-x="958" 
d="M599 -12q-105 0 -167 54q-61 54 -61 124q0 33 21 33t22 -25q0 -31 -29 -27q5 -57 63 -103t155 -46t166 62t69 156t-39 154t-101 124t-82 86q-67 85 -66 154t63 134q62 64 138 132q76 69 123 139q48 71 48 157t-52 146t-143 59q-125 0 -204 -92t-124 -285l-262 -1124h-12
l190 817h-163l2 10h163l70 297q45 197 127 292t213 95q99 0 153 -63q54 -64 54 -154t-47 -160t-125 -140t-106 -98q-30 -28 -62 -76t-31 -89q0 -73 65 -147q22 -25 70 -73t74 -81t52 -88t26 -115q0 -109 -73 -174t-178 -65z" />
    <glyph glyph-name="agrave" unicode="&#xe0;" horiz-adv-x="1032" 
d="M448 1196q6 0 13 -4l252 -184l-2 -4l-258 172q-11 6 -11 13t6 7zM367 -2q176 0 298 167t121 355q0 137 -78 223q-79 86 -200 86q-174 -1 -292 -159t-118 -361q0 -147 74 -229t195 -82zM363 -12q-125 0 -201 85t-76 236q0 207 121 369t301 162q129 0 209 -89t80 -231
q0 -20 -2 -28l84 335h12l-156 -626q-12 -51 -12 -96t25 -76q26 -31 72 -31t81 39t68 125l10 -2q-37 -94 -73 -133t-88 -39t-80 34t-28 78t13 101l18 73q-55 -126 -154 -206t-224 -80z" />
    <glyph glyph-name="aacute" unicode="&#xe1;" horiz-adv-x="1032" 
d="M805 1168q0 -8 -10 -13l-283 -154l-2 5l274 165q8 4 13 5q8 0 8 -8zM367 -2q176 0 298 167t121 355q0 137 -78 223q-79 86 -200 86q-174 -1 -292 -159t-118 -361q0 -147 74 -229t195 -82zM363 -12q-125 0 -201 85t-76 236q0 207 121 369t301 162q129 0 209 -89t80 -231
q0 -20 -2 -28l84 335h12l-156 -626q-12 -51 -12 -96t25 -76q26 -31 72 -31t81 39t68 125l10 -2q-37 -94 -73 -133t-88 -39t-80 34t-28 78t13 101l18 73q-55 -126 -154 -206t-224 -80z" />
    <glyph glyph-name="acircumflex" unicode="&#xe2;" horiz-adv-x="1032" 
d="M367 989l-5 4l295 193l189 -193l-4 -4l-187 178zM367 -2q176 0 298 167t121 355q0 137 -78 223q-79 86 -200 86q-174 -1 -292 -159t-118 -361q0 -147 74 -229t195 -82zM363 -12q-125 0 -201 85t-76 236q0 207 121 369t301 162q129 0 209 -89t80 -231q0 -20 -2 -28l84 335
h12l-156 -626q-12 -51 -12 -96t25 -76q26 -31 72 -31t81 39t68 125l10 -2q-37 -94 -73 -133t-88 -39t-80 34t-28 78t13 101l18 73q-55 -126 -154 -206t-224 -80z" />
    <glyph glyph-name="atilde" unicode="&#xe3;" horiz-adv-x="1032" 
d="M778 1030q-57 0 -149 62t-140 63q-80 0 -133 -123l-8 4q57 129 144 129q55 0 146 -62t142 -63q86 0 144 127l8 -4q-60 -133 -154 -133zM367 -2q176 0 298 167t121 355q0 137 -78 223q-79 86 -200 86q-174 -1 -292 -159t-118 -361q0 -147 74 -229t195 -82zM363 -12
q-125 0 -201 85t-76 236q0 207 121 369t301 162q129 0 209 -89t80 -231q0 -20 -2 -28l84 335h12l-156 -626q-12 -51 -12 -96t25 -76q26 -31 72 -31t81 39t68 125l10 -2q-37 -94 -73 -133t-88 -39t-80 34t-28 78t13 101l18 73q-55 -126 -154 -206t-224 -80z" />
    <glyph glyph-name="adieresis" unicode="&#xe4;" horiz-adv-x="1032" 
d="M526 1042q-25 0 -24 25q0 25 24 25t25 -25q0 -25 -25 -25zM731 1042q-25 0 -24 25t25 25t24 -25t-25 -25zM367 -2q176 0 298 167t121 355q0 137 -78 223q-79 86 -200 86q-174 -1 -292 -159t-118 -361q0 -147 74 -229t195 -82zM363 -12q-125 0 -201 85t-76 236
q0 207 121 369t301 162q129 0 209 -89t80 -231q0 -20 -2 -28l84 335h12l-156 -626q-12 -51 -12 -96t25 -76q26 -31 72 -31t81 39t68 125l10 -2q-37 -94 -73 -133t-88 -39t-80 34t-28 78t13 101l18 73q-55 -126 -154 -206t-224 -80z" />
    <glyph glyph-name="aring" unicode="&#xe5;" horiz-adv-x="1032" 
d="M770 1168q0 52 -28 84t-80 32t-90 -48q-40 -48 -40 -100t28 -84t79 -32t91 48t40 100zM638 1010q-56 0 -87 34t-31 92t42 108t100 50t90 -34q30 -34 30 -90q0 -58 -44 -109t-100 -51zM367 -2q176 0 298 167t121 355q0 137 -78 223q-79 86 -200 86q-174 -1 -292 -159
t-118 -361q0 -147 74 -229t195 -82zM363 -12q-125 0 -201 85t-76 236q0 207 121 369t301 162q129 0 209 -89t80 -231q0 -20 -2 -28l84 335h12l-156 -626q-12 -51 -12 -96t25 -76q26 -31 72 -31t81 39t68 125l10 -2q-37 -94 -73 -133t-88 -39t-80 34t-28 78t13 101l18 73
q-55 -126 -154 -206t-224 -80z" />
    <glyph glyph-name="ae" unicode="&#xe6;" horiz-adv-x="1488" 
d="M1386 557q0 127 -67 199t-200 73q-133 0 -245 -105t-149 -267h651q10 47 10 100zM287 -4q153 0 285 129t135 321h-267q-180 0 -280 -66t-101 -183q-1 -89 57 -145t171 -56zM713 330q0 -156 88 -244t228 -88t267 72l-2 -13q-123 -69 -266 -69t-234 89t-94 242
q-44 -147 -164 -240t-244 -93t-184 59t-61 152q1 123 105 191t288 69h267q-2 160 -74 266t-225 106q-96 0 -156 -47q-29 -23 -35 -49q29 -6 29 -31q0 -20 -23 -20t-23 38t53 79q52 41 155 41q156 0 230 -102t81 -261q39 158 151 260q114 103 252 103t208 -76t69 -207
q-1 -54 -13 -111h-663q-10 -66 -10 -116z" />
    <glyph glyph-name="ccedilla" unicode="&#xe7;" horiz-adv-x="847" 
d="M457 -276q0 -54 -45 -94t-134 -40t-192 58l4 10q100 -57 186 -57q86 -1 126 35q42 36 42 88t-38 84t-123 32l-2 4l63 152q-116 27 -188 120t-72 234q0 195 127 342t317 148q125 0 200 -62t75 -141q1 -39 -21 -39t-22 23q0 12 9 20t22 6q-6 74 -76 128t-187 54
q-184 0 -308 -145q-124 -146 -124 -322t93 -270t237 -94t260 88l-2 -14q-117 -84 -258 -84q-37 0 -72 6l-57 -144q80 -2 120 -36t40 -90z" />
    <glyph glyph-name="egrave" unicode="&#xe8;" horiz-adv-x="878" 
d="M387 1189q0 7 6 7t13 -4l251 -184l-2 -4l-258 172q-10 6 -10 13zM506 829q-134 0 -246 -105t-149 -267h655q10 47 10 100q0 127 -67 200q-69 72 -203 72zM418 -2q140 0 268 72l-2 -13q-123 -69 -267 -69t-238 93q-93 93 -93 253q0 206 126 356t310 150q127 0 197 -76
t69 -207q0 -54 -12 -111h-667q-10 -61 -11 -112q0 -156 90 -246t230 -90z" />
    <glyph glyph-name="eacute" unicode="&#xe9;" horiz-adv-x="878" 
d="M459 1001l-2 5l274 165q8 4 12 5q9 0 9 -8t-11 -13zM506 829q-134 0 -246 -105t-149 -267h655q10 47 10 100q0 127 -67 200q-69 72 -203 72zM418 -2q140 0 268 72l-2 -13q-123 -69 -267 -69t-238 93q-93 93 -93 253q0 206 126 356t310 150q127 0 197 -76t69 -207
q0 -54 -12 -111h-667q-10 -61 -11 -112q0 -156 90 -246t230 -90z" />
    <glyph glyph-name="ecircumflex" unicode="&#xea;" horiz-adv-x="878" 
d="M313 989l-4 4l295 193l189 -193l-5 -4l-186 178zM506 829q-134 0 -246 -105t-149 -267h655q10 47 10 100q0 127 -67 200q-69 72 -203 72zM418 -2q140 0 268 72l-2 -13q-123 -69 -267 -69t-238 93q-93 93 -93 253q0 206 126 356t310 150q127 0 197 -76t69 -207
q0 -54 -12 -111h-667q-10 -61 -11 -112q0 -156 90 -246t230 -90z" />
    <glyph glyph-name="edieresis" unicode="&#xeb;" horiz-adv-x="878" 
d="M471 1042q-25 0 -25 25t25 25t25 -25t-25 -25zM676 1042q-25 0 -25 25t25 25t25 -25t-25 -25zM506 829q-134 0 -246 -105t-149 -267h655q10 47 10 100q0 127 -67 200q-69 72 -203 72zM418 -2q140 0 268 72l-2 -13q-123 -69 -267 -69t-238 93q-93 93 -93 253
q0 206 126 356t310 150q127 0 197 -76t69 -207q0 -54 -12 -111h-667q-10 -61 -11 -112q0 -156 90 -246t230 -90z" />
    <glyph glyph-name="igrave" unicode="&#xec;" horiz-adv-x="503" 
d="M240 1196q6 0 12 -4l252 -184l-2 -4l-258 172q-10 6 -10 13t6 7zM264 -2q87 0 146 164l10 -2q-33 -92 -69 -132t-88 -40t-81 32q-28 32 -28 83q0 52 32 163l164 551h-178l2 10h191l-166 -561q-33 -106 -33 -158t27 -82q27 -28 71 -28z" />
    <glyph glyph-name="iacute" unicode="&#xed;" horiz-adv-x="503" 
d="M596 1168q0 -8 -10 -13l-283 -154l-2 5l274 165q8 4 13 5q8 0 8 -8zM264 -2q87 0 146 164l10 -2q-33 -92 -69 -132t-88 -40t-81 32q-28 32 -28 83q0 52 32 163l164 551h-178l2 10h191l-166 -561q-33 -106 -33 -158t27 -82q27 -28 71 -28z" />
    <glyph glyph-name="icircumflex" unicode="&#xee;" horiz-adv-x="503" 
d="M158 989l-4 4l295 193l188 -193l-4 -4l-187 178zM264 -2q87 0 146 164l10 -2q-33 -92 -69 -132t-88 -40t-81 32q-28 32 -28 83q0 52 32 163l164 551h-178l2 10h191l-166 -561q-33 -106 -33 -158t27 -82q27 -28 71 -28z" />
    <glyph glyph-name="idieresis" unicode="&#xef;" horiz-adv-x="503" 
d="M317 1042q-25 0 -24 25t25 25t24 -25t-25 -25zM522 1042q-25 0 -24 25q0 25 24 25t25 -25q0 -25 -25 -25zM264 -2q87 0 146 164l10 -2q-33 -92 -69 -132t-88 -40t-81 32q-28 32 -28 83q0 52 32 163l164 551h-178l2 10h191l-166 -561q-33 -106 -33 -158t27 -82
q27 -28 71 -28z" />
    <glyph glyph-name="eth" unicode="&#xf0;" horiz-adv-x="976" 
d="M528 799q-176 -1 -294 -139t-118 -309t92 -261q90 -90 238 -92t272 128t124 310t-91 272q-91 91 -223 91zM528 809q136 0 230 -92t94 -258q0 -25 -2 -51q16 92 16 239q0 379 -143 615l-291 -258l-6 8l291 260q-61 100 -153 162t-175 65q-6 -29 -29 -29q-16 0 -16 17
q0 23 37 22q90 0 184 -63t160 -168l219 195l6 -9l-219 -194q147 -244 147 -618t-159 -541q-119 -125 -289 -123q-135 2 -230 94q-96 92 -96 269t121 317t303 141z" />
    <glyph glyph-name="ntilde" unicode="&#xf1;" horiz-adv-x="1015" 
d="M799 1030q-57 0 -149 62t-140 63q-80 0 -133 -123l-8 4q57 129 143 129q55 0 146 -62t143 -63q86 0 143 127l8 -4q-59 -133 -153 -133zM801 -12q-53 0 -82 34t-29 88t33 154l63 205q37 115 37 188q0 172 -180 172q-137 0 -260 -139t-174 -346l-86 -344h-12l204 817h-178
l2 10h191l-88 -350q68 162 176 262q109 101 214 101q202 1 204 -183q0 -74 -37 -188l-64 -205q-33 -100 -33 -152t27 -84q27 -30 72 -30q90 0 149 164l11 -2q-33 -90 -70 -131t-90 -41z" />
    <glyph glyph-name="ograve" unicode="&#xf2;" horiz-adv-x="946" 
d="M424 1189q0 7 6 7t12 -4l252 -184l-2 -4l-258 172q-10 6 -10 13zM428 -2q180 0 300 144t120 322t-93 271q-93 94 -237 94q-180 0 -300 -144q-120 -143 -120 -321t94 -272t236 -94zM428 -12q-147 0 -245 97q-97 97 -97 279t124 328q124 147 308 148q150 0 246 -98t96 -278
q0 -182 -124 -329t-308 -147z" />
    <glyph glyph-name="oacute" unicode="&#xf3;" horiz-adv-x="946" 
d="M788 1168q0 -8 -10 -13l-282 -154l-2 5l274 165q8 4 12 5q8 0 8 -8zM428 -2q180 0 300 144t120 322t-93 271q-93 94 -237 94q-180 0 -300 -144q-120 -143 -120 -321t94 -272t236 -94zM428 -12q-147 0 -245 97q-97 97 -97 279t124 328q124 147 308 148q150 0 246 -98
t96 -278q0 -182 -124 -329t-308 -147z" />
    <glyph glyph-name="ocircumflex" unicode="&#xf4;" horiz-adv-x="946" 
d="M350 989l-4 4l295 193l188 -193l-4 -4l-186 178zM428 -2q180 0 300 144t120 322t-93 271q-93 94 -237 94q-180 0 -300 -144q-120 -143 -120 -321t94 -272t236 -94zM428 -12q-147 0 -245 97q-97 97 -97 279t124 328q124 147 308 148q150 0 246 -98t96 -278
q0 -182 -124 -329t-308 -147z" />
    <glyph glyph-name="otilde" unicode="&#xf5;" horiz-adv-x="946" 
d="M760 1030q-58 0 -150 62t-139 63q-80 0 -133 -123l-8 4q57 129 143 129q55 0 147 -62t142 -63q86 0 143 127l8 -4q-59 -133 -153 -133zM428 -2q180 0 300 144t120 322t-93 271q-93 94 -237 94q-180 0 -300 -144q-120 -143 -120 -321t94 -272t236 -94zM428 -12
q-147 0 -245 97q-97 97 -97 279t124 328q124 147 308 148q150 0 246 -98t96 -278q0 -182 -124 -329t-308 -147z" />
    <glyph glyph-name="odieresis" unicode="&#xf6;" horiz-adv-x="946" 
d="M508 1042q-25 0 -25 25t25 25t25 -25t-25 -25zM713 1042q-25 0 -25 25t25 25t25 -25t-25 -25zM428 -2q180 0 300 144t120 322t-93 271q-93 94 -237 94q-180 0 -300 -144q-120 -143 -120 -321t94 -272t236 -94zM428 -12q-147 0 -245 97q-97 97 -97 279t124 328
q124 147 308 148q150 0 246 -98t96 -278q0 -182 -124 -329t-308 -147z" />
    <glyph glyph-name="divide" unicode="&#xf7;" horiz-adv-x="743" 
d="M346 276q-25 0 -24 25q0 25 24 25t25 -25q0 -25 -25 -25zM455 741q-25 0 -25 25t25 25t25 -25t-25 -25zM119 532l2 11h563l-2 -11h-563z" />
    <glyph glyph-name="oslash" unicode="&#xf8;" horiz-adv-x="946" 
d="M98 350q0 -123 54 -207l634 551q-92 135 -270 135q-178 -1 -298 -145t-120 -334zM430 -2q178 0 298 144t120 335q0 121 -55 209l-635 -553q94 -135 272 -135zM428 -12q-184 0 -278 139l-160 -139l-6 8l159 139q-57 90 -57 215q0 195 124 342q124 148 306 148t279 -138
l168 146l6 -8l-168 -146q59 -92 59 -217q0 -195 -124 -342t-308 -147z" />
    <glyph glyph-name="ugrave" unicode="&#xf9;" horiz-adv-x="1030" 
d="M452 1196q6 0 13 -4l252 -184l-2 -4l-258 172q-11 6 -11 13t6 7zM178 166q0 -72 45 -120t125 -48q137 0 259 139t173 346l86 344h13l-156 -626q-12 -51 -12 -96q1 -45 25 -76t71 -31t82 39t67 125l11 -2q-37 -94 -73 -133t-88 -39t-80 34t-28 80t13 99l39 153
q-68 -166 -177 -266t-227 -100q-86 0 -133 51t-47 125t37 223l106 430h-178l2 10h191l-109 -440q-37 -149 -37 -221z" />
    <glyph glyph-name="uacute" unicode="&#xfa;" horiz-adv-x="1030" 
d="M809 1168q0 -8 -10 -13l-283 -154l-2 5l274 165q8 4 13 5q8 0 8 -8zM178 166q0 -72 45 -120t125 -48q137 0 259 139t173 346l86 344h13l-156 -626q-12 -51 -12 -96q1 -45 25 -76t71 -31t82 39t67 125l11 -2q-37 -94 -73 -133t-88 -39t-80 34t-28 80t13 99l39 153
q-68 -166 -177 -266t-227 -100q-86 0 -133 51t-47 125t37 223l106 430h-178l2 10h191l-109 -440q-37 -149 -37 -221z" />
    <glyph glyph-name="ucircumflex" unicode="&#xfb;" horiz-adv-x="1030" 
d="M371 989l-4 4l295 193l188 -193l-4 -4l-187 178zM178 166q0 -72 45 -120t125 -48q137 0 259 139t173 346l86 344h13l-156 -626q-12 -51 -12 -96q1 -45 25 -76t71 -31t82 39t67 125l11 -2q-37 -94 -73 -133t-88 -39t-80 34t-28 80t13 99l39 153q-68 -166 -177 -266
t-227 -100q-86 0 -133 51t-47 125t37 223l106 430h-178l2 10h191l-109 -440q-37 -149 -37 -221z" />
    <glyph glyph-name="udieresis" unicode="&#xfc;" horiz-adv-x="1030" 
d="M530 1042q-25 0 -24 25q0 25 24 25t25 -25q0 -25 -25 -25zM735 1042q-25 0 -24 25t25 25t24 -25t-25 -25zM178 166q0 -72 45 -120t125 -48q137 0 259 139t173 346l86 344h13l-156 -626q-12 -51 -12 -96q1 -45 25 -76t71 -31t82 39t67 125l11 -2q-37 -94 -73 -133t-88 -39
t-80 34t-28 80t13 99l39 153q-68 -166 -177 -266t-227 -100q-86 0 -133 51t-47 125t37 223l106 430h-178l2 10h191l-109 -440q-37 -149 -37 -221z" />
    <glyph glyph-name="yacute" unicode="&#xfd;" horiz-adv-x="866" 
d="M739 1168q0 -8 -10 -13l-283 -154l-2 5l275 165q8 4 12 5q8 0 8 -8zM-76 -399q-62 0 -61 34q0 20 22 21q27 0 27 -27q0 -10 -6 -16q4 -2 14 -2q61 0 181 89t270 273l-166 844h-160l2 10h168l164 -843q174 215 296 446t122 342q0 10 -4 23q-8 -4 -15 -4q-27 0 -26 26
q0 23 20 23q37 0 37 -68q0 -112 -127 -350q-126 -238 -288 -438t-285 -292q-123 -91 -185 -91z" />
    <glyph glyph-name="thorn" unicode="&#xfe;" horiz-adv-x="1005" 
d="M496 -2q180 0 296 154t115 348q-1 156 -75 242t-199 87q-125 -1 -224 -81t-151 -196t-53 -246q0 -130 80 -218q80 -90 211 -90zM632 840q132 0 210 -90t78 -270t-119 -336q-119 -157 -305 -156q-137 0 -220 92q-82 92 -81 242v14l-170 -727h180l-2 -10h-316l2 10h123
l439 1880h-179l2 10h191l-223 -958q55 131 156 215q102 84 234 84z" />
    <glyph glyph-name="ydieresis" unicode="&#xff;" horiz-adv-x="866" 
d="M459 1042q-25 0 -25 25t25 25t25 -25t-25 -25zM664 1042q-25 0 -25 25t25 25t25 -25t-25 -25zM-76 -399q-62 0 -61 34q0 20 22 21q27 0 27 -27q0 -10 -6 -16q4 -2 14 -2q61 0 181 89t270 273l-166 844h-160l2 10h168l164 -843q174 215 296 446t122 342q0 10 -4 23
q-8 -4 -15 -4q-27 0 -26 26q0 23 20 23q37 0 37 -68q0 -112 -127 -350q-126 -238 -288 -438t-285 -292q-123 -91 -185 -91z" />
    <glyph glyph-name="Amacron" unicode="&#x100;" horiz-adv-x="1388" 
d="M698 1534l2 12h512l-2 -12h-512zM426 539h596l-113 800zM-29 0l2 10h119l803 1327h-199l2 11h420l-2 -11h-194l188 -1327h141l-2 -10h-344l2 10h191l-74 518h-604l-314 -518h211l-2 -10h-344z" />
    <glyph glyph-name="amacron" unicode="&#x101;" horiz-adv-x="1032" 
d="M375 1063l2 12h512l-2 -12h-512zM367 -2q176 0 298 167t121 355q0 137 -78 223q-79 86 -200 86q-174 -1 -292 -159t-118 -361q0 -147 74 -229t195 -82zM363 -12q-125 0 -201 85t-76 236q0 207 121 369t301 162q129 0 209 -89t80 -231q0 -20 -2 -28l84 335h12l-156 -626
q-12 -51 -12 -96t25 -76q26 -31 72 -31t81 39t68 125l10 -2q-37 -94 -73 -133t-88 -39t-80 34t-28 78t13 101l18 73q-55 -126 -154 -206t-224 -80z" />
    <glyph glyph-name="Abreve" unicode="&#x102;" horiz-adv-x="1388" 
d="M930 1470q-88 0 -144 54t-73 145l6 2q17 -86 73 -137t139 -51t157 51t116 131l6 -2q-44 -85 -118 -139t-162 -54zM426 539h596l-113 800zM-29 0l2 10h119l803 1327h-199l2 11h420l-2 -11h-194l188 -1327h141l-2 -10h-344l2 10h191l-74 518h-604l-314 -518h211l-2 -10
h-344z" />
    <glyph glyph-name="abreve" unicode="&#x103;" horiz-adv-x="1032" 
d="M608 999q-88 1 -143 55t-74 144l6 2q17 -86 73 -137t139 -51t157 51t117 131l6 -2q-43 -84 -118 -138t-163 -55zM367 -2q176 0 298 167t121 355q0 137 -78 223q-79 86 -200 86q-174 -1 -292 -159t-118 -361q0 -147 74 -229t195 -82zM363 -12q-125 0 -201 85t-76 236
q0 207 121 369t301 162q129 0 209 -89t80 -231q0 -20 -2 -28l84 335h12l-156 -626q-12 -51 -12 -96t25 -76q26 -31 72 -31t81 39t68 125l10 -2q-37 -94 -73 -133t-88 -39t-80 34t-28 78t13 101l18 73q-55 -126 -154 -206t-224 -80z" />
    <glyph glyph-name="Aogonek" unicode="&#x104;" horiz-adv-x="1388" 
d="M426 539h596l-113 800zM913 -281q0 -55 34 -88t87 -33t101 21l-2 -10q-47 -21 -103 -21t-92 35q-37 35 -37 96q0 133 191 281h-187l2 10h191l-74 518h-604l-314 -518h211l-2 -10h-344l2 10h119l803 1327h-199l2 11h420l-2 -11h-194l188 -1327h141l-2 -10h-141
q-195 -150 -195 -281z" />
    <glyph glyph-name="aogonek" unicode="&#x105;" horiz-adv-x="1032" 
d="M367 -2q176 0 298 167t121 355q0 137 -78 223q-79 86 -200 86q-174 -1 -292 -159t-118 -361q0 -147 74 -229t195 -82zM711 100q0 44 12 101l18 73q-57 -126 -154 -206t-223 -80t-202 85t-76 236q0 207 121 369t301 162q129 0 209 -89t80 -231q0 -20 -2 -28l84 335h12
l-156 -626q-12 -51 -12 -96t25 -76q24 -31 70 -31t81 39t70 125l10 -2q-45 -113 -109 -168q-67 -50 -110 -97q-44 -47 -66 -85t-22 -92t34 -87t87 -33t100 21l-2 -10q-47 -21 -102 -21t-93 35q-37 35 -37 96q0 96 103 191q34 31 66 58q32 26 36 30q-26 -10 -62 -10t-64 34
q-27 34 -27 78z" />
    <glyph glyph-name="Cacute" unicode="&#x106;" horiz-adv-x="1290" 
d="M1114 1638q0 -8 -10 -12l-283 -153l-2 4l275 165q8 4 12 5q8 -1 8 -9zM706 -18q-258 0 -402 162t-144 403q0 201 90 388t260 311t371 124t313 -90t111 -201q1 -39 -21 -39t-22 23q0 12 9 20t21 7q-4 104 -113 187q-111 83 -303 83t-359 -122t-256 -307t-89 -403t141 -378
q141 -158 381 -158q125 0 251 53t224 148l9 -9q-214 -202 -472 -202z" />
    <glyph glyph-name="cacute" unicode="&#x107;" horiz-adv-x="847" 
d="M772 1168q0 -8 -10 -13l-283 -154l-2 5l275 165q8 4 12 5q8 0 8 -8zM423 -12q-144 0 -242 97q-97 97 -97 279t127 328q127 147 317 148q125 0 200 -62t75 -141q1 -39 -21 -39t-22 23q0 12 9 20t22 6q-6 74 -76 128t-187 54q-184 0 -308 -145q-124 -146 -124 -322t93 -270
t237 -94t260 88l-2 -14q-117 -84 -261 -84z" />
    <glyph glyph-name="Cdotaccent" unicode="&#x10a;" horiz-adv-x="1290" 
d="M952 1565q-24 1 -24 25t24 24t25 -24q0 -24 -25 -25zM706 -18q-258 0 -402 162t-144 403q0 201 90 388t260 311t371 124t313 -90t111 -201q1 -39 -21 -39t-22 23q0 12 9 20t21 7q-4 104 -113 187q-111 83 -303 83t-359 -122t-256 -307t-89 -403t141 -378
q141 -158 381 -158q125 0 251 53t224 148l9 -9q-214 -202 -472 -202z" />
    <glyph glyph-name="cdotaccent" unicode="&#x10b;" horiz-adv-x="847" 
d="M608 1094q-24 0 -24 24t24 25q24 -1 25 -25q0 -24 -25 -24zM423 -12q-144 0 -242 97q-97 97 -97 279t127 328q127 147 317 148q125 0 200 -62t75 -141q1 -39 -21 -39t-22 23q0 12 9 20t22 6q-6 74 -76 128t-187 54q-184 0 -308 -145q-124 -146 -124 -322t93 -270t237 -94
t260 88l-2 -14q-117 -84 -261 -84z" />
    <glyph glyph-name="Ccaron" unicode="&#x10c;" horiz-adv-x="1290" 
d="M893 1460l-188 193l4 4l186 -178l289 178l4 -4zM706 -18q-258 0 -402 162t-144 403q0 201 90 388t260 311t371 124t313 -90t111 -201q1 -39 -21 -39t-22 23q0 12 9 20t21 7q-4 104 -113 187q-111 83 -303 83t-359 -122t-256 -307t-89 -403t141 -378q141 -158 381 -158
q125 0 251 53t224 148l9 -9q-214 -202 -472 -202z" />
    <glyph glyph-name="ccaron" unicode="&#x10d;" horiz-adv-x="847" 
d="M549 989l-189 193l5 4l186 -178l289 178l4 -4zM423 -12q-144 0 -242 97q-97 97 -97 279t127 328q127 147 317 148q125 0 200 -62t75 -141q1 -39 -21 -39t-22 23q0 12 9 20t22 6q-6 74 -76 128t-187 54q-184 0 -308 -145q-124 -146 -124 -322t93 -270t237 -94t260 88
l-2 -14q-117 -84 -261 -84z" />
    <glyph glyph-name="Dcaron" unicode="&#x10e;" horiz-adv-x="1339" 
d="M778 1460l-188 193l4 4l186 -178l289 178l4 -4zM395 10q449 0 684 240q219 219 219 545q0 231 -141 372q-170 170 -502 170h-147l-305 -1327h192zM655 1348q338 0 510 -172q145 -145 146 -381q0 -331 -232 -563t-684 -232h-411l2 10h204l306 1327h-224l2 11h381z" />
    <glyph glyph-name="dcaron" unicode="&#x10f;" horiz-adv-x="1056" 
d="M1188 1499q10 1 10 -27t-28 -105t-70 -138l-4 2q80 123 82 254q0 14 10 14zM373 -2q125 0 224 81t151 197t53 245q0 130 -80 219t-211 89q-180 1 -296 -153t-116 -329t75 -262t200 -87zM86 348q0 180 119 336t305 156q137 0 219 -92t82 -242v-12l229 995h-178l2 10h191
l-299 -1298q-29 -122 12 -172q25 -31 72 -31t82 39t67 125l10 -2q-37 -94 -73 -133t-87 -39q-52 0 -80 34t-28 78t12 101l21 86q-56 -129 -158 -214t-233 -85t-209 90t-78 270z" />
    <glyph glyph-name="Dcroat" unicode="&#x110;" horiz-adv-x="1392" 
d="M395 10q449 0 684 240q219 219 219 545q0 231 -141 372q-170 170 -502 170h-147l-148 -643h316l-2 -10h-316l-155 -674h192zM655 1348q338 0 510 -172q145 -145 146 -381q0 -331 -232 -563t-684 -232h-411l2 10h204l156 674h-180l2 10h180l148 643h-224l2 11h381z" />
    <glyph glyph-name="dcroat" unicode="&#x111;" horiz-adv-x="1056" 
d="M373 -2q125 0 224 81t151 197t53 245q0 130 -80 219t-211 89q-180 1 -296 -153t-116 -329t75 -262t200 -87zM840 -2q47 0 82 39t67 125l10 -2q-37 -94 -73 -133t-87 -39q-52 0 -80 34t-28 78t12 101l21 86q-56 -129 -158 -214t-233 -85t-209 90t-78 270t119 336t305 156
q137 0 219 -92t82 -242v-12l156 671h-342l2 11h342l71 313h-178l2 10h191l-74 -323h176l-2 -11h-176l-223 -964q-29 -122 12 -172q25 -31 72 -31z" />
    <glyph glyph-name="Emacron" unicode="&#x112;" horiz-adv-x="1095" 
d="M553 1534l2 12h512l-2 -12h-512zM-16 0l2 10h204l306 1327h-224l2 11h904l-64 -277h-12l61 266h-655l-148 -643h508l-2 -10h-508l-155 -674h653l62 266h12l-64 -276h-882z" />
    <glyph glyph-name="emacron" unicode="&#x113;" horiz-adv-x="878" 
d="M322 1063l2 12h512l-2 -12h-512zM506 829q-134 0 -246 -105t-149 -267h655q10 47 10 100q0 127 -67 200q-69 72 -203 72zM418 -2q140 0 268 72l-2 -13q-123 -69 -267 -69t-238 93q-93 93 -93 253q0 206 126 356t310 150q127 0 197 -76t69 -207q0 -54 -12 -111h-667
q-10 -61 -11 -112q0 -156 90 -246t230 -90z" />
    <glyph glyph-name="Ebreve" unicode="&#x114;" horiz-adv-x="1095" 
d="M784 1470q-88 0 -143 54t-74 145l6 2q17 -86 73 -137t139 -51t157 51t117 131l6 -2q-43 -85 -118 -139t-163 -54zM-16 0l2 10h204l306 1327h-224l2 11h904l-64 -277h-12l61 266h-655l-148 -643h508l-2 -10h-508l-155 -674h653l62 266h12l-64 -276h-882z" />
    <glyph glyph-name="ebreve" unicode="&#x115;" horiz-adv-x="878" 
d="M553 999q-88 1 -143 55t-74 144l6 2q18 -86 74 -137t138 -51q83 0 157 51t116 131l7 -2q-43 -84 -118 -138t-163 -55zM506 829q-134 0 -246 -105t-149 -267h655q10 47 10 100q0 127 -67 200q-69 72 -203 72zM418 -2q140 0 268 72l-2 -13q-123 -69 -267 -69t-238 93
q-93 93 -93 253q0 206 126 356t310 150q127 0 197 -76t69 -207q0 -54 -12 -111h-667q-10 -61 -11 -112q0 -156 90 -246t230 -90z" />
    <glyph glyph-name="Edotaccent" unicode="&#x116;" horiz-adv-x="1095" 
d="M819 1565q-25 1 -25 25t26 24q24 0 24 -24t-25 -25zM-16 0l2 10h204l306 1327h-224l2 11h904l-64 -277h-12l61 266h-655l-148 -643h508l-2 -10h-508l-155 -674h653l62 266h12l-64 -276h-882z" />
    <glyph glyph-name="edotaccent" unicode="&#x117;" horiz-adv-x="878" 
d="M588 1094q-25 0 -25 24t25 25q25 0 24 -25q1 -24 -24 -24zM506 829q-134 0 -246 -105t-149 -267h655q10 47 10 100q0 127 -67 200q-69 72 -203 72zM418 -2q140 0 268 72l-2 -13q-123 -69 -267 -69t-238 93q-93 93 -93 253q0 206 126 356t310 150q127 0 197 -76t69 -207
q0 -54 -12 -111h-667q-10 -61 -11 -112q0 -156 90 -246t230 -90z" />
    <glyph glyph-name="Eogonek" unicode="&#x118;" horiz-adv-x="1095" 
d="M608 -281q0 -55 34 -88t87 -33t100 21l-2 -10q-47 -21 -102 -21t-92 35t-37 96q0 133 190 281h-802l2 10h204l306 1327h-224l2 11h904l-64 -277h-12l61 266h-655l-148 -643h508l-2 -10h-508l-155 -674h653l62 266h12l-64 -276h-63q-195 -150 -195 -281z" />
    <glyph glyph-name="eogonek" unicode="&#x119;" horiz-adv-x="1083" 
d="M506 829q-134 0 -246 -105t-149 -267h655q10 47 10 100q0 127 -67 200q-69 72 -203 72zM520 -412q-55 0 -92 35t-37 96q0 147 230 308q-90 -39 -219 -39t-223 93q-93 93 -93 253q0 206 126 356t310 150q127 0 197 -76t69 -207q0 -53 -12 -111h-667q-10 -61 -11 -112
q0 -156 90 -246t230 -90t268 72l-2 -13q-281 -180 -281 -338q0 -55 34 -88t87 -33t101 21l-2 -10q-48 -21 -103 -21z" />
    <glyph glyph-name="Ecaron" unicode="&#x11a;" horiz-adv-x="1095" 
d="M760 1460l-189 193l4 4l187 -178l289 178l4 -4zM-16 0l2 10h204l306 1327h-224l2 11h904l-64 -277h-12l61 266h-655l-148 -643h508l-2 -10h-508l-155 -674h653l62 266h12l-64 -276h-882z" />
    <glyph glyph-name="ecaron" unicode="&#x11b;" horiz-adv-x="878" 
d="M528 989l-188 193l4 4l186 -178l289 178l4 -4zM506 829q-134 0 -246 -105t-149 -267h655q10 47 10 100q0 127 -67 200q-69 72 -203 72zM418 -2q140 0 268 72l-2 -13q-123 -69 -267 -69t-238 93q-93 93 -93 253q0 206 126 356t310 150q127 0 197 -76t69 -207
q0 -54 -12 -111h-667q-10 -61 -11 -112q0 -156 90 -246t230 -90z" />
    <glyph glyph-name="Gbreve" unicode="&#x11e;" horiz-adv-x="1374" 
d="M940 1470q-88 0 -143 54t-74 145l6 2q17 -86 73 -137t139 -51t157 51t116 131l7 -2q-43 -85 -118 -139t-163 -54zM678 -18q-240 0 -377 150t-137 369q0 221 92 415t268 324t399 130t337 -127q74 -82 73 -170q1 -31 -21 -31t-22 25q0 12 8 20t21 7q-9 72 -61 133t-142 97
t-203 36q-211 0 -383 -128t-263 -321t-91 -409t134 -362q134 -148 368 -148q137 0 259 54t204 136l98 391h-457l2 11h469l-145 -584h-12l41 164q-84 -78 -204 -130t-255 -52z" />
    <glyph glyph-name="gbreve" unicode="&#x11f;" horiz-adv-x="976" 
d="M612 999q-88 1 -143 55t-74 144l6 2q17 -86 73 -137t139 -51t157 51t117 131l6 -2q-43 -84 -118 -138t-163 -55zM391 -2q178 0 302 170t124 348q0 137 -84 225t-217 88q-178 1 -296 -155t-118 -326t78 -260t211 -90zM297 -410q-67 0 -137 26t-94 60t-25 62t21 29
q22 0 22 -24t-27 -30q18 -49 91 -81t149 -31q195 0 295 118q72 84 115 267l71 307q-55 -131 -157 -218q-101 -87 -235 -87t-215 93t-81 267t122 334q122 158 304 158q139 0 225 -91t86 -235v-10l74 323h12l-194 -841q-43 -186 -117 -273q-104 -123 -305 -123z" />
    <glyph glyph-name="Gdotaccent" unicode="&#x120;" horiz-adv-x="1374" 
d="M975 1565q-25 1 -25 25t25 24t24 -25q1 -24 -24 -24zM678 -18q-240 0 -377 150t-137 369q0 221 92 415t268 324t399 130t337 -127q74 -82 73 -170q1 -31 -21 -31t-22 25q0 12 8 20t21 7q-9 72 -61 133t-142 97t-203 36q-211 0 -383 -128t-263 -321t-91 -409t134 -362
q134 -148 368 -148q137 0 259 54t204 136l98 391h-457l2 11h469l-145 -584h-12l41 164q-84 -78 -204 -130t-255 -52z" />
    <glyph glyph-name="gdotaccent" unicode="&#x121;" horiz-adv-x="976" 
d="M647 1094q-25 0 -25 24t26 25q24 -1 24 -25t-25 -24zM391 -2q178 0 302 170t124 348q0 137 -84 225t-217 88q-178 1 -296 -155t-118 -326t78 -260t211 -90zM297 -410q-67 0 -137 26t-94 60t-25 62t21 29q22 0 22 -24t-27 -30q18 -49 91 -81t149 -31q195 0 295 118
q72 84 115 267l71 307q-55 -131 -157 -218q-101 -87 -235 -87t-215 93t-81 267t122 334q122 158 304 158q139 0 225 -91t86 -235v-10l74 323h12l-194 -841q-43 -186 -117 -273q-104 -123 -305 -123z" />
    <glyph glyph-name="Gcommaaccent" unicode="&#x122;" horiz-adv-x="1374" 
d="M557 -154q0 23 21 23q29 0 28 -41q0 -100 -123 -182l-4 6q115 84 115 170q-14 -8 -26 1q-11 9 -11 23zM678 -18q-240 0 -377 150t-137 369q0 221 92 415t268 324t399 130t337 -127q74 -82 73 -170q1 -31 -21 -31t-22 25q0 12 8 20t21 7q-9 72 -61 133t-142 97t-203 36
q-211 0 -383 -128t-263 -321t-91 -409t134 -362q134 -148 368 -148q137 0 259 54t204 136l98 391h-457l2 11h469l-145 -584h-12l41 164q-84 -78 -204 -130t-255 -52z" />
    <glyph glyph-name="gcommaaccent" unicode="&#x123;" horiz-adv-x="1007" 
d="M614 1133q0 100 123 182l4 -6q-115 -84 -114 -170q14 8 25 -1q12 -9 12 -28t-21 -18q-29 0 -29 41zM391 -2q178 0 302 170t124 348q0 137 -84 225t-217 88q-178 1 -296 -155t-118 -326t78 -260t211 -90zM297 -410q-67 0 -137 26t-94 60t-25 62t21 29q22 0 22 -24t-27 -30
q18 -49 91 -81t149 -31q195 0 295 118q72 84 115 267l71 307q-55 -131 -157 -218q-101 -87 -235 -87t-215 93t-81 267t122 334q122 158 304 158q139 0 225 -91t86 -235v-10l74 323h12l-194 -841q-43 -186 -117 -273q-104 -123 -305 -123z" />
    <glyph glyph-name="Hbar" unicode="&#x126;" horiz-adv-x="1462" 
d="M362 705h871l70 307h-871zM1489 1022v-10h-174l-230 -1002h224l-2 -10h-435l2 10h199l158 684h-871l-157 -684h217l-2 -10h-434l2 10h204l230 1002h-172v10h174l74 315h-224l2 11h447l-2 -11h-211l-74 -315h871l73 315h-229l2 11h446l-2 -11h-204l-74 -315h172z" />
    <glyph glyph-name="hbar" unicode="&#x127;" horiz-adv-x="1005" 
d="M825 664q0 -80 -37 -195l-63 -205q-33 -100 -33 -152t27 -84q27 -30 72 -30q90 0 149 164l10 -2q-34 -90 -70 -131t-90 -41t-82 34t-28 88t33 154l63 205q37 115 37 188q0 172 -180 172q-137 0 -261 -139t-173 -346l-82 -344h-13l277 1165h-178l2 11h178l74 313h-178
l2 10h190l-76 -323h340l-2 -11h-340l-168 -706q63 170 175 275q112 106 220 106t156 -48q49 -48 49 -128z" />
    <glyph glyph-name="Imacron" unicode="&#x12a;" horiz-adv-x="598" 
d="M307 1534l2 12h512l-2 -12h-512zM-10 0l2 10h209l305 1327h-209l2 11h430l-2 -11h-209l-305 -1327h209l-2 -10h-430z" />
    <glyph glyph-name="imacron" unicode="&#x12b;" horiz-adv-x="503" 
d="M166 1063l2 12h512l-2 -12h-512zM264 -2q87 0 146 164l10 -2q-33 -92 -69 -132t-88 -40t-81 32q-28 32 -28 83q0 52 32 163l164 551h-178l2 10h191l-166 -561q-33 -106 -33 -158t27 -82q27 -28 71 -28z" />
    <glyph glyph-name="Ibreve" unicode="&#x12c;" horiz-adv-x="598" 
d="M539 1470q-87 0 -143 54t-74 145l6 2q18 -86 73 -137t139 -51t156 51q74 51 117 131l6 -2q-43 -85 -117 -139t-163 -54zM-10 0l2 10h209l305 1327h-209l2 11h430l-2 -11h-209l-305 -1327h209l-2 -10h-430z" />
    <glyph glyph-name="ibreve" unicode="&#x12d;" horiz-adv-x="503" 
d="M399 999q-88 1 -143 55t-74 144l6 2q18 -86 74 -137t138 -51q83 0 157 51t117 131l6 -2q-43 -84 -118 -138t-163 -55zM264 -2q87 0 146 164l10 -2q-33 -92 -69 -132t-88 -40t-81 32q-28 32 -28 83q0 52 32 163l164 551h-178l2 10h191l-166 -561q-33 -106 -33 -158t27 -82
q27 -28 71 -28z" />
    <glyph glyph-name="Iogonek" unicode="&#x12e;" horiz-adv-x="598" 
d="M14 -281q0 -55 34 -88t87 -33t101 21l-3 -10q-47 -21 -102 -21t-92 35t-37 96q0 133 191 281h-203l2 10h209l305 1327h-209l2 11h430l-2 -11h-209l-305 -1327h209l-2 -10h-211q-195 -150 -195 -281z" />
    <glyph glyph-name="iogonek" unicode="&#x12f;" horiz-adv-x="503" 
d="M391 1094q-25 0 -25 24t26 25q24 -1 24 -25t-25 -24zM117 -294q0 -42 34 -75t87 -33t100 21l-2 -10q-47 -21 -102 -21t-93 35q-37 35 -37 96q0 96 103 191q34 31 66 58q32 26 36 30q-25 -10 -61 -10t-66 32q-28 32 -28 83q0 52 32 163l164 551h-178l2 10h191l-166 -561
q-33 -106 -33 -158t27 -82q27 -28 71 -28q87 0 146 164l10 -2q-47 -119 -94 -157t-100 -87q-109 -101 -109 -210z" />
    <glyph glyph-name="Idotaccent" unicode="&#x130;" horiz-adv-x="598" 
d="M573 1565q-25 1 -25 25t26 24q24 0 24 -24t-25 -25zM-10 0l2 10h209l305 1327h-209l2 11h430l-2 -11h-209l-305 -1327h209l-2 -10h-430z" />
    <glyph glyph-name="dotlessi" unicode="&#x131;" horiz-adv-x="503" 
d="M264 -2q87 0 146 164l10 -2q-33 -92 -69 -132t-88 -40t-81 32q-28 32 -28 83q0 52 32 163l164 551h-178l2 10h191l-166 -561q-33 -106 -33 -158t27 -82q27 -28 71 -28z" />
    <glyph glyph-name="Kcommaaccent" unicode="&#x136;" horiz-adv-x="1249" 
d="M498 -154q0 23 20 23q29 0 29 -41q0 -100 -123 -182l-4 6q115 84 115 170q-14 -8 -26 1q-11 9 -11 23zM1257 1337l-675 -581l370 -746h193l-2 -10h-199l-373 748l-249 -216l-119 -522h217l-2 -10h-434l2 10h204l306 1327h-224l2 11h447l-2 -11h-211l-182 -786l915 786
h-252l2 11h420l-2 -11h-152z" />
    <glyph glyph-name="kcommaaccent" unicode="&#x137;" horiz-adv-x="913" 
d="M340 -131q29 0 29 -41q0 -100 -123 -182l-4 6q115 84 114 170q-14 -8 -25 1t-11 27t20 19zM281 1489v10h184l-260 -1126q271 105 470 264q110 88 118 154q-12 -2 -22 6q-9 8 -9 20q0 23 22 23t21 -39q0 -139 -389 -342l119 -283q45 -102 75 -141q31 -37 70 -37
q94 0 139 188l10 -2q-45 -197 -151 -196q-43 0 -78 42t-78 144l-116 279q-90 -47 -205 -95l-82 -358h-13l345 1489h-170z" />
    <glyph glyph-name="Lacute" unicode="&#x139;" horiz-adv-x="985" 
d="M768 1626q6 0 6 -8t-10 -12l-283 -154l-2 4l275 166q8 4 14 4zM-16 0l2 10h204l306 1327h-224l2 11h447l-2 -11h-211l-305 -1327h600l61 266h13l-64 -276h-829z" />
    <glyph glyph-name="lacute" unicode="&#x13a;" horiz-adv-x="477" 
d="M696 1749q6 0 6 -8t-10 -12l-282 -154l-2 4l274 166q8 4 14 4zM251 -12q-52 0 -81 34t-29 78t13 101l299 1288h-170v10h184l-301 -1298q-12 -51 -12 -96t26 -76t73 -31q46 0 81 39t65 125l11 -2q-33 -90 -70 -131t-89 -41z" />
    <glyph glyph-name="Lcommaaccent" unicode="&#x13b;" horiz-adv-x="985" 
d="M383 -154q0 23 20 23q29 0 29 -41q0 -100 -123 -182l-4 6q115 84 115 170q-14 -8 -26 1q-11 9 -11 23zM-16 0l2 10h204l306 1327h-224l2 11h447l-2 -11h-211l-305 -1327h600l61 266h13l-64 -276h-829z" />
    <glyph glyph-name="lcommaaccent" unicode="&#x13c;" horiz-adv-x="489" 
d="M178 -154q0 23 21 23q29 0 28 -41q0 -100 -123 -182l-4 6q115 84 115 170q-14 -8 -26 1q-11 9 -11 23zM263 -12q-52 0 -81 34q-28 34 -28 78t12 101l299 1288h-170v10h184l-301 -1298q-12 -51 -12 -96t27 -76t73 -31t80 39q35 39 66 125l10 -2q-33 -90 -70 -131t-89 -41z
" />
    <glyph glyph-name="Lcaron" unicode="&#x13d;" horiz-adv-x="985" 
d="M852 1333q0 14 10 15q10 0 10 -28t-28 -105t-70 -138l-4 2q82 126 82 254zM-16 0l2 10h204l306 1327h-224l2 11h447l-2 -11h-211l-305 -1327h600l61 266h13l-64 -276h-829z" />
    <glyph glyph-name="lcaron" unicode="&#x13e;" horiz-adv-x="489" 
d="M602 1485q0 14 10 14t11 -12q0 -43 -28 -120t-71 -138l-4 2q82 126 82 254zM263 -12q-52 0 -81 34q-28 34 -28 78t12 101l299 1288h-170v10h184l-301 -1298q-12 -51 -12 -96t27 -76t73 -31t80 39q35 39 66 125l10 -2q-33 -90 -70 -131t-89 -41z" />
    <glyph glyph-name="Ldot" unicode="&#x13f;" horiz-adv-x="985" 
d="M852 692q-25 0 -25 25t25 25t25 -26q0 -24 -25 -24zM-16 0l2 10h204l306 1327h-224l2 11h447l-2 -11h-211l-305 -1327h600l61 266h13l-64 -276h-829z" />
    <glyph glyph-name="ldot" unicode="&#x140;" horiz-adv-x="512" 
d="M263 -12q-52 0 -81 34q-28 34 -28 78t12 101l299 1288h-170v10h184l-301 -1298q-12 -51 -12 -96t27 -76t73 -31t80 39q35 39 66 125l10 -2q-33 -90 -70 -131t-89 -41zM551 707q-25 1 -25 25t25 24t24 -25q1 -24 -24 -24z" />
    <glyph glyph-name="Lslash" unicode="&#x141;" horiz-adv-x="1048" 
d="M-16 0l2 10h204l144 625l-230 -96l-2 10l236 100l158 688h-224l2 11h447l-2 -11h-211l-156 -682l359 152l2 -10l-365 -156l-145 -631h600l61 266h13l-64 -276h-829z" />
    <glyph glyph-name="lslash" unicode="&#x142;" horiz-adv-x="489" 
d="M263 -12q-52 0 -81 34q-28 34 -28 78t12 101l147 637l-239 -101l-2 11l245 104l148 637h-170v10h184l-149 -643l254 107l2 -11l-258 -108l-150 -643q-12 -51 -12 -96t27 -76t73 -31t80 39q35 39 66 125l10 -2q-33 -90 -70 -131t-89 -41z" />
    <glyph glyph-name="Nacute" unicode="&#x143;" horiz-adv-x="1464" 
d="M1165 1638q0 -8 -10 -12l-283 -153l-2 4l275 165q8 4 12 5q8 -1 8 -9zM1096 -12l-592 1343l-299 -1321h217l-2 -10h-434l2 10h205l301 1327h-220l2 11h232l592 -1342l305 1331h-229l2 11h446l-2 -11h-205l-309 -1349h-12z" />
    <glyph glyph-name="nacute" unicode="&#x144;" horiz-adv-x="1015" 
d="M827 1168q0 -8 -10 -13l-282 -154l-3 5l275 165q8 4 12 5q8 0 8 -8zM801 -12q-53 0 -82 34t-29 88t33 154l63 205q37 115 37 188q0 172 -180 172q-137 0 -260 -139t-174 -346l-86 -344h-12l204 817h-178l2 10h191l-88 -350q68 162 176 262q109 101 214 101
q202 1 204 -183q0 -74 -37 -188l-64 -205q-33 -100 -33 -152t27 -84q27 -30 72 -30q90 0 149 164l11 -2q-33 -90 -70 -131t-90 -41z" />
    <glyph glyph-name="Ncommaaccent" unicode="&#x145;" horiz-adv-x="1464" 
d="M600 -154q0 23 21 23q29 0 28 -41q0 -100 -123 -182l-4 6q115 84 115 170q-14 -8 -26 1q-11 9 -11 23zM1096 -12l-592 1343l-299 -1321h217l-2 -10h-434l2 10h205l301 1327h-220l2 11h232l592 -1342l305 1331h-229l2 11h446l-2 -11h-205l-309 -1349h-12z" />
    <glyph glyph-name="ncommaaccent" unicode="&#x146;" horiz-adv-x="1015" 
d="M369 -154q0 23 20 23q29 0 29 -41q0 -100 -123 -182l-4 6q115 84 115 170q-14 -8 -26 1q-11 9 -11 23zM801 -12q-53 0 -82 34t-29 88t33 154l63 205q37 115 37 188q0 172 -180 172q-137 0 -260 -139t-174 -346l-86 -344h-12l204 817h-178l2 10h191l-88 -350
q68 162 176 262q109 101 214 101q202 1 204 -183q0 -74 -37 -188l-64 -205q-33 -100 -33 -152t27 -84q27 -30 72 -30q90 0 149 164l11 -2q-33 -90 -70 -131t-90 -41z" />
    <glyph glyph-name="Ncaron" unicode="&#x147;" horiz-adv-x="1464" 
d="M942 1460l-188 193l4 4l186 -178l289 178l4 -4zM1096 -12l-592 1343l-299 -1321h217l-2 -10h-434l2 10h205l301 1327h-220l2 11h232l592 -1342l305 1331h-229l2 11h446l-2 -11h-205l-309 -1349h-12z" />
    <glyph glyph-name="ncaron" unicode="&#x148;" horiz-adv-x="1015" 
d="M604 989l-188 193l4 4l186 -178l289 178l4 -4zM801 -12q-53 0 -82 34t-29 88t33 154l63 205q37 115 37 188q0 172 -180 172q-137 0 -260 -139t-174 -346l-86 -344h-12l204 817h-178l2 10h191l-88 -350q68 162 176 262q109 101 214 101q202 1 204 -183q0 -74 -37 -188
l-64 -205q-33 -100 -33 -152t27 -84q27 -30 72 -30q90 0 149 164l11 -2q-33 -90 -70 -131t-90 -41z" />
    <glyph glyph-name="Omacron" unicode="&#x14c;" horiz-adv-x="1452" 
d="M731 1534l2 12h512l-2 -12h-512zM694 -8q201 0 368 122t256 307t89 403t-141 378q-141 158 -381 158q-201 0 -368 -122t-256 -307t-89 -403t141 -378q141 -158 381 -158zM694 -18q-246 0 -390 162t-144 403q0 201 90 388t260 311t375 124q246 0 390 -162t144 -403
q0 -201 -90 -388t-260 -311t-375 -124z" />
    <glyph glyph-name="omacron" unicode="&#x14d;" horiz-adv-x="946" 
d="M358 1063l2 12h512l-2 -12h-512zM428 -2q180 0 300 144t120 322t-93 271q-93 94 -237 94q-180 0 -300 -144q-120 -143 -120 -321t94 -272t236 -94zM428 -12q-147 0 -245 97q-97 97 -97 279t124 328q124 147 308 148q150 0 246 -98t96 -278q0 -182 -124 -329t-308 -147z
" />
    <glyph glyph-name="Obreve" unicode="&#x14e;" horiz-adv-x="1452" 
d="M965 1470q-87 0 -143 54t-74 145l6 2q18 -86 73 -137t139 -51t156 51q74 51 117 131l6 -2q-43 -85 -117 -139t-163 -54zM694 -8q201 0 368 122t256 307t89 403t-141 378q-141 158 -381 158q-201 0 -368 -122t-256 -307t-89 -403t141 -378q141 -158 381 -158zM694 -18
q-246 0 -390 162t-144 403q0 201 90 388t260 311t375 124q246 0 390 -162t144 -403q0 -201 -90 -388t-260 -311t-375 -124z" />
    <glyph glyph-name="obreve" unicode="&#x14f;" horiz-adv-x="946" 
d="M590 999q-88 1 -144 55t-73 144l6 2q17 -86 73 -137t139 -51t157 51t116 131l6 -2q-44 -84 -118 -138t-162 -55zM428 -2q180 0 300 144t120 322t-93 271q-93 94 -237 94q-180 0 -300 -144q-120 -143 -120 -321t94 -272t236 -94zM428 -12q-147 0 -245 97q-97 97 -97 279
t124 328q124 147 308 148q150 0 246 -98t96 -278q0 -182 -124 -329t-308 -147z" />
    <glyph glyph-name="Ohungarumlaut" unicode="&#x150;" horiz-adv-x="1452" 
d="M1350 1653q8 0 8 -7t-10 -14l-269 -164l-2 5l260 176q5 4 13 4zM1043 1653q7 0 8 -8q0 -6 -11 -13l-268 -164l-2 5l260 176q6 4 13 4zM694 -8q201 0 368 122t256 307t89 403t-141 378q-141 158 -381 158q-201 0 -368 -122t-256 -307t-89 -403t141 -378q141 -158 381 -158
zM694 -18q-246 0 -390 162t-144 403q0 201 90 388t260 311t375 124q246 0 390 -162t144 -403q0 -201 -90 -388t-260 -311t-375 -124z" />
    <glyph glyph-name="ohungarumlaut" unicode="&#x151;" horiz-adv-x="946" 
d="M976 1182q7 0 7 -7t-10 -14l-268 -164l-3 4l261 177q6 4 13 4zM668 1182q8 0 8 -7t-10 -14l-269 -164l-2 4l260 177q5 4 13 4zM428 -2q180 0 300 144t120 322t-93 271q-93 94 -237 94q-180 0 -300 -144q-120 -143 -120 -321t94 -272t236 -94zM428 -12q-147 0 -245 97
q-97 97 -97 279t124 328q124 147 308 148q150 0 246 -98t96 -278q0 -182 -124 -329t-308 -147z" />
    <glyph glyph-name="OE" unicode="&#x152;" horiz-adv-x="1871" 
d="M819 10h148l305 1327h-193q-449 0 -684 -239q-219 -219 -219 -545q0 -231 141 -373q170 -170 502 -170zM819 0q-338 0 -510 172q-145 145 -145 381q0 331 232 563t683 232h875l-64 -277h-12l61 266h-655l-147 -643h508l-3 -10h-507l-156 -674h653l62 266h12l-64 -276
h-823z" />
    <glyph glyph-name="oe" unicode="&#x153;" horiz-adv-x="1626" 
d="M1256 829q-133 0 -244 -105t-150 -267h651q10 47 11 100q0 127 -68 199t-200 73zM428 -2q180 0 300 144t120 322t-93 271q-93 94 -237 94q-180 0 -300 -144q-120 -143 -120 -321t94 -272t236 -94zM427 -12q-146 0 -244 97q-97 97 -97 279t124 328q124 147 308 148
q146 0 242 -94t100 -254q43 154 153 250t247 98q136 0 206 -76t70 -207q0 -53 -12 -111h-664q-10 -66 -10 -116q0 -156 88 -244t228 -88t268 72l-2 -13q-122 -69 -266 -69t-235 89t-93 247q-43 -144 -154 -240t-257 -96z" />
    <glyph glyph-name="Racute" unicode="&#x154;" horiz-adv-x="1150" 
d="M952 1638q0 -8 -10 -12l-283 -153l-2 4l275 165q8 4 12 5q8 -1 8 -9zM561 618q257 0 401 106t144 284q0 139 -76 215q-113 115 -368 114h-154l-164 -710q84 -9 217 -9zM500 608q-74 0 -158 8l-139 -606h217l-2 -10h-434l2 10h204l306 1327h-224l2 11h388q262 0 376 -117
q80 -79 80 -233t-122 -260t-341 -126l258 -602h166l-2 -10h-172l-262 610h-16l-40 -2h-87z" />
    <glyph glyph-name="racute" unicode="&#x155;" horiz-adv-x="575" 
d="M375 1001l-2 5l274 165q8 4 12 5q9 0 9 -8t-11 -13zM537 840q31 0 50 -14t19 -36q0 -20 -20 -20q-25 0 -25 25q0 18 12 26q-16 8 -36 8q-89 0 -175 -131t-145 -368l-82 -330h-12l203 817h-179l3 10h190l-82 -329q57 164 130 253t149 89z" />
    <glyph glyph-name="Rcommaaccent" unicode="&#x156;" horiz-adv-x="1150" 
d="M471 -154q0 23 21 23q29 0 28 -41q0 -100 -123 -182l-4 6q115 84 115 170q-14 -8 -26 1q-11 9 -11 23zM561 618q257 0 401 106t144 284q0 139 -76 215q-113 115 -368 114h-154l-164 -710q84 -9 217 -9zM500 608q-74 0 -158 8l-139 -606h217l-2 -10h-434l2 10h204
l306 1327h-224l2 11h388q262 0 376 -117q80 -79 80 -233t-122 -260t-341 -126l258 -602h166l-2 -10h-172l-262 610h-16l-40 -2h-87z" />
    <glyph glyph-name="rcommaaccent" unicode="&#x157;" horiz-adv-x="557" 
d="M72 -154q0 23 20 23q29 0 29 -41q0 -100 -123 -182l-4 6q115 84 115 170q-14 -8 -26 1q-11 9 -11 23zM524 840q31 0 50 -14q20 -14 20 -36q0 -20 -23 -20t-22 25q0 18 12 26q-16 8 -37 8q-90 0 -175 -131t-144 -368l-82 -330h-12l202 817h-178l2 10h191l-82 -329
q57 164 130 253t148 89z" />
    <glyph glyph-name="Rcaron" unicode="&#x158;" horiz-adv-x="1150" 
d="M729 1460l-188 193l4 4l186 -178l289 178l4 -4zM561 618q257 0 401 106t144 284q0 139 -76 215q-113 115 -368 114h-154l-164 -710q84 -9 217 -9zM500 608q-74 0 -158 8l-139 -606h217l-2 -10h-434l2 10h204l306 1327h-224l2 11h388q262 0 376 -117q80 -79 80 -233
t-122 -260t-341 -126l258 -602h166l-2 -10h-172l-262 610h-16l-40 -2h-87z" />
    <glyph glyph-name="rcaron" unicode="&#x159;" horiz-adv-x="575" 
d="M444 989l-188 193l4 4l186 -178l289 178l4 -4zM537 840q31 0 50 -14t19 -36q0 -20 -20 -20q-25 0 -25 25q0 18 12 26q-16 8 -36 8q-89 0 -175 -131t-145 -368l-82 -330h-12l203 817h-179l3 10h190l-82 -329q57 164 130 253t149 89z" />
    <glyph glyph-name="Sacute" unicode="&#x15a;" horiz-adv-x="980" 
d="M930 1638q0 -8 -10 -12l-283 -153l-2 4l274 165q8 4 13 5q8 -1 8 -9zM450 -18q-172 0 -276 80t-104 178q0 35 24 34q18 0 19 -22q0 -31 -31 -25q8 -91 108 -163t263 -72t270 94q106 94 106 233q0 107 -59 185q-60 78 -198 182t-198 186t-61 185q1 139 107 226t261 87
t240 -72t85 -163q0 -35 -25 -35q-18 0 -18 22q0 31 30 25q-6 86 -87 149q-82 64 -228 64t-249 -84t-103 -219q0 -98 59 -179t197 -187q138 -105 199 -183t61 -205t-110 -224t-282 -97z" />
    <glyph glyph-name="sacute" unicode="&#x15b;" horiz-adv-x="753" 
d="M719 1168q0 -8 -10 -13l-283 -154l-2 5l274 165q8 4 13 5q8 0 8 -8zM358 -12q-104 0 -171 32t-99 79q-32 46 -33 81t21 35t22 -25q0 -31 -28 -26q20 -82 124 -133q65 -33 163 -33q99 0 169 57t70 139t-52 129q-52 48 -156 98t-158 99t-54 128t73 135t175 57
q158 0 233 -88q31 -37 31 -69t-21 -32t-22 25q0 27 29 26q-8 23 -25 43q-70 84 -225 84q-98 0 -167 -53t-69 -127t50 -120t154 -97q106 -51 161 -100t55 -137t-73 -148q-73 -59 -177 -59z" />
    <glyph glyph-name="Scedilla" unicode="&#x15e;" horiz-adv-x="980" 
d="M442 -18h-12l-53 -132q80 -2 120 -36t40 -90q0 -54 -45 -94t-134 -40t-192 58l4 10q100 -57 186 -57q86 -1 126 35q42 36 42 88t-39 84t-123 32l-2 4l58 138q-154 8 -251 87t-97 171q0 35 24 34q18 0 19 -22q0 -31 -31 -25q8 -91 108 -163t263 -72t270 94q106 94 106 233
q0 107 -59 185q-60 78 -198 182t-198 186t-61 185q1 139 107 226t261 87t240 -72t85 -163q0 -35 -25 -35q-18 0 -18 22q0 31 30 25q-6 86 -87 149q-82 64 -228 64t-249 -84t-103 -219q0 -98 59 -179t197 -187q138 -105 199 -183t61 -205t-110 -224t-290 -97z" />
    <glyph glyph-name="scedilla" unicode="&#x15f;" horiz-adv-x="753" 
d="M428 -276q0 -54 -45 -94t-134 -40t-192 58l4 10q99 -57 185 -57q86 -1 128 35t42 88t-39 84t-123 32l-2 4l61 146q-158 14 -225 112q-33 45 -33 80q-1 35 21 35t22 -24q0 -31 -28 -27q19 -80 124 -133q65 -33 163 -33q99 0 169 56t70 138t-52 129q-52 48 -156 98t-158 99
t-54 128t73 135t175 57q158 0 233 -88q31 -37 31 -69t-21 -32t-22 25q0 27 29 26q-8 23 -25 43q-70 84 -225 84q-98 0 -167 -53t-69 -127t50 -120t154 -97q106 -51 161 -100t55 -137t-73 -147q-74 -58 -193 -58h-18l-56 -140q80 -2 120 -36t40 -90z" />
    <glyph glyph-name="Scaron" unicode="&#x160;" horiz-adv-x="980" 
d="M709 1460l-189 193l4 4l187 -178l288 178l5 -4zM450 -18q-172 0 -276 80t-104 178q0 35 24 34q18 0 19 -22q0 -31 -31 -25q8 -91 108 -163t263 -72t270 94q106 94 106 233q0 107 -59 185q-60 78 -198 182t-198 186t-61 185q1 139 107 226t261 87t240 -72t85 -163
q0 -35 -25 -35q-18 0 -18 22q0 31 30 25q-6 86 -87 149q-82 64 -228 64t-249 -84t-103 -219q0 -98 59 -179t197 -187q138 -105 199 -183t61 -205t-110 -224t-282 -97z" />
    <glyph glyph-name="scaron" unicode="&#x161;" horiz-adv-x="753" 
d="M496 989l-189 193l4 4l187 -178l288 178l5 -4zM358 -12q-104 0 -171 32t-99 79q-32 46 -33 81t21 35t22 -25q0 -31 -28 -26q20 -82 124 -133q65 -33 163 -33q99 0 169 57t70 139t-52 129q-52 48 -156 98t-158 99t-54 128t73 135t175 57q158 0 233 -88q31 -37 31 -69
t-21 -32t-22 25q0 27 29 26q-8 23 -25 43q-70 84 -225 84q-98 0 -167 -53t-69 -127t50 -120t154 -97q106 -51 161 -100t55 -137t-73 -148q-73 -59 -177 -59z" />
    <glyph glyph-name="Tcommaaccent" unicode="&#x162;" horiz-adv-x="1136" 
d="M420 -154q0 23 20 23q29 0 29 -41q0 -100 -123 -182l-4 6q115 84 115 170q-14 -8 -26 1q-11 9 -11 23zM274 0l2 10h193l305 1327h-485l-64 -278h-12l66 289h1007l-65 -289h-13l64 278h-486l-305 -1327h213l-2 -10h-418z" />
    <glyph glyph-name="tcommaaccent" unicode="&#x163;" horiz-adv-x="546" 
d="M178 -154q0 23 21 23q29 0 28 -41q0 -100 -123 -182l-4 6q115 84 115 170q-14 -8 -26 1q-11 9 -11 23zM244 -2q82 0 188 100l6 -8q-109 -102 -194 -102q-125 0 -125 133q0 41 18 110l146 586h-168l2 10h168l59 236l12 2l-59 -238h274l-2 -10h-274l-145 -586
q-18 -69 -18 -119t29 -82q30 -32 83 -32z" />
    <glyph glyph-name="Tcaron" unicode="&#x164;" horiz-adv-x="1136" 
d="M778 1460l-188 193l4 4l186 -178l289 178l4 -4zM274 0l2 10h193l305 1327h-485l-64 -278h-12l66 289h1007l-65 -289h-13l64 278h-486l-305 -1327h213l-2 -10h-418z" />
    <glyph glyph-name="tcaron" unicode="&#x165;" horiz-adv-x="546" 
d="M530 1235q0 14 10 14t11 -12q1 -43 -27 -120t-71 -138l-4 2q81 124 81 254zM244 -2q82 0 188 100l6 -8q-109 -102 -194 -102q-125 0 -125 133q0 41 18 110l146 586h-168l2 10h168l59 236l12 2l-59 -238h274l-2 -10h-274l-145 -586q-18 -69 -18 -119t29 -82q30 -32 83 -32
z" />
    <glyph glyph-name="Umacron" unicode="&#x16a;" horiz-adv-x="1359" 
d="M672 1534l2 12h512l-2 -12h-512zM625 -18q-164 0 -268 89q-103 89 -103 269q0 72 33 215l180 782h-223l2 11h446l-2 -11h-211l-180 -782q-33 -143 -33 -215q0 -176 100 -262t261 -86q199 0 313 124t174 396l191 825h-230l2 11h447l-2 -11h-205l-191 -825
q-66 -282 -182 -406t-319 -124z" />
    <glyph glyph-name="umacron" unicode="&#x16b;" horiz-adv-x="1030" 
d="M379 1063l2 12h512l-2 -12h-512zM178 166q0 -72 45 -120t125 -48q137 0 259 139t173 346l86 344h13l-156 -626q-12 -51 -12 -96q1 -45 25 -76t71 -31t82 39t67 125l11 -2q-37 -94 -73 -133t-88 -39t-80 34t-28 80t13 99l39 153q-68 -166 -177 -266t-227 -100
q-86 0 -133 51t-47 125t37 223l106 430h-178l2 10h191l-109 -440q-37 -149 -37 -221z" />
    <glyph glyph-name="Ubreve" unicode="&#x16c;" horiz-adv-x="1359" 
d="M903 1470q-88 0 -143 54t-74 145l6 2q18 -86 74 -137t138 -51q83 0 157 51t117 131l6 -2q-43 -85 -118 -139t-163 -54zM625 -18q-164 0 -268 89q-103 89 -103 269q0 72 33 215l180 782h-223l2 11h446l-2 -11h-211l-180 -782q-33 -143 -33 -215q0 -176 100 -262t261 -86
q199 0 313 124t174 396l191 825h-230l2 11h447l-2 -11h-205l-191 -825q-66 -282 -182 -406t-319 -124z" />
    <glyph glyph-name="ubreve" unicode="&#x16d;" horiz-adv-x="1030" 
d="M612 999q-88 1 -143 55t-74 144l6 2q17 -86 73 -137t139 -51t157 51t117 131l6 -2q-43 -84 -118 -138t-163 -55zM178 166q0 -72 45 -120t125 -48q137 0 259 139t173 346l86 344h13l-156 -626q-12 -51 -12 -96q1 -45 25 -76t71 -31t82 39t67 125l11 -2q-37 -94 -73 -133
t-88 -39t-80 34t-28 80t13 99l39 153q-68 -166 -177 -266t-227 -100q-86 0 -133 51t-47 125t37 223l106 430h-178l2 10h191l-109 -440q-37 -149 -37 -221z" />
    <glyph glyph-name="Uring" unicode="&#x16e;" horiz-adv-x="1359" 
d="M1065 1640q0 52 -28 84q-27 32 -79 31q-52 0 -92 -48q-40 -49 -39 -101q0 -52 28 -84t79 -31q51 0 91 48q40 49 40 101zM933 1481q-56 -1 -87 33t-31 92t42 109q43 50 101 50q58 1 89 -33t31 -92t-45 -108q-44 -51 -100 -51zM625 -18q-164 0 -268 89q-103 89 -103 269
q0 72 33 215l180 782h-223l2 11h446l-2 -11h-211l-180 -782q-33 -143 -33 -215q0 -176 100 -262t261 -86q199 0 313 124t174 396l191 825h-230l2 11h447l-2 -11h-205l-191 -825q-66 -282 -182 -406t-319 -124z" />
    <glyph glyph-name="uring" unicode="&#x16f;" horiz-adv-x="1030" 
d="M774 1168q0 52 -28 84t-80 32t-90 -48q-40 -48 -40 -100t28 -84t79 -32t91 48t40 100zM642 1010q-56 0 -87 34t-31 92t42 108t100 50t90 -34q30 -34 30 -90q0 -58 -44 -109t-100 -51zM178 166q0 -72 45 -120t125 -48q137 0 259 139t173 346l86 344h13l-156 -626
q-12 -51 -12 -96q1 -45 25 -76t71 -31t82 39t67 125l11 -2q-37 -94 -73 -133t-88 -39t-80 34t-28 80t13 99l39 153q-68 -166 -177 -266t-227 -100q-86 0 -133 51t-47 125t37 223l106 430h-178l2 10h191l-109 -440q-37 -149 -37 -221z" />
    <glyph glyph-name="Uhungarumlaut" unicode="&#x170;" horiz-adv-x="1359" 
d="M1289 1653q7 0 7 -7t-10 -14l-268 -164l-2 5l260 176q6 4 13 4zM982 1653q7 0 7 -7t-10 -14l-268 -164l-2 5l260 176q6 4 13 4zM625 -18q-164 0 -268 89q-103 89 -103 269q0 72 33 215l180 782h-223l2 11h446l-2 -11h-211l-180 -782q-33 -143 -33 -215q0 -176 100 -262
t261 -86q199 0 313 124t174 396l191 825h-230l2 11h447l-2 -11h-205l-191 -825q-66 -282 -182 -406t-319 -124z" />
    <glyph glyph-name="uhungarumlaut" unicode="&#x171;" horiz-adv-x="1030" 
d="M998 1182q7 0 8 -8q0 -6 -11 -13l-268 -164l-2 4l260 177q6 4 13 4zM691 1182q7 0 7 -7t-10 -14l-268 -164l-2 4l260 177q6 4 13 4zM178 166q0 -72 45 -120t125 -48q137 0 259 139t173 346l86 344h13l-156 -626q-12 -51 -12 -96q1 -45 25 -76t71 -31t82 39t67 125l11 -2
q-37 -94 -73 -133t-88 -39t-80 34t-28 80t13 99l39 153q-68 -166 -177 -266t-227 -100q-86 0 -133 51t-47 125t37 223l106 430h-178l2 10h191l-109 -440q-37 -149 -37 -221z" />
    <glyph glyph-name="Uogonek" unicode="&#x172;" horiz-adv-x="1359" 
d="M625 -18q-164 0 -268 89q-103 89 -103 269q0 72 33 215l180 782h-223l2 11h446l-2 -11h-211l-180 -782q-33 -143 -33 -215q0 -176 100 -262t261 -86q199 0 313 124t174 396l191 825h-230l2 11h447l-2 -11h-205l-191 -825q-63 -270 -173 -396t-298 -134
q-172 -139 -172 -263q0 -55 34 -88t87 -33t101 21l-3 -10q-47 -21 -102 -21t-92 35t-37 96q0 127 168 263h-14z" />
    <glyph glyph-name="uogonek" unicode="&#x173;" horiz-adv-x="1030" 
d="M647 -281q0 96 103 191q24 23 32 30q8 6 37 30t33 28q-26 -10 -62 -10t-64 34t-28 80t13 99l39 153q-68 -164 -177 -265t-227 -101q-86 0 -133 51t-47 125t37 223l106 430h-178l2 10h191l-109 -440q-37 -149 -37 -221t45 -120t125 -48q137 0 259 139t173 346l86 344h13
l-156 -626q-12 -51 -12 -96q1 -45 25 -76t70 -31t81 39q34 39 69 125l11 -2q-45 -113 -109 -168q-67 -50 -110 -97q-44 -47 -66 -83t-22 -92q-1 -56 33 -89t87 -33t101 21l-2 -10q-47 -21 -103 -21t-92 35q-37 35 -37 96z" />
    <glyph glyph-name="Wcircumflex" unicode="&#x174;" horiz-adv-x="1900" 
d="M1096 1460l-4 4l294 193l189 -193l-4 -4l-187 178zM475 -37l-72 1374h-157l2 11h370l-2 -11h-200l69 -1347l602 1155h9l104 -1155l698 1347h-200l2 11h371l-3 -11h-155l-715 -1374h-8l-105 1151l-602 -1151h-8z" />
    <glyph glyph-name="wcircumflex" unicode="&#x175;" horiz-adv-x="1263" 
d="M496 989l-4 4l294 193l189 -193l-4 -4l-187 178zM1171 762q0 18 -4 31q-8 -4 -14 -5q-27 0 -27 25t21 25q37 0 37 -76q0 -128 -104 -362t-246 -435h-9l-147 723l-391 -723h-6l-54 852h-164l3 10h174l51 -831l387 715h6l150 -727q137 199 237 427t100 351z" />
    <glyph glyph-name="Ycircumflex" unicode="&#x176;" horiz-adv-x="1259" 
d="M621 1460l-5 4l295 193l189 -193l-4 -4l-187 178zM317 0l2 10h205l131 565l-284 762h-135l2 11h360l-2 -11h-213l281 -751l639 751h-213l2 11h360l-2 -11h-133l-649 -764l-131 -563h217l-2 -10h-435z" />
    <glyph glyph-name="ycircumflex" unicode="&#x177;" horiz-adv-x="866" 
d="M301 989l-4 4l295 193l188 -193l-4 -4l-186 178zM-76 -399q-62 0 -61 34q0 20 22 21q27 0 27 -27q0 -10 -6 -16q4 -2 14 -2q61 0 181 89t270 273l-166 844h-160l2 10h168l164 -843q174 215 296 446t122 342q0 10 -4 23q-8 -4 -15 -4q-27 0 -26 26q0 23 20 23q37 0 37 -68
q0 -112 -127 -350q-126 -238 -288 -438t-285 -292q-123 -91 -185 -91z" />
    <glyph glyph-name="Ydieresis" unicode="&#x178;" horiz-adv-x="1259" 
d="M780 1513q-25 0 -24 25q0 25 24 25t25 -25q0 -25 -25 -25zM985 1513q-25 0 -24 25t25 25t24 -25t-25 -25zM317 0l2 10h205l131 565l-284 762h-135l2 11h360l-2 -11h-213l281 -751l639 751h-213l2 11h360l-2 -11h-133l-649 -764l-131 -563h217l-2 -10h-435z" />
    <glyph glyph-name="Zacute" unicode="&#x179;" horiz-adv-x="1153" 
d="M997 1638q0 -8 -10 -12l-282 -153l-3 4l275 165q8 4 12 5q8 -1 8 -9zM-10 0v8l1251 1329h-889l-61 -266h-12l63 277h915v-9l-1249 -1329h936l62 266h12l-64 -276h-964z" />
    <glyph glyph-name="zacute" unicode="&#x17a;" horiz-adv-x="794" 
d="M715 1168q0 -8 -10 -13l-283 -154l-2 5l274 165q8 4 13 5q8 0 8 -8zM164 37q84 0 184 -22t137 -21q78 0 125 53t78 164l10 -2q-31 -113 -80 -169t-133 -56q-37 0 -137 22t-189 21q-89 0 -167 -41l-6 8l788 823h-575l-43 -180h-13l45 190h600l3 -8l-779 -813q68 31 152 31
z" />
    <glyph glyph-name="Zdotaccent" unicode="&#x17b;" horiz-adv-x="1153" 
d="M834 1565q-25 1 -25 25t25 24t24 -25q1 -24 -24 -24zM-10 0v8l1251 1329h-889l-61 -266h-12l63 277h915v-9l-1249 -1329h936l62 266h12l-64 -276h-964z" />
    <glyph glyph-name="zdotaccent" unicode="&#x17c;" horiz-adv-x="794" 
d="M551 1094q-25 0 -25 24t25 25q25 0 24 -25q1 -24 -24 -24zM164 37q84 0 184 -22t137 -21q78 0 125 53t78 164l10 -2q-31 -113 -80 -169t-133 -56q-37 0 -137 22t-189 21q-89 0 -167 -41l-6 8l788 823h-575l-43 -180h-13l45 190h600l3 -8l-779 -813q68 31 152 31z" />
    <glyph glyph-name="Zcaron" unicode="&#x17d;" horiz-adv-x="1153" 
d="M774 1460l-188 193l4 4l186 -178l289 178l4 -4zM-10 0v8l1251 1329h-889l-61 -266h-12l63 277h915v-9l-1249 -1329h936l62 266h12l-64 -276h-964z" />
    <glyph glyph-name="zcaron" unicode="&#x17e;" horiz-adv-x="794" 
d="M492 989l-189 193l4 4l187 -178l288 178l4 -4zM164 37q84 0 184 -22t137 -21q78 0 125 53t78 164l10 -2q-31 -113 -80 -169t-133 -56q-37 0 -137 22t-189 21q-89 0 -167 -41l-6 8l788 823h-575l-43 -180h-13l45 190h600l3 -8l-779 -813q68 31 152 31z" />
    <glyph glyph-name="Aringacute" unicode="&#x1fa;" horiz-adv-x="1388" 
d="M426 539h596l-113 800zM815 1466q-1 -52 27 -86q28 -32 79 -32t92 47q40 47 40 100t-28 85t-80 32t-91 -47t-39 -99zM945 1622q58 0 89 -35t31 -86t-30 -95t-74 -58h157l-2 -11h-194l188 -1327h141l-2 -10h-344l2 10h191l-74 518h-604l-314 -518h211l-2 -10h-344l2 10
h119l803 1327h-199l2 11h174q-70 26 -70 100t43 124q42 50 100 50zM1241 1917q6 0 6 -8t-10 -13l-283 -153l-2 4l275 166q8 4 14 4z" />
    <glyph glyph-name="aringacute" unicode="&#x1fb;" horiz-adv-x="1032" 
d="M958 1589q6 0 6 -8t-10 -12l-282 -154l-2 4l274 166q8 4 14 4zM770 1168q0 52 -28 84t-80 32t-90 -48q-40 -48 -40 -100t28 -84t79 -32t91 48t40 100zM638 1010q-56 0 -87 34t-31 92t42 108t100 50t90 -34q30 -34 30 -90q0 -58 -44 -109t-100 -51zM367 -2q176 0 298 167
t121 355q0 137 -78 223q-79 86 -200 86q-174 -1 -292 -159t-118 -361q0 -147 74 -229t195 -82zM363 -12q-125 0 -201 85t-76 236q0 207 121 369t301 162q129 0 209 -89t80 -231q0 -20 -2 -28l84 335h12l-156 -626q-12 -51 -12 -96t25 -76q26 -31 72 -31t81 39t68 125l10 -2
q-37 -94 -73 -133t-88 -39t-80 34t-28 78t13 101l18 73q-55 -126 -154 -206t-224 -80z" />
    <glyph glyph-name="AEacute" unicode="&#x1fc;" horiz-adv-x="1652" 
d="M1407 1638q0 -8 -10 -12l-283 -153l-2 4l274 165q8 4 13 5q8 -1 8 -9zM424 547h446l183 790h-9zM-133 0l2 10h119l1042 1327h-203l2 11h906l-64 -277h-12l61 266h-655l-147 -643h507l-2 -10h-508l-155 -674h653l62 266h12l-64 -276h-882l2 10h205l120 527h-452l-414 -527
h211l-2 -10h-344z" />
    <glyph glyph-name="aeacute" unicode="&#x1fd;" horiz-adv-x="1488" 
d="M756 1001l-2 5l274 165q8 4 12 5q8 0 8 -8t-10 -13zM1386 557q0 127 -67 199t-200 73q-133 0 -245 -105t-149 -267h651q10 47 10 100zM287 -4q153 0 285 129t135 321h-267q-180 0 -280 -66t-101 -183q-1 -89 57 -145t171 -56zM713 330q0 -156 88 -244t228 -88t267 72
l-2 -13q-123 -69 -266 -69t-234 89t-94 242q-44 -147 -164 -240t-244 -93t-184 59t-61 152q1 123 105 191t288 69h267q-2 160 -74 266t-225 106q-96 0 -156 -47q-29 -23 -35 -49q29 -6 29 -31q0 -20 -23 -20t-23 38t53 79q52 41 155 41q156 0 230 -102t81 -261
q39 158 151 260q114 103 252 103t208 -76t69 -207q-1 -54 -13 -111h-663q-10 -66 -10 -116z" />
    <glyph glyph-name="Oslashacute" unicode="&#x1fe;" horiz-adv-x="1452" 
d="M1143 1638q0 -8 -10 -12l-283 -153l-2 4l274 165q8 4 13 5q8 -1 8 -9zM172 558q0 -188 78 -320l1059 907q-145 215 -424 215q-201 0 -368 -122t-256 -307t-89 -373zM694 -8q201 0 368 122t256 307t89 377t-92 337l-1061 -906q66 -111 180 -174t260 -63zM694 -18
q-299 0 -448 239l-273 -233l-6 8l275 233q-82 139 -82 329t90 377t260 311t375 124q287 0 434 -217l250 213l6 -8l-250 -215q94 -145 94 -342t-90 -384t-260 -311t-375 -124z" />
    <glyph glyph-name="oslashacute" unicode="&#x1ff;" horiz-adv-x="946" 
d="M799 1168q0 -8 -11 -13l-282 -154l-2 5l274 165q8 4 13 5q8 0 8 -8zM98 350q0 -123 54 -207l634 551q-92 135 -270 135q-178 -1 -298 -145t-120 -334zM430 -2q178 0 298 144t120 335q0 121 -55 209l-635 -553q94 -135 272 -135zM428 -12q-184 0 -278 139l-160 -139l-6 8
l159 139q-57 90 -57 215q0 195 124 342q124 148 306 148t279 -138l168 146l6 -8l-168 -146q59 -92 59 -217q0 -195 -124 -342t-308 -147z" />
    <glyph glyph-name="Scommaaccent" unicode="&#x218;" horiz-adv-x="980" 
d="M350 -154q0 23 21 23q29 0 28 -41q0 -100 -123 -182l-4 6q115 84 115 170q-14 -8 -26 1q-11 9 -11 23zM450 -18q-172 0 -276 80t-104 178q0 35 24 34q18 0 19 -22q0 -31 -31 -25q8 -91 108 -163t263 -72t270 94q106 94 106 233q0 107 -59 185q-60 78 -198 182t-198 186
t-61 185q1 139 107 226t261 87t240 -72t85 -163q0 -35 -25 -35q-18 0 -18 22q0 31 30 25q-6 86 -87 149q-82 64 -228 64t-249 -84t-103 -219q0 -98 59 -179t197 -187q138 -105 199 -183t61 -205t-110 -224t-282 -97z" />
    <glyph glyph-name="scommaaccent" unicode="&#x219;" horiz-adv-x="753" 
d="M248 -154q0 23 20 23q29 0 29 -41q0 -100 -123 -182l-4 6q115 84 115 170q-14 -8 -26 1q-11 9 -11 23zM358 -12q-104 0 -171 32t-99 79q-32 46 -33 81t21 35t22 -25q0 -31 -28 -26q20 -82 124 -133q65 -33 163 -33q99 0 169 57t70 139t-52 129q-52 48 -156 98t-158 99
t-54 128t73 135t175 57q158 0 233 -88q31 -37 31 -69t-21 -32t-22 25q0 27 29 26q-8 23 -25 43q-70 84 -225 84q-98 0 -167 -53t-69 -127t50 -120t154 -97q106 -51 161 -100t55 -137t-73 -148q-73 -59 -177 -59z" />
    <glyph glyph-name="schwa" unicode="&#x259;" horiz-adv-x="851" 
d="M92 291q0 -273 256 -273q136 0 246 106t145 267h-637q-10 -47 -10 -100zM80 291q0 53 12 110h649q12 55 13 117q0 156 -88 244t-222 88t-260 -72l2 13q123 69 260 69q136 0 228 -91t92 -251q0 -210 -124 -360t-308 -150q-125 0 -190 75q-64 75 -64 208z" />
    <glyph glyph-name="circumflex" unicode="&#x2c6;" horiz-adv-x="1024" 
d="M408 989l-5 4l295 193l189 -193l-4 -4l-187 178z" />
    <glyph glyph-name="caron" unicode="&#x2c7;" horiz-adv-x="1024" 
d="M635 989l-189 193l5 4l186 -178l289 178l4 -4z" />
    <glyph glyph-name="breve" unicode="&#x2d8;" horiz-adv-x="1024" 
d="M647 999q-88 1 -143 55t-74 144l6 2q18 -86 74 -137t138 -51q83 0 157 51t117 131l6 -2q-43 -84 -118 -138t-163 -55z" />
    <glyph glyph-name="dotaccent" unicode="&#x2d9;" horiz-adv-x="1024" 
d="M672 1094q-25 0 -25 24t25 25q25 0 24 -25q1 -24 -24 -24z" />
    <glyph glyph-name="ring" unicode="&#x2da;" horiz-adv-x="1024" 
d="M807 1168q0 52 -28 84q-27 32 -79 32t-92 -48t-39 -100q0 -52 28 -84t79 -32t91 48t40 100zM675 1010q-56 0 -87 34t-31 92t42 108q43 50 101 50t88 -34t31 -90q0 -58 -44 -109t-100 -51z" />
    <glyph glyph-name="ogonek" unicode="&#x2db;" horiz-adv-x="1024" 
d="M303 -281q0 -55 34 -88t87 -33t100 21l-2 -10q-47 -21 -102 -21t-92 35t-37 96q-1 135 196 285l15 -2q-199 -152 -199 -283z" />
    <glyph glyph-name="tilde" unicode="&#x2dc;" horiz-adv-x="1024" 
d="M803 1030q-57 0 -149 62t-140 63q-80 0 -133 -123l-8 4q57 129 143 129q54 0 146 -62t143 -63q86 0 143 127l8 -4q-59 -133 -153 -133z" />
    <glyph glyph-name="hungarumlaut" unicode="&#x2dd;" horiz-adv-x="1024" 
d="M880 1182q8 0 7 -7q0 -7 -10 -14l-269 -164l-2 4l260 177q6 4 14 4zM572 1182q7 0 8 -8q0 -6 -11 -13l-268 -164l-2 4l260 177q6 4 13 4z" />
    <glyph glyph-name="commaaccent" unicode="&#x326;" horiz-adv-x="395" 
d="M174 -154q0 23 21 23q29 0 28 -41q0 -100 -123 -182l-4 6q115 84 115 170q-14 -8 -26 1q-11 9 -11 23z" />
    <glyph glyph-name="Wgrave" unicode="&#x1e80;" horiz-adv-x="1900" 
d="M1178 1667q6 0 12 -4l252 -184l-2 -4l-258 172q-10 6 -10 13t6 7zM475 -37l-72 1374h-157l2 11h370l-2 -11h-200l69 -1347l602 1155h9l104 -1155l698 1347h-200l2 11h371l-3 -11h-155l-715 -1374h-8l-105 1151l-602 -1151h-8z" />
    <glyph glyph-name="wgrave" unicode="&#x1e81;" horiz-adv-x="1263" 
d="M578 1196q6 0 12 -4l252 -184l-2 -4l-258 172q-10 6 -10 13t6 7zM1171 762q0 18 -4 31q-8 -4 -14 -5q-27 0 -27 25t21 25q37 0 37 -76q0 -128 -104 -362t-246 -435h-9l-147 723l-391 -723h-6l-54 852h-164l3 10h174l51 -831l387 715h6l150 -727q137 199 237 427t100 351z
" />
    <glyph glyph-name="Wacute" unicode="&#x1e82;" horiz-adv-x="1900" 
d="M1536 1638q0 -8 -10 -12l-283 -153l-2 4l275 165q8 4 12 5q8 -1 8 -9zM475 -37l-72 1374h-157l2 11h370l-2 -11h-200l69 -1347l602 1155h9l104 -1155l698 1347h-200l2 11h371l-3 -11h-155l-715 -1374h-8l-105 1151l-602 -1151h-8z" />
    <glyph glyph-name="wacute" unicode="&#x1e83;" horiz-adv-x="1263" 
d="M934 1168q0 -8 -10 -13l-283 -154l-2 5l274 165q8 4 13 5q8 0 8 -8zM1171 762q0 18 -4 31q-8 -4 -14 -5q-27 0 -27 25t21 25q37 0 37 -76q0 -128 -104 -362t-246 -435h-9l-147 723l-391 -723h-6l-54 852h-164l3 10h174l51 -831l387 715h6l150 -727q137 199 237 427
t100 351z" />
    <glyph glyph-name="Wdieresis" unicode="&#x1e84;" horiz-adv-x="1900" 
d="M1255 1513q-25 0 -24 25t25 25t24 -25t-25 -25zM1460 1513q-25 0 -24 25q0 25 24 25t25 -25q0 -25 -25 -25zM475 -37l-72 1374h-157l2 11h370l-2 -11h-200l69 -1347l602 1155h9l104 -1155l698 1347h-200l2 11h371l-3 -11h-155l-715 -1374h-8l-105 1151l-602 -1151h-8z
" />
    <glyph glyph-name="wdieresis" unicode="&#x1e85;" horiz-adv-x="1263" 
d="M655 1042q-25 0 -24 25t25 25t24 -25t-25 -25zM860 1042q-25 0 -24 25q0 25 24 25t25 -25q0 -25 -25 -25zM1171 762q0 18 -4 31q-8 -4 -14 -5q-27 0 -27 25t21 25q37 0 37 -76q0 -128 -104 -362t-246 -435h-9l-147 723l-391 -723h-6l-54 852h-164l3 10h174l51 -831
l387 715h6l150 -727q137 199 237 427t100 351z" />
    <glyph glyph-name="Ygrave" unicode="&#x1ef2;" horiz-adv-x="1259" 
d="M702 1667q6 0 13 -4l252 -184l-2 -4l-258 172q-11 6 -11 13t6 7zM317 0l2 10h205l131 565l-284 762h-135l2 11h360l-2 -11h-213l281 -751l639 751h-213l2 11h360l-2 -11h-133l-649 -764l-131 -563h217l-2 -10h-435z" />
    <glyph glyph-name="ygrave" unicode="&#x1ef3;" horiz-adv-x="866" 
d="M375 1189q0 7 6 7t12 -4l252 -184l-2 -4l-258 172q-10 6 -10 13zM-76 -399q-62 0 -61 34q0 20 22 21q27 0 27 -27q0 -10 -6 -16q4 -2 14 -2q61 0 181 89t270 273l-166 844h-160l2 10h168l164 -843q174 215 296 446t122 342q0 10 -4 23q-8 -4 -15 -4q-27 0 -26 26
q0 23 20 23q37 0 37 -68q0 -112 -127 -350q-126 -238 -288 -438t-285 -292q-123 -91 -185 -91z" />
    <glyph glyph-name="enspace" unicode="&#x2002;" horiz-adv-x="1024" 
 />
    <glyph glyph-name="emspace" unicode="&#x2003;" horiz-adv-x="2048" 
 />
    <glyph glyph-name="threeperemspace" unicode="&#x2004;" horiz-adv-x="681" 
 />
    <glyph glyph-name="fourperemspace" unicode="&#x2005;" horiz-adv-x="512" 
 />
    <glyph glyph-name="figurespace" unicode="&#x2007;" horiz-adv-x="1085" 
 />
    <glyph glyph-name="thinspace" unicode="&#x2009;" horiz-adv-x="272" 
 />
    <glyph glyph-name="hairspace" unicode="&#x200a;" horiz-adv-x="153" 
 />
    <glyph glyph-name="endash" unicode="&#x2013;" horiz-adv-x="778" 
d="M70 541l2 12h680l-2 -12h-680z" />
    <glyph glyph-name="emdash" unicode="&#x2014;" horiz-adv-x="1280" 
d="M70 541l2 12h1181l-2 -12h-1181z" />
    <glyph glyph-name="quoteleft" unicode="&#x2018;" horiz-adv-x="227" 
d="M233 1149q-29 0 -28 41q0 100 123 182l4 -6q-115 -84 -115 -170q13 8 25 -1t12 -24q-1 -22 -21 -22z" />
    <glyph glyph-name="quoteright" unicode="&#x2019;" horiz-adv-x="227" 
d="M236 1337q0 23 20 23q29 0 29 -41q0 -100 -123 -182l-4 6q115 84 114 170q-14 -8 -25 1t-11 23z" />
    <glyph glyph-name="quotesinglbase" unicode="&#x201a;" horiz-adv-x="217" 
d="M39 35q29 0 29 -41q0 -100 -123 -182l-4 6q115 84 114 170q-14 -8 -25 1q-12 9 -12 27t21 19z" />
    <glyph glyph-name="quotedblleft" unicode="&#x201c;" horiz-adv-x="370" 
d="M233 1149q-29 0 -28 41q0 100 123 182l4 -6q-115 -84 -115 -170q13 8 25 -1t12 -24q-1 -22 -21 -22zM377 1149q-29 0 -29 41q0 100 123 182l4 -6q-115 -84 -115 -170q14 8 26 -1t11 -24q0 -22 -20 -22z" />
    <glyph glyph-name="quotedblright" unicode="&#x201d;" horiz-adv-x="370" 
d="M236 1337q0 23 20 23q29 0 29 -41q0 -100 -123 -182l-4 6q115 84 114 170q-14 -8 -25 1t-11 23zM379 1337q0 23 20 23q29 0 29 -41q0 -100 -123 -182l-4 6q115 84 115 170q-14 -8 -26 1q-11 9 -11 23z" />
    <glyph glyph-name="quotedblbase" unicode="&#x201e;" horiz-adv-x="360" 
d="M39 35q29 0 29 -41q0 -100 -123 -182l-4 6q115 84 114 170q-14 -8 -25 1q-12 9 -12 27t21 19zM162 12q0 23 20 23q29 0 29 -41q0 -100 -123 -182l-4 6q115 84 115 170q-14 -8 -26 1q-11 9 -11 23z" />
    <glyph glyph-name="dagger" unicode="&#x2020;" horiz-adv-x="759" 
d="M179 844q-24 0 -23 22q0 27 26 27q8 0 21 -2l270 -47l94 432q3 12 13 12t8 -12l-103 -432l281 43q14 2 20 2q25 0 25 -21q0 -29 -27 -28q-27 0 -20 32l-279 -38l-196 -838h-8l188 838l-266 43q0 -33 -24 -33z" />
    <glyph glyph-name="daggerdbl" unicode="&#x2021;" horiz-adv-x="759" 
d="M228 -250q-10 0 -9 12l90 371l-280 -43q-14 -2 -21 -2q-25 0 -24 21q0 29 26 28q27 0 21 -33l278 39l92 375l82 377l-266 43q1 -33 -23 -33t-24 25t27 24q8 0 20 -2l270 -47l80 371q3 12 13 12t8 -12l-88 -371l280 43q14 2 21 2q25 0 24 -20q-1 -29 -27 -29t-20 33
l-278 -39l-90 -377l-84 -375l266 -43q0 33 24 33t23 -22q0 -27 -27 -27q-8 0 -20 2l-270 47l-82 -371q-2 -12 -12 -12z" />
    <glyph glyph-name="bullet" unicode="&#x2022;" horiz-adv-x="436" 
d="M248 418q-55 0 -94 39t-39 94t39 94t94 39t94 -39t39 -94t-39 -94t-94 -39z" />
    <glyph glyph-name="ellipsis" unicode="&#x2026;" horiz-adv-x="700" 
d="M47 -16q-25 0 -25 24t26 25q24 -1 24 -25t-25 -24zM281 -16q-25 0 -25 24t25 25q25 0 24 -25q1 -24 -24 -24zM514 -16q-25 0 -25 24t25 25q25 -1 25 -25t-25 -24z" />
    <glyph glyph-name="perthousand" unicode="&#x2030;" horiz-adv-x="1703" 
d="M1396 451q91 1 140 -55t49 -147q-1 -91 -69 -172t-159 -81t-140 55t-49 146t68 173q69 82 160 81zM1357 6q85 0 151 78t65 165q0 87 -46 139t-131 52t-151 -78q-65 -78 -65 -165t46 -139t131 -52zM869 -4q-91 0 -140 55t-49 146t69 173t159 81q90 1 140 -55t50 -147
t-69 -172t-160 -81zM869 6q85 0 151 78t66 165t-47 139q-46 52 -131 52q-84 0 -150 -78t-66 -165t46 -139t131 -52zM390 567q-91 -1 -140 55t-49 147t68 172q69 81 160 81t140 -55t49 -146t-68 -173q-69 -81 -160 -81zM390 578q85 0 151 78q65 78 65 164q0 88 -46 140
t-131 52t-151 -78t-65 -165q0 -87 46 -139t131 -52zM135 -45l-8 8l999 1059l9 -8z" />
    <glyph glyph-name="guilsinglleft" unicode="&#x2039;" horiz-adv-x="520" 
d="M350 221l-272 320l426 317l6 -10l-416 -309l264 -310z" />
    <glyph glyph-name="guilsinglright" unicode="&#x203a;" horiz-adv-x="499" 
d="M55 221l-6 10l416 310l-264 309l8 8l272 -319z" />
    <glyph glyph-name="fraction" unicode="&#x2044;" horiz-adv-x="942" 
d="M-70 -6l-8 6l1098 1311l8 -6z" />
    <glyph glyph-name="zero.sup" unicode="&#x2070;" horiz-adv-x="722" 
d="M502 885q133 0 219 144t86 335q0 118 -52 190t-143 72q-133 0 -219 -144t-86 -335q0 -119 51 -191q52 -71 144 -71zM502 874q-98 0 -153 75q-54 75 -54 198q0 197 89 343t228 146q96 0 152 -74q55 -75 55 -198q0 -194 -90 -342t-227 -148z" />
    <glyph glyph-name="four.sup" unicode="&#x2074;" horiz-adv-x="722" 
d="M584 891l53 231h-377l-2 8l508 502l8 -8l-498 -491h363l55 235l15 8l-58 -243h152l-2 -11h-152l-53 -231h123l-2 -10h-279l2 10h144z" />
    <glyph glyph-name="five.sup" unicode="&#x2075;" horiz-adv-x="722" 
d="M463 870q-80 0 -138 41q-59 41 -59 83t23 42q18 0 18 -20q0 -10 -8 -18t-20 -5q8 -43 61 -78t123 -34q127 1 213 77t86 185q0 74 -53 121t-149 47t-191 -37l-7 4l113 340h373l-2 -10h-363l-106 -320q88 33 186 33q99 0 155 -49t56 -129q0 -113 -89 -193t-222 -80z" />
    <glyph glyph-name="six.sup" unicode="&#x2076;" horiz-adv-x="722" 
d="M317 1079q1 -86 57 -140t148 -54t167 77t75 165t-52 138t-146 50t-171 -75q-78 -75 -78 -161zM572 1325q92 0 148 -52t56 -145q0 -94 -79 -174t-177 -80t-159 60q-62 58 -62 162t47 235t135 216q89 85 177 85t130 -35t41 -75q0 -40 -24 -39q-18 0 -19 20q0 29 31 29
q-6 34 -44 62t-101 28q-96 0 -189 -88q-78 -78 -125 -204t-47 -222q16 90 92 154t169 63z" />
    <glyph glyph-name="seven.sup" unicode="&#x2077;" horiz-adv-x="722" 
d="M381 881l498 731h-449l-33 -142h-12l35 152h471l4 -6l-500 -735h-14z" />
    <glyph glyph-name="eight.sup" unicode="&#x2078;" horiz-adv-x="722" 
d="M289 1068q-1 -81 63 -132t163 -51t176 56t77 139t-66 135q-66 53 -164 53t-173 -60q-76 -60 -76 -140zM389 1444q-1 -74 61 -122t151 -48t162 55t73 128t-60 121t-152 48q-93 0 -164 -54t-71 -128zM780 1072q0 -78 -81 -138t-184 -60t-171 54t-68 139q0 84 75 145t171 64
q-59 14 -102 59t-43 116t75 128t173 57t160 -51q63 -51 63 -126t-66 -128t-159 -65q69 -20 113 -68t44 -126z" />
    <glyph glyph-name="nine.sup" unicode="&#x2079;" horiz-adv-x="722" 
d="M817 1428q0 86 -56 140t-148 54q-91 0 -167 -77t-76 -165t53 -138q52 -50 145 -50t171 75t78 161zM305 984q0 40 25 40q18 0 18 -20q0 -29 -31 -29q6 -35 44 -63t102 -27q96 0 181 83t131 208t48 223q-16 -89 -92 -153t-169 -64t-148 52q-56 52 -56 145t79 173t177 80
t159 -59q119 -113 15 -397q-47 -131 -135 -216q-88 -86 -176 -86t-130 35t-42 75z" />
    <glyph glyph-name="zero.inf" unicode="&#x2080;" horiz-adv-x="722" 
d="M231 -283q133 1 219 145t87 335q-1 119 -53 191t-142 71q-133 -1 -219 -145t-86 -334q0 -119 51 -191t143 -72zM231 -293q-98 0 -152 75t-54 198q0 197 89 343t228 146q96 0 152 -75t55 -197q-1 -195 -91 -343t-227 -147z" />
    <glyph glyph-name="one.inf" unicode="&#x2081;" horiz-adv-x="722" 
d="M18 -287l2 11h211l172 727l-239 -80v12l248 82l6 -4l-174 -737h207l-2 -11h-431z" />
    <glyph glyph-name="two.inf" unicode="&#x2082;" horiz-adv-x="722" 
d="M557 301q0 68 -52 112t-142 44t-159 -47t-75 -103q11 2 21 -6t10 -20q0 -23 -22 -23t-21 39q0 61 72 116q73 54 171 54t154 -46q55 -46 55 -121t-59 -129t-173 -117t-182 -111q-122 -89 -167 -219h450l43 180h13l-45 -191h-472l-4 6q46 131 146 209q101 78 213 138
q225 113 225 235z" />
    <glyph glyph-name="three.inf" unicode="&#x2083;" horiz-adv-x="722" 
d="M500 -88q0 -78 -75 -142t-181 -63q-106 0 -172 49q-66 48 -66 98t22 50t21 -23q0 -12 -9 -20t-22 -6q6 -53 68 -95t162 -43q98 1 169 61t71 140t-55 128q-54 48 -138 48h-47l2 10h39q109 0 185 58t75 131q0 74 -55 119q-54 45 -142 45t-146 -36t-65 -81q31 4 31 -25
q0 -23 -20 -22q-23 0 -23 44t62 87q63 43 157 43t154 -48t59 -120q0 -72 -62 -129t-159 -72q72 -10 116 -59t44 -127z" />
    <glyph glyph-name="four.inf" unicode="&#x2084;" horiz-adv-x="722" 
d="M313 -276l54 231h-377l-2 8l508 502l8 -8l-498 -492h363l55 236l14 8l-57 -244h151l-2 -10h-151l-53 -231h123l-3 -11h-278l2 11h143z" />
    <glyph glyph-name="five.inf" unicode="&#x2085;" horiz-adv-x="722" 
d="M193 -297q-80 0 -139 41q-58 41 -58 83t20 42t21 -21q0 -10 -8 -17t-21 -5q8 -43 62 -78t123 -35q127 0 213 77t86 185q0 74 -54 121t-149 47q-96 0 -191 -37l-6 5l113 340h373l-3 -11h-362l-107 -319q88 33 186 33t155 -50q56 -50 57 -129q0 -113 -89 -193t-222 -79z
" />
    <glyph glyph-name="six.inf" unicode="&#x2086;" horiz-adv-x="722" 
d="M494 -41q0 88 -52 138t-146 50q-93 -1 -171 -75t-78 -160q1 -86 57 -140t148 -55q92 0 167 77t75 165zM250 -293q-98 0 -159 59q-62 58 -62 162t47 236t135 216q88 85 176 85t130 -35t42 -75t-24 -40q-18 0 -19 21q0 29 31 29q-6 35 -44 63t-102 27q-96 0 -181 -83
t-132 -209t-47 -222q16 90 92 153q76 64 169 64q92 0 148 -52t56 -146q0 -93 -79 -173t-177 -80z" />
    <glyph glyph-name="seven.inf" unicode="&#x2087;" horiz-adv-x="722" 
d="M111 -287l497 731h-448l-33 -141h-12l35 152h471l4 -6l-500 -736h-14z" />
    <glyph glyph-name="eight.inf" unicode="&#x2088;" horiz-adv-x="722" 
d="M18 -99q0 -81 64 -133t163 -51t176 57t77 139t-66 135t-164 52t-174 -59t-76 -140zM354 459q-94 -1 -165 -55t-71 -128t62 -122t151 -48t162 56t73 128q0 73 -60 121q-58 48 -152 48zM510 -95q0 -79 -81 -139t-184 -59q-103 0 -171 54q-68 55 -68 139t75 145t171 64
q-59 14 -102 59q-44 46 -44 116t75 128t173 57q98 0 160 -51t64 -126q0 -75 -66 -128t-160 -66q70 -20 114 -67t44 -126z" />
    <glyph glyph-name="nine.inf" unicode="&#x2089;" horiz-adv-x="722" 
d="M100 213q0 -88 52 -138t146 -50q93 1 171 75t78 160q-1 86 -57 140t-148 55q-92 0 -167 -77t-75 -165zM344 465q98 0 159 -59q62 -58 62 -162t-47 -236t-135 -216q-88 -85 -176 -85t-130 35t-42 75t24 40q18 0 19 -21q0 -29 -31 -29q6 -35 44 -63t102 -27q96 0 181 83
t131 208t48 223q-16 -90 -92 -153q-76 -64 -169 -64q-92 0 -148 52t-56 146q0 93 79 173t177 80z" />
    <glyph glyph-name="Euro" unicode="&#x20ac;" horiz-adv-x="1069" 
d="M201 383v29q0 106 35 211h-152l2 10h154q59 165 190 275q130 110 280 110t246 -75t97 -171q1 -39 -21 -39t-22 23q0 12 9 20t21 6q-6 90 -98 158t-234 68t-270 -106q-127 -106 -186 -269h442l-2 -10h-444q-35 -104 -35 -211v-29h436l-2 -10h-434q13 -164 115 -261
q102 -98 272 -98t313 121l7 -8q-150 -123 -322 -123t-279 100q-106 100 -118 269h-162l2 10h160z" />
    <glyph glyph-name="published" unicode="&#x2117;" horiz-adv-x="1173" 
d="M664 449q68 0 118 44q49 43 49 115t-52 115t-132 43h-100v-311q49 -6 117 -6zM444 236v10h91v520h-91v10h203q86 0 141 -46q56 -46 56 -122t-53 -123t-124 -47t-120 6v-198h92v-10h-195zM610 -16q221 0 368 153q146 154 146 376t-146 376q-146 153 -368 153t-367 -154
q-147 -154 -147 -375t146 -375t368 -154zM610 -27q-227 0 -377 156t-149 383q0 227 149 384q150 157 377 157t377 -157t150 -384t-150 -383t-377 -156z" />
    <glyph glyph-name="servicemark" unicode="&#x2120;" horiz-adv-x="1005" 
d="M498 846l2 10h69l129 481h-86l2 11h99l96 -404l278 404h93l-2 -11h-78l-90 -481h75l-2 -10h-161l2 10h73l88 469l-276 -399h-8l-94 395l-125 -465h80l-3 -10h-161zM295 838q-70 0 -111 34t-41 64q1 31 19 31q18 1 18 -19t-18 -26q10 -29 46 -52q36 -22 94 -22t94 34
t36 85q0 68 -110 139q-104 70 -105 141q0 51 38 81t95 30t93 -30t36 -60t-18 -29q-19 -1 -19 19t21 26q-25 63 -115 64q-49 0 -84 -28t-35 -73q0 -65 108 -137t107 -143q0 -55 -40 -92t-109 -37z" />
    <glyph glyph-name="trademark" unicode="&#x2122;" horiz-adv-x="1112" 
d="M240 846l2 10h69l109 481h-180l-25 -96h-12l26 107h400l-23 -107h-12l20 96h-182l-108 -481h73l-2 -10h-155zM604 846l2 10h70l129 481h-86l2 11h98l96 -404l279 404h92l-2 -11h-78l-90 -481h76l-2 -10h-162l2 10h74l88 469l-277 -399h-8l-94 395l-125 -465h80l-2 -10
h-162z" />
    <glyph glyph-name="onethird" unicode="&#x2153;" horiz-adv-x="1628" 
d="M199 573l2 11h211l172 727l-240 -80v12l248 82l6 -4l-174 -737h207l-2 -11h-430zM283 -6l-9 6l1098 1311l8 -6zM1415 197q-1 -77 -75 -141t-180 -64t-172 49q-67 49 -66 109q0 39 22 38q20 0 21 -22q1 -12 -9 -20t-22 -7q6 -53 68 -95t161 -42t169 60t71 140
q0 80 -54 129q-54 48 -139 48h-47l2 10h39q109 0 185 57q75 58 75 132t-55 118t-142 45q-87 0 -146 -35q-58 -36 -64 -81q31 4 30 -25q0 -23 -20 -22q-23 0 -23 44t62 86q62 44 158 44q94 0 153 -48t59 -120t-62 -129t-159 -72q72 -10 116 -59t44 -127z" />
    <glyph glyph-name="twothirds" unicode="&#x2154;" horiz-adv-x="1628" 
d="M324 -6l-9 6l1098 1311l8 -6zM1438 197q0 -77 -75 -141t-181 -64t-172 49t-66 99t23 48q20 0 20 -22q0 -12 -9 -20t-22 -7q6 -53 68 -95t162 -42q98 0 169 60t71 140t-55 129q-54 48 -138 48h-47l2 10h39q109 0 185 57q76 58 75 132q0 74 -55 118q-54 44 -142 45
t-146 -35t-65 -81q31 4 31 -25q0 -23 -20 -22q-23 0 -23 44t62 86q63 44 157 44t154 -48t59 -120q0 -72 -62 -129t-159 -72q72 -10 116 -59t44 -127zM760 1161q0 68 -52 112t-142 44t-160 -47q-68 -47 -74 -103q12 2 21 -6t9 -20q0 -23 -22 -23t-21 39q0 61 73 115t171 55
q97 0 153 -46t56 -121t-59 -129t-147 -102q-88 -47 -122 -67q-131 -78 -192 -162q-39 -53 -62 -116h451l43 180h12l-45 -191h-471l-4 7q45 130 146 208q101 79 213 138q225 113 225 235z" />
    <glyph glyph-name="onefifth" unicode="&#x2155;" horiz-adv-x="1628" 
d="M182 573l2 11h211l172 727l-239 -80v12l247 82l7 -4l-174 -737h206l-2 -11h-430zM281 -6l-9 6l1098 1311l8 -6zM1096 -12q-80 0 -139 41q-58 41 -58 83t23 42q18 0 18 -21q0 -10 -8 -17t-21 -5q7 -43 61 -78t124 -35q127 0 213 77t86 185q1 74 -53 121t-150 47t-191 -37
l-6 4l113 340h373l-2 -10h-363l-106 -319q88 32 186 32t154 -49t57 -129q0 -112 -89 -192t-222 -80z" />
    <glyph glyph-name="twofifths" unicode="&#x2156;" horiz-adv-x="1628" 
d="M334 -6l-8 6l1097 1311l9 -6zM1124 -12q-80 0 -138 41t-58 83t20 42t21 -21q0 -10 -8 -17t-21 -5q8 -43 61 -78t123 -35q127 0 213 77t86 185q0 74 -53 121t-149 47t-191 -37l-6 4l113 340h372l-2 -10h-362l-107 -319q88 32 186 32t155 -49q56 -49 57 -129
q0 -112 -90 -192t-222 -80zM778 1161q0 68 -52 112t-142 44t-159 -47t-75 -103q12 2 22 -6t9 -20q0 -23 -22 -23t-21 39q0 61 73 115t171 55q98 0 153 -46t55 -121t-58 -129q-60 -54 -148 -102q-88 -47 -122 -67q-131 -79 -181 -147t-72 -131h450l43 180h13l-45 -191h-471
l-4 7q59 169 254 286q39 25 104 60q225 113 225 235z" />
    <glyph glyph-name="threefifths" unicode="&#x2157;" horiz-adv-x="1628" 
d="M309 -6l-8 6l1098 1311l8 -6zM1126 -12q-80 0 -138 41t-58 83t20 42t21 -21q0 -10 -8 -17t-21 -5q8 -43 62 -78t122 -35q127 0 213 77t86 185q0 74 -53 121t-149 47t-191 -37l-6 4l113 340h372l-2 -10h-362l-107 -319q88 32 186 32t155 -49q56 -49 57 -129
q0 -112 -90 -192t-222 -80zM719 772q-1 -78 -75 -142t-180 -63q-106 0 -172 49q-67 48 -67 98q-1 50 21 50t22 -23q0 -12 -9 -20t-21 -6q6 -53 68 -95t161 -42t169 60t71 140q-1 80 -55 128t-138 48h-47l2 11h39q108 0 184 57t76 131t-55 119t-143 45t-145 -36
q-58 -36 -65 -81q31 4 31 -24q1 -23 -21 -23t-22 44t62 87t157 43q93 0 153 -48t60 -120t-62 -129t-159 -72q72 -10 116 -59t44 -127z" />
    <glyph glyph-name="fourfifths" unicode="&#x2158;" horiz-adv-x="1628" 
d="M326 -6l-9 6l1098 1311l8 -6zM526 584l54 231h-377l-2 8l508 502l8 -8l-498 -492h363l55 236l14 8l-57 -244h151l-2 -10h-151l-53 -231h123l-3 -11h-278l2 11h143zM1147 -12q-80 0 -138 41q-59 41 -59 83t23 42q18 0 18 -21q0 -10 -8 -17t-20 -5q8 -43 61 -78t123 -35
q127 0 213 77t86 185q0 74 -53 121t-149 47t-191 -37l-6 4l112 340h373l-2 -10h-363l-106 -319q88 32 186 32q99 0 155 -49t56 -129q0 -112 -89 -192t-222 -80z" />
    <glyph glyph-name="onesixth" unicode="&#x2159;" horiz-adv-x="1628" 
d="M190 573l3 11h210l172 727l-239 -80v12l248 82l6 -4l-174 -737h207l-2 -11h-431zM279 -6l-9 6l1098 1311l8 -6zM934 196q0 -86 56 -140t148 -54t168 77q74 77 74 165t-52 138t-145 50t-171 -75t-78 -161zM1446 640q0 -40 -25 -40q-18 0 -18 21q0 29 31 28q-6 35 -44 63
t-102 27q-96 0 -181 -83t-132 -209t-47 -222q16 89 92 153t169 64t148 -52t55 -145t-78 -173t-176 -80t-160 59q-119 113 -15 398q47 131 135 215t176 86q88 0 130 -35t42 -75z" />
    <glyph glyph-name="fivesixths" unicode="&#x215a;" horiz-adv-x="1628" 
d="M324 -6l-9 6l1098 1311l8 -6zM416 563q-80 0 -138 41t-58 83t22 42q18 0 18 -20q0 -9 -8 -17t-21 -6q7 -43 61 -78t124 -35q127 0 213 77t86 186q0 74 -53 120q-54 46 -150 48q-96 0 -190 -37l-7 4l113 340h373l-2 -11h-363l-106 -319q88 33 186 33t154 -49t57 -129
q0 -113 -89 -193t-222 -80zM969 196q0 -86 56 -140t148 -54t167 77t75 165t-52 138t-145 50t-171 -75t-78 -161zM1481 640q0 -40 -25 -40q-18 0 -18 21q0 29 30 28q-6 35 -44 63t-101 27q-96 0 -181 -83t-132 -209t-47 -222q16 89 92 153t169 64t148 -52t55 -145
q-1 -93 -79 -173t-176 -80t-159 59q-118 112 -16 398q47 131 135 215t176 86q88 0 131 -35q42 -35 42 -75z" />
    <glyph glyph-name="oneeighth" unicode="&#x215b;" horiz-adv-x="1628" 
d="M215 573l2 11h211l172 727l-240 -80v12l248 82l6 -4l-174 -737h207l-2 -11h-430zM305 -6l-8 6l1098 1311l8 -6zM1038 561q0 -74 62 -122t150 -48q89 0 162 55q73 54 73 128q1 74 -59 122t-153 47q-93 0 -164 -54t-71 -128zM938 186q0 -82 64 -133t162 -51q99 0 176 56
t77 140t-65 135q-66 52 -164 52t-174 -59q-76 -58 -76 -140zM1164 -8q-103 0 -171 54q-67 54 -67 138t74 146q75 61 171 63q-59 13 -102 59t-43 116t75 128t173 58t160 -52t63 -126t-65 -127t-160 -66q70 -19 114 -67t44 -126t-81 -139q-82 -59 -185 -59z" />
    <glyph glyph-name="threeeighths" unicode="&#x215c;" horiz-adv-x="1628" 
d="M301 -6l-8 6l1098 1311l8 -6zM694 772q0 -78 -74 -142t-180 -63q-106 0 -173 49t-66 109q0 39 21 39t22 -23q0 -12 -10 -20t-21 -6q7 -53 69 -95t160 -42t170 60q70 60 70 140t-54 128t-139 48h-47l2 11h39q109 0 185 57t76 131t-56 119q-55 45 -142 45q-88 0 -146 -36
t-64 -81q31 4 31 -24q0 -23 -22 -23q-21 0 -21 44t62 87t156 43t154 -48t60 -120t-62 -129t-159 -72q71 -10 115 -59t44 -127zM1260 391q89 0 162 55q73 54 73 128t-59 122q-58 48 -152 47q-94 0 -165 -54t-71 -128t62 -122q61 -48 150 -48zM948 186q0 -82 64 -133t162 -51
q99 0 177 56q77 56 77 140t-66 135q-66 52 -164 52t-174 -59q-76 -58 -76 -140zM1174 -8q-102 0 -170 54t-68 138t75 146t171 63q-58 13 -102 59t-44 116t75 128t173 58t160 -52t63 -126t-65 -127t-160 -66q70 -19 114 -67t44 -126t-81 -139q-82 -59 -185 -59z" />
    <glyph glyph-name="fiveeighths" unicode="&#x215d;" horiz-adv-x="1628" 
d="M293 -6l-8 6l1097 1311l9 -6zM389 563q-80 0 -138 41t-58 83t20 42t20 -20q0 -9 -8 -17t-20 -6q8 -43 61 -78t123 -35q127 0 213 77t86 186q0 74 -53 120t-149 48q-96 0 -191 -37l-6 4l112 340h373l-2 -11h-362l-107 -319q88 33 186 33q99 0 155 -49t56 -129
q0 -113 -89 -193t-222 -80zM1042 561q0 -74 62 -122t150 -48q89 0 162 55q73 54 73 128t-59 122q-58 48 -152 47q-94 0 -165 -54t-71 -128zM942 186q0 -82 64 -133t162 -51q99 0 177 56q77 56 77 140t-66 135q-66 52 -164 52t-174 -59q-76 -58 -76 -140zM1168 -8
q-103 0 -171 54q-67 54 -67 138t75 146t171 63q-58 13 -102 59t-44 116t75 128t173 58t160 -52t63 -126t-65 -127t-160 -66q70 -19 114 -67t44 -126t-81 -139q-82 -59 -185 -59z" />
    <glyph glyph-name="seveneighths" unicode="&#x215e;" horiz-adv-x="1628" 
d="M332 573l497 732h-448l-33 -142h-12l35 152h471l4 -6l-500 -736h-14zM229 -6l-8 6l1098 1311l8 -6zM1042 561q0 -74 62 -122t150 -48q89 0 162 55q73 54 73 128t-59 122q-58 48 -152 47q-94 0 -165 -54t-71 -128zM942 186q0 -82 64 -133t162 -51q99 0 177 56
q77 56 77 140t-66 135q-66 52 -164 52t-174 -59q-76 -58 -76 -140zM1168 -8q-103 0 -171 54q-67 54 -67 138t75 146t171 63q-58 13 -102 59t-44 116t75 128t173 58t160 -52t63 -126t-65 -127t-160 -66q70 -19 114 -67t44 -126t-81 -139q-82 -59 -185 -59z" />
    <glyph glyph-name="minus" unicode="&#x2212;" horiz-adv-x="743" 
d="M119 532l2 11h563l-2 -11h-563z" />
    <glyph glyph-name="Q.alt" horiz-adv-x="1452" 
d="M694 -8q129 0 252 55l-125 350l10 4l125 -350q203 94 327 307t124 449q0 237 -141 395t-381 158q-201 0 -368 -122t-256 -307t-89 -403t141 -378q141 -158 381 -158zM694 -18q-246 0 -390 162t-144 403q0 201 90 388t260 311t375 124q246 0 390 -162t144 -400t-127 -456
q-127 -217 -331 -311l94 -260l-11 -4l-94 260q-123 -55 -256 -55z" />
    <glyph glyph-name="zero.lin" horiz-adv-x="1198" 
d="M166 480q0 -224 102 -352t274 -128q173 0 314 128t219 326t78 422t-101 352q-100 128 -274 128t-315 -128t-219 -326t-78 -422zM540 -10q-177 0 -282 131q-104 131 -104 359t78 428t224 329t323 129t281 -131t105 -359q0 -228 -79 -428t-224 -329t-322 -129z" />
    <glyph glyph-name="one.lin" horiz-adv-x="677" 
d="M-4 0l2 10h262l311 1342l-327 -111v12l334 113l8 -6l-314 -1350h263l-3 -10h-536z" />
    <glyph glyph-name="two.lin" horiz-adv-x="1003" 
d="M668 1358q-156 0 -269 -91t-118 -198q12 2 21 -6t9 -21q0 -23 -20 -22q-23 0 -23 39q0 111 117 210t282 99t254 -85t89 -220t-96 -231t-300 -218t-303 -206q-203 -174 -280 -398h760l75 336h13l-78 -346h-778l-5 8q57 172 169 292q60 65 113 116t151 111q98 61 183 111
q274 163 335 295q29 62 28 134q0 127 -86 209q-87 82 -243 82z" />
    <glyph glyph-name="three.lin" horiz-adv-x="976" 
d="M418 -14q-156 0 -268 82t-113 182q0 39 21 39t22 -23q0 -12 -9 -20t-22 -6q6 -94 115 -169t254 -75q196 0 308 113t112 261t-96 237t-263 89h-53l2 11h55q207 0 336 103q129 104 129 242t-87 222t-228 84t-241 -66t-103 -147q31 0 30 -27q0 -23 -20 -22q-23 0 -23 39
q0 89 102 161t253 72q149 0 239 -87t90 -222t-111 -237q-112 -102 -296 -122q139 -18 218 -106t79 -215q0 -161 -116 -277t-316 -116z" />
    <glyph glyph-name="four.lin" horiz-adv-x="1028" 
d="M807 901l-105 -446h256l-2 -11h-256l-100 -434h223l-2 -10h-497l2 10h262l100 434h-635l-2 9l910 913l8 -8l-899 -903h620l103 438z" />
    <glyph glyph-name="five.lin" horiz-adv-x="940" 
d="M371 -14q-127 0 -226 67q-98 68 -98 150q-1 39 21 39t22 -23q0 -12 -9 -20t-22 -6q7 -77 101 -137t211 -60q203 0 334 145t131 332q0 150 -92 232q-92 81 -239 81q-146 0 -274 -53l-6 6l199 609h559l-2 -11h-549l-192 -589q116 49 266 49t246 -85t96 -239
q0 -191 -134 -339t-343 -148z" />
    <glyph glyph-name="six.lin" horiz-adv-x="1050" 
d="M523 -4q165 0 292 141t127 326q0 147 -96 239t-266 92t-295 -136t-125 -320q0 -147 96 -244q102 -98 267 -98zM954 463q0 -189 -131 -333t-303 -144t-276 104t-105 299q0 194 80 435q81 242 227 392t338 150q131 0 197 -63t66 -134q0 -43 -25 -43q-18 0 -18 23
q0 29 30 29q-4 66 -66 122t-184 56q-188 0 -331 -148t-223 -386q-80 -239 -78 -421v-18q16 176 141 299t294 123t268 -95t99 -247z" />
    <glyph glyph-name="seven.lin" horiz-adv-x="913" 
d="M166 0l897 1337h-750l-61 -264h-12l63 275h770l4 -9l-897 -1339h-14z" />
    <glyph glyph-name="eight.lin" horiz-adv-x="1036" 
d="M532 702q-176 0 -296 -114t-119 -266q-1 -150 113 -238t277 -88t283 106t120 262t-102 247q-100 91 -276 91zM634 709q160 0 271 99q111 100 111 242t-98 226t-256 84t-268 -102t-110 -240q0 -139 95 -224t255 -85zM922 375q0 -169 -124 -279t-291 -110t-285 90t-118 246
t120 272t300 117q-112 27 -182 107t-70 188q0 156 114 260t277 104t264 -86t101 -232t-108 -245q-108 -100 -283 -107q133 -24 209 -112t76 -213z" />
    <glyph glyph-name="nine.lin" horiz-adv-x="1048" 
d="M1016 1014q0 147 -99 244q-99 98 -264 98t-293 -142t-127 -325q1 -147 97 -239t266 -93q170 1 295 137t125 320zM221 889q0 189 131 333q132 144 304 144t276 -104t104 -300q0 -194 -80 -435t-226 -391t-339 -150q-131 0 -197 63t-65 133q0 43 25 43q18 0 18 -22
q0 -29 -31 -29q5 -66 67 -122t183 -56q187 0 331 147t223 386t79 421v17q-16 -174 -141 -297t-294 -123t-269 95t-99 247z" />
    <glyph glyph-name="bullet.alt" horiz-adv-x="1228" 
d="M616 -98q-216 0 -370 154t-154 370q0 217 154 371q154 153 370 153t371 -154q154 -154 154 -370t-154 -370t-371 -154z" />
    <glyph glyph-name="hyphen.lin" horiz-adv-x="446" 
d="M117 664l2 12h307l-2 -12h-307z" />
    <glyph glyph-name="endash.lin" horiz-adv-x="778" 
d="M96 664l2 12h680l-2 -12h-680z" />
    <glyph glyph-name="emdash.lin" horiz-adv-x="1280" 
d="M96 664l2 12h1182l-2 -12h-1182z" />
    <glyph glyph-name="parenleft.lin" horiz-adv-x="593" 
d="M174 510q0 362 195 668t524 479l6 -8q-325 -172 -519 -475t-194 -664q0 -500 389 -829l-8 -9q-393 334 -393 838z" />
    <glyph glyph-name="parenright.lin" horiz-adv-x="593" 
d="M498 819q0 500 -389 830l8 8q393 -334 393 -838q0 -363 -194 -669t-525 -478l-6 9q325 172 519 475t194 663z" />
    <glyph glyph-name="bracketleft.lin" horiz-adv-x="595" 
d="M53 -287l445 1909h360l-2 -10h-348l-440 -1888h348l-2 -11h-361z" />
    <glyph glyph-name="bracketright.lin" horiz-adv-x="595" 
d="M-145 -287l2 11h348l440 1888h-348l2 10h360l-444 -1909h-360z" />
    <glyph glyph-name="braceleft.lin" horiz-adv-x="540" 
d="M379 524q0 62 -52 104t-153 42h-57l2 10h55q129 0 203 53t74 147t-67 224q-67 131 -67 227q0 131 111 217t295 88v-10q-178 -2 -286 -84t-107 -211q0 -94 66 -227t67 -223q1 -89 -61 -143t-164 -64q70 -8 112 -49t41 -101q0 -108 -160 -260t-159 -278q0 -94 61 -166
t166 -107l-4 -10q-109 37 -172 111t-63 164t42 156q43 66 119 136q158 150 158 254z" />
    <glyph glyph-name="braceright.lin" horiz-adv-x="540" 
d="M186 458q0 90 62 144q62 53 164 64q-70 8 -112 49t-42 100q0 109 160 261t160 278q0 94 -62 166t-166 106l4 10q109 -36 172 -110q64 -74 64 -164t-43 -156t-119 -137q-158 -150 -158 -254q0 -61 52 -103t153 -42h57l-2 -11h-55q-129 0 -203 -53q-143 -102 -8 -366
q68 -135 68 -232q0 -131 -111 -217t-295 -88v10q178 2 286 84t107 211q-1 94 -67 227t-66 223z" />
    <glyph glyph-name="registered.alt" horiz-adv-x="1173" 
d="M498 506h90q74 0 120 37t46 100t-45 101t-119 38h-92v-276zM387 254v10h98v518h-98v11h205q80 0 127 -41q47 -40 47 -102t-37 -101t-96 -49l137 -236h86v-10h-94l-141 244q-16 -2 -35 -2h-88v-232h92v-10h-203zM610 -16q221 0 368 153q146 154 146 376t-146 376
q-146 153 -368 153t-367 -154q-147 -154 -147 -375t146 -375t368 -154zM610 -27q-227 0 -377 156t-149 383q0 227 149 384q150 157 377 157t377 -157t150 -384t-150 -383t-377 -156z" />
    <glyph glyph-name="copyright.lin" horiz-adv-x="1603" 
d="M883 342q-141 0 -234 100q-92 100 -92 244t95 243t233 99q98 0 170 -52t71 -116q0 -31 -22 -31t-21 25q0 25 29 27q-12 55 -78 96t-149 41q-131 0 -223 -96t-92 -236t88 -236q90 -98 226 -98t236 94l6 -8q-102 -96 -243 -96zM864 1350q-278 0 -466 -197t-189 -481
q0 -284 187 -478q186 -196 464 -196t467 197t189 481t-188 478q-186 196 -464 196zM861 -12q-282 0 -473 198t-191 487q1 287 193 487t474 200t472 -199q192 -199 192 -487t-192 -486q-192 -200 -475 -200z" />
    <glyph glyph-name="published.lin" horiz-adv-x="1603" 
d="M885 614q105 0 169 54t64 142q0 89 -64 140q-65 51 -177 51h-109v-383q62 -4 117 -4zM653 338v10h103v653h-103v11h224q117 0 185 -54t68 -148q0 -93 -66 -150q-67 -56 -179 -56q-55 0 -117 4v-260h104v-10h-219zM864 1350q-278 0 -466 -197t-189 -481q0 -284 187 -478
q186 -196 464 -196t467 197t189 481t-188 478q-186 196 -464 196zM861 -12q-282 0 -473 198t-191 487q1 287 193 487t474 200t472 -199q192 -199 192 -487t-192 -486q-192 -200 -475 -200z" />
    <glyph glyph-name="registered.lin" horiz-adv-x="1603" 
d="M733 659h150q72 -1 131 49t59 129t-58 128t-155 49h-127v-355zM618 350v10h103v654h-103v10h242q102 0 164 -51t61 -133q0 -82 -58 -134t-132 -57l199 -289h94v-10h-101l-204 299h-150v-289h105v-10h-220zM864 1350q-278 0 -466 -197t-189 -481q0 -284 187 -478
q186 -196 464 -196t467 197t189 481t-188 478q-186 196 -464 196zM861 -12q-282 0 -473 198t-191 487q1 287 193 487t474 200t472 -199q192 -199 192 -487t-192 -486q-192 -200 -475 -200z" />
    <glyph glyph-name="dollar.lin" horiz-adv-x="1032" 
d="M662 1331q-162 0 -270 -78t-109 -209q0 -131 93 -210q69 -60 199 -136l189 623q-51 10 -102 10zM883 324q0 131 -97 219q-71 63 -204 141l-201 -659q43 -6 92 -7q184 0 297 88t113 218zM80 254q0 39 21 39t22 -23q0 -12 -9 -20t-22 -6q6 -68 83 -131t196 -86l200 661
q-129 76 -192 130t-86 104t-23 110q0 146 113 228t279 81q53 0 104 -10l59 193l11 -4l-58 -191q111 -27 173 -89q63 -62 63 -110t-22 -49q-22 0 -21 23q0 12 9 20t21 6q-6 54 -66 110t-161 79l-190 -625q239 -132 287 -243q24 -53 24 -117q0 -146 -115 -236t-307 -90
q-51 0 -94 6l-66 -215l-10 4l64 215q-127 23 -207 94t-80 142z" />
    <glyph glyph-name="sterling.lin" horiz-adv-x="1028" 
d="M436 551q0 -274 -270 -463q124 14 280 -42t260 -56t240 102l6 -8q-138 -104 -246 -104t-260 54t-195 49q-42 -5 -97 -7q-45 -53 -78 -53q-14 0 -15 12q0 27 80 47q283 195 283 469v16h-211l2 11h209q-2 46 -15 166t-14 194q0 168 95 292t290 124q123 0 199 -62t76 -139
q1 -39 -21 -39t-22 23q0 12 9 20t21 6q-6 72 -77 126q-72 54 -193 54t-209 -63q-157 -113 -155 -342q0 -78 13 -195t15 -165h379l-2 -11h-377v-16z" />
    <glyph glyph-name="Euro.lin" horiz-adv-x="1282" 
d="M283 502v-17q-1 -219 115 -348t315 -129q115 0 227 50t193 132l8 -8q-84 -84 -197 -134t-231 -50q-205 0 -324 132t-119 355v17h-198l2 10h196q2 145 45 297h-172l2 10h174q71 233 219 381t353 150q153 0 265 -92t112 -203q0 -39 -22 -39t-21 22q0 12 9 20t21 7
q-4 106 -111 190q-108 84 -253 84q-199 0 -344 -146t-215 -374h592l-2 -10h-594q-43 -152 -45 -297h569l-2 -10h-567z" />
    <glyph glyph-name="yen.lin" horiz-adv-x="1275" 
d="M266 573l2 11h359l-269 753h-143l2 11h367l-2 -11h-211l266 -747l645 747h-215l2 11h367l-2 -11h-138l-651 -753h359l-3 -11h-362l-57 -223h364l-2 -10h-364l-82 -330h223l-2 -10h-459l2 10h223l82 330h-358l2 10h358l58 223h-361z" />
    <glyph glyph-name="cent.lin" horiz-adv-x="909" 
d="M186 627q0 -129 60 -215t157 -117l242 815q-183 20 -321 -127t-138 -356zM496 270q-39 0 -86 11l-93 -314l-10 4l92 314q-100 31 -162 119t-63 223q0 213 142 363t331 130l74 248l10 -4l-74 -246q103 -14 165 -74t63 -135q1 -39 -21 -39t-22 23q0 12 9 20t21 7
q-4 68 -61 120t-156 68l-241 -817q45 -10 82 -10q145 0 268 100v-14q-125 -97 -268 -97z" />
    <glyph glyph-name="numbersign.lin" horiz-adv-x="1058" 
d="M469 905l-133 -475h358l133 475h-358zM963 1348l-121 -433h264l-2 -10h-264l-133 -475h274l-2 -10h-274l-117 -420h-13l117 420h-358l-117 -420h-12l117 420h-265l2 10h265l133 475h-275l2 10h275l121 433h12l-121 -433h358l121 433h13z" />
    <glyph glyph-name="paragraph.lin" horiz-adv-x="1181" 
d="M633 10h149l308 1327h-150zM639 504q-203 0 -322 100t-119 287t154 321q152 134 391 136h517l-3 -11h-155l-307 -1327h174l-2 -10h-518l2 10h170l114 496q-27 -2 -96 -2z" />
    <glyph glyph-name="section.lin" horiz-adv-x="940" 
d="M190 692q0 -76 64 -124t201 -107l59 -25q375 53 375 219q0 55 -42 99t-93 72q-52 26 -108 50l-79 35q-377 -55 -377 -219zM178 692q0 168 373 228q-106 51 -164 102q-57 51 -57 139q0 89 90 149t206 60t192 -33q75 -33 107 -78q31 -45 31 -81t-21 -35q-21 0 -22 24
q0 31 29 27q-17 81 -130 133q-72 33 -184 33t-199 -58t-87 -144t64 -137q64 -52 219 -122q157 -70 217 -120t59 -124q0 -170 -371 -227q109 -49 165 -102q57 -53 57 -135q0 -81 -84 -143t-203 -62t-194 34t-107 78q-32 45 -33 80t21 35t22 -25q0 -31 -29 -26
q20 -83 133 -133q73 -33 186 -33t194 59t81 143t-70 137q-71 55 -179 101t-148 65q-111 54 -144 113q-20 35 -20 78z" />
    <glyph glyph-name="ordfeminine.lin" horiz-adv-x="583" 
d="M154 838l2 10h487l-2 -10h-487zM360 997q106 1 182 103t74 200q0 98 -47 151q-47 52 -118 52q-107 0 -179 -97q-72 -98 -72 -204t44 -156t116 -49zM356 987q-74 0 -120 52t-48 163q0 111 76 211t187 100q77 0 125 -52t51 -136l45 180h12l-96 -387q-8 -31 -8 -59
q0 -61 53 -62q51 0 90 101l10 -4q-41 -106 -100 -107q-66 0 -66 72q0 29 8 59l9 31q-38 -72 -96 -117t-132 -45z" />
    <glyph glyph-name="ordmasculine.lin" horiz-adv-x="618" 
d="M518 1513q-104 0 -180 -91q-76 -90 -76 -202t60 -172t162 -61q102 0 179 91q77 90 77 202t-60 172q-59 60 -162 61zM195 838l2 10h460l-2 -10h-460zM484 977q-108 0 -171 63t-63 179q0 117 80 211t187 94t171 -64t64 -180q0 -117 -80 -210t-188 -93z" />
    <glyph glyph-name="degree.lin" horiz-adv-x="628" 
d="M219 1241q1 -99 55 -153t151 -54t170 80t73 179t-54 153t-150 53q-97 0 -171 -80t-74 -178zM464 1509q104 0 160 -56q56 -57 56 -159t-76 -186t-178 -84t-161 57q-58 57 -58 159t77 186q77 83 180 83z" />
    <glyph glyph-name="percent.lin" horiz-adv-x="1341" 
d="M100 -6l-8 8l1274 1352l8 -8zM731 239q-1 -115 61 -179t174 -64t196 97q85 97 85 211t-61 178q-61 65 -173 65t-197 -97t-85 -211zM450 801q112 0 196 97q85 96 85 210t-61 179t-173 65t-197 -98t-85 -210q0 -114 61 -179q62 -64 174 -64zM1260 304q0 -118 -90 -218
t-206 -100t-181 68t-65 184q0 118 90 218t206 101q116 0 181 -68q65 -67 65 -185zM448 791q-116 -1 -181 67t-65 186t90 218t206 100t181 -68t65 -186t-90 -217q-90 -100 -206 -100z" />
    <glyph glyph-name="perthousand.lin" horiz-adv-x="1966" 
d="M100 -6l-8 8l1274 1352l8 -8zM1590 -4q112 0 197 97t85 211t-62 178q-62 65 -172 65q-112 0 -197 -97t-85 -211t61 -179q61 -64 173 -64zM450 801q112 0 196 97q85 96 85 210t-61 179t-173 65t-197 -98t-85 -210q0 -114 61 -179q62 -64 174 -64zM731 239q-1 -115 61 -179
t174 -64t196 97q85 97 85 211t-61 178q-61 65 -173 65t-197 -97t-85 -211zM1590 -14q-116 0 -182 68q-65 68 -65 184q-1 118 89 218t206 101q116 0 182 -68q64 -67 64 -185t-89 -218t-205 -100zM1260 304q0 -118 -90 -218t-206 -100t-181 68t-65 184q0 118 90 218t206 101
q116 0 181 -68q65 -67 65 -185zM448 791q-116 -1 -181 67t-65 186t90 218t206 100t181 -68t65 -186t-90 -217q-90 -100 -206 -100z" />
    <glyph glyph-name="quotedbl.lin" horiz-adv-x="493" 
d="M310 1509q9 0 9 -7t-2 -13l-63 -240h-4l49 246q2 14 11 14zM474 1509q9 0 9 -7t-2 -13l-63 -240h-4l49 246q2 14 11 14z" />
    <glyph glyph-name="quotesingle.lin" horiz-adv-x="243" 
d="M310 1509q9 0 9 -7t-2 -13l-63 -240h-4l49 246q2 14 11 14z" />
    <glyph glyph-name="plus.lin" horiz-adv-x="743" 
d="M508 971l-66 -281h275l-2 -10h-275l-71 -303h-13l72 303h-276l2 10h276l66 281h12z" />
    <glyph glyph-name="minus.lin" horiz-adv-x="743" 
d="M152 680l2 10h563l-2 -10h-563z" />
    <glyph glyph-name="divide.lin" horiz-adv-x="743" 
d="M379 424q-25 0 -25 25t25 24q25 0 24 -24q1 -25 -24 -25zM487 889q-25 1 -25 25t26 24q24 0 24 -24t-25 -25zM152 680l2 10h563l-2 -10h-563z" />
    <glyph glyph-name="equal.lin" horiz-adv-x="743" 
d="M88 514l2 10h563l-2 -10h-563zM154 788l2 11h563l-2 -11h-563z" />
    <glyph glyph-name="multiply.lin" horiz-adv-x="743" 
d="M205 963l207 -269l317 256l6 -10l-317 -256l213 -274l-8 -9l-213 275l-322 -260l-6 10l321 260l-206 268z" />
    <glyph glyph-name="less.lin" horiz-adv-x="704" 
d="M541 354l-377 310v6l526 286l6 -10l-516 -280l369 -304z" />
    <glyph glyph-name="greater.lin" horiz-adv-x="704" 
d="M123 362l-6 11l516 280l-369 303l8 9l377 -310v-6z" />
    <glyph glyph-name="plusminus.lin" horiz-adv-x="743" 
d="M43 342l2 10h563l-2 -10h-563zM500 1063l-66 -281h275l-2 -10h-275l-72 -303h-12l72 303h-277l2 10h277l65 281h13z" />
    <glyph glyph-name="zero.tab" horiz-adv-x="1085" 
d="M166 456q0 -216 81 -336t229 -120t283 136q134 136 208 342q73 206 73 422t-81 336t-229 120t-283 -136q-133 -136 -207 -342t-74 -422zM475 -10q-155 0 -239 123t-82 343t76 427q75 207 211 345t290 138t239 -123t83 -343t-77 -427t-211 -345t-290 -138z" />
    <glyph glyph-name="one.tab" horiz-adv-x="1085" 
d="M109 0l2 10h354l311 1342l-430 -127v10l436 131l9 -6l-314 -1350h357l-3 -10h-722z" />
    <glyph glyph-name="two.tab" horiz-adv-x="1085" 
d="M1061 1067q0 129 -91 210t-259 81t-285 -97t-123 -212q11 1 21 -7t10 -20q0 -23 -22 -23t-21 39q0 118 121 224t297 106t270 -85t94 -219t-100 -232q-99 -98 -313 -220q-214 -120 -316 -204q-211 -175 -291 -398h801l76 336h12l-78 -346h-819l-4 8q33 94 90 180t111 142
t153 129q98 72 187 122q90 51 138 79q254 149 311 272q30 63 30 135z" />
    <glyph glyph-name="three.tab" horiz-adv-x="1085" 
d="M932 379q0 -162 -121 -278t-330 -115q-159 0 -275 89t-116 197q0 39 22 39t21 -22q0 -13 -9 -21t-22 -6q6 -102 118 -184t261 -82q203 0 321 113t118 261t-102 237t-283 89h-74l2 11h76q219 0 355 103q136 102 136 242t-93 223t-249 83t-264 -72t-113 -162q31 0 31 -24
t-22 -25q-22 0 -21 39q0 98 112 176q111 78 275 78t260 -87t96 -222t-118 -238t-316 -121q154 -18 239 -106t85 -215z" />
    <glyph glyph-name="four.tab" horiz-adv-x="1085" 
d="M877 901l-105 -446h256l-2 -11h-256l-100 -434h223l-2 -10h-498l2 10h262l101 434h-666l-2 9l940 913l8 -8l-929 -903h651l102 438z" />
    <glyph glyph-name="five.tab" horiz-adv-x="1085" 
d="M444 -14q-150 0 -256 72t-106 165q0 39 21 39t22 -22q0 -12 -9 -20t-22 -7q10 -86 110 -152t240 -65q225 0 368 144q142 144 142 312t-106 252q-106 82 -269 82t-317 -53l-6 6l199 609h645l-2 -11h-635l-193 -589q141 49 309 49t278 -86t110 -258q0 -171 -146 -319
t-377 -148z" />
    <glyph glyph-name="six.tab" horiz-adv-x="1085" 
d="M174 338q0 -146 102 -244t275 -98q172 0 301 140t129 306t-98 260q-97 92 -273 92t-306 -136t-130 -320zM1061 1116q-18 0 -19 23q0 29 31 28q-4 70 -69 129q-66 59 -193 60q-189 0 -337 -148t-228 -386q-80 -239 -80 -421v-18q16 176 146 299t304 123t276 -95
q101 -95 101 -266q0 -170 -133 -314t-310 -144t-287 103q-109 103 -109 299t82 436q82 242 232 392t343 150q137 0 206 -67t68 -140q1 -43 -24 -43z" />
    <glyph glyph-name="seven.tab" horiz-adv-x="1085" 
d="M268 0l916 1337h-828l-61 -264h-12l63 275h848l4 -9l-915 -1339h-15z" />
    <glyph glyph-name="eight.tab" horiz-adv-x="1085" 
d="M558 702q-183 0 -309 -116t-126 -263t117 -237q118 -90 286 -90t299 108t131 260q0 154 -107 246q-108 92 -291 92zM969 375q0 -168 -134 -279q-133 -110 -309 -110t-296 92t-120 245t126 269q125 116 311 119q-117 23 -193 105t-75 190q0 154 122 259q123 105 295 105
t276 -88t103 -229q0 -141 -112 -243q-113 -101 -295 -110q141 -26 221 -114t80 -211zM1063 1050q0 140 -100 225q-99 85 -267 85t-286 -102t-119 -240q0 -137 100 -223t268 -86t286 100q118 101 118 241z" />
    <glyph glyph-name="nine.tab" horiz-adv-x="1085" 
d="M1049 1014q-1 146 -103 244t-274 98t-301 -140t-129 -307q0 -166 98 -259t256 -93q193 0 323 136t130 321zM162 236q18 0 18 -23q0 -29 -30 -29q4 -70 70 -129t192 -59q190 0 338 147t227 386q80 239 80 421v17q-17 -174 -147 -297t-304 -123t-275 95t-101 266
q0 170 132 314t310 144t288 -103t109 -299q0 -196 -82 -437q-81 -241 -231 -391t-344 -150q-137 0 -206 66t-69 141q0 43 25 43z" />
    <glyph glyph-name="period.tab" horiz-adv-x="542" 
d="M209 -16q-27 0 -27 26t27 27q27 -1 27 -27t-27 -26z" />
    <glyph glyph-name="comma.tab" horiz-adv-x="542" 
d="M203 39q31 0 30 -43q1 -105 -124 -189l-5 7q115 84 115 174q-14 -8 -26 1q-13 9 -13 29t23 21z" />
    <glyph glyph-name="colon.tab" horiz-adv-x="542" 
d="M362 616q-27 0 -26 27q0 27 26 27t27 -27q0 -27 -27 -27zM217 -16q-27 0 -27 26t27 27q27 -1 27 -27t-27 -26z" />
    <glyph glyph-name="semicolon.tab" horiz-adv-x="542" 
d="M365 616q-27 0 -27 27t27 27t27 -27t-27 -27zM193 14q0 25 22 25q31 0 31 -43q0 -105 -125 -189l-4 7q115 84 114 174q-14 -8 -26 1t-12 25z" />
    <glyph glyph-name="twodotleader.tab" horiz-adv-x="1085" 
d="M752 -16q-27 0 -27 26t27 27q27 0 26 -27q1 -26 -26 -26zM209 -16q-27 0 -27 26t27 27q27 -1 27 -27t-27 -26z" />
    <glyph glyph-name="periodcentered.tab" horiz-adv-x="542" 
d="M287 449q-27 1 -27 27t27 26t26 -27q1 -26 -26 -26z" />
    <glyph glyph-name="slash.tab" horiz-adv-x="1085" 
d="M-84 -403l-8 6l1247 1892l8 -6z" />
    <glyph glyph-name="bar.tab" horiz-adv-x="542" 
d="M266 -410v1909h13v-1909h-13z" />
    <glyph glyph-name="underscore.tab" horiz-adv-x="1085" 
d="M-158 -240l2 13h1104l-2 -13h-1104z" />
    <glyph glyph-name="dollar.tab" horiz-adv-x="1085" 
d="M690 1331q-170 0 -284 -79t-115 -208q0 -129 100 -210q71 -58 213 -136l189 623q-55 10 -103 10zM932 324q0 131 -104 219q-81 67 -218 141l-198 -659q43 -6 90 -7q194 0 312 88t118 218zM94 266q0 39 22 39t21 -22q0 -13 -9 -21t-22 -6q6 -70 88 -138t205 -91l201 661
q-252 138 -298 234q-24 49 -23 110q0 147 118 229q119 81 293 80q55 0 107 -10l57 193l10 -4l-57 -191q117 -25 183 -93t67 -117q1 -50 -21 -50t-22 23q0 12 9 20t21 6q-6 57 -70 117q-65 59 -171 84l-189 -625q254 -133 306 -243q25 -53 24 -117q0 -146 -121 -236t-321 -90
q-49 0 -92 6l-68 -215l-10 4l65 213q-133 24 -218 100t-85 150z" />
    <glyph glyph-name="sterling.tab" horiz-adv-x="1085" 
d="M428 938q0 -78 13 -195t16 -165h405l-2 -11h-403v-16q0 -272 -281 -463q137 16 296 -41q160 -57 266 -57t243 100l6 -8q-137 -102 -249 -102t-278 58t-296 38q-45 -53 -78 -53q-14 0 -14 12q0 27 80 47q293 193 292 469v16h-217l2 11h215q-2 46 -15 166t-13 194
q0 168 97 292t298 124q131 0 213 -65t82 -144q0 -39 -22 -39t-21 22q0 12 9 20t22 7q-6 74 -84 131t-199 57q-195 -1 -289 -121t-94 -284z" />
    <glyph glyph-name="Euro.tab" horiz-adv-x="1085" 
d="M1100 1061q0 -39 -22 -39t-21 22q0 12 9 20t21 7q-4 106 -78 187q-75 81 -198 81q-174 0 -315 -143t-211 -373h516l-2 -10h-518q-47 -156 -50 -307h498l-2 -10h-496v-29q-1 -217 91 -338t247 -121q211 0 377 201l10 -6q-170 -205 -387 -205q-162 0 -256 124t-94 345v29
h-170l2 10h168q2 152 49 307h-149l2 10h151q72 233 215 379t324 148q131 0 210 -88t79 -201z" />
    <glyph glyph-name="yen.tab" horiz-adv-x="1085" 
d="M229 573l2 11h318l-195 753h-145l2 11h373l-2 -11h-215l192 -747l571 747h-219l2 11h373l-2 -11h-139l-578 -753h318l-2 -11h-322l-55 -223h321l-2 -10h-323l-82 -330h209l-2 -10h-430l2 10h209l81 330h-317l2 10h320l55 223h-320z" />
    <glyph glyph-name="cent.tab" horiz-adv-x="1085" 
d="M256 627q0 -131 67 -218t171 -116l241 817q-193 20 -336 -127t-143 -356zM974 866q-21 0 -22 23q0 12 10 20t21 6q-7 68 -67 124t-171 71l-241 -819q45 -10 84 -10q155 0 286 100v-14q-133 -96 -286 -97q-43 0 -88 11l-92 -314l-11 4l92 312q-109 31 -177 119t-68 225
q0 213 147 363t346 130l74 248l10 -4l-71 -244q118 -16 182 -80t63 -135q0 -39 -21 -39z" />
    <glyph glyph-name="numbersign.tab" horiz-adv-x="1085" 
d="M475 905l-133 -475h375l133 475h-375zM985 1348l-121 -433h271l-2 -10h-271l-133 -475h281l-2 -10h-281l-117 -420h-12l117 420h-375l-117 -420h-12l117 420h-271l2 10h271l133 475h-281l2 10h281l121 433h12l-121 -433h375l121 433h12z" />
    <glyph glyph-name="paragraph.tab" horiz-adv-x="1085" 
d="M555 10h150l307 1327h-150zM604 502q-184 0 -298 101t-113 271q0 207 158 340q159 133 407 134h413l-2 -11h-145l-307 -1327h164l-2 -10h-519l2 10h181l114 494q-23 -2 -53 -2z" />
    <glyph glyph-name="section.tab" horiz-adv-x="1085" 
d="M244 692q0 -76 72 -127t210 -104l70 -27q387 53 387 221q0 53 -44 99t-100 72t-106 46t-94 39q-395 -57 -395 -219zM231 692q0 170 394 226q-113 47 -178 101t-65 142q0 89 97 149t221 60t204 -37t113 -85q34 -48 34 -87q1 -39 -21 -39t-22 25q0 31 28 27
q-16 91 -138 149q-76 37 -196 37t-214 -58t-93 -144q0 -86 69 -138q69 -54 165 -94t120 -48q25 -8 77 -34q52 -25 72 -41t48 -41q49 -42 49 -107q0 -172 -385 -229q119 -51 177 -102q59 -51 59 -133q0 -81 -90 -143t-216 -62t-206 37t-115 86t-35 87t23 37q20 0 20 -24
q0 -31 -28 -27q6 -31 30 -63q33 -49 111 -86t198 -37t208 59t88 143t-76 137q-76 55 -230 115t-226 111t-71 131z" />
    <glyph glyph-name="degree.tab" horiz-adv-x="1085" 
d="M618 811q170 0 283 120t113 277q0 121 -79 202t-212 81q-170 0 -283 -121t-112 -278q0 -119 78 -200t212 -81zM618 801q-139 0 -221 83t-82 208q0 164 116 286t292 123q139 0 221 -84t82 -209q0 -162 -116 -284t-292 -123z" />
    <glyph glyph-name="percent.tab" horiz-adv-x="1085" 
d="M748 -4q114 0 192 105t78 247q0 90 -43 144t-119 55q-112 -1 -192 -107t-80 -247q0 -89 44 -143t120 -54zM748 -14q-82 0 -130 56q-47 56 -47 151q0 147 83 256t202 108q82 0 128 -56t46 -153q0 -146 -82 -254t-200 -108zM76 -6l-8 6l1069 1354l8 -6zM354 801
q113 0 192 105t79 247q0 90 -43 144t-119 55q-113 0 -193 -106t-80 -249q0 -90 44 -143t120 -53zM354 791q-82 0 -129 56t-47 150q0 147 83 256t202 109q82 0 128 -56t46 -153q0 -145 -82 -253t-201 -109z" />
    <glyph glyph-name="quotedbl.tab" horiz-adv-x="1085" 
d="M855 1509q11 0 11 -6t-2 -14l-102 -404h-4l84 412q2 12 13 12zM514 1497q2 12 15 12t8 -20l-103 -404h-4z" />
    <glyph glyph-name="quotesingle.tab" horiz-adv-x="542" 
d="M460 1509q12 0 11 -6q0 -6 -2 -14l-102 -404h-5l84 412q2 12 14 12z" />
    <glyph glyph-name="plus.tab" horiz-adv-x="1085" 
d="M690 1012l-76 -322h316l-2 -10h-316l-82 -344h-12l82 344h-317l2 10h317l76 322h12z" />
    <glyph glyph-name="minus.tab" horiz-adv-x="1085" 
d="M283 680l2 10h645l-2 -10h-645z" />
    <glyph glyph-name="divide.tab" horiz-adv-x="1085" 
d="M541 383q-25 0 -25 25t25 24q25 0 24 -24q1 -25 -24 -25zM670 930q-25 0 -25 24t25 25q25 0 24 -25q1 -24 -24 -24zM283 680l2 10h645l-2 -10h-645z" />
    <glyph glyph-name="equal.tab" horiz-adv-x="1085" 
d="M213 500l2 10h645l-2 -10h-645zM291 817l2 10h645l-2 -10h-645z" />
    <glyph glyph-name="multiply.tab" horiz-adv-x="1085" 
d="M340 1008l244 -316l362 295l6 -10l-362 -293l250 -319l-9 -9l-249 320l-367 -297l-6 10l366 297l-243 313z" />
    <glyph glyph-name="less.tab" horiz-adv-x="1085" 
d="M752 293l-439 371v6l609 327l6 -10l-598 -321l430 -365z" />
    <glyph glyph-name="greater.tab" horiz-adv-x="1085" 
d="M442 1026l439 -371v-6l-609 -327l-6 10l598 321l-430 365z" />
    <glyph glyph-name="plusminus.tab" horiz-adv-x="1085" 
d="M170 313l2 11h645l-2 -11h-645zM688 1120l-76 -321h316l-2 -11h-316l-82 -344h-12l82 344h-317l2 11h317l76 321h12z" />
    <glyph glyph-name="zero.idx_P2D" horiz-adv-x="2191" 
d="M764 629q0 -215 94 -349t235 -135q142 1 237 135t95 349t-94 349t-236 134q-143 0 -237 -134t-94 -349zM1093 135q-146 0 -244 137q-97 138 -97 358t98 356t244 136t245 -137t99 -356t-100 -357t-245 -137zM1096 1612q-406 0 -686 -291t-279 -707q0 -416 280 -706
q279 -290 685 -291q406 0 686 291q280 290 278 706q0 416 -279 707t-685 291zM1096 1622q270 0 495 -135t353 -367t129 -506q0 -274 -128 -505q-127 -231 -353 -367t-496 -135q-270 0 -496 135q-225 134 -353 366t-128 506t128 506t353 367q226 135 496 135z" />
    <glyph glyph-name="one.idx_P2D" horiz-adv-x="2191" 
d="M1346 150h-472v10h230v942l-223 -62l-2 11l229 63h8v-954h230v-10zM1096 1612q-406 0 -686 -291t-279 -707q0 -416 280 -706q279 -290 685 -291q406 0 686 291q280 290 278 706q0 416 -279 707t-685 291zM1096 1622q270 0 495 -135t353 -367t129 -506q0 -274 -128 -505
q-127 -231 -353 -367t-496 -135q-270 0 -496 135q-225 134 -353 366t-128 506t128 506t353 367q226 135 496 135z" />
    <glyph glyph-name="two.idx_P2D" horiz-adv-x="2191" 
d="M850 868q-20 0 -21 32q0 32 17 71q62 153 274 153q108 0 178 -66q72 -66 72 -166q0 -99 -58 -173t-173 -158q-264 -195 -332 -401h579v207h13v-217h-602l-4 6q70 217 337 413q111 80 169 153q59 73 59 168t-69 160q-69 64 -170 64q-197 -1 -261 -143q-10 -23 -14 -51
q26 -6 26 -29t-20 -23zM1096 1612q-406 0 -686 -291t-279 -707q0 -416 280 -706q279 -290 685 -291q406 0 686 291q280 290 278 706q0 416 -279 707t-685 291zM1096 1622q270 0 495 -135t353 -367t129 -506q0 -274 -128 -505q-127 -231 -353 -367t-496 -135q-270 0 -496 135
q-225 134 -353 366t-128 506t128 506t353 367q226 135 496 135z" />
    <glyph glyph-name="three.idx_P2D" horiz-adv-x="2191" 
d="M817 306q1 38 21 38t20 -22t-27 -29q4 -33 25 -55q72 -92 211 -92t217 71q78 72 78 178q0 166 -186 228q-57 18 -148 18h-18v10h18q82 0 150 27q166 59 165 217q0 86 -66 149q-67 64 -195 64t-201 -100q-20 -29 -27 -58q27 -6 27 -28q-1 -22 -21 -23q-20 0 -20 35t30 80
q76 104 212 104t204 -66q70 -66 70 -157q0 -164 -174 -227q-37 -14 -74 -21q35 -4 72 -14q195 -63 194 -238q0 -113 -81 -187t-227 -73q-146 0 -220 96q-29 37 -29 75zM1096 1612q-406 0 -686 -291t-279 -707q0 -416 280 -706q279 -290 685 -291q406 0 686 291
q280 290 278 706q0 416 -279 707t-685 291zM1096 1622q270 0 495 -135t353 -367t129 -506q0 -274 -128 -505q-127 -231 -353 -367t-496 -135q-270 0 -496 135q-225 134 -353 366t-128 506t128 506t353 367q226 135 496 135z" />
    <glyph glyph-name="four.idx_P2D" horiz-adv-x="2191" 
d="M930 150v10h229v297h-473l-4 4l500 665l10 -6l-492 -653h459v342l12 4v-346h224v-10h-224v-297h199v-10h-440zM1096 1612q-406 0 -686 -291t-279 -707q0 -416 280 -706q279 -290 685 -291q406 0 686 291q280 290 278 706q0 416 -279 707t-685 291zM1096 1622
q270 0 495 -135t353 -367t129 -506q0 -274 -128 -505q-127 -231 -353 -367t-496 -135q-270 0 -496 135q-225 134 -353 366t-128 506t128 506t353 367q226 135 496 135z" />
    <glyph glyph-name="five.idx_P2D" horiz-adv-x="2191" 
d="M1084 139q-116 0 -196 50q-79 50 -79 110q0 33 19 33q20 0 20 -23t-25 -28q16 -51 88 -91q71 -40 177 -40t189 80t83 208q0 129 -82 202t-206 73t-216 -49l-6 4l45 440h422v-10h-410l-43 -418q90 43 214 43t209 -76t85 -209t-86 -216t-202 -83zM1096 1612
q-406 0 -686 -291t-279 -707q0 -416 280 -706q279 -290 685 -291q406 0 686 291q280 290 278 706q0 416 -279 707t-685 291zM1096 1622q270 0 495 -135t353 -367t129 -506q0 -274 -128 -505q-127 -231 -353 -367t-496 -135q-270 0 -496 135q-225 134 -353 366t-128 506
t128 506t353 367q226 135 496 135z" />
    <glyph glyph-name="six.idx_P2D" horiz-adv-x="2191" 
d="M803 434q0 -125 83 -208t205 -83q121 0 205 87t84 209t-81 202t-207 80t-207 -81q-82 -81 -82 -206zM1327 952q-20 0 -20 23t24 29q-6 23 -26 43q-59 63 -168 63q-143 0 -243 -143t-99 -418v-66q14 109 96 179t208 70t210 -84q84 -83 84 -210t-87 -216t-215 -89t-218 90
q-91 89 -91 347t104 404t251 146q115 0 176 -65q35 -35 35 -69t-21 -34zM1096 1612q-406 0 -686 -291t-279 -707q0 -416 280 -706q279 -290 685 -291q406 0 686 291q280 290 278 706q0 416 -279 707t-685 291zM1096 1622q270 0 495 -135t353 -367t129 -506q0 -274 -128 -505
q-127 -231 -353 -367t-496 -135q-270 0 -496 135q-225 134 -353 366t-128 506t128 506t353 367q226 135 496 135z" />
    <glyph glyph-name="seven.idx_P2D" horiz-adv-x="2191" 
d="M842 1071v-194h-13v204h605l2 -4l-422 -952h-13l420 946h-579zM1096 1612q-406 0 -686 -291t-279 -707q0 -416 280 -706q279 -290 685 -291q406 0 686 291q280 290 278 706q0 416 -279 707t-685 291zM1096 1622q270 0 495 -135t353 -367t129 -506q0 -274 -128 -505
q-127 -231 -353 -367t-496 -135q-270 0 -496 135q-225 134 -353 366t-128 506t128 506t353 367q226 135 496 135z" />
    <glyph glyph-name="eight.idx_P2D" horiz-adv-x="2191" 
d="M1096 147q122 0 202 72t80 177t-82 175t-200 70t-201 -70q-82 -70 -82 -175t81 -177t202 -72zM1096 649q110 0 186 66t76 163q0 96 -75 164t-187 68t-188 -68q-74 -68 -74 -164t76 -163q76 -66 186 -66zM1096 137q-125 0 -210 75t-85 177t66 171q67 69 167 85
q-94 16 -153 81t-59 160t77 165q78 69 197 69q118 0 196 -70t78 -164q0 -95 -59 -160t-154 -81q104 -16 169 -85q65 -70 65 -172t-85 -176t-210 -75zM1096 1612q-406 0 -686 -291t-279 -707q0 -416 280 -706q279 -290 685 -291q406 0 686 291q280 290 278 706
q0 416 -279 707t-685 291zM1096 1622q270 0 495 -135t353 -367t129 -506q0 -274 -128 -505q-127 -231 -353 -367t-496 -135q-270 0 -496 135q-225 134 -353 366t-128 506t128 506t353 367q226 135 496 135z" />
    <glyph glyph-name="nine.idx_P2D" horiz-adv-x="2191" 
d="M1393 819q0 125 -83 208t-205 83t-206 -87t-84 -209t81 -202t207 -80t208 81t82 206zM848 267q0 34 19 34q19 1 19 -21t-22 -30q8 -25 27 -43q59 -63 168 -64q143 -1 243 143t99 419v65q-14 -108 -96 -178t-208 -70t-210 83t-84 210t87 216t215 89t218 -89t90 -347
t-103 -404t-251 -147q-111 0 -176 66q-35 34 -35 68zM1096 1612q-406 0 -686 -291t-279 -707q0 -416 280 -706q279 -290 685 -291q406 0 686 291q280 290 278 706q0 416 -279 707t-685 291zM1096 1622q270 0 495 -135t353 -367t129 -506q0 -274 -128 -505
q-127 -231 -353 -367t-496 -135q-270 0 -496 135q-225 134 -353 366t-128 506t128 506t353 367q226 135 496 135z" />
    <glyph glyph-name="space.tab" horiz-adv-x="542" 
 />
    <glyph glyph-name="NUL" 
 />
    <glyph glyph-name="hfjslug" horiz-adv-x="1421" 
d="M872 580q-33 0 -32 34q0 12 9 24t23 11q14 0 24 -11t9 -24q0 -34 -33 -34zM997 612h-22v35h22q20 0 21 -16q-1 -19 -21 -19zM659 823q-33 0 -33 45t33 78l41 -80q-16 -43 -41 -43zM645 1056q0 30 29 29q27 -1 27 -35t-31 -69q-25 45 -25 75zM494 662l28 -97h17l22 70h2
l23 -70h16l29 97h-17l-20 -72h-2l-23 72h-14l-23 -72h-2l-20 72h-16zM270 662v-95h17v66l51 -66h14v95h-16v-66l-51 66h-15zM395 662v-95h70v15h-53v26h47v15h-47v24h53v15h-70zM750 567h16v35l37 60h-19l-26 -46l-27 46h-18l37 -60v-35zM872 565q20 1 34 15q33 33 1 68
q-15 16 -35 16t-34 -16t-14 -34q0 -20 14 -34t34 -15zM1034 631q0 31 -35 31h-41v-95h17v31h24l21 -31h18l-24 35q20 8 20 29zM1071 662v-95h16v25l17 16l31 -41h20l-41 54l37 41h-21l-40 -50h-3v50h-16zM729 1038q0 72 -55 72q-25 0 -41 -19q-17 -19 -17 -45t29 -79
q-47 -37 -47 -83q0 -91 59 -89q39 0 60 49h2l24 -49l25 12l-35 65q13 29 27 80l-27 6q-8 -37 -16 -61h-2l-33 64q47 43 47 77zM985 799q63 0 64 73v281h-33v-281q0 -45 -33 -45q-16 0 -41 11v-31q20 -8 43 -8zM377 1153v-352h31v162h96v-162h31v352h-31v-162h-96v162h-31z
M819 1153v-352h31v160h78v28h-78v135h88v29h-119zM1319 -410h-426l-16 29h-334l-17 -29h-424v621q29 0 48 19q18 19 18 46q0 26 -20 46t-46 20v1135h205l62 161h684l59 -161h207v-1887z" />
    <glyph glyph-name="i.dot" horiz-adv-x="503" 
d="M264 -2q87 0 146 164l10 -2q-33 -92 -69 -132t-88 -40t-81 32q-28 32 -28 83q0 52 32 163l164 551h-178l2 10h191l-166 -561q-33 -106 -33 -158t27 -82q27 -28 71 -28zM391 1094q-25 0 -25 24t26 25q24 -1 24 -25t-25 -24z" />
    <glyph glyph-name="zero.num" horiz-adv-x="722" 
d="M369 578q133 0 219 144t86 335q0 119 -52 191t-143 71q-133 0 -219 -144t-86 -335q0 -119 51 -191q52 -71 144 -71zM369 567q-98 0 -153 75q-54 75 -54 198q0 197 89 343t228 146q95 0 151 -75t56 -197q0 -195 -90 -343t-227 -147z" />
    <glyph glyph-name="one.num" horiz-adv-x="722" 
d="M156 573l2 11h211l172 727l-240 -80v12l248 82l6 -4l-174 -737h207l-2 -11h-430z" />
    <glyph glyph-name="two.num" horiz-adv-x="722" 
d="M694 1161q0 68 -52 112t-142 44t-159 -47t-75 -103q12 2 22 -6t9 -20q0 -23 -22 -23t-21 39q0 61 73 115t171 55q98 0 153 -46t55 -121t-58 -129q-60 -54 -148 -102q-88 -47 -122 -67q-131 -79 -181 -147t-72 -131h450l43 180h13l-45 -191h-471l-4 7q59 169 254 286
q39 25 104 60q225 113 225 235z" />
    <glyph glyph-name="three.num" horiz-adv-x="722" 
d="M637 772q-1 -78 -75 -142t-180 -63q-106 0 -172 49q-67 48 -67 98q-1 50 21 50t22 -23q0 -12 -9 -20t-21 -6q6 -53 68 -95t161 -42t169 60t71 140q-1 80 -55 128t-138 48h-47l2 11h39q108 0 184 57t76 131t-55 119t-143 45t-145 -36q-58 -36 -64 -81q31 4 30 -24
q1 -23 -21 -23t-22 44t62 87t157 43q93 0 153 -48t60 -120t-62 -129t-159 -72q72 -10 116 -59t44 -127z" />
    <glyph glyph-name="four.num" horiz-adv-x="722" 
d="M451 584l53 231h-377l-2 8l508 502l8 -8l-498 -492h363l55 236l14 8l-57 -244h152l-2 -10h-152l-53 -231h123l-2 -11h-279l2 11h144z" />
    <glyph glyph-name="five.num" horiz-adv-x="722" 
d="M330 563q-80 0 -139 41q-58 41 -58 83t23 42q18 0 18 -20q0 -9 -8 -17t-21 -6q7 -43 61 -78t124 -35q127 0 213 77t86 186q1 74 -53 120t-150 48q-96 0 -190 -37l-7 4l113 340h373l-2 -11h-363l-106 -319q88 33 186 33t154 -49t57 -129q0 -113 -89 -193t-222 -80z" />
    <glyph glyph-name="six.num" horiz-adv-x="722" 
d="M184 772q0 -86 56 -140t149 -54q92 0 167 76t75 165q0 88 -52 138q-51 51 -145 51t-172 -75t-78 -161zM166 790q0 104 47 234q47 131 135 216t176 85t130 -35q42 -34 42 -74t-24 -40q-18 0 -19 20q0 29 31 29q-6 35 -44 63t-101 27q-96 0 -189 -88q-78 -78 -125 -204
t-47 -222q16 90 92 153q76 64 169 64t149 -52t55 -146q0 -94 -79 -173q-78 -79 -176 -79t-160 59t-62 163z" />
    <glyph glyph-name="seven.num" horiz-adv-x="722" 
d="M248 573l497 732h-448l-33 -142h-12l35 152h471l4 -6l-500 -736h-14z" />
    <glyph glyph-name="eight.num" horiz-adv-x="722" 
d="M382 578q99 0 176 56t77 139t-66 135q-65 52 -163 52t-174 -58q-76 -60 -76 -141t64 -132t162 -51zM256 1137q0 -74 62 -122t150 -48q89 0 162 55q72 55 72 128t-59 121t-152 48t-164 -54t-71 -128zM647 765q0 -79 -81 -139t-184 -59t-171 55t-68 138t75 145t171 64
q-59 14 -102 59t-43 116t74 128q76 57 174 57t160 -51t62 -126t-65 -128q-66 -53 -160 -66q70 -20 114 -67t44 -126z" />
    <glyph glyph-name="nine.num" horiz-adv-x="722" 
d="M479 1315q-92 0 -167 -77q-74 -77 -74 -165t52 -138t145 -50q93 1 171 75t78 160t-53 140q-60 55 -152 55zM480 1325q98 0 160 -59q62 -58 62 -162t-47 -236t-135 -216q-88 -85 -176 -85t-130 35t-42 75t25 40q18 0 18 -21q0 -29 -31 -28q6 -35 44 -63t102 -27
q96 0 181 83t131 207t48 224q-16 -90 -92 -154t-169 -64t-148 52t-55 146q0 93 78 173t176 80z" />
    <glyph glyph-name="zero.den" horiz-adv-x="722" 
d="M236 4q133 0 219 144t86 335q-1 119 -53 191t-142 71q-133 0 -219 -144t-86 -335q-1 -118 51 -190t144 -72zM236 -6q-98 0 -153 75q-54 75 -54 197q0 197 89 343t228 147q96 0 152 -75t55 -198q0 -195 -90 -342t-227 -147z" />
    <glyph glyph-name="one.den" horiz-adv-x="722" 
d="M23 0l2 10h211l172 727l-240 -80v13l248 82l6 -4l-174 -738h207l-2 -10h-430z" />
    <glyph glyph-name="two.den" horiz-adv-x="722" 
d="M561 588q0 68 -52 112t-142 43q-90 0 -159 -47t-75 -102q11 2 21 -6t10 -21q0 -23 -21 -22q-23 0 -22 39q0 61 73 115q73 55 171 55t153 -46t55 -121t-59 -129q-60 -54 -148 -102t-120 -68q-127 -74 -180 -144q-52 -70 -74 -134h450l43 180h13l-45 -190h-471l-5 6
q46 132 150 212t209 134q225 113 225 236z" />
    <glyph glyph-name="three.den" horiz-adv-x="722" 
d="M504 199q0 -77 -74 -141t-180 -64t-173 49t-67 99t23 48q20 0 20 -22q0 -12 -9 -20t-21 -7q6 -53 68 -95t161 -42q100 0 170 60t70 141q0 80 -54 128t-139 48h-47l2 10h39q109 -1 185 57t75 132q0 74 -55 118q-54 44 -142 45t-146 -35t-65 -81q31 4 31 -25q0 -23 -20 -22
q-23 0 -23 44q1 44 63 86q62 44 156 44t154 -48t59 -120q0 -72 -62 -129t-159 -72q72 -10 116 -59t44 -127z" />
    <glyph glyph-name="four.den" horiz-adv-x="722" 
d="M317 10l54 232h-377l-2 8l508 502l8 -9l-498 -491h363l55 235l14 9l-57 -244h152l-2 -10h-152l-53 -232h123l-2 -10h-279l2 10h143z" />
    <glyph glyph-name="five.den" horiz-adv-x="722" 
d="M197 -10q-80 0 -139 41q-58 41 -58 83t23 42q18 0 18 -21q0 -10 -8 -17t-21 -5q8 -43 62 -78t123 -35q127 0 213 77t86 185q0 74 -54 121t-149 47q-96 0 -191 -37l-6 4l113 340h373l-2 -10h-363l-106 -319q88 32 186 32q99 0 155 -49t56 -129q0 -112 -89 -192t-222 -80z
" />
    <glyph glyph-name="six.den" horiz-adv-x="722" 
d="M256 4q92 0 167 77t75 165t-52 138t-146 50q-93 0 -171 -75t-78 -161t53 -139q60 -55 152 -55zM254 -6q-98 0 -159 59q-62 59 -62 163t47 234q47 132 135 217q89 85 177 85t130 -35t41 -75q0 -40 -24 -40q-18 0 -19 21q0 29 31 28q-6 35 -44 63t-101 27q-96 0 -189 -88
q-78 -77 -125 -203t-47 -223q16 89 92 153t169 64q92 0 148 -52t56 -145t-79 -173t-177 -80z" />
    <glyph glyph-name="seven.den" horiz-adv-x="722" 
d="M115 0l497 731h-448l-33 -141h-12l35 151h471l4 -6l-500 -735h-14z" />
    <glyph glyph-name="eight.den" horiz-adv-x="722" 
d="M249 4q99 0 176 56t77 140t-66 135q-66 52 -164 52t-174 -59q-76 -58 -76 -140t64 -133t163 -51zM335 393q89 -1 162 55t73 129t-60 121q-58 48 -152 47q-94 0 -164 -54t-71 -128t61 -122t151 -48zM514 192q0 -78 -81 -138t-184 -60t-171 54t-68 138t75 146t171 63
q-59 13 -102 59t-43 116t74 128q75 58 173 58t160 -51t64 -126q0 -75 -66 -128t-160 -66q70 -19 114 -67t44 -126z" />
    <glyph glyph-name="nine.den" horiz-adv-x="722" 
d="M346 741q-92 -1 -167 -77t-75 -164t52 -139q52 -50 146 -50q93 0 171 75t78 161t-53 139q-60 55 -152 55zM92 498q0 94 79 174t177 80t159 -60q62 -58 62 -162t-47 -235t-135 -216t-176 -85t-130 35t-42 75t24 39q18 0 19 -20q0 -29 -31 -29q6 -34 44 -62t102 -28
q96 0 181 83t131 208t48 223q-16 -90 -92 -153t-169 -63t-149 51q-55 52 -55 145z" />
    <glyph glyph-name="caron.alt" horiz-adv-x="1024" 
d="M555 1468q0 14 10 15q10 0 10 -28q1 -28 -27 -105t-71 -138l-4 2q82 126 82 254z" />
    <glyph glyph-name="g.sc" 
 />
    <glyph glyph-name="gbreve.sc" 
 />
    <glyph glyph-name="i.sc" 
 />
    <glyph glyph-name="iacute.sc" 
 />
    <glyph glyph-name="ibreve.sc" 
 />
    <glyph glyph-name="icircumflex.sc" 
 />
    <glyph glyph-name="idieresis.sc" 
 />
    <glyph glyph-name="igrave.sc" 
 />
    <glyph glyph-name="imacron.sc" 
 />
    <glyph glyph-name="iogonek.sc" 
 />
    <glyph glyph-name="S.sc" 
 />
    <glyph glyph-name="Sacute.sc" 
 />
    <glyph glyph-name="Aring.sc" 
 />
    <glyph glyph-name="Aringacute.sc" 
 />
    <glyph glyph-name="E.sc" 
 />
    <glyph glyph-name="Eacute.sc" 
 />
    <glyph glyph-name="Ebreve.sc" 
 />
    <glyph glyph-name="Ecircumflex.sc" 
 />
    <glyph glyph-name="Edieresis.sc" 
 />
    <glyph glyph-name="Egrave.sc" 
 />
    <glyph glyph-name="Emacron.sc" 
 />
    <glyph glyph-name="Eogonek.sc" 
 />
    <glyph glyph-name="N.sc" 
 />
    <glyph glyph-name="Nacute.sc" 
 />
    <glyph glyph-name="Ntilde.sc" 
 />
    <glyph glyph-name="a.sc" 
 />
    <glyph glyph-name="aogonek.sc" 
 />
    <glyph glyph-name="L.sc" 
 />
    <glyph glyph-name="Lacute.sc" 
 />
    <glyph glyph-name="s.sc" 
 />
    <glyph glyph-name="sacute.sc" 
 />
    <glyph glyph-name="aring.sc" 
 />
    <glyph glyph-name="aringacute.sc" 
 />
    <glyph glyph-name="C.sc" 
 />
    <glyph glyph-name="Cacute.sc" 
 />
    <glyph glyph-name="e.sc" 
 />
    <glyph glyph-name="eacute.sc" 
 />
    <glyph glyph-name="ebreve.sc" 
 />
    <glyph glyph-name="ecircumflex.sc" 
 />
    <glyph glyph-name="edieresis.sc" 
 />
    <glyph glyph-name="egrave.sc" 
 />
    <glyph glyph-name="emacron.sc" 
 />
    <glyph glyph-name="eogonek.sc" 
 />
    <glyph glyph-name="n.sc" 
 />
    <glyph glyph-name="nacute.sc" 
 />
    <glyph glyph-name="ntilde.sc" 
 />
    <glyph glyph-name="l.sc" 
 />
    <glyph glyph-name="lacute.sc" 
 />
    <glyph glyph-name="c.sc" 
 />
    <glyph glyph-name="cacute.sc" 
 />
    <glyph glyph-name="R.sc" 
 />
    <glyph glyph-name="Racute.sc" 
 />
    <glyph glyph-name="G.sc" 
 />
    <glyph glyph-name="Gbreve.sc" 
 />
    <glyph glyph-name="I.sc" 
 />
    <glyph glyph-name="Iacute.sc" 
 />
    <glyph glyph-name="Ibreve.sc" 
 />
    <glyph glyph-name="Icircumflex.sc" 
 />
    <glyph glyph-name="Idieresis.sc" 
 />
    <glyph glyph-name="Igrave.sc" 
 />
    <glyph glyph-name="Imacron.sc" 
 />
    <glyph glyph-name="Iogonek.sc" 
 />
    <glyph glyph-name="r.sc" 
 />
    <glyph glyph-name="racute.sc" 
 />
    <glyph glyph-name="A.sc" 
 />
    <glyph glyph-name="Aogonek.sc" 
 />
    </font>
</defs>
</svg>
