<?xml version="1.0" standalone="no"?>
<!DOCTYPE svg PUBLIC "-//W3C//DTD SVG 1.1//EN" "http://www.w3.org/Graphics/SVG/1.1/DTD/svg11.dtd" >
<svg xmlns="http://www.w3.org/2000/svg">
<metadata>
Created by FontPrep 20130207 at Sun Apr  5 22:22:54 2015
 By Tina Kumar
Copyright (C) 2000, 2007 Hoefler &#38; Frere-Jones. http://www.typography.com
</metadata>
<defs>
<font id="46d67fde734bddb3e92058d882158e8f" horiz-adv-x='1024' >
  <font-face 
    font-family="Archer-Light"
    font-weight="300"
    font-stretch="normal"
    units-per-em="2048"
    panose-1="0 0 0 0 0 0 0 0 0 0"
    ascent="1638"
    descent="-410"
    x-height="852"
    cap-height="1348"
    bbox="-96 -498 2810 2021.69"
    underline-thickness="102"
    underline-position="-102"
    unicode-range="U+0020-FB04"
  />
<missing-glyph horiz-adv-x="1030" 
d="M516 492l-366 -799h733zM926 1384l-353 -770l353 -770v1540zM106 -156l353 770l-353 770v-1540zM150 1536l366 -799l367 799h-733zM4 -410v2048h1024v-2048h-1024z" />
    <glyph glyph-name="f_f" unicode="ff" horiz-adv-x="1140" 
d="M860 1200v-348h225v-68h-225v-716h170v-68h-393v68h147v716h-471v-716h170v-68h-393v68h148v716h-158v68h158v289q0 186 74 259t167 73q55 0 89 -23t34 -57q0 -68 -64 -68t-75 80q-53 -4 -90 -45q-59 -63 -60 -201v-307h471v330q0 186 73 259t167 72q55 -1 89 -23t34 -56
q1 -34 -17 -51t-45 -17q-68 0 -77 78q-148 -11 -148 -244z" />
    <glyph glyph-name="fi" unicode="fi" horiz-adv-x="1050" 
d="M827 852v-784h160v-68h-391v68h156v716h-439v-716h170v-68h-393v68h148v716h-158v68h158v299q0 205 102 295q72 66 163 66t137 -34q46 -32 46 -70t-18 -57t-51 -19t-52 32q-18 33 -6 70q-25 10 -51 10q-72 0 -134 -70t-61 -205v-317h514z" />
    <glyph glyph-name="fl" unicode="fl" horiz-adv-x="1071" 
d="M545 1446q-94 0 -162 -64q-70 -74 -70 -208v-322h459v326q0 25 -2 36q-27 2 -44 22t-17 51q0 32 26 52q-27 37 -33 43q-63 64 -157 64zM612 68h160v716h-459v-716h170v-68h-393v68h148v716h-158v68h158v317q0 169 87 257t223 88t212 -80l16 -19l29 86h43v-1433h160v-68
h-396v68z" />
    <glyph glyph-name="f_f_i" unicode="ffi" horiz-adv-x="1589" 
d="M725 1350q0 -68 -61 -68q-39 0 -59 33q-19 33 -7 74q-39 16 -76 16q-96 0 -152 -68t-57 -198v-287h465v299q0 205 101 295q74 66 165 66t137 -34q46 -32 46 -70q1 -38 -19 -57t-53 -19t-51 32q-18 33 -6 70q-20 10 -49 10q-68 0 -123 -55q-72 -76 -72 -220v-317h514v-784
h158v-68h-391v68h157v716h-438v-716h168v-68h-391v68h147v716h-465v-716h170v-68h-393v68h148v716h-158v68h158v287q0 164 84 254q78 78 204 77q66 0 115 -20q84 -32 84 -100z" />
    <glyph glyph-name="f_f_l" unicode="ffl" horiz-adv-x="1605" 
d="M854 1174v-322h457v326q0 25 -2 36q-27 2 -43 22t-16 51q0 32 24 52q-58 106 -191 107q-93 0 -161 -66t-68 -206zM725 1348q0 -66 -61 -66q-41 0 -60 35q-18 35 -6 74q-35 14 -76 14q-96 1 -152 -67t-57 -199v-287h465v317q0 169 87 257t223 88t212 -82l15 -17l28 86h43
v-1433h160v-68h-395v68h160v716h-457v-716h170v-68h-393v68h147v716h-465v-716h170v-68h-393v68h148v716h-158v68h158v287q0 164 84 254q78 78 204 77q72 0 119 -22q80 -34 80 -100z" />
    <glyph glyph-name="f_b" unicode="fb" horiz-adv-x="1683" 
d="M709 1287q0 32 26 52q-27 37 -33 43q-63 64 -157 64t-162 -64q-70 -74 -70 -208v-322h459v326q0 25 -2 36q-27 2 -44 22t-17 51zM1146 53q165 1 263 105t98 267t-95 268t-245 106q-186 0 -319 -158v-465q133 -123 298 -123zM772 0v784h-459v-716h170v-68h-393v68h148v716
h-158v68h158v317q0 169 87 257t223 88t212 -80l16 -19l29 86h43v-784q138 149 320 149t300 -125t119 -314q0 -189 -122 -315t-303 -126t-316 120l-33 -106h-41z" />
    <glyph glyph-name="f_h" unicode="fh" horiz-adv-x="1658" 
d="M709 1287q0 32 26 52q-27 37 -33 43q-63 64 -157 64t-162 -64q-70 -74 -70 -208v-322h459v326q0 25 -2 36q-27 2 -44 22t-17 51zM1374 563q0 234 -205 234q-168 0 -321 -187v-542h147v-68h-372v68h149v716h-459v-716h170v-68h-393v68h148v716h-158v68h158v317
q0 169 87 257t223 88t212 -80l16 -19l29 86h43v-819q150 184 334 184q145 0 215 -96q53 -72 53 -197v-505h147v-68h-372v68h149v495z" />
    <glyph glyph-name="f_j" unicode="fj" horiz-adv-x="993" 
d="M586 -346q166 0 166 334v796h-439v-716h170v-68h-393v68h148v716h-158v68h158v299q0 205 102 295q72 66 163 66t137 -34q46 -32 46 -70t-18 -57t-51 -19t-52 32q-18 33 -6 70q-25 10 -51 10q-72 0 -134 -70t-61 -205v-317h514v-854q0 -141 -28 -234q-53 -174 -217 -174
q-68 0 -110 31t-42 69q0 81 62 81q24 1 40 -17t16 -45t-13 -43q18 -12 51 -12z" />
    <glyph glyph-name="f_k" unicode="fk" horiz-adv-x="1593" 
d="M313 1174v-322h459v326q0 25 -2 36q-27 2 -44 22t-17 51q0 32 26 52q-27 37 -33 43q-63 64 -157 64t-162 -64q-70 -73 -70 -208zM848 1501v-1118l444 403h-200v66h452v-68h-153l-310 -278l308 -438h155v-68h-198l-320 465l-178 -164v-233h151v-68h-376v68h149v716h-459
v-716h170v-68h-393v68h148v716h-158v68h158v317q0 169 87 257t223 88t212 -80l16 -19l29 86h43z" />
    <glyph glyph-name="f_f_b" unicode="ffb" horiz-adv-x="2224" 
d="M854 1174v-322h457v326q0 25 -2 36q-27 2 -43 22t-17 51q0 32 25 52q-58 106 -191 107q-93 0 -161 -67t-68 -205zM1685 53q165 1 263 105t98 268t-94 268t-246 105q-186 0 -320 -158v-465q134 -123 299 -123zM725 1348q0 -66 -61 -66q-41 0 -60 35q-18 35 -6 74
q-35 14 -76 14q-96 0 -152 -68t-57 -198v-287h465v317q0 169 87 257t223 88t212 -82l15 -17l28 86h43v-784q140 149 322 149t300 -125t118 -315t-121 -315t-304 -125t-315 120l-34 -106h-41v784h-457v-716h170v-68h-393v68h147v716h-465v-716h170v-68h-393v68h148v716h-158
v68h158v287q0 164 84 254q78 78 204 77q72 0 119 -22q80 -34 80 -100z" />
    <glyph glyph-name="f_f_h" unicode="ffh" horiz-adv-x="2197" 
d="M854 1174v-322h457v326q0 25 -2 36q-27 2 -43 22t-16 51q0 32 24 52q-58 106 -191 107q-93 0 -161 -66t-68 -206zM725 1348q0 -66 -61 -66q-41 0 -60 35q-18 35 -6 74q-35 14 -76 14q-96 0 -152 -68t-57 -198v-287h465v317q0 169 87 257t223 88t212 -82l15 -17l28 86h43
v-819q150 184 336 184q145 0 215 -96q51 -72 52 -197v-505h149v-68h-373v68h148v495q0 234 -203 234q-168 0 -324 -187v-542h148v-68h-373v68h150v716h-457v-716h170v-68h-393v68h147v716h-465v-716h170v-68h-393v68h148v716h-158v68h158v287q0 164 84 254q78 78 204 77
q72 0 119 -22q80 -34 80 -100z" />
    <glyph glyph-name="f_f_j" unicode="ffj" horiz-adv-x="1531" 
d="M725 1350q0 -68 -61 -68q-41 0 -60 34q-18 34 -6 75q-35 14 -76 14q-96 0 -152 -68t-57 -198v-287h465v299q0 205 101 295q74 66 165 66t137 -34q46 -32 46 -70q1 -38 -19 -57t-53 -19t-51 32q-18 33 -6 70q-20 10 -49 10q-68 0 -123 -55q-72 -76 -72 -220v-317h514v-854
q0 -408 -248 -408q-68 0 -110 32t-41 69q0 37 17 59t44 21q27 1 43 -17q17 -18 17 -43t-15 -45q14 -12 49 -12q106 0 146 137q23 78 22 197v796h-438v-716h168v-68h-391v68h147v716h-465v-716h170v-68h-393v68h148v716h-158v68h158v287q0 164 84 254q78 78 204 77
q66 0 115 -20q84 -32 84 -100z" />
    <glyph glyph-name="f_f_k" unicode="ffk" horiz-adv-x="2131" 
d="M854 1174v-322h457v326q0 25 -2 36q-27 2 -43 22t-16 51q0 32 24 52q-58 106 -191 107q-93 0 -161 -66t-68 -206zM725 1348q0 -66 -61 -66q-41 0 -60 35q-18 35 -6 74q-35 14 -76 14q-96 0 -152 -68t-57 -198v-287h465v317q0 169 87 257t223 88t212 -82l15 -17l28 86h43
v-1118l447 403h-203v66h453v-68h-152l-311 -278l309 -438h154v-68h-199l-317 465l-181 -164v-233h154v-68h-379v68h150v716h-457v-716h170v-68h-393v68h147v716h-465v-716h170v-68h-393v68h148v716h-158v68h158v287q0 164 84 254q78 78 204 77q72 0 119 -22q80 -34 80 -100z
" />
    <glyph glyph-name=".notdef" horiz-adv-x="1030" 
d="M516 492l-366 -799h733zM926 1384l-353 -770l353 -770v1540zM106 -156l353 770l-353 770v-1540zM150 1536l366 -799l367 799h-733zM4 -410v2048h1024v-2048h-1024z" />
    <glyph glyph-name=".null" horiz-adv-x="0" 
 />
    <glyph glyph-name="nonmarkingreturn" horiz-adv-x="681" 
 />
    <glyph glyph-name="space" unicode=" " horiz-adv-x="456" 
 />
    <glyph glyph-name="exclam" unicode="!" horiz-adv-x="464" 
d="M232 -16q-34 0 -58 24t-22 58q0 36 24 60t56 24q34 0 58 -25t24 -59t-24 -58t-58 -24zM211 342l-29 1006h101l-29 -1006h-43z" />
    <glyph glyph-name="quotedbl" unicode="&#x22;" horiz-adv-x="546" 
d="M139 1368q74 0 58 -96l-43 -318h-31l-43 318q-6 44 10 70t49 26zM408 1368q33 0 49 -26t8 -70l-43 -318h-31l-43 318q-12 96 60 96z" />
    <glyph glyph-name="numbersign" unicode="#" horiz-adv-x="997" 
d="M373 684l-54 -334h304l53 334h-303zM98 684v68h215l43 270h68l-43 -270h305l43 270h68l-43 -270h207v-68h-218l-51 -334h205v-67h-215l-43 -283h-70l43 283h-303l-43 -283h-69l43 283h-205v67h215l53 334h-205z" />
    <glyph glyph-name="dollar" unicode="$" horiz-adv-x="884" 
d="M203 774q0 -80 56 -122t165 -79l29 385q-111 -2 -181 -53t-69 -131zM715 261q1 87 -59 134t-175 86l-32 -420q121 1 193 57t73 143zM774 840q0 -64 -59 -64q-25 0 -44 18t-19 46q0 29 22 51q-39 47 -158 63l-31 -401q131 -45 218 -106q87 -60 86 -183q-1 -122 -96 -192
t-249 -72l-16 -213l-63 4l16 211q-125 10 -210 66t-85 131q0 31 17 51t45 20t46 -18t17 -48q0 -30 -27 -50q41 -72 201 -91l33 439q-132 47 -188 86t-77 81q-22 42 -22 99q0 112 92 182t234 70l12 149l63 -6l-12 -147q114 -12 184 -62t70 -114z" />
    <glyph glyph-name="percent" unicode="%" horiz-adv-x="1243" 
d="M244 -43l-54 39l791 1032l53 -37l-397 -518q-377 -489 -393 -516zM906 395q-68 0 -112 -51t-44 -123t44 -123t112 -51t113 51q44 51 44 123t-44 123t-113 51zM337 629q69 0 113 50t44 123t-44 124t-113 51t-113 -51t-44 -124t44 -123t113 -50zM337 567q-95 0 -161 69
t-66 166t66 166q66 68 161 68t161 -68t66 -166q0 -97 -66 -166t-161 -69zM906 457q95 0 161 -69t66 -167t-66 -167q-66 -68 -161 -68t-161 68t-65 167q0 98 65 167q66 69 161 69z" />
    <glyph glyph-name="ampersand" unicode="&#x26;" horiz-adv-x="1202" 
d="M295 964q0 -108 125 -247q141 83 198 151q58 68 58 149t-49 130t-133 49t-142 -62q-57 -62 -57 -170zM424 55q215 0 375 189l-244 233q-90 84 -154 154q-129 -80 -191 -159t-62 -179t72 -169q73 -69 204 -69zM1155 561h-123q-55 -176 -143 -309q231 -219 241 -225
l-49 -52l-235 222q-174 -211 -422 -211q-166 0 -261 89t-95 214t73 215q74 90 215 176q-78 86 -109 154q-32 68 -32 143q0 115 80 201t197 86q116 0 190 -69t74 -169t-70 -183t-221 -175q97 -103 375 -369q80 121 125 262h-125v66h315v-66z" />
    <glyph glyph-name="quotesingle" unicode="'" horiz-adv-x="280" 
d="M139 1368q74 0 58 -96l-43 -318h-31l-43 318q-6 44 10 70t49 26z" />
    <glyph glyph-name="parenleft" unicode="(" horiz-adv-x="657" 
d="M141 532q0 287 132 555t386 439l46 -60q-240 -162 -362 -414t-122 -518q0 -268 122 -521t362 -414l-46 -60q-254 170 -386 438t-132 555z" />
    <glyph glyph-name="parenright" unicode=")" horiz-adv-x="657" 
d="M434 531q0 267 -122 521t-359 414l43 60q254 -170 387 -440t133 -554q0 -285 -133 -554t-387 -439l-43 60q237 165 359 415t122 517z" />
    <glyph glyph-name="asterisk" unicode="*" horiz-adv-x="745" 
d="M373 1436q27 0 40 -23t5 -57l-31 -199l180 92q27 15 55 11t36 -30t-10 -46q-17 -20 -52 -23l-199 -33l142 -139q55 -51 12 -92q-23 -18 -47 -7t-41 44l-90 180l-90 -180q-12 -31 -37 -43t-49 4q-20 16 -18 43q3 27 30 51l141 139l-198 33q-34 3 -52 23t-10 46t36 30
t54 -11l178 -92l-32 199q-6 36 7 58t40 22z" />
    <glyph glyph-name="plus" unicode="+" horiz-adv-x="798" 
d="M362 223v281h-276v71h276v281h74v-281h277v-71h-277v-281h-74z" />
    <glyph glyph-name="comma" unicode="," horiz-adv-x="342" 
d="M88 76q0 34 23 56t57 22t60 -30t26 -98t-54 -147q-54 -80 -157 -137l-18 31q139 111 143 221q-36 4 -58 26t-22 56z" />
    <glyph glyph-name="hyphen" unicode="-" horiz-adv-x="536" 
d="M72 520v78h393v-78h-393z" />
    <glyph glyph-name="period" unicode="." horiz-adv-x="342" 
d="M171 -16q-35 0 -59 24t-24 61t24 61t60 24t58 -25q24 -25 24 -61t-24 -60t-59 -24z" />
    <glyph glyph-name="slash" unicode="/" horiz-adv-x="880" 
d="M-2 -418l-70 31l840 1896l70 -30z" />
    <glyph glyph-name="zero" unicode="0" horiz-adv-x="1075" 
d="M539 53q160 0 260 129t100 329t-101 329t-260 129t-259 -129q-101 -129 -101 -329t100 -329t261 -129zM979 511q1 -227 -123 -377t-318 -150t-318 150t-124 377q0 226 124 377q124 150 318 150t318 -150t123 -377z" />
    <glyph glyph-name="one" unicode="1" horiz-adv-x="774" 
d="M129 0v68h244v874l-228 -65l-16 67l293 84h31v-960h241v-68h-565z" />
    <glyph glyph-name="two" unicode="2" horiz-adv-x="948" 
d="M446 969q-74 0 -136 -30q-91 -44 -113 -114q55 -14 55 -65q0 -29 -18 -48q-18 -20 -49 -20q-30 0 -49 25t-19 71t37 106q36 60 118 102t179 42q159 0 247 -82t88 -196t-70 -194q-70 -79 -212 -173q-244 -160 -326 -325h570v190h71v-258h-729l-8 33q37 94 106 177
q70 83 129 130t169 122t166 138q56 62 56 156t-68 154q-69 60 -194 59z" />
    <glyph glyph-name="three" unicode="3" horiz-adv-x="962" 
d="M86 -17q0 49 22 73t52 24t46 -18q17 -18 17 -44q0 -51 -57 -67q8 -20 27 -43q83 -94 245 -94t250 81t88 197q0 168 -166 244q-96 45 -237 45h-35v70h39q135 0 241 61q137 84 138 219q0 104 -78 170t-226 66t-227 -99q-14 -23 -20 -43q25 -6 40 -25t15 -44t-18 -42
q-18 -18 -47 -18t-51 25t-22 69t41 106q40 62 124 102t186 40q162 0 261 -91t100 -216q0 -178 -179 -268q-66 -35 -129 -43q57 -8 138 -42q82 -34 136 -109t54 -173q0 -156 -114 -254t-283 -98q-111 0 -201 39t-130 95t-40 105z" />
    <glyph glyph-name="four" unicode="4" horiz-adv-x="970" 
d="M627 -246v387h-588l-10 27l637 868l57 -43l-573 -784h477v358l71 31v-389h244v-68h-244v-387h-71z" />
    <glyph glyph-name="five" unicode="5" horiz-adv-x="929" 
d="M156 39q66 1 65 -71q0 -38 -45 -54q8 -12 31 -33q88 -69 231 -69t236 91q92 91 92 234t-90 229t-236 85q-146 0 -276 -58l-33 21l68 608h577v-74h-512l-55 -471q104 41 227 41q182 0 296 -102t114 -276t-117 -284q-117 -112 -301 -112t-285 98q-57 53 -57 115q0 33 20 57
t50 25z" />
    <glyph glyph-name="six" unicode="6" horiz-adv-x="1026" 
d="M530 53q142 1 232 97t90 239t-86 233t-230 89q-144 1 -240 -99t-95 -236q0 -136 93 -230t236 -93zM588 1227q-166 0 -282 -175t-120 -501q36 96 134 163t217 66q171 0 283 -112t112 -279q0 -168 -115 -287q-115 -118 -288 -118t-295 122t-121 418q0 383 143 578t338 194
q150 0 233 -88q47 -51 47 -99t-22 -71q-22 -22 -50 -22q-30 0 -46 18t-16 53t36 56q-49 84 -188 84z" />
    <glyph glyph-name="seven" unicode="7" horiz-adv-x="872" 
d="M145 956v-217h-71v283h727l12 -27l-541 -1243l-69 29l510 1175h-568z" />
    <glyph glyph-name="eight" unicode="8" horiz-adv-x="976" 
d="M488 51q132 0 222 82q89 82 89 206t-90 205q-89 81 -221 81t-221 -81t-89 -205t89 -206t221 -82zM487 1229q-123 0 -205 -79t-81 -193q1 -113 83 -189t204 -76t205 76t83 190t-83 192q-83 79 -206 79zM487 -16q-169 0 -281 100t-112 252q0 113 74 202t190 121
q-106 37 -172 120t-65 177q0 148 105 244t262 96q158 0 262 -96t104 -244q0 -96 -66 -178t-172 -119q115 -31 191 -119t76 -204q0 -150 -114 -251t-282 -101z" />
    <glyph glyph-name="nine" unicode="9" horiz-adv-x="1026" 
d="M174 630q0 -142 87 -230t230 -87q143 -1 239 97t97 235q0 137 -94 229t-236 92q-143 0 -233 -96q-90 -98 -90 -240zM422 -256q-154 0 -238 90q-45 48 -45 96t22 72q23 24 51 23t45 -19t17 -52t-36 -56q51 -86 190 -86q176 0 294 171t118 488q-2 -2 -2 -4
q-37 -95 -132 -159t-217 -64q-171 0 -283 110t-112 276t116 286t289 120t285 -116q131 -131 131 -424q0 -199 -43 -351q-44 -151 -116 -235q-144 -166 -334 -166z" />
    <glyph glyph-name="colon" unicode=":" horiz-adv-x="378" 
d="M190 -16q-34 0 -58 24t-24 61t24 61t58 24t59 -25q23 -25 23 -61t-23 -60q-24 -24 -59 -24zM190 555q-34 0 -58 26q-24 27 -24 61t24 60t58 25q34 0 59 -26q23 -27 23 -61t-24 -60t-58 -25z" />
    <glyph glyph-name="semicolon" unicode=";" horiz-adv-x="378" 
d="M104 75q0 35 24 57t58 22t62 -31q26 -31 26 -95t-56 -148q-56 -83 -159 -140l-20 33q139 109 147 219q-34 2 -58 26t-24 57zM190 555q-34 0 -58 26q-24 27 -24 61t24 60t58 25q34 0 59 -26q23 -27 23 -61t-24 -60t-58 -25z" />
    <glyph glyph-name="less" unicode="&#x3c;" horiz-adv-x="757" 
d="M580 184l-490 322v29l490 321l38 -57l-423 -279l423 -278z" />
    <glyph glyph-name="equal" unicode="=" horiz-adv-x="798" 
d="M86 338v70h627v-70h-627zM86 629v71h627v-71h-627z" />
    <glyph glyph-name="greater" unicode="&#x3e;" horiz-adv-x="757" 
d="M178 184l-39 58l424 278l-424 279l39 57l490 -321v-29z" />
    <glyph glyph-name="question" unicode="?" horiz-adv-x="849" 
d="M332 121q22 25 54 25t54 -22t25 -56q1 -34 -21 -56q-22 -24 -54 -25t-56 21t-24 56q-1 32 22 57zM197 1053q-1 -27 -21 -47t-51 -20t-55 26q-24 28 -25 86q0 58 46 123q46 67 131 107t188 40q172 0 280 -100t107 -244t-101 -252q-100 -106 -274 -149l-14 -281h-43
l-19 328q178 39 275 129q96 90 96 216t-84 204t-221 77q-186 0 -262 -116q-12 -16 -23 -52q70 -12 70 -75z" />
    <glyph glyph-name="at" unicode="@" horiz-adv-x="1611" 
d="M735 141q131 0 216 117t85 256q0 98 -53 154t-143 57q-125 -1 -211 -107t-86 -256q0 -102 50 -162t142 -59zM659 -354q-255 0 -409 168t-154 430q0 408 257 698t608 289q259 0 411 -156q152 -157 152 -403t-109 -418t-256 -172q-90 0 -131 50t-29 126q-37 -78 -113 -130
t-176 -52q-102 0 -174 76t-71 208q0 178 112 304t261 127q100 -1 158 -57t71 -142l47 192h72l-113 -454q-25 -88 -2 -138t90 -51q123 0 212 159t89 375t-134 358q-134 143 -358 143t-408 -124t-295 -340q-109 -216 -109 -460t137 -397q137 -154 364 -154q184 0 340 84
l27 -49q-164 -90 -367 -90z" />
    <glyph glyph-name="A" unicode="A" horiz-adv-x="1437" 
d="M455 571h526l-262 711zM35 0v72h147l451 1204h-170v72h512v-72h-170l450 -1204h150v-72h-416v72h176l-157 428h-580l-158 -428h181v-72h-416z" />
    <glyph glyph-name="B" unicode="B" horiz-adv-x="1216" 
d="M369 725h252q178 0 268 79t90 202q0 122 -89 196t-259 74h-262v-551zM369 72h282q168 0 268 81q99 81 99 215t-104 210t-296 75h-249v-581zM98 0v72h187v1204h-187v72h537q213 0 319 -96t106 -229q0 -132 -74 -218q-75 -86 -198 -115q147 -29 230 -112q82 -84 82 -213
q0 -165 -124 -265t-327 -100h-551z" />
    <glyph glyph-name="C" unicode="C" horiz-adv-x="1431" 
d="M787 -23q-289 0 -479 203q-189 203 -189 494q-1 292 195 494t472 202q204 0 350 -106t146 -234q0 -44 -24 -70t-58 -26t-54 22q-22 22 -22 51t18 51t46 25q-23 78 -134 146q-112 68 -268 67q-250 0 -416 -185t-165 -442q0 -257 167 -437t420 -181q253 0 447 182l45 -57
q-208 -199 -497 -199z" />
    <glyph glyph-name="D" unicode="D" horiz-adv-x="1474" 
d="M369 72h241q317 0 488 167q170 167 170 441t-178 435t-494 161h-227v-1204zM98 0v72h187v1204h-187v72h500q348 0 551 -182t203 -487q0 -303 -200 -491t-550 -188h-504z" />
    <glyph glyph-name="E" unicode="E" horiz-adv-x="1187" 
d="M98 0v72h187v1204h-187v72h949v-299h-82v227h-596v-551h477v-74h-477v-579h596v227h82v-299h-949z" />
    <glyph glyph-name="F" unicode="F" horiz-adv-x="1136" 
d="M98 0v72h187v1204h-187v72h928v-299h-80v227h-577v-574h469v-71h-469v-559h200v-72h-471z" />
    <glyph glyph-name="G" unicode="G" horiz-adv-x="1501" 
d="M769 -16q-263 0 -456 185t-193 493t204 508q203 200 483 200q211 0 354 -98t144 -207q0 -39 -22 -64q-23 -25 -55 -25t-52 22t-20 63t44 61q-40 70 -148 122t-247 52q-266 0 -432 -185t-166 -453t165 -435q164 -168 410 -168t461 164v330h-414v72h496v-621h-80v143
q-213 -159 -476 -159z" />
    <glyph glyph-name="H" unicode="H" horiz-adv-x="1574" 
d="M98 0v72h187v1204h-187v72h461v-72h-190v-545h835v545h-188v72h461v-72h-189v-1204h189v-72h-461v72h188v583h-835v-583h190v-72h-461z" />
    <glyph glyph-name="I" unicode="I" horiz-adv-x="677" 
d="M100 0v72h197v1204h-197v72h480v-72h-199v-1204h199v-72h-480z" />
    <glyph glyph-name="J" unicode="J" horiz-adv-x="1046" 
d="M426 -23q-154 1 -256 95q-104 94 -104 233q0 55 24 89q25 34 60 34q34 0 56 -22t22 -52t-22 -52t-59 -23q0 -86 77 -156t197 -70t195 80q98 98 99 320v823h-219v72h479v-72h-176v-825q0 -252 -121 -371q-98 -103 -252 -103z" />
    <glyph glyph-name="K" unicode="K" horiz-adv-x="1351" 
d="M98 0v72h187v1204h-187v72h461v-72h-190v-711l692 711h-205v72h465v-72h-160l-489 -502l487 -702h174v-72h-227l-494 719l-243 -248v-399h190v-72h-461z" />
    <glyph glyph-name="L" unicode="L" horiz-adv-x="1101" 
d="M98 0v72h187v1204h-187v72h465v-72h-194v-1204h546v237h80v-309h-897z" />
    <glyph glyph-name="M" unicode="M" horiz-adv-x="1767" 
d="M80 0v72h194l50 1204h-193v72h285l467 -1033l467 1033h280v-72h-192l49 -1204h194v-72h-452v72h178l-41 1134l-469 -1026h-33l-469 1028l-41 -1136h178v-72h-452z" />
    <glyph glyph-name="N" unicode="N" horiz-adv-x="1552" 
d="M365 72h192v-72h-459v72h187v1204h-187v72h258l865 -1182v1110h-191v72h455v-72h-187v-1282h-49l-884 1208v-1130z" />
    <glyph glyph-name="O" unicode="O" horiz-adv-x="1587" 
d="M205 675q0 -263 167 -443t422 -181q254 0 420 179q166 178 166 442t-166 444t-420 180t-422 -179q-167 -179 -167 -442zM792 -23q-288 0 -481 202t-192 495q1 292 195 494t481 202t479 -202t192 -494t-193 -495q-193 -202 -481 -202z" />
    <glyph glyph-name="P" unicode="P" horiz-adv-x="1161" 
d="M602 590q186 0 290 92q103 92 103 249t-110 251q-111 94 -285 94h-231v-682q102 -4 233 -4zM98 0v72h187v1204h-187v72h498q211 0 347 -115t136 -303t-130 -300t-349 -112q-137 0 -231 4v-450h194v-72h-465z" />
    <glyph glyph-name="Q" unicode="Q" horiz-adv-x="1587" 
d="M810 51q240 0 404 179q166 178 166 442t-166 444t-420 180t-422 -179q-167 -179 -167 -459t196 -455q169 -152 409 -152zM119 674q1 292 195 494t481 202t479 -202t192 -479t-155 -467q-156 -189 -404 -224q76 -20 185 -92q94 -66 151 -90t130 -25q73 0 149 45l32 -65
q-88 -56 -188 -56t-199 56q-41 23 -73 41t-115 77q-102 68 -260 97q-389 64 -539 392q-61 136 -61 296z" />
    <glyph glyph-name="R" unicode="R" horiz-adv-x="1236" 
d="M575 653q182 0 292 82q110 83 110 229q-1 146 -103 229t-278 83h-227v-619q122 -4 206 -4zM98 0v72h187v1204h-187v72h504q209 0 335 -106t126 -260t-88 -250t-238 -132l336 -528h164v-72h-221l-367 586q-45 -4 -135 -4t-145 2v-512h190v-72h-461z" />
    <glyph glyph-name="S" unicode="S" horiz-adv-x="1083" 
d="M543 -20q-182 0 -301 84t-119 180q-1 42 21 68t53 26t51 -20t20 -60q0 -39 -45 -68q33 -57 120 -97t221 -40t224 79t90 200q0 122 -82 188q-83 66 -208 116t-181 78q-159 80 -206 178q-29 60 -29 138q0 146 110 242t272 96t272 -78t110 -172q0 -38 -22 -62t-52 -24
t-50 20q-22 20 -22 57q0 36 39 69q-27 49 -105 83t-165 33q-133 0 -219 -74t-86 -189q0 -116 96 -184t211 -112q115 -45 171 -73q151 -77 200 -180q29 -60 29 -138q0 -164 -118 -264t-300 -100z" />
    <glyph glyph-name="T" unicode="T" horiz-adv-x="1282" 
d="M399 0v72h201v1204h-424v-238h-82v310h1094v-310h-82v238h-422v-1204h199v-72h-484z" />
    <glyph glyph-name="U" unicode="U" horiz-adv-x="1435" 
d="M715 -23q-223 0 -342 126t-119 356v817h-188v72h462v-72h-192v-809q0 -205 97 -310t283 -105t285 104q98 104 99 309v811h-193v72h463v-72h-188v-813q0 -231 -122 -359t-345 -127z" />
    <glyph glyph-name="V" unicode="V" horiz-adv-x="1402" 
d="M27 1276v72h415v-72h-176l439 -1172l438 1172h-182v72h415v-72h-151l-498 -1301h-53l-498 1301h-149z" />
    <glyph glyph-name="W" unicode="W" horiz-adv-x="1972" 
d="M27 1276v72h438v-72h-182l335 -1153l349 1040h49l348 -1040l334 1153h-187v72h439v-72h-170l-389 -1303h-52l-350 1033l-350 -1033h-51l-391 1303h-170z" />
    <glyph glyph-name="X" unicode="X" horiz-adv-x="1456" 
d="M84 0v72h145l451 618l-424 586h-147v72h399v-72h-158l379 -537l381 537h-162v72h400v-72h-148l-424 -584l453 -620h143v-72h-399v72h160l-406 569l-408 -569h164v-72h-399z" />
    <glyph glyph-name="Y" unicode="Y" horiz-adv-x="1298" 
d="M399 0v72h207v491l-418 713h-153v72h418v-72h-168l366 -643l367 643h-170v72h416v-72h-156l-416 -713v-491h207v-72h-500z" />
    <glyph glyph-name="Z" unicode="Z" horiz-adv-x="1191" 
d="M86 0v37l881 1241h-754v-229h-80v299h952v-37l-878 -1241h817v229h80v-299h-1018z" />
    <glyph glyph-name="bracketleft" unicode="[" horiz-adv-x="667" 
d="M219 -410v1909h414v-72h-334v-1765h334v-72h-414z" />
    <glyph glyph-name="backslash" unicode="\" horiz-adv-x="880" 
d="M883 -418l-840 1897l72 30l839 -1896z" />
    <glyph glyph-name="bracketright" unicode="]" horiz-adv-x="667" 
d="M35 -410v72h334v1765h-334v72h416v-1909h-416z" />
    <glyph glyph-name="asciicircum" unicode="^" horiz-adv-x="868" 
d="M193 784l-35 39l276 260l277 -260l-35 -39l-242 183z" />
    <glyph glyph-name="underscore" unicode="_" horiz-adv-x="1036" 
d="M-6 -272v77h1048v-77h-1048z" />
    <glyph glyph-name="grave" unicode="`" horiz-adv-x="1030" 
d="M244 1230q0 30 16 47t41 17t61 -30l254 -203l-18 -31l-295 141q-59 29 -59 59z" />
    <glyph glyph-name="a" unicode="a" horiz-adv-x="966" 
d="M389 51q164 0 295 150v178q-137 43 -262 43q-124 0 -188 -54t-64 -134t56 -131q56 -52 163 -52zM379 -14q-131 0 -208 70t-77 178q0 110 89 181t234 71t267 -50v156q0 80 -43 133q-66 76 -195 76t-194 -66q20 -20 20 -50t-17 -48q-17 -19 -46 -19t-46 20t-18 50
q0 66 83 122q82 56 236 56t234 -92q59 -66 60 -170v-536h147v-68h-219v129q-131 -143 -307 -143z" />
    <glyph glyph-name="b" unicode="b" horiz-adv-x="1087" 
d="M548 53q165 1 263 105t98 268t-94 268t-246 105q-186 0 -319 -158v-465q133 -123 298 -123zM564 -14q-183 0 -314 120l-35 -106h-41v1427h-149v68h225v-778q140 149 322 149t300 -125t117 -315q0 -190 -121 -315t-304 -125z" />
    <glyph glyph-name="c" unicode="c" horiz-adv-x="929" 
d="M520 -14q-175 0 -302 120q-126 120 -126 310t124 320t296 130q133 0 229 -72t97 -165q0 -35 -22 -60t-50 -25q-62 1 -64 62q0 45 50 66q-18 55 -87 91t-153 36q-134 -1 -238 -107t-104 -271t104 -266t257 -101t288 89l-6 -75q-118 -82 -293 -82z" />
    <glyph glyph-name="d" unicode="d" horiz-adv-x="1103" 
d="M508 53q180 0 317 158v463q-139 125 -298 125t-256 -108q-97 -109 -98 -269t93 -264t242 -105zM511 -14q-181 0 -299 123t-118 312t120 317t301 128t310 -123v684h-178v68h254v-1427h148v-68h-222v141q-135 -155 -316 -155z" />
    <glyph glyph-name="e" unicode="e" horiz-adv-x="964" 
d="M497 799q-133 0 -222 -88t-103 -228h625q-6 139 -86 228q-81 88 -214 88zM528 53q156 0 306 99l-7 -78q-131 -88 -313 -88t-302 120t-120 314q0 192 115 319t289 127t276 -116t102 -283q0 -31 -6 -49h-698q6 -176 104 -270t254 -95z" />
    <glyph glyph-name="f" unicode="f" horiz-adv-x="593" 
d="M539 1366q-63 0 -74 78q-53 -2 -96 -45q-55 -66 -56 -199v-348h228v-68h-228v-716h170v-68h-393v68h148v716h-158v68h158v330q0 186 79 266q70 66 162 65q55 -1 89 -23t34 -56t-18 -51t-45 -17z" />
    <glyph glyph-name="g" unicode="g" horiz-adv-x="1116" 
d="M531 799q-161 -1 -258 -107t-97 -263t94 -261t257 -104t300 159v449q-135 127 -296 127zM903 784v-837q0 -150 -76 -238q-100 -119 -305 -119t-291 95q-37 37 -37 77t22 62t50 20q28 0 45 -18t17 -49t-31 -56q55 -63 223 -63t250 96q57 70 57 187v206
q-139 -149 -316 -149t-295 123t-118 305t120 311t298 129t313 -127v113h222v-68h-148z" />
    <glyph glyph-name="h" unicode="h" horiz-adv-x="1095" 
d="M209 1427h-148v68h224v-813q65 80 153 132t183 52q145 0 215 -96q51 -68 51 -197v-505h149v-68h-372v68h147v495q0 111 -46 173t-157 61q-168 0 -323 -187v-542h149v-68h-373v68h148v1359z" />
    <glyph glyph-name="i" unicode="i" horiz-adv-x="542" 
d="M86 0v68h160v716h-160v68h236v-784h159v-68h-395zM266 1139q-30 1 -52 23t-22 54t22 54t52 22t52 -22t22 -55q0 -32 -22 -54t-52 -22z" />
    <glyph glyph-name="j" unicode="j" horiz-adv-x="464" 
d="M246 1139q-30 1 -52 23t-22 54t22 54t52 22t51 -22q20 -22 20 -55q0 -32 -20 -54t-51 -22zM57 -346q168 0 168 334v796h-176v68h252v-854q0 -137 -29 -234q-51 -174 -217 -174q-67 0 -109 31t-42 69q0 81 61 81q25 1 41 -17t16 -45t-14 -43q18 -12 49 -12z" />
    <glyph glyph-name="k" unicode="k" horiz-adv-x="1024" 
d="M61 0v68h148v1359h-148v68h224v-1112l446 403h-203v66h453v-68h-152l-309 -278l307 -438h154v-68h-199l-317 465l-180 -164v-233h153v-68h-377z" />
    <glyph glyph-name="l" unicode="l" horiz-adv-x="520" 
d="M63 0v68h158v1359h-158v68h234v-1427h162v-68h-396z" />
    <glyph glyph-name="m" unicode="m" horiz-adv-x="1671" 
d="M1210 866q255 0 252 -293v-505h150v-68h-373v68h147v495q0 86 -22 137q-41 96 -164 97q-156 0 -315 -183v-546h149v-68h-372v68h147v495q0 88 -21 137q-41 96 -163 97q-158 0 -316 -185v-544h148v-68h-373v68h149v716h-149v68h221v-172q63 80 151 133t179 53
q154 0 213 -108q16 -33 26 -78q166 186 336 186z" />
    <glyph glyph-name="n" unicode="n" horiz-adv-x="1114" 
d="M305 852v-172q156 186 326 186q274 0 274 -293v-505h150v-68h-373v68h147v495q0 92 -24 142q-45 92 -172 92q-170 0 -324 -187v-542h148v-68h-373v68h149v716h-149v68h221z" />
    <glyph glyph-name="o" unicode="o" horiz-adv-x="1050" 
d="M524 53q154 -1 252 105t98 268t-98 267t-252 105t-252 -106t-98 -267t98 -267t252 -105zM524 -14q-186 0 -308 126t-122 313t122 314t309 127t309 -126t120 -313q0 -187 -122 -314t-308 -127z" />
    <glyph glyph-name="p" unicode="p" horiz-adv-x="1107" 
d="M582 53q160 1 254 107t95 269t-91 266t-253 103t-298 -157v-465q133 -123 293 -123zM63 -401v67h150v1118h-150v68h224v-141q135 155 313 155t294 -123t116 -313t-118 -317t-294 -127t-309 118v-438h164v-67h-390z" />
    <glyph glyph-name="q" unicode="q" horiz-adv-x="1075" 
d="M514 53q184 0 322 158v463q-138 125 -302 125q-164 1 -262 -105t-98 -269t94 -267t246 -105zM670 -401v67h166v469q-140 -149 -322 -149t-301 124t-119 314t122 316t303 126t317 -121l32 107h43v-1186h148v-67h-389z" />
    <glyph glyph-name="r" unicode="r" horiz-adv-x="696" 
d="M553 866q55 0 82 -24t27 -55q0 -32 -18 -51t-49 -19q-30 0 -50 20t-23 47q-113 -18 -213 -198v-518h168v-68h-393v68h149v716h-149v68h221v-190q49 88 121 146t127 58z" />
    <glyph glyph-name="s" unicode="s" horiz-adv-x="843" 
d="M719 704q1 -37 -17 -56t-45 -19t-45 18t-18 47t20 51q-56 55 -176 55t-182 -46t-61 -104t37 -90t79 -47t123 -35t124 -36q125 -44 166 -116q24 -43 24 -103q0 -106 -92 -172t-230 -65q-92 0 -171 28t-121 71q-42 42 -42 81t18 59q18 21 45 21q28 0 45 -18t17 -48
q0 -31 -24 -49q20 -31 86 -55t163 -25q96 0 164 47t68 123t-62 113q-62 36 -200 70q-140 34 -216 82t-75 148q0 100 85 167q85 66 216 65q176 0 258 -86q39 -39 39 -76z" />
    <glyph glyph-name="t" unicode="t" horiz-adv-x="612" 
d="M264 195q0 -136 123 -138q70 0 156 52l-13 -76q-77 -47 -159 -47q-119 0 -162 94q-20 43 -21 106v598h-155v68h155v227l76 27v-254h275v-68h-275v-589z" />
    <glyph glyph-name="u" unicode="u" horiz-adv-x="1095" 
d="M471 -14q-262 0 -262 293v505h-150v68h226v-565q0 -90 26 -144q47 -88 170 -88q158 0 324 193v536h-148v68h224v-784h149v-68h-223v180q-63 -84 -153 -139t-183 -55z" />
    <glyph glyph-name="v" unicode="v" horiz-adv-x="1013" 
d="M6 784v68h365v-68h-156l295 -694l293 694h-158v68h363v-68h-123l-363 -819h-30l-363 819h-123z" />
    <glyph glyph-name="w" unicode="w" horiz-adv-x="1357" 
d="M6 784v68h361v-66h-154l188 -671l265 635h30l265 -635l188 671h-158v66h363v-68h-133l-238 -819h-33l-270 653l-272 -653h-31l-242 819h-129z" />
    <glyph glyph-name="x" unicode="x" horiz-adv-x="974" 
d="M41 0v68h119l286 366l-268 350h-125v68h334v-64h-125l225 -309l230 309h-129v64h332v-68h-125l-265 -346l285 -370h119v-68h-344v63h141l-244 332l-247 -332h143v-63h-342z" />
    <glyph glyph-name="y" unicode="y" horiz-adv-x="991" 
d="M55 -328q0 66 64 68q33 0 53 -26t16 -56q76 10 144 117q33 53 80 155l49 109l-330 745h-127v68h365v-68h-152l281 -665l286 665h-155v68h358v-68h-127l-399 -899q-35 -77 -78 -147q-94 -147 -213 -148q-49 0 -82 24t-33 58z" />
    <glyph glyph-name="z" unicode="z" horiz-adv-x="843" 
d="M70 0v27l579 759h-471v-174h-72v240h660v-29l-580 -757h516v174h72v-240h-704z" />
    <glyph glyph-name="braceleft" unicode="{" horiz-adv-x="641" 
d="M129 -143q0 70 34 125t111 141q113 121 113 199t-70 130q-70 54 -172 54h-47v72h47q102 0 172 52t70 132t-113 196q-52 58 -76 90q-68 92 -69 177q0 125 112 212t294 89v-64q-158 -8 -243 -78t-85 -154t130 -230q130 -144 130 -227t-58 -146t-171 -86q113 -20 171 -85
t58 -149t-130 -228t-130 -228t85 -154t243 -78v-63q-182 2 -294 89t-112 212z" />
    <glyph glyph-name="bar" unicode="|" horiz-adv-x="512" 
d="M219 -410v1909h74v-1909h-74z" />
    <glyph glyph-name="braceright" unicode="}" horiz-adv-x="641" 
d="M432 -148q0 85 -127 230q-131 139 -131 224t58 150t171 85q-113 23 -171 87t-58 148q0 82 131 225q127 143 127 229t-84 154q-84 70 -239 78v64q183 -2 293 -89t110 -212q0 -70 -35 -126t-110 -141q-113 -116 -113 -196t70 -132t172 -52h47v-72h-47q-102 0 -172 -53
t-70 -131t113 -199q77 -84 111 -140t34 -126q0 -125 -110 -212t-293 -89v63q155 8 239 78t84 155z" />
    <glyph glyph-name="asciitilde" unicode="~" horiz-adv-x="835" 
d="M554 414q-68 0 -161 75q-76 57 -114 58q-76 0 -105 -121l-63 14q10 80 56 133q101 117 277 -22q70 -57 113 -57q76 0 105 118l63 -14q-11 -78 -57 -131t-114 -53z" />
    <glyph glyph-name="uni00A0" unicode="&#xa0;" horiz-adv-x="456" 
 />
    <glyph glyph-name="exclamdown" unicode="&#xa1;" horiz-adv-x="464" 
d="M182 0l29 1006h43l29 -1006h-101zM232 1198q-34 0 -58 24t-22 58q0 34 24 60q24 24 56 24q34 0 58 -25t24 -59t-24 -58t-58 -24z" />
    <glyph glyph-name="cent" unicode="&#xa2;" horiz-adv-x="946" 
d="M168 518q0 -148 75 -242t199 -124l64 731q-138 -9 -238 -113t-100 -252zM561 137q145 0 285 90l-6 -75q-115 -80 -283 -80q-39 0 -57 2l-25 -287l-65 6l24 293q-154 36 -249 148t-95 282t124 299t298 135l18 221l66 -4l-18 -221q122 -14 204 -84t82 -149q0 -33 -22 -59
t-54 -25q-55 0 -57 61q0 47 49 64q-18 49 -76 84t-133 45l-67 -744q18 -2 57 -2z" />
    <glyph glyph-name="sterling" unicode="&#xa3;" horiz-adv-x="909" 
d="M180 -154q-54 -84 -122 -84t-68 54q0 30 42 60t122 34q121 125 120 289q0 29 -4 73h-196v66h182l-23 78q-47 154 -47 282t94 234q94 104 235 104q140 0 225 -61t85 -139q0 -41 -20 -63q-20 -21 -47 -21t-44 17q-18 17 -18 54t35 54q-43 92 -201 92q-122 0 -196 -85
t-74 -202t47 -254q2 -6 11 -39t14 -51h352v-66h-340q4 -45 4 -73q0 -164 -119 -287q100 -2 212 -43t198 -41q129 0 192 115l58 -33q-80 -152 -248 -152q-96 0 -216 45t-212 45q-23 0 -33 -2z" />
    <glyph glyph-name="yen" unicode="&#xa5;" horiz-adv-x="964" 
d="M156 471v64h254l-260 419h-125v68h335v-68h-131l254 -419l254 419h-133v68h336v-68h-127l-260 -419h256v-64h-293v-158h293v-63h-293v-184h168v-66h-405v66h170v184h-293v63h293v158h-293z" />
    <glyph glyph-name="section" unicode="&#xa7;" horiz-adv-x="892" 
d="M684 496q0 55 -52 86t-181 63l-70 19q-170 -47 -170 -144q0 -56 52 -86t179 -61l72 -19q170 45 170 142zM458 1036q120 0 198 -45t79 -109q0 -64 -58 -65q-58 0 -59 62q0 23 13 41q-45 50 -187 50q-72 0 -128 -32q-54 -33 -54 -85t48 -82q48 -31 182 -65t204 -78
q68 -44 68 -124q0 -127 -178 -176q129 -55 129 -160q0 -80 -79 -134t-199 -54q-119 0 -199 46t-80 107q0 27 16 46t42 19t43 -16q17 -18 17 -44t-14 -40q44 -53 152 -53t164 33q55 33 55 85t-48 82q-49 31 -183 65t-204 78t-69 120q0 129 176 180q-125 53 -125 160
q0 78 79 133t199 55z" />
    <glyph glyph-name="dieresis" unicode="&#xa8;" horiz-adv-x="1030" 
d="M376 1063q-32 -1 -54 23t-23 57q0 33 22 55q23 22 55 23q32 0 54 -23q22 -24 23 -56q-1 -32 -23 -56t-54 -23zM654 1063q-32 -1 -54 23t-20 57q0 33 22 55t54 23q32 0 54 -23q22 -24 22 -56t-23 -56q-23 -23 -55 -23z" />
    <glyph glyph-name="copyright" unicode="&#xa9;" horiz-adv-x="1206" 
d="M627 745q-94 0 -155 -66q-60 -67 -60 -157t61 -156t153 -65q92 0 165 68l32 -39q-77 -80 -197 -80t-196 79t-76 195t80 193q80 78 176 78t152 -41q57 -41 57 -88q0 -20 -12 -34t-31 -16q-39 0 -39 39q0 27 19 31q-35 59 -129 59zM603 31q198 0 329 141t131 342t-131 341
t-329 140t-330 -141t-132 -341t132 -341t330 -141zM602 -18q-221 0 -369 153q-147 154 -147 377t147 378q147 154 369 154t369 -154q147 -155 147 -377t-147 -377q-148 -154 -369 -154z" />
    <glyph glyph-name="ordfeminine" unicode="&#xaa;" horiz-adv-x="657" 
d="M258 889q94 0 168 84v98q-70 25 -144 25t-110 -30t-35 -75q0 -45 32 -73t89 -29zM88 645v55h483v-55h-483zM426 1190q0 129 -139 129q-70 0 -101 -31q8 -10 9 -31q0 -43 -43 -43q-46 0 -46 58q0 30 52 64t133 34q82 0 138 -40t56 -130v-301h86v-51h-143v74
q-80 -84 -169 -84t-136 42t-47 108t55 110q55 43 139 43t156 -27v76z" />
    <glyph glyph-name="guillemotleft" unicode="&#xab;" horiz-adv-x="858" 
d="M399 229l-336 322l336 319l47 -45l-282 -274l282 -275zM717 229l-336 322l336 319l47 -45l-281 -274l281 -275z" />
    <glyph glyph-name="registered" unicode="&#xae;" horiz-adv-x="780" 
d="M342 1063h41q41 0 67 18t25 52q0 68 -90 67h-43v-137zM246 879v43h49v278h-49v43h141q63 0 100 -29t37 -79q0 -70 -73 -99l65 -114h45v-43h-78l-82 145h-59v-102h49v-43h-145zM390 1372q-130 0 -218 -92t-88 -226t88 -226t217 -93q129 0 217 92q88 93 88 227t-87 226
t-217 92zM389 688q-152 0 -254 106t-102 260q0 153 102 259t254 106t255 -106q104 -106 104 -259q0 -154 -104 -260t-255 -106z" />
    <glyph glyph-name="macron" unicode="&#xaf;" horiz-adv-x="1030" 
d="M227 1094v75h576v-75h-576z" />
    <glyph glyph-name="degree" unicode="&#xb0;" horiz-adv-x="579" 
d="M290 920q79 0 129 56t50 140t-50 140t-129 56t-130 -56t-51 -140t51 -140t130 -56zM290 864q-105 0 -176 74t-71 178t71 178t176 74t175 -73t70 -178t-70 -179t-175 -74z" />
    <glyph glyph-name="plusminus" unicode="&#xb1;" horiz-adv-x="798" 
d="M86 94v72h627v-72h-627zM362 307v283h-276v69h276v281h74v-281h277v-69h-277v-283h-74z" />
    <glyph glyph-name="two.sup" unicode="&#xb2;" horiz-adv-x="722" 
d="M535 1438q-1 62 -49 102q-48 41 -118 41t-117 -29q-46 -29 -54 -59q35 -15 35 -41t-15 -42q-14 -16 -35 -15q-55 1 -55 67t68 121t171 55t171 -57q67 -57 67 -140t-47 -136t-151 -121q-178 -117 -222 -246h371v129h61v-184h-491l-19 30q55 178 261 314q88 59 128 104
t40 107z" />
    <glyph glyph-name="three.sup" unicode="&#xb3;" horiz-adv-x="722" 
d="M364 870q-106 0 -184 46t-78 112q0 27 16 44q16 18 36 18q22 0 35 -14t13 -40q0 -25 -24 -39q12 -25 64 -49t126 -22q74 0 130 45q55 45 55 113t-61 110q-61 43 -170 45h-43v57h45q90 0 150 43t60 105t-48 99q-48 36 -118 36q-134 0 -167 -66q25 -12 25 -36
q0 -25 -14 -39t-34 -14t-36 16t-17 45q0 55 66 103q67 48 171 48t172 -53t68 -126t-54 -124t-132 -63q88 -12 146 -66t58 -134t-74 -140q-76 -60 -182 -60z" />
    <glyph glyph-name="acute" unicode="&#xb4;" horiz-adv-x="1030" 
d="M786 1230q0 -30 -59 -59l-295 -141l-18 31l254 203q64 54 102 13q16 -17 16 -47z" />
    <glyph glyph-name="paragraph" unicode="&#xb6;" horiz-adv-x="1079" 
d="M657 66h119v890h-119v-890zM422 0v66h162v325q-34 -2 -174 -2t-241 87q-101 86 -101 228t105 230t263 88h565v-68h-153v-886h153v-68h-579z" />
    <glyph glyph-name="periodcentered" unicode="&#xb7;" horiz-adv-x="505" 
d="M252 418q-34 0 -58 24t-24 61t24 61t60 24t58 -25q24 -25 24 -59t-24 -60t-60 -26z" />
    <glyph glyph-name="cedilla" unicode="&#xb8;" horiz-adv-x="1030" 
d="M525 -410q-95 0 -193 48l20 51q84 -39 156 -39q132 0 133 81q0 81 -129 83q-20 0 -37 -4l-24 16l53 205l45 -11l-19 -141q90 -2 138 -41t49 -102q0 -63 -48 -105q-49 -41 -144 -41z" />
    <glyph glyph-name="one.sup" unicode="&#xb9;" horiz-adv-x="722" 
d="M141 883v59h205v614l-199 -49l-14 60l246 61h33v-686h200v-59h-471z" />
    <glyph glyph-name="ordmasculine" unicode="&#xba;" horiz-adv-x="690" 
d="M345 891q87 0 143 61q56 62 56 154t-56 154t-143 61q-87 0 -143 -61q-56 -62 -56 -154t56 -154t143 -61zM346 840q-114 0 -188 76t-74 190t74 190t188 76t188 -76q72 -76 72 -190t-72 -190q-73 -76 -188 -76zM115 645v55h460v-55h-460z" />
    <glyph glyph-name="guillemotright" unicode="&#xbb;" horiz-adv-x="858" 
d="M141 229l-47 47l283 275l-283 274l47 45l336 -319zM459 229l-45 47l280 275l-280 274l45 45l336 -319z" />
    <glyph glyph-name="onequarter" unicode="&#xbc;" horiz-adv-x="1628" 
d="M127 575v60h205v614l-199 -49l-14 60l246 61h32v-686h201v-60h-471zM426 6l803 1319l49 -29l-801 -1319zM1178 -2v55h139v166h-363l-12 27l397 508l50 -37l-355 -445h283v185l61 26v-211h133v-53h-133v-166h109v-55h-309z" />
    <glyph glyph-name="onehalf" unicode="&#xbd;" horiz-adv-x="1628" 
d="M113 575v60h204v614l-198 -49l-15 60l246 61h33v-686h201v-60h-471zM399 6l803 1319l49 -29l-800 -1319zM1430 552q0 62 -48 103t-120 41q-70 0 -116 -28t-54 -60q34 -14 34 -40t-14 -42t-35 -16q-55 0 -55 67t68 121t171 56q103 0 171 -58t68 -140q0 -83 -48 -136
q-47 -53 -152 -121q-178 -117 -221 -246h371v129h61v-184h-491l-19 31q55 178 261 313q88 59 128 104q40 44 40 106z" />
    <glyph glyph-name="threequarters" unicode="&#xbe;" horiz-adv-x="1628" 
d="M438 6l803 1319l49 -29l-801 -1319zM1178 -2v55h139v166h-363l-12 27l397 508l50 -37l-355 -445h283v185l61 26v-211h133v-53h-133v-166h109v-55h-309zM651 763q-1 -81 -75 -141t-180 -59q-106 0 -185 46q-78 46 -78 112q0 27 15 44q14 17 36 17t36 -14t13 -39
q0 -25 -24 -39q12 -24 64 -48t126 -24t129 46q56 46 56 112q0 68 -62 111t-170 45h-43v57h45q90 0 151 43q60 44 60 106t-49 98q-50 36 -118 36t-110 -20t-57 -46q25 -12 25 -36t-13 -40q-13 -14 -33 -14t-38 16q-16 16 -16 46q0 55 66 103q67 48 171 48t172 -53t68 -126
t-54 -124t-133 -63q88 -11 146 -65t59 -135z" />
    <glyph glyph-name="questiondown" unicode="&#xbf;" horiz-adv-x="849" 
d="M465 1362q33 -2 55 -26t20 -56q-1 -32 -25 -56q-25 -24 -57 -22t-54 27t-20 57t26 56q22 22 55 20zM653 295q1 29 21 49t51 20t57 -27q26 -29 25 -87q0 -58 -47 -121q-106 -147 -320 -147q-172 0 -280 99t-107 243q-1 144 99 251q100 106 276 150l14 283h43l19 -330
q-178 -37 -274 -128t-97 -217q0 -126 83 -204t222 -78q180 0 262 119q14 23 23 51q-70 10 -70 74z" />
    <glyph glyph-name="Agrave" unicode="&#xc0;" horiz-adv-x="1437" 
d="M430 1677q0 25 16 42q39 41 103 -13l254 -203l-19 -30l-295 141q-59 29 -59 63zM455 571h526l-262 711zM35 0v72h147l451 1204h-170v72h512v-72h-170l450 -1204h150v-72h-416v72h176l-157 428h-580l-158 -428h181v-72h-416z" />
    <glyph glyph-name="Aacute" unicode="&#xc1;" horiz-adv-x="1437" 
d="M946 1737q24 1 41 -17q16 -18 17 -43q0 -35 -60 -63l-295 -141l-18 30l254 203q37 31 61 31zM455 571h526l-262 711zM35 0v72h147l451 1204h-170v72h512v-72h-170l450 -1204h150v-72h-416v72h176l-157 428h-580l-158 -428h181v-72h-416z" />
    <glyph glyph-name="Acircumflex" unicode="&#xc2;" horiz-adv-x="1437" 
d="M475 1460l-35 39l279 260l276 -260l-34 -39l-242 182zM455 571h526l-262 711zM35 0v72h147l451 1204h-170v72h512v-72h-170l450 -1204h150v-72h-416v72h176l-157 428h-580l-158 -428h181v-72h-416z" />
    <glyph glyph-name="Atilde" unicode="&#xc3;" horiz-adv-x="1437" 
d="M858 1475q-68 0 -151 65t-127 66q-74 0 -103 -121l-63 14q10 80 55 134q45 55 115 55t161 -76q70 -55 115 -56q74 0 103 119l63 -12q-10 -80 -56 -134q-44 -54 -112 -54zM455 571h526l-262 711zM35 0v72h147l451 1204h-170v72h512v-72h-170l450 -1204h150v-72h-416v72
h176l-157 428h-580l-158 -428h181v-72h-416z" />
    <glyph glyph-name="Adieresis" unicode="&#xc4;" horiz-adv-x="1437" 
d="M578 1663q34 0 56 -23q22 -24 22 -56t-23 -56q-22 -24 -54 -23q-32 0 -55 24q-22 25 -22 57t22 54t54 23zM857 1505q-31 0 -53 24q-22 25 -22 57t22 54t54 23q32 0 54 -23q22 -24 22 -56t-22 -56t-55 -23zM455 571h526l-262 711zM35 0v72h147l451 1204h-170v72h512v-72
h-170l450 -1204h150v-72h-416v72h176l-157 428h-580l-158 -428h181v-72h-416z" />
    <glyph glyph-name="Aring" unicode="&#xc5;" horiz-adv-x="1437" 
d="M718 1352q52 0 86 37t34 91t-34 92t-86 38t-86 -38t-34 -92t34 -91t86 -37zM455 571h526l-262 711zM905 1479q0 -82 -67 -131h137v-72h-170l450 -1204h150v-72h-416v72h176l-157 428h-580l-158 -428h181v-72h-416v72h147l451 1204h-170v72h135q-66 53 -66 134t54 135
t133 54q78 0 132 -55t54 -137z" />
    <glyph glyph-name="AE" unicode="&#xc6;" horiz-adv-x="1748" 
d="M846 571v705h-29l-358 -705h387zM-41 0v72h162l614 1204h-164v72h1035v-299h-80v227h-596v-551h477v-74h-477v-579h596v227h80v-299h-938v72h178v428h-424l-217 -428h157v-72h-403z" />
    <glyph glyph-name="Ccedilla" unicode="&#xc7;" horiz-adv-x="1431" 
d="M773 -410q-95 0 -193 48l20 51q84 -39 156 -39q132 0 133 81q0 81 -129 83q-20 0 -37 -4l-25 16l39 154q-274 20 -446 219t-172 483q-1 284 195 486t472 202q204 0 350 -106t146 -234q0 -44 -24 -70t-58 -26t-54 22q-22 22 -22 51t18 51t46 25q-23 78 -134 146
q-112 68 -268 67q-250 0 -416 -185t-165 -442q0 -257 167 -437t420 -181q253 0 447 182l45 -57q-209 -199 -489 -199h-4l-13 -98q90 -2 138 -41t48 -102q0 -62 -48 -104t-143 -42z" />
    <glyph glyph-name="Egrave" unicode="&#xc8;" horiz-adv-x="1189" 
d="M659 1473l-294 141q-59 29 -60 63q1 25 17 42q39 40 102 -13l254 -203zM98 0v72h187v1204h-187v72h949v-299h-82v227h-596v-551h477v-74h-477v-579h596v227h82v-299h-949z" />
    <glyph glyph-name="Eacute" unicode="&#xc9;" horiz-adv-x="1189" 
d="M98 0v72h187v1204h-187v72h949v-299h-82v227h-596v-551h477v-74h-477v-579h596v227h82v-299h-949zM820 1737q24 1 40 -17t17 -43q0 -35 -60 -63l-295 -141l-18 30l254 203q38 31 62 31z" />
    <glyph glyph-name="Ecircumflex" unicode="&#xca;" horiz-adv-x="1189" 
d="M98 0v72h187v1204h-187v72h949v-299h-82v227h-596v-551h477v-74h-477v-579h596v227h82v-299h-949zM348 1460l-35 39l279 260l276 -260l-34 -39l-242 182z" />
    <glyph glyph-name="Edieresis" unicode="&#xcb;" horiz-adv-x="1189" 
d="M98 0v72h187v1204h-187v72h949v-299h-82v227h-596v-551h477v-74h-477v-579h596v227h82v-299h-949zM451 1663q33 0 55 -23q22 -24 22 -56t-22 -56t-54 -23q-32 0 -55 24q-23 25 -23 57t22 54t55 23zM730 1505q-32 0 -54 24q-22 25 -21 57q0 32 22 54q23 22 55 23
q32 0 54 -23q22 -24 21 -56t-23 -56t-54 -23z" />
    <glyph glyph-name="Igrave" unicode="&#xcc;" horiz-adv-x="677" 
d="M408 1473l-295 141q-59 29 -60 63q1 25 17 42q40 41 102 -13l254 -203zM100 0v72h197v1204h-197v72h480v-72h-199v-1204h199v-72h-480z" />
    <glyph glyph-name="Iacute" unicode="&#xcd;" horiz-adv-x="677" 
d="M570 1737q24 1 40 -17t17 -43q0 -35 -60 -63l-295 -141l-18 30l254 203q38 31 62 31zM100 0v72h197v1204h-197v72h480v-72h-199v-1204h199v-72h-480z" />
    <glyph glyph-name="Icircumflex" unicode="&#xce;" horiz-adv-x="677" 
d="M98 1460l-35 39l279 260l276 -260l-34 -39l-242 182zM100 0v72h197v1204h-197v72h480v-72h-199v-1204h199v-72h-480z" />
    <glyph glyph-name="Idieresis" unicode="&#xcf;" horiz-adv-x="677" 
d="M201 1663q33 0 55 -23q22 -24 23 -56q-1 -32 -23 -56t-54 -23q-32 0 -55 24q-23 25 -23 57t22 54t55 23zM480 1505q-32 0 -54 24q-22 25 -20 57q0 32 22 54t54 23q32 0 54 -23q22 -24 22 -56t-24 -56q-22 -24 -54 -23zM100 0v72h197v1204h-197v72h480v-72h-199v-1204h199
v-72h-480z" />
    <glyph glyph-name="Eth" unicode="&#xd0;" horiz-adv-x="1478" 
d="M375 72h239q317 0 488 167q170 167 170 441t-177 435t-493 161h-227v-549h325v-74h-325v-581zM291 653h-148v74h148v549h-189v72h500q350 0 553 -184t203 -486t-200 -490t-550 -188h-506v72h189v581z" />
    <glyph glyph-name="Ntilde" unicode="&#xd1;" horiz-adv-x="1554" 
d="M920 1475q-68 0 -151 65t-128 66q-74 0 -102 -121l-64 14q10 80 55 134q45 55 115 55t151 -66t126 -66q74 0 102 119l63 -12q-10 -80 -55 -134q-44 -54 -112 -54zM365 72h192v-72h-459v72h187v1204h-187v72h258l865 -1182v1110h-191v72h455v-72h-187v-1282h-49l-884 1208
v-1130z" />
    <glyph glyph-name="Ograve" unicode="&#xd2;" horiz-adv-x="1587" 
d="M504 1677q0 25 16 42q39 41 103 -13l254 -203l-19 -30l-295 141q-59 29 -59 63zM205 675q0 -263 167 -443t422 -181q254 0 420 179q166 178 166 442t-166 444t-420 180t-422 -179q-167 -179 -167 -442zM792 -23q-288 0 -481 202t-192 495q1 292 195 494t481 202t479 -202
t192 -494t-193 -495q-193 -202 -481 -202z" />
    <glyph glyph-name="Oacute" unicode="&#xd3;" horiz-adv-x="1587" 
d="M205 675q0 -263 167 -443t422 -181q254 0 420 179q166 178 166 442t-166 444t-420 180t-422 -179q-167 -179 -167 -442zM792 -23q-288 0 -481 202t-192 495q1 292 195 494t481 202t479 -202t192 -494t-193 -495q-193 -202 -481 -202zM1022 1737q24 1 41 -17
q16 -18 16 -43q0 -35 -59 -63l-295 -141l-18 30l254 203q37 31 61 31z" />
    <glyph glyph-name="Ocircumflex" unicode="&#xd4;" horiz-adv-x="1587" 
d="M205 675q0 -263 167 -443t422 -181q254 0 420 179q166 178 166 442t-166 444t-420 180t-422 -179q-167 -179 -167 -442zM792 -23q-288 0 -481 202t-192 495q1 292 195 494t481 202t479 -202t192 -494t-193 -495q-193 -202 -481 -202zM549 1460l-35 39l279 260l276 -260
l-35 -39l-241 182z" />
    <glyph glyph-name="Otilde" unicode="&#xd5;" horiz-adv-x="1587" 
d="M932 1475q-68 0 -151 65t-128 66q-74 0 -102 -121l-64 14q9 80 55 134q46 55 116 55t150 -66q81 -66 126 -66q74 0 102 119l64 -12q-10 -80 -56 -134q-44 -54 -112 -54zM205 675q0 -263 167 -443t422 -181q254 0 420 179q166 178 166 442t-166 444t-420 180t-422 -179
q-167 -179 -167 -442zM792 -23q-288 0 -481 202t-192 495q1 292 195 494t481 202t479 -202t192 -494t-193 -495q-193 -202 -481 -202z" />
    <glyph glyph-name="Odieresis" unicode="&#xd6;" horiz-adv-x="1587" 
d="M205 675q0 -263 167 -443t422 -181q254 0 420 179q166 178 166 442t-166 444t-420 180t-422 -179q-167 -179 -167 -442zM792 -23q-288 0 -481 202t-192 495q1 292 195 494t481 202t479 -202t192 -494t-193 -495q-193 -202 -481 -202zM652 1505q-32 0 -54 24
q-22 25 -23 57q0 32 22 54q23 22 55 23q32 0 55 -23q23 -24 23 -56t-24 -56q-22 -24 -54 -23zM931 1505q-31 0 -53 24q-22 25 -22 57t22 54t54 23q32 0 54 -23q22 -24 22 -56t-22 -56t-55 -23z" />
    <glyph glyph-name="multiply" unicode="&#xd7;" horiz-adv-x="798" 
d="M631 256l-234 233l-229 -231l-51 49l231 232l-231 231l51 53l231 -233l232 231l49 -51l-231 -229l233 -234z" />
    <glyph glyph-name="Oslash" unicode="&#xd8;" horiz-adv-x="1587" 
d="M205 675q0 -263 160 -439l794 933q-154 127 -366 127q-254 0 -421 -179t-167 -442zM808 51q240 0 406 179q166 178 166 448t-172 448l-798 -936q158 -139 398 -139zM791 -23q-248 0 -431 156l-172 -201l-53 45l174 203q-190 201 -190 494q1 292 195 494t481 202
q233 0 413 -143l164 190l53 -45l-165 -190q206 -201 206 -501t-193 -502t-482 -202z" />
    <glyph glyph-name="Ugrave" unicode="&#xd9;" horiz-adv-x="1435" 
d="M430 1677q0 25 16 42q39 41 103 -13l254 -203l-19 -30l-295 141q-59 29 -59 63zM715 -23q-223 0 -342 126t-119 356v817h-188v72h462v-72h-192v-809q0 -205 97 -310t283 -105t285 104q98 104 99 309v811h-193v72h463v-72h-188v-813q0 -231 -122 -359t-345 -127z" />
    <glyph glyph-name="Uacute" unicode="&#xda;" horiz-adv-x="1435" 
d="M715 -23q-223 0 -342 126t-119 356v817h-188v72h462v-72h-192v-809q0 -205 97 -310t283 -105t285 104q98 104 99 309v811h-193v72h463v-72h-188v-813q0 -231 -122 -359t-345 -127zM946 1737q24 1 41 -17q16 -18 17 -43q0 -35 -60 -63l-295 -141l-18 30l254 203
q37 31 61 31z" />
    <glyph glyph-name="Ucircumflex" unicode="&#xdb;" horiz-adv-x="1435" 
d="M715 -23q-223 0 -342 126t-119 356v817h-188v72h462v-72h-192v-809q0 -205 97 -310t283 -105t285 104q98 104 99 309v811h-193v72h463v-72h-188v-813q0 -231 -122 -359t-345 -127zM473 1460l-35 39l279 260l276 -260l-35 -39l-241 182z" />
    <glyph glyph-name="Udieresis" unicode="&#xdc;" horiz-adv-x="1435" 
d="M715 -23q-223 0 -342 126t-119 356v817h-188v72h462v-72h-192v-809q0 -205 97 -310t283 -105t285 104q98 104 99 309v811h-193v72h463v-72h-188v-813q0 -231 -122 -359t-345 -127zM576 1505q-32 0 -54 24q-22 25 -22 57t22 54t54 23q32 0 55 -23q23 -24 23 -56t-24 -56
q-22 -24 -54 -23zM855 1505q-31 0 -53 24q-22 25 -22 57t22 54t54 23q32 0 54 -23q22 -24 22 -56t-22 -56t-55 -23z" />
    <glyph glyph-name="Yacute" unicode="&#xdd;" horiz-adv-x="1298" 
d="M877 1737q25 1 41 -17t16 -43q0 -35 -60 -63l-294 -141l-19 30l254 203q37 31 62 31zM399 0v72h207v491l-418 713h-153v72h418v-72h-168l366 -643l367 643h-170v72h416v-72h-156l-416 -713v-491h207v-72h-500z" />
    <glyph glyph-name="Thorn" unicode="&#xde;" horiz-adv-x="1185" 
d="M608 360q186 0 288 86q101 86 101 234t-104 236t-268 88t-254 -5v-634q102 -5 237 -5zM98 0v72h189v1204h-189v72h463v-72h-190v-205q123 6 233 6q215 -1 346 -109t131 -287t-127 -285t-348 -107q-141 0 -235 4v-221h196v-72h-469z" />
    <glyph glyph-name="germandbls" unicode="&#xdf;" horiz-adv-x="1062" 
d="M682 -16q-94 0 -153 36q-58 37 -58 91q0 31 17 49t44 18q26 0 44 -17t18 -46t-16 -41q30 -27 120 -27t153 57q62 57 62 154q0 135 -190 246q-103 62 -157 118t-54 147t121 210t121 254q0 94 -62 153t-160 60q-125 0 -186 -113q-33 -66 -33 -164v-1169h-223v68h148v716
h-158v68h158v311q0 129 51 215q82 135 250 135q125 -1 209 -79t83 -201q0 -158 -141 -295q-55 -55 -79 -93q-23 -38 -23 -88t43 -93q43 -42 141 -102t158 -132t61 -184q0 -112 -85 -186q-85 -76 -224 -76z" />
    <glyph glyph-name="agrave" unicode="&#xe0;" horiz-adv-x="966" 
d="M234 1294q24 0 61 -30l254 -203l-19 -31l-294 141q-59 29 -60 64q0 25 16 42q18 17 42 17zM389 51q164 0 295 150v178q-137 43 -262 43q-124 0 -188 -54t-64 -134t56 -131q56 -52 163 -52zM379 -14q-131 0 -208 70t-77 178q0 110 89 181t234 71t267 -50v156q0 80 -43 133
q-66 76 -195 76t-194 -66q20 -20 20 -50t-17 -48q-17 -19 -46 -19t-46 20t-18 50q0 66 83 122q82 56 236 56t234 -92q59 -66 60 -170v-536h147v-68h-219v129q-131 -143 -307 -143z" />
    <glyph glyph-name="aacute" unicode="&#xe1;" horiz-adv-x="966" 
d="M395 1030l-18 31l254 203q64 54 102 13q16 -17 17 -42q0 -35 -60 -64zM389 51q164 0 295 150v178q-137 43 -262 43q-124 0 -188 -54t-64 -134t56 -131q56 -52 163 -52zM379 -14q-131 0 -208 70t-77 178q0 110 89 181t234 71t267 -50v156q0 80 -43 133q-66 76 -195 76
t-194 -66q20 -20 20 -50t-17 -48q-17 -19 -46 -19t-46 20t-18 50q0 66 83 122q82 56 236 56t234 -92q59 -66 60 -170v-536h147v-68h-219v129q-131 -143 -307 -143z" />
    <glyph glyph-name="acircumflex" unicode="&#xe2;" horiz-adv-x="966" 
d="M219 1018l-35 39l279 260l276 -260l-34 -39l-242 182zM389 51q164 0 295 150v178q-137 43 -262 43q-124 0 -188 -54t-64 -134t56 -131q56 -52 163 -52zM379 -14q-131 0 -208 70t-77 178q0 110 89 181t234 71t267 -50v156q0 80 -43 133q-66 76 -195 76t-194 -66
q20 -20 20 -50t-17 -48q-17 -19 -46 -19t-46 20t-18 50q0 66 83 122q82 56 236 56t234 -92q59 -66 60 -170v-536h147v-68h-219v129q-131 -143 -307 -143z" />
    <glyph glyph-name="atilde" unicode="&#xe3;" horiz-adv-x="966" 
d="M602 1032q-68 0 -151 66t-127 65q-74 0 -103 -121l-63 15q10 80 55 134t115 54t161 -76q70 -55 115 -55q74 0 103 119l63 -12q-10 -80 -55 -135q-45 -54 -113 -54zM389 51q164 0 295 150v178q-137 43 -262 43q-124 0 -188 -54t-64 -134t56 -131q56 -52 163 -52zM379 -14
q-131 0 -208 70t-77 178q0 110 89 181t234 71t267 -50v156q0 80 -43 133q-66 76 -195 76t-194 -66q20 -20 20 -50t-17 -48q-17 -19 -46 -19t-46 20t-18 50q0 66 83 122q82 56 236 56t234 -92q59 -66 60 -170v-536h147v-68h-219v129q-131 -143 -307 -143z" />
    <glyph glyph-name="adieresis" unicode="&#xe4;" horiz-adv-x="966" 
d="M322 1221q34 0 56 -23q22 -24 22 -56t-23 -56q-22 -24 -54 -23q-32 -1 -55 23q-22 24 -22 57t22 55t54 23zM601 1063q-31 -1 -53 23t-22 57t22 55t54 23q32 0 54 -23q22 -24 22 -56t-22 -56t-55 -23zM389 51q164 0 295 150v178q-137 43 -262 43q-124 0 -188 -54t-64 -134
t56 -131q56 -52 163 -52zM379 -14q-131 0 -208 70t-77 178q0 110 89 181t234 71t267 -50v156q0 80 -43 133q-66 76 -195 76t-194 -66q20 -20 20 -50t-17 -48q-17 -19 -46 -19t-46 20t-18 50q0 66 83 122q82 56 236 56t234 -92q59 -66 60 -170v-536h147v-68h-219v129
q-131 -143 -307 -143z" />
    <glyph glyph-name="aring" unicode="&#xe5;" horiz-adv-x="966" 
d="M462 1073q52 0 86 37t34 91t-34 92t-86 38t-86 -38t-34 -92t34 -91t86 -37zM462 1012q-79 0 -133 55q-55 55 -55 134t54 135t134 56q79 0 133 -56t54 -135t-54 -134t-133 -55zM389 51q164 0 295 150v178q-137 43 -262 43q-124 0 -188 -54t-64 -134t56 -131
q56 -52 163 -52zM379 -14q-131 0 -208 70t-77 178q0 110 89 181t234 71t267 -50v156q0 80 -43 133q-66 76 -195 76t-194 -66q20 -20 20 -50t-17 -48q-17 -19 -46 -19t-46 20t-18 50q0 66 83 122q82 56 236 56t234 -92q59 -66 60 -170v-536h147v-68h-219v129
q-131 -143 -307 -143z" />
    <glyph glyph-name="ae" unicode="&#xe6;" horiz-adv-x="1536" 
d="M1073 799q-133 0 -221 -88t-102 -228h620q-4 139 -84 227t-213 89zM389 51q182 0 334 160q-33 80 -39 166q-139 45 -263 45q-123 0 -187 -54t-64 -134t56 -131q56 -52 163 -52zM447 799q-128 0 -195 -64q20 -25 20 -53t-17 -45q-17 -19 -46 -19t-46 20t-18 50
q0 66 83 122q82 56 234 56t232 -96q33 -41 45 -98q51 90 139 142t191 52q176 0 278 -116q101 -117 101 -283q0 -25 -4 -49h-696q4 -178 101 -272t253 -93q156 0 307 99l-8 -78q-131 -88 -299 -88q-246 0 -354 178q-164 -178 -369 -178q-131 0 -208 70t-77 178q0 110 89 181
t234 71t267 -50v148q0 82 -45 137q-64 78 -192 78z" />
    <glyph glyph-name="ccedilla" unicode="&#xe7;" horiz-adv-x="1017" 
d="M698 -264q0 -62 -48 -104t-143 -42t-194 48l21 51q84 -39 156 -39q132 0 133 81q0 81 -129 83q-20 0 -37 -4l-25 16l41 164q-168 18 -274 136q-107 118 -107 299t124 311t296 130q133 0 229 -72t97 -165q0 -35 -22 -60t-50 -25q-62 1 -64 62q0 45 50 66q-18 55 -87 91
t-153 36q-134 -1 -238 -107t-104 -271t104 -266t257 -101t288 89l-6 -75q-119 -82 -278 -82h-9l-14 -107q90 -2 138 -41t48 -102z" />
    <glyph glyph-name="egrave" unicode="&#xe8;" horiz-adv-x="964" 
d="M203 1230q0 30 16 47t41 17t62 -30l253 -203l-18 -31l-295 141q-59 29 -59 59zM497 799q-133 0 -222 -88t-103 -228h625q-6 139 -86 228q-81 88 -214 88zM528 53q156 0 306 99l-7 -78q-131 -88 -313 -88t-302 120t-120 314q0 192 115 319t289 127t276 -116t102 -283
q0 -31 -6 -49h-698q6 -176 104 -270t254 -95z" />
    <glyph glyph-name="eacute" unicode="&#xe9;" horiz-adv-x="964" 
d="M776 1230q0 -30 -59 -59l-295 -141l-19 31l254 203q64 54 103 13q16 -17 16 -47zM497 799q-133 0 -222 -88t-103 -228h625q-6 139 -86 228q-81 88 -214 88zM528 53q156 0 306 99l-7 -78q-131 -88 -313 -88t-302 120t-120 314q0 192 115 319t289 127t276 -116t102 -283
q0 -31 -6 -49h-698q6 -176 104 -270t254 -95z" />
    <glyph glyph-name="ecircumflex" unicode="&#xea;" horiz-adv-x="964" 
d="M248 1018l-35 39l279 260l276 -260l-35 -39l-241 182zM497 799q-133 0 -222 -88t-103 -228h625q-6 139 -86 228q-81 88 -214 88zM528 53q156 0 306 99l-7 -78q-131 -88 -313 -88t-302 120t-120 314q0 192 115 319t289 127t276 -116t102 -283q0 -31 -6 -49h-698
q6 -176 104 -270t254 -95z" />
    <glyph glyph-name="edieresis" unicode="&#xeb;" horiz-adv-x="964" 
d="M630 1063q-32 -1 -54 23t-21 57q0 33 22 55q23 22 55 23q32 0 54 -23q22 -24 21 -56t-23 -56t-54 -23zM351 1063q-33 -1 -55 23t-22 57t22 55t54 23q32 0 56 -23q22 -24 22 -56t-22 -56q-23 -23 -55 -23zM497 799q-133 0 -222 -88t-103 -228h625q-6 139 -86 228
q-81 88 -214 88zM528 53q156 0 306 99l-7 -78q-131 -88 -313 -88t-302 120t-120 314q0 192 115 319t289 127t276 -116t102 -283q0 -31 -6 -49h-698q6 -176 104 -270t254 -95z" />
    <glyph glyph-name="igrave" unicode="&#xec;" horiz-adv-x="548" 
d="M-12 1230q0 30 16 47t41 17t61 -30l254 -203l-18 -31l-295 141q-59 29 -59 59zM86 0v68h160v716h-160v68h236v-784h159v-68h-395z" />
    <glyph glyph-name="iacute" unicode="&#xed;" horiz-adv-x="548" 
d="M86 0v68h160v716h-160v68h236v-784h159v-68h-395zM561 1230q0 -30 -59 -59l-295 -141l-19 31l254 203q64 54 103 13q16 -17 16 -47z" />
    <glyph glyph-name="icircumflex" unicode="&#xee;" horiz-adv-x="548" 
d="M86 0v68h160v716h-160v68h236v-784h159v-68h-395zM31 1018l-35 39l278 260l277 -260l-35 -39l-242 182z" />
    <glyph glyph-name="idieresis" unicode="&#xef;" horiz-adv-x="548" 
d="M86 0v68h160v716h-160v68h236v-784h159v-68h-395zM134 1063q-32 -1 -54 23t-23 57q0 33 22 55q23 22 55 23q32 0 54 -23q22 -24 23 -56q-1 -32 -23 -56t-54 -23zM414 1221q32 0 54 -23q22 -24 22 -56t-23 -56q-22 -24 -54 -23q-32 -1 -54 23q-21 24 -21 57t22 55t54 23z
" />
    <glyph glyph-name="eth" unicode="&#xf0;" horiz-adv-x="1046" 
d="M877 420q-1 148 -101 246q-100 100 -254 100t-251 -102t-97 -256t97 -254t249 -100t254 108q102 110 103 258zM207 1364q-29 0 -48 19t-19 51t26 56q59 52 202 -7q142 -59 261 -183l202 187l46 -51l-203 -185q285 -317 284 -743q0 -264 -137 -402q-115 -120 -301 -120
t-306 122t-120 300t121 301t307 122q121 0 218 -61t143 -162q-23 328 -258 598l-275 -248l-43 52l273 245q-166 166 -308 187q0 -30 -18 -54t-47 -24z" />
    <glyph glyph-name="ntilde" unicode="&#xf1;" horiz-adv-x="1114" 
d="M712 1032q-68 0 -150 66q-83 66 -128 65q-74 0 -102 -121l-64 15q10 80 56 134t114 54q70 1 151 -65t126 -66q74 0 102 119l64 -12q-9 -81 -55 -135t-114 -54zM305 852v-172q156 186 326 186q274 0 274 -293v-505h150v-68h-373v68h147v495q0 92 -24 142q-45 92 -172 92
q-170 0 -324 -187v-542h148v-68h-373v68h149v716h-149v68h221z" />
    <glyph glyph-name="ograve" unicode="&#xf2;" horiz-adv-x="1050" 
d="M240 1230q0 30 16 47t41 17t61 -30l254 -203l-18 -31l-295 141q-59 29 -59 59zM524 53q154 -1 252 105t98 268t-98 267t-252 105t-252 -106t-98 -267t98 -267t252 -105zM524 -14q-186 0 -308 126t-122 313t122 314t309 127t309 -126t120 -313q0 -187 -122 -314t-308 -127
z" />
    <glyph glyph-name="oacute" unicode="&#xf3;" horiz-adv-x="1050" 
d="M524 53q154 -1 252 105t98 268t-98 267t-252 105t-252 -106t-98 -267t98 -267t252 -105zM524 -14q-186 0 -308 126t-122 313t122 314t309 127t309 -126t120 -313q0 -187 -122 -314t-308 -127zM809 1230q0 -30 -59 -59l-295 -141l-19 31l254 203q64 54 103 13
q16 -17 16 -47z" />
    <glyph glyph-name="ocircumflex" unicode="&#xf4;" horiz-adv-x="1050" 
d="M524 53q154 -1 252 105t98 268t-98 267t-252 105t-252 -106t-98 -267t98 -267t252 -105zM524 -14q-186 0 -308 126t-122 313t122 314t309 127t309 -126t120 -313q0 -187 -122 -314t-308 -127zM281 1018l-35 39l278 260l277 -260l-35 -39l-242 182z" />
    <glyph glyph-name="otilde" unicode="&#xf5;" horiz-adv-x="1050" 
d="M666 1032q-68 0 -151 66t-128 65q-74 0 -102 -121l-64 15q10 80 55 134t115 54q70 1 151 -65t126 -66q74 0 102 119l64 -12q-10 -81 -56 -135q-44 -54 -112 -54zM524 53q154 -1 252 105t98 268t-98 267t-252 105t-252 -106t-98 -267t98 -267t252 -105zM524 -14
q-186 0 -308 126t-122 313t122 314t309 127t309 -126t120 -313q0 -187 -122 -314t-308 -127z" />
    <glyph glyph-name="odieresis" unicode="&#xf6;" horiz-adv-x="1050" 
d="M524 53q154 -1 252 105t98 268t-98 267t-252 105t-252 -106t-98 -267t98 -267t252 -105zM524 -14q-186 0 -308 126t-122 313t122 314t309 127t309 -126t120 -313q0 -187 -122 -314t-308 -127zM384 1063q-32 -1 -54 23t-23 57q0 33 22 55q23 22 55 23q32 0 54 -23
q22 -24 23 -56q-1 -32 -23 -56t-54 -23zM664 1221q32 0 54 -23q22 -24 22 -56t-23 -56q-22 -24 -54 -23q-32 -1 -54 23q-21 24 -21 57t22 55t54 23z" />
    <glyph glyph-name="divide" unicode="&#xf7;" horiz-adv-x="798" 
d="M398 213q-28 -1 -48 21t-20 51t20 49t49 20t48 -20t19 -49t-20 -51t-48 -21zM399 725q-29 0 -49 20q-20 19 -20 49t20 52t48 20q28 0 48 -22t20 -50t-18 -48q-20 -20 -49 -21zM713 504h-627v71h627v-71z" />
    <glyph glyph-name="oslash" unicode="&#xf8;" horiz-adv-x="1050" 
d="M540 53q138 -1 236 105t98 263t-88 261l-477 -557q93 -72 231 -72zM510 799q-140 -1 -238 -107t-98 -264t90 -260l477 557q-91 74 -231 74zM524 -14q-145 0 -262 86l-102 -119l-51 43l104 121q-119 125 -119 310t122 312t308 127q147 0 262 -88l107 123l51 -43l-108 -125
q118 -129 118 -311t-122 -309t-308 -127z" />
    <glyph glyph-name="ugrave" unicode="&#xf9;" horiz-adv-x="1095" 
d="M252 1230q0 30 16 47t41 17t62 -30l254 -203l-19 -31l-295 141q-59 29 -59 59zM471 -14q-262 0 -262 293v505h-150v68h226v-565q0 -90 26 -144q47 -88 170 -88q158 0 324 193v536h-148v68h224v-784h149v-68h-223v180q-63 -84 -153 -139t-183 -55z" />
    <glyph glyph-name="uacute" unicode="&#xfa;" horiz-adv-x="1095" 
d="M471 -14q-262 0 -262 293v505h-150v68h226v-565q0 -90 26 -144q47 -88 170 -88q158 0 324 193v536h-148v68h224v-784h149v-68h-223v180q-63 -84 -153 -139t-183 -55zM825 1230q0 -30 -59 -59l-295 -141l-18 31l254 203q64 54 102 13q16 -17 16 -47z" />
    <glyph glyph-name="ucircumflex" unicode="&#xfb;" horiz-adv-x="1095" 
d="M471 -14q-262 0 -262 293v505h-150v68h226v-565q0 -90 26 -144q47 -88 170 -88q158 0 324 193v536h-148v68h224v-784h149v-68h-223v180q-63 -84 -153 -139t-183 -55zM295 1018l-35 39l279 260l276 -260l-35 -39l-241 182z" />
    <glyph glyph-name="udieresis" unicode="&#xfc;" horiz-adv-x="1095" 
d="M471 -14q-262 0 -262 293v505h-150v68h226v-565q0 -90 26 -144q47 -88 170 -88q158 0 324 193v536h-148v68h224v-784h149v-68h-223v180q-63 -84 -153 -139t-183 -55zM398 1063q-32 -1 -54 23t-22 57t22 55t54 23q32 0 55 -23q23 -24 23 -56t-23 -56q-23 -23 -55 -23z
M677 1063q-31 -1 -53 23t-22 57t22 55t54 23q32 0 54 -23q22 -24 22 -56t-22 -56t-55 -23z" />
    <glyph glyph-name="yacute" unicode="&#xfd;" horiz-adv-x="991" 
d="M784 1230q0 -30 -59 -59l-295 -141l-18 31l254 203q64 54 102 13q16 -17 16 -47zM55 -328q0 66 64 68q33 0 53 -26t16 -56q76 10 144 117q33 53 80 155l49 109l-330 745h-127v68h365v-68h-152l281 -665l286 665h-155v68h358v-68h-127l-399 -899q-35 -77 -78 -147
q-94 -147 -213 -148q-49 0 -82 24t-33 58z" />
    <glyph glyph-name="thorn" unicode="&#xfe;" horiz-adv-x="1058" 
d="M532 53q160 1 254 107t96 269t-91 266q-92 103 -240 104q-180 0 -313 -158v-463q133 -125 294 -125zM14 -401v67h148v1761h-148v68h224v-780q137 151 314 151t293 -123t116 -313t-118 -317t-294 -127t-311 116v-436h163v-67h-387z" />
    <glyph glyph-name="ydieresis" unicode="&#xff;" horiz-adv-x="991" 
d="M638 1063q-32 -1 -54 23t-21 57q0 33 22 55q23 22 55 23q32 0 54 -23q22 -24 21 -56t-23 -56t-54 -23zM359 1063q-33 -1 -55 23t-22 57t22 55t54 23q32 0 56 -23q22 -24 22 -56t-22 -56q-23 -23 -55 -23zM55 -328q0 66 64 68q33 0 53 -26t16 -56q76 10 144 117
q33 53 80 155l49 109l-330 745h-127v68h365v-68h-152l281 -665l286 665h-155v68h358v-68h-127l-399 -899q-35 -77 -78 -147q-94 -147 -213 -148q-49 0 -82 24t-33 58z" />
    <glyph glyph-name="Amacron" unicode="&#x100;" horiz-adv-x="1437" 
d="M430 1536v76h576v-76h-576zM455 571h526l-262 711zM35 0v72h147l451 1204h-170v72h512v-72h-170l450 -1204h150v-72h-416v72h176l-157 428h-580l-158 -428h181v-72h-416z" />
    <glyph glyph-name="amacron" unicode="&#x101;" horiz-adv-x="966" 
d="M174 1094v75h576v-75h-576zM389 51q164 0 295 150v178q-137 43 -262 43q-124 0 -188 -54t-64 -134t56 -131q56 -52 163 -52zM379 -14q-131 0 -208 70t-77 178q0 110 89 181t234 71t267 -50v156q0 80 -43 133q-66 76 -195 76t-194 -66q20 -20 20 -50t-17 -48
q-17 -19 -46 -19t-46 20t-18 50q0 66 83 122q82 56 236 56t234 -92q59 -66 60 -170v-536h147v-68h-219v129q-131 -143 -307 -143z" />
    <glyph glyph-name="Abreve" unicode="&#x102;" horiz-adv-x="1437" 
d="M718 1473q-95 0 -171 61t-111 158l60 28q66 -160 222 -160t224 160l57 -28q-35 -96 -110 -158q-76 -61 -171 -61zM455 571h526l-262 711zM35 0v72h147l451 1204h-170v72h512v-72h-170l450 -1204h150v-72h-416v72h176l-157 428h-580l-158 -428h181v-72h-416z" />
    <glyph glyph-name="abreve" unicode="&#x103;" horiz-adv-x="966" 
d="M462 1030q-95 0 -171 62t-111 157l60 29q66 -160 222 -160t224 160l57 -29q-35 -95 -111 -157t-170 -62zM389 51q164 0 295 150v178q-137 43 -262 43q-124 0 -188 -54t-64 -134t56 -131q56 -52 163 -52zM379 -14q-131 0 -208 70t-77 178q0 110 89 181t234 71t267 -50v156
q0 80 -43 133q-66 76 -195 76t-194 -66q20 -20 20 -50t-17 -48q-17 -19 -46 -19t-46 20t-18 50q0 66 83 122q82 56 236 56t234 -92q59 -66 60 -170v-536h147v-68h-219v129q-131 -143 -307 -143z" />
    <glyph glyph-name="Aogonek" unicode="&#x104;" horiz-adv-x="1437" 
d="M455 571h526l-262 711zM1205 -412q-93 0 -144 47t-51 127q0 141 155 238h-176v72h176l-157 428h-580l-158 -428h181v-72h-416v72h147l451 1204h-170v72h512v-72h-170l450 -1204h150v-72h-135q-88 -39 -137 -99q-49 -61 -49 -121t33 -93q35 -33 103 -33t146 43l-4 -59
q-64 -50 -157 -50z" />
    <glyph glyph-name="aogonek" unicode="&#x105;" horiz-adv-x="966" 
d="M389 51q164 0 295 150v178q-137 43 -262 43q-124 0 -188 -54t-64 -134t56 -131q56 -52 163 -52zM600 -220q0 -126 136 -126q68 0 147 43l-4 -59q-64 -50 -157 -50t-144 47t-52 127q0 143 160 240v127q-131 -143 -307 -143q-131 0 -208 70t-77 178q0 110 89 181t234 71
t267 -50v156q0 80 -43 133q-66 76 -195 76t-194 -66q20 -20 20 -50t-17 -48q-17 -19 -46 -19t-46 20t-18 50q0 66 83 122q82 56 236 56t234 -92q59 -66 60 -170v-536h147v-68h-119q-88 -39 -137 -99q-49 -61 -49 -121z" />
    <glyph glyph-name="Cacute" unicode="&#x106;" horiz-adv-x="1431" 
d="M787 -23q-289 0 -479 203q-189 203 -189 494q-1 292 195 494t472 202q204 0 350 -106t146 -234q0 -44 -24 -70t-58 -26t-54 22q-22 22 -22 51t18 51t46 25q-23 78 -134 146q-112 68 -268 67q-250 0 -416 -185t-165 -442q0 -257 167 -437t420 -181q253 0 447 182l45 -57
q-208 -199 -497 -199zM1016 1737q25 1 41 -17t16 -43q0 -35 -59 -63l-295 -141l-19 30l254 203q37 31 62 31z" />
    <glyph glyph-name="cacute" unicode="&#x107;" horiz-adv-x="929" 
d="M520 -14q-175 0 -302 120q-126 120 -126 310t124 320t296 130q133 0 229 -72t97 -165q0 -35 -22 -60t-50 -25q-62 1 -64 62q0 45 50 66q-18 55 -87 91t-153 36q-134 -1 -238 -107t-104 -271t104 -266t257 -101t288 89l-6 -75q-118 -82 -293 -82zM788 1230q0 -30 -59 -59
l-295 -141l-18 31l254 203q64 54 102 13q16 -17 16 -47z" />
    <glyph glyph-name="Cdotaccent" unicode="&#x10a;" horiz-adv-x="1431" 
d="M785 1501q-33 0 -57 25q-24 24 -24 58t24 58t58 25q34 0 57 -25q23 -24 23 -58t-24 -58t-57 -25zM787 -23q-289 0 -479 203q-189 203 -189 494q-1 292 195 494t472 202q204 0 350 -106t146 -234q0 -44 -24 -70t-58 -26t-54 22q-22 22 -22 51t18 51t46 25q-23 78 -134 146
q-112 68 -268 67q-250 0 -416 -185t-165 -442q0 -257 167 -437t420 -181q253 0 447 182l45 -57q-208 -199 -497 -199z" />
    <glyph glyph-name="cdotaccent" unicode="&#x10b;" horiz-adv-x="929" 
d="M505 1059q-34 1 -58 25q-23 24 -23 58t24 58t57 25q33 0 57 -25q24 -24 24 -58t-24 -58t-57 -25zM520 -14q-175 0 -302 120q-126 120 -126 310t124 320t296 130q133 0 229 -72t97 -165q0 -35 -22 -60t-50 -25q-62 1 -64 62q0 45 50 66q-18 55 -87 91t-153 36
q-134 -1 -238 -107t-104 -271t104 -266t257 -101t288 89l-6 -75q-118 -82 -293 -82z" />
    <glyph glyph-name="Ccaron" unicode="&#x10c;" horiz-adv-x="1431" 
d="M787 -23q-289 0 -479 203q-189 203 -189 494q-1 292 195 494t472 202q204 0 350 -106t146 -234q0 -44 -24 -70t-58 -26t-54 22q-22 22 -22 51t18 51t46 25q-23 78 -134 146q-112 68 -268 67q-250 0 -416 -185t-165 -442q0 -257 167 -437t420 -181q253 0 447 182l45 -57
q-208 -199 -497 -199zM1028 1763l35 -41l-277 -258l-278 258l35 41l243 -182z" />
    <glyph glyph-name="ccaron" unicode="&#x10d;" horiz-adv-x="929" 
d="M520 -14q-175 0 -302 120q-126 120 -126 310t124 320t296 130q133 0 229 -72t97 -165q0 -35 -22 -60t-50 -25q-62 1 -64 62q0 45 50 66q-18 55 -87 91t-153 36q-134 -1 -238 -107t-104 -271t104 -266t257 -101t288 89l-6 -75q-118 -82 -293 -82zM748 1321l34 -41
l-276 -258l-279 258l35 41l244 -182z" />
    <glyph glyph-name="Dcaron" unicode="&#x10e;" horiz-adv-x="1474" 
d="M369 72h241q317 0 488 167q170 167 170 441t-178 435t-494 161h-227v-1204zM98 0v72h187v1204h-187v72h500q348 0 551 -182t203 -487q0 -303 -200 -491t-550 -188h-504zM936 1763l35 -41l-277 -258l-278 258l35 41l243 -182z" />
    <glyph glyph-name="dcaron" unicode="&#x10f;" horiz-adv-x="1103" 
d="M508 53q180 0 317 158v463q-139 125 -298 125t-256 -108q-97 -109 -98 -269t93 -264t242 -105zM511 -14q-181 0 -299 123t-118 312t120 317t301 128t310 -123v684h-178v68h254v-1427h148v-68h-222v141q-135 -155 -316 -155zM1098 1493q56 0 55 -68q0 -161 -137 -321
l-29 20q63 102 64 201l-9 107q0 61 56 61z" />
    <glyph glyph-name="Dcroat" unicode="&#x110;" horiz-adv-x="1478" 
d="M375 72h239q317 0 488 167q170 167 170 441t-177 435t-493 161h-227v-549h325v-74h-325v-581zM291 653h-148v74h148v549h-189v72h500q350 0 553 -184t203 -486t-200 -490t-550 -188h-506v72h189v581z" />
    <glyph glyph-name="dcroat" unicode="&#x111;" horiz-adv-x="1103" 
d="M508 53q180 0 317 158v463q-139 125 -298 125t-256 -108q-97 -109 -98 -269t93 -264t242 -105zM489 1114v68h336v245h-178v68h254v-313h148v-68h-148v-1046h148v-68h-222v141q-135 -155 -316 -155t-299 123t-118 312t120 317t301 128t310 -123v371h-336z" />
    <glyph glyph-name="Emacron" unicode="&#x112;" horiz-adv-x="1189" 
d="M303 1536v76h576v-76h-576zM98 0v72h187v1204h-187v72h949v-299h-82v227h-596v-551h477v-74h-477v-579h596v227h82v-299h-949z" />
    <glyph glyph-name="emacron" unicode="&#x113;" horiz-adv-x="964" 
d="M203 1094v75h575v-75h-575zM497 799q-133 0 -222 -88t-103 -228h625q-6 139 -86 228q-81 88 -214 88zM528 53q156 0 306 99l-7 -78q-131 -88 -313 -88t-302 120t-120 314q0 192 115 319t289 127t276 -116t102 -283q0 -31 -6 -49h-698q6 -176 104 -270t254 -95z" />
    <glyph glyph-name="Ebreve" unicode="&#x114;" horiz-adv-x="1189" 
d="M591 1473q-95 0 -171 61t-111 158l60 28q67 -160 223 -160t223 160l57 -28q-35 -96 -110 -158q-76 -61 -171 -61zM98 0v72h187v1204h-187v72h949v-299h-82v227h-596v-551h477v-74h-477v-579h596v227h82v-299h-949z" />
    <glyph glyph-name="ebreve" unicode="&#x115;" horiz-adv-x="964" 
d="M491 1030q-95 0 -171 62t-111 157l59 29q66 -160 223 -160t224 160l57 -29q-34 -95 -110 -157t-171 -62zM497 799q-133 0 -222 -88t-103 -228h625q-6 139 -86 228q-81 88 -214 88zM528 53q156 0 306 99l-7 -78q-131 -88 -313 -88t-302 120t-120 314q0 192 115 319
t289 127t276 -116t102 -283q0 -31 -6 -49h-698q6 -176 104 -270t254 -95z" />
    <glyph glyph-name="Edotaccent" unicode="&#x116;" horiz-adv-x="1189" 
d="M591 1501q-33 0 -57 25q-24 24 -24 58t24 58t58 25q34 0 56 -25q24 -24 24 -58t-24 -58t-57 -25zM98 0v72h187v1204h-187v72h949v-299h-82v227h-596v-551h477v-74h-477v-579h596v227h82v-299h-949z" />
    <glyph glyph-name="edotaccent" unicode="&#x117;" horiz-adv-x="964" 
d="M491 1059q-34 1 -58 25q-23 24 -23 58t24 58t57 25q33 0 57 -25q24 -24 24 -58t-24 -58q-23 -24 -57 -25zM497 799q-133 0 -222 -88t-103 -228h625q-6 139 -86 228q-81 88 -214 88zM528 53q156 0 306 99l-7 -78q-131 -88 -313 -88t-302 120t-120 314q0 192 115 319
t289 127t276 -116t102 -283q0 -31 -6 -49h-698q6 -176 104 -270t254 -95z" />
    <glyph glyph-name="Eogonek" unicode="&#x118;" horiz-adv-x="1189" 
d="M762 -220q0 -126 136 -126q68 0 146 43l-4 -59q-63 -50 -156 -50t-145 47q-51 47 -51 127q0 141 156 238h-746v72h187v1204h-187v72h949v-299h-82v227h-596v-551h477v-74h-477v-579h596v227h82v-299h-99q-88 -39 -137 -99q-49 -61 -49 -121z" />
    <glyph glyph-name="eogonek" unicode="&#x119;" horiz-adv-x="964" 
d="M497 799q-133 0 -222 -88t-103 -228h625q-6 139 -86 228q-81 88 -214 88zM527 53q155 0 307 99l-7 -78q-151 -84 -227 -150t-76 -151q0 -53 34 -86t102 -33t147 43l-4 -59q-63 -50 -157 -50t-144 47q-51 47 -51 125q0 139 137 232q-31 -6 -60 -6q-196 0 -316 120
t-120 314q0 192 115 319t289 127t276 -116t102 -283q0 -31 -6 -49h-698q6 -176 104 -270t253 -95z" />
    <glyph glyph-name="Ecaron" unicode="&#x11a;" horiz-adv-x="1189" 
d="M98 0v72h187v1204h-187v72h949v-299h-82v227h-596v-551h477v-74h-477v-579h596v227h82v-299h-949zM834 1763l34 -41l-276 -258l-279 258l35 41l244 -182z" />
    <glyph glyph-name="ecaron" unicode="&#x11b;" horiz-adv-x="964" 
d="M733 1321l35 -41l-276 -258l-279 258l35 41l244 -182zM497 799q-133 0 -222 -88t-103 -228h625q-6 139 -86 228q-81 88 -214 88zM528 53q156 0 306 99l-7 -78q-131 -88 -313 -88t-302 120t-120 314q0 192 115 319t289 127t276 -116t102 -283q0 -31 -6 -49h-698
q6 -176 104 -270t254 -95z" />
    <glyph glyph-name="Gbreve" unicode="&#x11e;" horiz-adv-x="1501" 
d="M785 1473q-95 0 -171 61t-110 158l59 28q67 -160 223 -160t224 160l57 -28q-35 -96 -111 -158t-171 -61zM769 -16q-263 0 -456 185t-193 493t204 508q203 200 483 200q211 0 354 -98t144 -207q0 -39 -22 -64q-23 -25 -55 -25t-52 22t-20 63t44 61q-40 70 -148 122
t-247 52q-266 0 -432 -185t-166 -453t165 -435q164 -168 410 -168t461 164v330h-414v72h496v-621h-80v143q-213 -159 -476 -159z" />
    <glyph glyph-name="gbreve" unicode="&#x11f;" horiz-adv-x="1116" 
d="M560 1030q-95 0 -171 62t-110 157l59 29q66 -160 222 -160t224 160l58 -29q-35 -95 -111 -157t-171 -62zM531 799q-161 -1 -258 -107t-97 -263t94 -261t257 -104t300 159v449q-135 127 -296 127zM903 784v-837q0 -150 -76 -238q-100 -119 -305 -119t-291 95
q-37 37 -37 77t22 62t50 20q28 0 45 -18t17 -49t-31 -56q55 -63 223 -63t250 96q57 70 57 187v206q-139 -149 -316 -149t-295 123t-118 305t120 311t298 129t313 -127v113h222v-68h-148z" />
    <glyph glyph-name="Gdotaccent" unicode="&#x120;" horiz-adv-x="1501" 
d="M785 1501q-33 0 -57 25q-24 24 -24 58t24 58t58 25q34 0 57 -25q23 -24 23 -58t-24 -58t-57 -25zM769 -16q-263 0 -456 185t-193 493t204 508q203 200 483 200q211 0 354 -98t144 -207q0 -39 -22 -64q-23 -25 -55 -25t-52 22t-20 63t44 61q-40 70 -148 122t-247 52
q-266 0 -432 -185t-166 -453t165 -435q164 -168 410 -168t461 164v330h-414v72h496v-621h-80v143q-213 -159 -476 -159z" />
    <glyph glyph-name="gdotaccent" unicode="&#x121;" horiz-adv-x="1116" 
d="M560 1059q-34 1 -58 25t-23 58q0 34 24 58q23 24 57 25q34 0 58 -25q24 -24 23 -58q1 -34 -23 -58t-58 -25zM531 799q-161 -1 -258 -107t-97 -263t94 -261t257 -104t300 159v449q-135 127 -296 127zM903 784v-837q0 -150 -76 -238q-100 -119 -305 -119t-291 95
q-37 37 -37 77t22 62t50 20q28 0 45 -18t17 -49t-31 -56q55 -63 223 -63t250 96q57 70 57 187v206q-139 -149 -316 -149t-295 123t-118 305t120 311t298 129t313 -127v113h222v-68h-148z" />
    <glyph glyph-name="Gcommaaccent" unicode="&#x122;" horiz-adv-x="1501" 
d="M769 -16q-263 0 -456 185t-193 493t204 508q203 200 483 200q211 0 354 -98t144 -207q0 -39 -22 -64q-23 -25 -55 -25t-52 22t-20 63t44 61q-40 70 -148 122t-247 52q-266 0 -432 -185t-166 -453t165 -435q164 -168 410 -168t461 164v330h-414v72h496v-621h-80v143
q-213 -159 -476 -159zM715 -190q0 32 20 50q20 19 52 19q32 -1 55 -27q22 -26 22 -88t-49 -137q-49 -74 -141 -125l-17 29q127 102 131 203q-33 4 -53 24t-20 52z" />
    <glyph glyph-name="gcommaaccent" unicode="&#x123;" horiz-adv-x="1116" 
d="M531 799q-161 -1 -258 -107t-97 -263t94 -261t257 -104t300 159v449q-135 127 -296 127zM903 784v-837q0 -150 -76 -238q-100 -119 -305 -119t-291 95q-37 37 -37 77t22 62t50 20q28 0 45 -18t17 -49t-31 -56q55 -63 223 -63t250 96q57 70 57 187v206
q-139 -149 -316 -149t-295 123t-118 305t120 311t298 129t313 -127v113h222v-68h-148zM614 1147q0 -31 -20 -50t-52 -19t-55 26q-23 28 -23 90t50 136q49 74 141 124l17 -29q-127 -102 -131 -202q33 -5 53 -25t20 -51z" />
    <glyph glyph-name="Hbar" unicode="&#x126;" horiz-adv-x="1574" 
d="M369 731h835v242h-835v-242zM139 973v71h146v232h-187v72h461v-72h-190v-232h835v232h-188v72h461v-72h-189v-232h148v-71h-148v-901h189v-72h-461v72h188v583h-835v-583h190v-72h-461v72h187v901h-146z" />
    <glyph glyph-name="hbar" unicode="&#x127;" horiz-adv-x="1095" 
d="M209 1427h-148v68h224v-313h336v-68h-336v-432q65 80 153 132t183 52q145 0 215 -96q51 -68 51 -197v-505h149v-68h-372v68h147v495q0 111 -46 173t-157 61q-168 0 -323 -187v-542h149v-68h-373v68h148v1046h-148v68h148v245z" />
    <glyph glyph-name="Imacron" unicode="&#x12a;" horiz-adv-x="677" 
d="M53 1536v76h576v-76h-576zM100 0v72h197v1204h-197v72h480v-72h-199v-1204h199v-72h-480z" />
    <glyph glyph-name="imacron" unicode="&#x12b;" horiz-adv-x="548" 
d="M-14 1094v75h575v-75h-575zM86 0v68h160v716h-160v68h236v-784h159v-68h-395z" />
    <glyph glyph-name="Ibreve" unicode="&#x12c;" horiz-adv-x="677" 
d="M341 1473q-95 0 -171 61t-111 158l60 28q67 -160 223 -160t223 160l58 -28q-35 -96 -111 -158t-171 -61zM100 0v72h197v1204h-197v72h480v-72h-199v-1204h199v-72h-480z" />
    <glyph glyph-name="ibreve" unicode="&#x12d;" horiz-adv-x="548" 
d="M273 1030q-95 0 -171 62t-110 157l59 29q67 -160 223 -160t224 160l57 -29q-35 -95 -111 -157t-171 -62zM86 0v68h160v716h-160v68h236v-784h159v-68h-395z" />
    <glyph glyph-name="Iogonek" unicode="&#x12e;" horiz-adv-x="677" 
d="M242 -220q0 -126 136 -126q69 0 146 43l-4 -59q-63 -50 -156 -50t-145 47q-51 47 -51 127q0 141 156 238h-224v72h197v1204h-197v72h480v-72h-199v-1204h199v-72h-152q-88 -39 -137 -99q-49 -61 -49 -121z" />
    <glyph glyph-name="iogonek" unicode="&#x12f;" horiz-adv-x="542" 
d="M266 1139q-30 1 -52 23t-22 54t22 54t52 22t52 -22t22 -55q0 -32 -22 -54t-52 -22zM164 -220q0 -126 136 -126q68 0 146 43l-4 -59q-63 -50 -156 -50t-145 47q-51 47 -51 127q0 139 152 238h-156v68h160v716h-160v68h236v-784h159v-68h-137q-84 -39 -132 -99
q-48 -61 -48 -121z" />
    <glyph glyph-name="Idotaccent" unicode="&#x130;" horiz-adv-x="677" 
d="M341 1501q-33 0 -57 25q-24 24 -24 58t24 58t58 25q34 0 56 -25q24 -24 24 -58t-24 -58t-57 -25zM100 0v72h197v1204h-197v72h480v-72h-199v-1204h199v-72h-480z" />
    <glyph glyph-name="dotlessi" unicode="&#x131;" horiz-adv-x="548" 
d="M86 0v68h160v716h-160v68h236v-784h159v-68h-395z" />
    <glyph glyph-name="Kcommaaccent" unicode="&#x136;" horiz-adv-x="1351" 
d="M98 0v72h187v1204h-187v72h461v-72h-190v-711l692 711h-205v72h465v-72h-160l-489 -502l487 -702h174v-72h-227l-494 719l-243 -248v-399h190v-72h-461zM716 -121q32 -1 54 -27t23 -88t-49 -137q-50 -74 -142 -125l-16 29q127 102 131 203q-33 4 -53 24t-20 52t20 50
q20 19 52 19z" />
    <glyph glyph-name="kcommaaccent" unicode="&#x137;" horiz-adv-x="1024" 
d="M61 0v68h148v1359h-148v68h224v-1112l446 403h-203v66h453v-68h-152l-309 -278l307 -438h154v-68h-199l-317 465l-180 -164v-233h153v-68h-377zM451 -190q0 32 20 50q20 19 52 19q32 -1 55 -27q22 -26 22 -88t-49 -137q-49 -74 -141 -125l-17 29q127 102 131 203
q-33 4 -53 24t-20 52z" />
    <glyph glyph-name="Lacute" unicode="&#x139;" horiz-adv-x="1101" 
d="M98 0v72h187v1204h-187v72h465v-72h-194v-1204h546v237h80v-309h-897zM602 1755q24 0 41 -17q16 -17 16 -47t-59 -59l-295 -141l-18 31l254 202q37 31 61 31z" />
    <glyph glyph-name="lacute" unicode="&#x13a;" horiz-adv-x="520" 
d="M63 0v68h158v1359h-158v68h234v-1427h162v-68h-396zM508 1835q25 0 41 -17t16 -47t-59 -59l-295 -141l-18 31l253 202q37 31 62 31z" />
    <glyph glyph-name="Lcommaaccent" unicode="&#x13b;" horiz-adv-x="1101" 
d="M98 0v72h187v1204h-187v72h465v-72h-194v-1204h546v237h80v-309h-897zM550 -121q32 -1 54 -27t23 -88t-49 -137q-50 -74 -142 -125l-16 29q127 102 131 203q-33 4 -53 24t-20 52t20 50q20 19 52 19z" />
    <glyph glyph-name="lcommaaccent" unicode="&#x13c;" horiz-adv-x="520" 
d="M63 0v68h158v1359h-158v68h234v-1427h162v-68h-396zM261 -121q33 -1 55 -27t22 -88t-50 -137q-50 -74 -141 -125l-16 29q127 102 131 203q-33 4 -53 24q-21 20 -21 52t20 50q20 19 53 19z" />
    <glyph glyph-name="Lcaron" unicode="&#x13d;" horiz-adv-x="1101" 
d="M98 0v72h187v1204h-187v72h465v-72h-194v-1204h546v237h80v-309h-897zM815 1282q0 -161 -137 -321l-29 20q63 102 64 201l-8 106q0 61 55 62q55 0 55 -68z" />
    <glyph glyph-name="lcaron" unicode="&#x13e;" horiz-adv-x="520" 
d="M63 0v68h158v1359h-158v68h234v-1427h162v-68h-396zM496 1493q56 0 55 -68q0 -161 -137 -321l-29 20q63 102 64 201l-9 107q0 61 56 61z" />
    <glyph glyph-name="Ldot" unicode="&#x13f;" horiz-adv-x="1101" 
d="M876 633q-34 1 -58 25t-24 58t24 58t58 25q34 0 58 -25q24 -24 22 -58q0 -34 -23 -58t-57 -25zM98 0v72h187v1204h-187v72h465v-72h-194v-1204h546v237h80v-309h-897z" />
    <glyph glyph-name="ldot" unicode="&#x140;" horiz-adv-x="571" 
d="M542 625q-34 1 -58 25t-24 58t24 58t58 25q34 0 58 -25q24 -24 23 -58q1 -34 -23 -58t-58 -25zM63 0v68h158v1359h-158v68h234v-1427h162v-68h-396z" />
    <glyph glyph-name="Lslash" unicode="&#x141;" horiz-adv-x="1120" 
d="M115 0v72h186v503l-182 -108l-37 61l219 131v617h-186v72h465v-72h-195v-567l336 200l37 -61l-373 -223v-553h547v237h80v-309h-897z" />
    <glyph glyph-name="lslash" unicode="&#x142;" horiz-adv-x="561" 
d="M84 0v68h158v706l-195 -117l-33 58l228 137v575h-158v68h233v-598l172 102l35 -57l-207 -123v-751h162v-68h-395z" />
    <glyph glyph-name="Nacute" unicode="&#x143;" horiz-adv-x="1554" 
d="M365 72h192v-72h-459v72h187v1204h-187v72h258l865 -1182v1110h-191v72h455v-72h-187v-1282h-49l-884 1208v-1130zM1008 1737q25 1 41 -17t16 -43q0 -35 -59 -63l-295 -141l-19 30l254 203q37 31 62 31z" />
    <glyph glyph-name="nacute" unicode="&#x144;" horiz-adv-x="1114" 
d="M305 852v-172q156 186 326 186q274 0 274 -293v-505h150v-68h-373v68h147v495q0 92 -24 142q-45 92 -172 92q-170 0 -324 -187v-542h148v-68h-373v68h149v716h-149v68h221zM858 1230q0 -30 -59 -59l-295 -141l-19 31l254 203q64 54 103 13q16 -17 16 -47z" />
    <glyph glyph-name="Ncommaaccent" unicode="&#x145;" horiz-adv-x="1554" 
d="M365 72h192v-72h-459v72h187v1204h-187v72h258l865 -1182v1110h-191v72h455v-72h-187v-1282h-49l-884 1208v-1130zM709 -190q0 32 20 50q20 19 52 19q32 -1 55 -27q22 -26 22 -88t-49 -137q-49 -74 -141 -125l-17 29q127 102 131 203q-33 4 -53 24t-20 52z" />
    <glyph glyph-name="ncommaaccent" unicode="&#x146;" horiz-adv-x="1114" 
d="M305 852v-172q156 186 326 186q274 0 274 -293v-505h150v-68h-373v68h147v495q0 92 -24 142q-45 92 -172 92q-170 0 -324 -187v-542h148v-68h-373v68h149v716h-149v68h221zM500 -190q0 32 20 50q20 19 52 19q32 -1 55 -27t23 -88t-50 -137q-49 -74 -141 -125l-17 29
q127 102 131 203q-33 4 -53 24t-20 52z" />
    <glyph glyph-name="Ncaron" unicode="&#x147;" horiz-adv-x="1554" 
d="M365 72h192v-72h-459v72h187v1204h-187v72h258l865 -1182v1110h-191v72h455v-72h-187v-1282h-49l-884 1208v-1130zM1022 1763l35 -41l-277 -258l-278 258l35 41l243 -182z" />
    <glyph glyph-name="ncaron" unicode="&#x148;" horiz-adv-x="1114" 
d="M305 852v-172q156 186 326 186q274 0 274 -293v-505h150v-68h-373v68h147v495q0 92 -24 142q-45 92 -172 92q-170 0 -324 -187v-542h148v-68h-373v68h149v716h-149v68h221zM813 1321l35 -41l-277 -258l-278 258l35 41l243 -182z" />
    <glyph glyph-name="Omacron" unicode="&#x14c;" horiz-adv-x="1587" 
d="M205 675q0 -263 167 -443t422 -181q254 0 420 179q166 178 166 442t-166 444t-420 180t-422 -179q-167 -179 -167 -442zM792 -23q-288 0 -481 202t-192 495q1 292 195 494t481 202t479 -202t192 -494t-193 -495q-193 -202 -481 -202zM504 1536v76h575v-76h-575z" />
    <glyph glyph-name="omacron" unicode="&#x14d;" horiz-adv-x="1050" 
d="M524 53q154 -1 252 105t98 268t-98 267t-252 105t-252 -106t-98 -267t98 -267t252 -105zM524 -14q-186 0 -308 126t-122 313t122 314t309 127t309 -126t120 -313q0 -187 -122 -314t-308 -127zM236 1094v75h575v-75h-575z" />
    <glyph glyph-name="Obreve" unicode="&#x14e;" horiz-adv-x="1587" 
d="M792 1473q-95 0 -171 61t-111 158l59 28q66 -160 223 -160t224 160l57 -28q-35 -96 -110 -158q-76 -61 -171 -61zM205 675q0 -263 167 -443t422 -181q254 0 420 179q166 178 166 442t-166 444t-420 180t-422 -179q-167 -179 -167 -442zM792 -23q-288 0 -481 202t-192 495
q1 292 195 494t481 202t479 -202t192 -494t-193 -495q-193 -202 -481 -202z" />
    <glyph glyph-name="obreve" unicode="&#x14f;" horiz-adv-x="1050" 
d="M523 1030q-95 0 -171 62t-110 157l59 29q67 -160 223 -160t224 160l57 -29q-35 -95 -111 -157t-171 -62zM524 53q154 -1 252 105t98 268t-98 267t-252 105t-252 -106t-98 -267t98 -267t252 -105zM524 -14q-186 0 -308 126t-122 313t122 314t309 127t309 -126t120 -313
q0 -187 -122 -314t-308 -127z" />
    <glyph glyph-name="Ohungarumlaut" unicode="&#x150;" horiz-adv-x="1587" 
d="M205 675q0 -263 167 -443t422 -181q254 0 420 179q166 178 166 442t-166 444t-420 180t-422 -179q-167 -179 -167 -442zM792 -23q-288 0 -481 202t-192 495q1 292 195 494t481 202t479 -202t192 -494t-193 -495q-193 -202 -481 -202zM1225 1735q27 1 41 -15t14 -39
q0 -41 -63 -65l-297 -133l-19 28l262 197q35 27 62 27zM866 1745q24 0 40 -15t16 -46t-58 -58l-291 -153l-18 28l250 211q37 33 61 33z" />
    <glyph glyph-name="ohungarumlaut" unicode="&#x151;" horiz-adv-x="1050" 
d="M524 53q154 -1 252 105t98 268t-98 267t-252 105t-252 -106t-98 -267t98 -267t252 -105zM524 -14q-186 0 -308 126t-122 313t122 314t309 127t309 -126t120 -313q0 -187 -122 -314t-308 -127zM651 1040l-18 29l262 197q35 26 62 26q53 -1 55 -53q0 -41 -64 -65zM598 1303
q54 0 55 -62q0 -31 -57 -57l-291 -154l-18 29l250 211q37 33 61 33z" />
    <glyph glyph-name="OE" unicode="&#x152;" horiz-adv-x="1880" 
d="M856 72h119v1204h-131q-305 0 -472 -168t-167 -440t174 -434t477 -162zM854 0q-336 0 -536 183t-200 485t198 491q198 188 534 189h887v-299h-80v227h-596v-551h477v-74h-477v-579h596v227h80v-299h-883z" />
    <glyph glyph-name="oe" unicode="&#x153;" horiz-adv-x="1734" 
d="M1273 799q-132 0 -222 -88t-105 -228h625q-6 139 -86 227t-212 89zM524 53q154 -1 252 105t98 268t-98 267t-252 105t-252 -106t-98 -267t98 -267t252 -105zM1302 53q156 0 308 99l-8 -78q-130 -88 -288 -88t-260 70q-101 71 -145 196q-45 -121 -146 -194t-239 -72
q-186 0 -308 126t-122 313t122 314t308 127q139 0 241 -72q101 -73 144 -196q41 121 135 195t226 73q174 0 276 -116t103 -283q0 -31 -7 -49h-698q6 -176 104 -270t254 -95z" />
    <glyph glyph-name="Racute" unicode="&#x154;" horiz-adv-x="1239" 
d="M575 653q182 0 292 82q110 83 110 229q-1 146 -103 229t-278 83h-227v-619q122 -4 206 -4zM98 0v72h187v1204h-187v72h504q209 0 335 -106t126 -260t-88 -250t-238 -132l336 -528h164v-72h-221l-367 586q-45 -4 -135 -4t-145 2v-512h190v-72h-461zM846 1737q25 1 41 -17
t16 -43q0 -35 -59 -63l-295 -141l-19 30l254 203q37 31 62 31z" />
    <glyph glyph-name="racute" unicode="&#x155;" horiz-adv-x="696" 
d="M307 1030l-18 31l254 203q64 54 102 13q16 -17 17 -42q0 -35 -60 -64zM553 866q55 0 82 -24t27 -55q0 -32 -18 -51t-49 -19q-30 0 -50 20t-23 47q-113 -18 -213 -198v-518h168v-68h-393v68h149v716h-149v68h221v-190q49 88 121 146t127 58z" />
    <glyph glyph-name="Rcommaaccent" unicode="&#x156;" horiz-adv-x="1239" 
d="M575 653q182 0 292 82q110 83 110 229q-1 146 -103 229t-278 83h-227v-619q122 -4 206 -4zM98 0v72h187v1204h-187v72h504q209 0 335 -106t126 -260t-88 -250t-238 -132l336 -528h164v-72h-221l-367 586q-45 -4 -135 -4t-145 2v-512h190v-72h-461zM549 -190q0 32 20 50
q20 19 52 19q32 -1 55 -27q22 -26 22 -88t-49 -137q-49 -74 -141 -125l-16 29q127 102 131 203q-33 4 -54 24q-20 20 -20 52z" />
    <glyph glyph-name="rcommaaccent" unicode="&#x157;" horiz-adv-x="696" 
d="M195 -190q0 32 20 50q20 19 52 19q32 -1 55 -27q22 -26 22 -88t-49 -137q-49 -74 -141 -125l-17 29q127 102 131 203q-33 4 -53 24t-20 52zM553 866q55 0 82 -24t27 -55q0 -32 -18 -51t-49 -19q-30 0 -50 20t-23 47q-113 -18 -213 -198v-518h168v-68h-393v68h149v716
h-149v68h221v-190q49 88 121 146t127 58z" />
    <glyph glyph-name="Rcaron" unicode="&#x158;" horiz-adv-x="1239" 
d="M575 653q182 0 292 82q110 83 110 229q-1 146 -103 229t-278 83h-227v-619q122 -4 206 -4zM98 0v72h187v1204h-187v72h504q209 0 335 -106t126 -260t-88 -250t-238 -132l336 -528h164v-72h-221l-367 586q-45 -4 -135 -4t-145 2v-512h190v-72h-461zM860 1763l35 -41
l-277 -258l-278 258l35 41l243 -182z" />
    <glyph glyph-name="rcaron" unicode="&#x159;" horiz-adv-x="696" 
d="M616 1321l35 -41l-276 -258l-279 258l35 41l244 -182zM553 866q55 0 82 -24t27 -55q0 -32 -18 -51t-49 -19q-30 0 -50 20t-23 47q-113 -18 -213 -198v-518h168v-68h-393v68h149v716h-149v68h221v-190q49 88 121 146t127 58z" />
    <glyph glyph-name="Sacute" unicode="&#x15a;" horiz-adv-x="1083" 
d="M543 -20q-182 0 -301 84t-119 180q-1 42 21 68t53 26t51 -20t20 -60q0 -39 -45 -68q33 -57 120 -97t221 -40t224 79t90 200q0 122 -82 188q-83 66 -208 116t-181 78q-159 80 -206 178q-29 60 -29 138q0 146 110 242t272 96t272 -78t110 -172q0 -38 -22 -62t-52 -24
t-50 20q-22 20 -22 57q0 36 39 69q-27 49 -105 83t-165 33q-133 0 -219 -74t-86 -189q0 -116 96 -184t211 -112q115 -45 171 -73q151 -77 200 -180q29 -60 29 -138q0 -164 -118 -264t-300 -100zM799 1737q25 1 41 -17t16 -43q0 -35 -59 -63l-295 -141l-19 30l254 203
q37 31 62 31z" />
    <glyph glyph-name="sacute" unicode="&#x15b;" horiz-adv-x="843" 
d="M360 1030l-18 31l254 203q64 54 102 13q16 -17 17 -42q0 -35 -60 -64zM719 704q1 -37 -17 -56t-45 -19t-45 18t-18 47t20 51q-56 55 -176 55t-182 -46t-61 -104t37 -90t79 -47t123 -35t124 -36q125 -44 166 -116q24 -43 24 -103q0 -106 -92 -172t-230 -65q-92 0 -171 28
t-121 71q-42 42 -42 81t18 59q18 21 45 21q28 0 45 -18t17 -48q0 -31 -24 -49q20 -31 86 -55t163 -25q96 0 164 47t68 123t-62 113q-62 36 -200 70q-140 34 -216 82t-75 148q0 100 85 167q85 66 216 65q176 0 258 -86q39 -39 39 -76z" />
    <glyph glyph-name="Scedilla" unicode="&#x15e;" horiz-adv-x="1083" 
d="M731 -264q0 -62 -48 -104t-143 -42t-194 48l21 51q85 -39 157 -39q134 0 131 82q0 80 -129 82q-20 0 -37 -4l-24 16l39 156q-166 8 -274 90t-107 172q-1 42 21 68t53 26t51 -20t20 -60q0 -39 -45 -68q33 -57 120 -97t221 -40t224 79t90 200q0 122 -82 188
q-83 66 -208 116t-181 78q-159 80 -206 178q-29 60 -29 138q0 146 110 242t272 96t272 -78t110 -172q0 -38 -22 -62t-52 -24t-50 20q-22 20 -22 57q0 36 39 69q-27 49 -105 83t-165 33q-133 0 -219 -74t-86 -189q0 -116 96 -184t211 -112q115 -45 171 -73q151 -77 200 -180
q29 -60 29 -138q0 -160 -113 -260t-291 -104l-12 -101q90 -2 138 -41t48 -102z" />
    <glyph glyph-name="scedilla" unicode="&#x15f;" horiz-adv-x="843" 
d="M616 -264q0 -62 -48 -104t-143 -42t-194 48l21 51q84 -39 156 -39q132 0 133 81q0 81 -129 83q-20 0 -37 -4l-25 16l41 162q-176 10 -260 100q-39 39 -39 78t18 59q18 21 45 21q28 0 45 -18t17 -48q0 -31 -24 -49q20 -31 86 -55t163 -25q96 0 164 47t68 123t-62 113
q-62 36 -200 70q-140 34 -216 82t-75 148q0 100 85 167q85 66 216 65q176 0 258 -86q39 -39 39 -76q1 -37 -17 -56t-45 -19t-45 18t-18 47t20 51q-56 55 -176 55t-182 -46t-61 -104t37 -90t79 -47t123 -35t124 -36q125 -44 166 -116q24 -43 24 -103q0 -102 -85 -168
t-219 -69l-14 -107q90 -2 138 -41t48 -102z" />
    <glyph glyph-name="Scaron" unicode="&#x160;" horiz-adv-x="1083" 
d="M543 -20q-182 0 -301 84t-119 180q-1 42 21 68t53 26t51 -20t20 -60q0 -39 -45 -68q33 -57 120 -97t221 -40t224 79t90 200q0 122 -82 188q-83 66 -208 116t-181 78q-159 80 -206 178q-29 60 -29 138q0 146 110 242t272 96t272 -78t110 -172q0 -38 -22 -62t-52 -24
t-50 20q-22 20 -22 57q0 36 39 69q-27 49 -105 83t-165 33q-133 0 -219 -74t-86 -189q0 -116 96 -184t211 -112q115 -45 171 -73q151 -77 200 -180q29 -60 29 -138q0 -164 -118 -264t-300 -100zM813 1763l35 -41l-277 -258l-278 258l35 41l243 -182z" />
    <glyph glyph-name="scaron" unicode="&#x161;" horiz-adv-x="843" 
d="M670 1321l35 -41l-277 -258l-278 258l34 41l244 -182zM719 704q1 -37 -17 -56t-45 -19t-45 18t-18 47t20 51q-56 55 -176 55t-182 -46t-61 -104t37 -90t79 -47t123 -35t124 -36q125 -44 166 -116q24 -43 24 -103q0 -106 -92 -172t-230 -65q-92 0 -171 28t-121 71
q-42 42 -42 81t18 59q18 21 45 21q28 0 45 -18t17 -48q0 -31 -24 -49q20 -31 86 -55t163 -25q96 0 164 47t68 123t-62 113q-62 36 -200 70q-140 34 -216 82t-75 148q0 100 85 167q85 66 216 65q176 0 258 -86q39 -39 39 -76z" />
    <glyph glyph-name="Tcommaaccent" unicode="&#x162;" horiz-adv-x="1282" 
d="M399 0v72h201v1204h-424v-238h-82v310h1094v-310h-82v238h-422v-1204h199v-72h-484zM640 -121q32 -1 54 -27t23 -88t-49 -137q-50 -74 -142 -125l-16 29q127 102 131 203q-33 4 -53 24t-20 52t20 50q20 19 52 19z" />
    <glyph glyph-name="tcommaaccent" unicode="&#x163;" horiz-adv-x="612" 
d="M264 195q0 -136 123 -138q70 0 156 52l-13 -76q-77 -47 -159 -47q-119 0 -162 94q-20 43 -21 106v598h-155v68h155v227l76 27v-254h275v-68h-275v-589zM339 -121q33 -1 55 -27t22 -88t-50 -137q-50 -74 -141 -125l-16 29q127 102 131 203q-33 4 -53 24q-21 20 -21 52
t20 50q20 19 53 19z" />
    <glyph glyph-name="Tcaron" unicode="&#x164;" horiz-adv-x="1282" 
d="M399 0v72h201v1204h-424v-238h-82v310h1094v-310h-82v238h-422v-1204h199v-72h-484zM883 1763l35 -41l-277 -258l-279 258l35 41l244 -182z" />
    <glyph glyph-name="tcaron" unicode="&#x165;" horiz-adv-x="612" 
d="M264 195q0 -136 123 -138q70 0 156 52l-13 -76q-77 -47 -159 -47q-119 0 -162 94q-20 43 -21 106v598h-155v68h155v227l76 27v-254h275v-68h-275v-589zM481 1372q55 0 56 -67q-1 -162 -138 -322l-28 21q63 102 63 200l-8 107q0 61 55 61z" />
    <glyph glyph-name="Umacron" unicode="&#x16a;" horiz-adv-x="1435" 
d="M428 1536v76h576v-76h-576zM715 -23q-223 0 -342 126t-119 356v817h-188v72h462v-72h-192v-809q0 -205 97 -310t283 -105t285 104q98 104 99 309v811h-193v72h463v-72h-188v-813q0 -231 -122 -359t-345 -127z" />
    <glyph glyph-name="umacron" unicode="&#x16b;" horiz-adv-x="1095" 
d="M250 1094v75h575v-75h-575zM471 -14q-262 0 -262 293v505h-150v68h226v-565q0 -90 26 -144q47 -88 170 -88q158 0 324 193v536h-148v68h224v-784h149v-68h-223v180q-63 -84 -153 -139t-183 -55z" />
    <glyph glyph-name="Ubreve" unicode="&#x16c;" horiz-adv-x="1435" 
d="M716 1473q-95 0 -171 61t-111 158l60 28q66 -160 222 -160t224 160l57 -28q-35 -96 -110 -158q-76 -61 -171 -61zM715 -23q-223 0 -342 126t-119 356v817h-188v72h462v-72h-192v-809q0 -205 97 -310t283 -105t285 104q98 104 99 309v811h-193v72h463v-72h-188v-813
q0 -231 -122 -359t-345 -127z" />
    <glyph glyph-name="ubreve" unicode="&#x16d;" horiz-adv-x="1095" 
d="M538 1030q-95 0 -171 62t-111 157l59 29q66 -160 223 -160t224 160l57 -29q-35 -95 -111 -157t-170 -62zM471 -14q-262 0 -262 293v505h-150v68h226v-565q0 -90 26 -144q47 -88 170 -88q158 0 324 193v536h-148v68h224v-784h149v-68h-223v180q-63 -84 -153 -139t-183 -55
z" />
    <glyph glyph-name="Uring" unicode="&#x16e;" horiz-adv-x="1435" 
d="M715 -23q-223 0 -342 126t-119 356v817h-188v72h462v-72h-192v-809q0 -205 97 -310t283 -105t285 104q98 104 99 309v811h-193v72h463v-72h-188v-813q0 -231 -122 -359t-345 -127zM596 1644q0 -54 34 -91t86 -37t86 36t34 92q0 54 -34 92t-86 38t-86 -38t-34 -92z
M903 1644q0 -78 -54 -134t-133 -56t-133 55q-55 55 -55 135t54 135q54 56 134 56q79 0 133 -56t54 -135z" />
    <glyph glyph-name="uring" unicode="&#x16f;" horiz-adv-x="1095" 
d="M471 -14q-262 0 -262 293v505h-150v68h226v-565q0 -90 26 -144q47 -88 170 -88q158 0 324 193v536h-148v68h224v-784h149v-68h-223v180q-63 -84 -153 -139t-183 -55zM538 1073q52 0 86 37t34 91t-34 92t-86 38t-86 -38t-34 -92t34 -91t86 -37zM538 1012q-79 0 -134 55
q-54 55 -54 134t54 135t134 56t133 -56q54 -56 54 -135t-54 -134t-133 -55z" />
    <glyph glyph-name="Uhungarumlaut" unicode="&#x170;" horiz-adv-x="1435" 
d="M1149 1735q27 1 41 -15t14 -39q0 -41 -63 -65l-297 -133l-19 28l262 197q35 27 62 27zM791 1745q53 0 55 -55q0 -37 -58 -64l-290 -153l-19 28l250 211q37 33 62 33zM715 -23q-223 0 -342 126t-119 356v817h-188v72h462v-72h-192v-809q0 -205 97 -310t283 -105t285 104
q98 104 99 309v811h-193v72h463v-72h-188v-813q0 -231 -122 -359t-345 -127z" />
    <glyph glyph-name="uhungarumlaut" unicode="&#x171;" horiz-adv-x="1095" 
d="M1026 1239q0 -41 -63 -65l-297 -134l-19 29l262 197q35 26 62 26t41 -15t14 -38zM612 1303q24 1 40 -15q15 -16 16 -41q0 -37 -58 -63l-291 -154l-18 29l250 211q37 33 61 33zM471 -14q-262 0 -262 293v505h-150v68h226v-565q0 -90 26 -144q47 -88 170 -88q158 0 324 193
v536h-148v68h224v-784h149v-68h-223v180q-63 -84 -153 -139t-183 -55z" />
    <glyph glyph-name="Uogonek" unicode="&#x172;" horiz-adv-x="1435" 
d="M767 -412q-93 0 -144 47t-52 127q0 123 123 215q-212 7 -326 133t-114 349v817h-188v72h462v-72h-192v-809q0 -205 97 -310t283 -105t285 104q98 104 99 309v811h-193v72h463v-72h-188v-813q0 -209 -100 -334t-285 -145q-152 -84 -152 -209q0 -55 34 -88q35 -33 103 -33
t146 43l-4 -59q-64 -50 -157 -50z" />
    <glyph glyph-name="uogonek" unicode="&#x173;" horiz-adv-x="1095" 
d="M721 -220q1 -126 137 -126q68 0 146 43l-5 -59q-63 -50 -156 -50t-145 47q-51 47 -51 127q0 143 160 240v178q-63 -84 -153 -139t-183 -55q-262 0 -262 293v505h-150v68h226v-565q0 -90 26 -144q47 -88 170 -88q158 0 324 193v536h-148v68h224v-784h149v-68h-123
q-88 -39 -137 -99q-49 -61 -49 -121z" />
    <glyph glyph-name="Wcircumflex" unicode="&#x174;" horiz-adv-x="1972" 
d="M27 1276v72h438v-72h-182l335 -1153l349 1040h49l348 -1040l334 1153h-187v72h439v-72h-170l-389 -1303h-52l-350 1033l-350 -1033h-51l-391 1303h-170zM743 1458l-34 39l278 260l277 -260l-35 -39l-242 182z" />
    <glyph glyph-name="wcircumflex" unicode="&#x175;" horiz-adv-x="1357" 
d="M6 784v68h361v-66h-154l188 -671l265 635h30l265 -635l188 671h-158v66h363v-68h-133l-238 -819h-33l-270 653l-272 -653h-31l-242 819h-129zM436 1016l-35 39l279 260l276 -260l-34 -39l-242 182z" />
    <glyph glyph-name="Ycircumflex" unicode="&#x176;" horiz-adv-x="1298" 
d="M403 1460l-34 39l278 260l277 -260l-35 -39l-242 182zM399 0v72h207v491l-418 713h-153v72h418v-72h-168l366 -643l367 643h-170v72h416v-72h-156l-416 -713v-491h207v-72h-500z" />
    <glyph glyph-name="ycircumflex" unicode="&#x177;" horiz-adv-x="991" 
d="M256 1018l-35 39l279 260l276 -260l-35 -39l-241 182zM55 -328q0 66 64 68q33 0 53 -26t16 -56q76 10 144 117q33 53 80 155l49 109l-330 745h-127v68h365v-68h-152l281 -665l286 665h-155v68h358v-68h-127l-399 -899q-35 -77 -78 -147q-94 -147 -213 -148q-49 0 -82 24
t-33 58z" />
    <glyph glyph-name="Ydieresis" unicode="&#x178;" horiz-adv-x="1298" 
d="M507 1505q-33 0 -55 24q-22 25 -22 57t22 54t54 23q32 0 56 -23q22 -24 22 -56t-22 -56t-55 -23zM785 1505q-31 0 -53 24q-22 25 -22 57t22 54t54 23q32 0 55 -23q21 -24 21 -56t-22 -56t-55 -23zM399 0v72h207v491l-418 713h-153v72h418v-72h-168l366 -643l367 643h-170
v72h416v-72h-156l-416 -713v-491h207v-72h-500z" />
    <glyph glyph-name="Zacute" unicode="&#x179;" horiz-adv-x="1191" 
d="M86 0v37l881 1241h-754v-229h-80v299h952v-37l-878 -1241h817v229h80v-299h-1018zM824 1737q24 1 40 -17t17 -43q0 -35 -60 -63l-295 -141l-18 30l254 203q38 31 62 31z" />
    <glyph glyph-name="zacute" unicode="&#x17a;" horiz-adv-x="843" 
d="M70 0v27l579 759h-471v-174h-72v240h660v-29l-580 -757h516v174h72v-240h-704zM356 1030l-18 31l254 203q64 54 102 13q16 -17 17 -42q0 -35 -60 -64z" />
    <glyph glyph-name="Zdotaccent" unicode="&#x17b;" horiz-adv-x="1191" 
d="M595 1501q-33 0 -57 25q-24 24 -24 58t24 58t58 25q34 0 56 -25q24 -24 24 -58t-24 -58t-57 -25zM86 0v37l881 1241h-754v-229h-80v299h952v-37l-878 -1241h817v229h80v-299h-1018z" />
    <glyph glyph-name="zdotaccent" unicode="&#x17c;" horiz-adv-x="843" 
d="M423 1059q-33 1 -57 25t-24 58t24 58t58 25q34 0 56 -25q24 -24 24 -58t-24 -58t-57 -25zM70 0v27l579 759h-471v-174h-72v240h660v-29l-580 -757h516v174h72v-240h-704z" />
    <glyph glyph-name="Zcaron" unicode="&#x17d;" horiz-adv-x="1191" 
d="M86 0v37l881 1241h-754v-229h-80v299h952v-37l-878 -1241h817v229h80v-299h-1018zM838 1763l34 -41l-276 -258l-279 258l35 41l244 -182z" />
    <glyph glyph-name="zcaron" unicode="&#x17e;" horiz-adv-x="843" 
d="M70 0v27l579 759h-471v-174h-72v240h660v-29l-580 -757h516v174h72v-240h-704zM666 1321l34 -41l-276 -258l-279 258l35 41l244 -182z" />
    <glyph glyph-name="Aringacute" unicode="&#x1fa;" horiz-adv-x="1437" 
d="M718 1352q52 0 86 37t34 91t-34 92t-86 38t-86 -38t-34 -92t34 -91t86 -37zM455 571h526l-262 711zM905 1479q0 -82 -67 -131h137v-72h-170l450 -1204h150v-72h-416v72h176l-157 428h-580l-158 -428h181v-72h-416v72h147l451 1204h-170v72h135q-66 53 -66 134t54 135
t133 54q78 0 132 -55t54 -137zM1001 1957q0 -30 -59 -59l-295 -141l-18 31l254 203q64 54 102 13q16 -17 16 -47z" />
    <glyph glyph-name="aringacute" unicode="&#x1fb;" horiz-adv-x="966" 
d="M482 1073q52 0 86 37t34 91t-34 92t-86 38t-86 -38t-34 -92t34 -91t86 -37zM482 1012q-79 0 -133 55t-54 134t54 135t133 56t133 -56q55 -56 55 -135t-54 -134t-134 -55zM768 1710q0 -35 -59 -63l-295 -142l-19 31l254 203q64 54 103 13q16 -17 16 -42zM389 51
q164 0 295 150v178q-137 43 -262 43q-124 0 -188 -54t-64 -134t56 -131q56 -52 163 -52zM379 -14q-131 0 -208 70t-77 178q0 110 89 181t234 71t267 -50v156q0 80 -43 133q-66 76 -195 76t-194 -66q20 -20 20 -50t-17 -48q-17 -19 -46 -19t-46 20t-18 50q0 66 83 122
q82 56 236 56t234 -92q59 -66 60 -170v-536h147v-68h-219v129q-131 -143 -307 -143z" />
    <glyph glyph-name="AEacute" unicode="&#x1fc;" horiz-adv-x="1748" 
d="M846 571v705h-29l-358 -705h387zM-41 0v72h162l614 1204h-164v72h1035v-299h-80v227h-596v-551h477v-74h-477v-579h596v227h80v-299h-938v72h178v428h-424l-217 -428h157v-72h-403zM1190 1737q25 1 41 -17t16 -43q0 -35 -59 -63l-295 -141l-19 30l254 203q37 31 62 31z
" />
    <glyph glyph-name="aeacute" unicode="&#x1fd;" horiz-adv-x="1536" 
d="M1042 1230q0 -30 -59 -59l-295 -141l-18 31l254 203q64 54 102 13q16 -17 16 -47zM1073 799q-133 0 -221 -88t-102 -228h620q-4 139 -84 227t-213 89zM389 51q182 0 334 160q-33 80 -39 166q-139 45 -263 45q-123 0 -187 -54t-64 -134t56 -131q56 -52 163 -52zM447 799
q-128 0 -195 -64q20 -25 20 -53t-17 -45q-17 -19 -46 -19t-46 20t-18 50q0 66 83 122q82 56 234 56t232 -96q33 -41 45 -98q51 90 139 142t191 52q176 0 278 -116q101 -117 101 -283q0 -25 -4 -49h-696q4 -178 101 -272t253 -93q156 0 307 99l-8 -78q-131 -88 -299 -88
q-246 0 -354 178q-164 -178 -369 -178q-131 0 -208 70t-77 178q0 110 89 181t234 71t267 -50v148q0 82 -45 137q-64 78 -192 78z" />
    <glyph glyph-name="Oslashacute" unicode="&#x1fe;" horiz-adv-x="1587" 
d="M1022 1737q24 1 41 -17q16 -18 16 -43q0 -35 -59 -63l-295 -141l-18 30l254 203q37 31 61 31zM205 675q0 -263 160 -439l794 933q-154 127 -366 127q-254 0 -421 -179t-167 -442zM808 51q240 0 406 179q166 178 166 448t-172 448l-798 -936q158 -139 398 -139zM791 -23
q-248 0 -431 156l-172 -201l-53 45l174 203q-190 201 -190 494q1 292 195 494t481 202q233 0 413 -143l164 190l53 -45l-165 -190q206 -201 206 -501t-193 -502t-482 -202z" />
    <glyph glyph-name="oslashacute" unicode="&#x1ff;" horiz-adv-x="1050" 
d="M809 1230q0 -30 -59 -59l-295 -141l-19 31l254 203q64 54 103 13q16 -17 16 -47zM540 53q138 -1 236 105t98 263t-88 261l-477 -557q93 -72 231 -72zM510 799q-140 -1 -238 -107t-98 -264t90 -260l477 557q-91 74 -231 74zM524 -14q-145 0 -262 86l-102 -119l-51 43
l104 121q-119 125 -119 310t122 312t308 127q147 0 262 -88l107 123l51 -43l-108 -125q118 -129 118 -311t-122 -309t-308 -127z" />
    <glyph glyph-name="Scommaaccent" unicode="&#x218;" horiz-adv-x="1083" 
d="M543 -20q-182 0 -301 84t-119 180q-1 42 21 68t53 26t51 -20t20 -60q0 -39 -45 -68q33 -57 120 -97t221 -40t224 79t90 200q0 122 -82 188q-83 66 -208 116t-181 78q-159 80 -206 178q-29 60 -29 138q0 146 110 242t272 96t272 -78t110 -172q0 -38 -22 -62t-52 -24
t-50 20q-22 20 -22 57q0 36 39 69q-27 49 -105 83t-165 33q-133 0 -219 -74t-86 -189q0 -116 96 -184t211 -112q115 -45 171 -73q151 -77 200 -180q29 -60 29 -138q0 -164 -118 -264t-300 -100zM494 -190q0 32 20 50q20 19 52 19q32 -1 55 -27t23 -88t-50 -137
q-49 -74 -141 -125l-17 29q127 102 131 203q-33 4 -53 24t-20 52z" />
    <glyph glyph-name="scommaaccent" unicode="&#x219;" horiz-adv-x="843" 
d="M427 -121q33 -1 55 -27t22 -88t-50 -137q-50 -74 -141 -125l-16 29q127 102 131 203q-33 4 -53 24q-21 20 -21 52t20 50q20 19 53 19zM719 704q1 -37 -17 -56t-45 -19t-45 18t-18 47t20 51q-56 55 -176 55t-182 -46t-61 -104t37 -90t79 -47t123 -35t124 -36
q125 -44 166 -116q24 -43 24 -103q0 -106 -92 -172t-230 -65q-92 0 -171 28t-121 71q-42 42 -42 81t18 59q18 21 45 21q28 0 45 -18t17 -48q0 -31 -24 -49q20 -31 86 -55t163 -25q96 0 164 47t68 123t-62 113q-62 36 -200 70q-140 34 -216 82t-75 148q0 100 85 167
q85 66 216 65q176 0 258 -86q39 -39 39 -76z" />
    <glyph glyph-name="schwa" unicode="&#x259;" horiz-adv-x="964" 
d="M467 53q133 0 222 88t104 228h-625q4 -139 85 -227t214 -89zM469 -14q-174 0 -275 116t-102 283q0 37 2 49h701q-7 174 -105 269t-254 95t-305 -98l6 78q131 88 313 88t304 -121q120 -121 120 -312t-116 -319t-289 -128z" />
    <glyph glyph-name="circumflex" unicode="&#x2c6;" horiz-adv-x="1030" 
d="M272 1018l-34 39l278 260l277 -260l-35 -39l-242 182z" />
    <glyph glyph-name="caron" unicode="&#x2c7;" horiz-adv-x="1030" 
d="M758 1321l35 -41l-277 -258l-278 258l34 41l244 -182z" />
    <glyph glyph-name="breve" unicode="&#x2d8;" horiz-adv-x="1030" 
d="M515 1030q-95 0 -171 62t-111 157l60 29q67 -160 223 -160t223 160l58 -29q-35 -95 -111 -157t-171 -62z" />
    <glyph glyph-name="dotaccent" unicode="&#x2d9;" horiz-adv-x="1030" 
d="M515 1059q-33 1 -57 25t-24 58t24 58t58 25q34 0 56 -25q24 -24 24 -58t-24 -58t-57 -25z" />
    <glyph glyph-name="ring" unicode="&#x2da;" horiz-adv-x="1030" 
d="M515 1073q52 0 86 37t34 91t-34 92t-86 38t-86 -38t-34 -92t34 -91t86 -37zM515 1012q-79 0 -133 55t-54 134t54 135t133 56t133 -56t54 -135t-54 -134t-133 -55z" />
    <glyph glyph-name="ogonek" unicode="&#x2db;" horiz-adv-x="1036" 
d="M383 -214q1 -132 137 -132q68 0 146 43l-4 -59q-64 -50 -157 -50t-145 47q-51 47 -51 132t71 162t179 116l80 -18q-119 -39 -187 -107t-69 -134z" />
    <glyph glyph-name="tilde" unicode="&#x2dc;" horiz-adv-x="1030" 
d="M652 1032q-68 0 -150 66q-83 66 -127 65q-74 0 -103 -121l-63 15q10 80 55 134t115 54q70 1 151 -65t125 -66q74 0 103 119l63 -12q-10 -80 -55 -135q-46 -54 -114 -54z" />
    <glyph glyph-name="hungarumlaut" unicode="&#x2dd;" horiz-adv-x="1030" 
d="M909 1239q0 -41 -63 -65l-297 -134l-19 29l263 197q65 50 102 11q14 -15 14 -38zM496 1303q55 0 55 -62q0 -31 -57 -57l-291 -154l-19 29l250 211q37 33 62 33z" />
    <glyph glyph-name="commaaccent" unicode="&#x326;" horiz-adv-x="458" 
d="M162 -190q0 32 20 50q20 19 52 19q32 -1 55 -27t23 -88t-50 -137q-49 -74 -141 -125l-17 29q127 102 132 203q-33 4 -54 24q-20 20 -20 52z" />
    <glyph glyph-name="Wgrave" unicode="&#x1e80;" horiz-adv-x="1972" 
d="M1053 1470l-295 142q-59 29 -60 63q0 25 16 42q40 41 103 -13l254 -203zM27 1276v72h438v-72h-182l335 -1153l349 1040h49l348 -1040l334 1153h-187v72h439v-72h-170l-389 -1303h-52l-350 1033l-350 -1033h-51l-391 1303h-170z" />
    <glyph glyph-name="wgrave" unicode="&#x1e81;" horiz-adv-x="1357" 
d="M448 1292q24 0 62 -30l254 -203l-19 -31l-294 141q-59 29 -60 64q1 25 17 42t40 17zM6 784v68h361v-66h-154l188 -671l265 635h30l265 -635l188 671h-158v66h363v-68h-133l-238 -819h-33l-270 653l-272 -653h-31l-242 819h-129z" />
    <glyph glyph-name="Wacute" unicode="&#x1e82;" horiz-adv-x="1972" 
d="M27 1276v72h438v-72h-182l335 -1153l349 1040h49l348 -1040l334 1153h-187v72h439v-72h-170l-389 -1303h-52l-350 1033l-350 -1033h-51l-391 1303h-170zM1215 1735q25 1 41 -17t16 -43q0 -35 -60 -63l-294 -142l-19 31l254 203q37 31 62 31z" />
    <glyph glyph-name="wacute" unicode="&#x1e83;" horiz-adv-x="1357" 
d="M6 784v68h361v-66h-154l188 -671l265 635h30l265 -635l188 671h-158v66h363v-68h-133l-238 -819h-33l-270 653l-272 -653h-31l-242 819h-129zM610 1028l-18 31l254 203q64 54 102 13q16 -17 17 -42q0 -35 -60 -64z" />
    <glyph glyph-name="Wdieresis" unicode="&#x1e84;" horiz-adv-x="1972" 
d="M27 1276v72h438v-72h-182l335 -1153l349 1040h49l348 -1040l334 1153h-187v72h439v-72h-170l-389 -1303h-52l-350 1033l-350 -1033h-51l-391 1303h-170zM847 1503q-33 0 -55 24q-22 25 -22 57t22 54t54 23q32 0 56 -23q22 -24 22 -56t-22 -56t-55 -23zM1125 1503
q-31 0 -53 24q-22 25 -22 57t22 54t54 23q32 0 55 -23q21 -24 21 -56t-22 -56t-55 -23z" />
    <glyph glyph-name="wdieresis" unicode="&#x1e85;" horiz-adv-x="1357" 
d="M6 784v68h361v-66h-154l188 -671l265 635h30l265 -635l188 671h-158v66h363v-68h-133l-238 -819h-33l-270 653l-272 -653h-31l-242 819h-129zM539 1219q33 0 55 -23q22 -24 22 -56t-22 -56t-54 -23q-32 -1 -55 23t-23 57t22 55t55 23zM818 1061q-32 -1 -54 23t-21 57
q0 33 22 55q23 22 55 23q32 0 54 -23q22 -24 21 -56t-23 -56t-54 -23z" />
    <glyph glyph-name="Ygrave" unicode="&#x1ef2;" horiz-adv-x="1298" 
d="M715 1473l-295 141q-59 29 -60 63q0 25 16 42q40 41 103 -13l254 -203zM399 0v72h207v491l-418 713h-153v72h418v-72h-168l366 -643l367 643h-170v72h416v-72h-156l-416 -713v-491h207v-72h-500z" />
    <glyph glyph-name="ygrave" unicode="&#x1ef3;" horiz-adv-x="991" 
d="M211 1230q0 30 16 47t41 17t62 -30l254 -203l-19 -31l-295 141q-59 29 -59 59zM55 -328q0 66 64 68q33 0 53 -26t16 -56q76 10 144 117q33 53 80 155l49 109l-330 745h-127v68h365v-68h-152l281 -665l286 665h-155v68h358v-68h-127l-399 -899q-35 -77 -78 -147
q-94 -147 -213 -148q-49 0 -82 24t-33 58z" />
    <glyph glyph-name="enspace" unicode="&#x2002;" horiz-adv-x="1024" 
 />
    <glyph glyph-name="emspace" unicode="&#x2003;" horiz-adv-x="2048" 
 />
    <glyph glyph-name="threeperemspace" unicode="&#x2004;" horiz-adv-x="681" 
 />
    <glyph glyph-name="fourperemspace" unicode="&#x2005;" horiz-adv-x="512" 
 />
    <glyph glyph-name="figurespace" unicode="&#x2007;" 
 />
    <glyph glyph-name="thinspace" unicode="&#x2009;" horiz-adv-x="272" 
 />
    <glyph glyph-name="hairspace" unicode="&#x200a;" horiz-adv-x="153" 
 />
    <glyph glyph-name="endash" unicode="&#x2013;" horiz-adv-x="835" 
d="M41 520v78h754v-78h-754z" />
    <glyph glyph-name="emdash" unicode="&#x2014;" horiz-adv-x="1394" 
d="M41 520v78h1311v-78h-1311z" />
    <glyph glyph-name="quoteleft" unicode="&#x2018;" horiz-adv-x="352" 
d="M252 1037q0 -33 -24 -57t-60 -24q-37 0 -64 32t-26 85q0 90 57 181t160 149l20 -33q-143 -111 -147 -248q36 -4 60 -28t24 -57z" />
    <glyph glyph-name="quoteright" unicode="&#x2019;" horiz-adv-x="352" 
d="M102 1303q0 33 25 57t61 24t62 -32q27 -32 26 -84q0 -90 -57 -182q-58 -91 -160 -148l-20 33q143 111 147 248q-36 3 -60 27t-24 57z" />
    <glyph glyph-name="quotesinglbase" unicode="&#x201a;" horiz-adv-x="342" 
d="M88 76q0 34 23 56t57 22t60 -30t26 -98t-54 -147q-54 -80 -157 -137l-18 31q139 111 143 221q-36 4 -58 26t-22 56z" />
    <glyph glyph-name="quotedblleft" unicode="&#x201c;" horiz-adv-x="657" 
d="M252 1037q0 -33 -24 -57t-60 -24q-37 0 -64 32t-26 85q0 90 57 181t160 149l20 -33q-143 -111 -147 -248q36 -4 60 -28t24 -57zM555 1037q1 -33 -23 -57t-61 -24t-63 32t-27 104q0 72 57 162q57 91 160 149l20 -33q-145 -113 -145 -248q35 -4 59 -28t23 -57z" />
    <glyph glyph-name="quotedblright" unicode="&#x201d;" horiz-adv-x="657" 
d="M102 1303q0 33 25 57t61 24t62 -32q27 -32 26 -84q0 -90 -57 -182q-58 -91 -160 -148l-20 33q143 111 147 248q-36 3 -60 27t-24 57zM580 1250q0 -72 -56 -164t-159 -148l-21 33q141 113 145 248q-35 3 -59 27t-24 57t24 57t60 24t63 -32q27 -30 27 -102z" />
    <glyph glyph-name="quotedblbase" unicode="&#x201e;" horiz-adv-x="643" 
d="M88 76q0 34 23 56t57 22t60 -30t26 -98t-54 -147q-54 -80 -157 -137l-18 31q139 111 143 221q-36 4 -58 26t-22 56zM389 76q0 34 23 56q22 22 58 22t60 -30t25 -98t-53 -148q-54 -81 -158 -136l-18 31q137 106 145 221q-35 2 -59 26t-23 56z" />
    <glyph glyph-name="dagger" unicode="&#x2020;" horiz-adv-x="856" 
d="M39 824q0 32 29 62t114 11l226 -45l-35 340q-13 106 55 106t55 -106l-34 -340l225 45q28 6 62 6q34 1 58 -23t24 -57t-20 -55t-52 -20q-32 0 -54 26t-18 64l-209 -23l-16 -819h-43l-15 819l-211 23q2 -39 -18 -65q-20 -25 -53 -25t-52 21q-18 23 -18 55z" />
    <glyph glyph-name="daggerdbl" unicode="&#x2021;" horiz-adv-x="856" 
d="M429 -254q-69 0 -56 109l30 276l-196 -41q-37 -8 -65 -8t-55 24q-26 24 -26 57q-1 31 19 53t53 22t53 -26t19 -62l184 20l21 352l-21 355l-184 20q1 -39 -19 -63t-53 -25q-33 0 -52 20q-19 21 -19 53t25 56q26 24 60 25q34 0 60 -7l196 -41l-30 277q-11 106 57 106
t51 -106l-30 -277l198 41q83 17 115 -13q31 -29 31 -61q-1 -32 -21 -52t-52 -21q-32 0 -54 25t-19 63l-182 -20l-21 -355l21 -352l182 -20q-2 36 20 62q21 26 53 26t52 -22t20 -54t-25 -56q-27 -24 -55 -24t-65 8l-198 41l30 -276q17 -109 -52 -109z" />
    <glyph glyph-name="bullet" unicode="&#x2022;" horiz-adv-x="509" 
d="M256 385q-68 0 -115 48t-47 118t47 118t115 48t114 -48t46 -118t-46 -118t-114 -48z" />
    <glyph glyph-name="ellipsis" unicode="&#x2026;" horiz-adv-x="1077" 
d="M188 -16q-34 0 -58 24t-24 61t24 61t58 24t60 -25q24 -25 24 -61t-24 -60q-25 -24 -60 -24zM539 -16q-35 0 -59 24t-24 61t24 61t59 24t59 -25t23 -61q1 -36 -23 -60t-59 -24zM887 -16q-35 0 -59 24t-24 61t24 61t59 24t59 -25t25 -61q-1 -36 -25 -60t-59 -24z" />
    <glyph glyph-name="perthousand" unicode="&#x2030;" horiz-adv-x="1769" 
d="M244 -43l-54 39l791 1032l53 -37l-397 -518q-377 -489 -393 -516zM1434 47q68 0 112 51t43 123q0 72 -44 123q-43 51 -111 51t-113 -51t-45 -123t45 -123t113 -51zM750 221q0 -72 44 -123t112 -51q69 0 113 51t44 123t-44 123t-113 51q-68 0 -112 -51t-44 -123zM337 629
q69 0 113 50t44 123t-44 124t-113 51t-113 -51t-44 -124t44 -123t113 -50zM337 567q-95 0 -161 69t-66 166t66 166q66 68 161 68t161 -68t66 -166q0 -97 -66 -166t-161 -69zM1659 221q1 -99 -65 -167t-161 -68t-161 68t-66 167q0 98 66 167t161 69t161 -69t65 -167z
M1133 221q0 -99 -66 -167t-161 -68t-161 68t-65 167q0 98 65 167q66 69 161 69t161 -69t66 -167z" />
    <glyph glyph-name="guilsinglleft" unicode="&#x2039;" horiz-adv-x="540" 
d="M399 229l-336 322l336 319l47 -45l-282 -274l282 -275z" />
    <glyph glyph-name="guilsinglright" unicode="&#x203a;" horiz-adv-x="540" 
d="M141 229l-47 47l283 275l-283 274l47 45l336 -319z" />
    <glyph glyph-name="fraction" unicode="&#x2044;" horiz-adv-x="999" 
d="M76 6l803 1319l49 -29l-801 -1319z" />
    <glyph glyph-name="zero.sup" unicode="&#x2070;" horiz-adv-x="722" 
d="M360 930q92 0 152 89q59 89 59 233t-58 234q-59 90 -151 89q-92 0 -151 -89q-59 -90 -59 -234t58 -233t150 -89zM360 870q-120 0 -198 106t-78 276q0 172 79 278t199 106t199 -105q78 -105 78 -277t-79 -278t-200 -106z" />
    <glyph glyph-name="four.sup" unicode="&#x2074;" horiz-adv-x="722" 
d="M309 883v55h140v166h-363l-12 26l397 508l49 -36l-354 -445h283v184l61 27v-211h133v-53h-133v-166h108v-55h-309z" />
    <glyph glyph-name="five.sup" unicode="&#x2075;" horiz-adv-x="722" 
d="M352 868q-108 0 -177 41t-69 95q0 22 16 38t36 17q49 0 49 -47q0 -25 -17 -33q34 -51 140 -51t163 52q56 52 56 131t-53 126q-52 47 -146 47t-176 -41l-31 17l39 364h387v-63h-331l-27 -244q76 27 143 26q119 0 191 -61q71 -61 71 -169q0 -109 -78 -177t-186 -68z" />
    <glyph glyph-name="six.sup" unicode="&#x2076;" horiz-adv-x="722" 
d="M368 928q89 0 143 51t54 127t-52 126t-137 50q-86 0 -142 -51t-56 -127t49 -121q52 -55 141 -55zM590 1516q0 -55 -49 -56q-49 0 -49 47q0 20 14 35q-25 39 -103 39q-104 0 -173 -99t-68 -270v-4q16 33 43 60q69 70 179 70t178 -66t69 -166q0 -100 -73 -169
q-74 -69 -188 -69t-192 78t-78 274t88 307q88 112 218 111q98 0 153 -55q31 -30 31 -67z" />
    <glyph glyph-name="seven.sup" unicode="&#x2077;" horiz-adv-x="722" 
d="M182 1569v-129h-61v184h497l13 -29l-330 -712h-70l322 686h-371z" />
    <glyph glyph-name="eight.sup" unicode="&#x2078;" horiz-adv-x="722" 
d="M168 1082q0 -68 54 -110t139 -42t141 42q55 42 55 108t-57 112q-58 46 -140 47q-82 0 -137 -45t-55 -112zM360 1292q74 0 126 41t52 103t-50 102q-52 39 -128 39t-126 -39t-50 -101q0 -61 51 -103t125 -42zM360 870q-116 0 -188 58t-72 136q0 79 52 134t129 70
q-74 18 -118 67t-44 122t69 125q70 52 173 52t175 -52t70 -124q0 -72 -45 -122t-121 -68q78 -16 130 -70t52 -135t-73 -137q-74 -56 -189 -56z" />
    <glyph glyph-name="nine.sup" unicode="&#x2079;" horiz-adv-x="722" 
d="M354 1579q-88 0 -142 -51t-54 -127t52 -126t137 -50t141 51t56 127t-48 121q-54 55 -142 55zM133 991q0 55 49 56q49 0 49 -48q0 -23 -14 -36q27 -37 102 -37q104 0 174 99q69 99 68 269v4q-14 -31 -43 -59q-70 -70 -180 -70t-178 66t-68 166t73 169q73 68 187 68
t193 -78q78 -78 78 -272q0 -196 -88 -308t-218 -112q-98 0 -153 56q-31 30 -31 67z" />
    <glyph glyph-name="zero.inf" unicode="&#x2080;" horiz-adv-x="722" 
d="M360 -238q92 0 152 90t59 233q0 144 -58 233q-59 90 -151 90t-151 -90t-59 -233t58 -233t150 -90zM360 -297q-120 -1 -198 105t-78 277t79 277t199 106t199 -104q78 -104 78 -276t-79 -278t-200 -107z" />
    <glyph glyph-name="one.inf" unicode="&#x2081;" horiz-adv-x="722" 
d="M141 -285v60h205v614l-199 -49l-14 59l246 62h33v-686h200v-60h-471z" />
    <glyph glyph-name="two.inf" unicode="&#x2082;" horiz-adv-x="722" 
d="M535 270q-1 60 -49 102t-118 42t-117 -29q-46 -29 -54 -59q35 -14 35 -40t-15 -42q-14 -16 -35 -17q-55 0 -55 67t68 122t171 55t171 -57q67 -56 67 -140t-47 -137t-151 -121q-178 -117 -222 -245h371v129h61v-185h-491l-19 31q55 178 261 313q88 59 128 105t40 106z" />
    <glyph glyph-name="three.inf" unicode="&#x2083;" horiz-adv-x="722" 
d="M364 -297q-106 0 -184 46t-78 112q0 27 16 44t36 17q22 0 35 -14t13 -39t-24 -39q12 -24 64 -48t126 -24t130 45q55 45 55 113t-61 111t-170 45h-43v57h45q90 0 150 43q60 44 60 106t-48 98t-118 36t-111 -20q-42 -20 -56 -46q25 -12 25 -36t-14 -40q-14 -14 -34 -14
t-37 16q-16 16 -16 45q0 55 66 104q67 48 171 48t172 -53t68 -126t-54 -124t-132 -64q88 -12 146 -65t58 -134t-74 -141q-76 -60 -182 -59z" />
    <glyph glyph-name="four.inf" unicode="&#x2084;" horiz-adv-x="722" 
d="M309 -285v56h140v166h-363l-12 26l397 508l49 -37l-354 -444h283v184l61 27v-211h133v-53h-133v-166h108v-56h-309z" />
    <glyph glyph-name="five.inf" unicode="&#x2085;" horiz-adv-x="722" 
d="M352 -299q-108 0 -177 41t-69 94q0 23 16 39t36 16q49 0 49 -47q0 -25 -17 -32q34 -52 140 -52t162 52t57 132q0 79 -53 126q-52 47 -146 47t-176 -41l-31 16l39 365h387v-64h-331l-27 -243q76 27 143 26q119 0 191 -61q71 -61 71 -169t-78 -176t-186 -69z" />
    <glyph glyph-name="six.inf" unicode="&#x2086;" horiz-adv-x="722" 
d="M368 -240q89 0 143 52t54 127q0 76 -52 126t-137 50q-86 1 -142 -51t-56 -128t49 -120q52 -56 141 -56zM590 348q0 -55 -49 -55t-49 47q0 20 14 35q-25 39 -103 39q-104 0 -173 -100t-68 -269v-4q16 33 43 59q69 70 179 70t178 -66t69 -166q0 -100 -73 -168
q-74 -69 -188 -69t-192 78q-78 77 -78 273t88 308t218 111q98 0 153 -55q31 -31 31 -68z" />
    <glyph glyph-name="seven.inf" unicode="&#x2087;" horiz-adv-x="722" 
d="M182 401v-129h-61v185h497l13 -29l-330 -713h-70l322 686h-371z" />
    <glyph glyph-name="eight.inf" unicode="&#x2088;" horiz-adv-x="722" 
d="M361 -238q85 0 141 42q55 42 55 108t-57 114q-58 46 -140 46t-137 -45t-55 -112t54 -110t139 -43zM360 125q74 0 126 41t52 103q0 61 -50 101q-52 40 -128 40t-126 -39t-50 -101t51 -104q51 -41 125 -41zM360 -297q-116 0 -188 57q-72 56 -72 136t52 135t129 69
q-74 18 -118 68t-44 122q0 73 69 125q70 52 173 52t175 -52q72 -53 70 -125q0 -72 -45 -122t-121 -68q78 -16 130 -70t52 -134t-73 -136q-74 -56 -189 -57z" />
    <glyph glyph-name="nine.inf" unicode="&#x2089;" horiz-adv-x="722" 
d="M354 412q-88 0 -142 -52t-54 -127t52 -125t137 -50t141 50q56 52 56 128t-48 120q-54 56 -142 56zM133 -176q0 55 49 55t49 -47q0 -23 -14 -37q27 -37 102 -37q103 0 173 100t69 269v4q-14 -31 -43 -59q-70 -70 -180 -70t-178 66t-68 166t73 168q73 69 187 69t193 -78
q78 -77 78 -273t-88 -308t-218 -111q-98 0 -153 55q-31 31 -31 68z" />
    <glyph glyph-name="Euro" unicode="&#x20ac;" horiz-adv-x="1132" 
d="M68 600v64h137q47 168 177 269t287 101t265 -78t108 -174q0 -34 -20 -58t-49 -24t-46 18t-18 42q0 47 45 61q-18 53 -94 99t-198 47q-122 0 -228 -84t-149 -219h428v-64h-445q-8 -43 -8 -96t8 -92h445v-64h-430q43 -133 149 -215t266 -82t301 129l45 -55
q-154 -143 -347 -143t-321 102t-173 264h-135v64h120q-6 43 -6 94t8 94h-122z" />
    <glyph glyph-name="published" unicode="&#x2117;" horiz-adv-x="1206" 
d="M784 605q0 58 -41 91t-104 33h-80v-248l82 -2q67 0 105 34t38 92zM559 283h76v-47h-203v47h74v446h-74v47h207q88 0 143 -46q56 -46 56 -125t-54 -126t-145 -47l-80 2v-151zM603 31q198 0 329 141t131 342t-131 341t-329 140t-330 -141t-132 -341t132 -341t330 -141z
M602 -18q-221 0 -369 153q-147 154 -147 377t147 378q147 154 369 154t369 -154q147 -155 147 -377t-147 -377q-148 -154 -369 -154z" />
    <glyph glyph-name="servicemark" unicode="&#x2120;" horiz-adv-x="1110" 
d="M202 836q-73 0 -123 32t-50 74q0 20 11 34q10 14 28 13q18 0 28 -11q10 -10 10 -24t-12 -34q32 -37 96 -37q64 -1 96 25t32 65t-30 61q-28 22 -94 44q-66 24 -106 57q-39 33 -39 89t45 94q46 38 112 38t111 -30t45 -72t-38 -42q-18 0 -30 12t-11 23q0 12 14 31
q-27 31 -82 31t-84 -23q-29 -24 -29 -60t30 -59t98 -47t104 -54q37 -30 37 -90t-48 -100t-121 -40zM442 846v49h76l19 403h-78v50h141l162 -355l162 355h139v-50h-78l16 -403h80v-49h-196v49h67l-14 375l-166 -361h-24l-168 361l-11 -375h68v-49h-195z" />
    <glyph glyph-name="trademark" unicode="&#x2122;" horiz-adv-x="1198" 
d="M139 846v49h82v408h-147v-89h-49v134h446v-134h-53v89h-144v-408h78v-49h-213zM528 846v49h76l19 403h-76v50h141l160 -355l162 355h139v-50h-78l19 -403h77v-49h-194v49h67l-14 375l-166 -361h-24l-168 361l-13 -375h68v-49h-195z" />
    <glyph glyph-name="onethird" unicode="&#x2153;" horiz-adv-x="1628" 
d="M121 575v60h205v614l-199 -49l-14 60l245 61h33v-686h201v-60h-471zM401 6l803 1319l49 -29l-800 -1319zM1274 -14q-106 0 -184 46t-78 111q0 27 15 44t37 17t34 -14q14 -14 14 -38t-25 -39q13 -25 65 -49t126 -23q74 0 129 45t55 113q0 69 -61 111t-170 44h-43v58h45
q90 0 150 43q61 43 61 105t-48 98t-118 36t-112 -19t-56 -46q25 -13 25 -37q1 -24 -13 -38t-34 -15q-20 0 -37 16q-16 16 -17 45q0 55 67 103q67 49 171 49t172 -54t68 -126q0 -74 -55 -124q-54 -50 -132 -63q88 -11 146 -65q59 -54 59 -134t-74 -140q-76 -60 -182 -60z" />
    <glyph glyph-name="twothirds" unicode="&#x2154;" horiz-adv-x="1628" 
d="M428 6l803 1319l49 -29l-801 -1319zM1536 186q0 -80 -74 -140t-182 -60q-106 0 -184 46t-78 111q0 27 15 44t37 17t34 -14q14 -14 14 -38t-24 -39q12 -25 64 -49t126 -23q74 0 129 45t55 113q0 69 -61 111t-170 44h-43v58h45q90 0 151 43q60 43 60 105t-49 98t-117 36
t-112 -19q-42 -19 -56 -46q25 -13 25 -37q1 -24 -13 -38t-34 -15q-20 0 -37 16q-16 16 -17 45q0 55 67 103q67 49 171 49t172 -54t68 -126q0 -74 -54 -124t-133 -63q89 -11 147 -65t58 -134zM366 1274q-70 0 -117 -29q-46 -29 -54 -59q35 -14 35 -40t-15 -42
q-14 -16 -35 -17q-55 0 -55 67t68 122t171 55t171 -57q67 -56 67 -140t-47 -137t-152 -120q-178 -117 -221 -246h371v129h61v-185h-491l-19 31q55 178 261 314q88 59 128 104t39 106q0 60 -48 102t-118 42z" />
    <glyph glyph-name="onefifth" unicode="&#x2155;" horiz-adv-x="1628" 
d="M119 575v60h205v614l-199 -49l-14 60l245 61h33v-686h201v-60h-471zM406 6l802 1319l49 -29l-800 -1319zM1282 459q119 1 191 -61q71 -62 71 -170t-78 -176t-186 -68t-177 41t-69 94q0 23 16 39t35 16q49 0 50 -47q0 -25 -17 -33q34 -51 140 -51t162 52t56 131t-52 126
q-54 47 -147 47t-175 -41l-31 17l39 364h387v-63h-332l-26 -244q76 27 143 27z" />
    <glyph glyph-name="twofifths" unicode="&#x2156;" horiz-adv-x="1628" 
d="M438 6l803 1319l49 -29l-801 -1319zM1294 459q119 1 191 -61q71 -62 71 -170t-78 -176t-186 -68t-177 41t-68 94q0 23 15 39t36 16q49 0 49 -47q0 -25 -17 -33q34 -51 140 -51t163 52q56 52 56 131t-53 126q-52 47 -146 47t-176 -41l-31 17l39 364h387v-63h-331l-27 -244
q76 27 143 27zM539 1130q-1 60 -49 102t-118 42t-117 -29q-46 -29 -54 -59q35 -14 35 -40t-14 -42t-36 -17q-55 0 -55 67t68 122t171 55t171 -57q67 -56 67 -140t-47 -137t-151 -120q-178 -117 -222 -246h371v129h62v-185h-492l-18 31q55 178 260 314q88 59 128 104t40 106z
" />
    <glyph glyph-name="threefifths" unicode="&#x2157;" horiz-adv-x="1628" 
d="M397 6l803 1319l49 -29l-800 -1319zM374 563q-106 0 -186 46q-78 46 -77 112q0 27 15 44q14 17 36 17t36 -14t13 -39q0 -25 -25 -39q12 -24 64 -48t127 -24q74 0 129 46t55 112q0 68 -61 111t-170 45h-43v57h45q90 0 150 43q60 44 60 106t-47 98t-117 36t-112 -20
t-57 -46q25 -12 25 -36t-14 -40q-14 -14 -34 -14t-36 16t-17 46q0 55 67 103t171 48t172 -53q67 -53 67 -126t-54 -124t-132 -63q88 -11 146 -65t58 -135t-74 -141t-180 -59zM1282 459q119 1 191 -61q71 -62 71 -170t-78 -176t-186 -68t-177 41t-69 94q0 23 16 39t35 16
q49 0 50 -47q0 -25 -17 -33q34 -51 140 -51t162 52t56 131t-52 126q-54 47 -147 47t-175 -41l-31 17l39 364h387v-63h-332l-26 -244q76 27 143 27z" />
    <glyph glyph-name="fourfifths" unicode="&#x2158;" horiz-adv-x="1628" 
d="M436 6l803 1319l49 -29l-801 -1319zM315 575v56h140v166h-363l-12 26l397 508l49 -37l-354 -444h283v184l61 27v-211h133v-53h-133v-166h109v-56h-310zM1284 459q119 1 191 -61q71 -62 71 -170t-78 -176t-186 -68t-177 41t-69 94q0 23 16 39t35 16q49 0 50 -47
q0 -25 -17 -33q34 -51 140 -51t162 52t56 131t-52 126q-54 47 -147 47t-175 -41l-31 17l39 364h387v-63h-332l-26 -244q76 27 143 27z" />
    <glyph glyph-name="onesixth" unicode="&#x2159;" horiz-adv-x="1628" 
d="M111 575v60h204v614l-198 -49l-15 60l246 61h33v-686h201v-60h-471zM395 6l803 1319l49 -29l-801 -1319zM1265 43q89 0 143 51t54 127t-52 126t-137 50t-141 -51t-56 -127t48 -121q52 -55 141 -55zM1487 631q0 -55 -49 -56q-49 0 -49 48q0 20 14 34q-25 39 -103 39
q-104 0 -173 -99t-68 -269v-4q16 33 43 59q70 70 180 70t178 -66t68 -166t-73 -169q-73 -68 -187 -68t-193 78q-78 78 -78 272q0 196 88 308t218 112q98 0 153 -56q31 -30 31 -67z" />
    <glyph glyph-name="fivesixths" unicode="&#x215a;" horiz-adv-x="1628" 
d="M399 6l803 1319l49 -29l-800 -1319zM1268 43q88 0 142 51t54 127t-52 126t-137 50t-141 -51t-56 -127t48 -121q54 -55 142 -55zM623 806q0 -108 -79 -176q-78 -68 -186 -69q-108 0 -177 41t-68 94q0 23 15 39t36 17q49 0 49 -47q0 -25 -16 -33q35 -51 140 -51t162 52
q56 52 56 131t-53 126q-52 47 -146 47t-176 -41l-30 16l38 365h387v-64h-331l-27 -243q76 27 143 26q119 0 191 -61t72 -169zM1489 631q0 -55 -49 -56q-49 0 -49 48q0 20 14 34q-25 39 -102 39q-103 0 -173 -99t-69 -269v-4q16 33 43 59q70 70 180 70t178 -66t68 -166
t-73 -169q-73 -68 -187 -68t-193 78q-78 78 -78 272q0 196 88 308t218 112q98 0 153 -56q31 -30 31 -67z" />
    <glyph glyph-name="oneeighth" unicode="&#x215b;" horiz-adv-x="1628" 
d="M1274 408q74 0 126 41t52 103t-51 101t-127 39t-126 -39t-50 -101t51 -103t125 -41zM117 575v60h205v614l-199 -49l-14 60l245 61h33v-686h201v-60h-471zM389 6l803 1319l49 -29l-801 -1319zM1275 45q85 0 140 42q55 43 55 109t-57 112t-139 46t-137 -45t-55 -111
t54 -110q54 -43 139 -43zM1274 -14q-115 0 -188 57q-72 57 -72 136t51 134t129 70q-74 17 -118 67t-44 122t70 125t173 53t174 -52t71 -126q0 -72 -45 -121t-121 -68q78 -17 130 -71t52 -134t-74 -136t-188 -56z" />
    <glyph glyph-name="threeeighths" unicode="&#x215c;" horiz-adv-x="1628" 
d="M1278 408q74 0 126 41t52 103t-51 101t-127 39t-126 -39t-50 -101t51 -103t125 -41zM389 6l803 1319l49 -29l-801 -1319zM1279 45q85 0 140 42q55 43 55 109t-56 112q-58 46 -140 46t-137 -45t-55 -111t54 -110q54 -43 139 -43zM370 563q-106 0 -184 46t-77 112
q0 27 15 44q14 17 36 17t36 -14t13 -39q0 -25 -25 -39q12 -24 64 -48t126 -24t130 46t55 112q0 68 -61 111t-170 45h-43v57h45q90 0 150 43q60 44 60 106t-48 98q-50 36 -118 36t-110 -20t-57 -46q25 -12 25 -36t-14 -40q-14 -14 -34 -14t-36 16t-17 46q0 55 67 103t171 48
t172 -53q67 -53 67 -126t-54 -124t-132 -63q88 -11 146 -65t58 -135t-74 -141q-76 -60 -182 -59zM1278 -14q-116 0 -188 57t-72 136t51 134t129 70q-74 17 -118 67t-44 122t70 125t173 53t174 -52t71 -126q0 -72 -45 -121t-121 -68q78 -17 130 -71t52 -134t-74 -136
t-188 -56z" />
    <glyph glyph-name="fiveeighths" unicode="&#x215d;" horiz-adv-x="1628" 
d="M1262 408q74 0 126 41t52 103t-51 101t-127 39t-126 -39t-50 -101t50 -103q52 -41 126 -41zM373 6l803 1319l49 -29l-801 -1319zM1262 354q-82 0 -138 -45t-55 -111t55 -110q54 -43 139 -43t140 42q55 43 55 109t-57 112t-139 46zM348 561q-108 0 -177 41t-69 94
q0 23 16 39t36 17q49 0 49 -47q0 -25 -17 -33q34 -51 140 -51t162 52t56 131t-52 126t-146 47t-176 -41l-31 16l39 365h387v-64h-332l-26 -243q76 27 143 26q119 0 191 -61q71 -61 71 -169t-78 -176t-186 -69zM1262 -14q-115 0 -188 57t-73 136q-1 79 51 134t130 70
q-74 17 -118 67t-44 122t70 125t173 53t174 -52t71 -126q0 -72 -46 -121q-45 -49 -121 -68q78 -17 130 -71q53 -54 53 -134t-74 -136t-188 -56z" />
    <glyph glyph-name="seveneighths" unicode="&#x215e;" horiz-adv-x="1628" 
d="M1227 408q74 0 126 41t52 103t-51 101t-127 39t-126 -39t-50 -101t51 -103t125 -41zM209 1262v-129h-62v184h498l12 -29l-329 -713h-70l322 687h-371zM303 6l803 1319l49 -29l-801 -1319zM1228 45q85 0 140 42q55 43 55 109t-57 112t-139 46t-137 -45q-56 -45 -56 -111
t54 -110q54 -43 140 -43zM1227 -14q-115 0 -188 57t-73 136t52 134q51 55 129 70q-74 17 -118 67t-44 122t70 125t173 53t174 -52t71 -126q1 -72 -45 -121t-121 -68q78 -17 130 -71t52 -134q1 -80 -73 -136t-189 -56z" />
    <glyph glyph-name="minus" unicode="&#x2212;" horiz-adv-x="798" 
d="M86 504v71h627v-71h-627z" />
    <glyph glyph-name="Q.alt" horiz-adv-x="1587" 
d="M793 51q117 0 221 41l-172 275l65 39l174 -281q139 80 219 224t80 325q0 262 -166 442t-420 180t-422 -179q-167 -179 -167 -442t167 -443t421 -181zM795 1370q287 0 479 -202t192 -494q0 -197 -93 -360t-251 -253l148 -233l-64 -37l-151 238q-125 -51 -264 -52
q-287 0 -480 202t-192 495q1 292 195 494t481 202z" />
    <glyph glyph-name="a.sc" horiz-adv-x="1181" 
d="M588 961l-201 -529h401zM340 1022h502v-68h-176l342 -886h151v-68h-418v68h187l-115 297h-451l-112 -297h188v-68h-418v68h154l340 886h-174v68z" />
    <glyph glyph-name="b.sc" horiz-adv-x="1052" 
d="M584 0h-506v68h194v886h-194v68h495q170 0 254 -73t84 -175t-57 -166t-158 -84q244 -43 244 -260q0 -116 -94 -190t-262 -74zM348 555h221q131 0 198 56q67 57 67 147t-68 143t-195 53h-223v-399zM348 68h240q129 0 202 57q72 57 72 157t-77 154q-77 53 -218 53h-219
v-421z" />
    <glyph glyph-name="c.sc" horiz-adv-x="1120" 
d="M928 698q-31 0 -48 18q-18 18 -18 55q0 38 45 54q-18 55 -98 101t-188 45q-189 0 -315 -132t-126 -329t124 -327q124 -129 317 -129t340 143l43 -54q-156 -159 -384 -159t-374 150t-146 375q0 224 148 378t373 153q153 0 265 -78t111 -174q0 -42 -19 -66t-50 -24z" />
    <glyph glyph-name="d.sc" horiz-adv-x="1212" 
d="M524 0h-446v68h194v886h-194v68h446q268 0 428 -135t160 -368t-157 -376t-431 -143zM348 68h184q240 0 371 124t131 327q0 204 -139 320t-371 115h-176v-886z" />
    <glyph glyph-name="e.sc" horiz-adv-x="1011" 
d="M889 0h-811v68h194v886h-194v68h811v-268h-72v200h-469v-401h373v-70h-373v-415h469v198h72v-266z" />
    <glyph glyph-name="f.sc" horiz-adv-x="968" 
d="M553 0h-475v68h194v886h-194v68h807v-268h-72v200h-465v-413h361v-68h-361v-405h205v-68z" />
    <glyph glyph-name="g.sc" horiz-adv-x="1187" 
d="M627 971q-195 0 -321 -134t-126 -331t125 -324t315 -127t338 121v244h-305v65h381v-485h-73v106q-147 -120 -355 -120t-357 144t-149 374t155 384q155 153 374 152q167 0 279 -76t112 -161q0 -39 -20 -64t-51 -25q-30 0 -47 18q-17 17 -17 52t43 54q-28 51 -110 92
t-191 41z" />
    <glyph glyph-name="h.sc" horiz-adv-x="1341" 
d="M78 0v68h192v886h-192v68h467v-68h-197v-403h643v403h-196v68h467v-68h-193v-886h193v-68h-467v68h196v413h-643v-413h197v-68h-467z" />
    <glyph glyph-name="i.sc" horiz-adv-x="630" 
d="M553 0h-475v68h198v886h-198v68h475v-68h-199v-886h199v-68z" />
    <glyph glyph-name="j.sc" horiz-adv-x="886" 
d="M358 55q94 0 156 64q74 80 74 248v587h-201v68h455v-68h-178v-589q0 -203 -90 -292t-216 -89q-127 0 -212 74t-85 180q1 46 21 72t50 26t48 -18t19 -46q0 -55 -56 -67q5 -55 63 -103t152 -47z" />
    <glyph glyph-name="k.sc" horiz-adv-x="1148" 
d="M1128 68v-68h-231l-365 518l-182 -182v-268h195v-68h-467v68h196v886h-196v68h459v-68h-187v-526l524 526h-186v68h422v-68h-145l-379 -383l356 -503h186z" />
    <glyph glyph-name="l.sc" horiz-adv-x="946" 
d="M799 68v206h73v-274h-794v68h194v886h-194v68h473v-68h-203v-886h451z" />
    <glyph glyph-name="m.sc" horiz-adv-x="1476" 
d="M1374 1022v-68h-186l41 -886h180v-68h-451v68h193l-31 825l-366 -750h-31l-369 750l-30 -825h194v-68h-450v68h184l37 886h-187v68h267l370 -758l369 758h266z" />
    <glyph glyph-name="n.sc" horiz-adv-x="1318" 
d="M997 954h-198v68h465v-68h-195v-960h-45l-680 901v-827h199v-68h-465v68h194v886h-194v68h262l657 -868v800z" />
    <glyph glyph-name="o.sc" horiz-adv-x="1239" 
d="M620 53q192 0 315 130q124 130 124 329t-124 329q-123 130 -315 130t-316 -130t-124 -329t124 -329t316 -130zM618 1040q227 0 373 -151q145 -152 145 -377t-144 -377q-146 -151 -374 -151t-372 152q-145 152 -146 376q0 224 146 376t372 152z" />
    <glyph glyph-name="p.sc" horiz-adv-x="974" 
d="M528 453q137 -1 214 69t77 184t-82 182t-213 66h-176v-497q98 -4 180 -4zM78 1022h446q164 0 268 -86t105 -232q0 -146 -99 -231q-99 -86 -276 -86q-127 0 -174 2v-321h199v-68h-469v68h194v886h-194v68z" />
    <glyph glyph-name="q.sc" horiz-adv-x="1239" 
d="M625 53q183 0 309 132q125 132 125 329t-124 327q-123 130 -315 130t-316 -130t-124 -337t144 -338q118 -113 301 -113zM1060 -213q-76 0 -130 22q-53 21 -125 69q-73 48 -109 68t-145 42q-172 29 -283 127q-168 145 -168 383t146 391q146 151 372 151q227 0 373 -151
q145 -152 145 -364t-117 -353q-118 -141 -306 -168q59 -17 115 -53q57 -37 67 -42t34 -19t52 -21q28 -8 76 -8t110 39l35 -66q-66 -47 -142 -47z" />
    <glyph glyph-name="q.sc_alt" horiz-adv-x="1239" 
d="M1059 512q0 199 -124 329q-123 130 -315 130t-316 -130t-124 -329t124 -329t314 -130q82 0 154 25l-127 203l60 41l133 -216q102 57 161 165q60 108 60 241zM1137 512q0 -152 -70 -276t-193 -189l113 -180l-59 -37l-117 186q-94 -33 -193 -32q-227 0 -372 152t-146 376
q0 225 146 377q146 151 372 151q227 0 373 -152t146 -376z" />
    <glyph glyph-name="r.sc" horiz-adv-x="1067" 
d="M348 68h199v-68h-469v68h194v886h-194v68h452q170 0 268 -78t99 -198q0 -120 -66 -194q-66 -75 -176 -101l238 -383h164v-68h-217l-262 432q-27 -2 -106 -2t-124 2v-364zM526 954h-178v-452q102 -4 168 -4q139 0 223 62t84 168t-81 166t-216 60z" />
    <glyph glyph-name="s.sc" horiz-adv-x="907" 
d="M719 770q-66 0 -66 67q0 33 29 56q-16 33 -78 57t-156 25q-92 0 -162 -54t-71 -145q0 -91 119 -154q49 -26 137 -60t132 -53t98 -55q104 -69 104 -194t-100 -201q-100 -75 -253 -75t-251 61t-99 135q0 39 18 61q18 21 48 21q29 0 46 -16t17 -49t-30 -58q27 -35 93 -61
t174 -27q110 1 184 57t75 148q0 92 -85 144q-63 40 -162 77t-140 55t-97 54q-106 69 -106 188t92 193q91 73 231 73t231 -56t91 -136q0 -34 -18 -56t-45 -22z" />
    <glyph glyph-name="t.sc" horiz-adv-x="1044" 
d="M285 0v68h198v886h-323v-200h-74v268h875v-268h-76v200h-324v-886h199v-68h-475z" />
    <glyph glyph-name="u.sc" horiz-adv-x="1236" 
d="M313 954v-585q0 -152 81 -234t224 -82t225 82q81 82 81 232v587h-195v68h457v-68h-185v-585q0 -185 -101 -285q-102 -100 -284 -100t-281 98t-99 285v587h-185v68h457v-68h-195z" />
    <glyph glyph-name="v.sc" horiz-adv-x="1144" 
d="M14 954v68h420v-68h-188l329 -848l328 848h-188v68h415v-68h-149l-385 -972h-47l-385 972h-150z" />
    <glyph glyph-name="w.sc" horiz-adv-x="1601" 
d="M14 954v68h437v-68h-189l250 -831l274 758h35l277 -758l250 831h-191v68h430v-68h-164l-299 -979h-47l-276 766l-277 -766h-45l-299 979h-166z" />
    <glyph glyph-name="x.sc" horiz-adv-x="1134" 
d="M1096 68v-68h-402v68h160l-293 409l-297 -409h174v-68h-407v68h149l336 452l-315 434h-148v68h410v-68h-172l272 -385l277 385h-170v68h403v-68h-151l-314 -430l334 -456h154z" />
    <glyph glyph-name="y.sc" 
d="M1075 1022v-68h-157l-338 -567v-319h198v-68h-471v68h197v319l-336 567h-160v68h426v-68h-180l291 -501l293 501h-185v68h422z" />
    <glyph glyph-name="z.sc" horiz-adv-x="966" 
d="M90 0v41l680 915h-582v-196h-73v262h766v-41l-680 -913h610v194h76v-262h-797z" />
    <glyph glyph-name="aacute.sc" horiz-adv-x="1181" 
d="M822 1430q24 0 40 -18t17 -42q0 -35 -60 -63l-295 -142l-18 31l254 203q38 31 62 31zM588 961l-201 -529h401zM340 1022h502v-68h-176l342 -886h151v-68h-418v68h187l-115 297h-451l-112 -297h188v-68h-418v68h154l340 886h-174v68z" />
    <glyph glyph-name="abreve.sc" horiz-adv-x="1181" 
d="M597 1165q-95 -1 -171 61t-111 158l60 29q67 -160 223 -160t223 160l58 -29q-35 -96 -111 -158t-171 -61zM588 961l-201 -529h401zM340 1022h502v-68h-176l342 -886h151v-68h-418v68h187l-115 297h-451l-112 -297h188v-68h-418v68h154l340 886h-174v68z" />
    <glyph glyph-name="acircumflex.sc" horiz-adv-x="1181" 
d="M354 1153l-35 39l279 260l276 -260l-34 -39l-242 182zM588 961l-201 -529h401zM340 1022h502v-68h-176l342 -886h151v-68h-418v68h187l-115 297h-451l-112 -297h188v-68h-418v68h154l340 886h-174v68z" />
    <glyph glyph-name="adieresis.sc" horiz-adv-x="1181" 
d="M736 1198q-32 0 -54 24t-20 56q0 32 22 56q22 22 54 22t54 -23t22 -55t-24 -56q-22 -24 -54 -24zM457 1356q33 0 55 -23t23 -55q-1 -32 -23 -56t-54 -24t-55 24t-23 56t22 56q22 22 55 22zM588 961l-201 -529h401zM340 1022h502v-68h-176l342 -886h151v-68h-418v68h187
l-115 297h-451l-112 -297h188v-68h-418v68h154l340 886h-174v68z" />
    <glyph glyph-name="ae.sc" horiz-adv-x="1404" 
d="M666 440v514h-13l-276 -514h289zM471 0v68h195v303h-328l-162 -303h168v-68h-385v68h135l484 886h-166v68h870v-268h-72v200h-469v-401h371v-70h-371v-415h469v198h72v-266h-811z" />
    <glyph glyph-name="aeacute.sc" horiz-adv-x="1404" 
d="M1004 1430q24 0 40 -18t17 -42q0 -35 -60 -63l-294 -142l-19 31l254 203q37 31 62 31zM666 440v514h-13l-276 -514h289zM471 0v68h195v303h-328l-162 -303h168v-68h-385v68h135l484 886h-166v68h870v-268h-72v200h-469v-401h371v-70h-371v-415h469v198h72v-266h-811z" />
    <glyph glyph-name="agrave.sc" horiz-adv-x="1181" 
d="M668 1165l-295 142q-59 29 -60 63q1 25 17 42q40 41 102 -13l254 -203zM588 961l-201 -529h401zM340 1022h502v-68h-176l342 -886h151v-68h-418v68h187l-115 297h-451l-112 -297h188v-68h-418v68h154l340 886h-174v68z" />
    <glyph glyph-name="amacron.sc" horiz-adv-x="1181" 
d="M309 1229v76h576v-76h-576zM588 961l-201 -529h401zM340 1022h502v-68h-176l342 -886h151v-68h-418v68h187l-115 297h-451l-112 -297h188v-68h-418v68h154l340 886h-174v68z" />
    <glyph glyph-name="aogonek.sc" horiz-adv-x="1181" 
d="M588 961l-201 -529h401zM842 -220q0 -126 136 -126q68 0 146 43l-4 -59q-63 -50 -156 -50t-145 47q-51 47 -51 127q0 141 156 238h-183v68h187l-115 297h-451l-112 -297h188v-68h-418v68h154l340 886h-174v68h502v-68h-176l342 -886h151v-68h-131q-88 -39 -137 -99
q-49 -61 -49 -121z" />
    <glyph glyph-name="aring.sc" horiz-adv-x="1181" 
d="M588 1024q51 0 85 36t34 89t-34 89t-85 36t-84 -36t-33 -89t33 -89t84 -36zM588 961l-201 -529h401zM340 1022h127q-61 49 -61 127t53 133t129 55t129 -55t53 -135t-61 -125h133v-68h-176l342 -886h151v-68h-418v68h187l-115 297h-451l-112 -297h188v-68h-418v68h154
l340 886h-174v68z" />
    <glyph glyph-name="aringacute.sc" horiz-adv-x="1181" 
d="M807 1704q25 0 41 -17t16 -47t-59 -59l-295 -141l-18 30l253 203q37 31 62 31zM588 1024q51 0 85 36t34 89t-34 89t-85 36t-84 -36t-33 -89t33 -89t84 -36zM588 961l-201 -529h401zM340 1022h127q-61 49 -61 127t53 133t129 55t129 -55t53 -135t-61 -125h133v-68h-176
l342 -886h151v-68h-418v68h187l-115 297h-451l-112 -297h188v-68h-418v68h154l340 886h-174v68z" />
    <glyph glyph-name="atilde.sc" horiz-adv-x="1181" 
d="M738 1167q-68 -1 -150 65q-83 66 -127 66q-74 0 -103 -120l-63 14q10 80 55 134t115 54t151 -65t125 -66q74 0 103 119l63 -12q-9 -80 -55 -134t-114 -55zM588 961l-201 -529h401zM340 1022h502v-68h-176l342 -886h151v-68h-418v68h187l-115 297h-451l-112 -297h188v-68
h-418v68h154l340 886h-174v68z" />
    <glyph glyph-name="cacute.sc" horiz-adv-x="1120" 
d="M928 698q-31 0 -48 18q-18 18 -18 55q0 38 45 54q-18 55 -98 101t-188 45q-189 0 -315 -132t-126 -329t124 -327q124 -129 317 -129t340 143l43 -54q-156 -159 -384 -159t-374 150t-146 375q0 224 148 378t373 153q153 0 265 -78t111 -174q0 -42 -19 -66t-50 -24z
M830 1430q24 0 40 -18t17 -42q0 -35 -60 -63l-295 -142l-18 31l254 203q38 31 62 31z" />
    <glyph glyph-name="ccaron.sc" horiz-adv-x="1120" 
d="M928 698q-31 0 -48 18q-18 18 -18 55q0 38 45 54q-18 55 -98 101t-188 45q-189 0 -315 -132t-126 -329t124 -327q124 -129 317 -129t340 143l43 -54q-156 -159 -384 -159t-374 150t-146 375q0 224 148 378t373 153q153 0 265 -78t111 -174q0 -42 -19 -66t-50 -24z
M848 1456l35 -41l-277 -258l-278 258l34 41l244 -182z" />
    <glyph glyph-name="ccedilla.sc" horiz-adv-x="1120" 
d="M782 -264q0 -62 -48 -104t-143 -42t-194 48l21 51q84 -39 156 -39q132 0 133 81q0 81 -129 83q-20 0 -37 -4l-25 16l41 162q-203 20 -330 166t-127 363q0 216 148 370t373 153q153 0 265 -78t111 -174q0 -42 -19 -66t-50 -24t-48 18q-18 18 -18 55q0 38 45 54
q-18 55 -98 101t-188 45q-189 0 -315 -132t-126 -329t124 -327t316 -130t341 144l43 -54q-156 -160 -386 -159h-10l-12 -105q90 -2 138 -41t48 -102z" />
    <glyph glyph-name="cdotaccent.sc" horiz-adv-x="1120" 
d="M605 1194q-33 0 -57 25t-24 59t24 58t58 24t57 -25t23 -59t-24 -58t-57 -24zM928 698q-31 0 -48 18q-18 18 -18 55q0 38 45 54q-18 55 -98 101t-188 45q-189 0 -315 -132t-126 -329t124 -327q124 -129 317 -129t340 143l43 -54q-156 -159 -384 -159t-374 150t-146 375
q0 224 148 378t373 153q153 0 265 -78t111 -174q0 -42 -19 -66t-50 -24z" />
    <glyph glyph-name="dcaron.sc" horiz-adv-x="1216" 
d="M817 1456l35 -41l-277 -258l-278 258l35 41l243 -182zM526 0h-446v68h194v886h-194v68h446q268 0 428 -135t160 -368t-157 -376t-431 -143zM350 68h185q241 0 371 124t130 327q0 204 -139 320t-371 115h-176v-886z" />
    <glyph glyph-name="dcroat.sc" horiz-adv-x="1218" 
d="M354 68h185q241 0 371 124t130 327q0 204 -139 320t-371 115h-176v-397h246v-68h-246v-421zM530 0h-446v68h195v421h-154v68h154v397h-195v68h446q268 0 428 -135t160 -368t-157 -376t-431 -143z" />
    <glyph glyph-name="eacute.sc" horiz-adv-x="1017" 
d="M891 0h-811v68h194v886h-194v68h811v-268h-72v200h-469v-401h373v-70h-373v-415h469v198h72v-266zM730 1430q24 0 40 -18t16 -42q0 -35 -59 -63l-295 -142l-18 31l254 203q38 31 62 31z" />
    <glyph glyph-name="ebreve.sc" horiz-adv-x="1017" 
d="M507 1165q-95 -1 -171 61t-111 158l60 29q67 -160 223 -160t223 160l57 -29q-34 -96 -110 -158t-171 -61zM891 0h-811v68h194v886h-194v68h811v-268h-72v200h-469v-401h373v-70h-373v-415h469v198h72v-266z" />
    <glyph glyph-name="ecaron.sc" horiz-adv-x="1017" 
d="M891 0h-811v68h194v886h-194v68h811v-268h-72v200h-469v-401h373v-70h-373v-415h469v198h72v-266zM750 1456l34 -41l-276 -258l-279 258l35 41l244 -182z" />
    <glyph glyph-name="ecircumflex.sc" horiz-adv-x="1017" 
d="M891 0h-811v68h194v886h-194v68h811v-268h-72v200h-469v-401h373v-70h-373v-415h469v198h72v-266zM264 1153l-35 39l279 260l276 -260l-34 -39l-242 182z" />
    <glyph glyph-name="edieresis.sc" horiz-adv-x="1017" 
d="M891 0h-811v68h194v886h-194v68h811v-268h-72v200h-469v-401h373v-70h-373v-415h469v198h72v-266zM367 1356q33 0 55 -23t22 -55t-22 -56t-54 -24t-55 24t-23 56t22 56q22 22 55 22zM646 1198q-32 0 -54 24t-21 56q0 32 22 56q23 22 55 22t54 -23t21 -55t-23 -56t-54 -24
z" />
    <glyph glyph-name="edotaccent.sc" horiz-adv-x="1017" 
d="M891 0h-811v68h194v886h-194v68h811v-268h-72v200h-469v-401h373v-70h-373v-415h469v198h72v-266zM507 1194q-33 0 -57 25t-24 59t24 58t58 24t56 -25q24 -25 24 -59t-24 -58t-57 -24z" />
    <glyph glyph-name="egrave.sc" horiz-adv-x="1017" 
d="M891 0h-811v68h194v886h-194v68h811v-268h-72v200h-469v-401h373v-70h-373v-415h469v198h72v-266zM578 1165l-295 142q-59 29 -60 63q1 25 17 42q40 41 102 -13l254 -203z" />
    <glyph glyph-name="emacron.sc" horiz-adv-x="1017" 
d="M891 0h-811v68h194v886h-194v68h811v-268h-72v200h-469v-401h373v-70h-373v-415h469v198h72v-266zM219 1229v76h576v-76h-576z" />
    <glyph glyph-name="eogonek.sc" horiz-adv-x="1017" 
d="M600 -220q0 -126 136 -126q68 0 147 43l-4 -59q-63 -50 -157 -50t-144 47q-51 47 -52 127q0 141 156 238h-602v68h194v886h-194v68h811v-268h-72v200h-469v-401h373v-70h-373v-415h469v198h72v-266h-105q-88 -39 -137 -99q-49 -61 -49 -121z" />
    <glyph glyph-name="eth.sc" horiz-adv-x="1218" 
d="M354 68h185q241 0 371 124t130 327q0 204 -139 320t-371 115h-176v-397h246v-68h-246v-421zM530 0h-446v68h195v421h-154v68h154v397h-195v68h446q268 0 428 -135t160 -368t-157 -376t-431 -143z" />
    <glyph glyph-name="gbreve.sc" horiz-adv-x="1187" 
d="M613 1165q-95 -1 -171 61t-110 158l59 29q67 -160 223 -160t224 160l57 -29q-35 -96 -111 -158t-171 -61zM627 971q-195 0 -321 -134t-126 -331t125 -324t315 -127t338 121v244h-305v65h381v-485h-73v106q-147 -120 -355 -120t-357 144t-149 374t155 384q155 153 374 152
q167 0 279 -76t112 -161q0 -39 -20 -64t-51 -25q-30 0 -47 18q-17 17 -17 52t43 54q-28 51 -110 92t-191 41z" />
    <glyph glyph-name="gcommaaccent.sc" horiz-adv-x="1187" 
d="M627 971q-195 0 -321 -134t-126 -331t125 -324t315 -127t338 121v244h-305v65h381v-485h-73v106q-147 -120 -355 -120t-357 144t-149 374t155 384q155 153 374 152q167 0 279 -76t112 -161q0 -39 -20 -64t-51 -25q-30 0 -47 18q-17 17 -17 52t43 54q-28 51 -110 92
t-191 41zM603 -121q33 -1 55 -27t22 -88t-50 -137q-50 -74 -141 -125l-16 29q127 102 131 203q-33 4 -53 24q-21 20 -21 52t20 50q20 19 53 19z" />
    <glyph glyph-name="gdotaccent.sc" horiz-adv-x="1187" 
d="M613 1194q-33 0 -57 25t-24 59t24 58t58 24t57 -25t23 -59t-24 -58t-57 -24zM627 971q-195 0 -321 -134t-126 -331t125 -324t315 -127t338 121v244h-305v65h381v-485h-73v106q-147 -120 -355 -120t-357 144t-149 374t155 384q155 153 374 152q167 0 279 -76t112 -161
q0 -39 -20 -64t-51 -25q-30 0 -47 18q-17 17 -17 52t43 54q-28 51 -110 92t-191 41z" />
    <glyph glyph-name="hbar.sc" horiz-adv-x="1353" 
d="M354 551h643v168h-643v-168zM1227 786v-67h-152v-651h193v-68h-467v68h196v413h-643v-413h197v-68h-467v68h192v651h-151v67h151v168h-192v68h467v-68h-197v-168h643v168h-196v68h467v-68h-193v-168h152z" />
    <glyph glyph-name="iacute.sc" horiz-adv-x="630" 
d="M553 0h-475v68h198v886h-198v68h475v-68h-199v-886h199v-68zM549 1430q25 0 41 -18t16 -42q0 -35 -59 -63l-295 -142l-19 31l254 203q37 31 62 31z" />
    <glyph glyph-name="ibreve.sc" horiz-adv-x="630" 
d="M323 1165q-95 -1 -171 61t-111 158l59 29q66 -160 223 -160t224 160l57 -29q-34 -96 -110 -158t-171 -61zM553 0h-475v68h198v886h-198v68h475v-68h-199v-886h199v-68z" />
    <glyph glyph-name="icircumflex.sc" horiz-adv-x="630" 
d="M553 0h-475v68h198v886h-198v68h475v-68h-199v-886h199v-68zM80 1153l-35 39l279 260l276 -260l-35 -39l-241 182z" />
    <glyph glyph-name="idieresis.sc" horiz-adv-x="630" 
d="M553 0h-475v68h198v886h-198v68h475v-68h-199v-886h199v-68zM183 1198q-33 0 -55 24t-22 56t22 56q22 22 54 22t56 -23q22 -23 22 -55t-22 -56t-55 -24zM462 1198q-32 0 -54 24t-21 56q0 32 22 56q23 22 55 22t54 -23t21 -55t-23 -56t-54 -24z" />
    <glyph glyph-name="idotaccent.sc" horiz-adv-x="641" 
d="M325 1360q33 0 57 -25t24 -59t-24 -58t-57 -24q-34 0 -58 25q-23 25 -23 59t24 58t57 24zM555 0h-475v68h199v886h-199v68h475v-68h-199v-886h199v-68z" />
    <glyph glyph-name="dotlessi.sc" horiz-adv-x="630" 
d="M553 0h-475v68h198v886h-198v68h475v-68h-199v-886h199v-68z" />
    <glyph glyph-name="igrave.sc" horiz-adv-x="630" 
d="M41 1370q0 25 16 42q39 41 103 -13l254 -203l-19 -31l-295 142q-59 29 -59 63zM553 0h-475v68h198v886h-198v68h475v-68h-199v-886h199v-68z" />
    <glyph glyph-name="imacron.sc" horiz-adv-x="630" 
d="M35 1229v76h575v-76h-575zM553 0h-475v68h198v886h-198v68h475v-68h-199v-886h199v-68z" />
    <glyph glyph-name="iogonek.sc" horiz-adv-x="630" 
d="M308 -412q-93 0 -144 47t-51 127q0 141 155 238h-190v68h198v886h-198v68h475v-68h-199v-886h199v-68h-180q-88 -39 -137 -99q-50 -61 -50 -121t34 -93t102 -33t147 43l-4 -59q-64 -50 -157 -50z" />
    <glyph glyph-name="kcommaaccent.sc" horiz-adv-x="1148" 
d="M1128 68v-68h-231l-365 518l-182 -182v-268h195v-68h-467v68h196v886h-196v68h459v-68h-187v-526l524 526h-186v68h422v-68h-145l-379 -383l356 -503h186zM599 -121q33 -1 55 -27t22 -88t-50 -137q-50 -74 -141 -125l-16 29q127 102 131 203q-33 4 -53 24q-21 20 -21 52
t20 50q20 19 53 19z" />
    <glyph glyph-name="lacute.sc" horiz-adv-x="946" 
d="M572 1430q24 0 40 -18t17 -42q0 -35 -60 -63l-295 -142l-18 31l254 203q38 31 62 31zM799 68v206h73v-274h-794v68h194v886h-194v68h473v-68h-203v-886h451z" />
    <glyph glyph-name="lcaron.sc" horiz-adv-x="946" 
d="M712 1022q56 0 56 -68q0 -161 -137 -321l-29 20q63 102 64 201l-9 107q-1 61 55 61zM799 68v206h73v-274h-794v68h194v886h-194v68h473v-68h-203v-886h451z" />
    <glyph glyph-name="lcommaaccent.sc" horiz-adv-x="946" 
d="M472 -121q32 -1 54 -27t23 -88t-49 -137q-50 -74 -142 -125l-16 29q127 102 131 203q-33 4 -53 24t-20 52t20 50q20 19 52 19zM799 68v206h73v-274h-794v68h194v886h-194v68h473v-68h-203v-886h451z" />
    <glyph glyph-name="ldot.sc" horiz-adv-x="946" 
d="M790 641q34 0 58 -25q24 -24 22 -58q0 -34 -23 -58t-57 -25q-34 0 -58 25q-24 24 -24 58t24 58t58 25zM799 68v206h73v-274h-794v68h194v886h-194v68h473v-68h-203v-886h451z" />
    <glyph glyph-name="lslash.sc" horiz-adv-x="956" 
d="M809 68v206h74v-274h-795v68h195v362l-187 -102l-35 59l222 121v446h-195v68h473v-68h-203v-405l301 166l33 -58l-334 -184v-405h451z" />
    <glyph glyph-name="nacute.sc" horiz-adv-x="1323" 
d="M997 954h-198v68h465v-68h-195v-960h-45l-680 901v-827h199v-68h-465v68h194v886h-194v68h262l657 -868v800zM887 1430q25 0 41 -18t16 -42q0 -35 -59 -63l-295 -142l-19 31l254 203q37 31 62 31z" />
    <glyph glyph-name="ncaron.sc" horiz-adv-x="1323" 
d="M997 954h-198v68h465v-68h-195v-960h-45l-680 901v-827h199v-68h-465v68h194v886h-194v68h262l657 -868v800zM905 1456l35 -41l-276 -258l-279 258l35 41l244 -182z" />
    <glyph glyph-name="ncommaaccent.sc" horiz-adv-x="1323" 
d="M997 954h-198v68h465v-68h-195v-960h-45l-680 901v-827h199v-68h-465v68h194v886h-194v68h262l657 -868v800zM578 -190q0 32 20 50q20 19 52 19q32 -1 55 -27t23 -88t-50 -137q-49 -74 -141 -125l-17 29q127 102 131 203q-33 4 -53 24t-20 52z" />
    <glyph glyph-name="ntilde.sc" horiz-adv-x="1323" 
d="M804 1167q-68 -1 -150 65q-83 66 -128 66q-74 0 -102 -120l-64 14q10 80 56 134t114 54q70 0 151 -65t126 -66q74 0 102 119l64 -12q-9 -80 -55 -134t-114 -55zM997 954h-198v68h465v-68h-195v-960h-45l-680 901v-827h199v-68h-465v68h194v886h-194v68h262l657 -868v800z
" />
    <glyph glyph-name="oacute.sc" horiz-adv-x="1239" 
d="M846 1430q25 0 41 -18t16 -42q0 -35 -59 -63l-295 -142l-19 31l254 203q37 31 62 31zM620 53q192 0 315 130q124 130 124 329t-124 329q-123 130 -315 130t-316 -130t-124 -329t124 -329t316 -130zM618 1040q227 0 373 -151q145 -152 145 -377t-144 -377
q-146 -151 -374 -151t-372 152q-145 152 -146 376q0 224 146 376t372 152z" />
    <glyph glyph-name="obreve.sc" horiz-adv-x="1239" 
d="M620 1165q-95 -1 -171 61t-111 158l59 29q66 -160 223 -160t224 160l57 -29q-35 -96 -111 -158t-170 -61zM620 53q192 0 315 130q124 130 124 329t-124 329q-123 130 -315 130t-316 -130t-124 -329t124 -329t316 -130zM618 1040q227 0 373 -151q145 -152 145 -377
t-144 -377q-146 -151 -374 -151t-372 152q-145 152 -146 376q0 224 146 376t372 152z" />
    <glyph glyph-name="ocircumflex.sc" horiz-adv-x="1239" 
d="M620 53q192 0 315 130q124 130 124 329t-124 329q-123 130 -315 130t-316 -130t-124 -329t124 -329t316 -130zM618 1040q227 0 373 -151q145 -152 145 -377t-144 -377q-146 -151 -374 -151t-372 152q-145 152 -146 376q0 224 146 376t372 152zM377 1153l-35 39l279 260
l276 -260l-35 -39l-241 182z" />
    <glyph glyph-name="odieresis.sc" horiz-adv-x="1239" 
d="M620 53q192 0 315 130q124 130 124 329t-124 329q-123 130 -315 130t-316 -130t-124 -329t124 -329t316 -130zM618 1040q227 0 373 -151q145 -152 145 -377t-144 -377q-146 -151 -374 -151t-372 152q-145 152 -146 376q0 224 146 376t372 152zM480 1198q-32 0 -54 24
t-23 56q0 32 22 56q23 22 55 22t55 -23t23 -55t-24 -56q-22 -24 -54 -24zM759 1198q-31 0 -53 24t-22 56t22 56q22 22 54 22t54 -23t22 -55t-22 -56t-55 -24z" />
    <glyph glyph-name="oe.sc" horiz-adv-x="1554" 
d="M713 1022h719v-268h-74v198h-465v-399h371v-70h-371v-415h465v198h74v-266h-719q-264 0 -419 141t-155 373t157 370t417 138zM815 68v884h-102q-225 0 -360 -117q-134 -118 -134 -319t129 -325t357 -123h110z" />
    <glyph glyph-name="ograve.sc" horiz-adv-x="1239" 
d="M338 1370q0 25 16 42q39 41 103 -13l254 -203l-19 -31l-295 142q-59 29 -59 63zM620 53q192 0 315 130q124 130 124 329t-124 329q-123 130 -315 130t-316 -130t-124 -329t124 -329t316 -130zM618 1040q227 0 373 -151q145 -152 145 -377t-144 -377q-146 -151 -374 -151
t-372 152q-145 152 -146 376q0 224 146 376t372 152z" />
    <glyph glyph-name="ohungarumlaut.sc" horiz-adv-x="1239" 
d="M1124 1374q0 -41 -63 -65l-297 -133l-19 28l263 197q65 50 102 11q14 -15 14 -38zM711 1438q55 0 55 -62q0 -31 -57 -57l-291 -154l-19 29l250 211q37 33 62 33zM620 53q192 0 315 130q124 130 124 329t-124 329q-123 130 -315 130t-316 -130t-124 -329t124 -329
t316 -130zM618 1040q227 0 373 -151q145 -152 145 -377t-144 -377q-146 -151 -374 -151t-372 152q-145 152 -146 376q0 224 146 376t372 152z" />
    <glyph glyph-name="omacron.sc" horiz-adv-x="1239" 
d="M332 1229v76h575v-76h-575zM620 53q192 0 315 130q124 130 124 329t-124 329q-123 130 -315 130t-316 -130t-124 -329t124 -329t316 -130zM618 1040q227 0 373 -151q145 -152 145 -377t-144 -377q-146 -151 -374 -151t-372 152q-145 152 -146 376q0 224 146 376t372 152z
" />
    <glyph glyph-name="oslash.sc" horiz-adv-x="1247" 
d="M623 971q-191 0 -315 -130q-124 -131 -124 -325t115 -326l596 689q-119 92 -272 92zM636 53q180 0 304 130t123 329q0 199 -123 328l-598 -690q114 -97 294 -97zM623 1040q180 0 319 -106l127 149l51 -45l-129 -147q150 -150 150 -377q1 -227 -145 -379t-373 -151
q-190 0 -328 110l-127 -147l-51 43l129 149q-142 147 -142 373t146 376q146 152 373 152z" />
    <glyph glyph-name="oslashacute.sc" horiz-adv-x="1247" 
d="M850 1430q25 0 41 -18t16 -42q0 -35 -59 -63l-295 -142l-18 31l253 203q37 31 62 31zM623 971q-191 0 -315 -130q-124 -131 -124 -325t115 -326l596 689q-119 92 -272 92zM636 53q180 0 304 130t123 329q0 199 -123 328l-598 -690q114 -97 294 -97zM623 1040
q180 0 319 -106l127 149l51 -45l-129 -147q150 -150 150 -377q1 -227 -145 -379t-373 -151q-190 0 -328 110l-127 -147l-51 43l129 149q-142 147 -142 373t146 376q146 152 373 152z" />
    <glyph glyph-name="otilde.sc" horiz-adv-x="1239" 
d="M762 1167q-68 -1 -151 65t-128 66q-74 0 -102 -120l-64 14q9 80 55 134t116 54t150 -65q81 -65 126 -66q74 0 102 119l64 -12q-10 -80 -56 -134q-44 -54 -112 -55zM620 53q192 0 315 130q124 130 124 329t-124 329q-123 130 -315 130t-316 -130t-124 -329t124 -329
t316 -130zM618 1040q227 0 373 -151q145 -152 145 -377t-144 -377q-146 -151 -374 -151t-372 152q-145 152 -146 376q0 224 146 376t372 152z" />
    <glyph glyph-name="racute.sc" horiz-adv-x="1067" 
d="M348 68h199v-68h-469v68h194v886h-194v68h452q170 0 268 -78t99 -198q0 -120 -66 -194q-66 -75 -176 -101l238 -383h164v-68h-217l-262 432q-27 -2 -106 -2t-124 2v-364zM526 954h-178v-452q102 -4 168 -4q139 0 223 62t84 168t-81 166t-216 60zM756 1430q25 0 41 -18
t16 -42q0 -35 -59 -63l-295 -142l-19 31l254 203q37 31 62 31z" />
    <glyph glyph-name="rcaron.sc" horiz-adv-x="1067" 
d="M348 68h199v-68h-469v68h194v886h-194v68h452q170 0 268 -78t99 -198q0 -120 -66 -194q-66 -75 -176 -101l238 -383h164v-68h-217l-262 432q-27 -2 -106 -2t-124 2v-364zM526 954h-178v-452q102 -4 168 -4q139 0 223 62t84 168t-81 166t-216 60zM774 1456l35 -41
l-277 -258l-278 258l35 41l243 -182z" />
    <glyph glyph-name="rcommaaccent.sc" horiz-adv-x="1067" 
d="M348 68h199v-68h-469v68h194v886h-194v68h452q170 0 268 -78t99 -198q0 -120 -66 -194q-66 -75 -176 -101l238 -383h164v-68h-217l-262 432q-27 -2 -106 -2t-124 2v-364zM526 954h-178v-452q102 -4 168 -4q139 0 223 62t84 168t-81 166t-216 60zM550 -121q32 -1 54 -27
t23 -88t-49 -137q-50 -74 -142 -125l-16 29q127 102 131 203q-33 4 -53 24t-20 52t20 50q20 19 52 19z" />
    <glyph glyph-name="sacute.sc" horiz-adv-x="907" 
d="M719 770q-66 0 -66 67q0 33 29 56q-16 33 -78 57t-156 25q-92 0 -162 -54t-71 -145q0 -91 119 -154q49 -26 137 -60t132 -53t98 -55q104 -69 104 -194t-100 -201q-100 -75 -253 -75t-251 61t-99 135q0 39 18 61q18 21 48 21q29 0 46 -16t17 -49t-30 -58q27 -35 93 -61
t174 -27q110 1 184 57t75 148q0 92 -85 144q-63 40 -162 77t-140 55t-97 54q-106 69 -106 188t92 193q91 73 231 73t231 -56t91 -136q0 -34 -18 -56t-45 -22zM705 1430q25 0 41 -18t16 -42q0 -35 -60 -63l-294 -142l-19 31l254 203q37 31 62 31z" />
    <glyph glyph-name="scaron.sc" horiz-adv-x="907" 
d="M719 770q-66 0 -66 67q0 33 29 56q-16 33 -78 57t-156 25q-92 0 -162 -54t-71 -145q0 -91 119 -154q49 -26 137 -60t132 -53t98 -55q104 -69 104 -194t-100 -201q-100 -75 -253 -75t-251 61t-99 135q0 39 18 61q18 21 48 21q29 0 46 -16t17 -49t-30 -58q27 -35 93 -61
t174 -27q110 1 184 57t75 148q0 92 -85 144q-63 40 -162 77t-140 55t-97 54q-106 69 -106 188t92 193q91 73 231 73t231 -56t91 -136q0 -34 -18 -56t-45 -22zM721 1456l35 -41l-277 -258l-278 258l35 41l243 -182z" />
    <glyph glyph-name="scedilla.sc" horiz-adv-x="907" 
d="M431 -410q-95 0 -193 48l20 51q84 -39 156 -39q132 0 133 81q0 81 -129 83q-20 0 -37 -4l-25 16l41 160q-131 10 -213 68t-82 126q0 39 18 61q18 21 48 21q29 0 46 -16t17 -49t-30 -58q27 -35 93 -61t174 -27q110 1 184 57t75 148q0 92 -85 144q-63 40 -162 77t-140 55
t-97 54q-106 69 -106 188t92 193q91 73 231 73t231 -56t91 -136q0 -34 -18 -56t-47 -22t-46 17t-17 50t28 56q-16 33 -78 57t-156 25q-92 0 -162 -54t-71 -145q0 -91 119 -154q49 -26 137 -60t132 -53t98 -55q104 -69 104 -194t-100 -201t-256 -75l-13 -105q90 -2 138 -41
t48 -102q0 -62 -48 -104t-143 -42z" />
    <glyph glyph-name="scommaaccent.sc" horiz-adv-x="907" 
d="M719 770q-66 0 -66 67q0 33 29 56q-16 33 -78 57t-156 25q-92 0 -162 -54t-71 -145q0 -91 119 -154q49 -26 137 -60t132 -53t98 -55q104 -69 104 -194t-100 -201q-100 -75 -253 -75t-251 61t-99 135q0 39 18 61q18 21 48 21q29 0 46 -16t17 -49t-30 -58q27 -35 93 -61
t174 -27q110 1 184 57t75 148q0 92 -85 144q-63 40 -162 77t-140 55t-97 54q-106 69 -106 188t92 193q91 73 231 73t231 -56t91 -136q0 -34 -18 -56t-45 -22zM464 -121q32 -1 54 -27t23 -88t-49 -137q-50 -74 -142 -125l-16 29q127 102 131 203q-33 4 -53 24t-20 52t20 50
q20 19 52 19z" />
    <glyph glyph-name="tcaron.sc" horiz-adv-x="1044" 
d="M768 1456l35 -41l-277 -258l-278 258l35 41l243 -182zM285 0v68h198v886h-323v-200h-74v268h875v-268h-76v200h-324v-886h199v-68h-475z" />
    <glyph glyph-name="tcommaaccent.sc" horiz-adv-x="1044" 
d="M513 -121q33 -1 55 -27t22 -88t-50 -137q-50 -74 -141 -125l-16 29q127 102 131 203q-33 4 -53 24q-21 20 -21 52t20 50q20 19 53 19zM285 0v68h198v886h-323v-200h-74v268h875v-268h-76v200h-324v-886h199v-68h-475z" />
    <glyph glyph-name="thorn.sc" horiz-adv-x="974" 
d="M528 285q135 -1 213 65t78 171t-80 171t-211 66q-53 0 -180 -4v-465q102 -4 180 -4zM348 68h197v-68h-467v68h192v886h-192v68h467v-68h-197v-133q63 4 176 4q170 0 272 -83t101 -221q0 -138 -100 -221t-275 -83q-125 0 -174 4v-153z" />
    <glyph glyph-name="uacute.sc" horiz-adv-x="1236" 
d="M313 954v-585q0 -152 81 -234t224 -82t225 82q81 82 81 232v587h-195v68h457v-68h-185v-585q0 -185 -101 -285q-102 -100 -284 -100t-281 98t-99 285v587h-185v68h457v-68h-195zM846 1430q25 0 41 -18t16 -42q0 -35 -59 -63l-295 -142l-19 31l254 203q37 31 62 31z" />
    <glyph glyph-name="ubreve.sc" horiz-adv-x="1236" 
d="M620 1165q-95 -1 -171 61t-111 158l59 29q66 -160 223 -160t224 160l57 -29q-35 -96 -111 -158t-170 -61zM313 954v-585q0 -152 81 -234t224 -82t225 82q81 82 81 232v587h-195v68h457v-68h-185v-585q0 -185 -101 -285q-102 -100 -284 -100t-281 98t-99 285v587h-185v68
h457v-68h-195z" />
    <glyph glyph-name="ucircumflex.sc" horiz-adv-x="1236" 
d="M313 954v-585q0 -152 81 -234t224 -82t225 82q81 82 81 232v587h-195v68h457v-68h-185v-585q0 -185 -101 -285q-102 -100 -284 -100t-281 98t-99 285v587h-185v68h457v-68h-195zM377 1153l-35 39l279 260l276 -260l-35 -39l-241 182z" />
    <glyph glyph-name="udieresis.sc" horiz-adv-x="1236" 
d="M313 954v-585q0 -152 81 -234t224 -82t225 82q81 82 81 232v587h-195v68h457v-68h-185v-585q0 -185 -101 -285q-102 -100 -284 -100t-281 98t-99 285v587h-185v68h457v-68h-195zM480 1198q-32 0 -54 24t-23 56q0 32 22 56q23 22 55 22t55 -23t23 -55t-24 -56
q-22 -24 -54 -24zM759 1198q-31 0 -53 24t-22 56t22 56q22 22 54 22t54 -23t22 -55t-22 -56t-55 -24z" />
    <glyph glyph-name="ugrave.sc" horiz-adv-x="1236" 
d="M313 954v-585q0 -152 81 -234t224 -82t225 82q81 82 81 232v587h-195v68h457v-68h-185v-585q0 -185 -101 -285q-102 -100 -284 -100t-281 98t-99 285v587h-185v68h457v-68h-195zM336 1370q0 25 16 42q39 41 103 -13l254 -203l-19 -31l-295 142q-59 29 -59 63z" />
    <glyph glyph-name="uhungarumlaut.sc" horiz-adv-x="1236" 
d="M313 954v-585q0 -152 81 -234t224 -82t225 82q81 82 81 232v587h-195v68h457v-68h-185v-585q0 -185 -101 -285q-102 -100 -284 -100t-281 98t-99 285v587h-185v68h457v-68h-195zM1122 1374q0 -41 -63 -65l-297 -133l-19 28l263 197q65 50 102 11q14 -15 14 -38zM709 1438
q55 0 55 -62q0 -31 -57 -57l-291 -154l-19 29l250 211q37 33 62 33z" />
    <glyph glyph-name="umacron.sc" horiz-adv-x="1236" 
d="M313 954v-585q0 -152 81 -234t224 -82t225 82q81 82 81 232v587h-195v68h457v-68h-185v-585q0 -185 -101 -285q-102 -100 -284 -100t-281 98t-99 285v587h-185v68h457v-68h-195zM332 1229v76h575v-76h-575z" />
    <glyph glyph-name="uogonek.sc" horiz-adv-x="1236" 
d="M313 954v-585q0 -152 81 -234t224 -82t225 82q81 82 81 232v587h-195v68h457v-68h-185v-585q0 -169 -85 -267t-240 -114q-154 -82 -154 -209q0 -55 33 -89t105 -34t147 43l-4 -66q-59 -45 -157 -45t-148 48q-51 48 -52 128q0 129 132 222q-164 10 -253 107t-89 274v587
h-185v68h457v-68h-195z" />
    <glyph glyph-name="uring.sc" horiz-adv-x="1236" 
d="M313 954v-585q0 -152 81 -234t224 -82t225 82q81 82 81 232v587h-195v68h457v-68h-185v-585q0 -185 -101 -285q-102 -100 -284 -100t-281 98t-99 285v587h-185v68h457v-68h-195zM620 1208q52 0 86 37t34 91t-34 92t-86 38t-86 -38t-34 -92t34 -91t86 -37zM620 1147
q-79 0 -134 55q-54 55 -54 134t54 135q54 57 134 57t133 -56q54 -56 54 -136q0 -79 -54 -134t-133 -55z" />
    <glyph glyph-name="wacute.sc" horiz-adv-x="1601" 
d="M1030 1430q24 0 41 -18q16 -18 16 -42q0 -35 -59 -63l-295 -142l-18 31l254 203q37 31 61 31zM14 954v68h437v-68h-189l250 -831l274 758h35l277 -758l250 831h-191v68h430v-68h-164l-299 -979h-47l-276 766l-277 -766h-45l-299 979h-166z" />
    <glyph glyph-name="wcircumflex.sc" horiz-adv-x="1601" 
d="M14 954v68h437v-68h-189l250 -831l274 758h35l277 -758l250 831h-191v68h430v-68h-164l-299 -979h-47l-276 766l-277 -766h-45l-299 979h-166zM561 1153l-35 39l279 260l276 -260l-34 -39l-242 182z" />
    <glyph glyph-name="wdieresis.sc" horiz-adv-x="1601" 
d="M14 954v68h437v-68h-189l250 -831l274 758h35l277 -758l250 831h-191v68h430v-68h-164l-299 -979h-47l-276 766l-277 -766h-45l-299 979h-166zM664 1356q34 0 56 -23t22 -55t-23 -56q-22 -24 -54 -24t-55 24q-22 24 -22 56t22 56q22 22 54 22zM943 1198q-31 0 -53 24
t-22 56t22 56q22 22 54 22t54 -23t22 -55t-22 -56t-55 -24z" />
    <glyph glyph-name="wgrave.sc" horiz-adv-x="1601" 
d="M877 1165l-295 142q-59 29 -60 63q0 25 16 42q40 41 103 -13l254 -203zM14 954v68h437v-68h-189l250 -831l274 758h35l277 -758l250 831h-191v68h430v-68h-164l-299 -979h-47l-276 766l-277 -766h-45l-299 979h-166z" />
    <glyph glyph-name="yacute.sc" 
d="M1075 1022v-68h-157l-338 -567v-319h198v-68h-471v68h197v319l-336 567h-160v68h426v-68h-180l291 -501l293 501h-185v68h422zM772 1430q24 0 41 -18q16 -18 16 -42q0 -35 -59 -63l-295 -142l-18 31l254 203q37 31 61 31z" />
    <glyph glyph-name="ycircumflex.sc" 
d="M1075 1022v-68h-157l-338 -567v-319h198v-68h-471v68h197v319l-336 567h-160v68h426v-68h-180l291 -501l293 501h-185v68h422zM303 1153l-35 39l279 260l276 -260l-35 -39l-241 182z" />
    <glyph glyph-name="ydieresis.sc" 
d="M1075 1022v-68h-157l-338 -567v-319h198v-68h-471v68h197v319l-336 567h-160v68h426v-68h-180l291 -501l293 501h-185v68h422zM406 1356q34 0 56 -23t22 -55t-23 -56q-22 -24 -54 -24t-55 24q-22 24 -22 56t22 56q22 22 54 22zM685 1198q-31 0 -53 24t-22 56t22 56
q22 22 54 22t54 -23t22 -55t-22 -56t-55 -24z" />
    <glyph glyph-name="ygrave.sc" 
d="M618 1165l-294 142q-59 29 -60 63q0 25 16 42q39 40 103 -13l254 -203zM1075 1022v-68h-157l-338 -567v-319h198v-68h-471v68h197v319l-336 567h-160v68h426v-68h-180l291 -501l293 501h-185v68h422z" />
    <glyph glyph-name="zacute.sc" horiz-adv-x="966" 
d="M90 0v41l680 915h-582v-196h-73v262h766v-41l-680 -913h610v194h76v-262h-797zM717 1430q25 0 41 -18t16 -42q0 -35 -59 -63l-295 -142l-19 31l254 203q37 31 62 31z" />
    <glyph glyph-name="zcaron.sc" horiz-adv-x="966" 
d="M90 0v41l680 915h-582v-196h-73v262h766v-41l-680 -913h610v194h76v-262h-797zM735 1456l35 -41l-276 -258l-279 258l35 41l244 -182z" />
    <glyph glyph-name="zdotaccent.sc" horiz-adv-x="966" 
d="M493 1360q33 0 57 -25t24 -59t-24 -58q-23 -24 -57 -24t-58 25q-23 25 -23 59t24 58t57 24zM90 0v41l680 915h-582v-196h-73v262h766v-41l-680 -913h610v194h76v-262h-797z" />
    <glyph glyph-name="zero.lin" horiz-adv-x="1241" 
d="M621 51q184 0 300 173q115 172 115 448t-115 450q-116 174 -300 174t-300 -174t-116 -448t116 -448t300 -175zM1122 673q0 -310 -144 -503t-359 -193q-216 0 -357 194t-141 503t143 503q142 193 358 193t358 -194t142 -503z" />
    <glyph glyph-name="one.lin" horiz-adv-x="806" 
d="M94 0v72h285v1192l-275 -72l-18 76l342 90h35v-1286h280v-72h-649z" />
    <glyph glyph-name="two.lin" horiz-adv-x="1087" 
d="M137 1065q0 53 39 124t134 126t222 55q168 0 283 -101t115 -247t-78 -244t-245 -219t-267 -233t-139 -254h671v245h80v-317h-831l-21 35q47 186 161 317t280 253q167 122 235 208t68 204q0 119 -90 199t-208 80t-194 -41t-110 -104q-10 -20 -19 -45q31 -6 49 -28t18 -50
t-21 -49q-23 -21 -55 -21t-54 27t-23 80z" />
    <glyph glyph-name="three.lin" horiz-adv-x="1026" 
d="M483 53q162 0 255 88t93 211q0 188 -186 269q-102 43 -244 43h-36v73h41q139 0 247 66q143 86 144 233q0 117 -82 188t-228 70q-89 0 -159 -30t-107 -78q-18 -27 -20 -33q57 -14 57 -72q0 -29 -19 -49t-49 -20t-54 26t-24 69q0 44 31 97q45 74 137 120t214 46
q170 0 278 -95t109 -239q0 -182 -181 -282q-74 -37 -133 -49q86 -14 133 -37q213 -90 213 -312q1 -164 -119 -270t-313 -106q-113 0 -212 40t-144 104q-45 62 -45 112t22 76t54 26q31 0 50 -20t19 -48q0 -27 -16 -46t-39 -25q6 -18 37 -53t109 -64t167 -29z" />
    <glyph glyph-name="four.lin" horiz-adv-x="1089" 
d="M414 0v72h256v342h-621l-12 28l680 932l63 -45l-620 -846h510v377l84 39v-416h243v-69h-243v-342h204v-72h-544z" />
    <glyph glyph-name="five.lin" horiz-adv-x="1013" 
d="M469 51q154 -1 255 101t101 257t-94 247q-95 92 -245 94q-150 0 -298 -66l-36 21l67 643h615v-84h-547l-51 -484q104 47 241 47q193 -1 314 -109t121 -304t-131 -316q-131 -121 -329 -121t-305 111q-53 53 -53 119q0 33 20 59t53 25q32 -1 52 -21q21 -20 21 -58t-43 -56
q70 -105 272 -105z" />
    <glyph glyph-name="six.lin" horiz-adv-x="1130" 
d="M584 51q150 -1 247 99q99 100 99 248t-96 246t-246 97q-150 0 -258 -100q-106 -99 -106 -241t104 -246q106 -104 256 -103zM944 1159q0 -39 -19 -63t-51 -23t-54 21t-22 55t33 57q0 2 -6 9t-8 12q-53 68 -186 67q-193 0 -311 -196t-119 -539q27 74 88 135
q121 121 305 121t302 -117t118 -296t-123 -302t-311 -123t-316 125q-143 143 -143 457q0 411 148 611t366 200q145 0 237 -78q72 -59 72 -133z" />
    <glyph glyph-name="seven.lin" horiz-adv-x="968" 
d="M154 1276v-229h-80v301h815l14 -27l-567 -1321h-88l549 1276h-643z" />
    <glyph glyph-name="eight.lin" horiz-adv-x="1107" 
d="M553 51q152 0 253 85t101 215t-103 221q-102 92 -250 92t-252 -90t-103 -222q0 -131 101 -216t253 -85zM555 737q139 0 232 79t94 198q-1 118 -95 200t-233 82t-232 -82t-93 -200t94 -197q94 -80 233 -80zM553 -23q-188 -1 -312 105t-124 274q0 122 87 220t204 124
q-115 33 -190 119t-75 197q0 158 119 256t292 98t291 -97t118 -257q0 -111 -74 -197t-191 -119q119 -24 206 -122t87 -222q0 -168 -125 -274t-313 -105z" />
    <glyph glyph-name="nine.lin" horiz-adv-x="1130" 
d="M544 594q150 0 257 98q106 98 106 247t-104 253q-105 104 -255 104t-248 -100t-99 -255q0 -155 96 -251q97 -96 247 -96zM174 190q0 39 20 62q20 22 53 22q32 0 52 -22t20 -56t-38 -55q16 -27 47 -45q76 -45 180 -45q184 0 305 179t119 536q-47 -125 -179 -197
q-95 -51 -206 -51q-197 0 -315 116t-118 303t124 310t312 123t312 -125q147 -147 148 -463q0 -443 -147 -624t-359 -181q-143 0 -246 78q-84 61 -84 135z" />
    <glyph glyph-name="bullet.alt" horiz-adv-x="1261" 
d="M631 -98q-223 0 -373 154t-149 376q0 221 149 375q150 154 373 154t373 -154t150 -375t-150 -376q-150 -154 -373 -154z" />
    <glyph glyph-name="hyphen.lin" horiz-adv-x="536" 
d="M72 643v78h393v-78h-393z" />
    <glyph glyph-name="endash.lin" horiz-adv-x="835" 
d="M41 643v78h754v-78h-754z" />
    <glyph glyph-name="emdash.lin" horiz-adv-x="1394" 
d="M41 643v78h1311v-78h-1311z" />
    <glyph glyph-name="parenleft.lin" horiz-adv-x="657" 
d="M141 655q0 287 132 555t386 439l46 -60q-240 -161 -362 -413t-122 -520t122 -520q122 -253 362 -415l-46 -59q-254 170 -386 438t-132 555z" />
    <glyph glyph-name="parenright.lin" horiz-adv-x="657" 
d="M434 654q0 266 -122 520t-359 415l43 60q254 -169 387 -439t133 -555t-133 -554t-387 -439l-43 59q238 164 359 415q122 251 122 518z" />
    <glyph glyph-name="bracketleft.lin" horiz-adv-x="667" 
d="M219 -287v1909h414v-72h-334v-1765h334v-72h-414z" />
    <glyph glyph-name="bracketright.lin" horiz-adv-x="667" 
d="M35 -287v72h334v1765h-334v72h416v-1909h-416z" />
    <glyph glyph-name="braceleft.lin" horiz-adv-x="641" 
d="M129 -20q0 70 34 124t111 142q113 120 113 198t-70 131t-172 54h-47v71h47q102 0 172 52t70 133q0 80 -113 196q-53 59 -76 90q-69 89 -69 177q0 125 112 212t294 89v-64q-158 -8 -243 -78q-85 -71 -85 -155t130 -228t130 -228q0 -83 -58 -146t-171 -86q113 -20 171 -85
t58 -149t-130 -228t-130 -228t85 -154t243 -78v-64q-182 2 -294 90t-112 212z" />
    <glyph glyph-name="braceright.lin" horiz-adv-x="641" 
d="M432 -25q0 85 -127 230q-131 139 -131 224t58 150t171 85q-113 24 -171 88t-58 146t131 226q127 142 127 228t-84 156t-239 77v64q183 -2 293 -89t110 -212q0 -70 -35 -126t-110 -141q-113 -117 -113 -197t70 -131q70 -52 172 -53h47v-71h-47q-102 1 -172 -53t-70 -132
t113 -198q77 -84 111 -140t34 -126q0 -124 -110 -212t-293 -90v64q155 8 239 78t84 155z" />
    <glyph glyph-name="registered.alt" horiz-adv-x="1206" 
d="M590 745h-74v-223h68q66 0 106 31t41 83t-37 80t-104 29zM588 254h-199v47h74v444h-74v48h203q88 0 141 -42t53 -112q0 -113 -118 -147l116 -191h68v-47h-104l-134 223h-98v-176h72v-47zM603 31q198 0 329 141t131 342t-131 341t-329 140t-330 -141t-132 -341t132 -341
t330 -141zM602 -18q-221 0 -369 153q-147 154 -147 377t147 378q147 154 369 154t369 -154q147 -155 147 -377t-147 -377q-148 -154 -369 -154z" />
    <glyph glyph-name="copyright.lin" horiz-adv-x="1591" 
d="M1018 807q-50 0 -51 50q0 24 28 36q-14 31 -63 57t-115 25q-117 0 -195 -86t-77 -205q0 -119 78 -204q79 -85 199 -85t214 88l37 -45q-104 -100 -254 -100t-244 99t-94 247q1 148 99 248t239 100q102 0 176 -52t74 -116q0 -25 -15 -41q-14 -16 -36 -16zM796 31
q261 0 439 186q178 187 178 457t-178 456t-439 186q-262 0 -440 -186t-178 -456t178 -457q179 -186 440 -186zM795 -20q-287 0 -482 202t-194 492t195 492t481 202t483 -202t195 -492q1 -290 -195 -492t-483 -202z" />
    <glyph glyph-name="published.lin" horiz-adv-x="1591" 
d="M1014 800q0 72 -51 114t-134 42h-100v-313l102 -2q86 0 135 43q48 43 48 116zM729 393h94v-55h-245v55h88v563h-88v56h251q109 0 179 -58t70 -155q0 -98 -68 -156q-68 -57 -181 -57l-100 2v-195zM796 31q261 0 439 186q178 187 178 457t-178 456t-439 186
q-262 0 -440 -186t-178 -456t178 -457q179 -186 440 -186zM795 -20q-287 0 -482 202t-194 492t195 492t481 202t483 -202t195 -492q1 -290 -195 -492t-483 -202z" />
    <glyph glyph-name="registered.lin" horiz-adv-x="1591" 
d="M694 684h94q82 0 134 39q51 39 51 105t-48 104q-48 37 -132 37h-99v-285zM694 629v-223h92v-56h-243v56h90v563h-90v55h254q109 0 175 -52t64 -132q0 -80 -42 -128t-111 -65l151 -241h82v-56h-121l-170 279h-131zM796 31q261 0 439 186q178 187 178 457t-178 456
t-439 186q-262 0 -440 -186t-178 -456t178 -457q179 -186 440 -186zM795 -20q-287 0 -482 202t-194 492t195 492t481 202t483 -202t195 -492q1 -290 -195 -492t-483 -202z" />
    <glyph glyph-name="dollar.lin" horiz-adv-x="1114" 
d="M258 1024q0 -108 69 -170t205 -111l46 535q-144 2 -232 -72t-88 -182zM918 339q0 122 -78 185t-244 119l-51 -575q169 -4 271 72t102 199zM178 1021q0 140 112 233t294 92l16 182l72 -6l-17 -181q135 -16 225 -88t91 -153q-1 -39 -21 -62q-20 -22 -50 -22t-52 20t-21 56
q0 36 37 69q-49 86 -215 111l-47 -551q175 -64 286 -139t110 -235q-1 -159 -131 -255t-328 -90l-17 -203l-71 8l16 199q-160 20 -261 98t-102 158q0 43 20 68q20 24 53 24q32 0 51 -18q20 -18 20 -58t-39 -69q27 -45 99 -84t165 -51l53 594q-170 59 -259 136t-89 217z" />
    <glyph glyph-name="sterling.lin" horiz-adv-x="1095" 
d="M86 39q0 39 45 70t133 32q111 133 111 312q0 47 -8 86h-215v69h200q-4 18 -14 50t-14 47q-62 172 -62 310q0 139 104 245t252 106t238 -70t90 -157q0 -41 -20 -63t-50 -22t-51 20q-20 19 -20 56t37 64q-49 100 -221 100q-119 0 -199 -86t-80 -198t41 -241
q41 -128 47 -161h352v-69h-338q6 -43 7 -86q0 -197 -113 -310q76 -2 217 -43q145 -47 223 -47t121 35t68 109l65 -29q-55 -188 -248 -188q-100 0 -250 49t-243 49q-61 -96 -133 -96t-72 57z" />
    <glyph glyph-name="Euro.lin" horiz-adv-x="1423" 
d="M55 782v72h205q51 236 211 374t377 138q182 2 310 -101t128 -229q0 -40 -22 -68t-56 -28q-33 0 -53 22t-20 50q0 61 61 78q-16 72 -116 138t-234 64q-188 0 -323 -116q-134 -117 -179 -322h549v-72h-561q-6 -56 -6 -122t8 -121h559v-72h-547q45 -190 169 -302t310 -112
q229 0 398 164l51 -55q-178 -182 -449 -182q-219 0 -367 133t-196 354h-207v72h195q-8 51 -8 119t6 124h-193z" />
    <glyph glyph-name="yen.lin" horiz-adv-x="1300" 
d="M399 0v72h209v241h-352v70h352v172h-352v68h315l-383 653h-153v72h418v-72h-168l366 -645l365 645h-168v72h416v-72h-156l-381 -653h315v-68h-352v-172h352v-70h-352v-241h209v-72h-500z" />
    <glyph glyph-name="cent.lin" horiz-adv-x="958" 
d="M164 706q0 -148 72 -241q72 -92 194 -125l66 727q-140 -9 -236 -111t-96 -250zM80 704q0 172 123 300t299 133l20 235l70 -4l-21 -235q119 -14 202 -84t83 -150q0 -35 -22 -61t-51 -27q-66 0 -66 61q0 18 14 38t37 30q-16 47 -72 82t-131 45l-67 -739q18 -2 57 -2
q143 0 283 94l-7 -80q-127 -84 -282 -84q-37 0 -55 2l-27 -295l-70 6l27 299q-156 35 -250 149q-94 115 -94 287z" />
    <glyph glyph-name="numbersign.lin" horiz-adv-x="1126" 
d="M446 879l-65 -424h293l65 424h-293zM117 879v63h268l64 406h71l-63 -406h293l63 406h70l-64 -406h271v-63h-281l-64 -424h263v-64h-273l-59 -391h-72l62 391h-293l-62 -391h-69l59 391h-266v64h276l66 424h-260z" />
    <glyph glyph-name="paragraph.lin" horiz-adv-x="1302" 
d="M797 70h145v1208h-145v-1208zM524 0v72h191v434q-41 -2 -150 -2q-221 0 -353 116t-132 307t140 306t353 115h631v-72h-178v-1204h178v-72h-680z" />
    <glyph glyph-name="section.lin" horiz-adv-x="1075" 
d="M213 682q0 -70 73 -114t244 -87l95 -24q236 68 235 209q0 72 -72 114t-245 86l-97 25q-233 -63 -233 -209zM166 167q0 41 18 63t48 22t50 -18t19 -51q0 -32 -20 -54q23 -31 91 -55t167 -23q100 0 178 46t78 119q1 73 -63 113t-242 86t-271 102q-92 55 -92 147
q0 178 246 254q-90 34 -133 82t-43 124q0 104 101 174q100 70 248 70t256 -58t107 -139q0 -33 -20 -55t-50 -20q-30 0 -49 18q-20 18 -20 51t23 56q-14 16 -48 34q-79 41 -195 41t-194 -46t-78 -120t64 -112q62 -38 242 -85t271 -103t91 -156q0 -172 -244 -244
q88 -35 132 -82t43 -123q1 -109 -101 -177t-273 -68t-282 96q-55 49 -55 91z" />
    <glyph glyph-name="ordfeminine.lin" horiz-adv-x="657" 
d="M258 1036q94 0 168 84v99q-70 25 -144 25t-110 -31t-35 -75q0 -44 32 -73t89 -29zM88 793v55h483v-55h-483zM152 1362q-43 0 -46 47q0 41 52 75t133 34q82 0 138 -40t56 -130v-301h86v-52h-143v74q-80 -84 -169 -84t-136 42t-47 109q0 68 55 110t139 42t156 -26v75
q0 131 -139 129q-70 0 -101 -30q8 -10 9 -31q0 -43 -43 -43z" />
    <glyph glyph-name="ordmasculine.lin" horiz-adv-x="690" 
d="M345 1038q87 0 143 62t57 153q-1 91 -57 153t-143 62t-143 -61t-56 -153t56 -154t143 -62zM346 987q-114 0 -188 77q-74 78 -74 190t74 189t188 77t188 -76q72 -76 72 -190t-72 -190t-188 -77zM115 793v55h460v-55h-460z" />
    <glyph glyph-name="degree.lin" horiz-adv-x="579" 
d="M109 1262q0 -84 51 -140t130 -57q79 0 129 56q50 57 50 141t-50 140t-129 56t-130 -56t-51 -140zM535 1263q0 -105 -70 -179t-175 -74t-176 74t-71 178t71 178t176 74t175 -74q70 -72 70 -177z" />
    <glyph glyph-name="percent.lin" horiz-adv-x="1286" 
d="M207 -14l-57 39l462 665q451 649 469 672l58 -37q-2 -4 -148 -213t-321 -461q-70 -94 -264 -376q-195 -283 -199 -289zM139 1075q-1 -94 59 -161q60 -66 149 -66t148 66q58 67 58 161t-58 161q-59 67 -149 67t-148 -67t-59 -161zM733 272q1 -94 59 -160t148 -67
q90 0 149 67q58 66 58 160q1 94 -59 161t-148 67t-148 -67t-59 -161zM659 272q0 123 80 207t200 84t201 -84t81 -207q0 -124 -81 -208t-201 -84t-200 84t-80 208zM66 1075q0 123 80 208q81 85 200 85t201 -85t82 -207t-82 -207t-201 -85t-200 84q-80 84 -80 207z" />
    <glyph glyph-name="perthousand.lin" horiz-adv-x="1951" 
d="M207 -14l-57 39l462 665q451 649 469 672l58 -37q-2 -4 -148 -213t-321 -461q-70 -94 -264 -376q-195 -283 -199 -289zM139 1075q-1 -94 59 -161q60 -66 149 -66t148 66q58 67 58 161t-58 161q-59 67 -149 67t-148 -67t-59 -161zM1399 272q0 -94 58 -160q59 -66 149 -67
q90 0 148 67q58 66 58 160t-59 161t-147 67t-148 -67t-59 -161zM733 272q1 -94 59 -160t148 -67q90 0 149 67q58 66 58 160q1 94 -59 161t-148 67t-148 -67t-59 -161zM1325 272q0 123 81 207t200 84q120 0 200 -84t80 -207q0 -124 -81 -208t-199 -84t-200 84q-81 84 -81 208
zM659 272q0 123 80 207t200 84t201 -84t81 -207q0 -124 -81 -208t-201 -84t-200 84t-80 208zM66 1075q0 123 80 208q81 85 200 85t201 -85t82 -207t-82 -207t-201 -85t-200 84q-80 84 -80 207z" />
    <glyph glyph-name="quotedbl.lin" horiz-adv-x="546" 
d="M139 1516q74 0 58 -97l-43 -317h-31l-43 317q-6 45 10 71t49 26zM391 1102l-43 317q-12 96 60 97q33 0 49 -26t8 -71l-43 -317h-31z" />
    <glyph glyph-name="quotesingle.lin" horiz-adv-x="280" 
d="M139 1516q74 0 58 -97l-43 -317h-31l-43 317q-6 45 10 71t49 26z" />
    <glyph glyph-name="plus.lin" horiz-adv-x="798" 
d="M362 371v280h-276v72h276v281h74v-281h277v-72h-277v-280h-74z" />
    <glyph glyph-name="minus.lin" horiz-adv-x="798" 
d="M86 651v72h627v-72h-627z" />
    <glyph glyph-name="divide.lin" horiz-adv-x="798" 
d="M398 360q-28 0 -48 22t-20 50t20 49t49 21t48 -20t19 -50q0 -28 -20 -50t-48 -22zM399 872q-29 0 -49 20t-20 50q0 28 20 50t48 22t48 -22t20 -50t-18 -50q-20 -20 -49 -20zM713 651h-627v72h627v-72z" />
    <glyph glyph-name="equal.lin" horiz-adv-x="798" 
d="M86 485v70h627v-70h-627zM86 776v72h627v-72h-627z" />
    <glyph glyph-name="multiply.lin" horiz-adv-x="798" 
d="M631 403l-234 234l-229 -231l-51 49l231 231l-231 232l51 53l231 -234l232 232l49 -51l-231 -230l233 -233z" />
    <glyph glyph-name="less.lin" horiz-adv-x="757" 
d="M580 332l-490 321v29l490 322l38 -58l-423 -278l423 -279z" />
    <glyph glyph-name="greater.lin" horiz-adv-x="757" 
d="M178 332l-39 57l424 279l-424 278l39 58l490 -322v-29z" />
    <glyph glyph-name="plusminus.lin" horiz-adv-x="798" 
d="M86 242v71h627v-71h-627zM362 455v282h-276v70h276v280h74v-280h277v-70h-277v-282h-74z" />
    <glyph glyph-name="zero.tab" 
d="M543 1296q-162 0 -263 -170q-102 -170 -102 -448t102 -451q102 -172 263 -172q162 0 263 172t101 451q0 278 -101 448t-263 170zM543 -23q-195 0 -322 193t-127 505t127 506q127 193 322 193t321 -194t127 -505q-1 -312 -127 -505t-321 -193z" />
    <glyph glyph-name="one.tab" 
d="M170 0v74h350v1190l-338 -97l-16 78l391 111h47v-1282h344v-74h-778z" />
    <glyph glyph-name="two.tab" 
d="M537 1370q171 0 283 -97t112 -247t-78 -246t-258 -229q-330 -244 -393 -477h671v231h82v-305h-835l-19 37q45 178 160 311t279 257q165 124 235 210t70 205t-90 198q-90 78 -208 78t-196 -41q-107 -56 -131 -151q31 -6 48 -28t17 -50t-20 -50t-54 -22t-56 27t-23 83
q0 56 35 114q47 84 144 138t225 54z" />
    <glyph glyph-name="three.tab" 
d="M510 -20q-119 0 -219 45q-101 45 -149 110t-48 115t22 78q22 26 52 26t51 -20q20 -20 21 -49q0 -55 -58 -70q32 -77 154 -127q80 -33 174 -33q164 0 265 88t102 211q0 188 -209 269q-102 43 -250 43h-41v73h49q133 0 246 60q174 84 174 241q0 115 -89 186q-89 70 -251 70
t-260 -110q-18 -18 -31 -47q57 -18 57 -72q0 -29 -19 -49t-50 -20t-53 23t-23 73q0 50 46 117t138 114t213 47q178 0 291 -92t113 -240q0 -188 -207 -286q-88 -37 -150 -45q92 -14 146 -37q113 -43 177 -123t64 -191q0 -164 -124 -271t-324 -107z" />
    <glyph glyph-name="four.tab" 
d="M430 0v74h250v336h-629l-14 30l692 934l66 -45l-633 -848h518v377l84 37v-414h242v-71h-242v-336h207v-74h-541z" />
    <glyph glyph-name="five.tab" 
d="M889 410q1 152 -103 244q-104 91 -267 91t-314 -67l-35 16l74 654h643v-84h-576l-55 -486q113 47 258 47q199 -1 329 -109t130 -304t-135 -315q-135 -120 -343 -120t-325 113q-59 58 -59 106q-1 48 21 72t54 25t50 -19q20 -20 20 -58t-41 -56q82 -103 271 -103
q188 1 296 101t107 252z" />
    <glyph glyph-name="six.tab" 
d="M560 55q146 -1 242 99t97 248q0 148 -96 244q-97 96 -243 97q-146 0 -246 -101q-100 -102 -101 -246q1 -144 101 -242t246 -99zM922 1159q0 -39 -20 -63t-51 -23q-32 0 -52 22q-21 23 -21 57t33 54q-23 39 -79 64t-124 24q-182 0 -302 -198t-120 -531v-12q25 74 78 133
q123 133 303 133t298 -117q118 -116 118 -296t-121 -304t-307 -125q-186 0 -307 125q-141 147 -142 467q0 401 153 603t357 202q145 0 240 -84q66 -61 66 -131z" />
    <glyph glyph-name="seven.tab" 
d="M190 1274v-230h-81v304h882l13 -25l-601 -1323h-92l578 1274h-699z" />
    <glyph glyph-name="eight.tab" 
d="M543 739q137 0 229 80t92 199t-91 199q-91 79 -230 79t-231 -79q-91 -80 -91 -199q1 -119 93 -199t229 -80zM543 1372q173 0 289 -95t116 -255q0 -113 -77 -201t-193 -119q115 -20 207 -118t92 -226q0 -168 -125 -273t-309 -105t-310 105q-125 105 -124 273q0 128 92 226
t207 118q-117 31 -194 119t-77 201q0 160 117 255t289 95zM543 55q150 0 250 85t100 215t-103 219q-102 90 -246 90t-248 -90t-103 -219q0 -130 100 -215t250 -85z" />
    <glyph glyph-name="nine.tab" 
d="M872 946q0 148 -102 249t-245 101q-144 0 -240 -101q-97 -101 -97 -253t96 -250t241 -98q146 0 247 102q100 102 100 250zM979 782q0 -401 -151 -603t-353 -202q-143 0 -244 84q-74 63 -73 129q0 37 20 61q20 23 51 23t53 -20t22 -57t-40 -56q14 -18 37 -39
q61 -49 184 -49q178 0 296 200t118 533q-25 -76 -80 -133q-121 -137 -301 -137t-298 120t-118 302t121 309t307 127t308 -127q141 -146 141 -465z" />
    <glyph glyph-name="period.tab" horiz-adv-x="542" 
d="M272 -18q-38 0 -62 26t-24 62t25 62t61 26t62 -26q24 -26 24 -62t-24 -63q-25 -25 -62 -25z" />
    <glyph glyph-name="comma.tab" horiz-adv-x="542" 
d="M184 74q0 32 25 56t61 24t63 -31q25 -31 25 -97t-53 -148t-166 -148l-22 32q147 115 151 228q-32 0 -58 26t-26 58z" />
    <glyph glyph-name="colon.tab" horiz-adv-x="542" 
d="M272 551q-38 0 -62 26q-24 25 -24 63t24 64t62 25q38 0 63 -26q23 -25 23 -63t-24 -64t-62 -25zM272 -18q-38 0 -62 26t-24 62t25 62t61 26t62 -26q24 -26 24 -62t-24 -63q-25 -25 -62 -25z" />
    <glyph glyph-name="semicolon.tab" horiz-adv-x="542" 
d="M272 551q-38 0 -62 26q-24 25 -24 63t24 64t62 25q38 0 63 -26q23 -25 23 -63t-24 -64t-62 -25zM186 74q0 32 25 56t61 24t61 -31t25 -97t-52 -148t-165 -148l-22 32q145 115 149 228q-30 0 -56 26t-26 58z" />
    <glyph glyph-name="twodotleader.tab" 
d="M815 -18q-37 0 -61 26t-25 62q0 36 25 62q26 26 62 26t61 -26t25 -62t-25 -63q-25 -25 -62 -25zM272 -18q-38 0 -62 26t-24 62t25 62t61 26t62 -26q24 -26 24 -62t-24 -63q-25 -25 -62 -25z" />
    <glyph glyph-name="periodcentered.tab" horiz-adv-x="542" 
d="M272 412q-38 0 -62 26t-24 63t24 63t62 26t63 -26q23 -26 23 -64t-24 -63q-25 -25 -62 -25z" />
    <glyph glyph-name="slash.tab" 
d="M37 -420l-66 33l965 1898l65 -32z" />
    <glyph glyph-name="bar.tab" horiz-adv-x="542" 
d="M238 -410v1909h69v-1909h-69z" />
    <glyph glyph-name="underscore.tab" 
d="M-10 -272v77h1106v-77h-1106z" />
    <glyph glyph-name="dollar.tab" 
d="M252 1030q0 -102 66 -167t198 -118l45 533h-4q-135 0 -220 -73t-85 -175zM537 70q156 0 251 74t95 188t-76 183t-232 124l-49 -569h11zM172 1025q0 134 106 227t281 94h8l17 182l69 -6l-16 -183q135 -18 224 -89t89 -158q0 -39 -19 -62q-19 -22 -50 -22t-52 20
q-20 20 -20 56t37 69q-23 41 -82 74t-133 45l-47 -553q186 -70 282 -153q96 -82 96 -230t-120 -243q-121 -95 -310 -95h-12l-16 -199l-70 6l17 197q-154 20 -252 103t-99 167q0 43 22 68t52 25q30 -1 51 -19t21 -57t-41 -70q27 -49 95 -90t157 -55l51 588q-164 63 -250 146
t-86 217z" />
    <glyph glyph-name="sterling.tab" 
d="M82 39q0 39 43 67t127 29q125 139 125 316q0 49 -8 88h-219v67h204q-2 6 -28 99q-58 172 -58 312q0 139 104 243t250 104q144 0 233 -70t89 -157q0 -41 -22 -63t-51 -22q-30 0 -50 20q-20 19 -20 53t35 65q-49 100 -211 100q-117 0 -199 -81t-82 -188t40 -247t46 -168
h352v-67h-338q6 -47 7 -90q0 -199 -113 -308q4 2 14 2q66 0 208 -44t216 -44t113 33t69 107l68 -29q-63 -186 -252 -186q-76 0 -232 48t-229 48q-16 0 -24 -2q-61 -92 -144 -92q-63 0 -63 57z" />
    <glyph glyph-name="Euro.tab" 
d="M856 1040q0 55 57 76q-18 64 -88 120t-172 56q-141 -2 -240 -120t-132 -324h436v-72h-445q-4 -74 -4 -124t6 -107h443v-70h-434q33 -190 127 -305t233 -115q166 0 303 162l51 -53q-145 -186 -356 -187q-174 1 -291 137t-153 361h-144v70h135q-6 57 -6 107t4 124h-133v72
h142q39 240 165 379q127 139 299 139q145 2 245 -93t100 -208q0 -41 -20 -68t-55 -27q-33 0 -53 21q-20 20 -20 49z" />
    <glyph glyph-name="yen.tab" 
d="M307 0v74h193v241h-307v70h307v172h-307v70h286l-332 647h-141v74h406v-74h-176l309 -610l307 610h-178v74h405v-74h-143l-332 -647h289v-70h-309v-172h309v-70h-309v-241h194v-74h-471z" />
    <glyph glyph-name="cent.tab" 
d="M215 708q0 -150 75 -244q75 -93 202 -126l63 731q-141 -7 -241 -109t-99 -252zM616 250q-41 0 -61 2l-27 -289l-69 6l26 295q-160 37 -257 154q-97 116 -97 288t125 300t307 135l21 231l71 -4l-20 -231q123 -14 210 -86t87 -158q0 -37 -22 -64t-52 -27t-47 17
q-18 16 -18 43q0 47 51 70q-18 51 -78 88t-139 47l-66 -743q18 -2 62 -2q149 0 288 98l-6 -82q-123 -88 -289 -88z" />
    <glyph glyph-name="numbersign.tab" 
d="M432 877l-65 -424h282l66 424h-283zM113 877v63h260l63 406h70l-64 -406h283l61 406h70l-63 -406h264v-63h-275l-63 -424h256v-62h-266l-60 -391h-69l59 391h-281l-59 -391h-70l60 391h-258v62h268l66 424h-252z" />
    <glyph glyph-name="paragraph.tab" 
d="M514 504q-200 0 -324 116t-124 308q0 190 130 305t334 115h488v-74h-168v-1200h168v-74h-612v74h176v434q-49 -4 -68 -4zM657 70h117v1208h-117v-1208z" />
    <glyph glyph-name="section.tab" 
d="M213 685q0 -69 74 -115t254 -89l94 -24q111 33 172 87t61 122t-72 112t-253 90l-94 25q-109 -31 -173 -85t-63 -123zM164 172q0 40 19 62t49 22t50 -18t19 -50q0 -32 -22 -53q27 -33 95 -59t170 -25q101 0 180 47t79 117q-1 70 -63 110t-246 89t-277 106q-92 58 -92 146
q0 168 252 249q-94 37 -138 85t-44 122q0 100 105 173t262 73t263 -70q94 -59 95 -129q0 -35 -20 -57t-49 -22q-30 0 -49 18q-20 18 -20 51t25 53q-10 16 -37 33q-84 53 -207 53t-203 -49t-80 -120t66 -109q64 -38 245 -86t274 -106t93 -145q0 -167 -247 -253
q90 -33 133 -81t43 -124q-1 -104 -103 -175q-102 -70 -279 -70t-286 100q-55 51 -55 92z" />
    <glyph glyph-name="degree.tab" 
d="M539 1462q-127 0 -208 -88t-81 -216t81 -216t208 -88t207 88t81 216q-1 128 -81 216t-207 88zM539 795q-158 0 -257 105q-100 105 -100 258t100 258q100 106 257 106q158 0 257 -106t99 -258q0 -153 -99 -258t-257 -105z" />
    <glyph glyph-name="percent.tab" 
d="M172 -12l-55 30q4 8 169 281t228 382t406 679l53 -33l-402 -674q-360 -606 -399 -665zM627 271q0 -97 46 -163t120 -65q73 0 119 66q46 67 46 163t-46 162t-120 66t-119 -66q-46 -66 -46 -163zM121 1076q0 -97 48 -165q48 -67 123 -67t123 68t48 164q0 97 -48 165
t-123 68t-123 -68t-48 -165zM793 -20q-102 0 -170 84t-68 207q0 124 68 208t170 84t170 -84q67 -84 67 -207q0 -124 -68 -208t-169 -84zM53 1076q0 124 67 208t171 84t171 -84q66 -84 66 -208t-66 -208t-171 -84q-104 0 -171 84t-67 208z" />
    <glyph glyph-name="quotedbl.tab" 
d="M725 1518q72 0 59 -93l-45 -417h-28l-45 417q-8 41 8 67t51 26zM360 1518q32 0 50 -25t10 -68l-45 -417h-29l-45 417q-6 41 10 67t49 26z" />
    <glyph glyph-name="quotesingle.tab" horiz-adv-x="542" 
d="M270 1518q32 0 50 -25t12 -68l-47 -417h-29l-45 417q-6 41 10 67t49 26z" />
    <glyph glyph-name="plus.tab" 
d="M506 332v321h-318v72h318v322h74v-322h317v-72h-317v-321h-74z" />
    <glyph glyph-name="minus.tab" 
d="M188 653v72h709v-72h-709z" />
    <glyph glyph-name="divide.tab" 
d="M543 322q-29 0 -49 20t-21 49q1 29 21 51t48 21q28 0 48 -22q20 -23 20 -51t-19 -48t-48 -20zM543 918q-29 0 -49 20t-21 49q1 29 21 51t48 21q28 0 48 -22q20 -23 20 -51t-19 -48t-48 -20zM897 653h-709v72h709v-72z" />
    <glyph glyph-name="equal.tab" 
d="M188 463v72h709v-72h-709zM188 807v70h709v-70h-709z" />
    <glyph glyph-name="multiply.tab" 
d="M815 367l-272 272l-273 -272l-49 51l273 270l-275 275l51 51l275 -275l270 273l49 -49l-272 -273l274 -272z" />
    <glyph glyph-name="less.tab" 
d="M784 297l-571 367v18l571 367l39 -58l-499 -319l499 -318z" />
    <glyph glyph-name="greater.tab" 
d="M301 1049l571 -367v-18l-571 -367l-39 57l500 318l-500 319z" />
    <glyph glyph-name="plusminus.tab" 
d="M188 205v71h709v-71h-709zM506 436v322h-318v71h318v322h74v-322h317v-71h-317v-322h-74z" />
    <glyph glyph-name="zero.idx_P2D" horiz-adv-x="2228" 
d="M1113 205q128 0 207 118t79 306t-80 306t-207 118t-207 -118t-80 -306t80 -306t208 -118zM1111 133q-157 0 -260 138q-103 139 -103 359t104 356t261 136t261 -137t104 -357t-104 -358q-106 -138 -263 -137zM1114 1567q-258 0 -473 -128t-338 -346q-123 -219 -123 -479
t123 -478t338 -346t473 -128t473 128t338 346t123 478t-123 478t-338 347q-215 128 -473 128zM1113 1622q273 0 503 -135t361 -367q132 -232 132 -506t-132 -505t-361 -367q-228 -136 -502 -135q-274 0 -504 135q-229 134 -361 366t-132 506t132 506t361 367
q230 135 503 135z" />
    <glyph glyph-name="one.idx_P2D" horiz-adv-x="2228" 
d="M1382 150h-522v69h225v809l-217 -49l-16 68l274 65h37v-893h219v-69zM1114 1567q-258 0 -473 -128t-338 -346q-123 -219 -123 -479t123 -478t338 -346t473 -128t473 128t338 346t123 478t-123 478t-338 347q-215 128 -473 128zM1113 1622q273 0 503 -135t361 -367
q132 -232 132 -506t-132 -505t-361 -367q-228 -136 -502 -135q-274 0 -504 135q-229 134 -361 366t-132 506t132 506t361 367q230 135 503 135z" />
    <glyph glyph-name="two.idx_P2D" horiz-adv-x="2228" 
d="M823 899q0 41 25 84q32 61 104 100t182 39t194 -72q85 -72 85 -178t-56 -173t-176 -153t-192 -161q-72 -76 -100 -168h471v166h70v-233h-613l-20 32q39 134 123 230t199 176t165 139q49 59 49 140t-62 134t-155 54q-135 0 -194 -86q-14 -20 -17 -31q45 -16 45 -51
t-17 -52t-42 -18q-68 0 -68 82zM1114 1567q-258 0 -473 -128t-338 -346q-123 -219 -123 -479t123 -478t338 -346t473 -128t473 128t338 346t123 478t-123 478t-338 347q-215 128 -473 128zM1113 1622q273 0 503 -135t361 -367q132 -232 132 -506t-132 -505t-361 -367
q-228 -136 -502 -135q-274 0 -504 135q-229 134 -361 366t-132 506t132 506t361 367q230 135 503 135z" />
    <glyph glyph-name="three.idx_P2D" horiz-adv-x="2228" 
d="M1321 876q0 176 -229 175q-115 0 -168 -68q-6 -6 -15 -18h2q39 -9 39 -43t-17 -51t-42 -17t-43 20t-18 60t30 82q82 104 252 104q125 0 206 -66t81 -180t-117 -184q-45 -27 -102 -39q47 -8 100 -33q143 -68 143 -215q0 -117 -89 -191q-88 -74 -246 -75q-158 0 -244 96
q-41 46 -41 88q0 43 18 65t44 22t43 -18q18 -18 18 -49q0 -30 -39 -48q6 -14 20 -25q59 -63 183 -63t192 57q66 57 66 141q0 119 -121 175q-76 35 -183 34h-30v68h37q111 0 186 55q84 55 84 141zM1114 1567q-258 0 -473 -128t-338 -346q-123 -219 -123 -479t123 -478
t338 -346t473 -128t473 128t338 346t123 478t-123 478t-338 347q-215 128 -473 128zM1113 1622q273 0 503 -135t361 -367q132 -232 132 -506t-132 -505t-361 -367q-228 -136 -502 -135q-274 0 -504 135q-229 134 -361 366t-132 506t132 506t361 367q230 135 503 135z" />
    <glyph glyph-name="four.idx_P2D" horiz-adv-x="2228" 
d="M977 150v67h194v223h-452l-17 31l502 657l58 -41l-447 -583h356v244l78 34v-278h181v-66h-181v-221h152v-67h-424zM1114 1567q-258 0 -473 -128t-338 -346q-123 -219 -123 -479t123 -478t338 -346t473 -128t473 128t338 346t123 478t-123 478t-338 347q-215 128 -473 128
zM1113 1622q273 0 503 -135t361 -367q132 -232 132 -506t-132 -505t-361 -367q-228 -136 -502 -135q-274 0 -504 135q-229 134 -361 366t-132 506t132 506t361 367q230 135 503 135z" />
    <glyph glyph-name="five.idx_P2D" horiz-adv-x="2228" 
d="M1417 446q0 -140 -92 -226t-220 -87q-128 0 -215 50t-87 118q0 27 16 47t43 20t43 -16q17 -18 17 -46t-23 -40q15 -27 71 -45t126 -18q108 -1 176 67t68 173t-64 167q-63 62 -184 64q-121 0 -215 -47l-35 20l47 461h473v-76h-410l-34 -317q76 29 200 29t212 -80
q87 -78 87 -218zM1114 1567q-258 0 -473 -128t-338 -346q-123 -219 -123 -479t123 -478t338 -346t473 -128t473 128t338 346t123 478t-123 478t-338 347q-215 128 -473 128zM1113 1622q273 0 503 -135t361 -367q132 -232 132 -506t-132 -505t-361 -367q-228 -136 -502 -135
q-274 0 -504 135q-229 134 -361 366t-132 506t132 506t361 367q230 135 503 135z" />
    <glyph glyph-name="six.idx_P2D" horiz-adv-x="2228" 
d="M868 439q0 -93 74 -167q78 -72 180 -72t171 68q69 66 69 166t-68 166t-173 66t-179 -67t-74 -160zM1391 967q-1 -31 -17 -48t-43 -17t-43 16t-16 40t18 43q-2 8 -16 19q-41 33 -119 33q-131 0 -215 -128t-86 -362q29 76 103 123q75 47 167 47q140 0 228 -84t88 -213
t-91 -216t-229 -87t-239 100q-100 100 -101 322q0 283 110 425t269 142q96 0 162 -45q70 -44 70 -110zM1114 1567q-258 0 -473 -128t-338 -346q-123 -219 -123 -479t123 -478t338 -346t473 -128t473 128t338 346t123 478t-123 478t-338 347q-215 128 -473 128zM1113 1622
q273 0 503 -135t361 -367q132 -232 132 -506t-132 -505t-361 -367q-228 -136 -502 -135q-274 0 -504 135q-229 134 -361 366t-132 506t132 506t361 367q230 135 503 135z" />
    <glyph glyph-name="seven.idx_P2D" horiz-adv-x="2228" 
d="M905 1030v-164h-74v230h623l14 -29l-415 -928h-80l401 891h-469zM1114 1567q-258 0 -473 -128t-338 -346q-123 -219 -123 -479t123 -478t338 -346t473 -128t473 128t338 346t123 478t-123 478t-338 347q-215 128 -473 128zM1113 1622q273 0 503 -135t361 -367
q132 -232 132 -506t-132 -505t-361 -367q-228 -136 -502 -135q-274 0 -504 135q-229 134 -361 366t-132 506t132 506t361 367q230 135 503 135z" />
    <glyph glyph-name="eight.idx_P2D" horiz-adv-x="2228" 
d="M1114 205q106 0 175 56q69 55 69 143t-72 148t-173 60t-173 -60t-72 -147t70 -143t176 -57zM1115 678q95 0 159 53q63 53 63 133t-64 134q-65 54 -160 54t-160 -54t-65 -133t66 -133t161 -54zM1114 137q-141 0 -232 74t-91 192q0 86 61 155t145 89q-82 23 -134 83
t-52 136q0 115 87 185q87 69 215 69t215 -70t87 -184q0 -76 -52 -136t-134 -83q86 -20 146 -89q61 -68 61 -170t-90 -176t-232 -75zM1114 1567q-258 0 -473 -128t-338 -346q-123 -219 -123 -479t123 -478t338 -346t473 -128t473 128t338 346t123 478t-123 478t-338 347
q-215 128 -473 128zM1113 1622q273 0 503 -135t361 -367q132 -232 132 -506t-132 -505t-361 -367q-228 -136 -502 -135q-274 0 -504 135q-229 134 -361 366t-132 506t132 506t361 367q230 135 503 135z" />
    <glyph glyph-name="nine.idx_P2D" horiz-adv-x="2228" 
d="M1362 814q0 100 -75 170t-178 71q-103 0 -171 -68t-68 -171t67 -168q67 -64 173 -64t179 64q73 66 73 166zM836 281q0 75 57 75q27 0 43 -17t16 -43t-20 -40q6 -10 14 -14q45 -41 133 -41q129 0 212 120t85 351q-34 -68 -106 -113t-164 -45q-141 0 -227 84t-86 216
t90 220t227 88t231 -90q109 -109 109 -336q0 -291 -104 -427t-269 -136q-117 0 -192 66q-49 43 -49 82zM1114 1567q-258 0 -473 -128t-338 -346q-123 -219 -123 -479t123 -478t338 -346t473 -128t473 128t338 346t123 478t-123 478t-338 347q-215 128 -473 128zM1113 1622
q273 0 503 -135t361 -367q132 -232 132 -506t-132 -505t-361 -367q-228 -136 -502 -135q-274 0 -504 135q-229 134 -361 366t-132 506t132 506t361 367q230 135 503 135z" />
    <glyph glyph-name="space.tab" horiz-adv-x="542" 
 />
    <glyph glyph-name="NUL" horiz-adv-x="0" 
 />
    <glyph glyph-name="hfjslug" horiz-adv-x="1427" 
d="M877 580q-33 0 -33 34q0 12 9 24t23 11q14 0 24 -11q9 -11 9 -24q1 -34 -32 -34zM1001 612h-22v35h22q20 0 21 -16q-1 -19 -21 -19zM664 823q-33 0 -33 45t33 78l41 -80q-16 -43 -41 -43zM649 1056q0 30 29 29q27 -1 27 -35t-31 -69q-25 45 -25 75zM498 662l28 -97h17
l22 70h2l23 -70h16l29 97h-17l-20 -72h-2l-23 72h-14l-22 -72h-2l-21 72h-16zM274 662v-95h17v66l51 -66h14v95h-16v-66l-51 66h-15zM399 662v-95h70v15h-53v26h47v15h-47v24h53v15h-70zM754 567h16v35l37 60h-19l-26 -46l-27 46h-18l37 -60v-35zM877 565q20 1 34 15
q33 34 0 68q-14 16 -34 16q-21 0 -35 -16t-14 -34q0 -20 14 -34q15 -14 35 -15zM1038 631q0 31 -34 31h-41v-95h16v31h25l20 -31h18l-24 35q20 8 20 29zM1075 662v-95h17v25l16 16l31 -41h20l-41 54l37 41h-20l-41 -50h-2v50h-17zM733 1038q0 72 -55 72q-25 0 -41 -19
t-16 -45t28 -79q-47 -37 -47 -83q0 -91 60 -89q39 0 59 49h2l25 -49l24 12l-35 65q13 29 27 80l-27 6q-8 -37 -16 -61h-2l-33 64q47 43 47 77zM989 799q63 0 64 73v281h-33v-281q0 -45 -33 -45q-16 0 -41 11v-31q20 -8 43 -8zM381 1153v-352h31v162h96v-162h31v352h-31v-162
h-96v162h-31zM823 1153v-352h31v160h78v28h-78v135h88v29h-119zM1323 -410h-426l-16 29h-334l-17 -29h-424v621q29 0 48 19q18 19 18 46q0 26 -19 46t-47 20v1135h205l62 161h684l59 -161h207v-1887z" />
    <glyph glyph-name="A.sc" horiz-adv-x="1181" 
d="M588 961l-201 -529h401zM340 1022h502v-68h-176l342 -886h151v-68h-418v68h187l-115 297h-451l-112 -297h188v-68h-418v68h154l340 886h-174v68z" />
    <glyph glyph-name="B.sc" horiz-adv-x="1052" 
d="M584 0h-506v68h194v886h-194v68h495q170 0 254 -73t84 -175t-57 -166t-158 -84q244 -43 244 -260q0 -116 -94 -190t-262 -74zM348 555h221q131 0 198 56q67 57 67 147t-68 143t-195 53h-223v-399zM348 68h240q129 0 202 57q72 57 72 157t-77 154q-77 53 -218 53h-219
v-421z" />
    <glyph glyph-name="C.sc" horiz-adv-x="1120" 
d="M928 698q-31 0 -48 18q-18 18 -18 55q0 38 45 54q-18 55 -98 101t-188 45q-189 0 -315 -132t-126 -329t124 -327q124 -129 317 -129t340 143l43 -54q-156 -159 -384 -159t-374 150t-146 375q0 224 148 378t373 153q153 0 265 -78t111 -174q0 -42 -19 -66t-50 -24z" />
    <glyph glyph-name="D.sc" horiz-adv-x="1212" 
d="M524 0h-446v68h194v886h-194v68h446q268 0 428 -135t160 -368t-157 -376t-431 -143zM348 68h184q240 0 371 124t131 327q0 204 -139 320t-371 115h-176v-886z" />
    <glyph glyph-name="E.sc" horiz-adv-x="1011" 
d="M889 0h-811v68h194v886h-194v68h811v-268h-72v200h-469v-401h373v-70h-373v-415h469v198h72v-266z" />
    <glyph glyph-name="F.sc" horiz-adv-x="968" 
d="M553 0h-475v68h194v886h-194v68h807v-268h-72v200h-465v-413h361v-68h-361v-405h205v-68z" />
    <glyph glyph-name="G.sc" horiz-adv-x="1187" 
d="M627 971q-195 0 -321 -134t-126 -331t125 -324t315 -127t338 121v244h-305v65h381v-485h-73v106q-147 -120 -355 -120t-357 144t-149 374t155 384q155 153 374 152q167 0 279 -76t112 -161q0 -39 -20 -64t-51 -25q-30 0 -47 18q-17 17 -17 52t43 54q-28 51 -110 92
t-191 41z" />
    <glyph glyph-name="H.sc" horiz-adv-x="1341" 
d="M78 0v68h192v886h-192v68h467v-68h-197v-403h643v403h-196v68h467v-68h-193v-886h193v-68h-467v68h196v413h-643v-413h197v-68h-467z" />
    <glyph glyph-name="I.sc" horiz-adv-x="630" 
d="M553 0h-475v68h198v886h-198v68h475v-68h-199v-886h199v-68z" />
    <glyph glyph-name="J.sc" horiz-adv-x="886" 
d="M358 55q94 0 156 64q74 80 74 248v587h-201v68h455v-68h-178v-589q0 -203 -90 -292t-216 -89q-127 0 -212 74t-85 180q1 46 21 72t50 26t48 -18t19 -46q0 -55 -56 -67q5 -55 63 -103t152 -47z" />
    <glyph glyph-name="K.sc" horiz-adv-x="1148" 
d="M1128 68v-68h-231l-365 518l-182 -182v-268h195v-68h-467v68h196v886h-196v68h459v-68h-187v-526l524 526h-186v68h422v-68h-145l-379 -383l356 -503h186z" />
    <glyph glyph-name="L.sc" horiz-adv-x="946" 
d="M799 68v206h73v-274h-794v68h194v886h-194v68h473v-68h-203v-886h451z" />
    <glyph glyph-name="M.sc" horiz-adv-x="1476" 
d="M1374 1022v-68h-186l41 -886h180v-68h-451v68h193l-31 825l-366 -750h-31l-369 750l-30 -825h194v-68h-450v68h184l37 886h-187v68h267l370 -758l369 758h266z" />
    <glyph glyph-name="N.sc" horiz-adv-x="1318" 
d="M997 954h-198v68h465v-68h-195v-960h-45l-680 901v-827h199v-68h-465v68h194v886h-194v68h262l657 -868v800z" />
    <glyph glyph-name="O.sc" horiz-adv-x="1239" 
d="M620 53q192 0 315 130q124 130 124 329t-124 329q-123 130 -315 130t-316 -130t-124 -329t124 -329t316 -130zM618 1040q227 0 373 -151q145 -152 145 -377t-144 -377q-146 -151 -374 -151t-372 152q-145 152 -146 376q0 224 146 376t372 152z" />
    <glyph glyph-name="P.sc" horiz-adv-x="974" 
d="M528 453q137 -1 214 69t77 184t-82 182t-213 66h-176v-497q98 -4 180 -4zM78 1022h446q164 0 268 -86t105 -232q0 -146 -99 -231q-99 -86 -276 -86q-127 0 -174 2v-321h199v-68h-469v68h194v886h-194v68z" />
    <glyph glyph-name="Q.sc" horiz-adv-x="1239" 
d="M625 53q183 0 309 132q125 132 125 329t-124 327q-123 130 -315 130t-316 -130t-124 -337t144 -338q118 -113 301 -113zM1060 -213q-76 0 -130 22q-53 21 -125 69q-73 48 -109 68t-145 42q-172 29 -283 127q-168 145 -168 383t146 391q146 151 372 151q227 0 373 -151
q145 -152 145 -364t-117 -353q-118 -141 -306 -168q59 -17 115 -53q57 -37 67 -42t34 -19t52 -21q28 -8 76 -8t110 39l35 -66q-66 -47 -142 -47z" />
    <glyph glyph-name="Q.sc_alt" horiz-adv-x="1239" 
d="M1059 512q0 199 -124 329q-123 130 -315 130t-316 -130t-124 -329t124 -329t314 -130q82 0 154 25l-127 203l60 41l133 -216q102 57 161 165q60 108 60 241zM1137 512q0 -152 -70 -276t-193 -189l113 -180l-59 -37l-117 186q-94 -33 -193 -32q-227 0 -372 152t-146 376
q0 225 146 377q146 151 372 151q227 0 373 -152t146 -376z" />
    <glyph glyph-name="R.sc" horiz-adv-x="1067" 
d="M348 68h199v-68h-469v68h194v886h-194v68h452q170 0 268 -78t99 -198q0 -120 -66 -194q-66 -75 -176 -101l238 -383h164v-68h-217l-262 432q-27 -2 -106 -2t-124 2v-364zM526 954h-178v-452q102 -4 168 -4q139 0 223 62t84 168t-81 166t-216 60z" />
    <glyph glyph-name="S.sc" horiz-adv-x="907" 
d="M719 770q-66 0 -66 67q0 33 29 56q-16 33 -78 57t-156 25q-92 0 -162 -54t-71 -145q0 -91 119 -154q49 -26 137 -60t132 -53t98 -55q104 -69 104 -194t-100 -201q-100 -75 -253 -75t-251 61t-99 135q0 39 18 61q18 21 48 21q29 0 46 -16t17 -49t-30 -58q27 -35 93 -61
t174 -27q110 1 184 57t75 148q0 92 -85 144q-63 40 -162 77t-140 55t-97 54q-106 69 -106 188t92 193q91 73 231 73t231 -56t91 -136q0 -34 -18 -56t-45 -22z" />
    <glyph glyph-name="T.sc" horiz-adv-x="1044" 
d="M285 0v68h198v886h-323v-200h-74v268h875v-268h-76v200h-324v-886h199v-68h-475z" />
    <glyph glyph-name="U.sc" horiz-adv-x="1236" 
d="M313 954v-585q0 -152 81 -234t224 -82t225 82q81 82 81 232v587h-195v68h457v-68h-185v-585q0 -185 -101 -285q-102 -100 -284 -100t-281 98t-99 285v587h-185v68h457v-68h-195z" />
    <glyph glyph-name="V.sc" horiz-adv-x="1144" 
d="M14 954v68h420v-68h-188l329 -848l328 848h-188v68h415v-68h-149l-385 -972h-47l-385 972h-150z" />
    <glyph glyph-name="W.sc" horiz-adv-x="1601" 
d="M14 954v68h437v-68h-189l250 -831l274 758h35l277 -758l250 831h-191v68h430v-68h-164l-299 -979h-47l-276 766l-277 -766h-45l-299 979h-166z" />
    <glyph glyph-name="X.sc" horiz-adv-x="1134" 
d="M1096 68v-68h-402v68h160l-293 409l-297 -409h174v-68h-407v68h149l336 452l-315 434h-148v68h410v-68h-172l272 -385l277 385h-170v68h403v-68h-151l-314 -430l334 -456h154z" />
    <glyph glyph-name="Y.sc" 
d="M1075 1022v-68h-157l-338 -567v-319h198v-68h-471v68h197v319l-336 567h-160v68h426v-68h-180l291 -501l293 501h-185v68h422z" />
    <glyph glyph-name="Z.sc" horiz-adv-x="966" 
d="M90 0v41l680 915h-582v-196h-73v262h766v-41l-680 -913h610v194h76v-262h-797z" />
    <glyph glyph-name="Aacute.sc" horiz-adv-x="1181" 
d="M822 1430q24 0 40 -18t17 -42q0 -35 -60 -63l-295 -142l-18 31l254 203q38 31 62 31zM588 961l-201 -529h401zM340 1022h502v-68h-176l342 -886h151v-68h-418v68h187l-115 297h-451l-112 -297h188v-68h-418v68h154l340 886h-174v68z" />
    <glyph glyph-name="Abreve.sc" horiz-adv-x="1181" 
d="M597 1165q-95 -1 -171 61t-111 158l60 29q67 -160 223 -160t223 160l58 -29q-35 -96 -111 -158t-171 -61zM588 961l-201 -529h401zM340 1022h502v-68h-176l342 -886h151v-68h-418v68h187l-115 297h-451l-112 -297h188v-68h-418v68h154l340 886h-174v68z" />
    <glyph glyph-name="Acircumflex.sc" horiz-adv-x="1181" 
d="M354 1153l-35 39l279 260l276 -260l-34 -39l-242 182zM588 961l-201 -529h401zM340 1022h502v-68h-176l342 -886h151v-68h-418v68h187l-115 297h-451l-112 -297h188v-68h-418v68h154l340 886h-174v68z" />
    <glyph glyph-name="Adieresis.sc" horiz-adv-x="1181" 
d="M736 1198q-32 0 -54 24t-20 56q0 32 22 56q22 22 54 22t54 -23t22 -55t-24 -56q-22 -24 -54 -24zM457 1356q33 0 55 -23t23 -55q-1 -32 -23 -56t-54 -24t-55 24t-23 56t22 56q22 22 55 22zM588 961l-201 -529h401zM340 1022h502v-68h-176l342 -886h151v-68h-418v68h187
l-115 297h-451l-112 -297h188v-68h-418v68h154l340 886h-174v68z" />
    <glyph glyph-name="AE.sc" horiz-adv-x="1404" 
d="M666 440v514h-13l-276 -514h289zM471 0v68h195v303h-328l-162 -303h168v-68h-385v68h135l484 886h-166v68h870v-268h-72v200h-469v-401h371v-70h-371v-415h469v198h72v-266h-811z" />
    <glyph glyph-name="AEacute.sc" horiz-adv-x="1404" 
d="M1004 1430q24 0 40 -18t17 -42q0 -35 -60 -63l-294 -142l-19 31l254 203q37 31 62 31zM666 440v514h-13l-276 -514h289zM471 0v68h195v303h-328l-162 -303h168v-68h-385v68h135l484 886h-166v68h870v-268h-72v200h-469v-401h371v-70h-371v-415h469v198h72v-266h-811z" />
    <glyph glyph-name="Agrave.sc" horiz-adv-x="1181" 
d="M668 1165l-295 142q-59 29 -60 63q1 25 17 42q40 41 102 -13l254 -203zM588 961l-201 -529h401zM340 1022h502v-68h-176l342 -886h151v-68h-418v68h187l-115 297h-451l-112 -297h188v-68h-418v68h154l340 886h-174v68z" />
    <glyph glyph-name="Amacron.sc" horiz-adv-x="1181" 
d="M309 1229v76h576v-76h-576zM588 961l-201 -529h401zM340 1022h502v-68h-176l342 -886h151v-68h-418v68h187l-115 297h-451l-112 -297h188v-68h-418v68h154l340 886h-174v68z" />
    <glyph glyph-name="Aogonek.sc" horiz-adv-x="1181" 
d="M588 961l-201 -529h401zM842 -220q0 -126 136 -126q68 0 146 43l-4 -59q-63 -50 -156 -50t-145 47q-51 47 -51 127q0 141 156 238h-183v68h187l-115 297h-451l-112 -297h188v-68h-418v68h154l340 886h-174v68h502v-68h-176l342 -886h151v-68h-131q-88 -39 -137 -99
q-49 -61 -49 -121z" />
    <glyph glyph-name="Aring.sc" horiz-adv-x="1181" 
d="M588 1024q51 0 85 36t34 89t-34 89t-85 36t-84 -36t-33 -89t33 -89t84 -36zM588 961l-201 -529h401zM340 1022h127q-61 49 -61 127t53 133t129 55t129 -55t53 -135t-61 -125h133v-68h-176l342 -886h151v-68h-418v68h187l-115 297h-451l-112 -297h188v-68h-418v68h154
l340 886h-174v68z" />
    <glyph glyph-name="Aringacute.sc" horiz-adv-x="1181" 
d="M807 1704q25 0 41 -17t16 -47t-59 -59l-295 -141l-18 30l253 203q37 31 62 31zM588 1024q51 0 85 36t34 89t-34 89t-85 36t-84 -36t-33 -89t33 -89t84 -36zM588 961l-201 -529h401zM340 1022h127q-61 49 -61 127t53 133t129 55t129 -55t53 -135t-61 -125h133v-68h-176
l342 -886h151v-68h-418v68h187l-115 297h-451l-112 -297h188v-68h-418v68h154l340 886h-174v68z" />
    </font>
</defs>
</svg>
