<?xml version="1.0" standalone="no"?>
<!DOCTYPE svg PUBLIC "-//W3C//DTD SVG 1.1//EN" "http://www.w3.org/Graphics/SVG/1.1/DTD/svg11.dtd" >
<svg xmlns="http://www.w3.org/2000/svg">
<metadata>
Created by FontPrep 20130207 at Sun Apr  5 22:22:48 2015
 By Tina Kumar
Copyright (C) 2000, 2007 Hoefler &#38; Frere-Jones. http://www.typography.com
</metadata>
<defs>
<font id="e31e715540c4be4cbf197f60bb5ebf1b" horiz-adv-x='1024' >
  <font-face 
    font-family="Archer-LightItalic"
    font-weight="300"
    font-style="italic"
    font-stretch="normal"
    units-per-em="2048"
    panose-1="0 0 0 0 0 0 0 0 0 0"
    ascent="1638"
    descent="-410"
    x-height="852"
    cap-height="1348"
    bbox="-221.03 -500 2109 2073"
    underline-thickness="102"
    underline-position="-102"
    slope="-12"
    unicode-range="U+0020-FB04"
  />
<missing-glyph horiz-adv-x="1030" 
d="M516 492l-366 -799h733zM926 1384l-353 -770l353 -770v1540zM106 -156l353 770l-353 770v-1540zM150 1536l366 -799l367 799h-733zM4 -410v2048h1024v-2048h-1024z" />
    <glyph glyph-name="f_f" unicode="ff" horiz-adv-x="1107" 
d="M1274 1354q-72 0 -74 82v4q-74 -4 -123 -56q-70 -66 -102 -219l-72 -313h227l-16 -68h-227l-180 -784h-78l180 784h-434l-180 -784h-76l180 784h-158l15 68h159l66 283q39 172 119 251t184 78q53 0 86 -26t33 -58q-1 -33 -19 -51t-45 -18q-72 0 -71 82v2q-64 -3 -120 -59
t-95 -214l-64 -270h436l76 328q43 172 125 252q72 76 186 75q57 0 92 -24q34 -25 34 -58t-20 -52q-19 -19 -44 -19z" />
    <glyph glyph-name="fi" unicode="fi" horiz-adv-x="1054" 
d="M733 1507q86 0 136 -37q51 -37 51 -78t-18 -61t-50 -20q-31 0 -49 20q-32 36 -12 90q-33 16 -66 17q-196 0 -268 -301l-66 -285h516l-178 -627q-18 -63 -18 -101q0 -75 71 -77q70 0 125 139l49 -14q-36 -96 -78 -140t-104 -44t-101 36q-38 36 -38 86t20 126l156 548h-436
l-180 -784h-76l182 784h-160l15 68h159l70 297q29 117 68 188q94 170 280 170z" />
    <glyph glyph-name="fl" unicode="fl" horiz-adv-x="1048" 
d="M846 1262q0 48 37 69q-43 107 -158 107t-184 -82q-46 -53 -64 -139l-86 -365h422l76 322l6 30q-49 10 -49 58zM723 1507q158 0 215 -135l57 125h43l-295 -1270q-18 -81 -18 -111t19 -49t53 -20q70 0 125 139l49 -14q-35 -96 -78 -140t-105 -44t-100 35q-39 35 -39 82
t19 126l129 553h-420l-182 -784h-76l182 784h-160l15 68h159l88 375q18 86 70 157q92 123 250 123z" />
    <glyph glyph-name="f_f_i" unicode="ffi" horiz-adv-x="1566" 
d="M1364 1311q-68 0 -70 75q0 18 9 35q-37 16 -68 17q-127 0 -203 -127q-43 -78 -63 -174l-66 -285h516l-178 -627q-20 -71 -20 -105t19 -53t52 -20q72 0 127 139l47 -14q-61 -184 -182 -184q-61 0 -100 36t-39 88t22 124l156 548h-436l-180 -784h-78l182 784h-434
l-182 -784h-76l182 784h-160l15 68h159l76 322q29 123 98 192q86 96 226 96q63 0 112 -24t50 -76q-1 -29 -19 -47q-18 -19 -48 -19t-50 23t-21 61v11l-30 2q-99 1 -161 -65t-83 -165l-74 -311h436l70 297q29 119 72 197q94 162 274 161q86 0 137 -38q52 -38 52 -78t-18 -60
t-50 -20z" />
    <glyph glyph-name="f_f_l" unicode="ffl" horiz-adv-x="1558" 
d="M1356 1264q0 46 37 67q-43 107 -158 107t-182 -80q-48 -55 -66 -141l-84 -365h422l76 322q4 20 4 30q-49 14 -49 60zM713 1462q63 0 115 -26t53 -78q-1 -29 -19 -47q-18 -19 -48 -19t-49 23t-20 61v13q-20 4 -38 4q-104 0 -175 -82q-47 -53 -65 -135l-76 -324h434l88 375
q23 98 76 164q94 117 247 117t214 -134l55 123h45l-295 -1270q-18 -81 -18 -111t19 -49q20 -19 54 -19q67 -1 124 138l47 -14q-61 -184 -183 -184q-61 0 -100 35t-39 96q0 16 19 112l131 553h-422l-180 -784h-78l182 784h-434l-182 -784h-76l180 784h-158l15 68h159l78 334
q23 92 70 153q92 123 250 123z" />
    <glyph glyph-name="f_b" unicode="fb" horiz-adv-x="1589" 
d="M846 1263q0 48 37 68q-43 107 -158 107t-184 -82q-45 -53 -64 -139l-86 -365h422l76 322l6 30q-49 11 -49 59zM1044 53q160 0 265 136q104 136 104 294t-67 237q-68 79 -187 79q-159 0 -271 -150t-112 -315q0 -125 72 -203t196 -78zM723 1507q158 0 215 -135l57 125h47
l-194 -825q131 195 323 194q143 0 233 -97t91 -261q0 -213 -130 -368t-318 -154q-119 0 -200 66t-102 173l-51 -225h-78l183 784h-422l-182 -784h-76l182 784h-160l15 68h159l88 375q18 86 70 157q92 123 250 123z" />
    <glyph glyph-name="f_h" unicode="fh" horiz-adv-x="1583" 
d="M846 1263q0 48 37 68q-43 107 -158 107t-184 -82q-45 -53 -64 -139l-86 -365h422l76 322l6 30q-49 11 -49 59zM723 1507q158 0 215 -135l57 125h47l-202 -864q133 231 323 231q104 0 170 -58t66 -140t-27 -172l-74 -269q-20 -63 -20 -101q0 -75 72 -77q70 0 125 139
l47 -14q-33 -96 -76 -140q-44 -44 -106 -44t-101 36t-39 81t23 131l73 270q25 84 25 148t-45 105q-45 40 -121 40q-117 0 -223 -115t-150 -299l-88 -385h-78l183 784h-422l-182 -784h-76l182 784h-160l15 68h159l88 375q18 86 70 157q92 123 250 123z" />
    <glyph glyph-name="f_j" unicode="fj" horiz-adv-x="976" 
d="M385 -410q-47 0 -79 23t-32 55t18 48q18 18 47 18q28 0 47 -22t20 -50v-4q57 6 110 55q72 84 109 258l186 813h-436l-180 -784h-76l182 784h-160l15 68h159l70 297q29 117 68 188q94 170 280 170q86 0 136 -37q51 -37 51 -78t-18 -61t-50 -20q-31 0 -49 20q-32 36 -12 90
q-33 16 -66 17q-196 0 -268 -301l-66 -285h512l-205 -895q-43 -193 -124 -280t-189 -87z" />
    <glyph glyph-name="f_k" unicode="fk" horiz-adv-x="1456" 
d="M846 1263q0 48 37 68q-43 107 -158 107t-184 -82q-45 -53 -64 -139l-86 -365h422l76 322l6 30q-49 11 -49 59zM723 1507q158 0 215 -135l57 125h47l-256 -1089q197 88 332 176t160 141q-43 19 -43 59q-1 40 21 62t52 20q30 0 50 -22t20 -60q0 -143 -381 -340l103 -247
q39 -92 61 -121q25 -27 60 -27q68 0 106 164l51 -16q-47 -209 -166 -209q-63 0 -106 45q-35 41 -74 131l-102 250q-90 -45 -158 -76l-78 -338h-78l183 784h-422l-182 -784h-76l182 784h-160l15 68h159l88 375q18 86 70 157q92 123 250 123z" />
    <glyph glyph-name="f_f_b" unicode="ffb" horiz-adv-x="2101" 
d="M1356 1265q0 46 37 66q-43 107 -158 107t-182 -80q-47 -55 -66 -141l-84 -365h422l76 322q4 20 4 30q-49 15 -49 61zM1554 53q162 0 267 136q104 136 104 294t-67 237q-68 79 -187 79q-157 0 -271 -150t-114 -315q0 -125 72 -203t196 -78zM713 1462q63 0 115 -26t53 -78
q-1 -29 -19 -47q-18 -19 -48 -19t-49 23t-20 61v13q-20 4 -38 4q-104 0 -175 -82q-47 -53 -65 -135l-76 -324h434l88 375q23 98 76 164q94 117 247 117t214 -134l55 123h47l-192 -825q131 195 321 194q143 0 235 -97t91 -261q0 -213 -131 -368t-317 -154q-117 0 -199 63
t-105 172l-51 -221h-76l183 784h-424l-180 -784h-78l182 784h-434l-182 -784h-76l180 784h-158l15 68h159l78 334q23 92 70 153q92 123 250 123z" />
    <glyph glyph-name="f_f_h" unicode="ffh" horiz-adv-x="2095" 
d="M1356 1265q0 46 37 66q-43 107 -158 107t-182 -80q-47 -55 -66 -141l-84 -365h422l76 322q4 20 4 30q-49 15 -49 61zM713 1462q63 0 115 -26t53 -78q-1 -29 -19 -47q-18 -19 -48 -19t-49 23t-20 61v13q-20 4 -38 4q-104 0 -175 -82q-47 -53 -65 -135l-76 -324h434l88 375
q23 98 76 164q94 117 247 117t214 -134l55 123h47l-202 -864q133 231 325 231q102 0 168 -58t67 -140t-26 -172l-76 -269q-20 -75 -20 -107t20 -51t54 -19t64 31q28 32 59 107l49 -14q-35 -96 -77 -140q-43 -44 -105 -44t-101 36t-39 85t21 127l75 270q25 84 24 148t-46 105
q-45 40 -121 40q-115 0 -223 -115t-150 -299l-88 -385h-76l183 784h-424l-180 -784h-78l182 784h-434l-182 -784h-76l180 784h-158l15 68h159l78 334q23 92 70 153q92 123 250 123z" />
    <glyph glyph-name="f_f_j" unicode="ffj" horiz-adv-x="1488" 
d="M1364 1311q-68 0 -70 75q0 18 9 35q-37 16 -68 17q-127 0 -203 -127q-43 -78 -63 -174l-66 -285h510l-205 -895q-84 -367 -311 -367q-47 0 -79 23t-32 55t18 48q18 18 47 18q28 0 47 -22t20 -50v-4q59 6 108 55q68 78 111 258l186 813h-436l-180 -784h-78l182 784h-434
l-182 -784h-76l182 784h-160l15 68h159l76 322q29 123 98 192q86 96 226 96q63 0 112 -24t50 -76q-1 -29 -19 -47q-18 -19 -48 -19t-50 23t-21 61v11l-30 2q-99 1 -161 -65t-83 -165l-74 -311h436l70 297q29 119 72 197q94 162 274 161q86 0 137 -38q52 -38 52 -78t-18 -60
t-50 -20z" />
    <glyph glyph-name="f_f_k" unicode="ffk" horiz-adv-x="1966" 
d="M1356 1265q0 46 37 66q-43 107 -158 107t-182 -80q-47 -55 -66 -141l-84 -365h422l76 322q4 20 4 30q-49 15 -49 61zM713 1462q63 0 115 -26t53 -78q-1 -29 -19 -47q-18 -19 -48 -19t-49 23t-20 61v13q-20 4 -38 4q-104 0 -175 -82q-47 -53 -65 -135l-76 -324h434l88 375
q23 98 76 164q94 117 247 117t214 -134l55 123h47l-254 -1089q195 88 330 176t162 141q-43 21 -43 61t20 60q19 20 51 20t52 -22t20 -60q0 -139 -381 -340l103 -247q36 -92 60 -120t59 -28q66 0 108 164l51 -16q-47 -209 -166 -209q-68 0 -106 43t-74 133l-102 250l-158 -74
l-80 -340h-76l183 784h-424l-180 -784h-78l182 784h-434l-182 -784h-76l180 784h-158l15 68h159l78 334q23 92 70 153q92 123 250 123z" />
    <glyph glyph-name=".notdef" horiz-adv-x="1030" 
d="M516 492l-366 -799h733zM926 1384l-353 -770l353 -770v1540zM106 -156l353 770l-353 770v-1540zM150 1536l366 -799l367 799h-733zM4 -410v2048h1024v-2048h-1024z" />
    <glyph glyph-name=".null" 
 />
    <glyph glyph-name="nonmarkingreturn" horiz-adv-x="681" 
 />
    <glyph glyph-name="space" unicode=" " horiz-adv-x="411" 
 />
    <glyph glyph-name="exclam" unicode="!" horiz-adv-x="454" 
d="M166 -16q-32 0 -56 24t-24 58q0 36 24 60t56 24t56 -25t24 -59t-24 -58t-56 -24zM201 324l192 1024h103l-252 -1024h-43z" />
    <glyph glyph-name="quotedbl" unicode="&#x22;" horiz-adv-x="530" 
d="M297 1368q27 0 43 -15t16 -39t-12 -50l-139 -310h-29l57 334q12 80 64 80zM543 1368q27 0 44 -15t17 -39t-12 -50l-139 -310h-31l57 334q12 80 64 80z" />
    <glyph glyph-name="numbersign" unicode="#" horiz-adv-x="1050" 
d="M428 684l-92 -334h303l92 334h-303zM141 684l17 68h221l76 270h67l-73 -270h301l75 270h68l-74 -270h197l-17 -68h-198l-92 -334h217l-17 -67h-219l-78 -283h-69l78 283h-304l-75 -283h-70l78 283h-197l17 67h198l92 334h-219z" />
    <glyph glyph-name="dollar" unicode="$" horiz-adv-x="899" 
d="M287 772q0 -106 172 -197l114 381l-41 2q-100 0 -172 -51t-73 -135zM428 61q108 -1 186 55t78 133t-49 125t-147 101l-123 -412q18 -2 55 -2zM53 223q1 35 21 61t50 26t47 -20q17 -19 17 -54t-41 -60q37 -68 166 -100l127 426q-113 57 -172 116t-59 159q0 99 95 173
t235 74q16 0 53 -4l43 149l61 -16l-43 -143q95 -25 155 -78q60 -52 60 -100t-19 -72t-48 -23t-47 19t-18 51t34 61q-35 53 -137 78l-119 -397q122 -63 188 -125t66 -156q0 -124 -99 -198t-243 -74q-27 0 -72 4l-61 -213l-62 16l62 209q-104 27 -172 88t-68 123z" />
    <glyph glyph-name="percent" unicode="%" horiz-adv-x="1214" 
d="M904 465q96 0 148 -56t52 -154q0 -99 -75 -183t-171 -84t-148 56t-52 152t74 183q75 86 172 86zM350 559q-96 0 -148 56t-52 153q0 96 74 182t171 86t149 -56t52 -154t-75 -182q-75 -85 -171 -85zM528 826q0 156 -134 155q-65 0 -121 -69t-56 -144q0 -74 35 -114
q34 -40 100 -40t121 68t55 144zM121 -31l-43 45q365 365 513 506t521 514l43 -45q-350 -350 -508 -501q-157 -150 -526 -519zM725 198q-1 -154 135 -155q66 0 121 68t55 144q0 75 -35 115t-101 40t-120 -68q-55 -68 -55 -144z" />
    <glyph glyph-name="ampersand" unicode="&#x26;" horiz-adv-x="1191" 
d="M628 1196q-88 0 -152 -76t-64 -190t59 -215q172 71 256 141t84 176q0 72 -48 118t-135 46zM113 270q-1 -94 63 -158t176 -63t198 61q85 60 173 171l-174 215q-66 74 -109 139q-160 -74 -244 -154t-83 -211zM31 284q0 138 99 233t278 171q-72 129 -72 258t89 223
q89 95 205 95t188 -65q71 -65 71 -150t-29 -142q-30 -57 -94 -104t-115 -74t-147 -70q45 -66 98 -127l164 -198q94 133 160 191q66 59 128 59t88 -23t26 -53t-19 -47q-18 -18 -45 -19q-57 0 -72 64q-47 -8 -88 -53t-135 -172l213 -256l-51 -43l-205 247q-92 -113 -192 -181
t-236 -66q-135 0 -221 82t-86 220z" />
    <glyph glyph-name="quotesingle" unicode="'" horiz-adv-x="284" 
d="M297 1368q27 0 43 -15t16 -39t-12 -50l-139 -310h-29l57 334q12 80 64 80z" />
    <glyph glyph-name="parenleft" unicode="(" horiz-adv-x="657" 
d="M152 373q0 367 198 679q199 312 522 484l37 -57q-309 -168 -492 -466t-184 -640q0 -461 353 -770l-43 -54q-391 328 -391 824z" />
    <glyph glyph-name="parenright" unicode=")" horiz-adv-x="657" 
d="M489 715q0 465 -350 770l43 53q391 -328 391 -823q-1 -367 -199 -679t-524 -485l-36 58q309 170 492 468t183 638z" />
    <glyph glyph-name="asterisk" unicode="*" horiz-adv-x="745" 
d="M631 864q-41 0 -58 56l-55 194l-121 -162q-27 -34 -51 -34q-51 1 -51 51q0 25 37 51l166 115l-189 65q-55 18 -55 57q0 21 14 33q35 32 84 -8l160 -123l6 201q0 72 49 72q29 0 41 -26t0 -63l-69 -188l194 55q16 8 37 9q47 1 47 -51t-74 -48l-198 6l112 -165q39 -53 7 -83
q-15 -14 -33 -14z" />
    <glyph glyph-name="plus" unicode="+" horiz-adv-x="802" 
d="M537 850l-66 -275h279l-17 -71h-278l-70 -305h-74l70 305h-275l17 71h274l66 275h74z" />
    <glyph glyph-name="comma" unicode="," horiz-adv-x="339" 
d="M37 78q1 30 23 54q22 22 57 22t59 -28t25 -71q0 -86 -74 -172t-201 -133l-16 35q86 43 137 100t62 111q-31 4 -52 28q-20 24 -20 54z" />
    <glyph glyph-name="hyphen" unicode="-" horiz-adv-x="479" 
d="M78 520l18 78h334l-14 -78h-338z" />
    <glyph glyph-name="period" unicode="." horiz-adv-x="339" 
d="M119 -16q-35 0 -59 24t-24 61t24 61t59 24t59 -25t25 -61q-1 -36 -25 -60t-59 -24z" />
    <glyph glyph-name="slash" unicode="/" horiz-adv-x="731" 
d="M-127 -418l-68 37l1045 1888l65 -34z" />
    <glyph glyph-name="zero" unicode="0" horiz-adv-x="1097" 
d="M508 53q188 0 312 162t124 373q0 168 -89 272t-226 105q-189 0 -313 -162t-123 -373q0 -168 89 -272t226 -105zM508 -16q-178 0 -288 125t-109 321q0 240 147 422t371 182q177 0 287 -125t110 -321q0 -240 -148 -422t-370 -182z" />
    <glyph glyph-name="one" unicode="1" horiz-adv-x="731" 
d="M2 0l16 68h246l201 870l-246 -64v74l318 84l24 -14l-219 -950h242l-17 -68h-565z" />
    <glyph glyph-name="two" unicode="2" horiz-adv-x="940" 
d="M795 777q0 83 -68 136t-186 54q-197 0 -262 -129q45 -14 45 -64q0 -29 -18 -48t-49 -19q-30 -1 -50 21t-21 56q0 96 104 174t253 78q151 0 241 -72t90 -182t-84 -188t-270 -173t-282 -169t-146 -184h580l45 198h71l-61 -266h-717l-10 45q57 153 201 261q76 56 135 92
q60 36 190 104t200 130t69 145z" />
    <glyph glyph-name="three" unicode="3" horiz-adv-x="956" 
d="M382 -256q-166 0 -281 73q-116 73 -115 179q0 42 22 66t52 24t46 -17t16 -41t-16 -43t-43 -24q15 -57 101 -102t220 -45t228 83t94 205t-98 201q-98 78 -250 78h-39l19 70h39q199 -1 315 81t117 207q0 98 -73 163t-199 65q-184 0 -252 -109q49 -14 49 -63q0 -27 -18 -44
t-47 -17q-28 0 -48 22q-20 23 -20 55q0 90 104 158q104 67 249 67t240 -83t95 -215q-1 -132 -103 -217t-266 -109q125 -33 195 -114t69 -192q0 -152 -118 -257t-284 -105z" />
    <glyph glyph-name="four" unicode="4" horiz-adv-x="1019" 
d="M766 598l-92 -389h244l-17 -68h-242l-90 -387h-75l88 387h-580l-4 27l813 866l51 -45l-733 -780h469l82 358z" />
    <glyph glyph-name="five" unicode="5" horiz-adv-x="944" 
d="M328 -254q-135 0 -235 65q-99 65 -99 146q0 33 19 57t49 23q30 1 48 -17t19 -54q0 -36 -39 -52q22 -41 88 -70t154 -28q154 0 266 108t111 248q0 141 -79 209t-208 68t-252 -56l-31 21l201 608h571l-14 -74h-510l-154 -463q94 35 199 35q160 0 259 -90t100 -237
q1 -183 -137 -315t-326 -132z" />
    <glyph glyph-name="six" unicode="6" horiz-adv-x="1048" 
d="M582 717q-164 0 -272 -113t-109 -245q0 -132 82 -219q81 -87 225 -87t249 117t105 255t-76 215t-204 77zM756 1229q-158 0 -297 -135q-94 -94 -163 -246t-93 -303q49 100 149 171q100 70 249 70t245 -98t96 -264t-131 -303t-303 -137t-281 104q-109 110 -109 308t80 406
t226 350t342 142q117 0 195 -58t77 -132q0 -37 -19 -60q-19 -22 -49 -22q-65 1 -67 61q0 39 39 64q-14 33 -64 57t-122 25z" />
    <glyph glyph-name="seven" unicode="7" horiz-adv-x="921" 
d="M121 -250l-62 37l787 1169h-590l-53 -217h-74l68 283h735l18 -35z" />
    <glyph glyph-name="eight" unicode="8" horiz-adv-x="970" 
d="M480 629q-136 0 -232 -93q-96 -94 -96 -216t82 -194t216 -73q134 0 232 90t98 213t-82 198t-218 75zM322 946q0 -112 70 -183t186 -71q118 0 214 83q95 83 95 197t-72 185q-73 70 -195 70t-210 -85q-88 -84 -88 -196zM447 -14q-165 0 -269 91t-104 230t95 241t241 128
q-80 42 -123 112t-43 154q0 141 112 247q112 105 266 105t248 -88t94 -217t-84 -220q-85 -91 -223 -122q94 -37 150 -112q55 -76 55 -177q0 -154 -125 -263t-290 -109z" />
    <glyph glyph-name="nine" unicode="9" horiz-adv-x="1048" 
d="M500 303q164 0 272 113t109 249q0 136 -83 219q-82 83 -224 83t-247 -116t-105 -254t74 -216q75 -78 204 -78zM324 -256q-117 0 -196 58t-79 130q1 37 19 62q18 24 49 24t49 -17t18 -52t-39 -55q15 -35 65 -60t122 -24q160 0 295 131q96 90 164 238t90 294
q-49 -98 -151 -168q-102 -69 -248 -69q-148 0 -245 97t-97 263t131 303t303 137t282 -108t109 -304q0 -196 -76 -396t-201 -324q-159 -160 -364 -160z" />
    <glyph glyph-name="colon" unicode=":" horiz-adv-x="378" 
d="M139 -16q-35 0 -59 24t-23 61q0 37 24 61q25 24 59 24t58 -25t24 -61t-24 -60t-59 -24zM269 553q-35 0 -59 25q-24 26 -24 60t25 60t59 25q34 0 59 -25q23 -24 23 -60t-24 -60t-59 -25z" />
    <glyph glyph-name="semicolon" unicode=";" horiz-adv-x="378" 
d="M138 154q34 0 60 -28t25 -71q-1 -86 -75 -172t-201 -133l-15 35q84 43 136 100q51 57 61 111q-31 4 -51 28t-20 54t22 54q24 22 58 22zM269 553q-35 0 -59 25q-24 26 -24 60t25 60t59 25q34 0 59 -25q23 -24 23 -60t-24 -60t-59 -25z" />
    <glyph glyph-name="less" unicode="&#x3c;" horiz-adv-x="782" 
d="M526 182l-415 324l6 29l557 317l37 -59l-494 -279l354 -276z" />
    <glyph glyph-name="equal" unicode="=" horiz-adv-x="802" 
d="M88 336l16 72h586l-16 -72h-586zM158 629l16 71h586l-17 -71h-585z" />
    <glyph glyph-name="greater" unicode="&#x3e;" horiz-adv-x="782" 
d="M152 186l-37 58l491 278l-354 277l47 57l416 -324l-6 -30z" />
    <glyph glyph-name="question" unicode="?" horiz-adv-x="878" 
d="M221 -16q-33 0 -57 24t-23 58q0 36 24 60q25 24 57 24t56 -25t24 -59t-24 -58t-57 -24zM862 1049q0 115 -75 181t-184 64q-109 0 -184 -44t-93 -105q59 -14 59 -72q1 -29 -21 -49t-54 -20t-54 26t-23 64q0 104 111 189t258 85q146 0 244 -88t98 -225q0 -172 -145 -298
t-412 -153l-84 -278h-53l72 340q270 14 405 125t135 258z" />
    <glyph glyph-name="at" unicode="@" horiz-adv-x="1611" 
d="M735 141q131 0 216 117t85 256q0 98 -53 154t-143 57q-125 -1 -211 -107t-86 -256q0 -102 50 -162t142 -59zM659 -354q-255 0 -409 168t-154 430q0 408 257 698t608 289q259 0 411 -156q152 -157 152 -403t-109 -418t-256 -172q-90 0 -131 50t-29 126q-37 -78 -113 -130
t-176 -52q-102 0 -174 76t-71 208q0 178 112 304t261 127q100 -1 158 -57t71 -142l47 192h72l-113 -454q-25 -88 -2 -138t90 -51q123 0 212 159t89 375t-134 358q-134 143 -358 143t-408 -124t-295 -340q-109 -216 -109 -460t137 -397q137 -154 364 -154q184 0 340 84
l27 -49q-164 -90 -367 -90z" />
    <glyph glyph-name="A" unicode="A" horiz-adv-x="1427" 
d="M483 571h525l-99 711zM-45 0l18 72h121l725 1204h-176l19 72h514l-17 -72h-170l170 -1204h144l-17 -72h-399l16 72h172l-57 426h-580l-254 -426h193l-19 -72h-403z" />
    <glyph glyph-name="B" unicode="B" horiz-adv-x="1208" 
d="M557 72q231 0 359 124q78 76 77 194q0 118 -96 195t-279 77h-194l-137 -590h270zM653 731q203 0 320 83t117 219t-117 198q-82 45 -215 45h-193l-125 -545h213zM774 1348q154 0 254 -58q145 -82 146 -252q0 -137 -100 -233t-269 -115q125 -26 199 -104t73 -193
q0 -158 -114 -260q-143 -133 -416 -133h-539l19 72h176l278 1204h-198l18 72h473z" />
    <glyph glyph-name="C" unicode="C" horiz-adv-x="1376" 
d="M732 -23q-268 0 -422 160q-155 160 -154 426q0 201 97 386t271 302t382 117t330 -102t122 -213q0 -49 -24 -78t-58 -29t-53 18q-20 18 -21 50q0 57 62 82q-14 74 -112 136t-270 62q-173 0 -328 -112q-156 -112 -234 -277q-78 -164 -78 -336q0 -233 130 -375t364 -142
t440 196l47 -53q-223 -218 -491 -218z" />
    <glyph glyph-name="D" unicode="D" horiz-adv-x="1427" 
d="M469 72q403 0 627 223q199 203 198 496q0 205 -120 325q-160 160 -469 160h-140l-278 -1204h182zM713 1348q346 0 526 -183q141 -137 141 -370q0 -324 -215 -543q-252 -252 -708 -252h-449l19 72h176l278 1204h-198l18 72h412z" />
    <glyph glyph-name="E" unicode="E" horiz-adv-x="1173" 
d="M8 0l19 72h176l278 1204h-198l18 72h944l-69 -295h-80l51 223h-582l-127 -551h465l-16 -74h-465l-135 -579h581l52 223h81l-67 -295h-926z" />
    <glyph glyph-name="F" unicode="F" horiz-adv-x="1124" 
d="M8 0l19 72h176l278 1204h-198l18 72h926l-70 -295h-80l51 223h-563l-133 -576h459l-17 -73h-458l-129 -555h207l-17 -72h-469z" />
    <glyph glyph-name="G" unicode="G" horiz-adv-x="1437" 
d="M154 506q0 227 98 420q98 194 280 318t402 124q119 0 219 -39t167 -105t66 -151q0 -45 -26 -73t-58 -28t-53 20q-20 19 -20 50q0 55 65 82q-8 29 -49 70q-119 100 -295 100t-308 -70q-245 -129 -353 -426q-49 -136 -49 -274q0 -207 120 -340t346 -133t429 162l82 334
h-414l16 71h494l-150 -618h-80l31 125q-196 -147 -434 -147t-382 150q-144 151 -144 378z" />
    <glyph glyph-name="H" unicode="H" horiz-adv-x="1548" 
d="M8 0l19 72h176l278 1204h-198l18 72h461l-17 -72h-180l-125 -545h811l123 545h-200l18 72h461l-17 -72h-178l-276 -1204h196l-18 -72h-459l19 72h178l135 585h-811l-135 -585h198l-16 -72h-461z" />
    <glyph glyph-name="I" unicode="I" horiz-adv-x="675" 
d="M2 0l18 72h195l277 1204h-197l18 72h475l-16 -72h-197l-276 -1204h197l-19 -72h-475z" />
    <glyph glyph-name="J" unicode="J" horiz-adv-x="1101" 
d="M397 -20q-141 0 -239 82t-99 221q0 61 31 100t69 39t57 -18q20 -18 20 -51t-28 -55t-73 -19q-4 -96 72 -162t199 -66q162 0 246 119t126 309l183 797h-232l16 72h490l-14 -72h-177l-186 -809q-49 -221 -135 -334q-115 -153 -326 -153z" />
    <glyph glyph-name="K" unicode="K" horiz-adv-x="1308" 
d="M1290 1276l-598 -510l336 -694h184l-16 -72h-225l-344 713l-240 -207l-100 -434h198l-16 -72h-461l19 72h176l278 1204h-198l18 72h461l-17 -72h-180l-155 -670l778 670h-203l16 72h461l-16 -72h-156z" />
    <glyph glyph-name="L" unicode="L" horiz-adv-x="1087" 
d="M8 0l19 72h176l278 1204h-198l18 72h465l-16 -72h-185l-278 -1204h532l53 235h82l-71 -307h-875z" />
    <glyph glyph-name="M" unicode="M" horiz-adv-x="1736" 
d="M-6 0l16 72h185l325 1204h-203l17 72h289l217 -1035l694 1035h274l-16 -72h-182l-230 -1204h203l-16 -72h-453l16 72h170l222 1134l-701 -1038h-22l-224 1040l-301 -1136h189l-19 -72h-450z" />
    <glyph glyph-name="N" unicode="N" horiz-adv-x="1523" 
d="M1126 -6l-581 1214l-260 -1136h198l-16 -72h-459l19 72h176l278 1204h-196l16 72h262l570 -1186l253 1114h-200l16 72h457l-19 -72h-174l-295 -1282h-45z" />
    <glyph glyph-name="O" unicode="O" horiz-adv-x="1486" 
d="M711 53q270 1 459 229t190 519q0 211 -122 352t-349 141q-178 0 -329 -108q-152 -108 -236 -280q-84 -170 -84 -370t123 -342t348 -141zM705 -20q-254 0 -402 160q-147 161 -147 405q0 201 93 389t266 311t382 123q254 0 401 -161q148 -161 148 -383t-93 -410t-267 -311
t-381 -123z" />
    <glyph glyph-name="P" unicode="P" horiz-adv-x="1118" 
d="M616 592q219 0 339 112t120 275q0 100 -53 173q-54 73 -144 98t-167 26h-146l-155 -680q97 -4 206 -4zM723 1348q96 0 166 -21q131 -33 201 -124t69 -216q-1 -205 -151 -337t-402 -132q-145 0 -213 6l-106 -452h198l-16 -72h-461l19 72h176l278 1204h-202l16 72h428z" />
    <glyph glyph-name="Q" unicode="Q" horiz-adv-x="1488" 
d="M711 53q270 1 459 229t190 519q0 211 -122 352t-349 141q-178 0 -329 -108q-152 -108 -236 -280q-84 -170 -84 -370t123 -342t348 -141zM1446 803q0 -187 -83 -367t-239 -305t-346 -147q56 -90 148 -146t185 -57q93 0 169 39l27 -72q-90 -43 -179 -43q-141 0 -258 79
t-186 196q-246 8 -387 168t-141 378q0 220 93 408t266 311t382 123q253 0 401 -160t148 -405z" />
    <glyph glyph-name="R" unicode="R" horiz-adv-x="1208" 
d="M618 653q215 -1 340 95t125 249q0 113 -67 181q-98 98 -324 98h-127l-143 -619q98 -4 196 -4zM698 1348q258 0 383 -121q86 -86 86 -235q-1 -150 -113 -260t-309 -140l242 -520h158l-17 -72h-200l-266 582h-66q-139 0 -190 4l-119 -514h198l-16 -72h-461l19 72h176
l278 1204h-198l18 72h397z" />
    <glyph glyph-name="S" unicode="S" horiz-adv-x="1071" 
d="M514 -20q-182 0 -310 91t-128 187q0 41 22 68q23 26 57 26t54 -19t20 -46q0 -55 -53 -82q33 -61 125 -107t225 -47q133 0 230 79q96 80 96 188t-61 176t-203 160t-214 173q-72 82 -73 214q0 131 116 229q115 98 275 98t273 -77t112 -173q-1 -44 -23 -68t-54 -24t-52 20
t-20 60q0 39 51 63q-29 53 -105 91t-194 36q-118 0 -207 -74q-88 -74 -88 -178q0 -106 60 -173q59 -67 203 -159t215 -172q71 -81 71 -204q0 -156 -119 -256t-301 -100z" />
    <glyph glyph-name="T" unicode="T" horiz-adv-x="1257" 
d="M301 0l18 72h187l276 1204h-411l-56 -236h-79l71 308h1069l-73 -308h-80l55 236h-412l-276 -1204h207l-17 -72h-479z" />
    <glyph glyph-name="U" unicode="U" horiz-adv-x="1435" 
d="M670 -20q-190 0 -301 98t-111 272q0 74 25 178l172 748h-197l16 72h461l-16 -72h-182l-172 -754q-20 -84 -21 -168q0 -143 86 -223t248 -80q336 0 426 414l186 811h-200l16 72h461l-17 -72h-178l-188 -821q-108 -475 -514 -475z" />
    <glyph glyph-name="V" unicode="V" horiz-adv-x="1392" 
d="M555 -27l-193 1303h-147l16 72h402l-17 -72h-170l164 -1172l699 1172h-183l19 72h399l-16 -72h-131l-791 -1303h-51z" />
    <glyph glyph-name="W" unicode="W" horiz-adv-x="1918" 
d="M438 -27l-53 1303h-156l17 72h411l-18 -72h-176l39 -1151l569 1036h41l111 -1036l600 1151h-176l16 72h410l-17 -72h-149l-690 -1303h-50l-110 1020l-568 -1020h-51z" />
    <glyph glyph-name="X" unicode="X" horiz-adv-x="1435" 
d="M-29 0l19 72h162l587 626l-270 578h-176l16 72h447l-17 -72h-182l238 -531l491 531h-180l18 72h447l-19 -72h-170l-553 -590l291 -614h174l-18 -72h-447l19 72h182l-256 567l-526 -567h188l-18 -72h-447z" />
    <glyph glyph-name="Y" unicode="Y" horiz-adv-x="1280" 
d="M268 0l19 72h202l121 491l-252 713h-143l18 72h406l-16 -72h-177l222 -645l536 645h-170l17 72h405l-16 -72h-137l-615 -727l-113 -477h205l-16 -72h-496z" />
    <glyph glyph-name="Z" unicode="Z" horiz-adv-x="1212" 
d="M10 0v37l1164 1241h-764l-54 -227h-80l68 297h963v-37l-1164 -1241h803l53 227h80l-67 -297h-1002z" />
    <glyph glyph-name="bracketleft" unicode="[" horiz-adv-x="659" 
d="M33 -410l444 1909h416l-16 -69h-334l-410 -1770h332l-16 -70h-416z" />
    <glyph glyph-name="backslash" unicode="\" horiz-adv-x="729" 
d="M438 -403l-131 1896l76 6l131 -1896z" />
    <glyph glyph-name="bracketright" unicode="]" horiz-adv-x="659" 
d="M-180 -410l16 70h334l410 1770h-332l16 69h414l-442 -1909h-416z" />
    <glyph glyph-name="asciicircum" unicode="^" horiz-adv-x="870" 
d="M264 786l-31 41l340 256l205 -262l-35 -33l-186 177z" />
    <glyph glyph-name="underscore" unicode="_" horiz-adv-x="1021" 
d="M-119 -272l19 77h1044l-16 -77h-1047z" />
    <glyph glyph-name="grave" unicode="`" horiz-adv-x="1030" 
d="M551 1240q0 30 16 46t45 16t64 -42l184 -209l-24 -27l-238 154q-47 32 -47 62z" />
    <glyph glyph-name="a" unicode="a" horiz-adv-x="1110" 
d="M416 53q164 0 274 151t109 318q0 123 -69 200t-185 77q-158 1 -264 -141t-107 -324q0 -131 64 -206t178 -75zM401 -14q-135 0 -221 92t-86 252q0 215 130 376t319 160q115 0 193 -64t95 -177l58 231h76l-156 -635q-18 -83 -18 -109t19 -45t53 -19t63 31q29 32 61 107
l47 -14q-35 -96 -77 -140t-103 -44t-98 36t-37 81t8 75q-133 -194 -326 -194z" />
    <glyph glyph-name="b" unicode="b" horiz-adv-x="1054" 
d="M508 53q160 0 264 136t104 294t-66 237q-67 79 -185 79q-158 0 -272 -150t-113 -315q0 -125 72 -203t196 -78zM635 866q143 0 233 -97t90 -261q0 -213 -130 -368t-316 -154q-119 0 -201 66t-102 173l-51 -225h-78l334 1432h-168l14 67h246l-191 -823q131 190 320 190z
" />
    <glyph glyph-name="c" unicode="c" horiz-adv-x="913" 
d="M447 -14q-153 0 -253 97t-102 263q0 207 138 364t329 156q139 0 219 -68t80 -149q0 -37 -20 -61t-48 -25q-60 0 -61 60q0 47 45 63q-45 113 -210 113q-164 0 -280 -135t-116 -316q0 -135 80 -215t220 -80t273 115l-6 -82q-135 -100 -288 -100z" />
    <glyph glyph-name="d" unicode="d" horiz-adv-x="1122" 
d="M428 53q162 1 272 147t109 294q0 148 -72 227q-72 78 -192 78q-162 -1 -265 -139t-104 -318q0 -133 66 -211t186 -78zM805 119q0 -70 69 -72q37 0 66 32t59 107l50 -14q-33 -96 -76 -140t-105 -44t-98 37q-37 37 -37 80t6 75q-133 -195 -323 -194q-143 0 -232 95
q-88 95 -88 259q0 215 128 371t315 155q117 0 199 -64t102 -175l186 805h-168l14 67h248l-297 -1272q-18 -82 -18 -108z" />
    <glyph glyph-name="e" unicode="e" horiz-adv-x="946" 
d="M549 799q-119 0 -221 -90t-142 -228h588q14 53 14 94q0 100 -60 162t-179 62zM166 340q0 -135 86 -211t221 -76t272 76l-18 -78q-123 -65 -275 -65t-258 95q-105 95 -106 259q0 213 140 370t335 156q137 0 218 -81t81 -222q1 -65 -28 -147h-662q-6 -37 -6 -76z" />
    <glyph glyph-name="f" unicode="f" horiz-adv-x="595" 
d="M762 1354q-72 0 -72 82v4q-70 0 -130 -61t-97 -214l-72 -313h227l-14 -68h-229l-180 -784h-76l180 784h-158l15 68h159l76 328q39 172 125 252q72 76 186 75q57 0 92 -24q34 -25 34 -58t-20 -52q-19 -19 -46 -19z" />
    <glyph glyph-name="g" unicode="g" horiz-adv-x="1046" 
d="M434 66q162 0 271 146t108 312q0 123 -73 199t-193 76q-160 0 -265 -135t-106 -310q0 -132 70 -210t188 -78zM342 -410q-78 0 -154 27t-112 65t-37 76q0 38 18 61q18 21 48 21t50 -21q19 -21 19 -51t-24 -53q60 -59 204 -59t226 82t120 254l50 205q-56 -91 -142 -145
t-186 -54q-143 0 -235 96q-91 96 -91 258q0 207 130 361t319 153q123 0 203 -68t98 -177q47 211 55 233h76l-203 -872q-43 -190 -133 -285q-106 -107 -299 -107z" />
    <glyph glyph-name="h" unicode="h" horiz-adv-x="1048" 
d="M627 864q104 0 170 -58q67 -58 67 -140t-26 -172l-76 -269q-20 -75 -20 -107t18 -51q20 -19 55 -19t64 31q29 32 59 107l49 -14q-35 -96 -77 -140t-105 -44t-102 36q-37 36 -37 85t20 127l76 270q55 183 -23 253q-45 40 -118 40q-119 0 -225 -115t-148 -299l-90 -385h-78
l334 1432h-168l14 67h248l-205 -866q133 231 324 231z" />
    <glyph glyph-name="i" unicode="i" horiz-adv-x="563" 
d="M278 -12q-62 0 -101 36q-38 36 -38 86t21 126l157 548h-178l15 68h258l-176 -627q-20 -71 -20 -105t18 -53t54 -19t64 31q28 32 60 107l49 -14q-35 -96 -78 -140t-105 -44zM403 1063q-27 0 -47 20q-20 19 -20 49t20 50t47 20t47 -20t21 -49q0 -29 -20 -50
q-21 -20 -48 -20z" />
    <glyph glyph-name="j" unicode="j" horiz-adv-x="481" 
d="M391 1063q-27 0 -47 20q-20 19 -20 49t20 50t47 20t47 -20t20 -49t-20 -49t-47 -21zM-111 -410q-47 0 -79 23t-31 55q0 32 18 48q18 18 46 18t47 -22t20 -50v-4q61 6 110 55q70 78 109 258l188 813h-184l17 68h258l-205 -895q-43 -193 -124 -280t-190 -87z" />
    <glyph glyph-name="k" unicode="k" horiz-adv-x="919" 
d="M700 786q0 40 20 60t51 20q30 0 50 -22t21 -60q0 -139 -379 -340l100 -247q39 -94 63 -121t58 -27q66 0 109 164l51 -16q-27 -111 -68 -160t-101 -49q-61 0 -101 43t-76 133l-103 250q-45 -23 -157 -74l-80 -340h-78l334 1432h-168l14 67h246l-254 -1091q197 86 331 175
t160 142q-43 21 -43 61z" />
    <glyph glyph-name="l" unicode="l" horiz-adv-x="518" 
d="M256 -12q-59 0 -98 37t-39 82t18 129l279 1196h-166l14 67h244l-295 -1270q-18 -81 -18 -111t19 -50t50 -21q72 0 127 139l47 -14q-61 -184 -182 -184z" />
    <glyph glyph-name="m" unicode="m" horiz-adv-x="1581" 
d="M649 864q99 0 155 -55t56 -154q0 -18 -2 -26q139 236 330 235q96 0 156 -57t61 -133q0 -76 -31 -180l-80 -267q-20 -63 -20 -102q0 -76 69 -78q72 0 127 139l50 -14q-37 -96 -79 -140q-41 -44 -105 -44t-102 36t-38 88t23 124l79 270q27 78 27 146t-38 108
q-38 39 -109 39q-113 0 -215 -111t-152 -299l-100 -389h-78l131 506q51 185 -15 254q-38 39 -108 39q-109 0 -214 -114t-153 -296l-96 -389h-76l197 784h-168l14 68h244l-61 -236q141 248 321 248z" />
    <glyph glyph-name="n" unicode="n" horiz-adv-x="1067" 
d="M821 -12q-63 0 -100 36t-37 86t21 126l81 270q25 80 25 146t-43 107q-43 40 -119 40q-115 0 -220 -113t-155 -297l-96 -389h-76l197 784h-168l14 68h244l-61 -236q141 248 334 248q102 0 164 -57t62 -137t-28 -176l-80 -267q-20 -77 -20 -109t19 -51t50 -20q72 0 127 139
l50 -14q-34 -96 -78 -140t-107 -44z" />
    <glyph glyph-name="o" unicode="o" horiz-adv-x="1011" 
d="M455 53q161 0 273 133t112 312q0 137 -80 219t-205 82q-161 0 -273 -134t-112 -311q0 -137 80 -219t205 -82zM451 -14q-160 0 -260 102q-99 102 -99 266q0 203 135 358t332 154q160 0 259 -102t100 -266q0 -204 -135 -358t-332 -154z" />
    <glyph glyph-name="p" unicode="p" horiz-adv-x="1085" 
d="M541 53q158 0 262 136t104 294t-66 237q-67 79 -186 79q-157 0 -271 -150t-114 -315q0 -125 74 -203t197 -78zM989 508q0 -213 -130 -368t-316 -154q-115 0 -198 62t-107 167l-127 -549h182l-14 -67h-390l17 67h127l264 1118h-168l14 68h242l-43 -186q131 201 324 200
q143 0 233 -97t90 -261z" />
    <glyph glyph-name="q" unicode="q" horiz-adv-x="1054" 
d="M428 53q162 1 274 149t111 294q0 146 -71 225q-71 78 -191 78q-162 -1 -268 -139q-107 -138 -107 -294t66 -235q66 -78 186 -78zM416 -14q-143 0 -233 95q-89 95 -89 259q0 213 130 370t321 156q117 0 197 -66t102 -177l53 229h76l-277 -1186h181l-17 -67h-256l133 577
q-131 -190 -321 -190z" />
    <glyph glyph-name="r" unicode="r" horiz-adv-x="684" 
d="M104 0l195 784h-168l16 68h242l-63 -256q76 131 150 200q75 68 125 68t74 -22q23 -22 23 -53t-22 -53t-50 -22t-48 19q-20 18 -25 47q-68 -26 -157 -146t-124 -269l-92 -365h-76z" />
    <glyph glyph-name="s" unicode="s" horiz-adv-x="813" 
d="M400 -14q-199 0 -300 106q-45 50 -45 92q1 42 19 64t47 22t44 -17t15 -48t-33 -58q8 -16 33 -36q78 -59 188 -59t168 44t58 112t-46 108t-153 92t-163 102q-56 49 -56 138t80 154t201 64q162 0 252 -90q41 -41 41 -84t-18 -63q-18 -21 -45 -21q-26 0 -43 16t-17 47
q0 30 26 60q-10 14 -32 29q-68 41 -162 41q-95 0 -151 -44q-56 -45 -56 -105t44 -96t150 -88t165 -106t59 -152t-83 -161t-187 -63z" />
    <glyph glyph-name="t" unicode="t" horiz-adv-x="632" 
d="M205 134q0 -81 95 -81q50 0 179 90l31 -47q-141 -111 -234 -110q-68 0 -110 38t-41 88q0 50 14 111l140 561h-154l16 68h154l55 215l82 23l-59 -238h268l-16 -68h-269l-139 -565q-12 -49 -12 -85z" />
    <glyph glyph-name="u" unicode="u" horiz-adv-x="1069" 
d="M379 53q115 0 221 114t152 296l96 389h78l-158 -631q-18 -67 -18 -101t19 -53t53 -19t63 31q29 32 61 107l49 -14q-37 -96 -79 -140t-103 -44t-97 35t-36 82t18 128q-139 -246 -329 -245q-98 0 -160 55q-61 55 -62 147q0 51 25 152l113 442h-168l16 68h244l-131 -518
q-20 -82 -20 -142t40 -100q41 -40 113 -39z" />
    <glyph glyph-name="v" unicode="v" horiz-adv-x="919" 
d="M783 866q34 0 57 -26t22 -74q0 -123 -143 -357t-340 -444h-31l-133 819h-164l15 68h219l114 -778q150 170 255 345t132 298q-32 4 -54 24q-22 21 -22 53t20 52q19 20 53 20z" />
    <glyph glyph-name="w" unicode="w" horiz-adv-x="1314" 
d="M1079 793q1 31 21 53t53 20q33 0 57 -28t23 -74q0 -264 -375 -799h-31l-135 641l-377 -641h-32l-60 819h-162l17 68h211l49 -741l362 624h29l139 -649q270 397 289 629q-31 3 -55 25t-23 53z" />
    <glyph glyph-name="x" unicode="x" horiz-adv-x="999" 
d="M754 47q57 0 98 139l47 -14q-27 -100 -65 -142t-90 -42q-54 0 -88 36t-70 134l-84 227q-2 -4 -66 -95t-65 -95q-146 -207 -267 -207q-44 0 -70 24t-26 54q0 31 20 50t46 19q59 0 73 -72q61 12 187 187q17 17 77 104q60 86 62 88l-133 342h-168l16 68h203l127 -354
q4 6 87 131t146 181q65 56 119 56t82 -24t27 -54q1 -31 -19 -51t-47 -20q-61 0 -73 71q-55 -10 -172 -176l-119 -172l98 -245q35 -90 58 -119t49 -29z" />
    <glyph glyph-name="y" unicode="y" horiz-adv-x="956" 
d="M-47 -408q-43 0 -73 24t-30 56t18 52t50 20q31 0 50 -23t20 -59q121 10 387 334l-154 788h-164l17 68h217l141 -784q350 444 383 647q-31 7 -53 29t-23 52q1 30 21 50t53 20t57 -26t23 -74q0 -223 -440 -770q-182 -224 -298 -314t-202 -90z" />
    <glyph glyph-name="z" unicode="z" horiz-adv-x="903" 
d="M270 96q70 0 166 -22t146 -23q50 0 87 42q36 42 70 147l49 -13q-36 -129 -82 -186t-139 -57q-47 0 -153 26t-164 25q-123 0 -213 -49l-29 37l756 763h-496l-43 -172h-69l57 238h649l21 -35l-736 -741q53 20 123 20z" />
    <glyph glyph-name="braceleft" unicode="{" horiz-adv-x="612" 
d="M369 377q0 45 -45 88t-142 43h-73l22 84h76q115 0 177 51t62 130t-58 202t-58 215q0 141 123 237t346 101l-15 -62q-182 -8 -279 -87t-97 -175t57 -222t57 -215t-63 -149t-168 -71q73 -19 113 -67t40 -111q0 -109 -149 -246q-145 -129 -145 -244q0 -193 223 -252l-17 -61
q-135 26 -210 110t-74 201q0 141 161 287q45 43 69 67q67 70 67 146z" />
    <glyph glyph-name="bar" unicode="|" horiz-adv-x="512" 
d="M219 -410v1909h74v-1909h-74z" />
    <glyph glyph-name="braceright" unicode="}" horiz-adv-x="612" 
d="M260 -94q0 80 -58 207t-58 216t62 149q64 60 169 73q-72 16 -112 64t-40 112q0 111 148 246q147 135 147 244q0 190 -225 253l16 60q135 -25 210 -109q75 -83 75 -211t-162 -278q-133 -125 -133 -201q0 -57 45 -100t139 -43h74l-20 -84h-76q-115 0 -178 -51t-63 -127
t57 -201q58 -125 59 -219q0 -142 -123 -238t-346 -100l14 61q182 8 281 88q98 80 98 189z" />
    <glyph glyph-name="asciitilde" unicode="~" horiz-adv-x="948" 
d="M622 406q-68 0 -144 69q-75 69 -116 70q-74 0 -124 -127l-58 18q23 82 73 135t119 53t152 -79q66 -59 107 -60q74 0 125 129l57 -20q-25 -86 -74 -137t-117 -51z" />
    <glyph glyph-name="uni00A0" unicode="&#xa0;" horiz-adv-x="411" 
 />
    <glyph glyph-name="exclamdown" unicode="&#xa1;" horiz-adv-x="454" 
d="M76 0l250 1024h43l-193 -1024h-100zM403 1198q-33 0 -57 24t-22 58q0 34 24 60q24 24 56 24t56 -25t24 -59t-24 -58t-57 -24z" />
    <glyph glyph-name="cent" unicode="&#xa2;" horiz-adv-x="935" 
d="M188 434q0 -98 44 -170t120 -102l215 723q-155 -11 -267 -143t-112 -308zM465 74q-35 0 -70 6l-86 -293l-61 16l86 291q-102 37 -163 124q-60 87 -60 214q0 209 141 364t334 154l67 219l62 -16l-64 -207q106 -14 171 -78t65 -133q-1 -39 -21 -63t-51 -23q-55 0 -55 60
q0 47 45 63q-35 90 -174 111l-217 -738q29 -6 61 -6q160 0 293 117l-4 -80q-133 -102 -299 -102z" />
    <glyph glyph-name="sterling" unicode="&#xa3;" horiz-adv-x="960" 
d="M651 1036q119 0 198 -64t79 -138q0 -39 -20 -64t-48 -25q-27 -1 -45 17t-18 54t39 56q-10 39 -62 67t-127 28q-145 -1 -224 -107t-79 -268q0 -47 8 -133t10 -121h351l-17 -66h-331q-10 -223 -191 -374q68 -6 186 -48t216 -42t210 86l35 -52q-115 -100 -264 -100
q-92 0 -226 50t-210 50q-76 -88 -150 -88q-25 0 -40 14t-15 37q0 41 54 70t134 27q178 158 189 370h-207l16 66h189l-21 254q0 188 100 316t281 128z" />
    <glyph glyph-name="yen" unicode="&#xa5;" horiz-adv-x="987" 
d="M168 455l14 63h250l-170 436h-123l17 68h348l-12 -68h-154l166 -450l377 450h-150l17 68h352l-17 -68h-120l-369 -436h242l-15 -63h-295l-30 -140h292l-14 -63h-293l-43 -184h170l-16 -68h-404l15 68h168l43 184h-293l14 63h293l31 140h-291z" />
    <glyph glyph-name="section" unicode="&#xa7;" horiz-adv-x="837" 
d="M205 524q0 -47 52 -82t179 -86q233 35 234 144q0 45 -46 78t-141 69l-47 19q-109 -16 -170 -56t-61 -86zM514 975q-70 0 -121 -32t-51 -81t45 -82q45 -32 148 -74t159 -86t58 -113q0 -69 -67 -117t-179 -68q106 -62 106 -146t-72 -138t-191 -54t-191 50t-72 111
q0 29 16 49t42 21q26 0 42 -16t16 -44t-22 -44q12 -23 60 -41t120 -18q70 0 120 31q50 32 50 80t-44 80q-44 33 -148 75t-160 85q-55 43 -55 112t66 117q67 48 178 68q-107 62 -107 148t74 138t190 52t190 -51q73 -51 72 -110q0 -31 -17 -49t-42 -19q-25 0 -41 16t-16 44
t22 44q-12 23 -60 43t-118 19z" />
    <glyph glyph-name="dieresis" unicode="&#xa8;" horiz-adv-x="1030" 
d="M539 1221q33 0 55 -23q22 -24 20 -56q0 -32 -21 -56t-53 -23q-32 -1 -55 23t-23 57t22 55t55 23zM818 1063q-32 -1 -54 23t-23 57q0 33 22 55q23 22 55 23q32 0 54 -23q22 -24 21 -56q1 -32 -21 -56t-54 -23z" />
    <glyph glyph-name="copyright" unicode="&#xa9;" horiz-adv-x="1220" 
d="M644 250q-118 0 -194 79t-77 195q0 116 80 193q80 78 174 78t152 -41t59 -88q0 -20 -12 -34t-30 -16q-18 0 -30 12t-12 32q0 22 18 26q-31 59 -126 59t-156 -66q-60 -67 -60 -157t60 -156t152 -65q92 0 167 68l33 -39q-80 -80 -198 -80zM621 31q197 0 329 141t133 342
q0 201 -133 341q-134 140 -330 140t-328 -141t-132 -341t132 -341t329 -141zM622 -18q-222 0 -369 153q-146 154 -147 377q0 223 146 378q146 154 370 154q222 0 368 -154t146 -376q0 -224 -146 -378t-368 -154z" />
    <glyph glyph-name="ordfeminine" unicode="&#xaa;" horiz-adv-x="679" 
d="M84 645l14 55h525l-15 -55h-524zM557 1148q-1 169 -159 169q-78 0 -140 -80t-63 -169q1 -89 39 -132t104 -43q92 0 156 86q63 86 63 169zM326 838q-84 0 -139 56q-54 56 -54 171t82 211t195 96q70 0 114 -35t60 -94l30 123h58l-94 -383q-6 -33 -7 -57q0 -39 39 -39t76 84
l35 -17q-41 -115 -119 -114q-88 0 -88 88v16q-77 -106 -188 -106z" />
    <glyph glyph-name="guillemotleft" unicode="&#xab;" horiz-adv-x="866" 
d="M354 231l-266 324l416 319l41 -47l-355 -284l216 -273zM670 231l-269 324l416 319l43 -47l-356 -284l215 -273z" />
    <glyph glyph-name="registered" unicode="&#xae;" horiz-adv-x="782" 
d="M489 1063h41q43 0 69 18t26 52q0 68 -93 67h-43v-137zM393 879v43h49v278h-49v43h142q63 0 100 -29t37 -79q0 -70 -74 -99l66 -114h45v-43h-78l-82 145h-60v-102h50v-43h-146zM538 1372q-130 0 -218 -92t-89 -226q0 -134 88 -226q87 -92 217 -93q130 0 218 92
q88 93 88 227t-87 226t-217 92zM537 688q-152 0 -254 106q-103 106 -103 260q0 153 102 259t255 106q152 0 255 -106t103 -259q0 -154 -103 -260t-255 -106z" />
    <glyph glyph-name="macron" unicode="&#xaf;" horiz-adv-x="1030" 
d="M379 1094l16 75h574l-17 -75h-573z" />
    <glyph glyph-name="degree" unicode="&#xb0;" horiz-adv-x="649" 
d="M440 1313q-76 0 -134 -69q-60 -69 -60 -151q0 -83 41 -125t117 -42t135 68q59 69 59 151t-41 125t-117 43zM398 866q-104 0 -161 60t-57 164t80 193t184 89t161 -60t57 -164t-80 -193t-184 -89z" />
    <glyph glyph-name="plusminus" unicode="&#xb1;" horiz-adv-x="802" 
d="M20 92l15 72h624l-16 -72h-623zM563 940l-65 -278h276l-14 -72h-279l-63 -283h-74l64 283h-273l15 72h274l65 278h74z" />
    <glyph glyph-name="two.sup" unicode="&#xb2;" horiz-adv-x="722" 
d="M768 1451q0 56 -42 90t-113 34t-117 -27t-60 -59q27 -16 27 -40t-14 -38t-36 -14t-36 17t-15 44q0 64 73 120t176 56t163 -49t62 -129q0 -80 -60 -135t-175 -119t-187 -124t-107 -142h365l30 135h60l-43 -190h-483l-13 30q45 113 129 189t200 139t166 109t50 103z" />
    <glyph glyph-name="three.sup" unicode="&#xb3;" horiz-adv-x="722" 
d="M770 1087q0 -95 -78 -155t-186 -60q-106 0 -176 48t-70 112q0 25 14 43q14 19 36 19t34 -14q14 -14 14 -38q0 -26 -32 -36q12 -31 60 -55q48 -23 126 -23t134 46t56 112t-55 108q-55 43 -139 43h-35l14 57h33q104 0 170 45t66 107t-47 96q-47 33 -121 33q-113 0 -139 -59
q27 -10 27 -32t-16 -36q-15 -14 -36 -14t-34 17t-13 44q0 53 61 96q60 43 160 43t164 -51t63 -128q0 -77 -60 -129t-155 -64q72 -16 116 -64t44 -111z" />
    <glyph glyph-name="acute" unicode="&#xb4;" horiz-adv-x="1030" 
d="M895 1245q0 -43 -61 -67l-338 -152l-17 29l295 217q66 49 105 12q16 -16 16 -39z" />
    <glyph glyph-name="paragraph" unicode="&#xb6;" horiz-adv-x="1083" 
d="M535 66h114l238 890h-115zM545 383q-441 0 -441 274q0 167 134 267t344 100l548 -2l-18 -68h-149l-240 -886h151l-18 -68h-573l18 66h158q84 317 86 317z" />
    <glyph glyph-name="periodcentered" unicode="&#xb7;" horiz-adv-x="425" 
d="M234 442q-36 0 -60 25t-22 61q0 36 23 60t59 24t60 -24t24 -61t-24 -61t-60 -24z" />
    <glyph glyph-name="cedilla" unicode="&#xb8;" horiz-adv-x="1030" 
d="M401 -123q154 -15 154 -141q0 -60 -52 -103q-53 -43 -153 -43t-205 76l33 45q88 -57 189 -57q53 0 82 24t29 63q0 37 -39 61q-38 24 -107 16l-21 18l103 199l43 -12z" />
    <glyph glyph-name="one.sup" unicode="&#xb9;" horiz-adv-x="722" 
d="M250 881l14 59h209l145 619l-219 -54v60l267 67l30 -14l-157 -678h204l-12 -59h-481z" />
    <glyph glyph-name="ordmasculine" unicode="&#xba;" horiz-adv-x="671" 
d="M416 893q82 0 146 76t65 165q0 89 -45 137t-127 48t-147 -77q-64 -77 -64 -166t45 -136t127 -47zM113 645l14 55h465l-14 -55h-465zM412 836q-110 0 -169 63q-61 63 -61 175t83 206t193 94t170 -62t60 -175t-83 -207t-193 -94z" />
    <glyph glyph-name="guillemotright" unicode="&#xbb;" horiz-adv-x="866" 
d="M109 231l-41 48l356 284l-215 273l49 38l268 -323zM424 231l-43 48l356 284l-215 273l49 38l269 -323z" />
    <glyph glyph-name="onequarter" unicode="&#xbc;" horiz-adv-x="1628" 
d="M309 14q582 688 1094 1307l41 -33l-549 -653q-150 -176 -545 -653zM160 573l14 60h209l145 618l-219 -53v59l266 68l31 -14l-157 -678h204l-12 -60h-481zM1229 53l41 172h-350l-9 29l498 504l41 -37l-444 -445h276l45 183l68 26l-49 -206h133l-13 -54h-133l-39 -172h107
l-12 -53h-306l13 53h133z" />
    <glyph glyph-name="onehalf" unicode="&#xbd;" horiz-adv-x="1628" 
d="M281 14q538 636 1093 1307l41 -33l-549 -653q-149 -176 -544 -653zM137 573l15 60h208l146 618l-219 -53v59l266 68l31 -14l-158 -678h205l-13 -60h-481zM1452 570q0 56 -42 90t-113 34t-117 -26t-60 -60q27 -16 27 -40t-14 -38t-36 -14t-36 18t-14 44q0 63 72 119
q73 57 177 57t163 -49q61 -49 61 -129t-60 -136q-60 -54 -175 -118t-187 -124t-107 -143h365l30 135h60l-43 -190h-483l-13 31q45 113 129 189t200 138q116 64 167 110q49 46 49 102z" />
    <glyph glyph-name="threequarters" unicode="&#xbe;" horiz-adv-x="1628" 
d="M309 14q582 688 1094 1307l41 -33l-549 -653q-150 -176 -545 -653zM1219 53l41 172h-351l-8 29l498 504l41 -37l-445 -445h277l45 183l67 26l-49 -206h133l-12 -54h-133l-39 -172h107l-13 -53h-305l12 53h134zM244 786q48 0 49 -52q0 -26 -33 -36q12 -30 60 -54t126 -24
t135 47q56 46 56 111q0 64 -55 108t-140 44h-34l14 57h33q104 0 170 45q65 46 65 108t-47 95t-121 33q-113 0 -139 -60q27 -10 27 -32t-16 -36t-36 -14q-22 0 -34 18t-13 44q-1 53 61 96t162 43t162 -51q64 -51 64 -128t-60 -129t-155 -65q71 -16 115 -63t45 -111
q0 -96 -79 -156q-80 -60 -186 -59q-106 0 -176 48t-69 112q0 25 14 43q13 18 35 18z" />
    <glyph glyph-name="questiondown" unicode="&#xbf;" horiz-adv-x="878" 
d="M394 -14q-148 0 -246 87q-97 87 -97 226q-1 170 145 296t414 155l84 278h54l-74 -340q-268 -16 -404 -127t-137 -258q0 -115 76 -181t184 -65q108 0 184 45q75 45 93 105q-57 14 -58 72q0 29 22 49t52 20t54 -26q22 -26 22 -62q0 -104 -110 -189t-258 -85zM776 1204
q-32 0 -56 24t-24 58t23 59q23 23 57 23t58 -24q22 -24 22 -58t-24 -58t-56 -24z" />
    <glyph glyph-name="Agrave" unicode="&#xc0;" horiz-adv-x="1427" 
d="M807 1745q29 0 63 -43l185 -209l-25 -27l-237 154q-47 31 -47 62t16 47t45 16zM483 571h525l-99 711zM-45 0l18 72h121l725 1204h-176l19 72h514l-17 -72h-170l170 -1204h144l-17 -72h-399l16 72h172l-57 426h-580l-254 -426h193l-19 -72h-403z" />
    <glyph glyph-name="Aacute" unicode="&#xc1;" horiz-adv-x="1427" 
d="M1206 1743q24 -1 40 -17t18 -38q0 -43 -62 -68l-338 -152l-16 29l295 217q39 29 63 29zM483 571h525l-99 711zM-45 0l18 72h121l725 1204h-176l19 72h514l-17 -72h-170l170 -1204h144l-17 -72h-399l16 72h172l-57 426h-580l-254 -426h193l-19 -72h-403z" />
    <glyph glyph-name="Acircumflex" unicode="&#xc2;" horiz-adv-x="1427" 
d="M702 1460l-30 41l338 258l207 -264l-37 -33l-187 176zM483 571h525l-99 711zM-45 0l18 72h121l725 1204h-176l19 72h514l-17 -72h-170l170 -1204h144l-17 -72h-399l16 72h172l-57 426h-580l-254 -426h193l-19 -72h-403z" />
    <glyph glyph-name="Atilde" unicode="&#xc3;" horiz-adv-x="1427" 
d="M1092 1468q-66 0 -143 68t-120 70q-43 0 -73 -30t-54 -95l-53 18q19 82 71 135q113 117 271 -24q66 -59 111 -60q78 0 127 125l53 -16q-20 -83 -72 -137t-118 -54zM483 571h525l-99 711zM-45 0l18 72h121l725 1204h-176l19 72h514l-17 -72h-170l170 -1204h144l-17 -72
h-399l16 72h172l-57 426h-580l-254 -426h193l-19 -72h-403z" />
    <glyph glyph-name="Adieresis" unicode="&#xc4;" horiz-adv-x="1427" 
d="M834 1663q32 0 54 -23q22 -24 22 -56t-22 -56q-21 -24 -53 -23q-32 0 -55 24q-22 25 -22 57t22 54t54 23zM1113 1505q-33 0 -55 24q-22 25 -22 57t22 54t54 23q32 0 54 -23q22 -24 22 -56t-22 -56t-53 -23zM483 571h525l-99 711zM-45 0l18 72h121l725 1204h-176l19 72
h514l-17 -72h-170l170 -1204h144l-17 -72h-399l16 72h172l-57 426h-580l-254 -426h193l-19 -72h-403z" />
    <glyph glyph-name="Aring" unicode="&#xc5;" horiz-adv-x="1427" 
d="M483 571h525l-99 711zM1061 1508q0 54 -27 84q-26 30 -76 30t-90 -48t-39 -102q0 -54 27 -84t77 -30t89 48t39 102zM766 1470q0 82 59 147t139 65t120 -47q42 -46 42 -108t-29 -110q-30 -47 -75 -69h154l-17 -72h-170l170 -1204h144l-17 -72h-399l16 72h172l-57 426h-580
l-254 -426h193l-19 -72h-403l18 72h121l725 1204h-176l19 72h165q-61 40 -61 122z" />
    <glyph glyph-name="AE" unicode="&#xc6;" horiz-adv-x="1806" 
d="M553 571h416l164 709h-31zM-92 0l16 72h156l930 1204h-203l16 72h1053l-70 -295h-80l52 223h-564l-124 -551h444l-14 -74h-449l-133 -579h563l51 223h80l-67 -295h-906l17 72h178l98 428h-452l-332 -428h194l-18 -72h-436z" />
    <glyph glyph-name="Ccedilla" unicode="&#xc7;" horiz-adv-x="1376" 
d="M614 -123q154 -15 154 -141q0 -60 -52 -103t-152 -43t-206 76l33 45q88 -57 189 -57q53 0 82 24q28 24 28 63q0 37 -38 61t-107 16l-21 18l78 152q-205 34 -326 188q-120 154 -120 371t97 402t271 302t382 117t330 -102t122 -213q0 -49 -24 -78t-58 -29t-53 18
q-20 18 -21 50q0 57 62 82q-14 74 -112 136t-270 62q-173 0 -328 -112q-156 -112 -234 -277q-78 -164 -78 -336q0 -233 130 -375t364 -142t440 196l47 -53q-223 -217 -506 -218q-23 0 -64 5z" />
    <glyph glyph-name="Egrave" unicode="&#xc8;" horiz-adv-x="1173" 
d="M610 1682q0 63 62 63q29 0 63 -43l185 -209l-25 -27l-238 154q-47 31 -47 62zM8 0l19 72h176l278 1204h-198l18 72h944l-69 -295h-80l51 223h-582l-127 -551h465l-16 -74h-465l-135 -579h581l52 223h81l-67 -295h-926z" />
    <glyph glyph-name="Eacute" unicode="&#xc9;" horiz-adv-x="1173" 
d="M8 0l19 72h176l278 1204h-198l18 72h944l-69 -295h-80l51 223h-582l-127 -551h465l-16 -74h-465l-135 -579h581l52 223h81l-67 -295h-926zM1071 1743q25 -1 41 -17t16 -38q0 -43 -61 -68l-338 -152l-16 29l295 217q39 29 63 29z" />
    <glyph glyph-name="Ecircumflex" unicode="&#xca;" horiz-adv-x="1173" 
d="M8 0l19 72h176l278 1204h-198l18 72h944l-69 -295h-80l51 223h-582l-127 -551h465l-16 -74h-465l-135 -579h581l52 223h81l-67 -295h-926zM565 1460l-30 41l337 258l207 -264l-37 -33l-186 176z" />
    <glyph glyph-name="Edieresis" unicode="&#xcb;" horiz-adv-x="1173" 
d="M8 0l19 72h176l278 1204h-198l18 72h944l-69 -295h-80l51 223h-582l-127 -551h465l-16 -74h-465l-135 -579h581l52 223h81l-67 -295h-926zM699 1505q-33 0 -55 24q-22 25 -22 57t22 54t54 23q32 0 55 -23q21 -24 21 -56t-22 -56t-53 -23zM978 1505q-32 0 -54 24
q-22 25 -23 57q0 32 22 54q23 22 55 23q32 0 54 -23q22 -24 21 -56q1 -32 -21 -56t-54 -23z" />
    <glyph glyph-name="Igrave" unicode="&#xcc;" horiz-adv-x="675" 
d="M379 1682q0 63 61 63q29 0 64 -43l184 -209l-24 -27l-238 154q-47 31 -47 62zM2 0l18 72h195l277 1204h-197l18 72h475l-16 -72h-197l-276 -1204h197l-19 -72h-475z" />
    <glyph glyph-name="Iacute" unicode="&#xcd;" horiz-adv-x="675" 
d="M838 1743q24 -1 40 -17t17 -38q0 -43 -61 -68l-338 -152l-17 29l295 217q40 29 64 29zM2 0l18 72h195l277 1204h-197l18 72h475l-16 -72h-197l-276 -1204h197l-19 -72h-475z" />
    <glyph glyph-name="Icircumflex" unicode="&#xce;" horiz-adv-x="675" 
d="M336 1460l-31 41l338 258l207 -264l-37 -33l-186 176zM2 0l18 72h195l277 1204h-197l18 72h475l-16 -72h-197l-276 -1204h197l-19 -72h-475z" />
    <glyph glyph-name="Idieresis" unicode="&#xcf;" horiz-adv-x="675" 
d="M468 1505q-32 0 -54 24q-22 25 -23 57q0 32 22 54q23 22 55 23q32 0 54 -23q22 -24 21 -56q1 -32 -21 -56t-54 -23zM746 1505q-32 0 -54 24q-22 25 -22 57t22 54t54 23q32 0 54 -23q22 -24 22 -56t-22 -56t-54 -23zM2 0l18 72h195l277 1204h-197l18 72h475l-16 -72h-197
l-276 -1204h197l-19 -72h-475z" />
    <glyph glyph-name="Eth" unicode="&#xd0;" horiz-adv-x="1429" 
d="M469 72q403 0 627 223q199 203 198 496q0 205 -120 325q-160 160 -469 160h-140l-127 -549h299l-16 -74h-301l-133 -581h182zM713 1348q346 0 526 -183q141 -137 141 -370q0 -324 -215 -543q-252 -252 -708 -252h-449l19 72h176l133 581h-168l18 74h168l127 549h-198
l18 72h412z" />
    <glyph glyph-name="Ntilde" unicode="&#xd1;" horiz-adv-x="1523" 
d="M1146 1468q-66 0 -142 68q-77 68 -121 70q-79 0 -125 -125l-53 18q20 82 71 135q112 117 271 -24q66 -59 110 -60q78 0 127 125l53 -16q-21 -83 -73 -137t-118 -54zM1126 -6l-581 1214l-260 -1136h198l-16 -72h-459l19 72h176l278 1204h-196l16 72h262l570 -1186
l253 1114h-200l16 72h457l-19 -72h-174l-295 -1282h-45z" />
    <glyph glyph-name="Ograve" unicode="&#xd2;" horiz-adv-x="1486" 
d="M780 1682q0 63 62 63q29 0 63 -43l185 -209l-25 -27l-238 154q-47 31 -47 62zM711 53q270 1 459 229t190 519q0 211 -122 352t-349 141q-178 0 -329 -108q-152 -108 -236 -280q-84 -170 -84 -370t123 -342t348 -141zM705 -20q-254 0 -402 160q-147 161 -147 405
q0 201 93 389t266 311t382 123q254 0 401 -161q148 -161 148 -383t-93 -410t-267 -311t-381 -123z" />
    <glyph glyph-name="Oacute" unicode="&#xd3;" horiz-adv-x="1486" 
d="M711 53q270 1 459 229t190 519q0 211 -122 352t-349 141q-178 0 -329 -108q-152 -108 -236 -280q-84 -170 -84 -370t123 -342t348 -141zM705 -20q-254 0 -402 160q-147 161 -147 405q0 201 93 389t266 311t382 123q254 0 401 -161q148 -161 148 -383t-93 -410t-267 -311
t-381 -123zM1241 1743q25 -1 41 -17t16 -38q0 -43 -61 -68l-338 -152l-16 29l295 217q39 29 63 29z" />
    <glyph glyph-name="Ocircumflex" unicode="&#xd4;" horiz-adv-x="1486" 
d="M711 53q270 1 459 229t190 519q0 211 -122 352t-349 141q-178 0 -329 -108q-152 -108 -236 -280q-84 -170 -84 -370t123 -342t348 -141zM705 -20q-254 0 -402 160q-147 161 -147 405q0 201 93 389t266 311t382 123q254 0 401 -161q148 -161 148 -383t-93 -410t-267 -311
t-381 -123zM737 1460l-30 41l337 258l207 -264l-37 -33l-186 176z" />
    <glyph glyph-name="Otilde" unicode="&#xd5;" horiz-adv-x="1486" 
d="M1126 1468q-66 0 -142 68t-120 70q-42 0 -72 -30t-55 -95l-53 18q20 82 72 135q113 116 270 -24q66 -59 111 -60q78 0 127 125l53 -16q-20 -83 -73 -137q-52 -54 -118 -54zM711 53q270 1 459 229t190 519q0 211 -122 352t-349 141q-178 0 -329 -108q-152 -108 -236 -280
q-84 -170 -84 -370t123 -342t348 -141zM705 -20q-254 0 -402 160q-147 161 -147 405q0 201 93 389t266 311t382 123q254 0 401 -161q148 -161 148 -383t-93 -410t-267 -311t-381 -123z" />
    <glyph glyph-name="Odieresis" unicode="&#xd6;" horiz-adv-x="1486" 
d="M711 53q270 1 459 229t190 519q0 211 -122 352t-349 141q-178 0 -329 -108q-152 -108 -236 -280q-84 -170 -84 -370t123 -342t348 -141zM705 -20q-254 0 -402 160q-147 161 -147 405q0 201 93 389t266 311t382 123q254 0 401 -161q148 -161 148 -383t-93 -410t-267 -311
t-381 -123zM869 1505q-33 0 -55 24q-22 25 -22 57t22 54t54 23q32 0 55 -23q21 -24 21 -56t-22 -56t-53 -23zM1148 1505q-32 0 -54 24q-22 25 -23 57q0 32 22 54q23 22 55 23q32 0 54 -23q22 -24 21 -56q1 -32 -21 -56t-54 -23z" />
    <glyph glyph-name="multiply" unicode="&#xd7;" horiz-adv-x="802" 
d="M252 829l180 -235l279 223l47 -57l-279 -225l183 -236l-60 -49l-184 235l-277 -223l-47 60l279 223l-183 235z" />
    <glyph glyph-name="Oslash" unicode="&#xd8;" horiz-adv-x="1486" 
d="M889 1294q-178 0 -330 -108q-151 -108 -235 -280q-84 -170 -84 -334t53 -277l971 827q-129 172 -375 172zM719 53q262 1 452 229t191 519q0 150 -62 262l-970 -832q127 -178 389 -178zM705 -20q-283 0 -437 200l-229 -196l-47 55l237 203q-73 132 -73 318t93 374t266 311
t382 123q274 0 428 -192l225 194l49 -55l-233 -201q80 -136 80 -324t-93 -376t-267 -311t-381 -123z" />
    <glyph glyph-name="Ugrave" unicode="&#xd9;" horiz-adv-x="1435" 
d="M741 1682q0 63 62 63q29 0 63 -43l185 -209l-25 -27l-238 154q-47 31 -47 62zM670 -20q-190 0 -301 98t-111 272q0 74 25 178l172 748h-197l16 72h461l-16 -72h-182l-172 -754q-20 -84 -21 -168q0 -143 86 -223t248 -80q336 0 426 414l186 811h-200l16 72h461l-17 -72
h-178l-188 -821q-108 -475 -514 -475z" />
    <glyph glyph-name="Uacute" unicode="&#xda;" horiz-adv-x="1435" 
d="M670 -20q-190 0 -301 98t-111 272q0 74 25 178l172 748h-197l16 72h461l-16 -72h-182l-172 -754q-20 -84 -21 -168q0 -143 86 -223t248 -80q336 0 426 414l186 811h-200l16 72h461l-17 -72h-178l-188 -821q-108 -475 -514 -475zM1202 1743q24 -1 40 -17t18 -38
q0 -43 -62 -68l-338 -152l-16 29l295 217q39 29 63 29z" />
    <glyph glyph-name="Ucircumflex" unicode="&#xdb;" horiz-adv-x="1435" 
d="M670 -20q-190 0 -301 98t-111 272q0 74 25 178l172 748h-197l16 72h461l-16 -72h-182l-172 -754q-20 -84 -21 -168q0 -143 86 -223t248 -80q336 0 426 414l186 811h-200l16 72h461l-17 -72h-178l-188 -821q-108 -475 -514 -475zM698 1460l-30 41l338 258l206 -264
l-36 -33l-187 176z" />
    <glyph glyph-name="Udieresis" unicode="&#xdc;" horiz-adv-x="1435" 
d="M670 -20q-190 0 -301 98t-111 272q0 74 25 178l172 748h-197l16 72h461l-16 -72h-182l-172 -754q-20 -84 -21 -168q0 -143 86 -223t248 -80q336 0 426 414l186 811h-200l16 72h461l-17 -72h-178l-188 -821q-108 -475 -514 -475zM830 1505q-32 0 -54 24q-22 25 -22 57
t22 54t54 23q32 0 54 -23q22 -24 22 -56t-22 -56t-54 -23zM1109 1505q-33 0 -55 24q-22 25 -22 57t22 54t54 23q32 0 54 -23q22 -24 22 -56t-22 -56t-53 -23z" />
    <glyph glyph-name="Yacute" unicode="&#xdd;" horiz-adv-x="1280" 
d="M1118 1743q24 -1 40 -17t18 -38q0 -43 -62 -68l-338 -152l-16 29l295 217q39 29 63 29zM268 0l19 72h202l121 491l-252 713h-143l18 72h406l-16 -72h-177l222 -645l536 645h-170l17 72h405l-16 -72h-137l-615 -727l-113 -477h205l-16 -72h-496z" />
    <glyph glyph-name="Thorn" unicode="&#xde;" horiz-adv-x="1134" 
d="M563 360q219 0 337 102t118 265q0 113 -70 182q-96 96 -301 97h-143l-148 -639q74 -7 207 -7zM653 1079q242 0 359 -116q90 -90 90 -234q0 -195 -148 -319t-401 -123q-78 0 -213 6l-53 -221h198l-16 -72h-461l19 72h176l278 1204h-194l16 72h459l-17 -72h-180l-45 -197
h133z" />
    <glyph glyph-name="germandbls" unicode="&#xdf;" horiz-adv-x="1038" 
d="M932 267q0 -129 -78 -203t-188 -74t-186 53q-77 53 -77 129q-1 30 19 54t49 24t46 -18t17 -52q0 -33 -32 -53q12 -29 55 -51t96 -23q89 1 147 59t58 156t-139 234q-47 49 -71 76q-68 76 -67 152q1 75 42 129q41 55 106 107t97 84t61 87t29 123t-55 124q-54 55 -132 56
q-207 0 -276 -312l-260 -1128h-76l182 784h-158l15 68h157l66 287q86 371 354 370q111 -1 185 -75t73 -181q0 -73 -32 -139q-31 -66 -67 -102t-90 -80q-54 -45 -80 -69q-65 -60 -66 -128t124 -188q152 -152 152 -280z" />
    <glyph glyph-name="agrave" unicode="&#xe0;" horiz-adv-x="1110" 
d="M451 1240q0 30 16 46t45 16t63 -42l185 -209l-25 -27l-237 154q-47 32 -47 62zM416 53q164 0 274 151t109 318q0 123 -69 200t-185 77q-158 1 -264 -141t-107 -324q0 -131 64 -206t178 -75zM401 -14q-135 0 -221 92t-86 252q0 215 130 376t319 160q115 0 193 -64t95 -177
l58 231h76l-156 -635q-18 -83 -18 -109t19 -45t53 -19t63 31q29 32 61 107l47 -14q-35 -96 -77 -140t-103 -44t-98 36t-37 81t8 75q-133 -194 -326 -194z" />
    <glyph glyph-name="aacute" unicode="&#xe1;" horiz-adv-x="1110" 
d="M565 1026l-16 29l295 217q65 48 104 12q16 -16 17 -39q0 -43 -62 -67zM416 53q164 0 274 151t109 318q0 123 -69 200t-185 77q-158 1 -264 -141t-107 -324q0 -131 64 -206t178 -75zM401 -14q-135 0 -221 92t-86 252q0 215 130 376t319 160q115 0 193 -64t95 -177l58 231
h76l-156 -635q-18 -83 -18 -109t19 -45t53 -19t63 31q29 32 61 107l47 -14q-35 -96 -77 -140t-103 -44t-98 36t-37 81t8 75q-133 -194 -326 -194z" />
    <glyph glyph-name="acircumflex" unicode="&#xe2;" horiz-adv-x="1110" 
d="M406 1018l-31 41l338 258l207 -264l-37 -33l-187 176zM416 53q164 0 274 151t109 318q0 123 -69 200t-185 77q-158 1 -264 -141t-107 -324q0 -131 64 -206t178 -75zM401 -14q-135 0 -221 92t-86 252q0 215 130 376t319 160q115 0 193 -64t95 -177l58 231h76l-156 -635
q-18 -83 -18 -109t19 -45t53 -19t63 31q29 32 61 107l47 -14q-35 -96 -77 -140t-103 -44t-98 36t-37 81t8 75q-133 -194 -326 -194z" />
    <glyph glyph-name="atilde" unicode="&#xe3;" horiz-adv-x="1110" 
d="M796 1026q-66 0 -142 68q-77 68 -120 69q-42 1 -72 -29t-54 -96l-54 19q20 82 72 135t117 53q67 -1 143 -69t121 -68q78 0 127 125l53 -16q-21 -83 -73 -137t-118 -54zM416 53q164 0 274 151t109 318q0 123 -69 200t-185 77q-158 1 -264 -141t-107 -324q0 -131 64 -206
t178 -75zM401 -14q-135 0 -221 92t-86 252q0 215 130 376t319 160q115 0 193 -64t95 -177l58 231h76l-156 -635q-18 -83 -18 -109t19 -45t53 -19t63 31q29 32 61 107l47 -14q-35 -96 -77 -140t-103 -44t-98 36t-37 81t8 75q-133 -194 -326 -194z" />
    <glyph glyph-name="adieresis" unicode="&#xe4;" horiz-adv-x="1110" 
d="M539 1221q33 0 55 -23q22 -24 20 -56q0 -32 -21 -56t-53 -23q-32 -1 -55 23t-23 57t22 55t55 23zM818 1063q-32 -1 -54 23t-23 57q0 33 22 55q23 22 55 23q32 0 54 -23q22 -24 21 -56q1 -32 -21 -56t-54 -23zM416 53q164 0 274 151t109 318q0 123 -69 200t-185 77
q-158 1 -264 -141t-107 -324q0 -131 64 -206t178 -75zM401 -14q-135 0 -221 92t-86 252q0 215 130 376t319 160q115 0 193 -64t95 -177l58 231h76l-156 -635q-18 -83 -18 -109t19 -45t53 -19t63 31q29 32 61 107l47 -14q-35 -96 -77 -140t-103 -44t-98 36t-37 81t8 75
q-133 -194 -326 -194z" />
    <glyph glyph-name="aring" unicode="&#xe5;" horiz-adv-x="1110" 
d="M683 1067q50 0 88 48q38 47 38 103t-27 85q-26 29 -76 29t-90 -49t-38 -103q0 -54 28 -84t77 -29zM710 1391q80 0 122 -46t42 -124q0 -77 -59 -145t-138 -68t-121 46t-42 124t58 146q58 67 138 67zM416 53q164 0 274 151t109 318q0 123 -69 200t-185 77q-158 1 -264 -141
t-107 -324q0 -131 64 -206t178 -75zM401 -14q-135 0 -221 92t-86 252q0 215 130 376t319 160q115 0 193 -64t95 -177l58 231h76l-156 -635q-18 -83 -18 -109t19 -45t53 -19t63 31q29 32 61 107l47 -14q-35 -96 -77 -140t-103 -44t-98 36t-37 81t8 75q-133 -194 -326 -194z
" />
    <glyph glyph-name="ae" unicode="&#xe6;" horiz-adv-x="1564" 
d="M1167 799q-121 0 -223 -90t-141 -228h590q14 53 14 94q0 100 -60 162t-180 62zM317 53q135 1 259 105t147 260h-205q-381 0 -381 -219q0 -63 47 -105t133 -41zM1091 53q135 0 271 76l-19 -78q-119 -65 -264 -65t-237 76t-115 204q-53 -127 -167 -204q-114 -76 -244 -76
t-194 63t-65 150q0 133 119 207t324 73h227q-2 139 -69 229t-201 91q-59 -1 -93 -15t-45 -26q42 -52 2 -98q-19 -22 -47 -22t-47 21q-18 20 -18 52q0 76 94 123q66 33 148 32q272 0 323 -288q59 132 168 210t242 78t214 -81t81 -222q0 -61 -27 -147h-661q-6 -37 -7 -76
q0 -135 86 -211t221 -76z" />
    <glyph glyph-name="ccedilla" unicode="&#xe7;" horiz-adv-x="913" 
d="M365 -123q153 -15 153 -141q0 -60 -52 -103t-152 -43t-205 76l32 45q88 -57 189 -57q53 0 82 24q28 24 28 63q0 37 -38 61t-107 16l-21 18l82 160q-120 27 -192 119t-72 231q0 207 138 364t329 156q139 0 219 -68t80 -149q0 -37 -20 -61t-48 -25q-60 0 -61 60q0 47 45 63
q-45 113 -210 113q-164 0 -280 -135t-116 -316q0 -135 80 -215t220 -80t273 115l-6 -82q-135 -100 -289 -100l-40 2z" />
    <glyph glyph-name="egrave" unicode="&#xe8;" horiz-adv-x="946" 
d="M414 1240q0 30 16 46t45 16t64 -42l184 -209l-25 -27l-237 154q-47 32 -47 62zM549 799q-119 0 -221 -90t-142 -228h588q14 53 14 94q0 100 -60 162t-179 62zM166 340q0 -135 86 -211t221 -76t272 76l-18 -78q-123 -65 -275 -65t-258 95q-105 95 -106 259q0 213 140 370
t335 156q137 0 218 -81t81 -222q1 -65 -28 -147h-662q-6 -37 -6 -76z" />
    <glyph glyph-name="eacute" unicode="&#xe9;" horiz-adv-x="946" 
d="M528 1026l-16 29l295 217q65 48 104 12q16 -16 17 -39q0 -43 -62 -67zM549 799q-119 0 -221 -90t-142 -228h588q14 53 14 94q0 100 -60 162t-179 62zM166 340q0 -135 86 -211t221 -76t272 76l-18 -78q-123 -65 -275 -65t-258 95q-105 95 -106 259q0 213 140 370t335 156
q137 0 218 -81t81 -222q1 -65 -28 -147h-662q-6 -37 -6 -76z" />
    <glyph glyph-name="ecircumflex" unicode="&#xea;" horiz-adv-x="946" 
d="M369 1018l-31 41l338 258l207 -264l-37 -33l-187 176zM549 799q-119 0 -221 -90t-142 -228h588q14 53 14 94q0 100 -60 162t-179 62zM166 340q0 -135 86 -211t221 -76t272 76l-18 -78q-123 -65 -275 -65t-258 95q-105 95 -106 259q0 213 140 370t335 156q137 0 218 -81
t81 -222q1 -65 -28 -147h-662q-6 -37 -6 -76z" />
    <glyph glyph-name="edieresis" unicode="&#xeb;" horiz-adv-x="946" 
d="M779 1063q-33 -1 -55 23t-22 57t22 55t54 23q32 0 55 -23q21 -24 21 -56t-21 -56q-22 -23 -54 -23zM500 1221q32 0 54 -23q22 -24 22 -56t-22 -56q-21 -24 -53 -23q-32 -1 -55 23q-22 24 -22 57t22 55t54 23zM549 799q-119 0 -221 -90t-142 -228h588q14 53 14 94
q0 100 -60 162t-179 62zM166 340q0 -135 86 -211t221 -76t272 76l-18 -78q-123 -65 -275 -65t-258 95q-105 95 -106 259q0 213 140 370t335 156q137 0 218 -81t81 -222q1 -65 -28 -147h-662q-6 -37 -6 -76z" />
    <glyph glyph-name="igrave" unicode="&#xec;" horiz-adv-x="563" 
d="M193 1240q0 30 16 46t45 16t63 -42l185 -209l-25 -27l-237 154q-47 32 -47 62zM278 -12q-62 0 -101 36q-38 36 -38 86t21 126l157 548h-178l15 68h258l-176 -627q-20 -71 -20 -105t18 -53t54 -19t64 31q28 32 60 107l49 -14q-35 -96 -78 -140t-105 -44z" />
    <glyph glyph-name="iacute" unicode="&#xed;" horiz-adv-x="563" 
d="M278 -12q-62 0 -101 36q-38 36 -38 86t21 126l157 548h-178l15 68h258l-176 -627q-20 -71 -20 -105t18 -53t54 -19t64 31q28 32 60 107l49 -14q-35 -96 -78 -140t-105 -44zM727 1245q0 -43 -61 -67l-338 -152l-17 29l295 217q66 49 105 12q16 -16 16 -39z" />
    <glyph glyph-name="icircumflex" unicode="&#xee;" horiz-adv-x="563" 
d="M278 -12q-62 0 -101 36q-38 36 -38 86t21 126l157 548h-178l15 68h258l-176 -627q-20 -71 -20 -105t18 -53t54 -19t64 31q28 32 60 107l49 -14q-35 -96 -78 -140t-105 -44zM166 1018l-31 41l338 258l207 -264l-37 -33l-186 176z" />
    <glyph glyph-name="idieresis" unicode="&#xef;" horiz-adv-x="563" 
d="M278 -12q-62 0 -101 36q-38 36 -38 86t21 126l157 548h-178l15 68h258l-176 -627q-20 -71 -20 -105t18 -53t54 -19t64 31q28 32 60 107l49 -14q-35 -96 -78 -140t-105 -44zM298 1063q-32 -1 -54 23t-23 57q0 33 22 55q23 22 55 23q32 0 54 -23q22 -24 21 -56
q1 -32 -21 -56t-54 -23zM576 1063q-32 -1 -54 23t-22 57t22 55t54 23q32 0 54 -23q22 -24 22 -56t-22 -56q-22 -23 -54 -23z" />
    <glyph glyph-name="eth" unicode="&#xf0;" horiz-adv-x="997" 
d="M168 340q0 -129 74 -207t202 -78q127 0 240 113q125 131 125 313q0 127 -79 202q-80 75 -216 75t-241 -125t-105 -293zM440 -12q-162 0 -257 97t-95 273t129 322q129 147 311 147q115 0 197 -57t111 -162q8 82 8 131q0 279 -129 482l-273 -248l-43 49l277 252
q-109 129 -236 160q-12 -66 -69 -66q-27 0 -46 18t-19 48t23 52q24 22 84 22t149 -50q89 -49 165 -139l199 180l43 -47l-203 -184q147 -217 147 -525q0 -440 -188 -628q-123 -127 -285 -127z" />
    <glyph glyph-name="ntilde" unicode="&#xf1;" horiz-adv-x="1067" 
d="M812 1026q-66 0 -142 68t-119 69t-73 -29t-54 -96l-53 19q20 82 71 135t117 53q66 -1 143 -69t121 -68q78 0 127 125l54 -16q-20 -83 -73 -137t-119 -54zM821 -12q-63 0 -100 36t-37 86t21 126l81 270q25 80 25 146t-43 107q-43 40 -119 40q-115 0 -220 -113t-155 -297
l-96 -389h-76l197 784h-168l14 68h244l-61 -236q141 248 334 248q102 0 164 -57t62 -137t-28 -176l-80 -267q-20 -77 -20 -109t19 -51t50 -20q72 0 127 139l50 -14q-34 -96 -78 -140t-107 -44z" />
    <glyph glyph-name="ograve" unicode="&#xf2;" horiz-adv-x="1011" 
d="M442 1240q0 30 16 46t46 16q29 0 63 -42l185 -209l-25 -27l-238 154q-47 32 -47 62zM455 53q161 0 273 133t112 312q0 137 -80 219t-205 82q-161 0 -273 -134t-112 -311q0 -137 80 -219t205 -82zM451 -14q-160 0 -260 102q-99 102 -99 266q0 203 135 358t332 154
q160 0 259 -102t100 -266q0 -204 -135 -358t-332 -154z" />
    <glyph glyph-name="oacute" unicode="&#xf3;" horiz-adv-x="1011" 
d="M455 53q161 0 273 133t112 312q0 137 -80 219t-205 82q-161 0 -273 -134t-112 -311q0 -137 80 -219t205 -82zM451 -14q-160 0 -260 102q-99 102 -99 266q0 203 135 358t332 154q160 0 259 -102t100 -266q0 -204 -135 -358t-332 -154zM958 1245q0 -43 -61 -67l-338 -152
l-16 29l295 217q65 48 104 12q16 -16 16 -39z" />
    <glyph glyph-name="ocircumflex" unicode="&#xf4;" horiz-adv-x="1011" 
d="M455 53q161 0 273 133t112 312q0 137 -80 219t-205 82q-161 0 -273 -134t-112 -311q0 -137 80 -219t205 -82zM451 -14q-160 0 -260 102q-99 102 -99 266q0 203 135 358t332 154q160 0 259 -102t100 -266q0 -204 -135 -358t-332 -154zM399 1018l-30 41l338 258l206 -264
l-36 -33l-187 176z" />
    <glyph glyph-name="otilde" unicode="&#xf5;" horiz-adv-x="1011" 
d="M788 1026q-66 0 -142 68q-77 68 -120 69q-42 1 -72 -29t-55 -96l-53 19q20 82 72 135t116 53q66 -1 143 -69t122 -68q78 0 127 125l53 -16q-21 -83 -73 -137t-118 -54zM455 53q161 0 273 133t112 312q0 137 -80 219t-205 82q-161 0 -273 -134t-112 -311q0 -137 80 -219
t205 -82zM451 -14q-160 0 -260 102q-99 102 -99 266q0 203 135 358t332 154q160 0 259 -102t100 -266q0 -204 -135 -358t-332 -154z" />
    <glyph glyph-name="odieresis" unicode="&#xf6;" horiz-adv-x="1011" 
d="M455 53q161 0 273 133t112 312q0 137 -80 219t-205 82q-161 0 -273 -134t-112 -311q0 -137 80 -219t205 -82zM451 -14q-160 0 -260 102q-99 102 -99 266q0 203 135 358t332 154q160 0 259 -102t100 -266q0 -204 -135 -358t-332 -154zM531 1063q-33 -1 -55 23t-22 57
t22 55t54 23q32 0 55 -23q21 -24 21 -56t-21 -56q-22 -23 -54 -23zM810 1063q-32 -1 -54 23t-23 57q0 33 22 55q23 22 55 23q32 0 54 -23q22 -24 21 -56q1 -32 -21 -56t-54 -23z" />
    <glyph glyph-name="divide" unicode="&#xf7;" horiz-adv-x="802" 
d="M436 285q0 -29 -20 -51t-48 -21q-28 0 -49 21q-20 22 -20 51t20 49q19 20 49 20t49 -20t19 -49zM487 725q-29 0 -49 20q-20 19 -20 49t20 52t48 20q28 0 49 -21q20 -23 20 -51t-19 -49q-20 -20 -49 -20zM106 504l17 71h627l-17 -71h-627z" />
    <glyph glyph-name="oslash" unicode="&#xf8;" horiz-adv-x="1011" 
d="M470 53q152 0 264 132t112 313q0 80 -29 147l-577 -498q78 -94 230 -94zM174 354q0 -86 33 -155l577 499q-82 100 -234 100t-264 -132t-112 -312zM472 -14q-184 0 -286 114l-133 -114l-43 51l137 117q-51 90 -51 202q0 203 134 357t333 153q170 0 275 -121l135 119
l45 -51l-144 -121q49 -88 50 -196q0 -202 -134 -356t-318 -154z" />
    <glyph glyph-name="ugrave" unicode="&#xf9;" horiz-adv-x="1069" 
d="M731 1024l-237 154q-48 32 -48 62t16 46t46 16q29 0 63 -42l185 -209zM379 53q115 0 221 114t152 296l96 389h78l-158 -631q-18 -67 -18 -101t19 -53t53 -19t63 31q29 32 61 107l49 -14q-37 -96 -79 -140t-103 -44t-97 35t-36 82t18 128q-139 -246 -329 -245
q-98 0 -160 55q-61 55 -62 147q0 51 25 152l113 442h-168l16 68h244l-131 -518q-20 -82 -20 -142t40 -100q41 -40 113 -39z" />
    <glyph glyph-name="uacute" unicode="&#xfa;" horiz-adv-x="1069" 
d="M563 1026l-16 29l295 217q65 48 104 12q16 -16 17 -39q0 -43 -62 -67zM379 53q115 0 221 114t152 296l96 389h78l-158 -631q-18 -67 -18 -101t19 -53t53 -19t63 31q29 32 61 107l49 -14q-37 -96 -79 -140t-103 -44t-97 35t-36 82t18 128q-139 -246 -329 -245
q-98 0 -160 55q-61 55 -62 147q0 51 25 152l113 442h-168l16 68h244l-131 -518q-20 -82 -20 -142t40 -100q41 -40 113 -39z" />
    <glyph glyph-name="ucircumflex" unicode="&#xfb;" horiz-adv-x="1069" 
d="M403 1018l-30 41l338 258l207 -264l-37 -33l-187 176zM379 53q115 0 221 114t152 296l96 389h78l-158 -631q-18 -67 -18 -101t19 -53t53 -19t63 31q29 32 61 107l49 -14q-37 -96 -79 -140t-103 -44t-97 35t-36 82t18 128q-139 -246 -329 -245q-98 0 -160 55
q-61 55 -62 147q0 51 25 152l113 442h-168l16 68h244l-131 -518q-20 -82 -20 -142t40 -100q41 -40 113 -39z" />
    <glyph glyph-name="udieresis" unicode="&#xfc;" horiz-adv-x="1069" 
d="M814 1063q-32 -1 -54 23t-23 57q0 33 22 55q23 22 55 23q32 0 54 -23q22 -24 21 -56q1 -32 -21 -56t-54 -23zM535 1221q33 0 55 -23q22 -24 20 -56q0 -32 -21 -56t-53 -23q-32 -1 -55 23t-23 57t22 55t55 23zM379 53q115 0 221 114t152 296l96 389h78l-158 -631
q-18 -67 -18 -101t19 -53t53 -19t63 31q29 32 61 107l49 -14q-37 -96 -79 -140t-103 -44t-97 35t-36 82t18 128q-139 -246 -329 -245q-98 0 -160 55q-61 55 -62 147q0 51 25 152l113 442h-168l16 68h244l-131 -518q-20 -82 -20 -142t40 -100q41 -40 113 -39z" />
    <glyph glyph-name="yacute" unicode="&#xfd;" horiz-adv-x="956" 
d="M526 1026l-16 29l295 217q65 48 104 12q16 -16 17 -39q0 -43 -62 -67zM-47 -408q-43 0 -73 24t-30 56t18 52t50 20q31 0 50 -23t20 -59q121 10 387 334l-154 788h-164l17 68h217l141 -784q350 444 383 647q-31 7 -53 29t-23 52q1 30 21 50t53 20t57 -26t23 -74
q0 -223 -440 -770q-182 -224 -298 -314t-202 -90z" />
    <glyph glyph-name="thorn" unicode="&#xfe;" horiz-adv-x="1054" 
d="M510 53q158 0 262 136t104 294t-66 237q-67 79 -185 79q-156 0 -271 -150t-114 -315q0 -125 74 -203t196 -78zM958 508q0 -213 -130 -368t-316 -154q-113 0 -197 61t-108 168l-127 -549h182l-14 -67h-389l16 67h127l414 1766h-168l14 67h248l-193 -825q125 193 320 192
q141 0 231 -97t90 -261z" />
    <glyph glyph-name="ydieresis" unicode="&#xff;" horiz-adv-x="956" 
d="M777 1063q-33 -1 -55 23t-22 57t22 55t54 23q32 0 54 -23q22 -24 22 -56t-22 -56t-53 -23zM498 1221q32 0 54 -23q22 -24 22 -56t-22 -56q-21 -24 -53 -23q-32 -1 -55 23q-22 24 -22 57t22 55t54 23zM-47 -408q-43 0 -73 24t-30 56t18 52t50 20q31 0 50 -23t20 -59
q121 10 387 334l-154 788h-164l17 68h217l141 -784q350 444 383 647q-31 7 -53 29t-23 52q1 30 21 50t53 20t57 -26t23 -74q0 -223 -440 -770q-182 -224 -298 -314t-202 -90z" />
    <glyph glyph-name="Amacron" unicode="&#x100;" horiz-adv-x="1427" 
d="M676 1536l16 76h574l-17 -76h-573zM483 571h525l-99 711zM-45 0l18 72h121l725 1204h-176l19 72h514l-17 -72h-170l170 -1204h144l-17 -72h-399l16 72h172l-57 426h-580l-254 -426h193l-19 -72h-403z" />
    <glyph glyph-name="amacron" unicode="&#x101;" horiz-adv-x="1110" 
d="M379 1094l16 75h574l-17 -75h-573zM416 53q164 0 274 151t109 318q0 123 -69 200t-185 77q-158 1 -264 -141t-107 -324q0 -131 64 -206t178 -75zM401 -14q-135 0 -221 92t-86 252q0 215 130 376t319 160q115 0 193 -64t95 -177l58 231h76l-156 -635q-18 -83 -18 -109
t19 -45t53 -19t63 31q29 32 61 107l47 -14q-35 -96 -77 -140t-103 -44t-98 36t-37 81t8 75q-133 -194 -326 -194z" />
    <glyph glyph-name="Abreve" unicode="&#x102;" horiz-adv-x="1427" 
d="M956 1470q-98 0 -159 64t-80 166l57 20q39 -164 196 -164t255 162l51 -28q-50 -96 -136 -158t-184 -62zM483 571h525l-99 711zM-45 0l18 72h121l725 1204h-176l19 72h514l-17 -72h-170l170 -1204h144l-17 -72h-399l16 72h172l-57 426h-580l-254 -426h193l-19 -72h-403z
" />
    <glyph glyph-name="abreve" unicode="&#x103;" horiz-adv-x="1110" 
d="M660 1028q-98 0 -160 64t-80 165l57 21q39 -164 196 -164t255 162l51 -29q-49 -95 -135 -157t-184 -62zM416 53q164 0 274 151t109 318q0 123 -69 200t-185 77q-158 1 -264 -141t-107 -324q0 -131 64 -206t178 -75zM401 -14q-135 0 -221 92t-86 252q0 215 130 376
t319 160q115 0 193 -64t95 -177l58 231h76l-156 -635q-18 -83 -18 -109t19 -45t53 -19t63 31q29 32 61 107l47 -14q-35 -96 -77 -140t-103 -44t-98 36t-37 81t8 75q-133 -194 -326 -194z" />
    <glyph glyph-name="Aogonek" unicode="&#x104;" horiz-adv-x="1427" 
d="M483 571h525l-99 711zM1064 -344q50 0 99 16l-16 -63q-51 -23 -115 -23t-106 38t-41 106q0 133 184 270h-182l16 72h172l-57 426h-580l-254 -426h193l-19 -72h-403l18 72h121l725 1204h-176l19 72h514l-17 -72h-170l170 -1204h144l-17 -72h-143q-184 -135 -185 -250
q0 -46 28 -70t78 -24z" />
    <glyph glyph-name="aogonek" unicode="&#x105;" horiz-adv-x="1110" 
d="M416 53q164 0 274 151t109 318q0 123 -69 200t-185 77q-158 1 -264 -141t-107 -324q0 -131 64 -206t178 -75zM735 -250q0 -94 103 -94q51 0 100 16l-14 -63q-57 -23 -119 -23t-103 39t-40 105q0 133 178 258q-55 4 -88 39t-33 78t8 77q-131 -197 -326 -196
q-135 0 -221 92t-86 252q0 215 130 376t319 160q115 0 193 -64t95 -175l58 229h76l-156 -635q-18 -83 -18 -109t19 -45t53 -19q35 0 63 30q28 32 61 108l47 -14q-35 -98 -86 -147q-18 -15 -65 -57t-73 -68t-50 -67q-24 -42 -25 -83z" />
    <glyph glyph-name="Cacute" unicode="&#x106;" horiz-adv-x="1376" 
d="M732 -23q-268 0 -422 160q-155 160 -154 426q0 201 97 386t271 302t382 117t330 -102t122 -213q0 -49 -24 -78t-58 -29t-53 18q-20 18 -21 50q0 57 62 82q-14 74 -112 136t-270 62q-173 0 -328 -112q-156 -112 -234 -277q-78 -164 -78 -336q0 -233 130 -375t364 -142
t440 196l47 -53q-223 -218 -491 -218zM1208 1743q24 -1 40 -17t18 -38q0 -43 -62 -68l-338 -152l-16 29l295 217q39 29 63 29z" />
    <glyph glyph-name="cacute" unicode="&#x107;" horiz-adv-x="913" 
d="M447 -14q-153 0 -253 97t-102 263q0 207 138 364t329 156q139 0 219 -68t80 -149q0 -37 -20 -61t-48 -25q-60 0 -61 60q0 47 45 63q-45 113 -210 113q-164 0 -280 -135t-116 -316q0 -135 80 -215t220 -80t273 115l-6 -82q-135 -100 -288 -100zM944 1245q0 -43 -61 -67
l-338 -152l-17 29l295 217q66 49 105 12q16 -16 16 -39z" />
    <glyph glyph-name="Cdotaccent" unicode="&#x10a;" horiz-adv-x="1376" 
d="M1057 1589q1 -35 -23 -59t-58 -23q-34 0 -58 24q-24 25 -23 59q0 34 24 59q23 25 57 25t58 -26q24 -24 23 -59zM732 -23q-268 0 -422 160q-155 160 -154 426q0 201 97 386t271 302t382 117t330 -102t122 -213q0 -49 -24 -78t-58 -29t-53 18q-20 18 -21 50q0 57 62 82
q-14 74 -112 136t-270 62q-173 0 -328 -112q-156 -112 -234 -277q-78 -164 -78 -336q0 -233 130 -375t364 -142t440 196l47 -53q-223 -218 -491 -218z" />
    <glyph glyph-name="cdotaccent" unicode="&#x10b;" horiz-adv-x="913" 
d="M656 1065q-34 0 -58 24q-24 25 -23 59q0 34 24 58q23 24 57 25q34 0 58 -25q24 -26 24 -60t-24 -58t-58 -23zM447 -14q-153 0 -253 97t-102 263q0 207 138 364t329 156q139 0 219 -68t80 -149q0 -37 -20 -61t-48 -25q-60 0 -61 60q0 47 45 63q-45 113 -210 113
q-164 0 -280 -135t-116 -316q0 -135 80 -215t220 -80t273 115l-6 -82q-135 -100 -288 -100z" />
    <glyph glyph-name="Ccaron" unicode="&#x10c;" horiz-adv-x="1376" 
d="M732 -23q-268 0 -422 160q-155 160 -154 426q0 201 97 386t271 302t382 117t330 -102t122 -213q0 -49 -24 -78t-58 -29t-53 18q-20 18 -21 50q0 57 62 82q-14 74 -112 136t-270 62q-173 0 -328 -112q-156 -112 -234 -277q-78 -164 -78 -336q0 -233 130 -375t364 -142
t440 196l47 -53q-223 -218 -491 -218zM946 1466l-207 265l35 32l187 -178l292 180l31 -43z" />
    <glyph glyph-name="ccaron" unicode="&#x10d;" horiz-adv-x="913" 
d="M447 -14q-153 0 -253 97t-102 263q0 207 138 364t329 156q139 0 219 -68t80 -149q0 -37 -20 -61t-48 -25q-60 0 -61 60q0 47 45 63q-45 113 -210 113q-164 0 -280 -135t-116 -316q0 -135 80 -215t220 -80t273 115l-6 -82q-135 -100 -288 -100zM627 1024l-207 264l35 33
l186 -178l293 180l31 -43z" />
    <glyph glyph-name="Dcaron" unicode="&#x10e;" horiz-adv-x="1427" 
d="M469 72q403 0 627 223q199 203 198 496q0 205 -120 325q-160 160 -469 160h-140l-278 -1204h182zM713 1348q346 0 526 -183q141 -137 141 -370q0 -324 -215 -543q-252 -252 -708 -252h-449l19 72h176l278 1204h-198l18 72h412zM872 1466l-206 265l34 32l187 -178l293 180
l30 -43z" />
    <glyph glyph-name="dcaron" unicode="&#x10f;" horiz-adv-x="1122" 
d="M1291 1497q52 1 52 -59t-53 -151t-155 -181l-23 24q86 102 105 179q8 27 11 73t5 56q6 59 58 59zM428 53q162 1 272 147t109 294q0 148 -72 227q-72 78 -192 78q-162 -1 -265 -139t-104 -318q0 -133 66 -211t186 -78zM805 119q0 -70 69 -72q37 0 66 32t59 107l50 -14
q-33 -96 -76 -140t-105 -44t-98 37q-37 37 -37 80t6 75q-133 -195 -323 -194q-143 0 -232 95q-88 95 -88 259q0 215 128 371t315 155q117 0 199 -64t102 -175l186 805h-168l14 67h248l-297 -1272q-18 -82 -18 -108z" />
    <glyph glyph-name="Dcroat" unicode="&#x110;" horiz-adv-x="1433" 
d="M469 72q403 0 627 223q199 203 198 496q0 205 -120 325q-160 160 -469 160h-140l-127 -549h299l-16 -74h-301l-133 -581h182zM713 1348q346 0 526 -183q141 -137 141 -370q0 -324 -215 -543q-252 -252 -708 -252h-449l19 72h176l133 581h-168l18 74h168l127 549h-198
l18 72h412z" />
    <glyph glyph-name="dcroat" unicode="&#x111;" horiz-adv-x="1122" 
d="M428 53q162 1 272 147t109 294q0 148 -72 227q-72 78 -192 78q-162 -1 -265 -139t-104 -318q0 -133 66 -211t186 -78zM805 119q0 -70 69 -72q37 0 66 32t59 107l50 -14q-33 -96 -76 -140t-105 -44t-98 37q-37 37 -37 80t6 75q-133 -195 -323 -194q-143 0 -232 95
q-88 95 -88 259q0 215 128 371t315 155q117 0 199 -64t102 -175l112 487h-331l14 68h332l59 250h-168l14 67h248l-76 -317h158l-14 -68h-158l-207 -887q-18 -82 -18 -108z" />
    <glyph glyph-name="Emacron" unicode="&#x112;" horiz-adv-x="1173" 
d="M541 1536l16 76h573l-16 -76h-573zM8 0l19 72h176l278 1204h-198l18 72h944l-69 -295h-80l51 223h-582l-127 -551h465l-16 -74h-465l-135 -579h581l52 223h81l-67 -295h-926z" />
    <glyph glyph-name="emacron" unicode="&#x113;" horiz-adv-x="946" 
d="M344 1094l16 75h574l-16 -75h-574zM549 799q-119 0 -221 -90t-142 -228h588q14 53 14 94q0 100 -60 162t-179 62zM166 340q0 -135 86 -211t221 -76t272 76l-18 -78q-123 -65 -275 -65t-258 95q-105 95 -106 259q0 213 140 370t335 156q137 0 218 -81t81 -222
q1 -65 -28 -147h-662q-6 -37 -6 -76z" />
    <glyph glyph-name="Ebreve" unicode="&#x114;" horiz-adv-x="1173" 
d="M821 1470q-98 0 -159 64t-80 166l57 20q39 -164 196 -164t255 162l51 -28q-49 -96 -135 -158t-185 -62zM8 0l19 72h176l278 1204h-198l18 72h944l-69 -295h-80l51 223h-582l-127 -551h465l-16 -74h-465l-135 -579h581l52 223h81l-67 -295h-926z" />
    <glyph glyph-name="ebreve" unicode="&#x115;" horiz-adv-x="946" 
d="M623 1028q-97 0 -159 64t-81 165l57 21q39 -164 196 -164t255 162l51 -29q-49 -95 -135 -157t-184 -62zM549 799q-119 0 -221 -90t-142 -228h588q14 53 14 94q0 100 -60 162t-179 62zM166 340q0 -135 86 -211t221 -76t272 76l-18 -78q-123 -65 -275 -65t-258 95
q-105 95 -106 259q0 213 140 370t335 156q137 0 218 -81t81 -222q1 -65 -28 -147h-662q-6 -37 -6 -76z" />
    <glyph glyph-name="Edotaccent" unicode="&#x116;" horiz-adv-x="1173" 
d="M922 1589q0 -35 -24 -59t-57 -23q-34 0 -58 24q-23 25 -23 59t23 59q24 25 58 25q33 0 57 -26q24 -24 24 -59zM8 0l19 72h176l278 1204h-198l18 72h944l-69 -295h-80l51 223h-582l-127 -551h465l-16 -74h-465l-135 -579h581l52 223h81l-67 -295h-926z" />
    <glyph glyph-name="edotaccent" unicode="&#x117;" horiz-adv-x="946" 
d="M642 1065q-34 0 -58 24q-24 25 -23 59q0 34 24 58q23 24 57 25q34 0 58 -25q24 -26 23 -60q1 -34 -23 -58t-58 -23zM549 799q-119 0 -221 -90t-142 -228h588q14 53 14 94q0 100 -60 162t-179 62zM166 340q0 -135 86 -211t221 -76t272 76l-18 -78q-123 -65 -275 -65
t-258 95q-105 95 -106 259q0 213 140 370t335 156q137 0 218 -81t81 -222q1 -65 -28 -147h-662q-6 -37 -6 -76z" />
    <glyph glyph-name="Eogonek" unicode="&#x118;" horiz-adv-x="1173" 
d="M670 -250q0 -46 28 -70t77 -24q50 0 99 16l-16 -63q-50 -23 -114 -23t-106 38t-42 106q0 133 184 270h-772l19 72h176l278 1204h-198l18 72h944l-69 -295h-80l51 223h-582l-127 -551h465l-16 -74h-465l-135 -579h581l52 223h81l-67 -295h-80q-184 -135 -184 -250z" />
    <glyph glyph-name="eogonek" unicode="&#x119;" horiz-adv-x="946" 
d="M549 799q-119 0 -221 -90t-142 -228h588q14 53 14 94q0 100 -60 162t-179 62zM530 -414q-60 0 -103 38q-42 38 -42 106q0 147 184 268q-53 -12 -114 -12q-156 0 -261 95t-106 259q0 213 140 370t335 156q137 0 218 -81t81 -222q0 -66 -28 -147h-662q-6 -37 -6 -76
q0 -135 86 -211t221 -76t272 76l-18 -78q-268 -156 -268 -301q-1 -46 27 -70t77 -24t99 16l-15 -63q-57 -23 -117 -23z" />
    <glyph glyph-name="Ecaron" unicode="&#x11a;" horiz-adv-x="1173" 
d="M8 0l19 72h176l278 1204h-198l18 72h944l-69 -295h-80l51 223h-582l-127 -551h465l-16 -74h-465l-135 -579h581l52 223h81l-67 -295h-926zM809 1466l-207 265l35 32l186 -178l293 180l31 -43z" />
    <glyph glyph-name="ecaron" unicode="&#x11b;" horiz-adv-x="946" 
d="M610 1024l-207 264l35 33l187 -178l293 180l30 -43zM549 799q-119 0 -221 -90t-142 -228h588q14 53 14 94q0 100 -60 162t-179 62zM166 340q0 -135 86 -211t221 -76t272 76l-18 -78q-123 -65 -275 -65t-258 95q-105 95 -106 259q0 213 140 370t335 156q137 0 218 -81
t81 -222q1 -65 -28 -147h-662q-6 -37 -6 -76z" />
    <glyph glyph-name="Gbreve" unicode="&#x11e;" horiz-adv-x="1437" 
d="M969 1470q-97 0 -159 64t-81 166l57 20q39 -164 196 -164t255 162l51 -28q-49 -96 -135 -158t-184 -62zM154 506q0 227 98 420q98 194 280 318t402 124q119 0 219 -39t167 -105t66 -151q0 -45 -26 -73t-58 -28t-53 20q-20 19 -20 50q0 55 65 82q-8 29 -49 70
q-119 100 -295 100t-308 -70q-245 -129 -353 -426q-49 -136 -49 -274q0 -207 120 -340t346 -133t429 162l82 334h-414l16 71h494l-150 -618h-80l31 125q-196 -147 -434 -147t-382 150q-144 151 -144 378z" />
    <glyph glyph-name="gbreve" unicode="&#x11f;" horiz-adv-x="1046" 
d="M668 1028q-98 0 -160 64t-80 165l57 21q39 -164 196 -164t255 162l51 -29q-49 -95 -135 -157t-184 -62zM434 66q162 0 271 146t108 312q0 123 -73 199t-193 76q-160 0 -265 -135t-106 -310q0 -132 70 -210t188 -78zM342 -410q-78 0 -154 27t-112 65t-37 76q0 38 18 61
q18 21 48 21t50 -21q19 -21 19 -51t-24 -53q60 -59 204 -59t226 82t120 254l50 205q-56 -91 -142 -145t-186 -54q-143 0 -235 96q-91 96 -91 258q0 207 130 361t319 153q123 0 203 -68t98 -177q47 211 55 233h76l-203 -872q-43 -190 -133 -285q-106 -107 -299 -107z" />
    <glyph glyph-name="Gdotaccent" unicode="&#x120;" horiz-adv-x="1437" 
d="M1067 1589q1 -35 -23 -59t-58 -23q-34 0 -58 24q-24 25 -23 59q0 34 24 59q23 25 57 25t58 -26q24 -24 23 -59zM154 506q0 227 98 420q98 194 280 318t402 124q119 0 219 -39t167 -105t66 -151q0 -45 -26 -73t-58 -28t-53 20q-20 19 -20 50q0 55 65 82q-8 29 -49 70
q-119 100 -295 100t-308 -70q-245 -129 -353 -426q-49 -136 -49 -274q0 -207 120 -340t346 -133t429 162l82 334h-414l16 71h494l-150 -618h-80l31 125q-196 -147 -434 -147t-382 150q-144 151 -144 378z" />
    <glyph glyph-name="gdotaccent" unicode="&#x121;" horiz-adv-x="1046" 
d="M685 1065q-33 0 -57 24q-24 25 -24 59t24 58t58 25q34 0 56 -25q24 -26 24 -60t-24 -58t-57 -23zM434 66q162 0 271 146t108 312q0 123 -73 199t-193 76q-160 0 -265 -135t-106 -310q0 -132 70 -210t188 -78zM342 -410q-78 0 -154 27t-112 65t-37 76q0 38 18 61
q18 21 48 21t50 -21q19 -21 19 -51t-24 -53q60 -59 204 -59t226 82t120 254l50 205q-56 -91 -142 -145t-186 -54q-143 0 -235 96q-91 96 -91 258q0 207 130 361t319 153q123 0 203 -68t98 -177q47 211 55 233h76l-203 -872q-43 -190 -133 -285q-106 -107 -299 -107z" />
    <glyph glyph-name="Gcommaaccent" unicode="&#x122;" horiz-adv-x="1437" 
d="M598 -121q32 1 56 -25t24 -67q0 -80 -70 -161t-188 -126l-14 33q80 39 129 94t57 105q-31 4 -49 26q-19 22 -19 52q0 28 20 48t54 21zM154 506q0 227 98 420q98 194 280 318t402 124q119 0 219 -39t167 -105t66 -151q0 -45 -26 -73t-58 -28t-53 20q-20 19 -20 50
q0 55 65 82q-8 29 -49 70q-119 100 -295 100t-308 -70q-245 -129 -353 -426q-49 -136 -49 -274q0 -207 120 -340t346 -133t429 162l82 334h-414l16 71h494l-150 -618h-80l31 125q-196 -147 -434 -147t-382 150q-144 151 -144 378z" />
    <glyph glyph-name="gcommaaccent" unicode="&#x123;" horiz-adv-x="1048" 
d="M602 1176q0 80 70 160t188 126l14 -32q-80 -38 -129 -94t-57 -105q31 -4 49 -27q19 -24 19 -52t-20 -48t-54 -20q-32 0 -56 25q-24 26 -24 67zM434 66q162 0 271 146t108 312q0 123 -73 199t-193 76q-160 0 -265 -135t-106 -310q0 -132 70 -210t188 -78zM342 -410
q-78 0 -154 27t-112 65t-37 76q0 38 18 61q18 21 48 21t50 -21q19 -21 19 -51t-24 -53q60 -59 204 -59t226 82t120 254l50 205q-56 -91 -142 -145t-186 -54q-143 0 -235 96q-91 96 -91 258q0 207 130 361t319 153q123 0 203 -68t98 -177q47 211 55 233h76l-203 -872
q-43 -190 -133 -285q-106 -107 -299 -107z" />
    <glyph glyph-name="Hbar" unicode="&#x126;" horiz-adv-x="1548" 
d="M440 731h811l54 242h-809zM1559 1044l-17 -71h-153l-207 -901h196l-18 -72h-459l19 72h178l135 585h-811l-135 -585h198l-16 -72h-461l19 72h176l209 901h-154l16 71h154l53 232h-198l18 72h461l-17 -72h-180l-53 -232h809l53 232h-200l18 72h461l-17 -72h-178l-53 -232
h154z" />
    <glyph glyph-name="hbar" unicode="&#x127;" horiz-adv-x="1048" 
d="M627 864q104 0 170 -58q67 -58 67 -140t-26 -172l-76 -269q-20 -75 -20 -107t18 -51q20 -19 55 -19t64 31q29 32 59 107l49 -14q-35 -96 -77 -140t-105 -44t-102 36q-37 36 -37 85t20 127l76 270q55 183 -23 253q-45 40 -118 40q-119 0 -225 -115t-148 -299l-90 -385h-78
l260 1114h-158l17 68h155l60 250h-168l14 67h248l-76 -317h334l-16 -68h-334l-113 -481q133 231 324 231z" />
    <glyph glyph-name="Imacron" unicode="&#x12a;" horiz-adv-x="675" 
d="M309 1536l17 76h573l-16 -76h-574zM2 0l18 72h195l277 1204h-197l18 72h475l-16 -72h-197l-276 -1204h197l-19 -72h-475z" />
    <glyph glyph-name="imacron" unicode="&#x12b;" horiz-adv-x="563" 
d="M141 1094l17 75h573l-16 -75h-574zM278 -12q-62 0 -101 36q-38 36 -38 86t21 126l157 548h-178l15 68h258l-176 -627q-20 -71 -20 -105t18 -53t54 -19t64 31q28 32 60 107l49 -14q-35 -96 -78 -140t-105 -44z" />
    <glyph glyph-name="Ibreve" unicode="&#x12c;" horiz-adv-x="675" 
d="M590 1470q-98 0 -160 64t-80 166l58 20q40 -164 196 -164t254 162l51 -28q-49 -96 -135 -158t-184 -62zM2 0l18 72h195l277 1204h-197l18 72h475l-16 -72h-197l-276 -1204h197l-19 -72h-475z" />
    <glyph glyph-name="ibreve" unicode="&#x12d;" horiz-adv-x="563" 
d="M422 1028q-98 0 -160 64t-80 165l58 21q40 -164 196 -164t254 162l51 -29q-49 -95 -135 -157t-184 -62zM278 -12q-62 0 -101 36q-38 36 -38 86t21 126l157 548h-178l15 68h258l-176 -627q-20 -71 -20 -105t18 -53t54 -19t64 31q28 32 60 107l49 -14q-35 -96 -78 -140
t-105 -44z" />
    <glyph glyph-name="Iogonek" unicode="&#x12e;" horiz-adv-x="675" 
d="M202 -344q50 0 99 16l-16 -63q-51 -23 -115 -23t-106 38t-41 106q0 133 184 270h-205l18 72h195l277 1204h-197l18 72h475l-16 -72h-197l-276 -1204h197l-19 -72h-196q-184 -135 -185 -250q0 -46 28 -70t78 -24z" />
    <glyph glyph-name="iogonek" unicode="&#x12f;" horiz-adv-x="563" 
d="M403 1063q-27 0 -47 20q-20 19 -20 49t20 50t47 20t47 -20t21 -49q0 -29 -20 -50q-21 -20 -48 -20zM266 -344q51 0 96 16l-14 -63q-58 -23 -118 -23t-102 38t-42 106q0 133 178 258q-57 4 -91 39t-34 84t21 125l157 548h-178l15 68h258l-176 -627q-20 -72 -21 -106
q0 -72 71 -72t126 139l49 -14q-37 -98 -88 -145q-19 -19 -65 -59t-74 -66t-52 -69q-24 -42 -22 -85q0 -44 28 -68t78 -24z" />
    <glyph glyph-name="Idotaccent" unicode="&#x130;" horiz-adv-x="675" 
d="M609 1507q-33 0 -57 24q-24 25 -24 59t24 59t58 25t57 -26q23 -24 23 -59t-24 -59t-57 -23zM2 0l18 72h195l277 1204h-197l18 72h475l-16 -72h-197l-276 -1204h197l-19 -72h-475z" />
    <glyph glyph-name="dotlessi" unicode="&#x131;" horiz-adv-x="563" 
d="M278 -12q-62 0 -101 36q-38 36 -38 86t21 126l157 548h-178l15 68h258l-176 -627q-20 -71 -20 -105t18 -53t54 -19t64 31q28 32 60 107l49 -14q-35 -96 -78 -140t-105 -44z" />
    <glyph glyph-name="Kcommaaccent" unicode="&#x136;" horiz-adv-x="1308" 
d="M551 -121q33 1 57 -25t23 -67q1 -80 -69 -161t-189 -126l-15 33q80 39 129 94t58 105q-31 4 -49 26t-18 52q0 28 20 48t53 21zM1290 1276l-598 -510l336 -694h184l-16 -72h-225l-344 713l-240 -207l-100 -434h198l-16 -72h-461l19 72h176l278 1204h-198l18 72h461
l-17 -72h-180l-155 -670l778 670h-203l16 72h461l-16 -72h-156z" />
    <glyph glyph-name="kcommaaccent" unicode="&#x137;" horiz-adv-x="919" 
d="M238 -190q0 28 20 48t53 21t57 -25t23 -67q1 -80 -69 -161t-189 -126l-14 33q80 39 129 94t57 105q-31 4 -49 26q-18 24 -18 52zM700 786q0 40 20 60t51 20q30 0 50 -22t21 -60q0 -139 -379 -340l100 -247q39 -94 63 -121t58 -27q66 0 109 164l51 -16q-27 -111 -68 -160
t-101 -49q-61 0 -101 43t-76 133l-103 250q-45 -23 -157 -74l-80 -340h-78l334 1432h-168l14 67h246l-254 -1091q197 86 331 175t160 142q-43 21 -43 61z" />
    <glyph glyph-name="Lacute" unicode="&#x139;" horiz-adv-x="1087" 
d="M8 0l19 72h176l278 1204h-198l18 72h465l-16 -72h-185l-278 -1204h532l53 235h82l-71 -307h-875zM938 1702q0 -43 -61 -68l-338 -151l-17 28l295 218q66 49 105 12q16 -16 16 -39z" />
    <glyph glyph-name="lacute" unicode="&#x13a;" horiz-adv-x="518" 
d="M256 -12q-59 0 -98 37t-39 82t18 129l279 1196h-166l14 67h244l-295 -1270q-18 -81 -18 -111t19 -50t50 -21q72 0 127 139l47 -14q-61 -184 -182 -184zM776 1864q24 0 40 -16t18 -40q0 -43 -62 -67l-338 -152l-16 29l295 217q39 29 63 29z" />
    <glyph glyph-name="Lcommaaccent" unicode="&#x13b;" horiz-adv-x="1087" 
d="M8 0l19 72h176l278 1204h-198l18 72h465l-16 -72h-185l-278 -1204h532l53 235h82l-71 -307h-875zM428 -121q32 1 56 -25t24 -67q0 -80 -70 -161t-188 -126l-14 33q80 39 129 94t57 105q-31 4 -49 26q-19 22 -19 52q0 28 20 48t54 21z" />
    <glyph glyph-name="lcommaaccent" unicode="&#x13c;" horiz-adv-x="518" 
d="M256 -12q-59 0 -98 37t-39 82t18 129l279 1196h-166l14 67h244l-295 -1270q-18 -81 -18 -111t19 -50t50 -21q72 0 127 139l47 -14q-61 -184 -182 -184zM125 -190q0 28 20 48q19 20 53 21t58 -25t23 -67q0 -80 -70 -161t-189 -126l-14 33q80 39 129 94t58 105
q-31 4 -50 26q-18 24 -18 52z" />
    <glyph glyph-name="Lcaron" unicode="&#x13d;" horiz-adv-x="1087" 
d="M8 0l19 72h176l278 1204h-198l18 72h465l-16 -72h-185l-278 -1204h532l53 235h82l-71 -307h-875zM1028 1288q0 -60 -54 -151t-155 -181l-22 25q86 102 104 178q8 27 11 74t6 55q6 59 59 60q51 0 51 -60z" />
    <glyph glyph-name="lcaron" unicode="&#x13e;" horiz-adv-x="518" 
d="M256 -12q-59 0 -98 37t-39 82t18 129l279 1196h-166l14 67h244l-295 -1270q-18 -81 -18 -111t19 -50t50 -21q72 0 127 139l47 -14q-61 -184 -182 -184zM679 1497q52 1 52 -59q1 -60 -53 -151t-156 -181l-22 24q86 102 104 179q8 27 11 73t6 56q6 59 58 59z" />
    <glyph glyph-name="Ldot" unicode="&#x13f;" horiz-adv-x="1087" 
d="M864 715q0 35 24 59t58 25q34 0 56 -25q24 -26 24 -60t-24 -58t-57 -23q-33 -1 -57 23t-24 59zM8 0l19 72h176l278 1204h-198l18 72h465l-16 -72h-185l-278 -1204h532l53 235h82l-71 -307h-875z" />
    <glyph glyph-name="ldot" unicode="&#x140;" horiz-adv-x="591" 
d="M583 791q33 0 57 -25q24 -26 24 -60t-24 -58t-57 -23q-34 -1 -58 23t-23 59q0 35 24 59t57 25zM256 -12q-59 0 -98 37t-39 82t18 129l279 1196h-166l14 67h244l-295 -1270q-18 -81 -18 -111t19 -50t50 -21q72 0 127 139l47 -14q-61 -184 -182 -184z" />
    <glyph glyph-name="Lslash" unicode="&#x141;" horiz-adv-x="1093" 
d="M8 0l19 72h176l123 530l-213 -74l-25 66l256 88l137 594h-198l18 72h465l-16 -72h-185l-131 -563l283 98l22 -66l-323 -112l-129 -561h532l53 235h82l-71 -307h-875z" />
    <glyph glyph-name="lslash" unicode="&#x142;" horiz-adv-x="567" 
d="M274 -12q-59 0 -98 37t-39 82t19 129l129 552l-222 -92l-24 60l262 108l133 568h-166l15 67h243l-139 -598l246 105l26 -60l-290 -123l-138 -594q-18 -81 -18 -111t19 -50t51 -21q72 0 127 139l47 -14q-62 -184 -183 -184z" />
    <glyph glyph-name="Nacute" unicode="&#x143;" horiz-adv-x="1523" 
d="M1126 -6l-581 1214l-260 -1136h198l-16 -72h-459l19 72h176l278 1204h-196l16 72h262l570 -1186l253 1114h-200l16 72h457l-19 -72h-174l-295 -1282h-45zM1262 1743q24 -1 40 -17t17 -38q0 -43 -62 -68l-337 -152l-17 29l295 217q40 29 64 29z" />
    <glyph glyph-name="nacute" unicode="&#x144;" horiz-adv-x="1067" 
d="M821 -12q-63 0 -100 36t-37 86t21 126l81 270q25 80 25 146t-43 107q-43 40 -119 40q-115 0 -220 -113t-155 -297l-96 -389h-76l197 784h-168l14 68h244l-61 -236q141 248 334 248q102 0 164 -57t62 -137t-28 -176l-80 -267q-20 -77 -20 -109t19 -51t50 -20q72 0 127 139
l50 -14q-34 -96 -78 -140t-107 -44zM985 1245q0 -43 -61 -67l-338 -152l-17 29l295 217q66 49 105 12q16 -16 16 -39z" />
    <glyph glyph-name="Ncommaaccent" unicode="&#x145;" horiz-adv-x="1523" 
d="M1126 -6l-581 1214l-260 -1136h198l-16 -72h-459l19 72h176l278 1204h-196l16 72h262l570 -1186l253 1114h-200l16 72h457l-19 -72h-174l-295 -1282h-45zM647 -121q33 1 57 -25t23 -67q1 -80 -69 -161t-189 -126l-14 33q80 39 129 94t57 105q-31 4 -49 26t-18 52
q0 28 20 48t53 21z" />
    <glyph glyph-name="ncommaaccent" unicode="&#x146;" horiz-adv-x="1067" 
d="M821 -12q-63 0 -100 36t-37 86t21 126l81 270q25 80 25 146t-43 107q-43 40 -119 40q-115 0 -220 -113t-155 -297l-96 -389h-76l197 784h-168l14 68h244l-61 -236q141 248 334 248q102 0 164 -57t62 -137t-28 -176l-80 -267q-20 -77 -20 -109t19 -51t50 -20q72 0 127 139
l50 -14q-34 -96 -78 -140t-107 -44zM330 -190q0 28 20 48t53 21t57 -25t23 -67q1 -80 -69 -161t-189 -126l-14 33q80 39 129 94t57 105q-31 4 -49 26q-18 24 -18 52z" />
    <glyph glyph-name="Ncaron" unicode="&#x147;" horiz-adv-x="1523" 
d="M1126 -6l-581 1214l-260 -1136h198l-16 -72h-459l19 72h176l278 1204h-196l16 72h262l570 -1186l253 1114h-200l16 72h457l-19 -72h-174l-295 -1282h-45zM1001 1466l-206 265l34 32l187 -178l293 180l30 -43z" />
    <glyph glyph-name="ncaron" unicode="&#x148;" horiz-adv-x="1067" 
d="M821 -12q-63 0 -100 36t-37 86t21 126l81 270q25 80 25 146t-43 107q-43 40 -119 40q-115 0 -220 -113t-155 -297l-96 -389h-76l197 784h-168l14 68h244l-61 -236q141 248 334 248q102 0 164 -57t62 -137t-28 -176l-80 -267q-20 -77 -20 -109t19 -51t50 -20q72 0 127 139
l50 -14q-34 -96 -78 -140t-107 -44zM666 1024l-207 264l35 33l186 -178l293 180l31 -43z" />
    <glyph glyph-name="Omacron" unicode="&#x14c;" horiz-adv-x="1486" 
d="M711 53q270 1 459 229t190 519q0 211 -122 352t-349 141q-178 0 -329 -108q-152 -108 -236 -280q-84 -170 -84 -370t123 -342t348 -141zM705 -20q-254 0 -402 160q-147 161 -147 405q0 201 93 389t266 311t382 123q254 0 401 -161q148 -161 148 -383t-93 -410t-267 -311
t-381 -123zM711 1536l16 76h573l-16 -76h-573z" />
    <glyph glyph-name="omacron" unicode="&#x14d;" horiz-adv-x="1011" 
d="M455 53q161 0 273 133t112 312q0 137 -80 219t-205 82q-161 0 -273 -134t-112 -311q0 -137 80 -219t205 -82zM451 -14q-160 0 -260 102q-99 102 -99 266q0 203 135 358t332 154q160 0 259 -102t100 -266q0 -204 -135 -358t-332 -154zM373 1094l16 75h574l-17 -75h-573z
" />
    <glyph glyph-name="Obreve" unicode="&#x14e;" horiz-adv-x="1486" 
d="M993 1470q-98 0 -159 64t-80 166l57 20q39 -164 196 -164t255 162l51 -28q-49 -96 -135 -158t-185 -62zM711 53q270 1 459 229t190 519q0 211 -122 352t-349 141q-178 0 -329 -108q-152 -108 -236 -280q-84 -170 -84 -370t123 -342t348 -141zM705 -20q-254 0 -402 160
q-147 161 -147 405q0 201 93 389t266 311t382 123q254 0 401 -161q148 -161 148 -383t-93 -410t-267 -311t-381 -123z" />
    <glyph glyph-name="obreve" unicode="&#x14f;" horiz-adv-x="1011" 
d="M653 1028q-98 0 -159 64t-80 165l57 21q39 -164 196 -164t255 162l51 -29q-49 -95 -135 -157t-185 -62zM455 53q161 0 273 133t112 312q0 137 -80 219t-205 82q-161 0 -273 -134t-112 -311q0 -137 80 -219t205 -82zM451 -14q-160 0 -260 102q-99 102 -99 266
q0 203 135 358t332 154q160 0 259 -102t100 -266q0 -204 -135 -358t-332 -154z" />
    <glyph glyph-name="Ohungarumlaut" unicode="&#x150;" horiz-adv-x="1486" 
d="M711 53q270 1 459 229t190 519q0 211 -122 352t-349 141q-178 0 -329 -108q-152 -108 -236 -280q-84 -170 -84 -370t123 -342t348 -141zM705 -20q-254 0 -402 160q-147 161 -147 405q0 201 93 389t266 311t382 123q254 0 401 -161q148 -161 148 -383t-93 -410t-267 -311
t-381 -123zM1466 1671q0 -39 -63 -63l-299 -131l-17 30l265 193q34 24 60 24t40 -15t14 -38zM1054 1735q56 0 56 -56q0 -33 -61 -63l-289 -148l-19 31l250 205q37 31 63 31z" />
    <glyph glyph-name="ohungarumlaut" unicode="&#x151;" horiz-adv-x="1011" 
d="M455 53q161 0 273 133t112 312q0 137 -80 219t-205 82q-161 0 -273 -134t-112 -311q0 -137 80 -219t205 -82zM451 -14q-160 0 -260 102q-99 102 -99 266q0 203 135 358t332 154q160 0 259 -102t100 -266q0 -204 -135 -358t-332 -154zM1070 1282q26 0 40 -15t14 -38
q0 -39 -63 -64l-299 -131l-17 31l265 192q34 25 60 25zM768 1237q0 -33 -61 -63l-289 -148l-19 31l250 205q62 52 104 16q15 -14 15 -41z" />
    <glyph glyph-name="OE" unicode="&#x152;" horiz-adv-x="1900" 
d="M836 72h94l278 1204h-147q-401 0 -625 -223q-199 -199 -198 -504q0 -197 118 -320q158 -157 480 -157zM827 0q-358 0 -536 178q-141 141 -141 367q0 334 217 551q248 252 708 252h897l-69 -295h-80l51 223h-582l-127 -551h467l-16 -74h-467l-133 -579h579l54 223h80
l-68 -295h-834z" />
    <glyph glyph-name="oe" unicode="&#x153;" horiz-adv-x="1675" 
d="M1278 799q-119 0 -221 -90t-142 -228h588q14 53 15 94q0 100 -60 162t-180 62zM455 53q161 0 273 133t112 312q0 137 -80 219t-205 82q-161 0 -273 -134t-112 -311q0 -137 80 -219t205 -82zM92 354q0 203 135 358t332 154q131 0 219 -72t115 -196q59 121 163 195
q104 73 238 73q135 0 215 -81t80 -222q0 -70 -26 -147h-662q-6 -37 -6 -76q0 -135 86 -211q85 -76 221 -76t273 76l-19 -78q-123 -65 -262 -65t-232 70t-118 190q-60 -117 -162 -189q-102 -71 -246 -71t-245 102q-99 102 -99 266z" />
    <glyph glyph-name="Racute" unicode="&#x154;" horiz-adv-x="1208" 
d="M1073 1743q25 -1 41 -17t16 -38q0 -43 -61 -68l-338 -152l-16 29l295 217q39 29 63 29zM618 653q215 -1 340 95t125 249q0 113 -67 181q-98 98 -324 98h-127l-143 -619q98 -4 196 -4zM698 1348q258 0 383 -121q86 -86 86 -235q-1 -150 -113 -260t-309 -140l242 -520h158
l-17 -72h-200l-266 582h-66q-139 0 -190 4l-119 -514h198l-16 -72h-461l19 72h176l278 1204h-198l18 72h397z" />
    <glyph glyph-name="racute" unicode="&#x155;" horiz-adv-x="684" 
d="M446 1026l-16 29l295 217q67 49 104 12q16 -16 17 -39q0 -43 -62 -67zM104 0l195 784h-168l16 68h242l-63 -256q76 131 150 200q75 68 125 68t74 -22q23 -22 23 -53t-22 -53t-50 -22t-48 19q-20 18 -25 47q-68 -26 -157 -146t-124 -269l-92 -365h-76z" />
    <glyph glyph-name="Rcommaaccent" unicode="&#x156;" horiz-adv-x="1208" 
d="M504 -121q32 1 56 -25t24 -67q0 -80 -70 -161t-188 -126l-15 33q80 39 129 94t58 105q-31 4 -49 26q-19 22 -19 52q0 28 20 48t54 21zM618 653q215 -1 340 95t125 249q0 113 -67 181q-98 98 -324 98h-127l-143 -619q98 -4 196 -4zM698 1348q258 0 383 -121
q86 -86 86 -235q-1 -150 -113 -260t-309 -140l242 -520h158l-17 -72h-200l-266 582h-66q-139 0 -190 4l-119 -514h198l-16 -72h-461l19 72h176l278 1204h-198l18 72h397z" />
    <glyph glyph-name="rcommaaccent" unicode="&#x157;" horiz-adv-x="681" 
d="M39 -190q0 28 20 48q19 20 53 21t58 -25t23 -67q0 -80 -70 -161t-189 -126l-14 33q80 39 129 94t57 105q-31 4 -49 26q-18 24 -18 52zM104 0l195 784h-168l16 68h242l-63 -256q76 131 150 200q75 68 125 68t74 -22q23 -22 23 -53t-22 -53t-50 -22t-48 19q-20 18 -25 47
q-68 -26 -157 -146t-124 -269l-92 -365h-76z" />
    <glyph glyph-name="Rcaron" unicode="&#x158;" horiz-adv-x="1208" 
d="M813 1466l-207 265l35 32l186 -178l293 180l31 -43zM618 653q215 -1 340 95t125 249q0 113 -67 181q-98 98 -324 98h-127l-143 -619q98 -4 196 -4zM698 1348q258 0 383 -121q86 -86 86 -235q-1 -150 -113 -260t-309 -140l242 -520h158l-17 -72h-200l-266 582h-66
q-139 0 -190 4l-119 -514h198l-16 -72h-461l19 72h176l278 1204h-198l18 72h397z" />
    <glyph glyph-name="rcaron" unicode="&#x159;" horiz-adv-x="684" 
d="M526 1024l-207 264l35 33l187 -178l293 180l30 -43zM104 0l195 784h-168l16 68h242l-63 -256q76 131 150 200q75 68 125 68t74 -22q23 -22 23 -53t-22 -53t-50 -22t-48 19q-20 18 -25 47q-68 -26 -157 -146t-124 -269l-92 -365h-76z" />
    <glyph glyph-name="Sacute" unicode="&#x15a;" horiz-adv-x="1071" 
d="M514 -20q-182 0 -310 91t-128 187q0 41 22 68q23 26 57 26t54 -19t20 -46q0 -55 -53 -82q33 -61 125 -107t225 -47q133 0 230 79q96 80 96 188t-61 176t-203 160t-214 173q-72 82 -73 214q0 131 116 229q115 98 275 98t273 -77t112 -173q-1 -44 -23 -68t-54 -24t-52 20
t-20 60q0 39 51 63q-29 53 -105 91t-194 36q-118 0 -207 -74q-88 -74 -88 -178q0 -106 60 -173q59 -67 203 -159t215 -172q71 -81 71 -204q0 -156 -119 -256t-301 -100zM1048 1743q24 -1 42 -17q16 -16 16 -38q0 -43 -62 -68l-337 -152l-17 29l295 217q39 29 63 29z" />
    <glyph glyph-name="sacute" unicode="&#x15b;" horiz-adv-x="813" 
d="M400 -14q-199 0 -300 106q-45 50 -45 92q1 42 19 64t47 22t44 -17t15 -48t-33 -58q8 -16 33 -36q78 -59 188 -59t168 44t58 112t-46 108t-153 92t-163 102q-56 49 -56 138t80 154t201 64q162 0 252 -90q41 -41 41 -84t-18 -63q-18 -21 -45 -21q-26 0 -43 16t-17 47
q0 30 26 60q-10 14 -32 29q-68 41 -162 41q-95 0 -151 -44q-56 -45 -56 -105t44 -96t150 -88t165 -106t59 -152t-83 -161t-187 -63zM479 1026l-16 29l295 217q65 48 104 12q16 -16 17 -39q0 -43 -62 -67z" />
    <glyph glyph-name="Scedilla" unicode="&#x15e;" horiz-adv-x="1071" 
d="M514 -20h-12l-41 -103q78 -8 117 -45q38 -36 38 -96t-53 -103t-155 -43t-201 76l31 45q88 -57 188 -57q53 0 83 24t30 63q0 37 -39 61t-109 16l-18 18l73 148q-158 16 -264 101t-106 173q0 41 22 68q23 26 57 26t54 -19t20 -46q0 -55 -53 -82q33 -61 125 -107t225 -47
q133 0 230 79q96 80 96 188t-61 176t-203 160t-214 173q-72 82 -73 214q0 131 116 229q115 98 275 98t273 -77t112 -173q-1 -44 -23 -68t-54 -24t-52 20t-20 60q0 39 51 63q-29 53 -105 91t-194 36q-118 0 -207 -74q-88 -74 -88 -178q0 -106 60 -173q59 -67 203 -159
t215 -172q71 -81 71 -204q0 -156 -119 -256t-301 -100z" />
    <glyph glyph-name="scedilla" unicode="&#x15f;" horiz-adv-x="813" 
d="M282 -410q-100 0 -204 76l33 45q88 -57 188 -57q53 0 82 24t29 63q0 37 -38 61t-108 16l-20 18l78 154q-141 18 -222 102q-45 50 -45 92q1 42 19 64t47 22t44 -17t15 -48t-33 -58q8 -16 33 -36q78 -59 188 -59t168 44t58 112t-46 108t-153 92t-163 102q-56 49 -56 138
t80 154t201 64q162 0 252 -90q41 -41 41 -84t-18 -63q-18 -21 -45 -21q-26 0 -43 16t-17 47q0 30 26 60q-10 14 -32 29q-68 41 -162 41q-95 0 -151 -44q-56 -45 -56 -105t44 -96t150 -88t165 -106t59 -152t-83 -161t-206 -63h-6l-41 -109q156 -15 154 -141q0 -60 -53 -103
t-153 -43z" />
    <glyph glyph-name="Scaron" unicode="&#x160;" horiz-adv-x="1071" 
d="M514 -20q-182 0 -310 91t-128 187q0 41 22 68q23 26 57 26t54 -19t20 -46q0 -55 -53 -82q33 -61 125 -107t225 -47q133 0 230 79q96 80 96 188t-61 176t-203 160t-214 173q-72 82 -73 214q0 131 116 229q115 98 275 98t273 -77t112 -173q-1 -44 -23 -68t-54 -24t-52 20
t-20 60q0 39 51 63q-29 53 -105 91t-194 36q-118 0 -207 -74q-88 -74 -88 -178q0 -106 60 -173q59 -67 203 -159t215 -172q71 -81 71 -204q0 -156 -119 -256t-301 -100zM788 1466l-206 265l34 32l187 -178l293 180l30 -43z" />
    <glyph glyph-name="scaron" unicode="&#x161;" horiz-adv-x="813" 
d="M400 -14q-199 0 -300 106q-45 50 -45 92q1 42 19 64t47 22t44 -17t15 -48t-33 -58q8 -16 33 -36q78 -59 188 -59t168 44t58 112t-46 108t-153 92t-163 102q-56 49 -56 138t80 154t201 64q162 0 252 -90q41 -41 41 -84t-18 -63q-18 -21 -45 -21q-26 0 -43 16t-17 47
q0 30 26 60q-10 14 -32 29q-68 41 -162 41q-95 0 -151 -44q-56 -45 -56 -105t44 -96t150 -88t165 -106t59 -152t-83 -161t-187 -63zM561 1024l-207 264l35 33l186 -178l293 180l31 -43z" />
    <glyph glyph-name="Tcommaaccent" unicode="&#x162;" horiz-adv-x="1257" 
d="M301 0l18 72h187l276 1204h-411l-56 -236h-79l71 308h1069l-73 -308h-80l55 236h-412l-276 -1204h207l-17 -72h-479zM426 -190q0 28 20 48t54 21t56 -25q24 -26 24 -67q0 -80 -70 -161t-188 -126l-15 33q80 39 129 94t58 105q-31 4 -50 26q-18 24 -18 52z" />
    <glyph glyph-name="tcommaaccent" unicode="&#x163;" horiz-adv-x="632" 
d="M158 -190q0 28 20 48t53 21t57 -25t23 -67q1 -80 -69 -161t-189 -126l-14 33q80 39 129 94t57 105q-31 4 -49 26q-18 24 -18 52zM205 134q0 -81 95 -81q50 0 179 90l31 -47q-141 -111 -234 -110q-68 0 -110 38t-41 88q0 50 14 111l140 561h-154l16 68h154l55 215l82 23
l-59 -238h268l-16 -68h-269l-139 -565q-12 -49 -12 -85z" />
    <glyph glyph-name="Tcaron" unicode="&#x164;" horiz-adv-x="1257" 
d="M301 0l18 72h187l276 1204h-411l-56 -236h-79l71 308h1069l-73 -308h-80l55 236h-412l-276 -1204h207l-17 -72h-479zM864 1466l-207 265l35 32l187 -178l292 180l31 -43z" />
    <glyph glyph-name="tcaron" unicode="&#x165;" horiz-adv-x="632" 
d="M721 1296q1 -60 -53 -150q-54 -91 -156 -181l-23 24q86 102 105 178q8 27 11 74t5 55q6 59 60 60q51 0 51 -60zM205 134q0 -81 95 -81q50 0 179 90l31 -47q-141 -111 -234 -110q-68 0 -110 38t-41 88q0 50 14 111l140 561h-154l16 68h154l55 215l82 23l-59 -238h268
l-16 -68h-269l-139 -565q-12 -49 -12 -85z" />
    <glyph glyph-name="Umacron" unicode="&#x16a;" horiz-adv-x="1435" 
d="M674 1536l16 76h574l-17 -76h-573zM670 -20q-190 0 -301 98t-111 272q0 74 25 178l172 748h-197l16 72h461l-16 -72h-182l-172 -754q-20 -84 -21 -168q0 -143 86 -223t248 -80q336 0 426 414l186 811h-200l16 72h461l-17 -72h-178l-188 -821q-108 -475 -514 -475z" />
    <glyph glyph-name="umacron" unicode="&#x16b;" horiz-adv-x="1069" 
d="M377 1094l16 75h574l-17 -75h-573zM379 53q115 0 221 114t152 296l96 389h78l-158 -631q-18 -67 -18 -101t19 -53t53 -19t63 31q29 32 61 107l49 -14q-37 -96 -79 -140t-103 -44t-97 35t-36 82t18 128q-139 -246 -329 -245q-98 0 -160 55q-61 55 -62 147q0 51 25 152
l113 442h-168l16 68h244l-131 -518q-20 -82 -20 -142t40 -100q41 -40 113 -39z" />
    <glyph glyph-name="Ubreve" unicode="&#x16c;" horiz-adv-x="1435" 
d="M952 1470q-98 0 -159 64t-80 166l57 20q39 -164 196 -164t255 162l51 -28q-50 -96 -136 -158t-184 -62zM670 -20q-190 0 -301 98t-111 272q0 74 25 178l172 748h-197l16 72h461l-16 -72h-182l-172 -754q-20 -84 -21 -168q0 -143 86 -223t248 -80q336 0 426 414l186 811
h-200l16 72h461l-17 -72h-178l-188 -821q-108 -475 -514 -475z" />
    <glyph glyph-name="ubreve" unicode="&#x16d;" horiz-adv-x="1069" 
d="M657 1028q-98 0 -159 64t-80 165l57 21q39 -164 196 -164t255 162l51 -29q-49 -95 -135 -157t-185 -62zM379 53q115 0 221 114t152 296l96 389h78l-158 -631q-18 -67 -18 -101t19 -53t53 -19t63 31q29 32 61 107l49 -14q-37 -96 -79 -140t-103 -44t-97 35t-36 82t18 128
q-139 -246 -329 -245q-98 0 -160 55q-61 55 -62 147q0 51 25 152l113 442h-168l16 68h244l-131 -518q-20 -82 -20 -142t40 -100q41 -40 113 -39z" />
    <glyph glyph-name="Uring" unicode="&#x16e;" horiz-adv-x="1435" 
d="M670 -20q-190 0 -301 98t-111 272q0 74 25 178l172 748h-197l16 72h461l-16 -72h-182l-172 -754q-20 -84 -21 -168q0 -143 86 -223t248 -80q336 0 426 414l186 811h-200l16 72h461l-17 -72h-178l-188 -821q-108 -475 -514 -475zM974 1509q50 1 88 49t38 103t-27 84
t-77 29t-88 -48q-40 -48 -40 -103q0 -54 28 -84t78 -30zM805 1621q0 79 58 145q57 66 137 67q80 0 122 -46t43 -124q0 -77 -59 -145t-138 -68t-121 46t-42 125z" />
    <glyph glyph-name="uring" unicode="&#x16f;" horiz-adv-x="1069" 
d="M573 1180q0 -54 28 -84t78 -29q50 0 88 48q38 47 38 103t-27 85q-26 29 -76 29t-90 -49t-39 -103zM706 1391q80 0 122 -46t42 -124q0 -77 -59 -145t-138 -68t-121 46t-42 124t58 146q58 67 138 67zM379 53q115 0 221 114t152 296l96 389h78l-158 -631q-18 -67 -18 -101
t19 -53t53 -19t63 31q29 32 61 107l49 -14q-37 -96 -79 -140t-103 -44t-97 35t-36 82t18 128q-139 -246 -329 -245q-98 0 -160 55q-61 55 -62 147q0 51 25 152l113 442h-168l16 68h244l-131 -518q-20 -82 -20 -142t40 -100q41 -40 113 -39z" />
    <glyph glyph-name="Uhungarumlaut" unicode="&#x170;" horiz-adv-x="1435" 
d="M1427 1671q0 -39 -63 -63l-299 -131l-16 30l264 193q33 24 59 24t41 -15q14 -15 14 -38zM1014 1735q56 0 57 -56q0 -33 -61 -63l-289 -148l-19 31l250 205q36 31 62 31zM670 -20q-190 0 -301 98t-111 272q0 74 25 178l172 748h-197l16 72h461l-16 -72h-182l-172 -754
q-20 -84 -21 -168q0 -143 86 -223t248 -80q336 0 426 414l186 811h-200l16 72h461l-17 -72h-178l-188 -821q-108 -475 -514 -475z" />
    <glyph glyph-name="uhungarumlaut" unicode="&#x171;" horiz-adv-x="1069" 
d="M1074 1282q26 0 40 -15t14 -38q0 -39 -63 -64l-299 -131l-16 31l264 192q34 25 60 25zM772 1237q0 -33 -61 -63l-289 -148l-19 31l250 205q62 52 104 16q15 -14 15 -41zM379 53q115 0 221 114t152 296l96 389h78l-158 -631q-18 -67 -18 -101t19 -53t53 -19t63 31
q29 32 61 107l49 -14q-37 -96 -79 -140t-103 -44t-97 35t-36 82t18 128q-139 -246 -329 -245q-98 0 -160 55q-61 55 -62 147q0 51 25 152l113 442h-168l16 68h244l-131 -518q-20 -82 -20 -142t40 -100q41 -40 113 -39z" />
    <glyph glyph-name="Uogonek" unicode="&#x172;" horiz-adv-x="1435" 
d="M494 -270q0 131 153 250q-180 6 -285 103q-104 97 -104 267q0 74 25 178l172 748h-197l16 72h461l-16 -72h-182l-172 -754q-20 -84 -21 -168q0 -143 86 -223t248 -80q336 0 426 414l186 811h-200l16 72h461l-17 -72h-178l-188 -821q-102 -444 -461 -473
q-158 -123 -158 -232q0 -45 28 -71q54 -51 175 -5l-14 -65q-55 -23 -117 -23q-63 0 -103 39t-40 105z" />
    <glyph glyph-name="uogonek" unicode="&#x173;" horiz-adv-x="1069" 
d="M692 -246q0 -98 105 -98q51 0 100 16l-16 -63q-51 -23 -115 -23t-104 39t-41 105q0 135 178 258q-53 4 -86 39t-33 80t18 126q-139 -246 -329 -245q-98 0 -160 55q-61 55 -62 147q0 51 25 152l113 442h-168l16 68h244l-131 -518q-20 -82 -20 -142t40 -100q41 -40 113 -39
q115 0 221 114t152 296l96 389h78l-158 -631q-18 -67 -18 -101t18 -53t52 -19t64 30q30 32 62 108l49 -14q-39 -98 -90 -145q-12 -13 -82 -73q-71 -60 -101 -106t-30 -94z" />
    <glyph glyph-name="Wcircumflex" unicode="&#x174;" horiz-adv-x="1918" 
d="M438 -27l-53 1303h-156l17 72h411l-18 -72h-176l39 -1151l569 1036h41l111 -1036l600 1151h-176l16 72h410l-17 -72h-149l-690 -1303h-50l-110 1020l-568 -1020h-51zM942 1460l-31 41l338 258l207 -264l-37 -33l-186 176z" />
    <glyph glyph-name="wcircumflex" unicode="&#x175;" horiz-adv-x="1314" 
d="M541 1018l-31 41l338 258l207 -264l-37 -33l-187 176zM1079 793q1 31 21 53t53 20q33 0 57 -28t23 -74q0 -264 -375 -799h-31l-135 641l-377 -641h-32l-60 819h-162l17 68h211l49 -741l362 624h29l139 -649q270 397 289 629q-31 3 -55 25t-23 53z" />
    <glyph glyph-name="Ycircumflex" unicode="&#x176;" horiz-adv-x="1280" 
d="M614 1460l-30 41l338 258l206 -264l-36 -33l-187 176zM268 0l19 72h202l121 491l-252 713h-143l18 72h406l-16 -72h-177l222 -645l536 645h-170l17 72h405l-16 -72h-137l-615 -727l-113 -477h205l-16 -72h-496z" />
    <glyph glyph-name="ycircumflex" unicode="&#x177;" horiz-adv-x="956" 
d="M367 1018l-31 41l338 258l207 -264l-37 -33l-187 176zM-47 -408q-43 0 -73 24t-30 56t18 52t50 20q31 0 50 -23t20 -59q121 10 387 334l-154 788h-164l17 68h217l141 -784q350 444 383 647q-31 7 -53 29t-23 52q1 30 21 50t53 20t57 -26t23 -74q0 -223 -440 -770
q-182 -224 -298 -314t-202 -90z" />
    <glyph glyph-name="Ydieresis" unicode="&#x178;" horiz-adv-x="1280" 
d="M746 1505q-32 0 -54 24q-22 25 -22 57t22 54t54 23q32 0 54 -23q22 -24 22 -56t-22 -56t-54 -23zM1025 1505q-33 0 -55 24q-22 25 -22 57t22 54t54 23q32 0 54 -23q22 -24 22 -56t-22 -56t-53 -23zM268 0l19 72h202l121 491l-252 713h-143l18 72h406l-16 -72h-177
l222 -645l536 645h-170l17 72h405l-16 -72h-137l-615 -727l-113 -477h205l-16 -72h-496z" />
    <glyph glyph-name="Zacute" unicode="&#x179;" horiz-adv-x="1212" 
d="M10 0v37l1164 1241h-764l-54 -227h-80l68 297h963v-37l-1164 -1241h803l53 227h80l-67 -297h-1002zM1100 1743q24 -1 40 -17t17 -38q0 -43 -61 -68l-338 -152l-17 29l295 217q40 29 64 29z" />
    <glyph glyph-name="zacute" unicode="&#x17a;" horiz-adv-x="903" 
d="M270 96q70 0 166 -22t146 -23q50 0 87 42q36 42 70 147l49 -13q-36 -129 -82 -186t-139 -57q-47 0 -153 26t-164 25q-123 0 -213 -49l-29 37l756 763h-496l-43 -172h-69l57 238h649l21 -35l-736 -741q53 20 123 20zM901 1245q0 -43 -61 -67l-338 -152l-17 29l295 217
q66 49 105 12q16 -16 16 -39z" />
    <glyph glyph-name="Zdotaccent" unicode="&#x17b;" horiz-adv-x="1212" 
d="M869 1507q-33 0 -57 24q-24 25 -24 59t24 59t58 25t57 -26q23 -24 23 -59t-24 -59t-57 -23zM10 0v37l1164 1241h-764l-54 -227h-80l68 297h963v-37l-1164 -1241h803l53 227h80l-67 -297h-1002z" />
    <glyph glyph-name="zdotaccent" unicode="&#x17c;" horiz-adv-x="903" 
d="M613 1065q-33 0 -57 24q-24 25 -24 59t24 58t58 25q34 0 57 -25q23 -26 23 -60t-24 -58t-57 -23zM270 96q70 0 166 -22t146 -23q50 0 87 42q36 42 70 147l49 -13q-36 -129 -82 -186t-139 -57q-47 0 -153 26t-164 25q-123 0 -213 -49l-29 37l756 763h-496l-43 -172h-69
l57 238h649l21 -35l-736 -741q53 20 123 20z" />
    <glyph glyph-name="Zcaron" unicode="&#x17d;" horiz-adv-x="1212" 
d="M10 0v37l1164 1241h-764l-54 -227h-80l68 297h963v-37l-1164 -1241h803l53 227h80l-67 -297h-1002zM838 1466l-207 265l35 32l186 -178l293 180l31 -43z" />
    <glyph glyph-name="zcaron" unicode="&#x17e;" horiz-adv-x="903" 
d="M270 96q70 0 166 -22t146 -23q50 0 87 42q36 42 70 147l49 -13q-36 -129 -82 -186t-139 -57q-47 0 -153 26t-164 25q-123 0 -213 -49l-29 37l756 763h-496l-43 -172h-69l57 238h649l21 -35l-736 -741q53 20 123 20zM584 1024l-207 264l35 33l186 -178l293 180l31 -43z
" />
    <glyph glyph-name="Aringacute" unicode="&#x1fa;" horiz-adv-x="1427" 
d="M483 571h525l-99 711zM1061 1508q0 54 -27 84q-26 30 -76 30t-90 -48t-39 -102q0 -54 27 -84t77 -30t89 48t39 102zM766 1470q0 82 59 147t139 65t120 -47q42 -46 42 -108t-29 -110q-30 -47 -75 -69h154l-17 -72h-170l170 -1204h144l-17 -72h-399l16 72h172l-57 426h-580
l-254 -426h193l-19 -72h-403l18 72h121l725 1204h-176l19 72h165q-61 40 -61 122zM1302 2073q24 -1 41 -17q16 -16 17 -39q0 -43 -62 -67l-337 -152l-17 29l295 217q39 29 63 29z" />
    <glyph glyph-name="aringacute" unicode="&#x1fb;" horiz-adv-x="1110" 
d="M1118 1755q0 -43 -61 -67l-338 -152l-17 29l295 217q66 49 105 12q16 -16 16 -39zM683 1067q50 0 88 48q38 47 38 103t-27 85q-26 29 -76 29t-90 -49t-38 -103q0 -54 28 -84t77 -29zM710 1391q80 0 122 -46t42 -124q0 -77 -59 -145t-138 -68t-121 46t-42 124t58 146
q58 67 138 67zM416 53q164 0 274 151t109 318q0 123 -69 200t-185 77q-158 1 -264 -141t-107 -324q0 -131 64 -206t178 -75zM401 -14q-135 0 -221 92t-86 252q0 215 130 376t319 160q115 0 193 -64t95 -177l58 231h76l-156 -635q-18 -83 -18 -109t19 -45t53 -19t63 31
q29 32 61 107l47 -14q-35 -96 -77 -140t-103 -44t-98 36t-37 81t8 75q-133 -194 -326 -194z" />
    <glyph glyph-name="AEacute" unicode="&#x1fc;" horiz-adv-x="1806" 
d="M553 571h416l164 709h-31zM-92 0l16 72h156l930 1204h-203l16 72h1053l-70 -295h-80l52 223h-564l-124 -551h444l-14 -74h-449l-133 -579h563l51 223h80l-67 -295h-906l17 72h178l98 428h-452l-332 -428h194l-18 -72h-436zM1558 1743q24 -1 41 -17q16 -16 17 -38
q0 -43 -62 -68l-337 -152l-17 29l295 217q39 29 63 29z" />
    <glyph glyph-name="aeacute" unicode="&#x1fd;" horiz-adv-x="1564" 
d="M823 1026l-16 29l295 217q65 48 104 12q16 -16 17 -39q0 -43 -62 -67zM1167 799q-121 0 -223 -90t-141 -228h590q14 53 14 94q0 100 -60 162t-180 62zM317 53q135 1 259 105t147 260h-205q-381 0 -381 -219q0 -63 47 -105t133 -41zM1091 53q135 0 271 76l-19 -78
q-119 -65 -264 -65t-237 76t-115 204q-53 -127 -167 -204q-114 -76 -244 -76t-194 63t-65 150q0 133 119 207t324 73h227q-2 139 -69 229t-201 91q-59 -1 -93 -15t-45 -26q42 -52 2 -98q-19 -22 -47 -22t-47 21q-18 20 -18 52q0 76 94 123q66 33 148 32q272 0 323 -288
q59 132 168 210t242 78t214 -81t81 -222q0 -61 -27 -147h-661q-6 -37 -7 -76q0 -135 86 -211t221 -76z" />
    <glyph glyph-name="Oslashacute" unicode="&#x1fe;" horiz-adv-x="1486" 
d="M1234 1743q24 -1 42 -17q16 -16 16 -38q0 -43 -61 -68l-338 -152l-16 29l294 217q39 29 63 29zM889 1294q-178 0 -330 -108q-151 -108 -235 -280q-84 -170 -84 -334t53 -277l971 827q-129 172 -375 172zM719 53q262 1 452 229t191 519q0 150 -62 262l-970 -832
q127 -178 389 -178zM705 -20q-283 0 -437 200l-229 -196l-47 55l237 203q-73 132 -73 318t93 374t266 311t382 123q274 0 428 -192l225 194l49 -55l-233 -201q80 -136 80 -324t-93 -376t-267 -311t-381 -123z" />
    <glyph glyph-name="oslashacute" unicode="&#x1ff;" horiz-adv-x="1011" 
d="M567 1026l-16 29l295 217q65 48 104 12q16 -16 17 -39q0 -43 -62 -67zM470 53q152 0 264 132t112 313q0 80 -29 147l-577 -498q78 -94 230 -94zM174 354q0 -86 33 -155l577 499q-82 100 -234 100t-264 -132t-112 -312zM472 -14q-184 0 -286 114l-133 -114l-43 51l137 117
q-51 90 -51 202q0 203 134 357t333 153q170 0 275 -121l135 119l45 -51l-144 -121q49 -88 50 -196q0 -202 -134 -356t-318 -154z" />
    <glyph glyph-name="Scommaaccent" unicode="&#x218;" horiz-adv-x="1071" 
d="M514 -20q-182 0 -310 91t-128 187q0 41 22 68q23 26 57 26t54 -19t20 -46q0 -55 -53 -82q33 -61 125 -107t225 -47q133 0 230 79q96 80 96 188t-61 176t-203 160t-214 173q-72 82 -73 214q0 131 116 229q115 98 275 98t273 -77t112 -173q-1 -44 -23 -68t-54 -24t-52 20
t-20 60q0 39 51 63q-29 53 -105 91t-194 36q-118 0 -207 -74q-88 -74 -88 -178q0 -106 60 -173q59 -67 203 -159t215 -172q71 -81 71 -204q0 -156 -119 -256t-301 -100zM420 -121q32 1 56 -25t24 -67q0 -80 -70 -161t-188 -126l-15 33q80 39 129 94t58 105q-31 4 -49 26
q-19 22 -19 52q0 28 20 48t54 21z" />
    <glyph glyph-name="scommaaccent" unicode="&#x219;" horiz-adv-x="813" 
d="M400 -14q-199 0 -300 106q-45 50 -45 92q1 42 19 64t47 22t44 -17t15 -48t-33 -58q8 -16 33 -36q78 -59 188 -59t168 44t58 112t-46 108t-153 92t-163 102q-56 49 -56 138t80 154t201 64q162 0 252 -90q41 -41 41 -84t-18 -63q-18 -21 -45 -21q-26 0 -43 16t-17 47
q0 30 26 60q-10 14 -32 29q-68 41 -162 41q-95 0 -151 -44q-56 -45 -56 -105t44 -96t150 -88t165 -106t59 -152t-83 -161t-187 -63zM295 -121q33 1 57 -25t23 -67q1 -80 -69 -161t-189 -126l-15 33q80 39 129 94t58 105q-31 4 -49 26t-18 52q0 28 20 48t53 21z" />
    <glyph glyph-name="schwa" unicode="&#x259;" horiz-adv-x="944" 
d="M395 55q119 0 220 89t143 229h-586q-14 -53 -14 -94q0 -100 59 -162t178 -62zM86 291q0 68 25 147h661q6 37 6 76q0 135 -86 211t-220 76t-269 -76l16 78q123 65 275 65t256 -95q106 -95 106 -259q0 -213 -140 -370t-335 -156q-135 0 -215 81t-80 222z" />
    <glyph glyph-name="circumflex" unicode="&#x2c6;" horiz-adv-x="1030" 
d="M416 1018l-31 41l338 258l207 -264l-37 -33l-186 176z" />
    <glyph glyph-name="caron" unicode="&#x2c7;" horiz-adv-x="1030" 
d="M647 1024l-207 264l35 33l187 -178l292 180l31 -43z" />
    <glyph glyph-name="breve" unicode="&#x2d8;" horiz-adv-x="1030" 
d="M653 1028q-98 0 -159 64t-80 165l57 21q39 -164 196 -164t255 162l51 -29q-49 -95 -135 -157t-185 -62z" />
    <glyph glyph-name="dotaccent" unicode="&#x2d9;" horiz-adv-x="1030" 
d="M681 1065q-33 0 -57 24q-24 25 -24 59t24 58t58 25q34 0 56 -25q24 -26 24 -60t-24 -58t-57 -23z" />
    <glyph glyph-name="ring" unicode="&#x2da;" horiz-adv-x="1030" 
d="M685 1067q50 0 88 48q38 47 38 103t-27 85q-26 29 -76 29t-90 -49t-38 -103q0 -54 28 -84t77 -29zM877 1221q1 -77 -59 -145t-139 -68t-121 46t-42 124t58 146q58 67 138 67t122 -46q43 -46 43 -124z" />
    <glyph glyph-name="ogonek" unicode="&#x2db;" horiz-adv-x="1032" 
d="M332 -250q0 -46 28 -70t77 -24q50 0 100 16l-17 -63q-50 -23 -114 -23t-106 38t-42 106q0 165 274 327l54 -8q-254 -168 -254 -299z" />
    <glyph glyph-name="tilde" unicode="&#x2dc;" horiz-adv-x="1030" 
d="M808 1026q-66 0 -142 68q-78 68 -120 69t-72 -29t-54 -96l-53 19q20 82 71 135t117 53q66 -1 143 -69t121 -68q78 0 127 125l53 -16q-20 -82 -72 -137q-53 -54 -119 -54z" />
    <glyph glyph-name="hungarumlaut" unicode="&#x2dd;" horiz-adv-x="1030" 
d="M969 1282q27 0 41 -15t14 -38q0 -39 -63 -64l-299 -131l-17 31l264 192q33 25 60 25zM317 1026l-18 31l250 205q62 52 103 16q15 -14 16 -41q0 -33 -62 -63z" />
    <glyph glyph-name="commaaccent" unicode="&#x326;" horiz-adv-x="417" 
d="M160 -190q0 28 20 48t53 21t57 -25t23 -67q1 -80 -69 -161t-189 -126l-14 33q80 39 129 94t57 105q-31 4 -49 26q-18 24 -18 52z" />
    <glyph glyph-name="Wgrave" unicode="&#x1e80;" horiz-adv-x="1918" 
d="M985 1682q0 63 61 63q29 0 64 -43l184 -209l-24 -27l-238 154q-47 31 -47 62zM438 -27l-53 1303h-156l17 72h411l-18 -72h-176l39 -1151l569 1036h41l111 -1036l600 1151h-176l16 72h410l-17 -72h-149l-690 -1303h-50l-110 1020l-568 -1020h-51z" />
    <glyph glyph-name="wgrave" unicode="&#x1e81;" horiz-adv-x="1314" 
d="M586 1240q0 30 16 46t45 16t64 -42l184 -209l-25 -27l-237 154q-47 32 -47 62zM1079 793q1 31 21 53t53 20q33 0 57 -28t23 -74q0 -264 -375 -799h-31l-135 641l-377 -641h-32l-60 819h-162l17 68h211l49 -741l362 624h29l139 -649q270 397 289 629q-31 3 -55 25t-23 53z
" />
    <glyph glyph-name="Wacute" unicode="&#x1e82;" horiz-adv-x="1918" 
d="M438 -27l-53 1303h-156l17 72h411l-18 -72h-176l39 -1151l569 1036h41l111 -1036l600 1151h-176l16 72h410l-17 -72h-149l-690 -1303h-50l-110 1020l-568 -1020h-51zM1444 1743q24 -1 40 -17t17 -38q0 -43 -61 -68l-338 -152l-17 29l295 217q40 29 64 29z" />
    <glyph glyph-name="wacute" unicode="&#x1e83;" horiz-adv-x="1314" 
d="M702 1026l-16 29l295 217q67 49 104 12q16 -16 17 -39q0 -43 -62 -67zM1079 793q1 31 21 53t53 20q33 0 57 -28t23 -74q0 -264 -375 -799h-31l-135 641l-377 -641h-32l-60 819h-162l17 68h211l49 -741l362 624h29l139 -649q270 397 289 629q-31 3 -55 25t-23 53z" />
    <glyph glyph-name="Wdieresis" unicode="&#x1e84;" horiz-adv-x="1918" 
d="M438 -27l-53 1303h-156l17 72h411l-18 -72h-176l39 -1151l569 1036h41l111 -1036l600 1151h-176l16 72h410l-17 -72h-149l-690 -1303h-50l-110 1020l-568 -1020h-51zM1074 1505q-32 0 -54 24q-22 25 -23 57q0 32 22 54q23 22 55 23q32 0 54 -23q22 -24 21 -56
q1 -32 -21 -56t-54 -23zM1352 1663q32 0 54 -23q22 -24 22 -56t-22 -56q-21 -24 -53 -23q-32 0 -55 24q-22 25 -22 57t22 54t54 23z" />
    <glyph glyph-name="wdieresis" unicode="&#x1e85;" horiz-adv-x="1314" 
d="M953 1063q-33 -1 -55 23t-22 57t22 55t54 23q32 0 55 -23q21 -24 21 -56t-21 -56q-22 -23 -54 -23zM675 1063q-33 -1 -55 23t-22 57t22 55t54 23q32 0 54 -23q22 -24 22 -56t-22 -56t-53 -23zM1079 793q1 31 21 53t53 20q33 0 57 -28t23 -74q0 -264 -375 -799h-31
l-135 641l-377 -641h-32l-60 819h-162l17 68h211l49 -741l362 624h29l139 -649q270 397 289 629q-31 3 -55 25t-23 53z" />
    <glyph glyph-name="Ygrave" unicode="&#x1ef2;" horiz-adv-x="1280" 
d="M719 1745q29 0 63 -43l185 -209l-25 -27l-237 154q-47 31 -47 62t16 47t45 16zM268 0l19 72h202l121 491l-252 713h-143l18 72h406l-16 -72h-177l222 -645l536 645h-170l17 72h405l-16 -72h-137l-615 -727l-113 -477h205l-16 -72h-496z" />
    <glyph glyph-name="ygrave" unicode="&#x1ef3;" horiz-adv-x="956" 
d="M410 1240q0 30 16 46t45 16t64 -42l184 -209l-25 -27l-237 154q-47 32 -47 62zM-47 -408q-43 0 -73 24t-30 56t18 52t50 20q31 0 50 -23t20 -59q121 10 387 334l-154 788h-164l17 68h217l141 -784q350 444 383 647q-31 7 -53 29t-23 52q1 30 21 50t53 20t57 -26t23 -74
q0 -223 -440 -770q-182 -224 -298 -314t-202 -90z" />
    <glyph glyph-name="enspace" unicode="&#x2002;" horiz-adv-x="1024" 
 />
    <glyph glyph-name="emspace" unicode="&#x2003;" horiz-adv-x="2048" 
 />
    <glyph glyph-name="threeperemspace" unicode="&#x2004;" horiz-adv-x="681" 
 />
    <glyph glyph-name="fourperemspace" unicode="&#x2005;" horiz-adv-x="512" 
 />
    <glyph glyph-name="figurespace" unicode="&#x2007;" horiz-adv-x="1085" 
 />
    <glyph glyph-name="thinspace" unicode="&#x2009;" horiz-adv-x="272" 
 />
    <glyph glyph-name="hairspace" unicode="&#x200a;" horiz-adv-x="153" 
 />
    <glyph glyph-name="endash" unicode="&#x2013;" horiz-adv-x="782" 
d="M49 520l17 78h698l-16 -78h-699z" />
    <glyph glyph-name="emdash" unicode="&#x2014;" horiz-adv-x="1226" 
d="M49 520l17 78h1142l-16 -78h-1143z" />
    <glyph glyph-name="quoteleft" unicode="&#x2018;" horiz-adv-x="356" 
d="M314 948q-38 0 -62 29t-23 74q0 92 79 184t204 145l16 -32q-90 -53 -141 -118t-59 -116q72 -16 71 -82q1 -36 -23 -60t-62 -24z" />
    <glyph glyph-name="quoteright" unicode="&#x2019;" horiz-adv-x="356" 
d="M455 1278q0 -92 -79 -184t-206 -148l-16 35q90 53 141 118t59 115q-72 16 -71 82q0 35 23 59q24 23 62 23t62 -28t25 -72z" />
    <glyph glyph-name="quotesinglbase" unicode="&#x201a;" horiz-adv-x="350" 
d="M41 78q0 30 24 54q25 22 59 22t58 -28t25 -71q0 -84 -74 -171t-201 -134l-18 35q86 43 138 100t63 111q-33 4 -54 28q-20 24 -20 54z" />
    <glyph glyph-name="quotedblleft" unicode="&#x201c;" horiz-adv-x="669" 
d="M314 948q-38 0 -62 29t-23 74q0 92 79 184t204 145l16 -32q-90 -53 -141 -118t-59 -116q72 -16 71 -82q1 -36 -23 -60t-62 -24zM711 1032q-1 -36 -23 -60t-60 -24t-62 29t-23 74q0 92 78 184t202 145l19 -32q-90 -53 -142 -118t-59 -116q70 -16 70 -82z" />
    <glyph glyph-name="quotedblright" unicode="&#x201d;" horiz-adv-x="669" 
d="M455 1278q0 -92 -79 -184t-206 -148l-16 35q90 53 141 118t59 115q-72 16 -71 82q0 35 23 59q24 23 62 23t62 -28t25 -72zM596 1296q0 35 24 59q24 23 60 23t62 -28q24 -28 24 -72q0 -92 -79 -184t-204 -148l-16 35q90 53 141 118t60 115q-72 16 -72 82z" />
    <glyph glyph-name="quotedblbase" unicode="&#x201e;" horiz-adv-x="657" 
d="M41 78q0 30 24 54q25 22 59 22t58 -28t25 -71q0 -84 -74 -171t-201 -134l-18 35q86 43 138 100t63 111q-33 4 -54 28q-20 24 -20 54zM428 154q34 0 60 -28q24 -28 24 -71q0 -86 -74 -172t-198 -133l-19 35q86 43 138 100t63 111q-35 4 -54 28q-20 24 -20 54t23 54
q23 22 57 22z" />
    <glyph glyph-name="dagger" unicode="&#x2020;" horiz-adv-x="909" 
d="M618 1296q84 0 44 -116l-109 -332l227 49q31 6 51 6q84 0 84 -84q0 -29 -18 -51t-51 -20q-33 0 -53 26t-19 64l-211 -27l-213 -815h-45l180 823l-204 19q2 -39 -20 -65q-23 -25 -55 -25t-50 22t-18 54t29 62q30 30 114 11l233 -43l41 352q8 90 63 90z" />
    <glyph glyph-name="daggerdbl" unicode="&#x2021;" horiz-adv-x="927" 
d="M313 -252q-82 0 -43 111l90 272l-184 -43q-30 -6 -62 -6t-58 24t-26 55t21 53q20 22 52 22t54 -25t19 -64l180 23l99 354l51 353l-178 20q2 -39 -20 -63t-54 -23q-32 0 -50 20q-20 21 -20 53t25 56t59 23q34 0 60 -7l200 -41l33 291q12 90 66 90q82 0 43 -110l-90 -273
l186 43q49 6 51 7q41 0 67 -24q26 -23 26 -55t-21 -54q-20 -22 -52 -22t-53 26q-20 25 -18 63l-182 -23l-99 -356l-51 -350l180 -21q-2 37 18 62t53 25q32 0 52 -21q21 -20 21 -52t-32 -62t-114 -11l-200 41l-33 -291q-8 -90 -66 -90z" />
    <glyph glyph-name="bullet" unicode="&#x2022;" horiz-adv-x="514" 
d="M287 385q-68 0 -115 48t-47 118t47 118t115 48q67 0 113 -48t46 -118t-46 -118t-113 -48z" />
    <glyph glyph-name="ellipsis" unicode="&#x2026;" horiz-adv-x="1042" 
d="M113 -16q-35 0 -59 24t-24 61t24 61t59 24t59 -25t23 -61q1 -36 -23 -60t-59 -24zM455 -16q-35 0 -59 24t-24 61t24 61t59 24t59 -25t25 -61q-1 -36 -25 -60t-59 -24zM799 -16q-35 0 -60 24t-25 61t26 61q24 24 59 24t59 -25t23 -61q1 -36 -23 -60t-59 -24z" />
    <glyph glyph-name="perthousand" unicode="&#x2030;" horiz-adv-x="1669" 
d="M1411 465q97 0 149 -56t52 -154q0 -99 -75 -183t-171 -84t-148 56t-52 152t74 183q75 86 171 86zM1233 196q-1 -154 135 -153q66 0 121 68t55 144q0 75 -35 115t-101 40t-120 -69q-55 -69 -55 -145zM904 465q96 0 148 -56t52 -154q0 -99 -75 -183t-171 -84t-148 56
t-52 152t74 183q75 86 172 86zM725 198q-1 -154 135 -155q66 0 121 68t55 144q0 75 -35 115t-101 40t-120 -68q-55 -68 -55 -144zM350 559q-96 0 -148 56t-52 153q0 96 74 182t171 86t149 -56t52 -154t-75 -182q-75 -85 -171 -85zM528 826q0 156 -134 155q-65 0 -121 -69
t-56 -144q0 -74 35 -114q34 -40 100 -40t121 68t55 144zM121 -31l-43 45q365 365 513 506t521 514l43 -45q-350 -350 -508 -501q-157 -150 -526 -519z" />
    <glyph glyph-name="guilsinglleft" unicode="&#x2039;" horiz-adv-x="552" 
d="M354 231l-266 324l416 319l41 -47l-355 -284l216 -273z" />
    <glyph glyph-name="guilsinglright" unicode="&#x203a;" horiz-adv-x="550" 
d="M109 231l-41 48l356 284l-215 273l49 38l268 -323z" />
    <glyph glyph-name="fraction" unicode="&#x2044;" horiz-adv-x="999" 
d="M-72 14q582 688 1094 1307l41 -33l-549 -653q-150 -176 -545 -653z" />
    <glyph glyph-name="zero.sup" unicode="&#x2070;" horiz-adv-x="722" 
d="M500 928q110 0 184 131t74 295q0 102 -40 162t-118 61q-110 0 -184 -131t-74 -293q0 -105 40 -165t118 -60zM496 870q-104 0 -163 76q-58 76 -59 201q0 197 94 343t238 146q102 0 161 -75q58 -76 58 -203q0 -196 -94 -342t-235 -146z" />
    <glyph glyph-name="four.sup" unicode="&#x2074;" horiz-adv-x="722" 
d="M557 934l41 172h-350l-8 29l497 503l41 -36l-444 -445h276l45 182l68 27l-49 -207h133l-12 -53h-133l-39 -172h106l-12 -53h-305l12 53h133z" />
    <glyph glyph-name="five.sup" unicode="&#x2075;" horiz-adv-x="722" 
d="M461 868q-84 0 -148 41q-63 41 -63 95t49 55q17 0 31 -12t14 -34t-18 -32q37 -57 140 -57t174 63t71 141q0 154 -164 154q-96 0 -172 -35l-31 25l115 348h383l-13 -61h-331l-84 -250q74 29 158 29t144 -55q60 -53 60 -153t-91 -181t-224 -81z" />
    <glyph glyph-name="six.sup" unicode="&#x2076;" horiz-adv-x="722" 
d="M727 1128q0 76 -43 116q-43 42 -122 42q-80 0 -144 -62t-64 -134t43 -117t124 -45t144 62q62 62 62 138zM666 1634q78 0 128 -37t50 -75t-16 -54t-34 -16q-19 0 -33 12q-13 12 -13 36t20 38q-20 41 -106 41t-168 -78q-113 -113 -142 -295q80 133 228 133q96 0 155 -56
t59 -152q0 -95 -82 -179q-83 -84 -191 -84t-167 64q-70 68 -70 186t46 235q45 116 123 189q102 92 213 92z" />
    <glyph glyph-name="seven.sup" unicode="&#x2077;" horiz-adv-x="722" 
d="M350 881l465 686h-366l-31 -131h-62l45 186h486l16 -31l-477 -710h-76z" />
    <glyph glyph-name="eight.sup" unicode="&#x2078;" horiz-adv-x="722" 
d="M516 928q82 0 142 47t60 114t-50 109q-51 42 -135 41q-85 0 -143 -47q-58 -48 -58 -114t51 -108t133 -42zM428 1432q0 -60 48 -100t121 -40t128 44t55 104t-46 99q-46 38 -122 38t-130 -42t-54 -103zM519 870q-111 0 -183 58t-72 140q0 83 64 141t149 67q-53 22 -85 64
t-32 94q0 80 73 140t178 60t171 -53t66 -129t-53 -126t-136 -69q55 -20 91 -64t34 -103q0 -94 -76 -157t-189 -63z" />
    <glyph glyph-name="nine.sup" unicode="&#x2079;" horiz-adv-x="722" 
d="M599 1577q-79 -1 -141 -63t-62 -138t42 -116q43 -40 122 -41q80 0 144 62q64 61 64 133t-45 118t-124 45zM543 1163q-95 -1 -155 57t-60 154t83 178t189 82t172 -64t66 -184q0 -118 -45 -234t-134 -200t-202 -84q-76 0 -127 38t-51 75t15 54q14 17 34 17t33 -12
q13 -14 13 -36t-20 -37q23 -43 107 -43t168 77q109 104 141 295q-82 -133 -227 -133z" />
    <glyph glyph-name="zero.inf" unicode="&#x2080;" horiz-adv-x="722" 
d="M231 -240q111 0 185 131t73 295q0 102 -39 163q-40 60 -118 61q-111 0 -185 -131t-73 -293q0 -104 40 -165t117 -61zM227 -297q-104 0 -162 76t-59 201q0 197 94 343t238 146q102 0 160 -76t59 -203q-1 -195 -95 -341t-235 -146z" />
    <glyph glyph-name="one.inf" unicode="&#x2081;" horiz-adv-x="722" 
d="M-18 -287l14 60h209l145 618l-219 -53v59l266 68l31 -14l-158 -678h205l-12 -60h-481z" />
    <glyph glyph-name="two.inf" unicode="&#x2082;" horiz-adv-x="722" 
d="M500 284q0 56 -42 90t-113 34t-118 -27t-59 -59q27 -16 27 -40q-1 -24 -15 -38t-36 -14t-36 16q-14 18 -14 45q0 63 73 119t176 57q103 0 163 -49t61 -129q0 -80 -59 -135q-59 -54 -175 -118t-188 -124t-106 -143h364l31 135h60l-43 -191h-484l-12 31q45 112 129 188
t200 140t167 109q49 47 49 103z" />
    <glyph glyph-name="three.inf" unicode="&#x2083;" horiz-adv-x="722" 
d="M42 -74q48 0 48 -52q0 -26 -33 -36q13 -30 61 -54t126 -24t134 46t56 112t-55 108q-55 44 -139 44h-35l14 57h33q104 0 170 45q66 46 66 108t-48 95q-47 33 -121 33q-113 0 -139 -60q27 -10 27 -32q1 -22 -15 -36t-36 -14t-34 18q-13 18 -13 44q0 53 61 96q60 43 160 43
t164 -51t63 -128q0 -77 -60 -129t-155 -65q72 -16 116 -63t44 -111q0 -96 -79 -156t-185 -59q-106 0 -177 48q-70 48 -69 112q0 25 14 43t36 18z" />
    <glyph glyph-name="four.inf" unicode="&#x2084;" horiz-adv-x="722" 
d="M289 -233l41 172h-350l-9 28l498 504l41 -37l-444 -444h276l45 182l68 27l-49 -207h133l-13 -53h-133l-39 -172h107l-12 -54h-306l13 54h133z" />
    <glyph glyph-name="five.inf" unicode="&#x2085;" horiz-adv-x="722" 
d="M193 -299q-84 0 -148 41q-63 41 -63 95t49 54q18 0 31 -12q14 -12 14 -34t-19 -31q37 -58 141 -58t174 64t70 140q0 77 -43 116t-129 39t-164 -35l-30 24l114 349h383l-12 -62h-332l-84 -250q74 29 159 29q84 0 144 -54t60 -154t-91 -180t-224 -81z" />
    <glyph glyph-name="six.inf" unicode="&#x2086;" horiz-adv-x="722" 
d="M294 119q-80 -1 -144 -63t-64 -134t43 -116q43 -46 124 -46t143 62t62 138q0 75 -42 117q-43 42 -122 42zM16 -49q0 119 45 235t123 189q102 92 213 92q78 0 128 -37t50 -75q0 -70 -51 -70q-18 0 -31 12t-13 36t20 38q-20 41 -106 41t-169 -78q-113 -113 -141 -295
q80 133 227 133q95 0 155 -56t60 -152t-83 -180q-83 -83 -191 -83t-166 63q-70 68 -70 187z" />
    <glyph glyph-name="seven.inf" unicode="&#x2087;" horiz-adv-x="722" 
d="M82 -287l465 686h-367l-30 -131h-62l45 187h485l17 -31l-477 -711h-76z" />
    <glyph glyph-name="eight.inf" unicode="&#x2088;" horiz-adv-x="722" 
d="M248 -240q82 0 142 47t60 114t-50 109q-52 42 -136 42t-142 -47t-58 -113t50 -110q52 -42 134 -42zM329 125q73 0 128 44t55 104q0 61 -46 99t-122 38t-130 -42t-54 -104t48 -100q48 -39 121 -39zM516 -78q0 -94 -76 -156t-189 -63q-111 0 -183 57q-72 56 -72 140t63 142
t150 67q-53 23 -85 65t-32 92q0 80 73 140t178 61q105 0 171 -53t66 -129t-54 -126t-135 -69q55 -20 90 -64t35 -104z" />
    <glyph glyph-name="nine.inf" unicode="&#x2089;" horiz-adv-x="722" 
d="M292 51q80 1 144 63t64 134t-45 116q-45 46 -124 46t-141 -62t-63 -139q0 -76 43 -117t122 -41zM274 -4q-96 0 -156 56t-59 154q0 97 83 179q84 82 190 82q106 -1 172 -65t66 -183t-46 -235q-45 -116 -134 -199q-89 -84 -202 -84q-76 0 -127 38t-51 75t16 54t34 17
t32 -13t14 -36t-20 -37q20 -43 105 -43t169 78q109 104 142 295q-82 -133 -228 -133z" />
    <glyph glyph-name="Euro" unicode="&#x20ac;" horiz-adv-x="1126" 
d="M184 416v4q0 96 27 182h-131l14 64h142q68 160 207 263t305 103t261 -82t95 -180q0 -39 -23 -67q-23 -27 -53 -27q-64 1 -63 63q0 20 15 42t38 30q-18 63 -89 109t-195 45q-124 0 -238 -83q-115 -83 -179 -216h420l-14 -64h-430q-31 -90 -31 -182v-4h434l-16 -66h-414
q20 -137 116 -216t232 -79q178 0 330 121l39 -55q-174 -133 -379 -133q-164 0 -280 97t-136 265h-151l16 66h131z" />
    <glyph glyph-name="published" unicode="&#x2117;" horiz-adv-x="1220" 
d="M803 605q0 58 -41 91t-105 33h-79v-248l81 -2q66 0 105 34t39 92zM578 283h75v-47h-202v47h73v446h-73v47h206q87 0 143 -46t56 -125t-53 -126t-146 -47l-79 2v-151zM621 31q197 0 329 141t133 342q0 201 -133 341q-134 140 -330 140t-328 -141t-132 -341t132 -341
t329 -141zM622 -18q-222 0 -369 153q-146 154 -147 377q0 223 146 378q146 154 370 154q222 0 368 -154t146 -376q0 -224 -146 -378t-368 -154z" />
    <glyph glyph-name="servicemark" unicode="&#x2120;" horiz-adv-x="1198" 
d="M584 846l10 47h74l116 407h-79l10 48h137l80 -353l242 353h145l-10 -48h-80l-78 -407h80l-10 -47h-197l10 47h68l72 377l-246 -359h-25l-84 357l-100 -375h69l-12 -47h-192zM372 836q-75 0 -125 36t-50 82q0 23 13 38t34 16q39 0 39 -39q0 -25 -21 -41q32 -45 96 -45
q64 1 96 25t31 63q0 55 -94 106q-57 35 -86 67t-29 82t46 90t114 40q70 0 114 -32t44 -64q0 -62 -43 -62t-43 39q0 25 22 37q-29 37 -84 37t-85 -25q-29 -24 -29 -58t22 -56t74 -52q115 -70 115 -137t-48 -107t-123 -40z" />
    <glyph glyph-name="trademark" unicode="&#x2122;" horiz-adv-x="1234" 
d="M229 846l11 47h79l97 412h-144l-20 -88h-53l32 131h441l-31 -131h-51l20 88h-141l-96 -412h78l-11 -47h-211zM621 846l10 47h76l112 407h-78l11 48h137l80 -353l241 353h146l-13 -48h-77l-78 -407h80l-11 -47h-196l10 47h68l73 377l-247 -359h-25l-84 357l-100 -375h67
l-10 -47h-192z" />
    <glyph glyph-name="onethird" unicode="&#x2153;" horiz-adv-x="1628" 
d="M295 14q582 688 1094 1307l41 -33l-549 -653q-150 -176 -545 -653zM164 573l14 60h209l145 618l-219 -53v59l267 68l30 -14l-157 -678h204l-12 -60h-481zM1462 207q0 -95 -78 -155t-186 -60q-106 0 -176 48t-70 112q0 25 14 43t36 18t35 -13t13 -39t-32 -36
q12 -31 60 -55t126 -23q78 0 134 46q56 45 56 111t-54 109q-56 43 -140 43h-35l15 58h32q104 0 170 45t66 107t-47 96t-121 32q-113 0 -139 -59q27 -11 27 -33t-16 -36q-15 -14 -36 -13q-21 0 -34 17t-13 44q0 52 61 96q60 44 160 44t164 -52t64 -128q0 -77 -60 -129
t-155 -64q71 -15 115 -63t44 -111z" />
    <glyph glyph-name="twothirds" unicode="&#x2154;" horiz-adv-x="1628" 
d="M307 14q582 688 1094 1307l41 -33l-549 -653q-150 -176 -545 -653zM1202 -8q-106 0 -176 48t-70 112q0 25 14 43t36 18t35 -13t13 -39t-32 -36q12 -31 60 -55t126 -23q78 0 134 46q56 45 56 111t-54 109q-56 43 -140 43h-35l15 58h33q103 0 169 45t66 107t-47 96t-121 32
q-113 0 -139 -59q27 -11 27 -33t-16 -36q-15 -14 -36 -13q-21 0 -34 17t-13 44q-1 52 61 96t161 44t163 -52t64 -128q0 -77 -60 -129t-155 -64q71 -15 115 -63t44 -111q0 -96 -78 -156q-80 -59 -186 -59zM692 1144q0 56 -42 90t-112 34t-118 -27q-47 -27 -60 -59
q27 -16 27 -40t-14 -38t-36 -14t-36 17t-14 44q0 63 72 120q73 56 177 56t163 -49q61 -49 61 -129t-60 -135q-60 -54 -175 -118t-187 -124t-107 -143h365l31 135h59l-43 -191h-483l-13 31q45 113 129 189t201 139t166 109q49 47 49 103z" />
    <glyph glyph-name="onefifth" unicode="&#x2155;" horiz-adv-x="1628" 
d="M289 14q593 700 1093 1307l41 -33l-549 -653q-149 -176 -544 -653zM152 573l14 60h209l145 618l-219 -53v59l266 68l31 -14l-158 -678h205l-12 -60h-481zM1145 -12q-84 0 -148 41q-63 41 -63 95t49 54q17 0 31 -12t14 -34t-18 -32q37 -57 140 -57t174 63q71 62 71 140
q0 154 -164 155q-96 0 -172 -34l-31 24l115 348h383l-13 -61h-331l-84 -250q74 29 158 29q84 -1 144 -55t60 -154t-91 -180t-224 -80z" />
    <glyph glyph-name="twofifths" unicode="&#x2156;" horiz-adv-x="1628" 
d="M328 14q593 700 1093 1307l41 -33l-549 -653q-149 -176 -544 -653zM1159 -12q-84 0 -147 41q-64 41 -64 95t49 54q17 0 31 -12t14 -34t-18 -32q37 -57 140 -57t174 63q71 62 71 140q0 154 -164 155q-96 0 -172 -34l-31 24l115 348h383l-12 -61h-332l-84 -250
q74 29 159 29q85 -1 144 -55t59 -154t-90 -180q-92 -80 -225 -80zM725 1144q0 56 -42 90t-113 34q-72 0 -118 -27t-59 -59q27 -16 27 -40t-14 -38t-36 -14t-36 17t-15 44q0 63 73 119t176 57q104 0 164 -49t60 -129t-58 -135q-60 -54 -176 -118t-188 -124t-106 -143h365
l30 135h60l-43 -191h-483l-13 31q45 113 129 189q85 76 201 139t166 109q49 47 49 103z" />
    <glyph glyph-name="threefifths" unicode="&#x2157;" horiz-adv-x="1628" 
d="M289 14q593 700 1093 1307l41 -33l-549 -653q-149 -176 -544 -653zM1149 -12q-84 0 -148 41q-63 41 -63 95t49 54q17 0 31 -12t14 -34t-18 -32q37 -57 140 -57t174 63q71 62 71 140q0 154 -164 155q-96 0 -172 -34l-31 24l115 348h383l-12 -61h-332l-84 -250
q74 29 158 29q84 -1 144 -55t60 -154t-91 -180t-224 -80zM244 786q48 0 49 -52q0 -26 -33 -36q12 -30 60 -54t126 -24t135 47q56 46 56 111q0 64 -55 108t-140 44h-34l14 57h33q104 0 170 45q65 46 65 108t-47 95t-121 33q-113 0 -139 -60q27 -10 27 -32t-16 -36t-36 -14
q-22 0 -34 18t-13 44q-1 53 61 96t162 43t162 -51q64 -51 64 -128t-60 -129t-155 -65q71 -16 115 -63t45 -111q0 -96 -79 -156q-80 -60 -186 -59q-106 0 -176 48t-69 112q0 25 14 43q13 18 35 18z" />
    <glyph glyph-name="fourfifths" unicode="&#x2158;" horiz-adv-x="1628" 
d="M309 14q582 688 1094 1307l41 -33l-549 -653q-150 -176 -545 -653zM492 627l40 172h-350l-8 28l498 504l41 -37l-445 -444h277l45 182l67 27l-49 -207h133l-12 -53h-133l-39 -172h107l-13 -54h-305l12 54h134zM1167 -12q-84 0 -147 41q-64 41 -64 95t50 54q18 0 31 -12
t13 -34t-18 -32q36 -57 140 -57t175 63q71 62 71 140q-1 155 -165 155q-96 0 -172 -34l-30 24l114 348h383l-12 -61h-332l-84 -250q74 29 159 29q85 -1 144 -55t59 -154t-90 -180q-92 -80 -225 -80z" />
    <glyph glyph-name="onesixth" unicode="&#x2159;" horiz-adv-x="1628" 
d="M283 14q593 700 1093 1307l41 -33l-549 -653q-149 -176 -544 -653zM147 573l15 60h209l145 618l-219 -53v59l266 68l31 -14l-158 -678h205l-12 -60h-482zM1224 406q-79 0 -144 -62q-64 -62 -64 -134t43 -118t124 -45t143 63t62 137t-42 117q-43 42 -122 42zM946 238
q0 118 45 234t123 190q102 92 213 92q78 0 128 -37t50 -75q0 -69 -51 -71q-18 1 -32 13t-13 36q0 24 21 37q-20 41 -106 41t-169 -77q-113 -113 -141 -295q80 133 227 133q95 -1 155 -57t60 -152t-83 -179t-191 -83t-166 63q-70 68 -70 187z" />
    <glyph glyph-name="fivesixths" unicode="&#x215a;" horiz-adv-x="1628" 
d="M283 14q593 700 1093 1307l41 -33l-549 -653q-149 -176 -544 -653zM1226 406q-79 0 -144 -62q-64 -62 -64 -134t43 -118t124 -45t143 63t62 137t-42 117q-43 42 -122 42zM641 820q0 155 -173 155q-87 0 -163 -35l-31 25l115 348h383l-12 -62h-332l-84 -250q74 29 159 29
t144 -54t59 -154t-90 -180q-92 -81 -225 -81q-84 0 -147 41q-64 41 -64 95t49 55q17 0 31 -12t14 -34t-18 -32q37 -58 140 -58t174 64t71 140zM948 238q0 118 45 234t123 190q102 92 213 92q78 0 128 -37t50 -75q0 -69 -51 -71q-18 1 -32 13t-13 36q0 24 21 37
q-20 41 -106 41t-169 -77q-113 -113 -141 -295q80 133 227 133q95 -1 155 -57t60 -152t-83 -179t-191 -83t-166 63q-70 68 -70 187z" />
    <glyph glyph-name="oneeighth" unicode="&#x215b;" horiz-adv-x="1628" 
d="M1271 412q73 0 128 44t55 104t-46 98t-122 38t-130 -42t-54 -103t48 -100t121 -39zM281 14q538 636 1093 1307l41 -33l-549 -653q-149 -176 -544 -653zM158 573l14 60h209l145 618l-219 -53v59l266 68l31 -14l-158 -678h205l-12 -60h-481zM1006 198q0 -66 51 -108
t133 -43q82 0 142 47t60 114q0 66 -50 108q-52 42 -136 42t-142 -47t-58 -113zM1458 209q0 -95 -76 -157t-189 -62q-111 0 -183 57t-72 140t63 141t150 67q-53 23 -85 65t-32 93q0 80 73 140q73 61 178 61t171 -54t66 -129q0 -76 -54 -126t-135 -68q55 -21 90 -65t35 -103z
" />
    <glyph glyph-name="threeeighths" unicode="&#x215c;" horiz-adv-x="1628" 
d="M1285 412q73 0 128 44t55 104t-46 98t-122 38t-130 -42t-54 -103t48 -100t121 -39zM285 14q593 700 1093 1307l41 -33l-549 -653q-149 -176 -544 -653zM1407 208q0 66 -51 108t-135 42q-85 0 -143 -47t-58 -113t51 -108t133 -43q82 0 143 47q60 47 60 114zM696 780
q0 -96 -78 -156t-186 -59q-106 0 -176 48t-70 112q0 25 14 43t36 18t35 -13t13 -39t-32 -36q12 -30 60 -54t126 -24t134 47q56 46 56 111q0 64 -54 108q-56 44 -140 44h-35l15 57h32q104 0 170 45q66 46 66 108t-47 95t-121 33q-113 0 -139 -60q27 -10 27 -32t-16 -36
q-15 -14 -36 -14t-34 18t-13 44q-1 53 61 96t161 43t163 -51t64 -128t-60 -129t-155 -65q71 -16 115 -63t44 -111zM1473 209q0 -95 -77 -157t-189 -62q-111 0 -183 57t-72 140t64 141t149 67q-53 23 -85 65t-31 93q0 80 72 140q73 61 179 61t170 -54q66 -54 66 -129
q0 -76 -53 -126t-135 -68q55 -21 90 -65t35 -103z" />
    <glyph glyph-name="fiveeighths" unicode="&#x215d;" horiz-adv-x="1628" 
d="M1094 551q0 -61 48 -100t120 -39q73 0 129 44q55 44 55 104t-46 98t-122 38t-130 -42t-54 -103zM266 14q582 688 1094 1307l41 -33l-549 -653q-150 -176 -545 -653zM1182 47q82 0 142 47t60 114q0 66 -51 108t-135 42t-142 -47t-58 -113t50 -108q52 -42 134 -43zM637 820
q0 155 -173 155q-87 0 -163 -35l-31 25l115 348h383l-12 -62h-332l-84 -250q74 29 159 29t144 -54t59 -154t-91 -180q-91 -81 -224 -81q-84 0 -147 41q-64 41 -64 95t49 55q17 0 31 -12t14 -34t-18 -32q37 -58 140 -58t174 64t71 140zM1450 209q0 -95 -76 -157t-189 -62
q-112 0 -184 57q-71 57 -71 140t63 141t150 67q-53 23 -85 65t-32 93q0 80 73 140q73 61 178 61t171 -54t66 -129q0 -76 -54 -126q-53 -50 -135 -68q55 -21 90 -65t35 -103z" />
    <glyph glyph-name="seveneighths" unicode="&#x215e;" horiz-adv-x="1628" 
d="M1092 551q0 -61 48 -100t120 -39q73 0 129 44q55 44 55 104t-46 98t-122 38t-130 -42t-54 -103zM211 14q582 688 1094 1307l41 -33l-549 -653q-150 -176 -545 -653zM301 573l465 687h-367l-30 -132h-62l45 187h486l16 -31l-477 -711h-76zM1180 47q82 0 142 47t60 114
q0 66 -51 108t-135 42t-142 -47t-58 -113t50 -108q52 -42 134 -43zM1448 209q0 -95 -76 -157t-189 -62q-112 0 -184 57q-71 57 -71 140t63 141t150 67q-53 23 -85 65t-32 93q0 80 73 140q73 61 178 61t171 -54t66 -129q0 -76 -54 -126q-53 -50 -135 -68q55 -21 90 -65
t35 -103z" />
    <glyph glyph-name="minus" unicode="&#x2212;" horiz-adv-x="802" 
d="M106 504l17 71h627l-17 -71h-627z" />
    <glyph glyph-name="Q.alt" horiz-adv-x="1486" 
d="M711 53q117 0 223 47l-107 295l72 23l102 -283q163 95 261 279t98 391t-122 348t-349 141q-178 0 -329 -108q-152 -108 -236 -280q-84 -170 -84 -370t123 -342t348 -141zM705 -20q-254 0 -402 160q-147 161 -147 405q0 201 93 389t266 311t382 123q254 0 401 -161
q148 -161 148 -393t-115 -437t-305 -311l96 -269l-71 -22l-90 258q-129 -53 -256 -53z" />
    <glyph glyph-name="zero.lin" horiz-adv-x="1239" 
d="M233 486q0 -196 89 -314q89 -117 248 -117t285 120t195 305q68 185 68 383t-90 315q-90 116 -248 116t-284 -120t-195 -306q-68 -186 -68 -382zM562 -20q-184 0 -300 135t-115 364q0 229 82 434q83 205 229 330t330 125t301 -135q115 -135 115 -363t-82 -434
q-82 -205 -228 -331q-148 -125 -332 -125z" />
    <glyph glyph-name="one.lin" horiz-adv-x="823" 
d="M10 0l17 72h276l277 1194l-304 -84v78l373 106l31 -18l-293 -1276h275l-17 -72h-635z" />
    <glyph glyph-name="two.lin" horiz-adv-x="1073" 
d="M987 1046q0 110 -78 180q-79 68 -205 68t-220 -54t-122 -122q50 -29 50 -67t-20 -58t-53 -20q-31 -1 -53 23t-22 63q0 109 129 209t305 100t276 -90q101 -90 101 -227t-99 -237t-315 -224q-217 -123 -345 -240t-193 -278h674l57 252h80l-74 -324h-825l-15 39
q76 205 222 344t385 270q190 109 275 196t85 197z" />
    <glyph glyph-name="three.lin" horiz-adv-x="1028" 
d="M444 -18q-158 0 -280 80t-121 182q0 42 22 70q23 28 55 28t50 -19t18 -45t-16 -44q-16 -19 -43 -25q15 -55 109 -103t211 -49q170 0 275 90q105 91 105 223t-107 213q-108 81 -278 81h-36l16 73h41q215 0 339 87t124 208t-81 192t-216 70q-207 0 -275 -120q53 -16 54 -66
q0 -29 -22 -46q-22 -18 -50 -18t-50 23t-22 59q0 96 112 169t270 73t261 -91q105 -91 105 -231t-112 -234t-279 -118q133 -32 213 -116t79 -209q0 -163 -135 -275t-336 -112z" />
    <glyph glyph-name="four.lin" horiz-adv-x="1099" 
d="M891 881l-94 -394h247l-16 -71h-248l-82 -344h205l-16 -72h-537l17 72h249l80 344h-628l-7 30l910 926l55 -51l-827 -834h514l84 357z" />
    <glyph glyph-name="five.lin" horiz-adv-x="1036" 
d="M410 -20q-137 0 -245 68t-108 155q1 33 21 59t50 25t49 -19t19 -54t-40 -52q26 -45 96 -77t166 -32q186 0 305 125q119 126 119 276t-81 223t-223 73t-270 -58l-32 31l204 625h617l-19 -80h-546l-162 -486q98 41 221 41q172 0 274 -95q103 -95 103 -270q0 -174 -144 -326
t-374 -152z" />
    <glyph glyph-name="six.lin" horiz-adv-x="1105" 
d="M558 53q148 0 264 123t116 291q0 129 -83 207t-235 78t-270 -120q-119 -120 -119 -262t91 -229q88 -88 236 -88zM143 424q0 215 80 429t223 353q166 162 369 162q123 0 210 -63t87 -144q0 -41 -22 -65t-53 -25q-30 1 -49 19t-19 55t43 63q-14 35 -68 63t-129 27
q-168 0 -317 -145q-102 -98 -173 -253t-94 -320q57 102 163 174t263 72q155 0 261 -103q106 -102 106 -256q0 -191 -141 -339t-325 -148t-298 110q-117 119 -117 334z" />
    <glyph glyph-name="seven.lin" horiz-adv-x="999" 
d="M152 0l856 1276h-654l-53 -227h-80l70 299h815l18 -33l-876 -1315h-96z" />
    <glyph glyph-name="eight.lin" horiz-adv-x="1089" 
d="M540 53q148 0 256 91q108 90 108 224t-94 216q-93 82 -251 82t-262 -96t-104 -226q0 -131 99 -211q100 -80 248 -80zM350 1006q0 -120 87 -196t229 -75q142 0 240 85q100 85 100 207t-86 195q-86 72 -230 72t-242 -84t-98 -204zM543 -18q-184 0 -309 99q-124 99 -124 252
t104 257q103 104 259 125q-90 37 -147 117t-58 176q0 148 120 254t297 106t291 -93t114 -233t-92 -233q-92 -92 -246 -121q104 -35 170 -120t65 -191q0 -171 -130 -283t-314 -112z" />
    <glyph glyph-name="nine.lin" horiz-adv-x="1105" 
d="M600 596q152 0 270 120t119 262q0 142 -91 229q-92 87 -238 87t-262 -123t-115 -290q0 -129 83 -207q82 -78 234 -78zM195 883q0 189 141 337q140 148 328 148t300 -116t113 -330q0 -214 -80 -428t-223 -351q-168 -164 -371 -163q-121 0 -207 63t-87 143q0 41 22 66
q23 24 53 24t48 -18q20 -18 20 -56t-45 -63q17 -33 71 -61t128 -27q168 0 317 144q102 99 173 253t93 320q-59 -102 -165 -173t-262 -71q-154 0 -260 102t-107 257z" />
    <glyph glyph-name="bullet.alt" horiz-adv-x="1261" 
d="M633 -98q-223 0 -374 154t-150 376q0 221 150 376q151 155 374 155t374 -155t151 -376t-151 -376q-151 -154 -374 -154z" />
    <glyph glyph-name="hyphen.lin" horiz-adv-x="479" 
d="M115 647l18 78h336l-16 -78h-338z" />
    <glyph glyph-name="endash.lin" horiz-adv-x="782" 
d="M86 647l18 78h697l-17 -78h-698z" />
    <glyph glyph-name="emdash.lin" horiz-adv-x="1226" 
d="M86 647l18 78h1141l-14 -78h-1145z" />
    <glyph glyph-name="parenleft.lin" horiz-adv-x="657" 
d="M166 496q0 367 199 679t522 484l37 -57q-308 -168 -492 -466t-184 -640q0 -461 352 -770l-43 -54q-391 328 -391 824z" />
    <glyph glyph-name="parenright.lin" horiz-adv-x="657" 
d="M514 838q0 465 -350 770l43 53q391 -328 391 -823q0 -368 -198 -680t-525 -484l-37 58q309 170 493 468q183 298 183 638z" />
    <glyph glyph-name="bracketleft.lin" horiz-adv-x="659" 
d="M68 -287l444 1909h416l-17 -70h-333l-412 -1769h334l-17 -70h-415z" />
    <glyph glyph-name="bracketright.lin" horiz-adv-x="659" 
d="M-156 -287l17 70h334l409 1769h-332l17 70h413l-442 -1909h-416z" />
    <glyph glyph-name="braceleft.lin" horiz-adv-x="612" 
d="M104 0q0 141 162 287q45 43 69 67t45 63q55 94 -24 171q-45 43 -141 43h-74l23 84h76q115 0 177 51t62 130t-58 202t-59 215q0 141 123 237t346 101l-14 -62q-182 -8 -279 -87q-98 -79 -98 -175t58 -222t57 -215q0 -90 -63 -150t-168 -70q74 -18 114 -66t39 -112
q0 -109 -149 -246q-145 -129 -146 -244q0 -193 224 -252l-17 -61q-135 25 -210 109t-75 202z" />
    <glyph glyph-name="braceright.lin" horiz-adv-x="612" 
d="M168 450q0 90 63 150t168 74q-71 16 -111 64t-40 112q0 111 147 246t148 243q0 190 -226 254l17 60q135 -25 210 -109t74 -201q0 -139 -161 -288q-133 -125 -133 -201q0 -57 45 -100t139 -43h74l-21 -84h-76q-115 1 -178 -51t-63 -128t58 -200t58 -219q0 -141 -122 -238
q-124 -96 -347 -100l15 61q182 8 280 88t99 189q-1 80 -59 206q-58 125 -58 215z" />
    <glyph glyph-name="registered.alt" horiz-adv-x="1220" 
d="M535 522h69q66 0 107 31t41 83t-39 81t-105 28h-73v-223zM408 254v47h73v444h-73v48h204q88 0 140 -42t53 -112q0 -113 -119 -147l117 -191h67v-47h-102l-133 223h-100v-176h71v-47h-198zM621 31q197 0 329 141t133 342q0 201 -133 341q-134 140 -330 140t-328 -141
t-132 -341t132 -341t329 -141zM622 -18q-222 0 -369 153q-146 154 -147 377q0 223 146 378q146 154 370 154q222 0 368 -154t146 -376q0 -224 -146 -378t-368 -154z" />
    <glyph glyph-name="copyright.lin" horiz-adv-x="1611" 
d="M861 338q-151 0 -246 100t-95 247t100 247t240 100q102 0 176 -52t74 -116q0 -25 -15 -41t-37 -16t-36 13t-14 38t28 35q-14 31 -63 57t-115 25q-120 0 -196 -85t-76 -205t78 -205t198 -85t213 88l37 -45q-100 -100 -251 -100zM836 31q262 0 440 186q178 187 178 457
t-178 456t-440 186t-440 -186t-179 -456q0 -270 178 -457q179 -186 441 -186zM836 -20q-287 0 -482 202t-194 492q0 290 194 492t482 202t482 -202t194 -492t-195 -492q-194 -202 -481 -202z" />
    <glyph glyph-name="published.lin" horiz-adv-x="1611" 
d="M1055 800q0 72 -51 114t-134 42h-102v-313l104 -2q84 0 134 43q49 43 49 116zM768 393h96v-55h-248v55h91v563h-91v56h254q109 0 179 -58q69 -58 69 -155q0 -98 -67 -156q-68 -57 -181 -57l-102 2v-195zM836 31q262 0 440 186q178 187 178 457t-178 456t-440 186
t-440 -186t-179 -456q0 -270 178 -457q179 -186 441 -186zM836 -20q-287 0 -482 202t-194 492q0 290 194 492t482 202t482 -202t194 -492t-195 -492q-194 -202 -481 -202z" />
    <glyph glyph-name="registered.lin" horiz-adv-x="1611" 
d="M735 684h94q80 0 132 38q51 38 51 106t-47 104q-47 37 -131 37h-99v-285zM584 350v56h90v563h-90v55h254q108 0 174 -52t66 -132t-44 -128q-43 -48 -110 -65l151 -241h82v-56h-121l-170 279h-131v-223h90v-56h-241zM836 31q262 0 440 186q178 187 178 457t-178 456
t-440 186t-440 -186t-179 -456q0 -270 178 -457q179 -186 441 -186zM836 -20q-287 0 -482 202t-194 492q0 290 194 492t482 202t482 -202t194 -492t-195 -492q-194 -202 -481 -202z" />
    <glyph glyph-name="dollar.lin" horiz-adv-x="1077" 
d="M688 1274q-136 0 -232 -70t-96 -174q0 -106 60 -166t172 -123l164 527q-35 6 -68 6zM877 346q0 96 -65 161t-187 128l-172 -557q23 -4 71 -4q156 0 254 74t99 198zM59 281q0 41 24 67q25 26 57 27q32 -1 52 -21t21 -45q0 -53 -53 -84q23 -41 85 -80t144 -57l178 576
q-217 118 -266 228q-23 52 -22 118q0 147 119 241q120 94 298 95q41 0 82 -7l58 191l65 -19l-55 -188q110 -31 180 -94t70 -133q0 -43 -23 -68q-23 -24 -55 -24t-52 20q-22 20 -22 58t53 67q-55 74 -180 106l-168 -542q231 -119 285 -238q25 -55 24 -123q0 -162 -120 -256
t-318 -94q-47 0 -90 6l-63 -215l-68 19l61 211q-131 35 -216 111t-85 147z" />
    <glyph glyph-name="sterling.lin" horiz-adv-x="1097" 
d="M706 53q102 0 218 86l41 -55q-119 -104 -279 -104q-98 0 -252 53q-119 47 -225 47q-31 -41 -74 -67t-74 -25q-63 0 -63 53q0 41 50 72t142 34q201 168 207 392h-219l15 69h202q-2 31 -13 129t-11 156q0 203 111 339q112 136 309 136q121 0 207 -66t85 -151q1 -43 -21 -68
t-54 -25t-55 22q-21 22 -21 62t45 58q-13 35 -65 64t-126 28q-160 0 -248 -116t-87 -281q0 -53 11 -153t13 -134h359l-15 -69h-342q-6 -242 -205 -389q96 -12 214 -54t220 -43z" />
    <glyph glyph-name="Euro.lin" horiz-adv-x="1409" 
d="M791 55q229 0 413 189l53 -54q-211 -211 -473 -210q-213 0 -348 135t-147 354h-213l16 70h197q4 125 37 243h-176l14 72h184q82 224 249 368t367 144t311 -103q112 -103 111 -214q0 -47 -24 -76t-58 -29q-32 0 -52 18t-21 50q0 57 61 82q-14 76 -99 137t-218 61
q-183 0 -325 -122t-216 -316h565l-16 -72h-571q-37 -127 -39 -243h553l-15 -70h-538q12 -186 123 -300t295 -114z" />
    <glyph glyph-name="yen.lin" horiz-adv-x="1282" 
d="M252 553l16 70h320l-238 653h-145l18 72h406l-17 -72h-174l226 -647l530 647h-172l18 72h406l-16 -72h-138l-549 -653h310l-17 -70h-350l-41 -170h352l-16 -70h-352l-58 -241h209l-16 -72h-500l17 72h208l58 241h-350l14 70h352l39 170h-350z" />
    <glyph glyph-name="cent.lin" horiz-adv-x="935" 
d="M215 618q0 -205 166 -272l213 721q-152 -7 -266 -141t-113 -308zM492 256q-37 0 -72 6l-86 -297l-62 17l88 294q-102 37 -162 125t-61 215q-1 207 141 363t334 156l74 239l62 -16l-68 -228q106 -18 170 -80t63 -132q1 -39 -21 -64t-50 -25q-58 0 -60 62q0 49 45 63
q-33 90 -170 111l-217 -737q18 -4 62 -4q162 0 293 116l-4 -82q-133 -102 -299 -102z" />
    <glyph glyph-name="numbersign.lin" horiz-adv-x="1124" 
d="M526 874l-114 -417h293l116 417h-295zM1028 1348l-113 -406h261l-19 -68h-260l-117 -417h271l-19 -68h-270l-109 -389h-75l108 389h-295l-106 -389h-76l108 389h-260l19 68h260l115 417h-269l19 68h268l115 406h75l-112 -406h293l112 406h76z" />
    <glyph glyph-name="paragraph.lin" horiz-adv-x="1298" 
d="M700 70h142l278 1208h-141zM633 504q-219 0 -337 98t-118 288t155 324t398 134h658l-17 -72h-168l-278 -1204h178l-17 -72h-657l16 72h170l101 432h-84z" />
    <glyph glyph-name="section.lin" horiz-adv-x="1001" 
d="M240 688q0 -95 150 -162q36 -16 97 -41l66 -26q156 21 243 75t87 124t-66 115q-73 51 -248 114q-153 -19 -241 -73t-88 -126zM156 688q0 90 91 152t240 86q-154 82 -153 207q0 99 97 167t243 68q190 0 289 -102q51 -52 51 -98t-20 -70t-49 -23q-30 -1 -49 19t-19 53
t32 59q-12 27 -43 43q-76 49 -192 49t-186 -48t-70 -116t62 -115q62 -46 165 -86q103 -41 145 -61q120 -59 155 -123q22 -40 22 -90q0 -86 -88 -148t-246 -91q154 -82 153 -205q0 -100 -96 -168t-241 -67q-193 0 -293 108q-47 51 -47 94t19 67q19 23 50 23t49 -19
q19 -19 19 -52t-33 -60q2 -14 33 -37q80 -53 199 -53t189 47t71 116t-63 115t-169 87t-145 61q-120 61 -152 122q-20 40 -20 89z" />
    <glyph glyph-name="ordfeminine.lin" horiz-adv-x="679" 
d="M117 795l14 55h524l-14 -55h-524zM371 1042q92 0 155 86q64 86 64 170t-40 126t-119 42t-141 -80t-62 -169t38 -132q39 -43 105 -43zM358 987q-84 0 -138 56t-54 171t82 211t194 97q70 0 115 -35t59 -94l31 123h58l-95 -383q-6 -33 -6 -58q0 -39 39 -39t76 84l35 -16
q-41 -115 -119 -115q-88 0 -88 88v17q-78 -107 -189 -107z" />
    <glyph glyph-name="ordmasculine.lin" horiz-adv-x="671" 
d="M488 1468q-82 0 -147 -76t-65 -166t45 -137t127 -47t147 76t65 165t-46 137q-44 48 -126 48zM145 795l15 55h465l-15 -55h-465zM446 985q-110 -1 -170 63t-61 176q0 112 83 206q82 94 192 94t170 -62t60 -176q0 -113 -82 -207t-192 -94z" />
    <glyph glyph-name="degree.lin" horiz-adv-x="649" 
d="M473 1462q-76 0 -135 -68t-59 -151q0 -82 41 -125q40 -43 116 -43t135 69t59 151q0 83 -40 125q-41 42 -117 42zM477 1522q105 0 161 -60t56 -164t-80 -193t-184 -89t-161 60q-56 60 -56 164t80 193t184 89z" />
    <glyph glyph-name="percent.lin" horiz-adv-x="1378" 
d="M129 -14l-49 45q82 86 641 665l643 670l51 -45l-641 -666q-540 -564 -645 -669zM469 852q86 0 155 82q68 82 68 174t-48 142t-133 50t-154 -80t-69 -174t48 -144q47 -50 133 -50zM983 51q86 0 154 81q67 81 67 174q0 94 -47 144t-133 50t-155 -82t-69 -174t49 -143
q48 -50 134 -50zM764 1110q0 -120 -91 -222q-91 -104 -210 -104t-183 70t-65 188q0 118 91 222q92 104 210 104t183 -69t65 -189zM978 -18q-118 0 -185 70q-66 70 -66 188t91 222t211 105q121 1 185 -69t64 -188t-91 -224q-91 -104 -209 -104z" />
    <glyph glyph-name="perthousand.lin" horiz-adv-x="2039" 
d="M129 -14l-49 45q82 86 641 665l643 670l51 -45l-641 -666q-540 -564 -645 -669zM469 852q86 0 155 82q68 82 68 174t-48 142t-133 50t-154 -80t-69 -174t48 -144q47 -50 133 -50zM1645 51q85 0 154 81t69 174q0 94 -47 144t-133 50t-155 -82t-69 -174t48 -143
q48 -50 133 -50zM983 51q86 0 154 81q67 81 67 174q0 94 -47 144t-133 50t-155 -82t-69 -174t49 -143q48 -50 134 -50zM764 1110q0 -120 -91 -222q-91 -104 -210 -104t-183 70t-65 188q0 118 91 222q92 104 210 104t183 -69t65 -189zM1640 -18q-118 0 -183 70t-65 188
t92 222q90 104 208 105t184 -69t66 -188t-92 -224q-92 -104 -210 -104zM978 -18q-118 0 -185 70q-66 70 -66 188t91 222t211 105q121 1 185 -69t64 -188t-91 -224q-91 -104 -209 -104z" />
    <glyph glyph-name="quotedbl.lin" horiz-adv-x="538" 
d="M330 1518q27 0 43 -16t16 -38t-12 -51l-139 -309h-29l57 334q12 80 64 80zM575 1518q27 0 45 -16t17 -38q0 -22 -12 -51l-140 -309h-30l57 334q12 80 63 80z" />
    <glyph glyph-name="quotesingle.lin" horiz-adv-x="282" 
d="M330 1518q27 0 43 -16t16 -38t-12 -51l-139 -309h-29l57 334q12 80 64 80z" />
    <glyph glyph-name="plus.lin" horiz-adv-x="802" 
d="M569 999l-65 -274h278l-16 -72h-279l-69 -305h-74l70 305h-275l17 72h274l66 274h73z" />
    <glyph glyph-name="minus.lin" horiz-adv-x="802" 
d="M139 653l17 72h626l-16 -72h-627z" />
    <glyph glyph-name="divide.lin" horiz-adv-x="802" 
d="M469 434q-1 -28 -21 -50t-48 -22t-48 22t-20 50t20 49t49 21t49 -20t19 -50zM520 874q-29 0 -49 20t-20 50q0 28 20 50t48 22t48 -22q21 -22 21 -50t-20 -50q-20 -20 -48 -20zM139 653l17 72h626l-16 -72h-627z" />
    <glyph glyph-name="equal.lin" horiz-adv-x="802" 
d="M106 485l17 72h586l-17 -72h-586zM176 778l17 72h585l-16 -72h-586z" />
    <glyph glyph-name="multiply.lin" horiz-adv-x="802" 
d="M260 979l180 -236l279 224l47 -58l-279 -225l183 -235l-60 -50l-184 236l-276 -223l-48 59l279 223l-182 236z" />
    <glyph glyph-name="less.lin" horiz-adv-x="782" 
d="M555 332l-416 323l6 29l557 317l37 -59l-493 -278l354 -277z" />
    <glyph glyph-name="greater.lin" horiz-adv-x="782" 
d="M180 336l-37 57l492 279l-354 276l47 58l415 -324l-6 -31z" />
    <glyph glyph-name="plusminus.lin" horiz-adv-x="802" 
d="M33 242l14 71h625l-17 -71h-622zM575 1090l-65 -279h276l-14 -72h-278l-64 -282h-74l64 282h-273l15 72h274l66 279h73z" />
    <glyph glyph-name="zero.tab" horiz-adv-x="1085" 
d="M221 468q0 -192 69 -301q68 -110 198 -110t246 126q116 127 179 317t63 382t-68 301t-198 109t-246 -126t-180 -316t-63 -382zM1067 888q0 -226 -79 -436t-216 -341t-297 -131t-252 129t-91 354t80 436t215 341t296 130t252 -128t92 -354z" />
    <glyph glyph-name="one.tab" horiz-adv-x="1085" 
d="M66 0l18 74h348l281 1194l-371 -99v76l436 119l37 -18l-299 -1272h346l-18 -74h-778z" />
    <glyph glyph-name="two.tab" horiz-adv-x="1085" 
d="M985 1048q0 110 -77 178q-76 68 -206 68t-220 -57t-111 -127q47 -31 47 -67q0 -35 -20 -57t-52 -22t-54 26q-22 24 -22 63q0 113 124 215t302 102t278 -89q99 -89 99 -228t-97 -239t-308 -224q-212 -122 -338 -240t-189 -276h664l55 243h82l-72 -317h-821l-14 37
q78 205 216 343t380 273q184 105 269 195t85 200z" />
    <glyph glyph-name="three.tab" horiz-adv-x="1085" 
d="M952 373q0 -166 -135 -277q-135 -110 -321 -110t-308 84q-123 84 -122 188q0 41 21 69q23 27 55 27t50 -18t19 -43q0 -55 -59 -70q24 -61 116 -112t213 -52q174 0 278 89q103 88 103 222t-105 214t-282 80h-51l16 73h60q215 0 336 88q120 88 120 210t-87 191
q-87 68 -205 68t-197 -39q-78 -39 -102 -92q51 -20 51 -57t-20 -55q-20 -19 -51 -19q-29 0 -51 23t-22 59q0 102 114 178t279 76t273 -90t106 -229q0 -139 -112 -234q-113 -94 -283 -119q137 -32 220 -116t83 -207z" />
    <glyph glyph-name="four.tab" horiz-adv-x="1085" 
d="M891 879l-92 -392h239l-14 -71h-242l-77 -342h204l-16 -74h-539l17 74h250l79 342h-622l-8 33l901 923l57 -49l-821 -836h510l82 353z" />
    <glyph glyph-name="five.tab" horiz-adv-x="1085" 
d="M436 -20q-145 0 -256 72t-110 161q0 35 19 59t50 25q31 0 49 -17t18 -52t-36 -54q30 -51 102 -86t172 -35q199 0 324 124q125 125 125 275t-87 223t-238 73t-292 -56l-32 31l207 625h655l-16 -80h-588l-164 -490q117 45 240 45q182 0 292 -95q110 -94 111 -272t-151 -327
t-394 -149z" />
    <glyph glyph-name="six.tab" horiz-adv-x="1085" 
d="M558 53q144 0 256 124t112 290q0 129 -79 209t-210 80q-164 0 -281 -122q-116 -122 -116 -264t87 -230q87 -87 231 -87zM147 446q0 193 81 408q81 216 232 366t351 150q127 0 208 -64t81 -147q0 -41 -23 -65t-53 -23t-48 19q-20 18 -20 54t41 62q-14 37 -62 65t-128 27
q-168 0 -307 -139q-98 -98 -169 -258t-93 -321q55 102 159 176t259 74t258 -103q104 -102 104 -274t-140 -323q-140 -150 -322 -150t-295 114q-114 114 -114 352z" />
    <glyph glyph-name="seven.tab" horiz-adv-x="1085" 
d="M209 0l864 1274h-702l-52 -221h-79l67 295h875l16 -29l-891 -1319h-98z" />
    <glyph glyph-name="eight.tab" horiz-adv-x="1085" 
d="M534 57q151 1 258 91t107 221t-92 214t-249 83t-261 -94t-104 -224q0 -129 95 -210t246 -81zM983 375q0 -168 -130 -281q-130 -112 -316 -112t-307 100q-120 100 -120 255t109 259t264 121q-92 35 -152 117t-61 178q0 146 119 252t294 106t289 -95t114 -237t-95 -231
q-94 -90 -248 -117q102 -34 171 -118t69 -197zM999 1027q0 118 -83 193q-83 74 -225 74t-239 -83q-98 -83 -98 -201t87 -195q87 -78 225 -78t236 86q97 86 97 204z" />
    <glyph glyph-name="nine.tab" horiz-adv-x="1085" 
d="M664 1294q-146 0 -258 -123t-113 -271q0 -148 80 -228q81 -80 227 -80t262 123t117 266q0 143 -88 227q-81 86 -227 86zM412 51q168 0 307 139q98 96 170 258t94 324q-53 -102 -161 -178t-262 -76t-256 102q-103 102 -103 275q0 172 140 324q141 151 323 151t288 -110
q117 -117 117 -359q0 -193 -79 -409t-222 -355q-158 -158 -358 -157q-127 0 -210 64t-83 144q0 41 22 66q23 25 53 25q30 -1 50 -19t20 -54t-41 -63q15 -35 63 -63t128 -29z" />
    <glyph glyph-name="period.tab" horiz-adv-x="542" 
d="M219 -18q-37 0 -61 26t-25 62q0 36 25 62q26 26 62 26t61 -26t25 -62t-25 -63q-25 -25 -62 -25z" />
    <glyph glyph-name="comma.tab" horiz-adv-x="542" 
d="M133 78q0 34 24 56q23 22 61 22t63 -28t24 -73q1 -86 -71 -172t-209 -139l-17 35q88 43 142 105q53 62 57 110q-31 2 -53 26t-21 58z" />
    <glyph glyph-name="colon.tab" horiz-adv-x="542" 
d="M351 547q-37 -1 -61 25t-24 64t25 64t61 25q36 0 62 -26q24 -25 24 -63t-24 -64q-25 -25 -63 -25zM221 -18q-37 0 -61 26t-25 62q0 36 25 62q26 26 62 26t61 -26t25 -62t-25 -63q-25 -25 -62 -25z" />
    <glyph glyph-name="semicolon.tab" horiz-adv-x="542" 
d="M351 547q-37 -1 -61 25t-24 64t25 64t61 25q36 0 62 -26q24 -25 24 -63t-24 -64q-25 -25 -63 -25zM137 78q0 34 24 56q23 22 61 22t63 -28t24 -73q1 -86 -71 -172t-209 -139l-17 35q88 43 142 105q53 62 57 110q-31 2 -53 26t-21 58z" />
    <glyph glyph-name="twodotleader.tab" horiz-adv-x="1085" 
d="M762 -18q-37 0 -62 26t-24 62q0 36 24 62t62 26t62 -26t24 -62t-24 -62t-62 -26zM219 -18q-37 0 -61 26t-25 62q0 36 25 62q26 26 62 26t61 -26t25 -62t-25 -63q-25 -25 -62 -25z" />
    <glyph glyph-name="periodcentered.tab" horiz-adv-x="542" 
d="M295 446q-37 0 -62 26t-24 63t25 63t61 25q37 0 61 -26q24 -27 25 -63q-1 -36 -25 -62t-61 -26z" />
    <glyph glyph-name="slash.tab" horiz-adv-x="1085" 
d="M-80 -422l-63 45l1304 1888l64 -43z" />
    <glyph glyph-name="bar.tab" horiz-adv-x="542" 
d="M238 -410v1909h69v-1909h-69z" />
    <glyph glyph-name="underscore.tab" horiz-adv-x="1085" 
d="M-100 -272l18 77h1118l-16 -77h-1120z" />
    <glyph glyph-name="dollar.tab" horiz-adv-x="1085" 
d="M375 1032q0 -104 58 -166t171 -125l158 527q-41 4 -66 4q-135 -2 -228 -70q-93 -66 -93 -170zM526 76q158 0 256 72t97 182q1 110 -63 175t-185 130l-168 -557q20 -2 63 -2zM76 285q0 41 22 67t57 27q34 1 54 -19t20 -47q0 -53 -53 -84q18 -43 78 -82t145 -57l176 574
q-137 74 -211 150t-75 211q0 134 120 227t300 94q37 0 77 -7l56 191l67 -19l-55 -186q106 -31 175 -95t69 -122q0 -57 -23 -82t-55 -25q-32 1 -52 21q-22 20 -22 58t51 67q-55 74 -174 106l-164 -540q230 -121 280 -239q24 -56 24 -126q0 -158 -121 -252t-320 -94
q-31 0 -80 4l-65 -213l-68 19l60 208q-127 35 -210 112t-83 153z" />
    <glyph glyph-name="sterling.tab" horiz-adv-x="1085" 
d="M377 899q0 203 111 335q112 132 311 132q117 0 205 -66t88 -151q0 -43 -22 -68t-54 -25t-54 21q-22 20 -22 61t43 60q-15 35 -67 64t-121 28q-162 0 -250 -112t-88 -277q0 -57 14 -161t16 -134h353l-17 -67h-334q-4 -252 -213 -394q96 -4 169 -32q159 -60 262 -60
q104 0 225 86l41 -57q-123 -104 -281 -105q-102 -1 -238 51t-243 48q-31 -41 -74 -67t-74 -25q-63 0 -63 53q0 41 50 72t140 34q117 85 167 179t53 217h-220l17 67h199q-29 203 -29 293z" />
    <glyph glyph-name="Euro.tab" horiz-adv-x="1085" 
d="M805 1364q135 0 213 -86t78 -205q0 -49 -25 -78t-59 -29t-53 20q-19 19 -19 50q0 61 66 82q-10 68 -62 119t-145 51q-135 0 -249 -121t-179 -315h372l-16 -70h-377q-33 -127 -39 -237h361l-19 -72h-344v-8q0 -193 76 -301t207 -107q174 0 307 191l59 -47
q-158 -219 -378 -219q-164 0 -263 123q-98 124 -98 352v16h-156l17 72h141q10 129 39 237h-129l16 70h134q72 228 213 370t311 142z" />
    <glyph glyph-name="yen.tab" horiz-adv-x="1085" 
d="M195 553l16 72h276l-168 649h-135l19 74h409l-16 -74h-190l159 -641l465 641h-188l16 74h412l-19 -74h-123l-481 -649h266l-16 -72h-309l-39 -168h309l-16 -72h-310l-55 -239h201l-16 -74h-490l16 74h203l55 239h-307l17 72h307l41 168h-309z" />
    <glyph glyph-name="cent.tab" horiz-adv-x="1085" 
d="M266 618q0 -102 51 -173t138 -101l213 721q-164 -11 -283 -145t-119 -302zM561 256q-27 0 -67 4l-86 -293l-60 17l86 290q-112 35 -180 125t-68 217q0 205 148 361t354 158l72 239l59 -16l-67 -228q116 -14 186 -78t70 -134q0 -39 -22 -64t-50 -25q-60 0 -59 62
q0 49 45 63q-49 94 -193 109l-217 -735q37 -4 61 -4q177 -1 316 116l-4 -82q-139 -102 -324 -102z" />
    <glyph glyph-name="numbersign.tab" horiz-adv-x="1085" 
d="M512 874l-115 -415h283l115 415h-283zM1004 1348l-113 -406h244l-17 -68h-246l-116 -415h254l-17 -68h-256l-108 -391h-78l108 391h-282l-107 -391h-77l108 391h-244l17 68h245l115 415h-252l17 68h254l114 406h78l-115 -406h283l113 406h78z" />
    <glyph glyph-name="paragraph.tab" horiz-adv-x="1085" 
d="M569 70h117l281 1208h-115zM569 502q-184 0 -298 101t-113 271q0 207 158 340q159 133 407 134h483l-16 -74h-150l-276 -1200h156l-17 -74h-596l17 74h172l100 430q-6 -2 -27 -2z" />
    <glyph glyph-name="section.tab" horiz-adv-x="1085" 
d="M262 688q0 -70 68 -113t196 -88l76 -28q160 23 255 78t95 128t-88 119q-65 36 -145 64t-103 39q-160 -21 -257 -75t-97 -124zM1038 662q0 -169 -348 -240q166 -80 166 -205q0 -102 -103 -170t-264 -67q-215 0 -313 110q-45 52 -45 96q-1 44 19 68t50 22q30 0 49 -19
t19 -52t-32 -60q4 -12 34 -32q76 -63 212 -63t214 47q76 48 76 118t-70 116t-180 86t-156 59q-130 54 -167 121q-23 40 -23 89q0 88 96 150t256 88q-170 80 -170 206q0 106 106 174t261 66q211 0 313 -110q47 -52 47 -98t-19 -70t-49 -23q-30 -1 -49 19q-20 20 -20 52t35 62
q-12 18 -41 39q-76 59 -209 59t-212 -47t-79 -117t68 -118q68 -47 201 -92q70 -27 144 -55t109 -62q74 -72 74 -147z" />
    <glyph glyph-name="degree.tab" horiz-adv-x="1085" 
d="M621 854q145 0 244 110t99 234t-67 195q-68 70 -174 69q-145 0 -245 -109q-99 -110 -99 -253q0 -106 68 -176t174 -70zM618 795q-139 0 -223 87t-84 216q0 166 118 295t294 129q141 0 225 -87t84 -216q0 -166 -119 -295t-295 -129z" />
    <glyph glyph-name="percent.tab" horiz-adv-x="1085" 
d="M621 207q-1 -158 137 -158q72 0 131 92q59 91 59 183q0 180 -127 180q-82 0 -141 -92t-59 -205zM737 -14q-84 0 -135 57t-51 154q0 151 82 261t198 109q83 0 135 -58t52 -155q0 -150 -81 -259t-200 -109zM383 850q84 0 143 92q60 92 60 184q1 178 -125 177
q-83 1 -143 -91t-60 -183q0 -179 125 -179zM375 784q-84 0 -135 60t-52 153q0 151 82 261t199 110q84 0 135 -58t51 -155q1 -151 -81 -261t-199 -110zM102 -14l-49 43l1051 1339l51 -45z" />
    <glyph glyph-name="quotedbl.tab" horiz-adv-x="1085" 
d="M973 1462q0 -25 -10 -47l-158 -403h-29l68 428q6 41 27 60q22 19 47 20q55 0 55 -58zM553 1520q55 0 55 -58q0 -23 -8 -47l-160 -403h-28l67 428q10 80 74 80z" />
    <glyph glyph-name="quotesingle.tab" horiz-adv-x="542" 
d="M532 1462q0 -16 -10 -47l-157 -403h-31l69 428q4 41 26 60t46 20q57 0 57 -58z" />
    <glyph glyph-name="plus.tab" horiz-adv-x="1085" 
d="M725 1040l-74 -311h318l-17 -72h-317l-82 -348h-74l80 348h-315l16 72h315l74 311h76z" />
    <glyph glyph-name="minus.tab" horiz-adv-x="1085" 
d="M244 657l16 72h709l-17 -72h-708z" />
    <glyph glyph-name="divide.tab" horiz-adv-x="1085" 
d="M535 326q-27 0 -48 19q-20 19 -20 48t20 48q19 19 47 19t47 -20t19 -47t-19 -47t-46 -20zM675 922q-28 0 -47 20t-20 47q0 27 20 47t47 20q28 0 47 -20t19 -47t-19 -47t-47 -20zM244 657l16 72h709l-17 -72h-708z" />
    <glyph glyph-name="equal.tab" horiz-adv-x="1085" 
d="M219 469l17 70h651l-17 -70h-651zM297 807l16 70h654l-17 -70h-653z" />
    <glyph glyph-name="multiply.tab" horiz-adv-x="1085" 
d="M369 1028l219 -280l319 260l47 -60l-321 -260l221 -280l-61 -52l-222 283l-321 -260l-47 59l321 260l-217 279z" />
    <glyph glyph-name="less.tab" horiz-adv-x="1085" 
d="M725 285l-481 379l4 20l651 363l35 -58l-569 -321l407 -328z" />
    <glyph glyph-name="greater.tab" horiz-adv-x="1085" 
d="M473 1063l481 -379l-4 -20l-651 -363l-35 55l572 322l-410 330z" />
    <glyph glyph-name="plusminus.tab" horiz-adv-x="1085" 
d="M127 205l16 69h709l-16 -69h-709zM739 1149l-75 -320h319l-16 -69h-320l-76 -328h-73l75 328h-315l16 69h316l76 320h73z" />
    <glyph glyph-name="zero.idx_P2D" horiz-adv-x="2228" 
d="M1113 205q128 0 207 118t79 306t-80 306t-207 118t-207 -118t-80 -306t80 -306t208 -118zM1111 133q-157 0 -260 138q-103 139 -103 359t104 356t261 136t261 -137t104 -357t-104 -358q-106 -138 -263 -137zM1114 1567q-258 0 -473 -128t-338 -346q-123 -219 -123 -479
t123 -478t338 -346t473 -128t473 128t338 346t123 478t-123 478t-338 347q-215 128 -473 128zM1113 1622q273 0 503 -135t361 -367q132 -232 132 -506t-132 -505t-361 -367q-228 -136 -502 -135q-274 0 -504 135q-229 134 -361 366t-132 506t132 506t361 367
q230 135 503 135z" />
    <glyph glyph-name="one.idx_P2D" horiz-adv-x="2228" 
d="M1382 150h-522v69h225v809l-217 -49l-16 68l274 65h37v-893h219v-69zM1114 1567q-258 0 -473 -128t-338 -346q-123 -219 -123 -479t123 -478t338 -346t473 -128t473 128t338 346t123 478t-123 478t-338 347q-215 128 -473 128zM1113 1622q273 0 503 -135t361 -367
q132 -232 132 -506t-132 -505t-361 -367q-228 -136 -502 -135q-274 0 -504 135q-229 134 -361 366t-132 506t132 506t361 367q230 135 503 135z" />
    <glyph glyph-name="two.idx_P2D" horiz-adv-x="2228" 
d="M823 899q0 41 25 84q32 61 104 100t182 39t194 -72q85 -72 85 -178t-56 -173t-176 -153t-192 -161q-72 -76 -100 -168h471v166h70v-233h-613l-20 32q39 134 123 230t199 176t165 139q49 59 49 140t-62 134t-155 54q-137 0 -194 -86q-12 -12 -17 -31q45 -16 45 -51
t-17 -52t-42 -18q-68 0 -68 82zM1114 1567q-258 0 -473 -128t-338 -346q-123 -219 -123 -479t123 -478t338 -346t473 -128t473 128t338 346t123 478t-123 478t-338 347q-215 128 -473 128zM1113 1622q273 0 503 -135t361 -367q132 -232 132 -506t-132 -505t-361 -367
q-228 -136 -502 -135q-274 0 -504 135q-229 134 -361 366t-132 506t132 506t361 367q230 135 503 135z" />
    <glyph glyph-name="three.idx_P2D" horiz-adv-x="2228" 
d="M1321 876q0 176 -229 175q-115 0 -168 -68q-6 -6 -15 -18h2q39 -9 39 -43t-17 -51t-42 -17t-43 20t-18 60t30 82q82 104 252 104q125 0 206 -66t81 -180t-117 -184q-45 -27 -102 -39q47 -8 100 -33q143 -68 143 -215q0 -117 -89 -191q-88 -74 -246 -75q-158 0 -244 96
q-41 46 -41 88q0 43 18 65t44 22t43 -18q18 -18 18 -49q0 -30 -39 -48q6 -14 20 -25q59 -63 183 -63t192 57q66 57 66 141q0 119 -121 175q-76 35 -183 34h-30v68h37q111 0 186 55q84 55 84 141zM1114 1567q-258 0 -473 -128t-338 -346q-123 -219 -123 -479t123 -478
t338 -346t473 -128t473 128t338 346t123 478t-123 478t-338 347q-215 128 -473 128zM1113 1622q273 0 503 -135t361 -367q132 -232 132 -506t-132 -505t-361 -367q-228 -136 -502 -135q-274 0 -504 135q-229 134 -361 366t-132 506t132 506t361 367q230 135 503 135z" />
    <glyph glyph-name="four.idx_P2D" horiz-adv-x="2228" 
d="M977 150v67h194v223h-452l-17 31l502 657l58 -41l-447 -583h356v244l78 34v-278h181v-66h-181v-221h152v-67h-424zM1114 1567q-258 0 -473 -128t-338 -346q-123 -219 -123 -479t123 -478t338 -346t473 -128t473 128t338 346t123 478t-123 478t-338 347q-215 128 -473 128
zM1113 1622q273 0 503 -135t361 -367q132 -232 132 -506t-132 -505t-361 -367q-228 -136 -502 -135q-274 0 -504 135q-229 134 -361 366t-132 506t132 506t361 367q230 135 503 135z" />
    <glyph glyph-name="five.idx_P2D" horiz-adv-x="2228" 
d="M1417 446q0 -140 -92 -226t-220 -87q-128 0 -215 50t-87 118q0 27 16 47t43 20t43 -16q17 -18 17 -46t-23 -40q15 -27 71 -45t126 -18q108 -1 176 67t68 173t-64 167q-63 62 -184 64q-121 0 -215 -47l-35 20l47 461h473v-76h-410l-34 -317q76 29 200 29t212 -80
q87 -78 87 -218zM1114 1567q-258 0 -473 -128t-338 -346q-123 -219 -123 -479t123 -478t338 -346t473 -128t473 128t338 346t123 478t-123 478t-338 347q-215 128 -473 128zM1113 1622q273 0 503 -135t361 -367q132 -232 132 -506t-132 -505t-361 -367q-228 -136 -502 -135
q-274 0 -504 135q-229 134 -361 366t-132 506t132 506t361 367q230 135 503 135z" />
    <glyph glyph-name="six.idx_P2D" horiz-adv-x="2228" 
d="M868 439q0 -93 74 -167q78 -72 180 -72t171 68q69 66 69 166t-68 166t-173 66t-179 -67t-74 -160zM1331 901q-27 1 -43 17t-16 40t18 43q-2 8 -16 19q-41 33 -119 33q-131 0 -215 -128t-86 -362q29 76 103 123q75 47 167 47q140 0 228 -84t88 -213t-91 -216t-229 -87
t-239 100q-100 100 -101 322q0 283 110 425t269 142q96 0 164 -45t68 -110q-1 -31 -17 -49t-43 -17zM1114 1567q-258 0 -473 -128t-338 -346q-123 -219 -123 -479t123 -478t338 -346t473 -128t473 128t338 346t123 478t-123 478t-338 347q-215 128 -473 128zM1113 1622
q273 0 503 -135t361 -367q132 -232 132 -506t-132 -505t-361 -367q-228 -136 -502 -135q-274 0 -504 135q-229 134 -361 366t-132 506t132 506t361 367q230 135 503 135z" />
    <glyph glyph-name="seven.idx_P2D" horiz-adv-x="2228" 
d="M905 1030v-164h-74v230h623l14 -29l-415 -928h-80l401 891h-469zM1114 1567q-258 0 -473 -128t-338 -346q-123 -219 -123 -479t123 -478t338 -346t473 -128t473 128t338 346t123 478t-123 478t-338 347q-215 128 -473 128zM1113 1622q273 0 503 -135t361 -367
q132 -232 132 -506t-132 -505t-361 -367q-228 -136 -502 -135q-274 0 -504 135q-229 134 -361 366t-132 506t132 506t361 367q230 135 503 135z" />
    <glyph glyph-name="eight.idx_P2D" horiz-adv-x="2228" 
d="M1114 205q106 0 175 56q69 55 69 143t-72 148t-173 60t-173 -60t-72 -147t70 -143t176 -57zM1115 678q95 0 159 53q63 53 63 133t-64 134q-65 54 -160 54t-160 -54t-65 -133t66 -133t161 -54zM1114 137q-141 0 -232 74t-91 192q0 86 61 155t145 89q-82 23 -134 83
t-52 136q0 115 87 185q87 69 215 69t215 -70t87 -184q0 -76 -52 -136t-134 -83q86 -20 146 -89q61 -68 61 -170t-90 -176t-232 -75zM1114 1567q-258 0 -473 -128t-338 -346q-123 -219 -123 -479t123 -478t338 -346t473 -128t473 128t338 346t123 478t-123 478t-338 347
q-215 128 -473 128zM1113 1622q273 0 503 -135t361 -367q132 -232 132 -506t-132 -505t-361 -367q-228 -136 -502 -135q-274 0 -504 135q-229 134 -361 366t-132 506t132 506t361 367q230 135 503 135z" />
    <glyph glyph-name="nine.idx_P2D" horiz-adv-x="2228" 
d="M1362 814q0 100 -75 170t-178 71q-103 0 -171 -68t-68 -171t67 -168q67 -64 173 -64t179 64q73 66 73 166zM836 281q0 75 57 75q27 0 43 -17t16 -43t-20 -40q6 -8 14 -12q39 -43 133 -43q129 0 212 120t85 351q-34 -68 -106 -113t-164 -45q-141 0 -227 84t-86 216t90 220
t227 88t231 -90q109 -109 109 -336q0 -291 -104 -427t-269 -136q-117 0 -192 66q-49 43 -49 82zM1114 1567q-258 0 -473 -128t-338 -346q-123 -219 -123 -479t123 -478t338 -346t473 -128t473 128t338 346t123 478t-123 478t-338 347q-215 128 -473 128zM1113 1622
q273 0 503 -135t361 -367q132 -232 132 -506t-132 -505t-361 -367q-228 -136 -502 -135q-274 0 -504 135q-229 134 -361 366t-132 506t132 506t361 367q230 135 503 135z" />
    <glyph glyph-name="space.tab" horiz-adv-x="542" 
 />
    <glyph glyph-name="NUL" 
 />
    <glyph glyph-name="hfjslug" horiz-adv-x="1427" 
d="M877 580q-33 0 -33 34q0 12 9 24t23 11q14 0 24 -11q9 -11 9 -24q1 -34 -32 -34zM1001 612h-22v35h22q20 0 21 -16q-1 -19 -21 -19zM664 823q-33 0 -33 45t33 78l41 -80q-16 -43 -41 -43zM649 1056q0 30 29 29q27 -1 27 -35t-31 -69q-25 45 -25 75zM498 662l28 -97h17
l22 70h2l23 -70h16l29 97h-17l-20 -72h-2l-23 72h-14l-22 -72h-2l-21 72h-16zM274 662v-95h17v66l51 -66h14v95h-16v-66l-51 66h-15zM399 662v-95h70v15h-53v26h47v15h-47v24h53v15h-70zM754 567h16v35l37 60h-19l-26 -46l-27 46h-18l37 -60v-35zM877 565q20 1 34 15
q33 34 0 68q-14 16 -34 16q-21 0 -35 -16t-14 -34q0 -20 14 -34q15 -14 35 -15zM1038 631q0 31 -34 31h-41v-95h16v31h25l20 -31h18l-24 35q20 8 20 29zM1075 662v-95h17v25l16 16l31 -41h20l-41 54l37 41h-20l-41 -50h-2v50h-17zM733 1038q0 72 -55 72q-25 0 -41 -19
t-16 -45t28 -79q-47 -37 -47 -83q0 -91 60 -89q39 0 59 49h2l25 -49l24 12l-35 65q13 29 27 80l-27 6q-8 -37 -16 -61h-2l-33 64q47 43 47 77zM989 799q63 0 64 73v281h-33v-281q0 -45 -33 -45q-16 0 -41 11v-31q20 -8 43 -8zM381 1153v-352h31v162h96v-162h31v352h-31v-162
h-96v162h-31zM823 1153v-352h31v160h78v28h-78v135h88v29h-119zM1323 -410h-426l-16 29h-334l-17 -29h-424v621q29 0 48 19q18 19 18 46q0 26 -19 46t-47 20v1135h205l62 161h684l59 -161h207v-1887z" />
    <glyph glyph-name="i.dot" horiz-adv-x="563" 
d="M278 -12q-62 0 -101 36q-38 36 -38 86t21 126l157 548h-178l15 68h258l-176 -627q-20 -71 -20 -105t18 -53t54 -19t64 31q28 32 60 107l49 -14q-35 -96 -78 -140t-105 -44zM403 1063q-27 0 -47 20q-20 19 -20 49t20 50t47 20t47 -20t21 -49q0 -29 -20 -50
q-21 -20 -48 -20z" />
    <glyph glyph-name="zero.num" horiz-adv-x="722" 
d="M373 621q111 0 185 131t73 295q0 102 -40 162t-118 61q-111 0 -185 -131t-73 -293q0 -104 40 -164t118 -61zM369 563q-104 0 -163 76q-58 76 -59 201q1 197 95 343t237 146q103 0 161 -76t58 -202q0 -195 -94 -341t-235 -147z" />
    <glyph glyph-name="one.num" horiz-adv-x="722" 
d="M123 573l14 60h209l146 618l-220 -53v59l267 68l30 -14l-157 -678h204l-12 -60h-481z" />
    <glyph glyph-name="two.num" horiz-adv-x="722" 
d="M641 1144q0 56 -42 90t-113 34q-72 0 -118 -27t-59 -59q27 -16 27 -40t-14 -38t-36 -14t-36 17t-14 44q0 63 72 120q72 56 176 56t164 -49t60 -129t-58 -135q-60 -54 -176 -118t-188 -124t-106 -143h365l30 135h60l-43 -191h-483l-13 31q45 113 129 189q85 76 201 139
t166 109q49 47 49 103z" />
    <glyph glyph-name="three.num" horiz-adv-x="722" 
d="M182 786q48 0 49 -52q0 -26 -32 -36q12 -30 60 -54t126 -24t134 47q56 46 56 111q0 64 -55 108t-139 44h-35l14 57h33q104 0 170 45q66 46 66 108t-47 95t-121 33q-113 0 -139 -60q26 -10 26 -32t-15 -36t-36 -14t-34 18t-13 44q0 53 61 96t161 43t162 -51
q64 -51 64 -128t-60 -129t-155 -65q72 -16 116 -63t44 -111q-1 -96 -79 -156t-184 -59q-106 0 -177 48q-70 48 -70 112q0 25 14 43q13 18 35 18z" />
    <glyph glyph-name="four.num" horiz-adv-x="722" 
d="M430 627l41 172h-350l-8 28l497 504l41 -37l-444 -444h276l45 182l68 27l-49 -207h133l-12 -53h-133l-39 -172h106l-12 -54h-305l12 54h133z" />
    <glyph glyph-name="five.num" horiz-adv-x="722" 
d="M584 820q0 155 -173 155q-87 0 -163 -35l-31 25l115 348h383l-13 -62h-331l-84 -250q75 29 159 29t144 -54t59 -154q0 -100 -91 -180q-91 -81 -224 -81q-84 0 -148 41q-63 41 -63 95t49 55q18 0 32 -12t13 -34q0 -22 -18 -32q37 -58 140 -58t174 64t71 140z" />
    <glyph glyph-name="six.num" horiz-adv-x="722" 
d="M435 979q-79 -1 -143 -63t-65 -134q0 -72 43 -116q43 -45 124 -45t144 62q62 62 62 137t-43 117t-122 42zM539 1327q78 0 128 -37t50 -75q1 -38 -15 -54t-35 -16t-33 12q-13 12 -13 36t20 38q-20 41 -106 41t-168 -78q-113 -113 -142 -295q80 133 228 133q96 0 155 -56
q60 -56 60 -152t-83 -180t-191 -82q-108 0 -167 63q-69 69 -69 187t45 234t123 189q102 92 213 92z" />
    <glyph glyph-name="seven.num" horiz-adv-x="722" 
d="M223 573l465 687h-366l-31 -132h-62l45 187h486l16 -31l-477 -711h-76z" />
    <glyph glyph-name="eight.num" horiz-adv-x="722" 
d="M389 621q82 0 142 47q61 48 61 114t-51 108t-135 42t-142 -47t-59 -113q0 -66 51 -109q51 -42 133 -42zM470 985q73 0 128 44q55 45 55 105t-46 98t-122 38t-130 -42t-54 -104t48 -100q48 -39 121 -39zM392 563q-112 -1 -184 57t-71 141q-1 83 63 141t150 67
q-53 23 -85 65t-32 92q0 80 73 140t178 61q105 0 171 -53t66 -129t-53 -126t-136 -69q54 -20 90 -64t35 -104q-1 -94 -77 -156t-188 -63z" />
    <glyph glyph-name="nine.num" horiz-adv-x="722" 
d="M433 911q79 1 144 63t65 134t-46 116q-45 46 -124 46t-141 -62q-63 -62 -63 -139q0 -76 43 -117t122 -41zM201 1067q0 96 83 178t189 82q106 -1 172 -65t66 -183t-45 -235t-134 -199q-89 -84 -202 -84q-76 0 -127 38t-51 75t15 54t35 17t32 -13q14 -13 14 -36t-21 -37
q23 -43 107 -43t168 78q109 104 141 295q-82 -133 -227 -133q-96 0 -156 57q-59 58 -59 154z" />
    <glyph glyph-name="zero.den" horiz-adv-x="722" 
d="M240 47q110 0 184 131t74 295q0 103 -40 163t-118 60q-110 0 -184 -131t-74 -293q0 -104 40 -164t118 -61zM236 -10q-104 0 -163 76q-58 76 -59 200q0 197 94 343t238 147q102 0 160 -76t59 -203q0 -195 -94 -341t-235 -146z" />
    <glyph glyph-name="one.den" horiz-adv-x="722" 
d="M-10 0l14 59h209l145 619l-219 -53v59l267 68l30 -15l-157 -678h204l-12 -59h-481z" />
    <glyph glyph-name="two.den" horiz-adv-x="722" 
d="M508 570q0 56 -42 90t-113 34t-117 -26t-60 -60q27 -16 27 -40q-1 -24 -15 -38t-36 -14t-35 18q-14 18 -15 44q0 63 73 119q73 57 176 57t163 -49t61 -129q0 -80 -59 -136q-59 -54 -175 -118q-115 -64 -187 -124t-107 -143h365l30 135h60l-43 -190h-484l-12 31
q45 113 129 189t200 138q116 64 167 110q49 46 49 102z" />
    <glyph glyph-name="three.den" horiz-adv-x="722" 
d="M50 213q48 0 48 -52q0 -26 -32 -36q12 -31 60 -55t126 -23q78 0 134 46q56 45 56 111t-55 109t-139 43h-35l14 58h33q104 0 170 45t66 107t-47 96t-121 32q-113 0 -140 -59q27 -11 27 -33t-15 -36t-36 -13q-21 0 -34 17t-13 44q0 52 61 96q60 44 160 44t164 -52t63 -128
q0 -77 -60 -129t-155 -64q72 -15 116 -63t44 -111q0 -95 -78 -155t-186 -60q-106 0 -176 48t-70 112q0 25 14 43t36 18z" />
    <glyph glyph-name="four.den" horiz-adv-x="722" 
d="M297 53l41 172h-350l-8 29l497 504l41 -37l-444 -445h276l45 183l68 26l-49 -206h133l-12 -54h-134l-39 -172h107l-12 -53h-305l12 53h133z" />
    <glyph glyph-name="five.den" horiz-adv-x="722" 
d="M201 -12q-84 0 -148 41q-63 41 -63 95t49 54q17 0 31 -12t14 -34t-18 -32q37 -57 140 -57t174 63q71 62 71 140q0 154 -164 155q-96 0 -172 -34l-31 24l115 348h383l-13 -61h-331l-84 -250q74 29 158 29q84 -1 144 -55t60 -154t-91 -180t-224 -80z" />
    <glyph glyph-name="six.den" horiz-adv-x="722" 
d="M302 406q-80 0 -144 -62t-64 -134t43 -118t124 -45t143 63t62 137t-42 117q-43 42 -122 42zM406 754q78 0 128 -37t50 -75q0 -69 -52 -71q-18 1 -31 13t-13 36t20 37q-20 41 -106 41t-169 -77q-113 -113 -141 -295q80 133 227 133q95 -1 155 -57t60 -152t-82 -179
q-83 -83 -191 -83t-167 63q-70 68 -70 187q0 118 46 234q45 116 123 190q102 92 213 92z" />
    <glyph glyph-name="seven.den" horiz-adv-x="722" 
d="M90 0l465 686h-367l-30 -131h-62l45 186h486l16 -30l-477 -711h-76z" />
    <glyph glyph-name="eight.den" horiz-adv-x="722" 
d="M72 198q0 -66 51 -108t133 -43q82 0 142 47t60 114q0 66 -50 108q-52 42 -136 42t-142 -47t-58 -113zM337 412q73 0 128 44t55 104t-46 98t-122 38t-130 -42t-54 -103t48 -100t121 -39zM524 209q0 -95 -76 -157t-189 -62q-111 0 -183 57t-72 140t64 141t149 67
q-53 23 -85 65t-32 93q0 80 73 140q73 61 178 61t171 -54t66 -129q0 -76 -53 -126t-136 -68q55 -21 90 -65t35 -103z" />
    <glyph glyph-name="nine.den" horiz-adv-x="722" 
d="M339 696q-79 0 -141 -62t-62 -138t42 -118q43 -40 122 -40q80 0 144 62t64 134t-45 117t-124 45zM68 493q0 97 83 179t189 82t172 -65t66 -183t-46 -235q-46 -115 -134 -199t-201 -84q-76 0 -127 38q-52 38 -52 75t16 54t34 17q20 0 33 -13t13 -36t-20 -37
q20 -43 106 -43t169 78q109 104 141 295q-82 -133 -227 -133q-96 0 -156 57q-59 57 -59 153z" />
    <glyph glyph-name="caron.alt" horiz-adv-x="1030" 
d="M568 1489q52 1 52 -59t-52 -151q-54 -91 -156 -181l-23 24q86 102 105 178q8 27 11 74t5 56q6 59 58 59z" />
    <glyph glyph-name="g.sc" 
 />
    <glyph glyph-name="gbreve.sc" 
 />
    <glyph glyph-name="i.sc" 
 />
    <glyph glyph-name="iacute.sc" 
 />
    <glyph glyph-name="ibreve.sc" 
 />
    <glyph glyph-name="icircumflex.sc" 
 />
    <glyph glyph-name="idieresis.sc" 
 />
    <glyph glyph-name="igrave.sc" 
 />
    <glyph glyph-name="imacron.sc" 
 />
    <glyph glyph-name="iogonek.sc" 
 />
    <glyph glyph-name="S.sc" 
 />
    <glyph glyph-name="Sacute.sc" 
 />
    <glyph glyph-name="Aring.sc" 
 />
    <glyph glyph-name="Aringacute.sc" 
 />
    <glyph glyph-name="E.sc" 
 />
    <glyph glyph-name="Eacute.sc" 
 />
    <glyph glyph-name="Ebreve.sc" 
 />
    <glyph glyph-name="Ecircumflex.sc" 
 />
    <glyph glyph-name="Edieresis.sc" 
 />
    <glyph glyph-name="Egrave.sc" 
 />
    <glyph glyph-name="Emacron.sc" 
 />
    <glyph glyph-name="Eogonek.sc" 
 />
    <glyph glyph-name="N.sc" 
 />
    <glyph glyph-name="Nacute.sc" 
 />
    <glyph glyph-name="Ntilde.sc" 
 />
    <glyph glyph-name="a.sc" 
 />
    <glyph glyph-name="aogonek.sc" 
 />
    <glyph glyph-name="L.sc" 
 />
    <glyph glyph-name="Lacute.sc" 
 />
    <glyph glyph-name="s.sc" 
 />
    <glyph glyph-name="sacute.sc" 
 />
    <glyph glyph-name="aring.sc" 
 />
    <glyph glyph-name="aringacute.sc" 
 />
    <glyph glyph-name="C.sc" 
 />
    <glyph glyph-name="Cacute.sc" 
 />
    <glyph glyph-name="e.sc" 
 />
    <glyph glyph-name="eacute.sc" 
 />
    <glyph glyph-name="ebreve.sc" 
 />
    <glyph glyph-name="ecircumflex.sc" 
 />
    <glyph glyph-name="edieresis.sc" 
 />
    <glyph glyph-name="egrave.sc" 
 />
    <glyph glyph-name="emacron.sc" 
 />
    <glyph glyph-name="eogonek.sc" 
 />
    <glyph glyph-name="n.sc" 
 />
    <glyph glyph-name="nacute.sc" 
 />
    <glyph glyph-name="ntilde.sc" 
 />
    <glyph glyph-name="l.sc" 
 />
    <glyph glyph-name="lacute.sc" 
 />
    <glyph glyph-name="c.sc" 
 />
    <glyph glyph-name="cacute.sc" 
 />
    <glyph glyph-name="R.sc" 
 />
    <glyph glyph-name="Racute.sc" 
 />
    <glyph glyph-name="G.sc" 
 />
    <glyph glyph-name="Gbreve.sc" 
 />
    <glyph glyph-name="I.sc" 
 />
    <glyph glyph-name="Iacute.sc" 
 />
    <glyph glyph-name="Ibreve.sc" 
 />
    <glyph glyph-name="Icircumflex.sc" 
 />
    <glyph glyph-name="Idieresis.sc" 
 />
    <glyph glyph-name="Igrave.sc" 
 />
    <glyph glyph-name="Imacron.sc" 
 />
    <glyph glyph-name="Iogonek.sc" 
 />
    <glyph glyph-name="r.sc" 
 />
    <glyph glyph-name="racute.sc" 
 />
    <glyph glyph-name="A.sc" 
 />
    <glyph glyph-name="Aogonek.sc" 
 />
    </font>
</defs>
</svg>
