<?xml version="1.0" standalone="no"?>
<!DOCTYPE svg PUBLIC "-//W3C//DTD SVG 1.1//EN" "http://www.w3.org/Graphics/SVG/1.1/DTD/svg11.dtd" >
<svg xmlns="http://www.w3.org/2000/svg">
<metadata>
Created by FontPrep 20130207 at Sun Apr  5 22:22:38 2015
 By Tina Kumar
Copyright (C) 2000, 2007 Hoefler &#38; Frere-Jones. http://www.typography.com
</metadata>
<defs>
<font id="20c72df72838c47fed1174cd5c2e2172" horiz-adv-x='1024' >
  <font-face 
    font-family="Archer-Semibold"
    font-weight="375"
    font-stretch="normal"
    units-per-em="2048"
    panose-1="0 0 0 0 0 0 0 0 0 0"
    ascent="1638"
    descent="-410"
    x-height="883"
    cap-height="1348"
    bbox="-104 -616 2976 2214"
    underline-thickness="102"
    underline-position="-102"
    unicode-range="U+0020-FB04"
  />
<missing-glyph horiz-adv-x="1024" 
d="M512 492l-367 -799h734zM922 1384l-353 -770l353 -770v1540zM102 -156l353 770l-353 770v-1540zM145 1536l367 -799l367 799h-734zM0 -410v2048h1024v-2048h-1024z" />
    <glyph glyph-name="f_f" unicode="ff" horiz-adv-x="1263" 
d="M397 1100v-217h428v225q0 221 103 322q86 86 219 86q78 0 127 -36t49 -90t-30 -84t-72 -30q-84 0 -117 84q-105 -25 -105 -219v-258h230v-152h-230v-584h172v-147h-477v147h131v584h-428v-584h164v-147h-477v147h137v584h-153v152h153v184q0 227 103 326q80 82 206 82
q78 0 127 -36q49 -37 49 -91t-29 -84q-30 -30 -73 -29q-84 0 -117 84q-90 -33 -90 -219z" />
    <glyph glyph-name="fi" unicode="fi" horiz-adv-x="1204" 
d="M995 883v-736h142v-147h-453v147h135v584h-422v-584h164v-147h-477v147h137v584h-153v152h153v200q0 227 117 338q98 94 240 95q100 0 158 -48t58 -104q0 -57 -33 -91q-34 -34 -82 -34t-82 38t-32 87h-8q-61 0 -110 -62t-50 -186v-233h598z" />
    <glyph glyph-name="fl" unicode="fl" horiz-adv-x="1200" 
d="M609 1362q-91 0 -150 -59q-61 -66 -62 -195v-225h424v233q-37 10 -61 44t-25 75q0 41 23 70q-58 57 -149 57zM682 147h139v584h-424v-584h164v-147h-477v147h137v584h-153v152h153v209q-1 204 105 314t266 110t254 -80l37 69h114v-1358h142v-147h-457v147z" />
    <glyph glyph-name="f_f_i" unicode="ffi" horiz-adv-x="1804" 
d="M571 1321q-174 0 -174 -223v-215h424v200q1 227 107 329t248 104q102 0 160 -47t57 -105q0 -58 -33 -91q-33 -34 -82 -34t-83 38t-30 83q-6 2 -14 2q-55 0 -105 -58t-51 -188v-233h598v-736h142v-147h-451v147h135v584h-424v-584h164v-147h-471v147h133v584h-424v-584
h164v-147h-477v147h137v584h-153v152h153v200q0 187 95 289t255 103q72 0 123 -23q96 -41 97 -133q0 -45 -29 -74t-72 -29t-74 28t-38 77h-7z" />
    <glyph glyph-name="f_f_l" unicode="ffl" horiz-adv-x="1798" 
d="M995 1108v-225h424v233q-37 10 -61 43t-23 73q0 40 23 73q-60 57 -152 57t-152 -62t-59 -192zM571 1321q-174 0 -174 -223v-215h424v209q-1 204 105 314t268 110t252 -78l35 67h114v-1358h142v-147h-455v147h137v584h-424v-584h166v-147h-473v147h133v584h-424v-584h164
v-147h-477v147h137v584h-153v152h153v200q0 187 95 289t255 103q72 0 123 -23q96 -41 97 -133q0 -45 -29 -74t-72 -29t-74 28t-38 77h-7z" />
    <glyph glyph-name="f_b" unicode="fb" horiz-adv-x="1779" 
d="M735 1235q0 41 23 70q-56 57 -148 57t-151 -59q-61 -66 -62 -195v-225h424v233q-37 10 -61 44t-25 75zM1234 137q124 0 203 83t79 221q0 137 -77 221t-203 84t-239 -113v-412q113 -84 237 -84zM997 1505v-731q125 125 292 125t288 -128t121 -325q0 -198 -125 -330
t-297 -132t-295 106l-45 -92h-115v733h-424v-584h164v-147h-477v147h137v584h-153v152h153v209q-1 204 105 314t266 110t254 -80l37 69h114z" />
    <glyph glyph-name="f_h" unicode="fh" horiz-adv-x="1771" 
d="M735 1235q0 41 23 70q-56 57 -148 57t-151 -59q-61 -66 -62 -195v-225h424v233q-37 10 -61 44t-25 75zM1415 563q0 174 -155 174q-133 0 -263 -133v-457h131v-147h-442v147h135v584h-424v-584h164v-147h-477v147h137v584h-153v152h153v209q-1 204 105 314t266 110
t254 -80l37 69h114v-770q154 164 309 164t220 -86t65 -211v-455h138v-147h-445v147h131v416z" />
    <glyph glyph-name="f_j" unicode="fj" horiz-adv-x="1138" 
d="M819 4v727h-422v-584h164v-147h-477v147h137v584h-153v152h153v200q0 227 117 338q98 94 240 95q100 0 158 -48t58 -104q0 -57 -33 -91q-34 -34 -82 -34t-82 38t-32 87h-8q-61 0 -110 -62t-50 -186v-233h598v-865q0 -143 -43 -245q-80 -182 -280 -183q-94 0 -147 43
q-52 43 -52 95t30 85q30 31 75 31q46 0 74 -30t28 -78v-6q139 3 139 274z" />
    <glyph glyph-name="f_k" unicode="fk" horiz-adv-x="1722" 
d="M397 1108v-225h424v233q-37 10 -61 44t-25 75q0 41 23 70q-56 57 -148 57t-152 -62t-61 -192zM997 1505v-1044l320 278h-150v144h508v-152h-159l-246 -211l252 -368h153v-152h-258l-276 422l-144 -123v-154h129v-145h-440v147h135v584h-424v-584h164v-147h-477v147h137
v584h-153v152h153v209q-1 204 105 314t266 110t254 -80l37 69h114z" />
    <glyph glyph-name="f_f_b" unicode="ffb" horiz-adv-x="2377" 
d="M1335 1232q0 40 23 73q-60 57 -152 57t-151 -61t-60 -193v-225h424v233q-37 10 -61 43t-23 73zM1832 137q124 0 203 83t79 221q0 137 -77 221t-203 84t-239 -113v-412q113 -84 237 -84zM571 1321q-174 0 -174 -223v-215h424v209q-1 204 105 314t268 110t252 -78l35 67
h114v-731q125 125 292 125t288 -128t121 -325q0 -198 -125 -330t-298 -132t-292 106l-47 -92h-115v733h-424v-584h172v-147h-479v147h133v584h-424v-584h164v-147h-477v147h137v584h-153v152h153v200q0 187 95 289t255 103q72 0 123 -23q96 -41 97 -133q0 -45 -29 -74
t-72 -29t-74 28t-38 77h-7z" />
    <glyph glyph-name="f_f_h" unicode="ffh" horiz-adv-x="2371" 
d="M995 1108v-225h424v233q-37 10 -61 43t-23 73q0 40 23 73q-60 57 -152 57t-152 -62t-59 -192zM571 1321q-174 0 -174 -223v-215h424v209q-1 204 105 314t268 110t252 -78l35 67h114v-770q155 164 309 164t228 -94q57 -76 57 -203v-455h138v-147h-445v147h131v416
q0 174 -153 174q-131 0 -265 -133v-457h131v-147h-442v147h135v584h-424v-584h166v-147h-473v147h133v584h-424v-584h164v-147h-477v147h137v584h-153v152h153v200q0 187 95 289t255 103q72 0 123 -23q96 -41 97 -133q0 -45 -29 -74t-72 -29t-74 28t-38 77h-7z" />
    <glyph glyph-name="f_f_j" unicode="ffj" horiz-adv-x="1736" 
d="M571 1321q-174 0 -174 -223v-215h424v200q1 227 107 329t248 104q102 0 159 -48t57 -104q0 -57 -32 -91q-33 -34 -82 -34t-83 38t-30 83q-6 2 -14 2q-55 0 -105 -58t-51 -188v-233h598v-865q0 -150 -43 -245q-78 -182 -280 -183q-94 0 -147 43q-52 43 -52 95t31 84t75 32
q45 0 73 -30t28 -78v-6q86 2 119 110q23 66 22 164v727h-424v-584h164v-147h-471v147h133v584h-424v-584h164v-147h-477v147h137v584h-153v152h153v200q0 187 95 289t255 103q72 0 123 -23q96 -41 97 -133q0 -45 -29 -74t-72 -29t-74 28t-38 77h-7z" />
    <glyph glyph-name="f_f_k" unicode="ffk" horiz-adv-x="2320" 
d="M995 1108v-225h424v233q-37 10 -61 43t-23 73q0 40 23 73q-60 57 -152 57t-152 -62t-59 -192zM571 1321q-174 0 -174 -223v-215h424v209q-1 204 105 314t268 110t252 -78l35 67h114v-1044l322 278h-152v144h510v-152h-159l-248 -211l252 -368h155v-152h-258l-278 422
l-144 -123v-154h129v-145h-440v147h135v584h-424v-584h166v-147h-473v147h133v584h-424v-584h164v-147h-477v147h137v584h-153v152h153v200q0 187 95 289t255 103q72 0 123 -23q96 -41 97 -133q0 -45 -29 -74t-72 -29t-74 28t-38 77h-7z" />
    <glyph glyph-name=".notdef" horiz-adv-x="1024" 
d="M512 492l-367 -799h734zM922 1384l-353 -770l353 -770v1540zM102 -156l353 770l-353 770v-1540zM145 1536l367 -799l367 799h-734zM0 -410v2048h1024v-2048h-1024z" />
    <glyph glyph-name=".null" horiz-adv-x="0" 
 />
    <glyph glyph-name="nonmarkingreturn" horiz-adv-x="681" 
 />
    <glyph glyph-name="space" unicode=" " horiz-adv-x="458" 
 />
    <glyph glyph-name="exclam" unicode="!" horiz-adv-x="540" 
d="M270 -16q-55 0 -93 39t-38 94t38 95t93 40q54 0 94 -40t40 -95t-40 -94q-39 -39 -94 -39zM223 387l-65 959h225l-64 -959h-96z" />
    <glyph glyph-name="quotedbl" unicode="&#x22;" horiz-adv-x="765" 
d="M188 1372q62 0 96 -46t19 -120l-80 -387h-71l-78 387q-14 74 19 120q34 46 95 46zM575 1372q61 0 95 -46t20 -120l-80 -387h-71l-78 387q-14 74 19 120q34 46 95 46z" />
    <glyph glyph-name="numbersign" unicode="#" horiz-adv-x="1114" 
d="M453 670l-43 -269h249l43 269h-249zM117 666v145h200l39 244h160l-39 -244h242l39 244h162l-39 -244h182v-145h-205l-41 -260h182v-146h-204l-39 -260h-160l39 260h-242l-41 -260h-159l38 260h-180v146h203l41 260h-178z" />
    <glyph glyph-name="dollar" unicode="$" horiz-adv-x="1009" 
d="M295 780q0 -55 40 -85t124 -54l24 277q-84 -6 -136 -44t-52 -94zM748 284q0 64 -48 98t-145 62l-25 -307q94 4 156 43q62 40 62 104zM907 838q-1 -49 -29 -80t-75 -31t-78 30q-31 29 -31 69t11 61q-29 16 -107 26l-25 -303q254 -69 318 -183q29 -52 29 -120
q0 -147 -112 -225t-284 -82l-18 -217l-133 10l16 215q-129 18 -220 76t-91 152q0 50 30 82t76 32t79 -30q32 -30 32 -68q0 -39 -12 -66q31 -25 131 -43l26 330q-147 39 -232 102t-85 185t100 204q100 81 264 89l13 141l133 -10l-10 -137q121 -15 203 -69t81 -140z" />
    <glyph glyph-name="percent" unicode="%" horiz-adv-x="1370" 
d="M1011 377q-54 0 -89 -40t-35 -99q0 -58 35 -98t89 -40t90 39t36 99t-36 99q-36 40 -90 40zM1010 496q108 0 184 -75t76 -181t-76 -182t-184 -74q-108 0 -183 74t-75 182q0 106 75 181t183 75zM266 -39l-78 72q96 100 388 434t522 610l80 -69q-282 -290 -813 -929
q-85 -102 -99 -118zM359 678q54 0 90 39q35 39 35 97t-35 98t-89 40t-90 -40q-34 -40 -34 -98t34 -97t89 -39zM359 1073q107 0 183 -75t76 -181t-76 -182t-184 -76t-182 76q-76 76 -76 182t76 181t183 75z" />
    <glyph glyph-name="ampersand" unicode="&#x26;" horiz-adv-x="1314" 
d="M381 989q0 -98 106 -225q109 62 156 120t47 128t-41 110q-41 41 -109 41t-114 -52q-45 -52 -45 -122zM498 133q174 0 307 121l-232 215q-74 66 -141 133q-188 -111 -188 -266q0 -80 68 -142t186 -61zM1262 551h-119q-53 -172 -123 -279q127 -117 207 -180l-105 -117
l-202 179q-176 -172 -422 -172q-209 0 -323 97t-114 247q0 223 275 372q-82 90 -109 156t-26 139q0 119 93 216q94 97 244 97t241 -78q91 -80 91 -196t-70 -199t-216 -161q58 -59 154 -145t169 -156q51 76 88 184h-112v145h379v-149z" />
    <glyph glyph-name="quotesingle" unicode="'" horiz-adv-x="378" 
d="M188 1372q62 0 96 -46t19 -120l-80 -387h-71l-78 387q-14 74 19 120q34 46 95 46z" />
    <glyph glyph-name="parenleft" unicode="(" horiz-adv-x="811" 
d="M328 534q0 -294 140 -511t366 -359l-86 -129q-246 135 -425 398t-180 602q0 229 95 437q94 208 224 341t286 219l86 -129q-226 -141 -366 -359q-140 -216 -140 -510z" />
    <glyph glyph-name="parenright" unicode=")" horiz-adv-x="811" 
d="M483 534q0 294 -140 510t-366 359l86 129q156 -86 286 -219t224 -341t95 -437q0 -337 -180 -601t-425 -399l-86 129q225 140 365 358t141 512z" />
    <glyph glyph-name="asterisk" unicode="*" horiz-adv-x="876" 
d="M438 1440q48 0 71 -39q22 -39 7 -92l-53 -213l184 112q47 29 91 22t59 -50q14 -47 -15 -81t-86 -38l-219 -14l166 -140q45 -37 50 -81t-36 -72t-79 -11q-38 18 -60 72l-80 199l-80 -199q-20 -53 -59 -71t-80 10t-36 72t50 81l166 140l-219 14q-57 4 -86 38q-28 34 -14 79
t58 52t91 -22l185 -112l-54 213q-14 53 8 92t70 39z" />
    <glyph glyph-name="plus" unicode="+" horiz-adv-x="892" 
d="M369 213v276h-275v152h275v277h155v-277h275v-152h-275v-276h-155z" />
    <glyph glyph-name="comma" unicode="," horiz-adv-x="464" 
d="M86 140q0 52 42 93t104 41t104 -47q43 -47 43 -140t-78 -208t-246 -207l-49 68q94 74 144 144t51 116q-51 12 -83 50t-32 90z" />
    <glyph glyph-name="hyphen" unicode="-" horiz-adv-x="684" 
d="M78 483v181h528v-181h-528z" />
    <glyph glyph-name="period" unicode="." horiz-adv-x="464" 
d="M233 -16q-59 0 -101 43t-42 102t42 102t101 43t101 -43t43 -102q-1 -59 -43 -102t-101 -43z" />
    <glyph glyph-name="slash" unicode="/" horiz-adv-x="991" 
d="M129 -432l-149 67l837 1889l150 -66z" />
    <glyph glyph-name="zero" unicode="0" horiz-adv-x="1159" 
d="M580 135q135 0 221 111q86 112 86 282t-86 282t-221 112q-136 0 -222 -111t-86 -283t86 -282t222 -111zM580 -16q-213 0 -352 155q-138 156 -138 389t138 388t352 155t351 -155q138 -156 138 -390t-138 -388t-351 -154z" />
    <glyph glyph-name="one" unicode="1" horiz-adv-x="862" 
d="M123 0v147h246v723l-213 -53l-41 150l350 92h82v-912h241v-147h-665z" />
    <glyph glyph-name="two" unicode="2" horiz-adv-x="1044" 
d="M500 920q-147 0 -203 -72q39 -33 39 -79t-34 -81t-83 -35t-84 40q-35 41 -35 99t47 122t145 111q98 46 216 46q182 0 290 -90t108 -212t-79 -201q-78 -79 -239 -175q-223 -131 -295 -248h495v174h152v-319h-844l-26 88q55 131 160 229t244 187t180 124q71 61 71 132
q0 72 -62 116q-63 44 -163 44z" />
    <glyph glyph-name="three" unicode="3" horiz-adv-x="1017" 
d="M57 27q0 59 36 99t84 40t81 -33t33 -83t-41 -81q78 -78 218 -78q140 -1 216 63t76 163q0 141 -144 205q-90 39 -223 38h-53v146h59q135 0 242 60t107 159q0 98 -69 146q-69 49 -195 49t-187 -66q45 -31 45 -81t-34 -82t-82 -32t-84 39q-36 38 -36 98t43 124t137 107
q94 44 224 44q182 0 299 -95t117 -235q0 -77 -45 -145t-113 -108t-139 -48q63 -12 123 -45q186 -96 186 -273q0 -176 -128 -278t-323 -102q-129 0 -234 46t-151 113t-45 126z" />
    <glyph glyph-name="four" unicode="4" horiz-adv-x="1095" 
d="M668 -246v355h-590l-37 81l672 895l129 -102l-545 -727h371v266l170 68v-334h217v-147h-217v-355h-170z" />
    <glyph glyph-name="five" unicode="5" horiz-adv-x="1019" 
d="M80 -28q0 66 36 106q36 39 85 39t83 -33t34 -77t-31 -75q65 -36 189 -36t202 76t78 193t-76 187t-214 70t-261 -60l-80 46l78 647h661v-166h-526l-41 -342q86 27 195 26q194 -1 318 -111t124 -295t-129 -305t-340 -120t-322 104q-63 60 -63 126z" />
    <glyph glyph-name="six" unicode="6" horiz-adv-x="1118" 
d="M573 133q123 0 201 79q78 80 78 192t-75 184t-197 72t-207 -78q-84 -78 -84 -188t80 -183q81 -78 204 -78zM618 1167q-131 0 -235 -140t-113 -384q41 72 131 120t193 48q188 0 313 -116q125 -117 125 -291t-131 -298t-331 -122q-200 0 -326 129q-143 145 -144 450
q0 365 156 561t379 195q182 0 285 -102q55 -51 55 -117t-37 -102q-37 -38 -87 -38t-84 34t-34 75t17 64q-48 34 -132 34z" />
    <glyph glyph-name="seven" unicode="7" horiz-adv-x="1013" 
d="M225 909v-215h-159v361h841l41 -88l-594 -1217l-151 76l530 1083h-508z" />
    <glyph glyph-name="eight" unicode="8" horiz-adv-x="1062" 
d="M795 365q0 99 -74 165t-190 66q-115 0 -189 -67t-74 -165t74 -163q74 -66 189 -66q116 0 190 66t74 164zM530 731q98 -1 168 63t70 156t-67 154t-170 61q-103 0 -170 -61q-67 -60 -67 -154t70 -156q68 -62 166 -63zM530 -16q-198 0 -322 106t-124 262q0 104 66 188
t172 126q-94 45 -152 125q-57 80 -57 165q0 156 119 258q120 102 299 102t299 -102t120 -258q0 -88 -58 -166t-153 -124q106 -41 173 -125t67 -189q0 -158 -125 -263t-324 -105z" />
    <glyph glyph-name="nine" unicode="9" horiz-adv-x="1118" 
d="M537 395q123 0 207 78q84 77 84 187t-81 186t-204 76t-201 -79t-78 -193t75 -184q75 -71 198 -71zM475 -256q-188 0 -289 104q-51 58 -51 118t37 98t87 38t84 -34t34 -73q0 -40 -19 -67q49 -33 134 -32q137 0 241 136t113 374q-43 -70 -132 -116t-192 -46
q-188 0 -313 116t-125 290q0 175 131 298t331 123t320 -123q152 -147 152 -459q0 -365 -159 -555t-384 -190z" />
    <glyph glyph-name="colon" unicode=":" horiz-adv-x="503" 
d="M253 -16q-58 0 -99 42t-41 101t41 100t99 41t99 -41t41 -100t-41 -101t-99 -42zM393 670q0 -60 -41 -102t-99 -42t-99 42t-41 102t41 100q41 41 99 41t99 -41t41 -100z" />
    <glyph glyph-name="semicolon" unicode=";" horiz-adv-x="503" 
d="M252 268q59 0 102 -46t43 -136q-1 -90 -77 -204t-240 -204l-49 66q184 145 192 256q-49 12 -81 49t-32 88t42 91q41 40 100 40zM393 670q0 -60 -41 -102t-99 -42t-99 42t-41 102t41 100q41 41 99 41t99 -41t41 -100z" />
    <glyph glyph-name="less" unicode="&#x3c;" horiz-adv-x="827" 
d="M612 152l-520 362v90l520 363l84 -115l-420 -293l420 -291z" />
    <glyph glyph-name="equal" unicode="=" horiz-adv-x="892" 
d="M94 305v152h705v-152h-705zM94 657v152h705v-152h-705z" />
    <glyph glyph-name="greater" unicode="&#x3e;" horiz-adv-x="827" 
d="M215 152l-84 116l420 291l-420 293l84 115l520 -363v-90z" />
    <glyph glyph-name="question" unicode="?" horiz-adv-x="950" 
d="M433 -16q-54 0 -93 39t-39 94t39 95t93 40t93 -40t39 -95t-39 -94t-93 -39zM45 1078q0 70 52 141q53 69 147 111t207 42q197 0 317 -105t119 -257t-99 -258t-280 -148l-21 -217h-112l-37 332q180 29 269 103t89 173q0 98 -67 159q-68 60 -200 60t-191 -81q-4 -4 -5 -7
q52 -17 53 -76t-28 -91q-29 -31 -80 -31t-92 40t-41 110z" />
    <glyph glyph-name="at" unicode="@" horiz-adv-x="1656" 
d="M995 500q-1 151 -157 151q-80 0 -145 -83t-64 -195q0 -68 35 -111t98 -43q92 0 163 83t70 198zM702 -362q-270 0 -442 181t-172 466q0 401 255 686t613 284q276 0 447 -165q170 -166 170 -422t-118 -428t-294 -172q-98 0 -153 49t-60 125q-100 -174 -266 -174
q-102 0 -170 78t-68 204q0 184 110 322t262 137q152 0 212 -162l47 150h164l-117 -463q-41 -152 76 -152q109 0 191 142q81 142 81 346t-139 348t-373 143q-319 0 -543 -258t-225 -622q0 -238 144 -395t373 -156q170 0 325 84l43 -82q-176 -94 -373 -94z" />
    <glyph glyph-name="A" unicode="A" horiz-adv-x="1437" 
d="M502 604h426l-213 588zM33 0v166h123l374 1018h-149v164h676v-164h-152l375 -1018h125v-166h-479v164h155l-100 285h-532l-101 -285h164v-164h-479z" />
    <glyph glyph-name="B" unicode="B" horiz-adv-x="1230" 
d="M436 760h180q141 0 218 59q76 59 76 159t-75 154t-212 54h-187v-426zM436 162h219q137 0 215 60t78 166t-84 164t-235 58h-193v-448zM88 0v166h164v1016h-164v166h539q231 0 351 -98t120 -249q0 -115 -66 -195t-174 -114q279 -78 279 -319q0 -165 -129 -269t-357 -104
h-563z" />
    <glyph glyph-name="C" unicode="C" horiz-adv-x="1437" 
d="M807 -25q-307 0 -504 199t-197 499q0 299 203 499t492 200q213 0 363 -101t149 -229q0 -63 -38 -104t-94 -41t-94 34q-37 34 -37 87t35 80q-33 40 -109 72t-179 32q-215 0 -358 -154q-142 -155 -142 -374t143 -374q142 -155 366 -155t404 177l117 -129
q-101 -104 -237 -161t-283 -57z" />
    <glyph glyph-name="D" unicode="D" horiz-adv-x="1476" 
d="M438 166h168q279 0 426 140q148 140 148 376t-159 368t-431 132h-152v-1016zM88 0v166h164v1016h-164v166h506q358 0 567 -180t209 -486t-207 -494t-581 -188h-494z" />
    <glyph glyph-name="E" unicode="E" horiz-adv-x="1193" 
d="M88 0v166h164v1016h-164v166h989v-353h-176v189h-463v-418h426v-160h-426v-442h463v188h178v-352h-991z" />
    <glyph glyph-name="F" unicode="F" horiz-adv-x="1155" 
d="M88 0v166h164v1016h-164v166h977v-353h-178v189h-449v-443h418v-161h-418v-414h183v-166h-533z" />
    <glyph glyph-name="G" unicode="G" horiz-adv-x="1499" 
d="M758 -25q-264 1 -458 191t-194 500t205 508q205 199 498 198q219 0 365 -98t147 -219q0 -63 -36 -103t-92 -41q-56 0 -93 35t-37 86t27 78q-96 92 -302 92t-349 -151q-142 -152 -142 -383q0 -230 142 -378t344 -148t368 110v264h-358v158h540v-674h-178v109
q-178 -134 -397 -134z" />
    <glyph glyph-name="H" unicode="H" horiz-adv-x="1570" 
d="M88 0v166h164v1016h-164v166h522v-166h-172v-414h695v414h-172v166h522v-166h-164v-1016h164v-166h-522v166h172v440h-695v-440h172v-166h-522z" />
    <glyph glyph-name="I" unicode="I" horiz-adv-x="712" 
d="M88 0v166h176v1016h-176v166h535v-166h-174v-1016h174v-166h-535z" />
    <glyph glyph-name="J" unicode="J" horiz-adv-x="1093" 
d="M457 145q233 0 233 308v729h-207v166h545v-166h-156v-731q0 -246 -118 -365q-115 -111 -289 -111q-174 1 -290 97t-116 237q0 74 39 120q40 46 94 46t89 -35t34 -84q0 -74 -61 -98q10 -43 63 -78t140 -35z" />
    <glyph glyph-name="K" unicode="K" horiz-adv-x="1386" 
d="M88 0v166h164v1016h-164v166h522v-162h-172v-533l529 533h-170v162h553v-166h-150l-412 -408l394 -608h172v-166h-291l-414 649l-211 -209v-274h172v-166h-522z" />
    <glyph glyph-name="L" unicode="L" horiz-adv-x="1130" 
d="M88 0v166h164v1016h-164v166h533v-166h-183v-1018h426v198h178v-362h-954z" />
    <glyph glyph-name="M" unicode="M" horiz-adv-x="1789" 
d="M78 0v166h168l47 1016h-176v166h346l430 -846l430 846h342v-166h-174l45 -1016h170v-166h-520v166h166l-31 838l-414 -799h-35l-413 799l-31 -838h166v-166h-516z" />
    <glyph glyph-name="N" unicode="N" horiz-adv-x="1546" 
d="M432 166h172v-166h-516v166h164v1016h-164v166h324l729 -951v785h-172v166h510v-166h-158v-1186l-102 -2l-787 1024v-852z" />
    <glyph glyph-name="O" unicode="O" horiz-adv-x="1583" 
d="M793 147q215 0 354 150t139 377t-139 377q-139 149 -354 149t-356 -149q-140 -150 -140 -377q1 -227 141 -377t355 -150zM789 -25q-299 0 -491 201t-192 499q0 297 195 497t493 200t490 -201t193 -499q0 -298 -195 -497q-195 -200 -493 -200z" />
    <glyph glyph-name="P" unicode="P" horiz-adv-x="1189" 
d="M634 633q127 0 212 76q84 75 84 201t-89 199t-229 73h-174v-545q69 -4 196 -4zM88 0v166h164v1016h-164v166h528q220 0 362 -118t142 -323t-140 -321t-376 -117q-96 0 -166 4v-307h176v-166h-526z" />
    <glyph glyph-name="Q" unicode="Q" horiz-adv-x="1583" 
d="M799 147q209 0 348 150t139 377t-139 377q-139 149 -354 149t-356 -149q-140 -151 -140 -383t156 -387q137 -134 346 -134zM1323 -283q-109 0 -243 67q-34 18 -114 72t-83 56q-80 51 -191 72q-225 37 -383 184q-94 88 -148 220t-55 286q0 298 195 498t493 200t490 -201
t193 -497q1 -248 -133 -423t-343 -228q45 -13 108 -53t105 -58t113 -18q70 0 158 61l90 -148q-96 -90 -252 -90z" />
    <glyph glyph-name="R" unicode="R" horiz-adv-x="1267" 
d="M588 690q147 0 240 68q94 68 94 186t-88 177q-88 60 -240 61h-156v-488q70 -4 150 -4zM88 0v166h164v1016h-164v166h516q232 0 370 -104t138 -294q0 -131 -75 -227t-199 -141l249 -416h158v-166h-284l-306 535q-106 -8 -217 0v-369h172v-166h-522z" />
    <glyph glyph-name="S" unicode="S" horiz-adv-x="1130" 
d="M566 -25q-198 -1 -332 91t-134 204q0 62 34 102t88 40t89 -34t35 -81t-27 -86q81 -72 225 -72q144 -1 217 57t73 150t-69 144t-198 102q-215 80 -315 164t-100 246t117 266q119 104 303 104t306 -82t121 -194q0 -61 -33 -98q-34 -36 -87 -36t-88 36q-35 34 -35 77t22 78
q-63 57 -187 57t-189 -53q-64 -53 -64 -140t68 -138t188 -97t182 -76t122 -77q120 -91 120 -267q0 -175 -127 -281t-325 -106z" />
    <glyph glyph-name="T" unicode="T" horiz-adv-x="1280" 
d="M371 0v166h176v1022h-301v-215h-176v375h1140v-375h-176v215h-301v-1022h176v-166h-538z" />
    <glyph glyph-name="U" unicode="U" horiz-adv-x="1437" 
d="M718 -25q-232 0 -364 129q-131 129 -131 371v707h-160v166h515v-166h-170v-695q0 -168 80 -255t232 -87q150 0 232 84t82 252v701h-170v166h512v-166h-162v-701q0 -246 -132 -376t-364 -130z" />
    <glyph glyph-name="V" unicode="V" horiz-adv-x="1419" 
d="M33 1182v166h487v-166h-147l340 -875l342 875h-156v166h487v-166h-129l-495 -1200h-107l-493 1200h-129z" />
    <glyph glyph-name="W" unicode="W" horiz-adv-x="2054" 
d="M45 1182v166h522v-166h-172l256 -844l336 862h100l336 -862l246 844h-178v166h522v-166h-151l-371 -1200h-105l-352 886l-356 -886h-107l-376 1200h-150z" />
    <glyph glyph-name="X" unicode="X" horiz-adv-x="1464" 
d="M68 0v166h143l416 526l-383 490h-150v166h508v-162h-145l282 -389l285 389h-158v162h510v-166h-149l-383 -488l409 -528h144v-166h-502v162h143l-307 428l-317 -428h155v-162h-501z" />
    <glyph glyph-name="Y" unicode="Y" horiz-adv-x="1316" 
d="M383 0v166h182v362l-391 654h-141v166h477v-166h-129l281 -496l282 496h-137v166h477v-166h-141l-391 -652v-364h182v-166h-551z" />
    <glyph glyph-name="Z" unicode="Z" horiz-adv-x="1257" 
d="M90 0v98l799 1094h-592v-219h-164v375h1020v-99l-799 -1093h650v219h161v-375h-1075z" />
    <glyph glyph-name="bracketleft" unicode="[" horiz-adv-x="747" 
d="M199 -410v1909h495v-156h-321v-1595h321v-158h-495z" />
    <glyph glyph-name="backslash" unicode="\" horiz-adv-x="991" 
d="M862 -432l-837 1890l149 66l838 -1889z" />
    <glyph glyph-name="bracketright" unicode="]" horiz-adv-x="747" 
d="M53 -410v158h322v1595h-322v156h496v-1909h-496z" />
    <glyph glyph-name="asciicircum" unicode="^" horiz-adv-x="925" 
d="M209 700l-82 95l336 325l336 -325l-82 -95l-254 179z" />
    <glyph glyph-name="underscore" unicode="_" horiz-adv-x="1124" 
d="M-14 -319v167h1153v-167h-1153z" />
    <glyph glyph-name="grave" unicode="`" horiz-adv-x="696" 
d="M210 1409q44 0 91 -53l238 -279l-52 -57l-307 194q-68 46 -68 94t28 74q26 26 70 27z" />
    <glyph glyph-name="a" unicode="a" horiz-adv-x="1021" 
d="M424 117q129 0 248 104v144q-111 31 -209 31q-97 0 -149 -41q-52 -40 -52 -103t43 -99t119 -36zM373 -16q-125 0 -207 68t-82 186q0 120 96 192t236 72t256 -35v100q0 74 -39 123q-55 68 -184 68q-66 0 -115 -27q10 -25 10 -59t-29 -62t-73 -28t-75 28q-30 28 -30 76
q0 86 90 150t250 63q203 0 297 -111q68 -80 68 -202v-439h137v-147h-303v106q-131 -122 -303 -122z" />
    <glyph glyph-name="b" unicode="b" horiz-adv-x="1118" 
d="M573 137q125 0 203 83t78 221q0 137 -77 221t-203 84t-238 -113v-412q113 -84 237 -84zM1036 446q0 -198 -125 -330t-296 -132t-296 104l-45 -90h-114v1350h-140v151h316v-725q126 125 292 125t287 -128t121 -325z" />
    <glyph glyph-name="c" unicode="c" horiz-adv-x="991" 
d="M540 -16q-190 0 -325 129t-135 321t128 328t300 137q172 0 283 -86t110 -192q0 -57 -36 -95t-85 -37q-49 0 -82 32t-32 79q0 47 36 74q-16 32 -67 56t-113 24q-100 0 -182 -83t-82 -225t89 -226q89 -85 228 -85t302 94l-17 -161q-130 -84 -320 -84z" />
    <glyph glyph-name="d" unicode="d" horiz-adv-x="1136" 
d="M540 745q-124 0 -200 -85t-77 -221t75 -219t199 -83q124 0 237 113v409q-111 86 -234 86zM487 -16q-169 0 -287 127t-118 323t122 330q122 135 295 135t275 -96v545h-151v151h327v-1352h137v-147h-311v113q-120 -129 -289 -129z" />
    <glyph glyph-name="e" unicode="e" horiz-adv-x="1005" 
d="M520 754q-102 0 -172 -62t-86 -176h494q-6 110 -70 174t-166 64zM544 -16q-202 0 -334 126t-132 324t121 331q121 134 317 134t306 -121t110 -299q0 -41 -8 -94h-662q18 -123 102 -186t225 -63q140 0 306 93l-14 -161q-135 -84 -337 -84z" />
    <glyph glyph-name="f" unicode="f" horiz-adv-x="671" 
d="M399 1141v-258h230v-152h-230v-584h172v-147h-483v147h137v584h-153v152h153v225q0 221 103 322q86 86 219 86q78 0 127 -36t49 -90q1 -54 -29 -84t-73 -30q-84 0 -117 84q-105 -25 -105 -219z" />
    <glyph glyph-name="g" unicode="g" horiz-adv-x="1138" 
d="M540 745q-126 1 -202 -81t-76 -213t75 -210t201 -79t232 110v387q-104 86 -230 86zM946 731v-749q0 -162 -82 -261q-106 -131 -328 -131t-325 103q-47 47 -47 100t32 87t78 34t74 -29q29 -29 29 -63t-12 -58q72 -29 155 -28q137 0 205 84q45 57 45 162v153
q-122 -125 -286 -125t-283 123t-119 313t122 321q122 132 291 132t283 -104v88h305v-152h-137z" />
    <glyph glyph-name="h" unicode="h" horiz-adv-x="1146" 
d="M791 563q0 174 -156 174q-133 0 -262 -133v-457h131v-147h-445v147h138v1201h-138v151h314v-764q155 164 309 164t219 -86t66 -211v-455h137v-147h-445v147h132v416z" />
    <glyph glyph-name="i" unicode="i" horiz-adv-x="606" 
d="M78 0v147h143v584h-143v152h319v-736h142v-147h-461zM288 1069q-52 0 -89 38t-37 90t38 90t90 38t90 -38t38 -90t-39 -90t-91 -38z" />
    <glyph glyph-name="j" unicode="j" horiz-adv-x="561" 
d="M300 1069q-52 0 -89 38t-37 90t38 90t90 38t90 -38t38 -90t-39 -90t-91 -38zM-104 -272q0 51 30 84q31 32 76 32t74 -30t28 -78v-6q82 2 119 110q20 68 21 164v727h-168v152h344v-865q0 -145 -45 -245q-78 -182 -279 -183q-94 0 -147 44t-53 94z" />
    <glyph glyph-name="k" unicode="k" horiz-adv-x="1097" 
d="M59 0v147h138v1201h-138v151h314v-1038l319 278h-149v144h508v-152h-160l-246 -211l252 -368h154v-152h-258l-277 422l-143 -123v-154h129v-145h-443z" />
    <glyph glyph-name="l" unicode="l" horiz-adv-x="583" 
d="M61 0v147h144v1201h-144v151h320v-1352h141v-147h-461z" />
    <glyph glyph-name="m" unicode="m" horiz-adv-x="1705" 
d="M1350 565q0 174 -142 172q-119 0 -252 -129v-461h129v-147h-436v147h131v418q0 63 -14 101q-33 72 -125 71q-119 0 -254 -131v-459h129v-147h-440v147h137v584h-137v152h305v-154q145 170 301 170q204 0 252 -162q162 162 311 162q180 0 246 -127q35 -74 35 -168v-457
h137v-147h-444v147h131v418z" />
    <glyph glyph-name="n" unicode="n" horiz-adv-x="1159" 
d="M803 563q0 176 -152 174q-131 0 -264 -133v-457h131v-147h-442v147h137v584h-137v152h305v-154q159 170 319 170t234 -113q45 -78 45 -184v-455h137v-147h-444v147h131v416z" />
    <glyph glyph-name="o" unicode="o" horiz-adv-x="1083" 
d="M542 133q124 0 202 86t77 221q0 134 -78 222q-77 88 -201 88t-202 -87t-78 -223t78 -221q78 -86 202 -86zM1004 442q0 -192 -129 -325t-334 -133t-332 132t-127 324t128 326q128 133 333 133t333 -133q128 -132 128 -324z" />
    <glyph glyph-name="p" unicode="p" horiz-adv-x="1140" 
d="M601 137q124 0 200 85t76 221q0 135 -74 219t-196 84t-234 -113v-412q104 -84 228 -84zM59 -401v147h138v985h-138v152h306v-115q127 131 293 131t283 -127q118 -127 118 -323q0 -197 -122 -331t-306 -134q-143 0 -258 94v-332h157v-147h-471z" />
    <glyph glyph-name="q" unicode="q" horiz-adv-x="1089" 
d="M262 442q0 -138 76 -222q76 -83 202 -83q125 0 242 113v412q-114 84 -238 84t-203 -84q-79 -82 -79 -220zM612 -401v151h170v356q-132 -122 -296 -122t-284 128t-120 324t124 330q124 133 310 133q152 0 281 -104l45 92h114v-1137h140v-151h-484z" />
    <glyph glyph-name="r" unicode="r" horiz-adv-x="825" 
d="M653 899q72 0 110 -37t38 -88t-34 -87t-79 -36q-84 0 -117 76q-49 -14 -100 -64t-84 -114v-402h162v-147h-473v147h137v584h-137v152h305v-201q55 96 127 156t145 61z" />
    <glyph glyph-name="s" unicode="s" horiz-adv-x="913" 
d="M795 705q0 -55 -27 -83t-71 -28q-43 0 -73 27t-30 63t8 53q-57 27 -139 27t-129 -34t-47 -80t47 -72q46 -26 188 -62q142 -37 222 -92t81 -175q0 -120 -104 -194t-256 -73q-99 0 -191 30q-186 59 -186 189q0 43 29 75t73 31q44 1 73 -27q30 -28 30 -65t-8 -55
q66 -41 165 -41t153 32t54 82q0 49 -45 77t-189 65t-225 93t-81 166t92 188t254 77q86 0 165 -26t123 -70t44 -98z" />
    <glyph glyph-name="t" unicode="t" horiz-adv-x="712" 
d="M432 -16q-156 0 -213 110q-27 57 -26 129v508h-166v152h166v202l176 72v-274h268v-152h-268v-477q0 -41 12 -68q25 -43 95 -43t173 50l-18 -158q-99 -51 -199 -51z" />
    <glyph glyph-name="u" unicode="u" horiz-adv-x="1142" 
d="M356 319q0 -174 152 -174q123 0 264 134v452h-141v152h317v-736h137v-147h-307v154q-157 -170 -319 -170t-236 116q-41 76 -41 181v450h-137v152h311v-564z" />
    <glyph glyph-name="v" unicode="v" horiz-adv-x="1083" 
d="M12 731v152h428v-146h-135l240 -530l239 530h-141v146h428v-152h-110l-363 -756h-113l-362 756h-111z" />
    <glyph glyph-name="w" unicode="w" horiz-adv-x="1449" 
d="M12 731v152h428v-148h-133l144 -504l227 555h108l230 -555l143 504h-147v148h426v-152h-129l-232 -766h-110l-242 574l-240 -574h-110l-234 766h-129z" />
    <glyph glyph-name="x" unicode="x" horiz-adv-x="1058" 
d="M35 0v152h117l278 294l-264 285h-115v152h412v-142h-113l180 -215l181 215h-115v142h408v-152h-117l-260 -278l280 -301h117v-152h-416v141h115l-199 232l-196 -232h116v-141h-409z" />
    <glyph glyph-name="y" unicode="y" horiz-adv-x="1067" 
d="M55 -286q0 50 28 77t69 27q72 0 96 -74q45 16 90 80q27 45 55 100l60 123l-326 684h-115v152h430v-146h-135q14 -33 39 -87t75 -169t83 -190l33 -78l233 524h-141v146h426v-152h-115l-416 -887q-34 -69 -69 -118q-102 -133 -232 -134q-74 0 -121 36t-47 86z" />
    <glyph glyph-name="z" unicode="z" horiz-adv-x="931" 
d="M68 0v92l553 649h-365v-170h-154v312h754v-90l-551 -650h408v168h151v-311h-796z" />
    <glyph glyph-name="braceleft" unicode="{" horiz-adv-x="745" 
d="M141 -119q0 85 40 145t128 144t88 148t-64 106q-65 41 -173 41h-47v151h47q110 0 174 41t64 105t-89 149q-88 85 -128 145t-40 144q0 144 126 232t378 94v-137q-176 -9 -255 -63t-79 -122t123 -196q145 -145 146 -248q0 -78 -62 -137t-182 -82q119 -23 181 -82t63 -137
q0 -102 -146 -248q-123 -127 -123 -196t79 -122t255 -63v-137q-252 6 -378 94t-126 231z" />
    <glyph glyph-name="bar" unicode="|" horiz-adv-x="565" 
d="M205 -410v1909h155v-1909h-155z" />
    <glyph glyph-name="braceright" unicode="}" horiz-adv-x="745" 
d="M434 -122q0 68 -123 196q-145 145 -145 248q0 78 62 137t182 82q-119 23 -182 82q-62 59 -62 137q0 102 134 238t134 206q0 68 -79 121t-255 64v137q252 -6 378 -94t126 -232q0 -84 -40 -144t-128 -144t-88 -150q0 -64 65 -105t173 -41h47v-151h-47q-110 0 -174 -41
q-64 -42 -64 -106t88 -148t128 -144t40 -145q0 -143 -126 -231t-378 -94v137q176 10 255 63q79 54 79 122z" />
    <glyph glyph-name="asciitilde" unicode="~" horiz-adv-x="909" 
d="M599 385q-87 -1 -165 69t-121 70q-74 0 -100 -125l-127 33q12 119 74 194q62 74 149 74q86 0 174 -79q74 -61 113 -62q74 0 100 125l127 -31q-13 -119 -75 -193t-149 -75z" />
    <glyph glyph-name="uni00A0" unicode="&#xa0;" horiz-adv-x="458" 
 />
    <glyph glyph-name="exclamdown" unicode="&#xa1;" horiz-adv-x="540" 
d="M158 0l65 958h96l64 -958h-225zM270 1094q-55 0 -93 40t-38 95t38 94t93 39q54 0 94 -39t40 -94t-40 -95q-39 -40 -94 -40z" />
    <glyph glyph-name="cent" unicode="&#xa2;" horiz-adv-x="1069" 
d="M268 546q0 -226 191 -302l55 598q-106 -20 -176 -102q-70 -80 -70 -194zM967 715q0 -55 -36 -92t-82 -37t-78 30t-32 74q0 45 37 82q-37 49 -139 70l-55 -625h30q168 0 330 94l-14 -157q-131 -82 -330 -82h-25l-26 -289l-135 12l26 297q-160 43 -253 163q-93 119 -93 283
t123 296t307 149l21 213l133 -12l-19 -207q131 -23 221 -99q89 -77 89 -163z" />
    <glyph glyph-name="sterling" unicode="&#xa3;" horiz-adv-x="1040" 
d="M795 240h-338v-25q0 -139 -92 -242q97 -1 203 -37t171 -36t101 26q35 27 73 97l117 -66q-44 -115 -110 -165t-172 -50t-232 48t-219 48h-14q-68 -96 -174 -96q-47 0 -80 27t-33 63q0 60 59 104t160 41q82 102 82 234v29h-223v139h198q-2 8 -16 51q-59 160 -59 258
q-1 160 107 272t286 111q141 0 240 -71t100 -169q0 -63 -34 -97t-79 -34t-75 31q-58 60 -7 143q-39 48 -146 48t-165 -70t-59 -170q0 -100 49 -233l22 -70h359v-139z" />
    <glyph glyph-name="yen" unicode="&#xa5;" horiz-adv-x="1060" 
d="M156 494v135h196l-184 289h-131v137h407v-135h-116l202 -330l201 330h-123v135h410v-137h-133l-187 -289h201v-135h-285l-12 -19v-88h297v-135h-297v-117h172v-135h-493v135h170v117h-295v135h295v88l-13 19h-282z" />
    <glyph glyph-name="section" unicode="&#xa7;" horiz-adv-x="940" 
d="M272 541q0 -37 47 -61q48 -23 148 -48l68 -18q125 33 124 96q1 62 -165 104q-70 18 -99 27q-123 -37 -123 -100zM450 106q148 0 148 80q0 57 -172 103t-248 95q-76 50 -76 130q0 125 162 178q-104 58 -104 154t89 160t225 65q136 0 224 -49t88 -129q0 -39 -26 -67
t-70 -28t-70 26q-26 24 -26 54t6 40q-40 28 -116 28t-113 -22t-37 -48t20 -48t80 -42t118 -38q178 -55 225 -100q50 -43 50 -111q0 -119 -157 -179q100 -59 100 -155q0 -97 -85 -159t-220 -62t-227 47t-93 131q0 36 28 64t70 28q43 0 71 -25t28 -53t-8 -41q37 -27 116 -27z
" />
    <glyph glyph-name="dieresis" unicode="&#xa8;" horiz-adv-x="878" 
d="M246 1051q-53 0 -91 38t-38 92t39 92t92 38t91 -38t38 -92t-39 -92t-92 -38zM631 1051q-53 0 -91 38t-38 92t39 92t92 38t91 -38t38 -92t-39 -92t-92 -38z" />
    <glyph glyph-name="copyright" unicode="&#xa9;" horiz-adv-x="1251" 
d="M625 731q-74 0 -126 -55q-53 -55 -53 -137q0 -83 52 -139t137 -56q84 0 153 66l50 -56q-74 -92 -200 -92t-204 77t-78 195t81 196t181 79q100 0 158 -40t58 -78q1 -71 -58 -73q-23 0 -38 16t-15 36t8 28q-32 33 -106 33zM170 528q0 -194 128 -328t314 -134t316 135
q129 135 129 329t-128 326q-127 133 -315 133t-316 -133t-128 -328zM1151 528q0 -228 -156 -386t-382 -158t-382 158t-155 384q0 227 155 386q156 159 383 159t382 -158t155 -385z" />
    <glyph glyph-name="ordfeminine" unicode="&#xaa;" horiz-adv-x="714" 
d="M186 985q0 -74 108 -74q58 0 128 58v86q-56 14 -116 14q-60 -1 -90 -23t-30 -61zM88 596v104h524v-104h-524zM256 825q-86 0 -135 41t-49 112t57 114t149 43t144 -19v55q0 55 -35 83t-87 28t-75 -12q6 -12 6 -34t-18 -40t-46 -18t-45 18q-18 18 -18 58t54 79t148 39
q93 0 159 -43t65 -147v-252h82v-94h-188v63q-82 -74 -168 -74z" />
    <glyph glyph-name="guillemotleft" unicode="&#xab;" horiz-adv-x="1064" 
d="M432 205l-375 364l375 365l107 -107l-252 -258l252 -258zM868 205l-376 364l376 365l107 -107l-252 -258l252 -258z" />
    <glyph glyph-name="registered" unicode="&#xae;" horiz-adv-x="815" 
d="M373 1071h33q68 0 67 51q0 49 -70 49h-30v-100zM268 887v59h37v225h-37v60h140q61 0 100 -27t39 -84t-64 -88l45 -86h39v-59h-86l-63 127h-45v-68h39v-59h-144zM408 1350q-121 0 -206 -86t-85 -211t85 -210t205 -85q119 0 205 85t86 210t-84 211t-206 86zM774 1055
q0 -155 -107 -261t-260 -106t-259 106t-107 260q0 155 106 260q107 105 261 105t260 -105t106 -259z" />
    <glyph glyph-name="macron" unicode="&#xaf;" horiz-adv-x="856" 
d="M104 1085v154h648v-154h-648z" />
    <glyph glyph-name="degree" unicode="&#xb0;" horiz-adv-x="624" 
d="M311 942q66 0 109 46t43 114t-43 114t-109 46q-67 0 -109 -46t-42 -114t42 -114t109 -46zM311 831q-115 0 -193 79t-77 192q0 114 78 192q79 78 193 78t191 -79t77 -191t-77 -192q-77 -79 -192 -79z" />
    <glyph glyph-name="plusminus" unicode="&#xb1;" horiz-adv-x="892" 
d="M94 35v153h705v-153h-705zM369 352v277h-275v151h275v277h155v-277h275v-151h-275v-277h-155z" />
    <glyph glyph-name="two.sup" unicode="&#xb2;" 
d="M489 1428q0 42 -38 73q-39 31 -91 31t-91 -15q-38 -15 -46 -32q35 -17 35 -57t-22 -62t-52 -20q-82 0 -82 89t72 145t182 56t184 -60t74 -157q0 -55 -28 -102t-61 -72q-32 -25 -87 -59q-156 -102 -209 -201h299v123h103v-227h-516l-35 57q31 78 86 148t93 99q38 30 92 69
t77 57t42 47q19 28 19 70z" />
    <glyph glyph-name="three.sup" unicode="&#xb3;" 
d="M487 1431q0 101 -142 101q-65 0 -97 -29q14 -29 14 -53t-22 -48q-22 -22 -53 -22t-55 26t-24 72t67 101q67 53 179 53t186 -55t74 -127t-47 -122q-47 -48 -114 -64q72 -16 124 -66t52 -132t-81 -140t-197 -58q-117 0 -195 50t-78 124q0 35 23 61q24 25 57 25q32 0 54 -22
t22 -50q0 -30 -17 -50q45 -39 121 -39t120 32q44 33 44 86t-47 91t-144 36h-45v99h49q78 0 125 34t47 86z" />
    <glyph glyph-name="acute" unicode="&#xb4;" horiz-adv-x="696" 
d="M486 1409q44 0 72 -27q26 -28 26 -76t-66 -92l-309 -194l-51 57l237 279q47 53 91 53z" />
    <glyph glyph-name="paragraph" unicode="&#xb6;" horiz-adv-x="1206" 
d="M700 147h119v732h-119v-732zM391 0v150h164v245q-35 -2 -127 -2q-160 0 -261 87q-101 86 -101 228t105 230t263 88h699v-154h-168v-718h168v-154h-742z" />
    <glyph glyph-name="periodcentered" unicode="&#xb7;" horiz-adv-x="530" 
d="M266 381q-59 0 -101 43t-42 103q0 59 42 103t101 44q60 0 102 -43t42 -103t-42 -104q-42 -43 -102 -43z" />
    <glyph glyph-name="cedilla" unicode="&#xb8;" horiz-adv-x="704" 
d="M592 -252q0 -64 -58 -112q-58 -46 -172 -46t-225 64l33 67q92 -41 177 -41t85 58q0 57 -113 57l-32 -2l-39 39l76 213l63 -10l2 -129q95 -8 149 -51t54 -107z" />
    <glyph glyph-name="one.sup" unicode="&#xb9;" 
d="M125 883v110h190v502l-176 -43l-28 104l266 70h61v-633h189v-110h-502z" />
    <glyph glyph-name="ordmasculine" unicode="&#xba;" horiz-adv-x="716" 
d="M358 920q72 0 117 51t45 129t-45 129t-117 51t-116 -51t-45 -129q1 -78 45 -129t116 -51zM357 825q-125 0 -201 80t-76 195q0 114 77 194t201 80t201 -80q76 -80 76 -194t-77 -195q-77 -80 -201 -80zM106 596v104h504v-104h-504z" />
    <glyph glyph-name="guillemotright" unicode="&#xbb;" horiz-adv-x="1064" 
d="M197 205l-107 106l252 258l-252 258l107 107l374 -365zM633 205l-107 106l252 258l-252 258l107 107l375 -365z" />
    <glyph glyph-name="onequarter" unicode="&#xbc;" horiz-adv-x="1628" 
d="M1284 1284q-406 -639 -797 -1313l-86 56q18 29 101 161q418 661 696 1151zM104 575v111h191v502l-176 -43l-29 104l266 70h62v-633h188v-111h-502zM1155 0v94h137v119h-336l-36 68l395 487l90 -72l-334 -393h221v133l109 43v-168h117v-100h-117v-115h90v-96h-336z" />
    <glyph glyph-name="onehalf" unicode="&#xbd;" horiz-adv-x="1628" 
d="M1260 1284q-406 -639 -797 -1313l-86 56q18 29 147 235q387 615 650 1077zM94 575v111h191v502l-176 -43l-29 104l266 70h62v-633h188v-111h-502zM1262 647q-52 0 -90 -15t-46 -32q35 -18 35 -57q1 -39 -21 -61t-53 -21q-82 0 -81 98q0 80 71 136q73 57 183 57t184 -60
t74 -157q0 -55 -29 -103t-61 -72q-32 -25 -87 -59q-156 -102 -208 -201h299v123h102v-227h-516l-35 57q31 78 86 148q55 69 93 99t92 69t77 57q61 47 61 118q0 42 -38 72q-40 30 -92 31z" />
    <glyph glyph-name="threequarters" unicode="&#xbe;" horiz-adv-x="1628" 
d="M516 1123q0 102 -142 102q-64 0 -98 -29q30 -63 -7 -100q-21 -23 -53 -23t-56 26q-24 27 -23 73q0 46 67 100q66 54 178 53q112 0 186 -55q74 -56 75 -128q0 -72 -47 -120t-115 -66q72 -16 124 -65t52 -132t-80 -141q-81 -57 -197 -57t-195 50t-79 124q0 35 24 61t56 26
t55 -22q21 -22 21 -52t-16 -50q44 -39 120 -39t120 33t44 86t-47 90t-143 37h-45v99h49q78 0 125 34t47 85zM1298 1284q-394 -621 -796 -1313l-86 56q18 29 147 235q392 623 649 1077zM1155 0v94h137v119h-336l-36 68l395 487l90 -72l-334 -393h221v133l109 43v-168h117
v-100h-117v-115h90v-96h-336z" />
    <glyph glyph-name="questiondown" unicode="&#xbf;" horiz-adv-x="950" 
d="M518 1364q55 0 93 -39t38 -94t-38 -95t-93 -40t-94 40t-39 95t39 94t94 39zM774 420q51 0 91 -42t40 -110q0 -70 -52 -140t-146 -111q-94 -42 -207 -42q-197 -1 -317 105t-120 258q1 152 99 258t280 147l21 218h115l34 -332q-180 -29 -269 -104t-89 -173t68 -158t200 -60
t191 81l4 4q-53 21 -53 79t29 90q30 32 81 32z" />
    <glyph glyph-name="Agrave" unicode="&#xc0;" horiz-adv-x="1437" 
d="M385 1756q0 48 27 75q26 27 70 27t91 -54l238 -278l-51 -58l-307 195q-68 45 -68 93zM502 604h426l-213 588zM33 0v166h123l374 1018h-149v164h676v-164h-152l375 -1018h125v-166h-479v164h155l-100 285h-532l-101 -285h164v-164h-479z" />
    <glyph glyph-name="Aacute" unicode="&#xc1;" horiz-adv-x="1437" 
d="M1047 1755q0 -49 -66 -92l-309 -195l-51 58l237 278q47 54 91 54t71 -27t27 -76zM502 604h426l-213 588zM33 0v166h123l374 1018h-149v164h676v-164h-152l375 -1018h125v-166h-479v164h155l-100 285h-532l-101 -285h164v-164h-479z" />
    <glyph glyph-name="Acircumflex" unicode="&#xc2;" horiz-adv-x="1437" 
d="M459 1468l-78 88l336 328l336 -328l-78 -88l-258 193zM502 604h426l-213 588zM33 0v166h123l374 1018h-149v164h676v-164h-152l375 -1018h125v-166h-479v164h155l-100 285h-532l-101 -285h164v-164h-479z" />
    <glyph glyph-name="Atilde" unicode="&#xc3;" horiz-adv-x="1437" 
d="M867 1489q-87 1 -166 69t-121 68q-72 0 -99 -125l-129 31q12 120 74 194t151 74q88 0 173 -76q74 -61 112 -61q74 0 101 125l127 -31q-10 -119 -73 -193t-150 -75zM502 604h426l-213 588zM33 0v166h123l374 1018h-149v164h676v-164h-152l375 -1018h125v-166h-479v164h155
l-100 285h-532l-101 -285h164v-164h-479z" />
    <glyph glyph-name="Adieresis" unicode="&#xc4;" horiz-adv-x="1437" 
d="M522 1499q-53 0 -91 38t-38 92t39 92t92 38t91 -38t38 -92t-39 -92t-92 -38zM907 1499q-53 0 -91 38t-38 92t39 92t92 38t91 -38t38 -92t-39 -92t-92 -38zM502 604h426l-213 588zM33 0v166h123l374 1018h-149v164h676v-164h-152l375 -1018h125v-166h-479v164h155
l-100 285h-532l-101 -285h164v-164h-479z" />
    <glyph glyph-name="Aring" unicode="&#xc5;" horiz-adv-x="1437" 
d="M717 1372q47 0 79 36t31 87q0 51 -31 87q-32 36 -79 36t-79 -37t-32 -86t32 -86t79 -37zM502 604h426l-213 588zM963 1508q0 -95 -70 -160h164v-164h-152l375 -1018h125v-166h-479v164h155l-100 285h-532l-101 -285h164v-164h-479v166h123l374 1018h-149v164h162
q-72 72 -72 164t72 159q72 68 174 68t174 -68t72 -163z" />
    <glyph glyph-name="AE" unicode="&#xc6;" horiz-adv-x="1839" 
d="M897 604v584h-59l-283 -584h342zM-2 0v166h164l500 1016h-158v166h1218v-353h-176v189h-463v-418h426v-160h-426v-442h463v188h178v-352h-983v166h156v283h-416l-137 -285h143v-164h-489z" />
    <glyph glyph-name="Ccedilla" unicode="&#xc7;" horiz-adv-x="1437" 
d="M106 686q0 286 203 486t492 200q213 0 363 -101t149 -229q0 -63 -38 -104t-94 -41t-94 34q-37 34 -37 87t35 80q-33 40 -109 72t-179 32q-215 0 -358 -154q-142 -155 -142 -374t143 -374q142 -155 366 -155t404 177l117 -129q-100 -105 -236 -161t-284 -57h-14l2 -69
q94 -8 148 -51t54 -107t-58 -112q-59 -46 -173 -46t-223 64l32 67q91 -41 177 -41t86 58q0 57 -113 57l-33 -2l-39 39l54 150q-268 33 -435 225q-166 193 -166 479z" />
    <glyph glyph-name="Egrave" unicode="&#xc8;" horiz-adv-x="1193" 
d="M262 1756q0 48 27 75t71 27t91 -54l237 -278l-51 -58l-307 195q-68 45 -68 93zM88 0v166h164v1016h-164v166h989v-353h-176v189h-463v-418h426v-160h-426v-442h463v188h178v-352h-991z" />
    <glyph glyph-name="Eacute" unicode="&#xc9;" horiz-adv-x="1193" 
d="M88 0v166h164v1016h-164v166h989v-353h-176v189h-463v-418h426v-160h-426v-442h463v188h178v-352h-991zM924 1755q0 -49 -66 -92l-309 -195l-51 58l237 278q47 54 91 54t72 -27q26 -27 26 -76z" />
    <glyph glyph-name="Ecircumflex" unicode="&#xca;" horiz-adv-x="1193" 
d="M88 0v166h164v1016h-164v166h989v-353h-176v189h-463v-418h426v-160h-426v-442h463v188h178v-352h-991zM336 1468l-78 88l336 328l336 -328l-78 -88l-258 193z" />
    <glyph glyph-name="Edieresis" unicode="&#xcb;" horiz-adv-x="1193" 
d="M88 0v166h164v1016h-164v166h989v-353h-176v189h-463v-418h426v-160h-426v-442h463v188h178v-352h-991zM399 1499q-53 0 -91 38t-38 92t39 92t92 38t91 -38t38 -92t-39 -92t-92 -38zM784 1499q-53 0 -91 38t-38 92t39 92t92 38q54 0 92 -38t38 -92t-40 -92
q-39 -38 -92 -38z" />
    <glyph glyph-name="Igrave" unicode="&#xcc;" horiz-adv-x="712" 
d="M122 1858q44 0 91 -54l238 -278l-52 -58l-307 195q-68 45 -68 93t27 75t71 27zM88 0v166h176v1016h-176v166h535v-166h-174v-1016h174v-166h-535z" />
    <glyph glyph-name="Iacute" unicode="&#xcd;" horiz-adv-x="712" 
d="M684 1755q0 -49 -66 -92l-309 -195l-51 58l238 278q47 54 91 54q45 0 71 -27t26 -76zM88 0v166h176v1016h-176v166h535v-166h-174v-1016h174v-166h-535z" />
    <glyph glyph-name="Icircumflex" unicode="&#xce;" horiz-adv-x="712" 
d="M98 1468l-78 88l336 328l336 -328l-78 -88l-258 193zM88 0v166h176v1016h-176v166h535v-166h-174v-1016h174v-166h-535z" />
    <glyph glyph-name="Idieresis" unicode="&#xcf;" horiz-adv-x="712" 
d="M162 1499q-53 0 -91 38t-38 92t39 92t92 38t91 -38t38 -92t-39 -92t-92 -38zM547 1499q-53 0 -91 38t-38 92t39 92t92 38t91 -38t38 -92t-39 -92t-92 -38zM88 0v166h176v1016h-176v166h535v-166h-174v-1016h174v-166h-535z" />
    <glyph glyph-name="Eth" unicode="&#xd0;" horiz-adv-x="1492" 
d="M455 166h168q279 0 426 140t147 376t-159 368t-431 132h-151v-416h295v-154h-295v-446zM268 612h-159v154h159v416h-164v166h506q354 0 566 -182t210 -486q0 -305 -204 -493q-205 -187 -572 -187h-506v166h164v446z" />
    <glyph glyph-name="Ntilde" unicode="&#xd1;" horiz-adv-x="1546" 
d="M921 1489q-87 1 -167 69t-121 68q-72 0 -98 -125l-129 31q12 120 74 194t150 74t173 -76q74 -61 112 -61q74 0 101 125l127 -31q-11 -119 -73 -193t-149 -75zM432 166h172v-166h-516v166h164v1016h-164v166h324l729 -951v785h-172v166h510v-166h-158v-1186l-102 -2
l-787 1024v-852z" />
    <glyph glyph-name="Ograve" unicode="&#xd2;" horiz-adv-x="1583" 
d="M556 1858q44 0 91 -54l238 -278l-51 -58l-308 195q-68 45 -68 93t27 75t71 27zM793 147q215 0 354 150t139 377t-139 377q-139 149 -354 149t-356 -149q-140 -150 -140 -377q1 -227 141 -377t355 -150zM789 -25q-299 0 -491 201t-192 499q0 297 195 497t493 200t490 -201
t193 -499q0 -298 -195 -497q-195 -200 -493 -200z" />
    <glyph glyph-name="Oacute" unicode="&#xd3;" horiz-adv-x="1583" 
d="M793 147q215 0 354 150t139 377t-139 377q-139 149 -354 149t-356 -149q-140 -150 -140 -377q1 -227 141 -377t355 -150zM789 -25q-299 0 -491 201t-192 499q0 297 195 497t493 200t490 -201t193 -499q0 -298 -195 -497q-195 -200 -493 -200zM745 1468l-51 58l238 278
q47 54 91 54t71 -27q26 -27 26 -76t-65 -92z" />
    <glyph glyph-name="Ocircumflex" unicode="&#xd4;" horiz-adv-x="1583" 
d="M793 147q215 0 354 150t139 377t-139 377q-139 149 -354 149t-356 -149q-140 -150 -140 -377q1 -227 141 -377t355 -150zM789 -25q-299 0 -491 201t-192 499q0 297 195 497t493 200t490 -201t193 -499q0 -298 -195 -497q-195 -200 -493 -200zM532 1468l-77 88l336 328
l335 -328l-77 -88l-258 193z" />
    <glyph glyph-name="Otilde" unicode="&#xd5;" horiz-adv-x="1583" 
d="M941 1489q-87 1 -166 69t-122 68q-72 0 -98 -125l-129 31q12 120 74 194t151 74q88 0 172 -76q74 -61 113 -61q74 0 100 125l127 -31q-11 -119 -73 -193t-149 -75zM793 147q215 0 354 150t139 377t-139 377q-139 149 -354 149t-356 -149q-140 -150 -140 -377
q1 -227 141 -377t355 -150zM789 -25q-299 0 -491 201t-192 499q0 297 195 497t493 200t490 -201t193 -499q0 -298 -195 -497q-195 -200 -493 -200z" />
    <glyph glyph-name="Odieresis" unicode="&#xd6;" horiz-adv-x="1583" 
d="M793 147q215 0 354 150t139 377t-139 377q-139 149 -354 149t-356 -149q-140 -150 -140 -377q1 -227 141 -377t355 -150zM789 -25q-299 0 -491 201t-192 499q0 297 195 497t493 200t490 -201t193 -499q0 -298 -195 -497q-195 -200 -493 -200zM596 1499q-53 0 -91 38
t-38 92t39 92t92 38t91 -38t38 -92t-39 -92t-92 -38zM981 1499q-53 0 -91 38t-38 92t39 92t92 38t91 -38t38 -92t-39 -92t-92 -38z" />
    <glyph glyph-name="multiply" unicode="&#xd7;" horiz-adv-x="892" 
d="M657 231l-211 224l-210 -224l-111 111l211 221l-211 223l111 113l210 -225l211 223l109 -111l-211 -221l213 -223z" />
    <glyph glyph-name="Oslash" unicode="&#xd8;" horiz-adv-x="1583" 
d="M793 147q215 0 354 150t139 365t-106 356l-676 -787q127 -84 289 -84zM297 682q0 -219 111 -358l675 788q-123 88 -290 88q-215 0 -356 -149q-140 -150 -140 -369zM786 -25q-221 0 -393 123l-162 -188l-118 104l163 189q-170 199 -170 485t195 484q195 200 496 200
q219 0 397 -125l162 189l117 -105l-166 -190q170 -197 170 -481t-195 -485q-195 -200 -496 -200z" />
    <glyph glyph-name="Ugrave" unicode="&#xd9;" horiz-adv-x="1437" 
d="M387 1756q0 48 27 75q26 27 70 27t91 -54l238 -278l-51 -58l-307 195q-68 45 -68 93zM718 -25q-232 0 -364 129q-131 129 -131 371v707h-160v166h515v-166h-170v-695q0 -168 80 -255t232 -87q150 0 232 84t82 252v701h-170v166h512v-166h-162v-701q0 -246 -132 -376
t-364 -130z" />
    <glyph glyph-name="Uacute" unicode="&#xda;" horiz-adv-x="1437" 
d="M718 -25q-232 0 -364 129q-131 129 -131 371v707h-160v166h515v-166h-170v-695q0 -168 80 -255t232 -87q150 0 232 84t82 252v701h-170v166h512v-166h-162v-701q0 -246 -132 -376t-364 -130zM1049 1755q0 -49 -66 -92l-309 -195l-51 58l237 278q47 54 91 54t71 -27
t27 -76z" />
    <glyph glyph-name="Ucircumflex" unicode="&#xdb;" horiz-adv-x="1437" 
d="M718 -25q-232 0 -364 129q-131 129 -131 371v707h-160v166h515v-166h-170v-695q0 -168 80 -255t232 -87q150 0 232 84t82 252v701h-170v166h512v-166h-162v-701q0 -246 -132 -376t-364 -130zM461 1468l-78 88l336 328l336 -328l-78 -88l-258 193z" />
    <glyph glyph-name="Udieresis" unicode="&#xdc;" horiz-adv-x="1437" 
d="M718 -25q-232 0 -364 129q-131 129 -131 371v707h-160v166h515v-166h-170v-695q0 -168 80 -255t232 -87q150 0 232 84t82 252v701h-170v166h512v-166h-162v-701q0 -246 -132 -376t-364 -130zM524 1499q-53 0 -91 38t-38 92t39 92t92 38t91 -38t38 -92t-39 -92t-92 -38z
M909 1499q-53 0 -91 38t-38 92t39 92t92 38t91 -38t38 -92t-39 -92t-92 -38z" />
    <glyph glyph-name="Yacute" unicode="&#xdd;" horiz-adv-x="1316" 
d="M612 1468l-51 58l238 278q47 54 91 54t71 -27t27 -76t-66 -92zM383 0v166h182v362l-391 654h-141v166h477v-166h-129l281 -496l282 496h-137v166h477v-166h-141l-391 -652v-364h182v-166h-551z" />
    <glyph glyph-name="Thorn" unicode="&#xde;" horiz-adv-x="1202" 
d="M642 465q136 0 212 56t76 163t-77 161t-217 54t-198 -4v-426q68 -4 204 -4zM88 0v166h164v1016h-164v166h520v-160h-170v-137q32 2 226 2q194 -1 325 -95t131 -274t-130 -277t-324 -97t-228 1v-151h174v-160h-524z" />
    <glyph glyph-name="germandbls" unicode="&#xdf;" horiz-adv-x="1191" 
d="M1133 272q-1 -130 -93 -209t-230 -79t-209 61t-71 133q0 45 30 76t71 31t73 -28t31 -63q0 -35 -14 -59q20 -14 85 -14q64 0 110 41q46 40 46 110t-39 114t-141 100t-158 116t-56 165q0 106 106 213q108 107 108 208q0 74 -54 126t-138 52q-109 0 -162 -102
q-31 -61 -31 -152v-1112h-313v147h137v584h-153v152h153v204q0 162 66 267q96 162 315 162q156 0 256 -92t100 -231q0 -140 -135 -271q-94 -92 -94 -156q0 -37 35 -70t135 -89t167 -131q67 -74 67 -204z" />
    <glyph glyph-name="agrave" unicode="&#xe0;" horiz-adv-x="1021" 
d="M170 1308q0 48 27 74t71 27q44 0 90 -53l238 -279l-51 -57l-307 194q-68 46 -68 94zM424 117q129 0 248 104v144q-111 31 -209 31q-97 0 -149 -41q-52 -40 -52 -103t43 -99t119 -36zM373 -16q-125 0 -207 68t-82 186q0 120 96 192t236 72t256 -35v100q0 74 -39 123
q-55 68 -184 68q-66 0 -115 -27q10 -25 10 -59t-29 -62t-73 -28t-75 28q-30 28 -30 76q0 86 90 150t250 63q203 0 297 -111q68 -80 68 -202v-439h137v-147h-303v106q-131 -122 -303 -122z" />
    <glyph glyph-name="aacute" unicode="&#xe1;" horiz-adv-x="1021" 
d="M734 1409q44 0 71 -27q27 -28 27 -76t-66 -92l-309 -194l-51 57l237 279q47 53 91 53zM424 117q129 0 248 104v144q-111 31 -209 31q-97 0 -149 -41q-52 -40 -52 -103t43 -99t119 -36zM373 -16q-125 0 -207 68t-82 186q0 120 96 192t236 72t256 -35v100q0 74 -39 123
q-55 68 -184 68q-66 0 -115 -27q10 -25 10 -59t-29 -62t-73 -28t-75 28q-30 28 -30 76q0 86 90 150t250 63q203 0 297 -111q68 -80 68 -202v-439h137v-147h-303v106q-131 -122 -303 -122z" />
    <glyph glyph-name="acircumflex" unicode="&#xe2;" horiz-adv-x="1021" 
d="M242 1020l-78 88l336 328l336 -328l-78 -88l-258 192zM424 117q129 0 248 104v144q-111 31 -209 31q-97 0 -149 -41q-52 -40 -52 -103t43 -99t119 -36zM373 -16q-125 0 -207 68t-82 186q0 120 96 192t236 72t256 -35v100q0 74 -39 123q-55 68 -184 68q-66 0 -115 -27
q10 -25 10 -59t-29 -62t-73 -28t-75 28q-30 28 -30 76q0 86 90 150t250 63q203 0 297 -111q68 -80 68 -202v-439h137v-147h-303v106q-131 -122 -303 -122z" />
    <glyph glyph-name="atilde" unicode="&#xe3;" horiz-adv-x="1021" 
d="M650 1040q-87 0 -166 68t-122 70q-72 0 -98 -125l-129 30q13 119 75 194t150 75t172 -76q74 -61 113 -62q74 0 100 125l127 -30q-10 -119 -72 -194t-150 -75zM424 117q129 0 248 104v144q-111 31 -209 31q-97 0 -149 -41q-52 -40 -52 -103t43 -99t119 -36zM373 -16
q-125 0 -207 68t-82 186q0 120 96 192t236 72t256 -35v100q0 74 -39 123q-55 68 -184 68q-66 0 -115 -27q10 -25 10 -59t-29 -62t-73 -28t-75 28q-30 28 -30 76q0 86 90 150t250 63q203 0 297 -111q68 -80 68 -202v-439h137v-147h-303v106q-131 -122 -303 -122z" />
    <glyph glyph-name="adieresis" unicode="&#xe4;" horiz-adv-x="1021" 
d="M307 1051q-53 0 -91 38t-38 92t39 92t92 38t91 -38t38 -92t-39 -92t-92 -38zM692 1051q-53 0 -91 38t-38 92t39 92t92 38t91 -38t38 -92t-39 -92t-92 -38zM424 117q129 0 248 104v144q-111 31 -209 31q-97 0 -149 -41q-52 -40 -52 -103t43 -99t119 -36zM373 -16
q-125 0 -207 68t-82 186q0 120 96 192t236 72t256 -35v100q0 74 -39 123q-55 68 -184 68q-66 0 -115 -27q10 -25 10 -59t-29 -62t-73 -28t-75 28q-30 28 -30 76q0 86 90 150t250 63q203 0 297 -111q68 -80 68 -202v-439h137v-147h-303v106q-131 -122 -303 -122z" />
    <glyph glyph-name="aring" unicode="&#xe5;" horiz-adv-x="1021" 
d="M501 1126q48 0 79 36t30 87q0 51 -30 86q-31 35 -79 35t-80 -36t-32 -86t32 -86t80 -36zM500 1006q-102 0 -174 70t-72 172q0 101 72 172t174 71t174 -71t72 -172t-72 -172q-72 -70 -174 -70zM424 117q129 0 248 104v144q-111 31 -209 31q-97 0 -149 -41
q-52 -40 -52 -103t43 -99t119 -36zM373 -16q-125 0 -207 68t-82 186q0 120 96 192t236 72t256 -35v100q0 74 -39 123q-55 68 -184 68q-66 0 -115 -27q10 -25 10 -59t-29 -62t-73 -28t-75 28q-30 28 -30 76q0 86 90 150t250 63q203 0 297 -111q68 -80 68 -202v-439h137v-147
h-303v106q-131 -122 -303 -122z" />
    <glyph glyph-name="ae" unicode="&#xe6;" horiz-adv-x="1570" 
d="M1088 754q-102 0 -173 -62q-70 -62 -86 -176h494q-5 110 -69 174t-166 64zM430 117q133 0 275 127q-23 55 -33 125q-137 27 -222 27q-84 0 -136 -41q-52 -40 -52 -103t44 -99t124 -36zM477 899q221 0 291 -166q116 166 316 166t308 -121t107 -299q0 -41 -8 -94h-662
q36 -247 326 -249q141 0 307 93l-14 -161q-135 -84 -313 -84q-256 0 -383 172q-80 -84 -180 -128t-187 -44q-133 0 -217 68t-84 186q0 120 96 192t236 72t256 -35v96q0 76 -39 125q-55 70 -184 70q-66 0 -115 -27q10 -25 10 -59t-29 -62t-73 -28t-75 28q-30 28 -30 76
q0 86 90 150t250 63z" />
    <glyph glyph-name="ccedilla" unicode="&#xe7;" horiz-adv-x="1021" 
d="M80 446q0 180 128 316t300 137q172 0 283 -86t110 -192q0 -57 -36 -95t-85 -37q-49 0 -82 32t-32 79q0 47 36 74q-16 32 -67 56t-113 24q-100 0 -182 -83t-82 -225t89 -226q89 -85 228 -85t302 94l-17 -161q-131 -84 -303 -84h-14l2 -78q94 -8 148 -51q55 -43 55 -107
t-59 -112q-59 -46 -173 -46t-223 64l33 67q92 -41 177 -41t85 58q0 57 -113 57l-33 -2l-39 39l56 160q-170 29 -275 151q-104 123 -104 303z" />
    <glyph glyph-name="egrave" unicode="&#xe8;" horiz-adv-x="1005" 
d="M182 1308q0 48 27 74t71 27q44 0 91 -53l237 -279l-51 -57l-307 194q-68 46 -68 94zM520 754q-102 0 -172 -62t-86 -176h494q-6 110 -70 174t-166 64zM544 -16q-202 0 -334 126t-132 324t121 331q121 134 317 134t306 -121t110 -299q0 -41 -8 -94h-662q18 -123 102 -186
t225 -63q140 0 306 93l-14 -161q-135 -84 -337 -84z" />
    <glyph glyph-name="eacute" unicode="&#xe9;" horiz-adv-x="1005" 
d="M746 1409q44 0 72 -27q26 -28 26 -76t-66 -92l-309 -194l-51 57l237 279q47 53 91 53zM520 754q-102 0 -172 -62t-86 -176h494q-6 110 -70 174t-166 64zM544 -16q-202 0 -334 126t-132 324t121 331q121 134 317 134t306 -121t110 -299q0 -41 -8 -94h-662
q18 -123 102 -186t225 -63q140 0 306 93l-14 -161q-135 -84 -337 -84z" />
    <glyph glyph-name="ecircumflex" unicode="&#xea;" horiz-adv-x="1005" 
d="M520 754q-102 0 -172 -62t-86 -176h494q-6 110 -70 174t-166 64zM254 1020l-78 88l336 328l336 -328l-78 -88l-258 192zM544 -16q-202 0 -334 126t-132 324t121 331q121 134 317 134t306 -121t110 -299q0 -41 -8 -94h-662q18 -123 102 -186t225 -63q140 0 306 93
l-14 -161q-135 -84 -337 -84z" />
    <glyph glyph-name="edieresis" unicode="&#xeb;" horiz-adv-x="1005" 
d="M319 1051q-53 0 -91 38t-38 92t39 92t93 38t91 -38q38 -38 38 -92q1 -54 -39 -92t-93 -38zM705 1051q-53 0 -92 38q-38 38 -38 92t39 92q38 38 92 38t92 -38t38 -92t-39 -92t-92 -38zM520 754q-102 0 -172 -62t-86 -176h494q-6 110 -70 174t-166 64zM544 -16
q-202 0 -334 126t-132 324t121 331q121 134 317 134t306 -121t110 -299q0 -41 -8 -94h-662q18 -123 102 -186t225 -63q140 0 306 93l-14 -161q-135 -84 -337 -84z" />
    <glyph glyph-name="igrave" unicode="&#xec;" horiz-adv-x="606" 
d="M-37 1308q0 48 27 74q26 26 70 27q44 0 92 -53l237 -279l-51 -57l-307 194q-68 46 -68 94zM78 0v147h143v584h-143v152h319v-736h142v-147h-461z" />
    <glyph glyph-name="iacute" unicode="&#xed;" horiz-adv-x="606" 
d="M78 0v147h143v584h-143v152h319v-736h142v-147h-461zM523 1409q44 0 71 -27q27 -28 27 -76t-66 -92l-309 -194l-51 57l237 279q47 53 91 53z" />
    <glyph glyph-name="icircumflex" unicode="&#xee;" horiz-adv-x="606" 
d="M78 0v147h143v584h-143v152h319v-736h142v-147h-461zM35 1020l-78 88l336 328l336 -328l-78 -88l-258 192z" />
    <glyph glyph-name="idieresis" unicode="&#xef;" horiz-adv-x="606" 
d="M78 0v147h143v584h-143v152h319v-736h142v-147h-461zM100 1051q-53 0 -91 38t-38 92t39 92t92 38q54 0 92 -38t38 -92t-40 -92q-39 -38 -92 -38zM485 1051q-53 0 -91 38t-38 92t39 92t92 38t91 -38t38 -92t-39 -92t-92 -38z" />
    <glyph glyph-name="eth" unicode="&#xf0;" horiz-adv-x="1093" 
d="M544 131q124 0 212 84t88 207t-84 204t-212 81t-211 -82t-83 -206t83 -206t207 -82zM219 1274q-43 0 -75 31t-32 83t46 90t118 38t174 -45t205 -138l201 174l92 -110l-192 -168q258 -307 258 -715q0 -274 -152 -416q-118 -114 -318 -114t-331 126t-131 310t130 310
t331 126q81 0 159 -36t132 -95q-33 225 -197 416l-217 -191l-94 111l209 182q-106 88 -205 113q-23 -82 -111 -82z" />
    <glyph glyph-name="ntilde" unicode="&#xf1;" horiz-adv-x="1159" 
d="M745 1040q-87 0 -167 68t-121 70q-72 0 -99 -125l-129 30q13 119 75 194t150 75t173 -76q74 -61 112 -62q74 0 101 125l127 -30q-11 -119 -73 -194t-149 -75zM803 563q0 176 -152 174q-131 0 -264 -133v-457h131v-147h-442v147h137v584h-137v152h305v-154
q159 170 319 170t234 -113q45 -78 45 -184v-455h137v-147h-444v147h131v416z" />
    <glyph glyph-name="ograve" unicode="&#xf2;" horiz-adv-x="1083" 
d="M306 1409q44 0 91 -53l238 -279l-51 -57l-308 194q-68 46 -68 94t28 74q26 26 70 27zM542 133q124 0 202 86t77 221q0 134 -78 222q-77 88 -201 88t-202 -87t-78 -223t78 -221q78 -86 202 -86zM1004 442q0 -192 -129 -325t-334 -133t-332 132t-127 324t128 326
q128 133 333 133t333 -133q128 -132 128 -324z" />
    <glyph glyph-name="oacute" unicode="&#xf3;" horiz-adv-x="1083" 
d="M542 133q124 0 202 86t77 221q0 134 -78 222q-77 88 -201 88t-202 -87t-78 -223t78 -221q78 -86 202 -86zM1004 442q0 -192 -129 -325t-334 -133t-332 132t-127 324t128 326q128 133 333 133t333 -133q128 -132 128 -324zM773 1409q44 0 71 -27q26 -28 26 -76t-65 -92
l-309 -194l-52 57l238 279q47 53 91 53z" />
    <glyph glyph-name="ocircumflex" unicode="&#xf4;" horiz-adv-x="1083" 
d="M542 133q124 0 202 86t77 221q0 134 -78 222q-77 88 -201 88t-202 -87t-78 -223t78 -221q78 -86 202 -86zM1004 442q0 -192 -129 -325t-334 -133t-332 132t-127 324t128 326q128 133 333 133t333 -133q128 -132 128 -324zM283 1020l-78 88l336 328l336 -328l-78 -88
l-258 192z" />
    <glyph glyph-name="otilde" unicode="&#xf5;" horiz-adv-x="1083" 
d="M691 1040q-87 0 -166 68t-122 70q-72 0 -98 -125l-129 30q12 119 74 194t151 75q88 0 172 -76q74 -61 113 -62q74 0 100 125l127 -30q-11 -119 -73 -194t-149 -75zM542 133q124 0 202 86t77 221q0 134 -78 222q-77 88 -201 88t-202 -87t-78 -223t78 -221q78 -86 202 -86z
M1004 442q0 -192 -129 -325t-334 -133t-332 132t-127 324t128 326q128 133 333 133t333 -133q128 -132 128 -324z" />
    <glyph glyph-name="odieresis" unicode="&#xf6;" horiz-adv-x="1083" 
d="M542 133q124 0 202 86t77 221q0 134 -78 222q-77 88 -201 88t-202 -87t-78 -223t78 -221q78 -86 202 -86zM1004 442q0 -192 -129 -325t-334 -133t-332 132t-127 324t128 326q128 133 333 133t333 -133q128 -132 128 -324zM346 1051q-53 0 -91 38t-38 92t39 92t92 38
t91 -38t38 -92t-39 -92t-92 -38zM731 1051q-53 0 -91 38t-38 92t39 92t92 38t91 -38t38 -92t-39 -92t-92 -38z" />
    <glyph glyph-name="divide" unicode="&#xf7;" horiz-adv-x="892" 
d="M446 158q-46 0 -80 34t-34 80q0 47 35 81t82 34t81 -34t33 -81q0 -46 -35 -80t-82 -34zM446 743q-46 0 -80 34t-34 81t35 81t82 34t81 -34t33 -81q0 -47 -35 -81t-82 -34zM799 489h-705v152h705v-152z" />
    <glyph glyph-name="oslash" unicode="&#xf8;" horiz-adv-x="1083" 
d="M543 133q123 0 201 86q78 85 77 205q0 120 -45 199l-377 -455q60 -35 144 -35zM543 750q-125 0 -203 -88t-78 -213q0 -126 49 -201l381 461q-63 41 -149 41zM543 -16q-131 0 -238 61l-100 -121l-113 92l101 121q-111 127 -111 311t128 318q128 133 333 133q137 0 243 -68
l103 123l112 -92l-104 -125q107 -129 107 -308t-129 -312t-332 -133z" />
    <glyph glyph-name="ugrave" unicode="&#xf9;" horiz-adv-x="1142" 
d="M217 1308q0 48 27 74q26 26 70 27q44 0 92 -53l237 -279l-51 -57l-307 194q-68 46 -68 94zM356 319q0 -174 152 -174q123 0 264 134v452h-141v152h317v-736h137v-147h-307v154q-157 -170 -319 -170t-236 116q-41 76 -41 181v450h-137v152h311v-564z" />
    <glyph glyph-name="uacute" unicode="&#xfa;" horiz-adv-x="1142" 
d="M356 319q0 -174 152 -174q123 0 264 134v452h-141v152h317v-736h137v-147h-307v154q-157 -170 -319 -170t-236 116q-41 76 -41 181v450h-137v152h311v-564zM781 1409q44 0 71 -27q27 -28 27 -76t-66 -92l-309 -194l-51 57l237 279q47 53 91 53z" />
    <glyph glyph-name="ucircumflex" unicode="&#xfb;" horiz-adv-x="1142" 
d="M356 319q0 -174 152 -174q123 0 264 134v452h-141v152h317v-736h137v-147h-307v154q-157 -170 -319 -170t-236 116q-41 76 -41 181v450h-137v152h311v-564zM291 1020l-78 88l336 328l336 -328l-78 -88l-258 192z" />
    <glyph glyph-name="udieresis" unicode="&#xfc;" horiz-adv-x="1142" 
d="M356 319q0 -174 152 -174q123 0 264 134v452h-141v152h317v-736h137v-147h-307v154q-157 -170 -319 -170t-236 116q-41 76 -41 181v450h-137v152h311v-564zM354 1051q-53 0 -91 38t-38 92t39 92t92 38t91 -38t38 -92t-39 -92t-92 -38zM739 1051q-53 0 -91 38t-38 92
t39 92t92 38t91 -38t38 -92t-39 -92t-92 -38z" />
    <glyph glyph-name="yacute" unicode="&#xfd;" horiz-adv-x="1067" 
d="M765 1409q44 0 71 -27q26 -28 26 -76t-65 -92l-310 -194l-51 57l238 279q47 53 91 53zM55 -286q0 50 28 77t69 27q72 0 96 -74q45 16 90 80q27 45 55 100l60 123l-326 684h-115v152h430v-146h-135q14 -33 39 -87t75 -169t83 -190l33 -78l233 524h-141v146h426v-152h-115
l-416 -887q-34 -69 -69 -118q-102 -133 -232 -134q-74 0 -121 36t-47 86z" />
    <glyph glyph-name="thorn" unicode="&#xfe;" horiz-adv-x="1083" 
d="M542 137q122 0 198 85t75 221q0 137 -74 219q-75 82 -197 82t-233 -111v-410q109 -86 231 -86zM-2 -401v147h137v1602h-141v151h317v-725q119 123 285 123t284 -126t118 -322q0 -195 -122 -329t-307 -134q-145 0 -258 90v-330h158v-147h-471z" />
    <glyph glyph-name="ydieresis" unicode="&#xff;" horiz-adv-x="1067" 
d="M338 1051q-53 0 -91 38t-38 92t39 92t92 38t91 -38t38 -92t-39 -92t-92 -38zM723 1051q-53 0 -91 38t-38 92t39 92t92 38t91 -38t38 -92t-39 -92t-92 -38zM55 -286q0 50 28 77t69 27q72 0 96 -74q45 16 90 80q27 45 55 100l60 123l-326 684h-115v152h430v-146h-135
q14 -33 39 -87t75 -169t83 -190l33 -78l233 524h-141v146h426v-152h-115l-416 -887q-34 -69 -69 -118q-102 -133 -232 -134q-74 0 -121 36t-47 86z" />
    <glyph glyph-name="Amacron" unicode="&#x100;" horiz-adv-x="1437" 
d="M393 1534v154h647v-154h-647zM502 604h426l-213 588zM33 0v166h123l374 1018h-149v164h676v-164h-152l375 -1018h125v-166h-479v164h155l-100 285h-532l-101 -285h164v-164h-479z" />
    <glyph glyph-name="amacron" unicode="&#x101;" horiz-adv-x="1021" 
d="M176 1085v154h647v-154h-647zM424 117q129 0 248 104v144q-111 31 -209 31q-97 0 -149 -41q-52 -40 -52 -103t43 -99t119 -36zM373 -16q-125 0 -207 68t-82 186q0 120 96 192t236 72t256 -35v100q0 74 -39 123q-55 68 -184 68q-66 0 -115 -27q10 -25 10 -59t-29 -62
t-73 -28t-75 28q-30 28 -30 76q0 86 90 150t250 63q203 0 297 -111q68 -80 68 -202v-439h137v-147h-303v106q-131 -122 -303 -122z" />
    <glyph glyph-name="Abreve" unicode="&#x102;" horiz-adv-x="1437" 
d="M714 1487q-120 0 -213 80t-134 231l116 47q37 -94 99 -143t131 -49q152 0 231 192l117 -47q-41 -152 -134 -232t-213 -79zM502 604h426l-213 588zM33 0v166h123l374 1018h-149v164h676v-164h-152l375 -1018h125v-166h-479v164h155l-100 285h-532l-101 -285h164v-164h-479
z" />
    <glyph glyph-name="abreve" unicode="&#x103;" horiz-adv-x="1021" 
d="M499 1038q-120 0 -213 80t-134 232l116 47q36 -93 98 -143t132 -50q152 0 231 193l117 -47q-41 -152 -134 -232t-213 -80zM424 117q129 0 248 104v144q-111 31 -209 31q-97 0 -149 -41q-52 -40 -52 -103t43 -99t119 -36zM373 -16q-125 0 -207 68t-82 186q0 120 96 192
t236 72t256 -35v100q0 74 -39 123q-55 68 -184 68q-66 0 -115 -27q10 -25 10 -59t-29 -62t-73 -28t-75 28q-30 28 -30 76q0 86 90 150t250 63q203 0 297 -111q68 -80 68 -202v-439h137v-147h-303v106q-131 -122 -303 -122z" />
    <glyph glyph-name="Aogonek" unicode="&#x104;" horiz-adv-x="1437" 
d="M502 604h426l-213 588zM1178 -412q-109 0 -166 54t-58 145q0 123 119 213h-147v164h155l-100 285h-532l-101 -285h164v-164h-479v166h123l374 1018h-149v164h676v-164h-152l375 -1018h125v-166h-174q-125 -72 -125 -172t111 -100q76 0 153 39l-8 -134q-75 -45 -184 -45z
" />
    <glyph glyph-name="aogonek" unicode="&#x105;" horiz-adv-x="1021" 
d="M424 117q129 0 248 104v144q-111 31 -209 31q-97 0 -149 -41q-52 -40 -52 -103t43 -99t119 -36zM774 -412q-109 0 -166 54t-57 145q0 127 125 217v102q-131 -123 -303 -122q-125 0 -207 68t-82 186q0 120 96 192t236 72t256 -35v100q0 74 -39 123q-55 68 -184 68
q-66 0 -115 -27q10 -25 10 -59t-29 -62t-73 -28t-75 28q-30 28 -30 76q0 86 90 150t250 63q203 0 297 -111q68 -80 68 -202v-439h137v-147h-152q-125 -72 -125 -172t111 -100q76 0 154 39l-9 -134q-75 -45 -184 -45z" />
    <glyph glyph-name="Cacute" unicode="&#x106;" horiz-adv-x="1437" 
d="M807 -25q-307 0 -504 199t-197 499q0 299 203 499t492 200q213 0 363 -101t149 -229q0 -63 -38 -104t-94 -41t-94 34q-37 34 -37 87t35 80q-33 40 -109 72t-179 32q-215 0 -358 -154q-142 -155 -142 -374t143 -374q142 -155 366 -155t404 177l117 -129
q-101 -104 -237 -161t-283 -57zM748 1468l-52 58l238 278q47 54 91 54t71 -27q26 -27 26 -76t-65 -92z" />
    <glyph glyph-name="cacute" unicode="&#x107;" horiz-adv-x="991" 
d="M540 -16q-190 0 -325 129t-135 321t128 328t300 137q172 0 283 -86t110 -192q0 -57 -36 -95t-85 -37q-49 0 -82 32t-32 79q0 47 36 74q-16 32 -67 56t-113 24q-100 0 -182 -83t-82 -225t89 -226q89 -85 228 -85t302 94l-17 -161q-130 -84 -320 -84zM755 1409q45 0 71 -27
q26 -28 26 -76t-66 -92l-309 -194l-51 57l238 279q47 53 91 53z" />
    <glyph glyph-name="Cdotaccent" unicode="&#x10a;" horiz-adv-x="1437" 
d="M791 1485q-53 0 -92 39q-37 39 -37 93t38 93t92 39t93 -39t39 -93t-40 -93t-93 -39zM807 -25q-307 0 -504 199t-197 499q0 299 203 499t492 200q213 0 363 -101t149 -229q0 -63 -38 -104t-94 -41t-94 34q-37 34 -37 87t35 80q-33 40 -109 72t-179 32q-215 0 -358 -154
q-142 -155 -142 -374t143 -374q142 -155 366 -155t404 177l117 -129q-101 -104 -237 -161t-283 -57z" />
    <glyph glyph-name="cdotaccent" unicode="&#x10b;" horiz-adv-x="991" 
d="M520 1036q-53 0 -91 39t-38 93t39 94t92 38q53 0 92 -38t39 -94q0 -54 -40 -93t-93 -39zM540 -16q-190 0 -325 129t-135 321t128 328t300 137q172 0 283 -86t110 -192q0 -57 -36 -95t-85 -37q-49 0 -82 32t-32 79q0 47 36 74q-16 32 -67 56t-113 24q-100 0 -182 -83
t-82 -225t89 -226q89 -85 228 -85t302 94l-17 -161q-130 -84 -320 -84z" />
    <glyph glyph-name="Ccaron" unicode="&#x10c;" horiz-adv-x="1437" 
d="M807 -25q-307 0 -504 199t-197 499q0 299 203 499t492 200q213 0 363 -101t149 -229q0 -63 -38 -104t-94 -41t-94 34q-37 34 -37 87t35 80q-33 40 -109 72t-179 32q-215 0 -358 -154q-142 -155 -142 -374t143 -374q142 -155 366 -155t404 177l117 -129
q-101 -104 -237 -161t-283 -57zM1049 1878l77 -90l-335 -326l-336 326l77 90l259 -192z" />
    <glyph glyph-name="ccaron" unicode="&#x10d;" horiz-adv-x="991" 
d="M540 -16q-190 0 -325 129t-135 321t128 328t300 137q172 0 283 -86t110 -192q0 -57 -36 -95t-85 -37q-49 0 -82 32t-32 79q0 47 36 74q-16 32 -67 56t-113 24q-100 0 -182 -83t-82 -225t89 -226q89 -85 228 -85t302 94l-17 -161q-130 -84 -320 -84zM778 1430l78 -91
l-336 -325l-336 325l78 91l258 -193z" />
    <glyph glyph-name="Dcaron" unicode="&#x10e;" horiz-adv-x="1476" 
d="M438 166h168q279 0 426 140q148 140 148 376t-159 368t-431 132h-152v-1016zM88 0v166h164v1016h-164v166h506q358 0 567 -180t209 -486t-207 -494t-581 -188h-494zM944 1878l78 -90l-336 -326l-336 326l78 90l258 -192z" />
    <glyph glyph-name="dcaron" unicode="&#x10f;" horiz-adv-x="1136" 
d="M540 745q-124 0 -200 -85t-77 -221t75 -219t199 -83q124 0 237 113v409q-111 86 -234 86zM487 -16q-169 0 -287 127t-118 323t122 330q122 135 295 135t275 -96v545h-151v151h327v-1352h137v-147h-311v113q-120 -129 -289 -129zM1090 1266q0 33 -14 80q-13 48 -13 86
t29 71q30 33 78 33t76 -33t28 -88q0 -196 -207 -411l-57 43q80 117 80 219z" />
    <glyph glyph-name="Dcroat" unicode="&#x110;" horiz-adv-x="1492" 
d="M455 166h168q279 0 426 140t147 376t-159 368t-431 132h-151v-416h295v-154h-295v-446zM268 612h-159v154h159v416h-164v166h506q354 0 566 -182t210 -486q0 -305 -204 -493q-205 -187 -572 -187h-506v166h164v446z" />
    <glyph glyph-name="dcroat" unicode="&#x111;" horiz-adv-x="1136" 
d="M540 745q-124 0 -200 -85t-77 -221t75 -219t199 -83q124 0 237 113v409q-111 86 -234 86zM467 1049v137h307v162h-151v151h327v-313h137v-137h-137v-902h137v-147h-311v113q-122 -129 -290 -129t-286 127t-118 323t122 330q122 135 295 135t275 -96v246h-307z" />
    <glyph glyph-name="Emacron" unicode="&#x112;" horiz-adv-x="1193" 
d="M270 1534v154h648v-154h-648zM88 0v166h164v1016h-164v166h989v-353h-176v189h-463v-418h426v-160h-426v-442h463v188h178v-352h-991z" />
    <glyph glyph-name="emacron" unicode="&#x113;" horiz-adv-x="1005" 
d="M520 754q-102 0 -172 -62t-86 -176h494q-6 110 -70 174t-166 64zM188 1085v154h648v-154h-648zM544 -16q-202 0 -334 126t-132 324t121 331q121 134 317 134t306 -121t110 -299q0 -41 -8 -94h-662q18 -123 102 -186t225 -63q140 0 306 93l-14 -161q-135 -84 -337 -84z
" />
    <glyph glyph-name="Ebreve" unicode="&#x114;" horiz-adv-x="1193" 
d="M591 1487q-120 0 -213 80t-134 231l116 47q36 -94 98 -143t132 -49q152 0 231 192l117 -47q-41 -152 -134 -232t-213 -79zM88 0v166h164v1016h-164v166h989v-353h-176v189h-463v-418h426v-160h-426v-442h463v188h178v-352h-991z" />
    <glyph glyph-name="ebreve" unicode="&#x115;" horiz-adv-x="1005" 
d="M520 754q-102 0 -172 -62t-86 -176h494q-6 110 -70 174t-166 64zM511 1038q-120 0 -213 80t-134 232l117 47q37 -93 98 -143t131 -50q152 0 231 193l117 -47q-41 -152 -134 -232t-213 -80zM544 -16q-202 0 -334 126t-132 324t121 331q121 134 317 134t306 -121t110 -299
q0 -41 -8 -94h-662q18 -123 102 -186t225 -63q140 0 306 93l-14 -161q-135 -84 -337 -84z" />
    <glyph glyph-name="Edotaccent" unicode="&#x116;" horiz-adv-x="1193" 
d="M592 1485q-53 0 -91 39t-38 93t39 93t92 39t92 -39t39 -93t-40 -93t-93 -39zM88 0v166h164v1016h-164v166h989v-353h-176v189h-463v-418h426v-160h-426v-442h463v188h178v-352h-991z" />
    <glyph glyph-name="edotaccent" unicode="&#x117;" horiz-adv-x="1005" 
d="M512 1036q-53 0 -91 39t-38 93t39 94t92 38q53 0 92 -38t39 -94q0 -54 -40 -93t-93 -39zM520 754q-102 0 -172 -62t-86 -176h494q-6 110 -70 174t-166 64zM544 -16q-202 0 -334 126t-132 324t121 331q121 134 317 134t306 -121t110 -299q0 -41 -8 -94h-662
q18 -123 102 -186t225 -63q140 0 306 93l-14 -161q-135 -84 -337 -84z" />
    <glyph glyph-name="Eogonek" unicode="&#x118;" horiz-adv-x="1193" 
d="M88 0v166h164v1016h-164v166h989v-353h-176v189h-463v-418h426v-160h-426v-442h463v188h178v-352h-141q-125 -72 -125 -172t111 -100q76 0 153 39l-8 -134q-77 -45 -185 -45t-165 54t-57 145q0 123 118 213h-692z" />
    <glyph glyph-name="eogonek" unicode="&#x119;" horiz-adv-x="1005" 
d="M520 754q-102 0 -172 -62t-86 -176h494q-6 110 -70 174t-166 64zM606 -174q0 -98 111 -98q76 0 153 39l-10 -134q-72 -45 -182 -45t-166 54q-57 54 -57 158t96 184q-213 2 -343 127t-130 323t121 331q121 134 317 134t306 -121t110 -299q0 -41 -8 -94h-662
q18 -123 102 -186t225 -63q140 0 306 93l-14 -163q-131 -60 -203 -114t-72 -126z" />
    <glyph glyph-name="Ecaron" unicode="&#x11a;" horiz-adv-x="1193" 
d="M88 0v166h164v1016h-164v166h989v-353h-176v189h-463v-418h426v-160h-426v-442h463v188h178v-352h-991zM850 1878l78 -90l-336 -326l-336 326l78 90l258 -192z" />
    <glyph glyph-name="ecaron" unicode="&#x11b;" horiz-adv-x="1005" 
d="M520 754q-102 0 -172 -62t-86 -176h494q-6 110 -70 174t-166 64zM770 1430l78 -91l-336 -325l-336 325l78 91l258 -193zM544 -16q-202 0 -334 126t-132 324t121 331q121 134 317 134t306 -121t110 -299q0 -41 -8 -94h-662q18 -123 102 -186t225 -63q140 0 306 93
l-14 -161q-135 -84 -337 -84z" />
    <glyph glyph-name="Gbreve" unicode="&#x11e;" horiz-adv-x="1499" 
d="M779 1487q-120 0 -213 80t-134 231l117 47q37 -94 98 -143t131 -49q152 0 232 192l116 -47q-41 -152 -134 -232t-213 -79zM758 -25q-264 1 -458 191t-194 500t205 508q205 199 498 198q219 0 365 -98t147 -219q0 -63 -36 -103t-92 -41q-56 0 -93 35t-37 86t27 78
q-96 92 -302 92t-349 -151q-142 -152 -142 -383q0 -230 142 -378t344 -148t368 110v264h-358v158h540v-674h-178v109q-178 -134 -397 -134z" />
    <glyph glyph-name="gbreve" unicode="&#x11f;" horiz-adv-x="1138" 
d="M579 1038q-120 0 -213 80t-135 232l117 47q37 -93 98 -143t132 -50q152 0 231 193l117 -47q-41 -152 -134 -232t-213 -80zM540 745q-126 1 -202 -81t-76 -213t75 -210t201 -79t232 110v387q-104 86 -230 86zM946 731v-749q0 -162 -82 -261q-106 -131 -328 -131t-325 103
q-47 47 -47 100t32 87t78 34t74 -29q29 -29 29 -63t-12 -58q72 -29 155 -28q137 0 205 84q45 57 45 162v153q-122 -125 -286 -125t-283 123t-119 313t122 321q122 132 291 132t283 -104v88h305v-152h-137z" />
    <glyph glyph-name="Gdotaccent" unicode="&#x120;" horiz-adv-x="1499" 
d="M780 1485q-53 0 -91 39t-38 93t39 93t92 39t92 -39t39 -93t-40 -93t-93 -39zM758 -25q-264 1 -458 191t-194 500t205 508q205 199 498 198q219 0 365 -98t147 -219q0 -63 -36 -103t-92 -41q-56 0 -93 35t-37 86t27 78q-96 92 -302 92t-349 -151q-142 -152 -142 -383
q0 -230 142 -378t344 -148t368 110v264h-358v158h540v-674h-178v109q-178 -134 -397 -134z" />
    <glyph glyph-name="gdotaccent" unicode="&#x121;" horiz-adv-x="1138" 
d="M567 1036q-53 0 -91 39t-38 93t39 94t92 38q53 0 93 -38q38 -40 38 -94t-40 -93t-93 -39zM540 745q-126 1 -202 -81t-76 -213t75 -210t201 -79t232 110v387q-104 86 -230 86zM946 731v-749q0 -162 -82 -261q-106 -131 -328 -131t-325 103q-47 47 -47 100t32 87t78 34
t74 -29q29 -29 29 -63t-12 -58q72 -29 155 -28q137 0 205 84q45 57 45 162v153q-122 -125 -286 -125t-283 123t-119 313t122 321q122 132 291 132t283 -104v88h305v-152h-137z" />
    <glyph glyph-name="Gcommaaccent" unicode="&#x122;" horiz-adv-x="1499" 
d="M758 -25q-264 1 -458 191t-194 500t205 508q205 199 498 198q219 0 365 -98t147 -219q0 -63 -36 -103t-92 -41q-56 0 -93 35t-37 86t27 78q-96 92 -302 92t-349 -151q-142 -152 -142 -383q0 -230 142 -378t344 -148t368 110v264h-358v158h540v-674h-178v109
q-178 -134 -397 -134zM782 -100q51 0 87 -39t36 -116q-1 -77 -65 -173t-203 -172l-41 55q154 121 162 217q-41 10 -68 41q-26 31 -26 76t33 78q34 33 85 33z" />
    <glyph glyph-name="gcommaaccent" unicode="&#x123;" horiz-adv-x="1138" 
d="M540 745q-126 1 -202 -81t-76 -213t75 -210t201 -79t232 110v387q-104 86 -230 86zM946 731v-749q0 -162 -82 -261q-106 -131 -328 -131t-325 103q-47 47 -47 100t32 87t78 34t74 -29q29 -29 29 -63t-12 -58q72 -29 155 -28q137 0 205 84q45 57 45 162v153
q-122 -125 -286 -125t-283 123t-119 313t122 321q122 132 291 132t283 -104v88h305v-152h-137zM752 1143q0 -45 -34 -78t-85 -33t-87 39t-36 116t64 173q65 96 204 172l41 -55q-154 -121 -162 -217q41 -10 68 -41t27 -76z" />
    <glyph glyph-name="Hbar" unicode="&#x126;" horiz-adv-x="1570" 
d="M438 743h695v156h-695v-156zM127 899v141h125v152h-164v156h522v-156h-172v-152h695v152h-172v156h522v-156h-164v-152h123v-141h-123v-733h164v-166h-522v166h172v414h-695v-414h172v-166h-522v166h164v733h-125z" />
    <glyph glyph-name="hbar" unicode="&#x127;" horiz-adv-x="1146" 
d="M791 563q0 174 -156 174q-133 0 -262 -133v-457h131v-147h-445v147h138v902h-138v137h138v162h-138v151h314v-313h307v-137h-307v-314q155 164 309 164t219 -86t66 -211v-455h137v-147h-445v147h132v416z" />
    <glyph glyph-name="Imacron" unicode="&#x12a;" horiz-adv-x="712" 
d="M33 1534v154h647v-154h-647zM88 0v166h176v1016h-176v166h535v-166h-174v-1016h174v-166h-535z" />
    <glyph glyph-name="imacron" unicode="&#x12b;" horiz-adv-x="606" 
d="M-31 1085v154h647v-154h-647zM78 0v147h143v584h-143v152h319v-736h142v-147h-461z" />
    <glyph glyph-name="Ibreve" unicode="&#x12c;" horiz-adv-x="712" 
d="M353 1487q-120 0 -213 80t-134 231l117 47q37 -94 98 -143t131 -49q152 0 232 192l116 -47q-41 -152 -134 -232t-213 -79zM88 0v166h176v1016h-176v166h535v-166h-174v-1016h174v-166h-535z" />
    <glyph glyph-name="ibreve" unicode="&#x12d;" horiz-adv-x="606" 
d="M292 1038q-120 0 -213 80t-134 232l116 47q37 -93 99 -143t131 -50q152 0 231 193l117 -47q-41 -152 -134 -232t-213 -80zM78 0v147h143v584h-143v152h319v-736h142v-147h-461z" />
    <glyph glyph-name="Iogonek" unicode="&#x12e;" horiz-adv-x="712" 
d="M88 0v166h176v1016h-176v166h535v-166h-174v-1016h174v-166h-183q-125 -72 -125 -172t111 -100q76 0 154 39l-9 -134q-77 -45 -185 -45t-165 54t-57 145q0 123 119 213h-195z" />
    <glyph glyph-name="iogonek" unicode="&#x12f;" horiz-adv-x="606" 
d="M288 1069q-52 0 -89 38t-37 90t38 90t90 38t90 -38t38 -90t-39 -90t-91 -38zM78 0v147h143v584h-143v152h319v-736h142v-147h-174q-125 -72 -125 -172t110 -100q76 0 154 39l-8 -134q-76 -45 -185 -45t-166 54t-57 145q0 123 119 213h-129z" />
    <glyph glyph-name="Idotaccent" unicode="&#x130;" horiz-adv-x="712" 
d="M352 1485q-53 0 -91 39t-38 93t39 93t92 39t92 -39t39 -93t-40 -93t-93 -39zM88 0v166h176v1016h-176v166h535v-166h-174v-1016h174v-166h-535z" />
    <glyph glyph-name="dotlessi" unicode="&#x131;" horiz-adv-x="606" 
d="M78 0v147h143v584h-143v152h319v-736h142v-147h-461z" />
    <glyph glyph-name="Kcommaaccent" unicode="&#x136;" horiz-adv-x="1386" 
d="M88 0v166h164v1016h-164v166h522v-162h-172v-533l529 533h-170v162h553v-166h-150l-412 -408l394 -608h172v-166h-291l-414 649l-211 -209v-274h172v-166h-522zM602 -211q0 45 34 78t85 33t87 -39t36 -116t-65 -173t-204 -172l-40 55q154 121 161 217q-42 10 -68 41
t-26 76z" />
    <glyph glyph-name="kcommaaccent" unicode="&#x137;" horiz-adv-x="1097" 
d="M59 0v147h138v1201h-138v151h314v-1038l319 278h-149v144h508v-152h-160l-246 -211l252 -368h154v-152h-258l-277 422l-143 -123v-154h129v-145h-443zM436 -211q0 45 34 78t85 33t87 -39t36 -116t-64 -173t-204 -172l-41 55q154 121 161 217q-42 10 -68 41t-26 76z" />
    <glyph glyph-name="Lacute" unicode="&#x139;" horiz-adv-x="1130" 
d="M88 0v166h164v1016h-164v166h533v-166h-183v-1018h426v198h178v-362h-954zM646 1870q44 0 71 -27t27 -75t-66 -93l-309 -194l-52 57l238 279q47 53 91 53z" />
    <glyph glyph-name="lacute" unicode="&#x13a;" horiz-adv-x="583" 
d="M61 0v147h144v1201h-144v151h320v-1352h141v-147h-461zM272 1597l-51 58l238 278q47 53 91 53t71 -26q27 -27 27 -76t-66 -92z" />
    <glyph glyph-name="Lcommaaccent" unicode="&#x13b;" horiz-adv-x="1130" 
d="M88 0v166h164v1016h-164v166h533v-166h-183v-1018h426v198h178v-362h-954zM446 -211q0 45 34 78t85 33t87 -39t36 -116t-64 -173t-204 -172l-41 55q154 121 162 217q-41 10 -68 41t-27 76z" />
    <glyph glyph-name="lcommaaccent" unicode="&#x13c;" horiz-adv-x="583" 
d="M61 0v147h144v1201h-144v151h320v-1352h141v-147h-461zM174 -211q0 45 34 78t85 33t87 -39t36 -116t-65 -173t-204 -172l-41 55q154 121 162 217q-42 10 -68 41t-26 76z" />
    <glyph glyph-name="Lcaron" unicode="&#x13d;" horiz-adv-x="1130" 
d="M88 0v166h164v1016h-164v166h533v-166h-183v-1018h426v198h178v-362h-954zM776 1083q0 33 -13 80t-13 86t28 72q29 33 78 33t77 -33t28 -88q0 -197 -207 -412l-58 43q80 117 80 219z" />
    <glyph glyph-name="lcaron" unicode="&#x13e;" horiz-adv-x="583" 
d="M61 0v147h144v1201h-144v151h320v-1352h141v-147h-461zM520 1266q0 33 -13 80q-13 48 -13 86t28 71q29 33 78 33t77 -33t28 -88q0 -196 -207 -411l-58 43q80 117 80 219z" />
    <glyph glyph-name="Ldot" unicode="&#x13f;" horiz-adv-x="1130" 
d="M907 614q-53 0 -91 39t-38 93t39 94q39 39 92 39t92 -39t39 -93q0 -53 -40 -93t-93 -40zM88 0v166h164v1016h-164v166h533v-166h-183v-1018h426v198h178v-362h-954z" />
    <glyph glyph-name="ldot" unicode="&#x140;" horiz-adv-x="696" 
d="M639 569q-53 0 -91 39t-38 93q0 53 39 93t92 40t92 -39t39 -93t-40 -94q-40 -39 -93 -39zM61 0v147h144v1201h-144v151h320v-1352h141v-147h-461z" />
    <glyph glyph-name="Lslash" unicode="&#x141;" horiz-adv-x="1136" 
d="M94 0v166h164v360l-164 -92l-76 129l240 135v484h-164v166h533v-166h-183v-377l265 151l73 -129l-338 -194v-469h426v198h179v-362h-955z" />
    <glyph glyph-name="lslash" unicode="&#x142;" horiz-adv-x="600" 
d="M70 0v147h143v566l-160 -95l-71 127l231 136v467h-143v151h319v-526l154 88l71 -125l-225 -131v-658h141v-147h-460z" />
    <glyph glyph-name="Nacute" unicode="&#x143;" horiz-adv-x="1546" 
d="M432 166h172v-166h-516v166h164v1016h-164v166h324l729 -951v785h-172v166h510v-166h-158v-1186l-102 -2l-787 1024v-852zM1100 1755q0 -49 -66 -92l-309 -195l-51 58l237 278q47 54 91 54t72 -27q26 -27 26 -76z" />
    <glyph glyph-name="nacute" unicode="&#x144;" horiz-adv-x="1159" 
d="M803 563q0 176 -152 174q-131 0 -264 -133v-457h131v-147h-442v147h137v584h-137v152h305v-154q159 170 319 170t234 -113q45 -78 45 -184v-455h137v-147h-444v147h131v416zM826 1409q44 0 72 -27q26 -28 26 -76t-66 -92l-309 -194l-51 57l237 279q47 53 91 53z" />
    <glyph glyph-name="Ncommaaccent" unicode="&#x145;" horiz-adv-x="1546" 
d="M432 166h172v-166h-516v166h164v1016h-164v166h324l729 -951v785h-172v166h510v-166h-158v-1186l-102 -2l-787 1024v-852zM784 -92q51 0 87 -39t36 -116q-1 -77 -65 -173t-203 -172l-41 55q154 121 162 218q-41 11 -68 41q-26 30 -26 75t33 78q34 33 85 33z" />
    <glyph glyph-name="ncommaaccent" unicode="&#x146;" horiz-adv-x="1159" 
d="M803 563q0 176 -152 174q-131 0 -264 -133v-457h131v-147h-442v147h137v584h-137v152h305v-154q159 170 319 170t234 -113q45 -78 45 -184v-455h137v-147h-444v147h131v416zM477 -211q0 45 34 78t85 33t87 -39t36 -116q-1 -77 -65 -173t-203 -172l-41 55q154 121 161 217
q-41 10 -67 41t-27 76z" />
    <glyph glyph-name="Ncaron" unicode="&#x147;" horiz-adv-x="1546" 
d="M432 166h172v-166h-516v166h164v1016h-164v166h324l729 -951v785h-172v166h510v-166h-158v-1186l-102 -2l-787 1024v-852zM1026 1878l78 -90l-336 -326l-336 326l78 90l258 -192z" />
    <glyph glyph-name="ncaron" unicode="&#x148;" horiz-adv-x="1159" 
d="M803 563q0 176 -152 174q-131 0 -264 -133v-457h131v-147h-442v147h137v584h-137v152h305v-154q159 170 319 170t234 -113q45 -78 45 -184v-455h137v-147h-444v147h131v416zM850 1430l78 -91l-336 -325l-336 325l78 91l258 -193z" />
    <glyph glyph-name="Omacron" unicode="&#x14c;" horiz-adv-x="1583" 
d="M793 147q215 0 354 150t139 377t-139 377q-139 149 -354 149t-356 -149q-140 -150 -140 -377q1 -227 141 -377t355 -150zM789 -25q-299 0 -491 201t-192 499q0 297 195 497t493 200t490 -201t193 -499q0 -298 -195 -497q-195 -200 -493 -200zM467 1534v154h647v-154h-647
z" />
    <glyph glyph-name="omacron" unicode="&#x14d;" horiz-adv-x="1083" 
d="M542 133q124 0 202 86t77 221q0 134 -78 222q-77 88 -201 88t-202 -87t-78 -223t78 -221q78 -86 202 -86zM1004 442q0 -192 -129 -325t-334 -133t-332 132t-127 324t128 326q128 133 333 133t333 -133q128 -132 128 -324zM217 1085v154h647v-154h-647z" />
    <glyph glyph-name="Obreve" unicode="&#x14e;" horiz-adv-x="1583" 
d="M787 1487q-120 0 -213 80t-134 231l117 47q37 -94 98 -143t131 -49q152 0 232 192l117 -47q-41 -152 -135 -232t-213 -79zM793 147q215 0 354 150t139 377t-139 377q-139 149 -354 149t-356 -149q-140 -150 -140 -377q1 -227 141 -377t355 -150zM789 -25q-299 0 -491 201
t-192 499q0 297 195 497t493 200t490 -201t193 -499q0 -298 -195 -497q-195 -200 -493 -200z" />
    <glyph glyph-name="obreve" unicode="&#x14f;" horiz-adv-x="1083" 
d="M538 1038q-120 0 -213 80t-135 232l117 47q37 -93 99 -143t131 -50q152 0 231 193l117 -47q-41 -152 -134 -232t-213 -80zM542 133q124 0 202 86t77 221q0 134 -78 222q-77 88 -201 88t-202 -87t-78 -223t78 -221q78 -86 202 -86zM1004 442q0 -192 -129 -325t-334 -133
t-332 132t-127 324t128 326q128 133 333 133t333 -133q128 -132 128 -324z" />
    <glyph glyph-name="Ohungarumlaut" unicode="&#x150;" horiz-adv-x="1583" 
d="M793 147q215 0 354 150t139 377t-139 377q-139 149 -354 149t-356 -149q-140 -150 -140 -377q1 -227 141 -377t355 -150zM789 -25q-299 0 -491 201t-192 499q0 297 195 497t493 200t490 -201t193 -499q0 -298 -195 -497q-195 -200 -493 -200zM1300 1845q42 -1 66 -27
t25 -65q0 -66 -86 -106l-373 -170l-35 61l311 264q50 43 92 43zM854 1851q43 -1 70 -27t26 -65q0 -63 -84 -106l-348 -180l-41 59l283 270q51 49 94 49z" />
    <glyph glyph-name="ohungarumlaut" unicode="&#x151;" horiz-adv-x="1083" 
d="M542 133q124 0 202 86t77 221q0 134 -78 222q-77 88 -201 88t-202 -87t-78 -223t78 -221q78 -86 202 -86zM1004 442q0 -192 -129 -325t-334 -133t-332 132t-127 324t128 326q128 133 333 133t333 -133q128 -132 128 -324zM1052 1397q42 0 66 -27t25 -65q0 -66 -86 -107
l-373 -170l-35 62l312 264q49 43 91 43zM607 1403q42 0 69 -27t26 -65q0 -66 -84 -107l-348 -180l-41 59l283 271q53 49 95 49z" />
    <glyph glyph-name="OE" unicode="&#x152;" horiz-adv-x="1906" 
d="M870 166h95v1016h-111q-268 0 -412 -142t-145 -376q-1 -236 155 -367t418 -131zM864 0q-342 0 -550 182t-208 486t202 492q202 187 558 188h924v-353h-178v189h-463v-418h428v-160h-428v-442h465v188h178v-352h-928z" />
    <glyph glyph-name="oe" unicode="&#x153;" horiz-adv-x="1726" 
d="M1256 754q-102 0 -172 -62q-71 -62 -87 -176h494q-5 110 -69 174t-166 64zM542 133q124 0 202 86t77 221q0 134 -78 222q-77 88 -201 88t-202 -87t-78 -223t78 -221q78 -86 202 -86zM1326 135q142 0 306 94l-16 -161q-135 -84 -292 -84t-262 58t-155 151
q-51 -93 -149 -151t-221 -58q-203 0 -329 133t-126 323t127 324t328 135q125 0 222 -57t148 -152q53 96 147 152t206 57q190 0 300 -121t109 -299q0 -49 -10 -94h-662q19 -123 103 -187t226 -63z" />
    <glyph glyph-name="Racute" unicode="&#x154;" horiz-adv-x="1267" 
d="M588 690q147 0 240 68q94 68 94 186t-88 177q-88 60 -240 61h-156v-488q70 -4 150 -4zM88 0v166h164v1016h-164v166h516q232 0 370 -104t138 -294q0 -131 -75 -227t-199 -141l249 -416h158v-166h-284l-306 535q-106 -8 -217 0v-369h172v-166h-522zM578 1468l-52 58
l238 278q47 54 91 54t71 -27q26 -27 26 -76t-65 -92z" />
    <glyph glyph-name="racute" unicode="&#x155;" horiz-adv-x="825" 
d="M669 1409q45 0 71 -27q26 -28 26 -76t-66 -92l-309 -194l-51 57l238 279q47 53 91 53zM653 899q72 0 110 -37t38 -88t-34 -87t-79 -36q-84 0 -117 76q-49 -14 -100 -64t-84 -114v-402h162v-147h-473v147h137v584h-137v152h305v-201q55 96 127 156t145 61z" />
    <glyph glyph-name="Rcommaaccent" unicode="&#x156;" horiz-adv-x="1267" 
d="M588 690q147 0 240 68q94 68 94 186t-88 177q-88 60 -240 61h-156v-488q70 -4 150 -4zM88 0v166h164v1016h-164v166h516q232 0 370 -104t138 -294q0 -131 -75 -227t-199 -141l249 -416h158v-166h-284l-306 535q-106 -8 -217 0v-369h172v-166h-522zM625 -100q51 0 87 -39
t36 -116t-65 -173t-204 -172l-41 55q154 121 162 217q-41 10 -68 41q-26 31 -26 76t34 78t85 33z" />
    <glyph glyph-name="rcommaaccent" unicode="&#x157;" horiz-adv-x="825" 
d="M184 -211q0 45 34 78t85 33t87 -39t36 -116t-64 -173t-204 -172l-41 55q154 121 162 217q-41 10 -68 41t-27 76zM653 899q72 0 110 -37t38 -88t-34 -87t-79 -36q-84 0 -117 76q-49 -14 -100 -64t-84 -114v-402h162v-147h-473v147h137v584h-137v152h305v-201
q55 96 127 156t145 61z" />
    <glyph glyph-name="Rcaron" unicode="&#x158;" horiz-adv-x="1267" 
d="M588 690q147 0 240 68q94 68 94 186t-88 177q-88 60 -240 61h-156v-488q70 -4 150 -4zM88 0v166h164v1016h-164v166h516q232 0 370 -104t138 -294q0 -131 -75 -227t-199 -141l249 -416h158v-166h-284l-306 535q-106 -8 -217 0v-369h172v-166h-522zM879 1878l77 -90
l-335 -326l-336 326l77 90l259 -192z" />
    <glyph glyph-name="rcaron" unicode="&#x159;" horiz-adv-x="825" 
d="M694 1430l78 -91l-336 -325l-336 325l78 91l258 -193zM653 899q72 0 110 -37t38 -88t-34 -87t-79 -36q-84 0 -117 76q-49 -14 -100 -64t-84 -114v-402h162v-147h-473v147h137v584h-137v152h305v-201q55 96 127 156t145 61z" />
    <glyph glyph-name="Sacute" unicode="&#x15a;" horiz-adv-x="1130" 
d="M566 -25q-198 -1 -332 91t-134 204q0 62 34 102t88 40t89 -34t35 -81t-27 -86q81 -72 225 -72q144 -1 217 57t73 150t-69 144t-198 102q-215 80 -315 164t-100 246t117 266q119 104 303 104t306 -82t121 -194q0 -61 -33 -98q-34 -36 -87 -36t-88 36q-35 34 -35 77t22 78
q-63 57 -187 57t-189 -53q-64 -53 -64 -140t68 -138t188 -97t182 -76t122 -77q120 -91 120 -267q0 -175 -127 -281t-325 -106zM530 1468l-51 58l238 278q47 54 91 54t71 -27t27 -76t-66 -92z" />
    <glyph glyph-name="sacute" unicode="&#x15b;" horiz-adv-x="913" 
d="M689 1409q44 0 71 -27q26 -28 26 -76t-65 -92l-309 -194l-52 57l238 279q47 53 91 53zM795 705q0 -55 -27 -83t-71 -28q-43 0 -73 27t-30 63t8 53q-57 27 -139 27t-129 -34t-47 -80t47 -72q46 -26 188 -62q142 -37 222 -92t81 -175q0 -120 -104 -194t-256 -73
q-99 0 -191 30q-186 59 -186 189q0 43 29 75t73 31q44 1 73 -27q30 -28 30 -65t-8 -55q66 -41 165 -41t153 32t54 82q0 49 -45 77t-189 65t-225 93t-81 166t92 188t254 77q86 0 165 -26t123 -70t44 -98z" />
    <glyph glyph-name="Scedilla" unicode="&#x15e;" horiz-adv-x="1130" 
d="M100 270q0 62 34 102t88 40t89 -34t35 -81t-27 -86q81 -72 225 -72q144 -1 217 57t73 150t-69 144t-198 102q-215 80 -315 164t-100 246t117 266q119 104 303 104t306 -82t121 -194q0 -61 -33 -98q-34 -36 -87 -36t-88 36q-35 34 -35 77t22 78q-63 57 -187 57t-189 -53
q-64 -53 -64 -140t68 -138t188 -97t182 -76t122 -77q120 -91 120 -264q0 -171 -118 -275t-308 -113l2 -71q94 -8 148 -51t54 -107t-58 -112q-58 -46 -172 -46t-224 64l33 67q92 -41 177 -41t85 58q0 57 -113 57l-32 -2l-39 39l51 145q-172 13 -288 101t-116 192z" />
    <glyph glyph-name="scedilla" unicode="&#x15f;" horiz-adv-x="913" 
d="M88 190q0 54 29 86t73 31q44 1 73 -27q30 -28 30 -65t-8 -55q66 -41 165 -41t153 32t54 82q0 49 -45 77t-189 65t-225 93t-81 166t92 188t254 77q86 0 165 -26q167 -55 167 -175q0 -48 -27 -76t-71 -28q-43 0 -73 27t-30 63t8 53q-57 27 -139 27t-129 -34t-47 -80t47 -72
q46 -26 188 -62q142 -37 222 -92t81 -174q0 -119 -100 -192t-248 -76l2 -76q95 -8 149 -51t54 -107t-58 -112q-58 -46 -172 -46t-225 64l33 67q92 -41 177 -41t85 58q0 57 -112 57l-33 -2l-39 39l53 154q-178 20 -254 100q-49 50 -49 104z" />
    <glyph glyph-name="Scaron" unicode="&#x160;" horiz-adv-x="1130" 
d="M566 -25q-198 -1 -332 91t-134 204q0 62 34 102t88 40t89 -34t35 -81t-27 -86q81 -72 225 -72q144 -1 217 57t73 150t-69 144t-198 102q-215 80 -315 164t-100 246t117 266q119 104 303 104t306 -82t121 -194q0 -61 -33 -98q-34 -36 -87 -36t-88 36q-35 34 -35 77t22 78
q-63 57 -187 57t-189 -53q-64 -53 -64 -140t68 -138t188 -97t182 -76t122 -77q120 -91 120 -267q0 -175 -127 -281t-325 -106zM831 1878l78 -90l-336 -326l-335 326l77 90l258 -192z" />
    <glyph glyph-name="scaron" unicode="&#x161;" horiz-adv-x="913" 
d="M713 1430l78 -91l-336 -325l-336 325l78 91l258 -193zM795 705q0 -55 -27 -83t-71 -28q-43 0 -73 27t-30 63t8 53q-57 27 -139 27t-129 -34t-47 -80t47 -72q46 -26 188 -62q142 -37 222 -92t81 -175q0 -120 -104 -194t-256 -73q-99 0 -191 30q-186 59 -186 189
q0 43 29 75t73 31q44 1 73 -27q30 -28 30 -65t-8 -55q66 -41 165 -41t153 32t54 82q0 49 -45 77t-189 65t-225 93t-81 166t92 188t254 77q86 0 165 -26t123 -70t44 -98z" />
    <glyph glyph-name="Tcommaaccent" unicode="&#x162;" horiz-adv-x="1280" 
d="M371 0v166h176v1022h-301v-215h-176v375h1140v-375h-176v215h-301v-1022h176v-166h-538zM520 -211q0 45 34 78t85 33t87 -39t36 -116t-64 -173t-204 -172l-41 55q154 121 161 217q-42 10 -68 41t-26 76z" />
    <glyph glyph-name="tcommaaccent" unicode="&#x163;" horiz-adv-x="712" 
d="M432 -16q-156 0 -213 110q-27 57 -26 129v508h-166v152h166v202l176 72v-274h268v-152h-268v-477q0 -41 12 -68q25 -43 95 -43t173 50l-18 -158q-99 -51 -199 -51zM268 -211q0 45 34 78t85 33t87 -39t36 -116t-64 -173t-204 -172l-41 55q154 121 161 217q-42 10 -68 41
t-26 76z" />
    <glyph glyph-name="Tcaron" unicode="&#x164;" horiz-adv-x="1280" 
d="M371 0v166h176v1022h-301v-215h-176v375h1140v-375h-176v215h-301v-1022h176v-166h-538zM895 1878l78 -90l-336 -326l-336 326l78 90l258 -192z" />
    <glyph glyph-name="tcaron" unicode="&#x165;" horiz-adv-x="712" 
d="M432 -16q-156 0 -213 110q-27 57 -26 129v508h-166v152h166v202l176 72v-274h268v-152h-268v-477q0 -41 12 -68q25 -43 95 -43t173 50l-18 -158q-99 -51 -199 -51zM518 1239q0 33 -13 80t-13 86t28 72q29 33 78 33t77 -34q28 -32 27 -87q1 -197 -206 -412l-58 43
q80 117 80 219z" />
    <glyph glyph-name="Umacron" unicode="&#x16a;" horiz-adv-x="1437" 
d="M395 1534v154h647v-154h-647zM718 -25q-232 0 -364 129q-131 129 -131 371v707h-160v166h515v-166h-170v-695q0 -168 80 -255t232 -87q150 0 232 84t82 252v701h-170v166h512v-166h-162v-701q0 -246 -132 -376t-364 -130z" />
    <glyph glyph-name="umacron" unicode="&#x16b;" horiz-adv-x="1142" 
d="M225 1085v154h647v-154h-647zM356 319q0 -174 152 -174q123 0 264 134v452h-141v152h317v-736h137v-147h-307v154q-157 -170 -319 -170t-236 116q-41 76 -41 181v450h-137v152h311v-564z" />
    <glyph glyph-name="Ubreve" unicode="&#x16c;" horiz-adv-x="1437" 
d="M716 1487q-120 0 -213 80t-134 231l116 47q37 -94 99 -143t131 -49q152 0 231 192l117 -47q-41 -152 -134 -232t-213 -79zM718 -25q-232 0 -364 129q-131 129 -131 371v707h-160v166h515v-166h-170v-695q0 -168 80 -255t232 -87q150 0 232 84t82 252v701h-170v166h512
v-166h-162v-701q0 -246 -132 -376t-364 -130z" />
    <glyph glyph-name="ubreve" unicode="&#x16d;" horiz-adv-x="1142" 
d="M546 1038q-120 0 -213 80t-134 232l116 47q37 -93 99 -143t131 -50q152 0 231 193l117 -47q-41 -152 -134 -232t-213 -80zM356 319q0 -174 152 -174q123 0 264 134v452h-141v152h317v-736h137v-147h-307v154q-157 -170 -319 -170t-236 116q-41 76 -41 181v450h-137v152
h311v-564z" />
    <glyph glyph-name="Uring" unicode="&#x16e;" horiz-adv-x="1437" 
d="M718 -25q-232 0 -364 129q-131 129 -131 371v707h-160v166h515v-166h-170v-695q0 -168 80 -255t232 -87q150 0 232 84t82 252v701h-170v166h512v-166h-162v-701q0 -246 -132 -376t-364 -130zM718 1575q48 0 79 36t30 87q0 51 -30 86q-31 35 -79 35t-80 -36t-32 -86
t32 -86t80 -36zM717 1454q-102 0 -174 71t-72 172t72 172t174 71t174 -72q72 -70 72 -171t-72 -172t-174 -71z" />
    <glyph glyph-name="uring" unicode="&#x16f;" horiz-adv-x="1142" 
d="M356 319q0 -174 152 -174q123 0 264 134v452h-141v152h317v-736h137v-147h-307v154q-157 -170 -319 -170t-236 116q-41 76 -41 181v450h-137v152h311v-564zM548 1126q48 0 79 36t30 87q0 51 -30 86q-31 35 -79 35t-80 -36t-32 -86t32 -86t80 -36zM547 1006
q-102 0 -174 70t-72 172q0 101 72 172t174 71t174 -71t72 -172q0 -102 -72 -172t-174 -70z" />
    <glyph glyph-name="Uhungarumlaut" unicode="&#x170;" horiz-adv-x="1437" 
d="M1228 1845q42 -1 66 -27t25 -65q0 -66 -86 -106l-373 -170l-35 61l312 264q49 43 91 43zM783 1851q42 -1 69 -27t27 -65q0 -63 -84 -106l-349 -180l-40 59l282 270q53 49 95 49zM718 -25q-232 0 -364 129q-131 129 -131 371v707h-160v166h515v-166h-170v-695
q0 -168 80 -255t232 -87q150 0 232 84t82 252v701h-170v166h512v-166h-162v-701q0 -246 -132 -376t-364 -130z" />
    <glyph glyph-name="uhungarumlaut" unicode="&#x171;" horiz-adv-x="1142" 
d="M1058 1397q42 0 66 -27t25 -65q0 -66 -86 -107l-373 -170l-35 62l312 264q49 43 91 43zM612 1403q43 0 70 -27t27 -65q0 -66 -84 -107l-349 -180l-40 59l282 271q51 49 94 49zM356 319q0 -174 152 -174q123 0 264 134v452h-141v152h317v-736h137v-147h-307v154
q-157 -170 -319 -170t-236 116q-41 76 -41 181v450h-137v152h311v-564z" />
    <glyph glyph-name="Uogonek" unicode="&#x172;" horiz-adv-x="1437" 
d="M779 -412q-110 0 -168 54t-58 154t94 184q-201 18 -313 145t-111 350v707h-160v166h515v-166h-170v-695q0 -168 80 -255t232 -87q150 0 232 84t82 252v701h-170v166h512v-166h-162v-701q0 -223 -110 -350t-301 -149q-96 -70 -96 -152q0 -102 110 -102q78 0 152 39
l-8 -134q-72 -45 -182 -45z" />
    <glyph glyph-name="uogonek" unicode="&#x173;" horiz-adv-x="1142" 
d="M356 319q0 -174 152 -174q123 0 264 134v452h-141v152h317v-736h137v-147h-157q-125 -72 -125 -172t110 -100q76 0 154 39l-8 -134q-76 -45 -185 -45q-110 0 -166 54t-57 145q0 129 127 219v148q-157 -170 -319 -170t-236 116q-41 76 -41 181v450h-137v152h311v-564z" />
    <glyph glyph-name="Wcircumflex" unicode="&#x174;" horiz-adv-x="2054" 
d="M45 1182v166h522v-166h-172l256 -844l336 862h100l336 -862l246 844h-178v166h522v-166h-151l-371 -1200h-105l-352 886l-356 -886h-107l-376 1200h-150zM770 1468l-78 88l336 328l336 -328l-78 -88l-258 193z" />
    <glyph glyph-name="wcircumflex" unicode="&#x175;" horiz-adv-x="1449" 
d="M12 731v152h428v-148h-133l144 -504l227 555h108l230 -555l143 504h-147v148h426v-152h-129l-232 -766h-110l-242 574l-240 -574h-110l-234 766h-129zM467 1020l-78 88l336 328l336 -328l-78 -88l-258 192z" />
    <glyph glyph-name="Ycircumflex" unicode="&#x176;" horiz-adv-x="1316" 
d="M399 1468l-77 88l335 328l336 -328l-78 -88l-258 193zM383 0v166h182v362l-391 654h-141v166h477v-166h-129l281 -496l282 496h-137v166h477v-166h-141l-391 -652v-364h182v-166h-551z" />
    <glyph glyph-name="ycircumflex" unicode="&#x177;" horiz-adv-x="1067" 
d="M274 1020l-77 88l335 328l336 -328l-77 -88l-259 192zM55 -286q0 50 28 77t69 27q72 0 96 -74q45 16 90 80q27 45 55 100l60 123l-326 684h-115v152h430v-146h-135q14 -33 39 -87t75 -169t83 -190l33 -78l233 524h-141v146h426v-152h-115l-416 -887q-34 -69 -69 -118
q-102 -133 -232 -134q-74 0 -121 36t-47 86z" />
    <glyph glyph-name="Ydieresis" unicode="&#x178;" horiz-adv-x="1316" 
d="M463 1499q-53 0 -91 38t-38 92t39 92t92 38t91 -38t38 -92t-39 -92t-92 -38zM848 1499q-53 0 -91 38t-38 92t39 92t92 38t91 -38t38 -92t-39 -92t-92 -38zM383 0v166h182v362l-391 654h-141v166h477v-166h-129l281 -496l282 496h-137v166h477v-166h-141l-391 -652v-364
h182v-166h-551z" />
    <glyph glyph-name="Zacute" unicode="&#x179;" horiz-adv-x="1257" 
d="M90 0v98l799 1094h-592v-219h-164v375h1020v-99l-799 -1093h650v219h161v-375h-1075zM582 1468l-52 58l238 278q47 54 91 54t71 -27q26 -27 26 -76t-65 -92z" />
    <glyph glyph-name="zacute" unicode="&#x17a;" horiz-adv-x="931" 
d="M68 0v92l553 649h-365v-170h-154v312h754v-90l-551 -650h408v168h151v-311h-796zM698 1409q44 0 70 -27q26 -28 27 -76q0 -48 -66 -92l-309 -194l-51 57l237 279q48 53 92 53z" />
    <glyph glyph-name="Zdotaccent" unicode="&#x17b;" horiz-adv-x="1257" 
d="M625 1485q-53 0 -91 39t-38 93t39 93t92 39t92 -39t39 -93t-40 -93t-93 -39zM90 0v98l799 1094h-592v-219h-164v375h1020v-99l-799 -1093h650v219h161v-375h-1075z" />
    <glyph glyph-name="zdotaccent" unicode="&#x17c;" horiz-adv-x="931" 
d="M463 1036q-53 0 -91 39t-38 93t39 94t92 38q53 0 92 -38t39 -94q0 -54 -40 -93t-93 -39zM68 0v92l553 649h-365v-170h-154v312h754v-90l-551 -650h408v168h151v-311h-796z" />
    <glyph glyph-name="Zcaron" unicode="&#x17d;" horiz-adv-x="1257" 
d="M90 0v98l799 1094h-592v-219h-164v375h1020v-99l-799 -1093h650v219h161v-375h-1075zM883 1878l78 -90l-336 -326l-336 326l78 90l258 -192z" />
    <glyph glyph-name="zcaron" unicode="&#x17e;" horiz-adv-x="931" 
d="M68 0v92l553 649h-365v-170h-154v312h754v-90l-551 -650h408v168h151v-311h-796zM721 1430l78 -91l-336 -325l-336 325l78 91l258 -193z" />
    <glyph glyph-name="Aringacute" unicode="&#x1fa;" horiz-adv-x="1437" 
d="M717 1372q47 0 79 36t31 87q0 51 -31 87q-32 36 -79 36t-79 -37t-32 -86t32 -86t79 -37zM502 604h426l-213 588zM963 1508q0 -95 -70 -160h164v-164h-152l375 -1018h125v-166h-479v164h155l-100 285h-532l-101 -285h164v-164h-479v166h123l374 1018h-149v164h162
q-72 72 -72 164t72 159q72 68 174 68t174 -68t72 -163zM960 2214q44 0 70 -27t27 -75q0 -48 -66 -93l-309 -194l-51 57l237 279q48 53 92 53z" />
    <glyph glyph-name="aringacute" unicode="&#x1fb;" horiz-adv-x="1021" 
d="M511 1126q48 0 79 36t31 87t-31 86t-79 35t-80 -36t-32 -86t32 -86t80 -36zM510 1006q-102 0 -174 70t-72 172q0 101 72 172t174 71t174 -71t72 -172q0 -102 -72 -172t-174 -70zM753 1976q45 0 71 -26t26 -76q0 -49 -66 -92l-309 -195l-51 58l238 278q47 53 91 53z
M424 117q129 0 248 104v144q-111 31 -209 31q-97 0 -149 -41q-52 -40 -52 -103t43 -99t119 -36zM373 -16q-125 0 -207 68t-82 186q0 120 96 192t236 72t256 -35v100q0 74 -39 123q-55 68 -184 68q-66 0 -115 -27q10 -25 10 -59t-29 -62t-73 -28t-75 28q-30 28 -30 76
q0 86 90 150t250 63q203 0 297 -111q68 -80 68 -202v-439h137v-147h-303v106q-131 -122 -303 -122z" />
    <glyph glyph-name="AEacute" unicode="&#x1fc;" horiz-adv-x="1839" 
d="M897 604v584h-59l-283 -584h342zM-2 0v166h164l500 1016h-158v166h1218v-353h-176v189h-463v-418h426v-160h-426v-442h463v188h178v-352h-983v166h156v283h-416l-137 -285h143v-164h-489zM1348 1755q0 -49 -66 -92l-309 -195l-51 58l237 278q47 54 91 54t71 -27t27 -76z
" />
    <glyph glyph-name="aeacute" unicode="&#x1fd;" horiz-adv-x="1570" 
d="M1023 1409q44 0 71 -27q26 -28 26 -76t-65 -92l-310 -194l-51 57l238 279q47 53 91 53zM1088 754q-102 0 -173 -62q-70 -62 -86 -176h494q-5 110 -69 174t-166 64zM430 117q133 0 275 127q-23 55 -33 125q-137 27 -222 27q-84 0 -136 -41q-52 -40 -52 -103t44 -99
t124 -36zM477 899q221 0 291 -166q116 166 316 166t308 -121t107 -299q0 -41 -8 -94h-662q36 -247 326 -249q141 0 307 93l-14 -161q-135 -84 -313 -84q-256 0 -383 172q-80 -84 -180 -128t-187 -44q-133 0 -217 68t-84 186q0 120 96 192t236 72t256 -35v96q0 76 -39 125
q-55 70 -184 70q-66 0 -115 -27q10 -25 10 -59t-29 -62t-73 -28t-75 28q-30 28 -30 76q0 86 90 150t250 63z" />
    <glyph glyph-name="Oslashacute" unicode="&#x1fe;" horiz-adv-x="1583" 
d="M750 1468l-52 58l238 278q47 54 91 54t71 -27q26 -27 26 -76t-65 -92zM793 147q215 0 354 150t139 365t-106 356l-676 -787q127 -84 289 -84zM297 682q0 -219 111 -358l675 788q-123 88 -290 88q-215 0 -356 -149q-140 -150 -140 -369zM786 -25q-221 0 -393 123
l-162 -188l-118 104l163 189q-170 199 -170 485t195 484q195 200 496 200q219 0 397 -125l162 189l117 -105l-166 -190q170 -197 170 -481t-195 -485q-195 -200 -496 -200z" />
    <glyph glyph-name="oslashacute" unicode="&#x1ff;" horiz-adv-x="1083" 
d="M773 1409q44 0 71 -27q26 -28 26 -76t-65 -92l-309 -194l-52 57l238 279q47 53 91 53zM543 133q123 0 201 86q78 85 77 205q0 120 -45 199l-377 -455q60 -35 144 -35zM543 750q-125 0 -203 -88t-78 -213q0 -126 49 -201l381 461q-63 41 -149 41zM543 -16q-131 0 -238 61
l-100 -121l-113 92l101 121q-111 127 -111 311t128 318q128 133 333 133q137 0 243 -68l103 123l112 -92l-104 -125q107 -129 107 -308t-129 -312t-332 -133z" />
    <glyph glyph-name="Scommaaccent" unicode="&#x218;" horiz-adv-x="1130" 
d="M566 -25q-198 -1 -332 91t-134 204q0 62 34 102t88 40t89 -34t35 -81t-27 -86q81 -72 225 -72q144 -1 217 57t73 150t-69 144t-198 102q-215 80 -315 164t-100 246t117 266q119 104 303 104t306 -82t121 -194q0 -61 -33 -98q-34 -36 -87 -36t-88 36q-35 34 -35 77t22 78
q-63 57 -187 57t-189 -53q-64 -53 -64 -140t68 -138t188 -97t182 -76t122 -77q120 -91 120 -267q0 -175 -127 -281t-325 -106zM575 -100q51 0 87 -39t36 -116t-64 -173t-204 -172l-41 55q154 121 162 217q-41 10 -68 41t-27 76t34 78t85 33z" />
    <glyph glyph-name="scommaaccent" unicode="&#x219;" horiz-adv-x="913" 
d="M338 -211q0 45 34 78t85 33t87 -39t36 -116t-65 -173t-204 -172l-41 55q154 121 162 217q-42 10 -68 41t-26 76zM795 705q0 -55 -27 -83t-71 -28q-43 0 -73 27t-30 63t8 53q-57 27 -139 27t-129 -34t-47 -80t47 -72q46 -26 188 -62q142 -37 222 -92t81 -175
q0 -120 -104 -194t-256 -73q-99 0 -191 30q-186 59 -186 189q0 43 29 75t73 31q44 1 73 -27q30 -28 30 -65t-8 -55q66 -41 165 -41t153 32t54 82q0 49 -45 77t-189 65t-225 93t-81 166t92 188t254 77q86 0 165 -26t123 -70t44 -98z" />
    <glyph glyph-name="schwa" unicode="&#x259;" horiz-adv-x="1005" 
d="M484 129q102 0 172 61t89 177h-495q6 -109 70 -173q62 -64 164 -65zM489 -16q-197 0 -307 120t-108 299q0 43 8 93h663q-18 125 -103 188q-85 64 -223 64t-308 -97l16 164q137 84 337 84t332 -126q132 -125 132 -323t-121 -332t-318 -134z" />
    <glyph glyph-name="circumflex" unicode="&#x2c6;" horiz-adv-x="880" 
d="M182 1020l-78 88l336 328l336 -328l-78 -88l-258 192z" />
    <glyph glyph-name="caron" unicode="&#x2c7;" horiz-adv-x="880" 
d="M698 1430l78 -91l-336 -325l-336 325l78 91l258 -193z" />
    <glyph glyph-name="breve" unicode="&#x2d8;" horiz-adv-x="899" 
d="M450 1038q-120 0 -213 80t-135 232l117 47q37 -93 98 -143t132 -50q152 0 231 193l117 -47q-41 -152 -134 -232t-213 -80z" />
    <glyph glyph-name="dotaccent" unicode="&#x2d9;" horiz-adv-x="638" 
d="M317 1036q-53 0 -91 39t-38 93t39 94t92 38q53 0 93 -38q39 -40 39 -94q-1 -54 -41 -93t-93 -39z" />
    <glyph glyph-name="ring" unicode="&#x2da;" horiz-adv-x="788" 
d="M394 1126q48 0 79 36t31 87t-31 86t-79 35t-80 -36t-32 -86t32 -86t80 -36zM393 1006q-102 0 -174 70t-72 172q0 101 72 172t174 71t174 -71t72 -172q0 -102 -72 -172t-174 -70z" />
    <glyph glyph-name="ogonek" unicode="&#x2db;" horiz-adv-x="675" 
d="M348 -412q-109 0 -166 54t-57 145q0 182 254 289l151 -23q-110 -33 -182 -92t-72 -131q0 -102 111 -102q76 0 154 39l-9 -134q-75 -45 -184 -45z" />
    <glyph glyph-name="tilde" unicode="&#x2dc;" horiz-adv-x="929" 
d="M611 1040q-87 0 -166 68t-121 70q-72 0 -99 -125l-129 30q12 119 74 194t151 75q88 0 173 -76q74 -61 112 -62q74 0 101 125l127 -30q-10 -119 -73 -194t-150 -75z" />
    <glyph glyph-name="hungarumlaut" unicode="&#x2dd;" horiz-adv-x="1032" 
d="M861 1397q42 0 67 -27t24 -65q0 -66 -86 -107l-372 -170l-35 62l311 264q49 43 91 43zM416 1403q44 0 70 -27t26 -65q0 -66 -84 -107l-348 -180l-41 59l283 271q51 49 94 49z" />
    <glyph glyph-name="commaaccent" unicode="&#x326;" horiz-adv-x="397" 
d="M231 -100q51 0 87 -39t36 -116t-64 -173t-204 -172l-41 55q154 121 162 217q-41 10 -68 41t-27 76t34 78t85 33z" />
    <glyph glyph-name="Wgrave" unicode="&#x1e80;" horiz-adv-x="2054" 
d="M696 1756q0 48 27 75t71 27t91 -54l237 -278l-51 -58l-307 195q-68 45 -68 93zM45 1182v166h522v-166h-172l256 -844l336 862h100l336 -862l246 844h-178v166h522v-166h-151l-371 -1200h-105l-352 886l-356 -886h-107l-376 1200h-150z" />
    <glyph glyph-name="wgrave" unicode="&#x1e81;" horiz-adv-x="1449" 
d="M393 1308q0 48 27 74q26 26 70 27q44 0 92 -53l237 -279l-51 -57l-307 194q-68 46 -68 94zM12 731v152h428v-148h-133l144 -504l227 555h108l230 -555l143 504h-147v148h426v-152h-129l-232 -766h-110l-242 574l-240 -574h-110l-234 766h-129z" />
    <glyph glyph-name="Wacute" unicode="&#x1e82;" horiz-adv-x="2054" 
d="M45 1182v166h522v-166h-172l256 -844l336 862h100l336 -862l246 844h-178v166h522v-166h-151l-371 -1200h-105l-352 886l-356 -886h-107l-376 1200h-150zM1358 1755q0 -49 -66 -92l-309 -195l-51 58l237 278q47 54 91 54t72 -27q26 -27 26 -76z" />
    <glyph glyph-name="wacute" unicode="&#x1e83;" horiz-adv-x="1449" 
d="M12 731v152h428v-148h-133l144 -504l227 555h108l230 -555l143 504h-147v148h426v-152h-129l-232 -766h-110l-242 574l-240 -574h-110l-234 766h-129zM958 1409q44 0 70 -27q26 -28 27 -76q0 -48 -66 -92l-309 -194l-51 57l237 279q48 53 92 53z" />
    <glyph glyph-name="Wdieresis" unicode="&#x1e84;" horiz-adv-x="2054" 
d="M45 1182v166h522v-166h-172l256 -844l336 862h100l336 -862l246 844h-178v166h522v-166h-151l-371 -1200h-105l-352 886l-356 -886h-107l-376 1200h-150zM834 1499q-53 0 -92 38q-38 38 -38 92t39 92t93 38t91 -38q38 -38 38 -92t-39 -92t-92 -38zM1219 1499
q-53 0 -92 38q-37 38 -37 92t38 92t92 38t92 -38t38 -92t-39 -92t-92 -38z" />
    <glyph glyph-name="wdieresis" unicode="&#x1e85;" horiz-adv-x="1449" 
d="M12 731v152h428v-148h-133l144 -504l227 555h108l230 -555l143 504h-147v148h426v-152h-129l-232 -766h-110l-242 574l-240 -574h-110l-234 766h-129zM530 1051q-53 0 -91 38t-38 92t39 92t92 38q54 0 92 -38t38 -92t-40 -92t-92 -38zM915 1051q-53 0 -91 38t-38 92
t39 92t93 38t91 -38q38 -38 38 -92q1 -54 -39 -92t-93 -38z" />
    <glyph glyph-name="Ygrave" unicode="&#x1ef2;" horiz-adv-x="1316" 
d="M423 1858q44 0 91 -54l238 -278l-52 -58l-307 195q-67 45 -67 93t26 75q27 27 71 27zM383 0v166h182v362l-391 654h-141v166h477v-166h-129l281 -496l282 496h-137v166h477v-166h-141l-391 -652v-364h182v-166h-551z" />
    <glyph glyph-name="ygrave" unicode="&#x1ef3;" horiz-adv-x="1067" 
d="M298 1409q44 0 91 -53l238 -279l-52 -57l-307 194q-68 46 -68 94t28 74q26 26 70 27zM55 -286q0 50 28 77t69 27q72 0 96 -74q45 16 90 80q27 45 55 100l60 123l-326 684h-115v152h430v-146h-135q14 -33 39 -87t75 -169t83 -190l33 -78l233 524h-141v146h426v-152h-115
l-416 -887q-34 -69 -69 -118q-102 -133 -232 -134q-74 0 -121 36t-47 86z" />
    <glyph glyph-name="enspace" unicode="&#x2002;" horiz-adv-x="1024" 
 />
    <glyph glyph-name="emspace" unicode="&#x2003;" horiz-adv-x="2048" 
 />
    <glyph glyph-name="threeperemspace" unicode="&#x2004;" horiz-adv-x="681" 
 />
    <glyph glyph-name="fourperemspace" unicode="&#x2005;" horiz-adv-x="512" 
 />
    <glyph glyph-name="figurespace" unicode="&#x2007;" horiz-adv-x="1085" 
 />
    <glyph glyph-name="thinspace" unicode="&#x2009;" horiz-adv-x="272" 
 />
    <glyph glyph-name="hairspace" unicode="&#x200a;" horiz-adv-x="153" 
 />
    <glyph glyph-name="endash" unicode="&#x2013;" horiz-adv-x="1046" 
d="M45 489v168h956v-168h-956z" />
    <glyph glyph-name="emdash" unicode="&#x2014;" horiz-adv-x="1632" 
d="M45 489v168h1542v-168h-1542z" />
    <glyph glyph-name="quoteleft" unicode="&#x2018;" horiz-adv-x="456" 
d="M212 799q-60 0 -102 46t-42 137t76 208q77 117 237 205l49 -66q-92 -71 -139 -143t-49 -121q49 -10 80 -47q30 -37 30 -88t-40 -91t-100 -40z" />
    <glyph glyph-name="quoteright" unicode="&#x2019;" horiz-adv-x="456" 
d="M102 1249q0 51 41 91t101 40t102 -46q43 -46 43 -137q-1 -91 -77 -208t-238 -205l-47 66q92 70 139 142t49 122q-49 10 -81 47t-32 88z" />
    <glyph glyph-name="quotesinglbase" unicode="&#x201a;" horiz-adv-x="477" 
d="M92 140q0 52 42 93t104 41t104 -47q43 -47 43 -140t-78 -208t-246 -207l-49 68q94 74 144 144t51 116q-51 12 -83 50t-32 90z" />
    <glyph glyph-name="quotedblleft" unicode="&#x201c;" horiz-adv-x="882" 
d="M212 799q-60 0 -102 46t-42 137t76 208q77 117 237 205l49 -66q-92 -71 -139 -143t-49 -121q49 -10 80 -47q30 -37 30 -88t-40 -91t-100 -40zM639 799q-59 0 -102 46q-43 45 -43 117q0 151 131 291q74 80 184 142l47 -66q-90 -71 -137 -143t-51 -121q49 -10 81 -47
q31 -37 31 -88t-41 -91t-100 -40z" />
    <glyph glyph-name="quotedblright" unicode="&#x201d;" horiz-adv-x="882" 
d="M102 1249q0 51 41 91t101 40t102 -46q43 -46 43 -137q-1 -91 -77 -208t-238 -205l-47 66q92 70 139 142t49 122q-49 10 -81 47t-32 88zM530 1249q0 51 41 91t101 40t102 -46q43 -46 43 -118q0 -149 -131 -290q-73 -81 -184 -142l-47 66q90 70 137 142t51 122
q-49 10 -81 47t-32 88z" />
    <glyph glyph-name="quotedblbase" unicode="&#x201e;" horiz-adv-x="903" 
d="M94 133q0 51 40 89t99 38t101 -45t43 -125q-1 -223 -314 -407l-47 63q180 141 189 252q-49 10 -80 47t-31 88zM522 133q0 51 40 89t99 38t101 -45t43 -125q0 -223 -313 -407l-48 63q180 141 189 252q-49 10 -80 47t-31 88z" />
    <glyph glyph-name="dagger" unicode="&#x2020;" horiz-adv-x="995" 
d="M145 680q-45 0 -75 33t-31 84q0 51 42 88t90 37t85 -9l197 -41l-56 304q-12 61 19 102t82 41t82 -41t18 -102l-55 -304l196 41q37 9 85 9t90 -37t42 -88t-30 -84t-76 -33q-45 0 -78 33t-35 84l-157 -19l-39 -782h-86l-39 782l-158 19q-2 -51 -35 -84t-78 -33z" />
    <glyph glyph-name="daggerdbl" unicode="&#x2021;" horiz-adv-x="1032" 
d="M516 -258q-53 0 -81 43t-13 109l53 258l-178 -35q-41 -8 -59 -8q-66 -1 -109 33t-43 83t30 80t74 31t75 -31q32 -31 32 -82l135 13l39 294l-39 295l-135 13q0 -51 -32 -82t-76 -31q-43 0 -73 31q-30 32 -30 80t43 82t109 34q18 0 59 -8l178 -35l-53 258q-14 68 13 110
q28 42 81 42t81 -43t13 -109l-53 -258l178 35q41 8 60 8q67 0 109 -34t42 -82q0 -50 -30 -80t-74 -31q-44 0 -75 31q-32 31 -32 82l-135 -13l-39 -295l39 -294l135 -13q0 51 32 82t76 31q43 0 73 -31t30 -80t-43 -83t-108 -33q-18 0 -60 8l-178 35l53 -258q14 -66 -14 -109
t-80 -43z" />
    <glyph glyph-name="bullet" unicode="&#x2022;" horiz-adv-x="638" 
d="M319 332q-93 0 -159 68t-66 163q0 96 66 164t160 68t159 -68q66 -68 66 -164q0 -95 -66 -163t-160 -68z" />
    <glyph glyph-name="ellipsis" unicode="&#x2026;" horiz-adv-x="1325" 
d="M221 -16q-57 0 -97 40t-40 99t40 99t97 40t97 -40t40 -99t-40 -99t-97 -40zM664 -16q-57 0 -98 40q-40 40 -40 99t40 99t98 40t97 -41q40 -41 40 -98t-40 -98t-97 -41zM1104 -16q-57 0 -97 40t-40 99t40 99t97 40t97 -40t40 -99t-40 -99t-97 -40z" />
    <glyph glyph-name="perthousand" unicode="&#x2030;" horiz-adv-x="1957" 
d="M1598 100q54 0 90 39q34 39 34 99t-34 99q-36 40 -90 40t-89 -40t-35 -99t35 -99q35 -39 89 -39zM1598 -16q-108 0 -184 74t-75 182q0 106 76 181t183 75q108 0 184 -75t76 -181t-76 -182q-76 -74 -184 -74zM887 238q0 -58 35 -98t89 -40t90 39t36 99t-36 99
q-36 40 -90 40t-89 -40t-35 -99zM1270 240q0 -106 -76 -181t-184 -75t-183 74t-75 182q0 106 75 181t183 75t184 -75t76 -181zM359 678q54 0 90 39q35 39 35 97t-35 98t-89 40t-90 -40q-34 -40 -34 -98t34 -97t89 -39zM266 -39l-78 72q96 100 388 434t522 610l80 -69
q-282 -290 -813 -929q-85 -102 -99 -118zM359 1073q107 0 183 -75t76 -181t-76 -182t-184 -76t-182 76q-76 76 -76 182t76 181t183 75z" />
    <glyph glyph-name="guilsinglleft" unicode="&#x2039;" horiz-adv-x="628" 
d="M432 205l-375 364l375 365l107 -107l-252 -258l252 -258z" />
    <glyph glyph-name="guilsinglright" unicode="&#x203a;" horiz-adv-x="628" 
d="M197 205l-107 106l252 258l-252 258l107 107l374 -365z" />
    <glyph glyph-name="fraction" unicode="&#x2044;" horiz-adv-x="1024" 
d="M952 1284q-394 -621 -796 -1313l-86 56q18 29 147 235q392 623 649 1077z" />
    <glyph glyph-name="zero.sup" unicode="&#x2070;" 
d="M361 1518q-75 0 -119 -75t-45 -193q1 -118 45 -194t119 -75q75 0 120 75q45 76 45 194t-45 193t-120 75zM360 866q-131 0 -212 106q-80 106 -80 276q0 172 82 278t212 106t211 -105q82 -105 82 -277t-82 -278t-213 -106z" />
    <glyph glyph-name="four.sup" unicode="&#x2074;" 
d="M289 885v94h137v119h-336l-37 67l396 488l90 -72l-334 -393h221v133l109 43v-168h116v-100h-116v-115h90v-96h-336z" />
    <glyph glyph-name="five.sup" unicode="&#x2075;" 
d="M629 1122q0 -110 -80 -184q-80 -72 -202 -72q-123 0 -191 46t-68 104q0 36 22 58t58 22t57 -22t21 -48t-8 -35q42 -16 110 -16t114 41t46 104q0 62 -42 100t-123 38t-163 -37l-59 32l37 369h424v-113h-324l-14 -157q49 12 108 12q121 0 199 -66t78 -176z" />
    <glyph glyph-name="six.sup" unicode="&#x2076;" 
d="M213 1109q0 -58 44 -96q43 -38 109 -38t108 40t42 97t-39 93t-107 36t-113 -37q-44 -37 -44 -95zM386 1348q110 0 182 -68t73 -169q0 -101 -77 -173q-78 -72 -196 -72t-202 84t-84 274t91 301q91 112 228 111q106 0 166 -55q37 -41 37 -84q0 -76 -76 -78q-37 0 -55 22
t-18 42t4 37q-29 12 -60 12q-80 0 -137 -75t-59 -183q73 74 183 74z" />
    <glyph glyph-name="seven.sup" unicode="&#x2077;" 
d="M215 1520v-142h-109v244h512l31 -66l-311 -675h-135l305 639h-293z" />
    <glyph glyph-name="eight.sup" unicode="&#x2078;" 
d="M209 1094q1 -49 43 -83t109 -34t109 34t42 83t-43 84q-43 34 -109 34t-108 -34t-43 -84zM360 1307q55 0 96 31q40 32 40 81t-39 79t-97 30t-96 -30q-37 -30 -37 -79t39 -81t94 -31zM360 868q-126 0 -204 60t-78 134q0 72 44 124t128 78q-154 43 -154 172q0 82 75 139
t189 57t190 -57q77 -57 77 -139q0 -127 -156 -172q84 -25 129 -78t45 -125q0 -73 -79 -133t-206 -60z" />
    <glyph glyph-name="nine.sup" unicode="&#x2079;" 
d="M207 1393q0 -57 39 -93q40 -36 108 -36t112 36t44 96q0 58 -44 96t-110 38t-107 -40q-42 -40 -42 -97zM336 1157q-110 0 -182 67t-72 169t77 173q77 70 195 70t202 -83q85 -83 85 -272t-91 -302t-228 -113q-104 0 -166 58q-37 39 -37 84q0 77 75 77t74 -73q0 -18 -6 -27
q20 -12 62 -12q78 0 135 74t61 184q-74 -74 -184 -74z" />
    <glyph glyph-name="zero.inf" unicode="&#x2080;" 
d="M361 -186q75 0 120 74t45 194t-45 194t-120 74t-119 -75t-45 -193q1 -118 45 -192q44 -76 119 -76zM360 -301q-131 0 -212 105q-80 104 -80 276t82 278t212 106t211 -104q82 -106 82 -278t-82 -278t-213 -105z" />
    <glyph glyph-name="one.inf" unicode="&#x2081;" 
d="M125 -285v111h190v502l-176 -43l-28 104l266 70h61v-633h189v-111h-502z" />
    <glyph glyph-name="two.inf" unicode="&#x2082;" 
d="M489 261q0 42 -38 73q-39 31 -91 31q-52 1 -91 -15q-38 -16 -46 -33q35 -18 35 -57q0 -38 -22 -60t-52 -22q-82 0 -82 89t72 145t182 57q110 0 184 -60t74 -157q0 -55 -28 -102t-61 -72q-32 -25 -87 -60q-156 -102 -209 -200h299v123h103v-228h-516l-35 58q31 77 86 147
t93 100t92 68q54 39 77 57t42 47t19 71z" />
    <glyph glyph-name="three.inf" unicode="&#x2083;" 
d="M487 263q0 102 -142 102q-65 0 -97 -29q14 -30 14 -54t-22 -46t-53 -23q-31 0 -55 26q-24 27 -24 73t67 100q67 53 179 53t186 -55t74 -128t-47 -121t-114 -65q72 -16 124 -65t52 -132t-81 -141t-197 -57q-117 0 -195 50t-78 124q0 35 24 61t56 25q32 1 54 -21t22 -52
t-17 -50q45 -39 121 -39t120 33t44 86t-47 90t-144 37h-45v98h49q78 0 125 34t47 86z" />
    <glyph glyph-name="four.inf" unicode="&#x2084;" 
d="M289 -283v95h137v118h-336l-37 68l396 487l90 -71l-334 -394h221v134l109 43v-168h116v-101h-116v-114h90v-97h-336z" />
    <glyph glyph-name="five.inf" unicode="&#x2085;" 
d="M629 -46q0 -110 -80 -182t-202 -73q-123 0 -191 46t-68 93t22 69q22 21 58 21t57 -22t21 -48t-8 -34q42 -16 110 -16t114 40t46 104t-42 101t-123 37t-163 -37l-59 33l37 369h424v-113h-324l-14 -158q49 12 108 13q121 0 199 -66q78 -67 78 -177z" />
    <glyph glyph-name="six.inf" unicode="&#x2086;" 
d="M213 -58q0 -58 44 -96q43 -38 109 -39q66 0 108 40q42 39 42 97t-39 94t-107 36t-113 -37q-44 -37 -44 -95zM604 330q0 -78 -76 -78q-37 0 -55 22t-18 42t4 36q-29 12 -60 13q-80 0 -137 -75t-59 -184l2 3q71 71 181 71t182 -68t73 -168q0 -101 -77 -173
q-78 -72 -196 -72t-202 84t-84 273t91 301t228 112q106 0 166 -55q37 -41 37 -84z" />
    <glyph glyph-name="seven.inf" unicode="&#x2087;" 
d="M215 352v-141h-109v244h512l31 -66l-311 -676h-135l305 639h-293z" />
    <glyph glyph-name="eight.inf" unicode="&#x2088;" 
d="M209 -74q1 -48 43 -82t109 -34t109 34t42 82q0 49 -43 84t-109 35t-108 -35t-43 -84zM360 139q55 0 96 32q40 32 40 81t-39 79q-39 29 -97 29t-96 -30q-37 -30 -37 -78q0 -49 39 -81t94 -32zM360 -299q-126 0 -204 60t-78 133q0 151 172 202q-154 43 -154 172
q0 82 75 140t189 57q114 0 190 -57q77 -57 77 -140q0 -127 -156 -172q84 -25 129 -78q45 -52 45 -124t-79 -132t-206 -61z" />
    <glyph glyph-name="nine.inf" unicode="&#x2089;" 
d="M510 228q0 58 -44 96t-110 38t-107 -40q-42 -40 -42 -96q0 -58 39 -94q40 -36 108 -36t112 37t44 95zM82 225q0 102 77 173t195 71t202 -83q85 -83 85 -272t-91 -302t-228 -113q-104 0 -166 57q-37 39 -37 84q0 78 75 78t74 -74q0 -14 -6 -26q29 -12 62 -13q78 0 135 75
t61 183q-74 -74 -184 -74q-110 1 -182 67t-72 169z" />
    <glyph glyph-name="Euro" unicode="&#x20ac;" horiz-adv-x="1284" 
d="M94 592v137h168q58 156 196 249t312 93t290 -86t116 -192q0 -57 -38 -95t-87 -36q-49 0 -81 32t-32 84q0 53 33 72q-21 28 -75 50t-148 22t-179 -54q-86 -54 -135 -145h340v-131h-381q-4 -41 -4 -65t4 -64h381v-131h-338q47 -92 134 -146t200 -53q168 0 303 135l105 -112
q-166 -172 -408 -172q-184 0 -320 93t-192 249h-164v137h133q-2 20 -2 52t4 77h-135z" />
    <glyph glyph-name="published" unicode="&#x2117;" horiz-adv-x="1251" 
d="M766 616q0 46 -34 75q-34 28 -87 28h-63v-207l65 -2q55 0 87 30t32 76zM641 436q-47 0 -59 2v-110h69v-74h-217v74h64v391h-64v74h215q87 1 145 -47t58 -132t-58 -131t-153 -47zM170 528q0 -194 128 -328t314 -134t316 135q129 135 129 329t-128 326q-127 133 -315 133
t-316 -133t-128 -328zM1151 528q0 -228 -156 -386t-382 -158t-382 158t-155 384q0 227 155 386q156 159 383 159t382 -158t155 -385z" />
    <glyph glyph-name="servicemark" unicode="&#x2120;" horiz-adv-x="1193" 
d="M412 972q0 -68 -52 -109q-52 -40 -136 -40q-83 0 -136 36t-53 85q0 27 17 43q17 17 42 17t40 -14q16 -14 16 -34q0 -18 -9 -28q29 -23 80 -23q92 0 92 66q0 47 -89 79t-130 66t-41 96t49 104t128 42t127 -31q49 -31 49 -69q1 -68 -56 -68q-27 0 -41 13t-14 25t6 32
q-23 16 -68 16q-84 0 -83 -59q0 -45 88 -74t131 -66t43 -105zM483 834v86h68l16 342h-73v86h194l131 -293l125 293h195v-86h-76l16 -342h70v-86h-227v86h63l-10 286l-137 -295h-45l-138 295l-10 -286h64v-86h-226z" />
    <glyph glyph-name="trademark" unicode="&#x2122;" horiz-adv-x="1294" 
d="M156 834v86h71v344h-106v-84h-86v168h485v-168h-88v84h-104v-344h71v-86h-243zM584 834v86h67l17 342h-74v86h194l130 -293l126 293h195v-86h-76l17 -342h69v-86h-227v86h63l-10 286l-137 -295h-45l-139 295l-11 -286h66v-86h-225z" />
    <glyph glyph-name="onethird" unicode="&#x2153;" horiz-adv-x="1628" 
d="M1395 546q0 104 -143 102q-65 0 -97 -30q14 -30 14 -54q1 -24 -21 -46t-54 -22t-55 26t-23 72q0 47 66 100q67 54 179 54q113 0 187 -56t74 -128t-47 -120t-115 -65q72 -15 124 -65t52 -132t-81 -140t-197 -58t-194 50t-79 124q0 34 24 60q25 26 57 26t54 -22t21 -52
q0 -30 -17 -49q44 -39 120 -39t121 33q44 33 44 86t-47 90t-143 37h-45v98h49q78 0 125 34t47 86zM1255 1284q-394 -621 -796 -1313l-86 56q18 29 147 235q392 623 649 1077zM96 575v111h191v502l-176 -43l-29 104l266 70h62v-633h188v-111h-502z" />
    <glyph glyph-name="twothirds" unicode="&#x2154;" horiz-adv-x="1628" 
d="M1292 1284q-394 -621 -796 -1313l-86 56q18 29 147 235q392 623 649 1077zM1401 546q-1 104 -143 102q-64 0 -97 -30q30 -63 -7 -100q-22 -22 -54 -22t-54 26q-24 26 -24 72q0 47 67 100q67 54 179 54t186 -56t74 -128t-47 -120t-115 -65q72 -15 124 -65t52 -132
t-80 -140t-197 -58q-116 0 -195 50t-79 124q0 34 24 60q25 26 57 26t54 -22t21 -52q0 -30 -17 -49q45 -39 121 -39t120 33t44 86t-47 90t-143 37h-45v98h49q78 0 125 34t47 86zM485 1122q0 42 -39 72q-39 31 -91 31q-52 1 -90 -15t-46 -32q35 -18 35 -58t-22 -60
q-22 -22 -52 -22q-82 0 -82 99q0 80 72 136t182 56t184 -60t74 -157q0 -55 -28 -102t-61 -72q-32 -25 -87 -59q-156 -102 -209 -201h299v123h103v-228h-516l-35 58q31 77 86 147t93 100t92 68t77 58q61 48 61 118z" />
    <glyph glyph-name="onefifth" unicode="&#x2155;" horiz-adv-x="1628" 
d="M1271 -18q-122 0 -191 46t-68 103q0 37 22 59t58 21q37 0 57 -22q20 -23 20 -49t-8 -34q43 -16 111 -16t114 41t46 105t-42 100q-42 37 -123 37t-163 -37l-60 33l37 368h424v-112h-323l-15 -158q49 12 109 12q121 1 199 -65q77 -66 77 -176t-79 -184q-80 -72 -202 -72z
M98 575v111h191v502l-176 -43l-29 104l266 70h62v-633h188v-111h-502zM1266 1284q-406 -639 -797 -1313l-86 56q18 29 147 235q387 615 650 1077z" />
    <glyph glyph-name="twofifths" unicode="&#x2156;" horiz-adv-x="1628" 
d="M1307 1284q-406 -639 -797 -1313l-86 56q18 29 147 235q387 615 650 1077zM1288 479q121 1 199 -65t78 -176t-80 -184q-80 -72 -202 -72q-123 0 -191 46t-68 93q0 90 80 90q37 0 57 -22q21 -23 21 -49t-8 -34q42 -16 110 -16t114 41t46 105t-42 100q-42 37 -123 37
t-163 -37l-59 33l37 368h424v-112h-324l-14 -158q49 12 108 12zM489 1122q0 42 -38 72q-39 31 -91 31q-52 1 -91 -15q-38 -16 -46 -32q35 -18 35 -58t-22 -60q-22 -22 -52 -22q-82 0 -82 99q0 80 72 136t182 56t184 -60t74 -157q0 -55 -28 -102t-61 -72q-32 -25 -87 -59
q-156 -102 -209 -201h299v123h103v-228h-516l-35 58q31 77 86 147t93 100t92 68t77 58q61 48 61 118z" />
    <glyph glyph-name="threefifths" unicode="&#x2157;" horiz-adv-x="1628" 
d="M498 1123q0 102 -143 102q-65 0 -97 -29q14 -30 14 -54t-22 -46t-52 -23q-32 0 -56 26q-24 27 -24 73t67 100q67 53 179 53t186 -55q74 -56 75 -128q0 -72 -47 -120t-115 -66q72 -16 124 -65t52 -132t-81 -141t-197 -57q-117 0 -195 50t-78 124q0 35 24 61t56 26t54 -22
t22 -52t-17 -50q45 -39 121 -39t120 33t44 86t-47 90t-143 37h-46v99h50q78 0 125 34t47 85zM1272 479q120 1 198 -65t78 -176t-80 -184q-80 -72 -201 -72q-122 0 -191 46t-68 103q0 37 22 59t58 21q36 0 56 -22q20 -23 21 -49q0 -26 -8 -34q43 -16 111 -16t113 41
q46 41 46 105t-42 100q-43 37 -123 37t-162 -37l-60 33l37 368h424v-112h-323l-15 -158q49 12 109 12zM1268 1284q-406 -639 -797 -1313l-86 56q18 29 95 151q454 722 702 1161z" />
    <glyph glyph-name="fourfifths" unicode="&#x2158;" horiz-adv-x="1628" 
d="M1020 121q0 90 80 90q37 0 57 -22q21 -23 21 -49t-9 -34q43 -16 111 -16t114 41t46 105t-42 100q-42 37 -123 37t-163 -37l-59 33l37 368h423v-112h-323l-14 -158q49 12 108 12q121 1 199 -65t78 -176t-80 -184q-80 -72 -202 -72q-123 0 -191 46t-68 93zM1313 1284
q-406 -639 -797 -1313l-86 56q18 29 95 151q454 722 702 1161zM297 578v94h137v119h-336l-37 67l396 488l90 -72l-334 -393h221v133l109 43v-168h116v-101h-116v-114h90v-96h-336z" />
    <glyph glyph-name="onesixth" unicode="&#x2159;" horiz-adv-x="1628" 
d="M1108 224q0 -58 44 -96t110 -38t107 40q42 40 42 97t-39 93q-40 36 -108 36t-112 -37t-44 -95zM1266 1284q-406 -639 -797 -1313l-86 56q18 29 147 235q387 615 650 1077zM98 575v111h191v502l-176 -43l-29 104l266 70h62v-633h188v-111h-502zM1282 463q110 0 182 -68
t72 -169t-77 -173q-77 -71 -195 -71t-203 84q-84 84 -84 272q0 190 91 302t228 112q106 0 166 -56q37 -41 37 -84q0 -77 -76 -77q-37 -1 -55 21t-18 42t4 37q-29 12 -60 12q-80 0 -137 -75t-59 -183q74 74 184 74z" />
    <glyph glyph-name="fivesixths" unicode="&#x215a;" horiz-adv-x="1628" 
d="M1106 224q0 -58 44 -96t110 -38t107 40q42 40 42 97t-39 93q-40 36 -108 36t-112 -37t-44 -95zM1264 1284q-406 -639 -797 -1313l-86 56q18 29 147 235q387 615 650 1077zM633 814q0 -110 -80 -182t-202 -73q-123 0 -191 46t-68 104q0 37 22 59t58 20q36 0 57 -22t21 -48
t-8 -34q42 -16 110 -16t114 41t46 104t-42 100t-123 37t-163 -37l-59 33l37 369h424v-113h-324l-14 -158q49 12 108 13q121 0 199 -66q78 -67 78 -177zM1280 463q110 0 182 -68t72 -169t-77 -173q-77 -71 -195 -71t-203 84q-84 84 -84 272q0 190 91 302t228 112
q106 0 166 -56q37 -41 37 -84q0 -77 -76 -77q-37 -1 -55 21t-18 42t4 37q-29 12 -60 12q-80 0 -137 -75t-59 -183q74 74 184 74z" />
    <glyph glyph-name="oneeighth" unicode="&#x215b;" horiz-adv-x="1628" 
d="M1261 92q67 0 109 34t41 83q0 49 -43 84q-42 35 -108 35t-109 -35t-43 -84t43 -83t110 -34zM1260 422q55 0 95 32t40 81t-39 79t-97 29q-57 0 -95 -30q-38 -31 -38 -79t40 -80t94 -32zM1260 -16q-127 0 -205 60t-78 132t44 126q44 52 128 77q-154 43 -154 172
q0 82 75 139q75 58 189 58q115 0 191 -58t76 -139q0 -127 -156 -172q84 -25 129 -78t45 -125t-78 -132t-206 -60zM1249 1284q-394 -621 -796 -1313l-86 56q18 29 147 235q392 623 649 1077zM92 575v111h191v502l-177 -43l-28 104l266 70h62v-633h188v-111h-502z" />
    <glyph glyph-name="threeeighths" unicode="&#x215c;" horiz-adv-x="1628" 
d="M496 1123q0 102 -143 102q-65 0 -97 -29q14 -30 14 -54t-22 -46t-52 -23q-32 0 -56 26q-24 27 -24 73t67 100q67 53 179 53t186 -55q74 -56 75 -128t-47 -120t-115 -66q72 -16 124 -65t52 -132t-81 -141t-197 -57q-117 0 -195 50t-78 124q0 35 24 61t56 26t54 -22t22 -52
t-17 -50q45 -39 121 -39t120 33t44 86t-47 90t-144 37h-45v99h50q78 0 125 34t47 85zM1104 209q0 -49 42 -83t110 -34q67 0 109 34t42 83t-43 84t-109 35q-67 0 -109 -35t-42 -84zM1255 422q55 0 96 32q40 32 40 81t-39 79q-40 30 -98 29q-58 0 -95 -30q-37 -31 -37 -79
t39 -80t94 -32zM1255 -16q-127 0 -205 60t-77 132q0 72 44 126q44 52 128 77q-154 43 -154 172q0 82 75 139q74 58 188 58t191 -58t77 -139q0 -127 -156 -172q84 -25 129 -78t45 -125t-79 -132t-206 -60zM1255 1284q-394 -621 -796 -1313l-86 56q18 29 147 235
q392 623 649 1077z" />
    <glyph glyph-name="fiveeighths" unicode="&#x215d;" horiz-adv-x="1628" 
d="M1098 209q0 -49 42 -83t110 -34q67 0 109 34t42 83t-43 84t-109 35q-67 0 -109 -35t-42 -84zM1249 422q55 0 96 32q40 32 39 81q0 49 -38 79t-98 29q-58 0 -95 -30q-37 -31 -37 -79t39 -80t94 -32zM1249 -16q-127 0 -205 60t-78 132q1 151 173 203q-154 43 -154 172
q0 82 75 139q74 58 188 58t191 -58t77 -139q0 -127 -156 -172q84 -25 129 -78t45 -125t-79 -132t-206 -60zM1243 1284q-406 -639 -797 -1313l-86 56q18 29 101 161q418 661 696 1151zM625 814q0 -110 -80 -182t-202 -73q-123 0 -191 46t-68 104q0 37 22 59t58 20
q37 0 57 -22q21 -22 21 -48t-9 -34q43 -16 111 -16t114 41t46 104t-42 100t-123 37t-163 -37l-59 33l37 369h424v-113h-324l-14 -158q49 12 108 13q121 0 199 -66q78 -67 78 -177z" />
    <glyph glyph-name="seveneighths" unicode="&#x215e;" horiz-adv-x="1628" 
d="M1061 209q1 -49 43 -83t109 -34t109 34t42 83t-43 84t-109 35t-108 -35t-43 -84zM1212 422q55 0 96 32q40 32 40 81t-39 79t-97 29q-58 0 -96 -30q-37 -31 -37 -79t39 -80t94 -32zM1212 -16q-126 0 -204 60t-78 132t44 126q44 52 128 77q-154 43 -154 172q0 82 75 139
q75 58 189 58t190 -58q77 -58 77 -139q0 -127 -156 -172q84 -25 129 -78t45 -125t-79 -132t-206 -60zM1182 1284q-406 -639 -797 -1313l-86 56q18 29 95 151q454 722 702 1161zM246 1212v-141h-109v244h512l31 -66l-311 -676h-136l306 639h-293z" />
    <glyph glyph-name="minus" unicode="&#x2212;" horiz-adv-x="892" 
d="M94 489v152h705v-152h-705z" />
    <glyph glyph-name="Q.alt" horiz-adv-x="1583" 
d="M793 145q82 0 159 23l-145 229l141 88l152 -239q186 147 186 428q0 227 -139 377q-139 149 -354 149t-356 -149q-140 -150 -140 -377q1 -227 141 -378t355 -151zM106 675q0 297 195 497t493 200t490 -201t193 -497q0 -176 -76 -327t-209 -245l154 -243l-142 -86l-160 250
q-131 -47 -258 -48q-296 0 -488 201t-192 499z" />
    <glyph glyph-name="a.sc" horiz-adv-x="1206" 
d="M600 918l-154 -433h310zM283 1055h641v-150h-148l279 -755h121v-150h-455v147h156l-70 195h-412l-69 -195h155v-147h-450v150h123l276 755h-147v150z" />
    <glyph glyph-name="b.sc" horiz-adv-x="1097" 
d="M610 0h-524v150h168v755h-168v150h506q190 0 286 -76t95 -197q0 -182 -191 -239q221 -59 222 -250q0 -135 -102 -214t-292 -79zM430 600h160q100 0 152 42t52 115t-52 113q-54 40 -152 39h-160v-309zM430 147h184q98 0 154 43q55 43 55 119q0 160 -223 160h-170v-322z
" />
    <glyph glyph-name="c.sc" horiz-adv-x="1153" 
d="M84 530q0 238 160 396t401 157q172 0 290 -84t118 -190q0 -59 -34 -96t-88 -37t-87 31t-33 79t29 72q-70 66 -218 66t-251 -111q-105 -111 -105 -284t104 -283t275 -108q170 0 309 143l109 -119q-168 -184 -421 -184q-254 0 -406 157t-152 395z" />
    <glyph glyph-name="d.sc" horiz-adv-x="1239" 
d="M535 0h-449v150h168v755h-168v150h461q283 1 445 -139t163 -382t-161 -388t-459 -146zM430 150h129q203 0 311 104t107 280q0 176 -115 274q-115 97 -315 97h-117v-755z" />
    <glyph glyph-name="e.sc" horiz-adv-x="1058" 
d="M950 0h-864v150h168v755h-168v150h864v-336h-164v190h-356v-309h326v-143h-326v-310h356v185h164v-332z" />
    <glyph glyph-name="f.sc" horiz-adv-x="1015" 
d="M608 0h-522v150h168v755h-168v150h860v-336h-166v190h-350v-321h320v-144h-320v-294h178v-150z" />
    <glyph glyph-name="g.sc" horiz-adv-x="1210" 
d="M624 926q-148 0 -253 -112t-105 -285t106 -285t260 -113q153 0 265 78v188h-272v144h444v-541h-168v76q-131 -98 -303 -99q-210 0 -362 152q-152 151 -152 397t162 402t403 155q178 0 297 -83t119 -185q0 -59 -34 -96t-87 -37t-87 31t-34 76t25 73q-76 64 -224 64z" />
    <glyph glyph-name="h.sc" horiz-adv-x="1370" 
d="M86 0v150h168v755h-168v150h516v-150h-172v-303h510v303h-172v150h516v-150h-168v-755h168v-150h-516v150h172v303h-510v-303h172v-150h-516z" />
    <glyph glyph-name="i.sc" horiz-adv-x="696" 
d="M610 0h-524v150h174v755h-174v150h524v-150h-174v-755h174v-150z" />
    <glyph glyph-name="j.sc" horiz-adv-x="944" 
d="M385 135q176 0 176 234v536h-176v150h508v-150h-158v-538q0 -199 -95 -294q-96 -95 -244 -95t-246 79q-98 80 -99 197q0 63 36 103t86 40q50 -1 84 -33t34 -85t-49 -78q37 -66 143 -66z" />
    <glyph glyph-name="k.sc" horiz-adv-x="1220" 
d="M1176 150v-150h-279l-313 469l-152 -143v-176h166v-150h-512v150h170v755h-170v150h494v-146h-148v-397l408 397h-144v146h467v-150h-123l-327 -321l297 -434h166z" />
    <glyph glyph-name="l.sc" horiz-adv-x="1001" 
d="M780 150v198h166v-348h-860v150h168v755h-168v150h520v-150h-176v-755h350z" />
    <glyph glyph-name="m.sc" horiz-adv-x="1529" 
d="M1423 1055v-150h-168l35 -755h168v-150h-512v150h166l-22 610l-308 -588h-39l-311 588l-22 -610h172v-150h-512v150h170l32 755h-168v150h342l324 -613l315 613h338z" />
    <glyph glyph-name="n.sc" horiz-adv-x="1345" 
d="M952 905h-166v150h504v-150h-170v-911h-116l-580 762v-606h162v-150h-500v150h168v755h-168v150h320l546 -713v563z" />
    <glyph glyph-name="o.sc" horiz-adv-x="1263" 
d="M633 137q160 0 263 109q103 108 103 282t-103 284t-264 110t-263 -109q-103 -109 -103 -284t104 -283t263 -109zM632 1083q244 -1 396 -159t152 -394t-153 -394t-397 -159q-244 0 -394 159q-152 159 -152 394t152 394t396 159z" />
    <glyph glyph-name="p.sc" horiz-adv-x="1036" 
d="M577 504q90 0 152 56q61 56 61 148t-64 145q-65 52 -167 52h-129v-397q57 -4 147 -4zM86 1055h475q176 0 293 -93t117 -256t-116 -256t-308 -94q-86 0 -117 2v-208h174v-150h-518v150h168v755h-168v150z" />
    <glyph glyph-name="q.sc" horiz-adv-x="1263" 
d="M632 137q157 0 262 111q105 110 105 282t-103 282t-264 110t-263 -109q-103 -109 -103 -284t104 -283t262 -109zM1030 -233q-56 0 -114 18q-58 19 -85 33t-83 54t-68 46q-63 45 -145 62q-190 43 -297 155q-154 154 -154 392q0 237 153 397t395 160t396 -160
q152 -158 152 -392q0 -186 -98 -327t-265 -193q12 -4 51 -28q90 -58 154 -58t139 60l86 -133q-88 -86 -217 -86z" />
    <glyph glyph-name="q.sc_alt" horiz-adv-x="1263" 
d="M999 520q0 182 -103 292t-264 110t-263 -109q-103 -109 -103 -284t104 -283t261 -109q61 0 106 15l-102 163l131 84l111 -174q122 113 122 295zM1180 532q0 -139 -56 -257t-157 -193l112 -174l-133 -84l-119 184q-98 -31 -196 -31q-243 0 -395 159t-152 394
q0 234 153 394t395 160t396 -160q152 -159 152 -392z" />
    <glyph glyph-name="r.sc" horiz-adv-x="1134" 
d="M430 150h162v-150h-506v150h168v755h-168v150h489q189 0 303 -83t113 -237q0 -98 -55 -173t-148 -113l166 -299h152v-150h-281l-209 406q-85 -9 -186 -3v-253zM565 905h-135v-350q92 -6 139 -6q111 0 177 49t67 133q0 84 -65 129q-66 45 -183 45z" />
    <glyph glyph-name="s.sc" horiz-adv-x="993" 
d="M769 723q-52 -1 -85 31t-33 72t19 67q-60 43 -160 43t-154 -38t-53 -100q0 -62 52 -98q80 -55 171 -77q236 -84 303 -154q68 -70 68 -176q0 -152 -111 -234q-112 -82 -286 -82t-292 76t-118 178q0 59 31 93t84 34t87 -32t34 -72q0 -41 -21 -76q67 -53 183 -53
q234 0 235 154q0 69 -76 109q-55 31 -142 60q-87 30 -127 45q-128 48 -169 91q-86 90 -84 194q0 135 105 220q104 85 272 85q168 1 274 -69t107 -172q0 -53 -31 -86t-83 -33z" />
    <glyph glyph-name="t.sc" horiz-adv-x="1110" 
d="M293 0v150h174v759h-236v-204h-163v350h974v-350h-163v204h-236v-759h174v-150h-524z" />
    <glyph glyph-name="u.sc" horiz-adv-x="1265" 
d="M391 905v-510q0 -127 65 -197q66 -70 180 -71q114 0 178 69t65 195v514h-166v150h499v-150h-159v-504q0 -207 -113 -317q-112 -110 -308 -109q-196 0 -306 108t-111 312v510h-160v150h500v-150h-164z" />
    <glyph glyph-name="v.sc" horiz-adv-x="1169" 
d="M20 905v150h463v-150h-151l258 -663l258 663h-152v150h453v-150h-123l-381 -919h-121l-379 919h-125z" />
    <glyph glyph-name="w.sc" horiz-adv-x="1634" 
d="M25 905v150h487v-150h-160l183 -626l245 643h86l246 -643l184 626h-163v150h477v-150h-140l-284 -923h-123l-246 643l-248 -643h-120l-285 923h-139z" />
    <glyph glyph-name="x.sc" horiz-adv-x="1202" 
d="M1157 152v-152h-475v147h143l-233 297l-227 -297h153v-147h-473v152h135l312 389l-293 364h-138v150h469v-146h-133l209 -274l207 274h-133v146h461v-150h-146l-288 -364l317 -389h133z" />
    <glyph glyph-name="y.sc" horiz-adv-x="1095" 
d="M1083 1055v-150h-125l-323 -514v-241h174v-150h-522v150h172v241l-322 514h-125v150h463v-146h-149l227 -379l227 379h-153v146h456z" />
    <glyph glyph-name="z.sc" horiz-adv-x="1046" 
d="M88 0v100l625 811h-445v-198h-153v342h843v-99l-622 -811h471v197h154v-342h-873z" />
    <glyph glyph-name="aacute.sc" horiz-adv-x="1206" 
d="M600 918l-154 -433h310zM832 1575q44 0 72 -27q26 -28 26 -76t-66 -92l-309 -194l-51 57l237 279q47 53 91 53zM283 1055h641v-150h-148l279 -755h121v-150h-455v147h156l-70 195h-412l-69 -195h155v-147h-450v150h123l276 755h-147v150z" />
    <glyph glyph-name="abreve.sc" horiz-adv-x="1206" 
d="M600 918l-154 -433h310zM597 1204q-120 0 -213 80t-134 232l117 47q37 -93 98 -143t131 -50q152 0 231 193l117 -47q-41 -152 -134 -232t-213 -80zM283 1055h641v-150h-148l279 -755h121v-150h-455v147h156l-70 195h-412l-69 -195h155v-147h-450v150h123l276 755h-147
v150z" />
    <glyph glyph-name="acircumflex.sc" horiz-adv-x="1206" 
d="M600 918l-154 -433h310zM342 1186l-78 88l336 328l336 -328l-78 -88l-258 192zM283 1055h641v-150h-148l279 -755h121v-150h-455v147h156l-70 195h-412l-69 -195h155v-147h-450v150h123l276 755h-147v150z" />
    <glyph glyph-name="adieresis.sc" horiz-adv-x="1206" 
d="M406 1217q-53 0 -92 37q-38 38 -38 92t39 93q39 38 93 38t91 -38q38 -38 38 -92t-39 -92t-92 -38zM791 1217q-53 0 -92 37q-37 38 -37 92t38 93q38 38 92 38t92 -38t38 -92t-39 -92t-92 -38zM600 918l-154 -433h310zM283 1055h641v-150h-148l279 -755h121v-150h-455v147
h156l-70 195h-412l-69 -195h155v-147h-450v150h123l276 755h-147v150z" />
    <glyph glyph-name="ae.sc" horiz-adv-x="1490" 
d="M686 489v416h-31l-211 -416h242zM522 0v147h164v199h-313l-101 -199h148v-147h-432v150h110l391 755h-139v150h1032v-336h-163v190h-357v-309h326v-143h-326v-310h357v185h163v-332h-860z" />
    <glyph glyph-name="aeacute.sc" horiz-adv-x="1490" 
d="M686 489v416h-31l-211 -416h242zM1040 1575q44 0 70 -27q26 -28 27 -76q0 -48 -66 -92l-309 -194l-51 57l237 279q48 53 92 53zM522 0v147h164v199h-313l-101 -199h148v-147h-432v150h110l391 755h-139v150h1032v-336h-163v190h-357v-309h326v-143h-326v-310h357v185h163
v-332h-860z" />
    <glyph glyph-name="agrave.sc" horiz-adv-x="1206" 
d="M600 918l-154 -433h310zM268 1474q0 48 27 74t71 27q44 0 91 -53l237 -279l-51 -57l-307 194q-68 46 -68 94zM283 1055h641v-150h-148l279 -755h121v-150h-455v147h156l-70 195h-412l-69 -195h155v-147h-450v150h123l276 755h-147v150z" />
    <glyph glyph-name="amacron.sc" horiz-adv-x="1206" 
d="M600 918l-154 -433h310zM276 1251v154h648v-154h-648zM283 1055h641v-150h-148l279 -755h121v-150h-455v147h156l-70 195h-412l-69 -195h155v-147h-450v150h123l276 755h-147v150z" />
    <glyph glyph-name="aogonek.sc" horiz-adv-x="1206" 
d="M600 918l-154 -433h310zM977 -412q-109 0 -166 54t-57 145q0 123 118 213h-151v147h156l-70 195h-412l-69 -195h155v-147h-450v150h123l276 755h-147v150h641v-150h-148l279 -755h121v-150h-146q-125 -72 -125 -172t111 -100q76 0 153 39l-8 -134q-75 -45 -184 -45z" />
    <glyph glyph-name="aring.sc" horiz-adv-x="1206" 
d="M600 1063q49 0 80 35t31 86t-31 87t-80 36t-80 -36t-31 -87t31 -86t80 -35zM600 918l-154 -433h310zM481 0h-450v150h123l276 755h-147v150h114q-43 59 -43 145t72 157t174 71t174 -72q72 -70 72 -172q0 -68 -41 -129h119v-150h-148l279 -755h121v-150h-455v147h156
l-70 195h-412l-69 -195h155v-147z" />
    <glyph glyph-name="aringacute.sc" horiz-adv-x="1206" 
d="M600 1063q49 0 80 35t31 86t-31 87t-80 36t-80 -36t-31 -87t31 -86t80 -35zM600 918l-154 -433h310zM832 1892q44 0 72 -26q26 -26 26 -76q0 -49 -66 -92l-309 -195l-51 58l237 278q47 53 91 53zM481 0h-450v150h123l276 755h-147v150h114q-43 59 -43 145t72 157t174 71
t174 -72q72 -70 72 -172q0 -68 -41 -129h119v-150h-148l279 -755h121v-150h-455v147h156l-70 195h-412l-69 -195h155v-147z" />
    <glyph glyph-name="atilde.sc" horiz-adv-x="1206" 
d="M600 918l-154 -433h310zM751 1206q-87 0 -167 68t-121 69q-72 0 -98 -124l-129 30q12 119 74 194t150 75t173 -76q74 -61 112 -62q74 0 101 125l127 -30q-11 -119 -73 -194t-149 -75zM283 1055h641v-150h-148l279 -755h121v-150h-455v147h156l-70 195h-412l-69 -195h155
v-147h-450v150h123l276 755h-147v150z" />
    <glyph glyph-name="cacute.sc" horiz-adv-x="1159" 
d="M84 530q0 238 160 396t401 157q172 0 290 -84t118 -190q0 -59 -34 -96t-88 -37t-87 31t-33 79t29 72q-70 66 -218 66t-251 -111q-105 -111 -105 -284t104 -283t275 -108q170 0 309 143l109 -119q-168 -184 -421 -184q-254 0 -406 157t-152 395zM845 1575q45 0 71 -27
q26 -28 26 -76t-65 -92l-310 -194l-51 57l238 279q47 53 91 53z" />
    <glyph glyph-name="ccaron.sc" horiz-adv-x="1159" 
d="M84 530q0 238 160 396t401 157q172 0 290 -84t118 -190q0 -59 -34 -96t-88 -37t-87 31t-33 79t29 72q-70 66 -218 66t-251 -111q-105 -111 -105 -284t104 -283t275 -108q170 0 309 143l109 -119q-168 -184 -421 -184q-254 0 -406 157t-152 395zM868 1595l78 -90
l-336 -325l-336 325l78 90l258 -192z" />
    <glyph glyph-name="ccedilla.sc" horiz-adv-x="1167" 
d="M86 543q0 225 160 383t401 157q172 0 290 -84t118 -190q0 -59 -34 -96t-88 -37t-87 31t-33 79t29 72q-70 66 -218 66t-251 -111q-105 -111 -105 -284t104 -283t275 -109q170 0 309 144l109 -119q-168 -184 -430 -185h-14l2 -71q94 -8 148 -51t54 -107t-58 -112
q-59 -46 -173 -46t-223 64l32 67q91 -41 177 -41t86 58q0 57 -113 57l-33 -2l-39 39l54 154q-205 32 -327 182t-122 375z" />
    <glyph glyph-name="cdotaccent.sc" horiz-adv-x="1159" 
d="M610 1202q-53 0 -91 39t-38 93t39 93t92 39q52 0 92 -39t40 -93t-41 -93q-40 -39 -93 -39zM84 530q0 238 160 396t401 157q172 0 290 -84t118 -190q0 -59 -34 -96t-88 -37t-87 31t-33 79t29 72q-70 66 -218 66t-251 -111q-105 -111 -105 -284t104 -283t275 -108
q170 0 309 143l109 -119q-168 -184 -421 -184q-254 0 -406 157t-152 395z" />
    <glyph glyph-name="dcaron.sc" horiz-adv-x="1241" 
d="M846 1595l78 -90l-336 -325l-336 325l78 90l258 -192zM537 0h-449v150h168v755h-168v150h461q283 1 445 -139t163 -382t-161 -388t-459 -146zM432 150h129q203 0 311 104t107 280q0 176 -115 274q-115 97 -315 97h-117v-755z" />
    <glyph glyph-name="dcroat.sc" horiz-adv-x="1245" 
d="M434 150h129q203 0 309 104t106 280t-114 274q-115 97 -313 97h-117v-299h230v-149h-230v-307zM539 0h-451v150h168v307h-137v149h137v299h-168v150h463q281 1 443 -139t163 -382t-161 -388t-457 -146z" />
    <glyph glyph-name="eacute.sc" horiz-adv-x="1060" 
d="M952 0h-864v150h168v755h-168v150h864v-336h-164v190h-356v-309h326v-143h-326v-310h356v185h164v-332zM763 1575q44 0 71 -27q26 -28 26 -76t-65 -92l-310 -194l-51 57l238 279q47 53 91 53z" />
    <glyph glyph-name="ebreve.sc" horiz-adv-x="1060" 
d="M527 1204q-120 0 -213 80t-134 232l117 47q37 -93 98 -143t131 -50q152 0 232 193l116 -47q-41 -152 -134 -232t-213 -80zM952 0h-864v150h168v755h-168v150h864v-336h-164v190h-356v-309h326v-143h-326v-310h356v185h164v-332z" />
    <glyph glyph-name="ecaron.sc" horiz-adv-x="1060" 
d="M952 0h-864v150h168v755h-168v150h864v-336h-164v190h-356v-309h326v-143h-326v-310h356v185h164v-332zM786 1595l78 -90l-336 -325l-335 325l77 90l258 -192z" />
    <glyph glyph-name="ecircumflex.sc" horiz-adv-x="1060" 
d="M952 0h-864v150h168v755h-168v150h864v-336h-164v190h-356v-309h326v-143h-326v-310h356v185h164v-332zM270 1186l-77 88l335 328l336 -328l-78 -88l-258 192z" />
    <glyph glyph-name="edieresis.sc" horiz-adv-x="1060" 
d="M952 0h-864v150h168v755h-168v150h864v-336h-164v190h-356v-309h326v-143h-326v-310h356v185h164v-332zM336 1217q-53 -1 -91 37t-38 92t39 93q39 38 92 38t91 -38t38 -92t-39 -92t-92 -38zM721 1217q-53 -1 -91 37t-38 92t39 93q39 38 92 38t91 -38t38 -92t-39 -92
t-92 -38z" />
    <glyph glyph-name="edotaccent.sc" horiz-adv-x="1060" 
d="M952 0h-864v150h168v755h-168v150h864v-336h-164v190h-356v-309h326v-143h-326v-310h356v185h164v-332zM528 1202q-53 0 -91 39t-38 93t39 93t92 39q52 0 92 -39t40 -93t-40 -93t-94 -39z" />
    <glyph glyph-name="egrave.sc" horiz-adv-x="1060" 
d="M952 0h-864v150h168v755h-168v150h864v-336h-164v190h-356v-309h326v-143h-326v-310h356v185h164v-332zM296 1575q44 0 91 -53l238 -279l-52 -57l-307 194q-68 46 -68 94t28 74q26 26 70 27z" />
    <glyph glyph-name="emacron.sc" horiz-adv-x="1060" 
d="M952 0h-864v150h168v755h-168v150h864v-336h-164v190h-356v-309h326v-143h-326v-310h356v185h164v-332zM205 1251v154h647v-154h-647z" />
    <glyph glyph-name="eogonek.sc" horiz-adv-x="1060" 
d="M952 0h-139q-125 -72 -125 -172t111 -100q76 0 153 39l-8 -134q-76 -45 -184 -45t-166 54q-57 54 -57 145q0 123 118 213h-567v150h168v755h-168v150h864v-336h-164v190h-356v-309h326v-143h-326v-310h356v185h164v-332z" />
    <glyph glyph-name="eth.sc" horiz-adv-x="1245" 
d="M434 150h129q203 0 309 104t106 280t-114 274q-115 97 -313 97h-117v-299h230v-149h-230v-307zM539 0h-451v150h168v307h-137v149h137v299h-168v150h463q281 1 443 -139t163 -382t-161 -388t-457 -146z" />
    <glyph glyph-name="gbreve.sc" horiz-adv-x="1206" 
d="M626 1204q-120 0 -213 80t-134 232l116 47q37 -93 99 -143t131 -50q152 0 231 193l117 -47q-41 -152 -134 -232t-213 -80zM624 926q-148 0 -253 -112t-105 -285t106 -285t260 -113q153 0 265 78v188h-272v144h444v-541h-168v76q-131 -98 -303 -99q-210 0 -362 152
q-152 151 -152 397t162 402t403 155q178 0 297 -83t119 -185q0 -59 -34 -96t-87 -37t-87 31t-34 76t25 73q-76 64 -224 64z" />
    <glyph glyph-name="gcommaaccent.sc" horiz-adv-x="1206" 
d="M624 926q-148 0 -253 -112t-105 -285t106 -285t260 -113q153 0 265 78v188h-272v144h444v-541h-168v76q-131 -98 -303 -99q-210 0 -362 152q-152 151 -152 397t162 402t403 155q178 0 297 -83t119 -185q0 -59 -34 -96t-87 -37t-87 31t-34 76t25 73q-76 64 -224 64z
M510 -227q0 45 34 77t85 33q51 0 87 -39q36 -40 36 -116t-65 -172t-204 -172l-41 55q154 121 162 217q-42 10 -68 41t-26 76z" />
    <glyph glyph-name="gdotaccent.sc" horiz-adv-x="1206" 
d="M627 1202q-53 0 -91 39t-38 93t39 93t92 39t92 -39t39 -93t-40 -93t-93 -39zM624 926q-148 0 -253 -112t-105 -285t106 -285t260 -113q153 0 265 78v188h-272v144h444v-541h-168v76q-131 -98 -303 -99q-210 0 -362 152q-152 151 -152 397t162 402t403 155q178 0 297 -83
t119 -185q0 -59 -34 -96t-87 -37t-87 31t-34 76t25 73q-76 64 -224 64z" />
    <glyph glyph-name="hbar.sc" horiz-adv-x="1376" 
d="M434 578h508v104h-508v-104zM1243 807v-129h-125v-528h170v-150h-518v150h172v292h-508v-292h170v-150h-516v150h168v528h-125v129h125v98h-168v150h516v-146h-170v-108h508v108h-172v146h518v-150h-170v-98h125z" />
    <glyph glyph-name="iacute.sc" horiz-adv-x="700" 
d="M612 0h-524v150h174v755h-174v150h524v-150h-174v-755h174v-150zM580 1575q44 0 72 -27q26 -28 26 -76t-66 -92l-309 -194l-51 57l237 279q47 53 91 53z" />
    <glyph glyph-name="ibreve.sc" horiz-adv-x="700" 
d="M349 1204q-120 0 -213 80t-134 232l117 47q37 -93 98 -143t131 -50q152 0 232 193l116 -47q-41 -152 -134 -232t-213 -80zM612 0h-524v150h174v755h-174v150h524v-150h-174v-755h174v-150z" />
    <glyph glyph-name="icircumflex.sc" horiz-adv-x="700" 
d="M612 0h-524v150h174v755h-174v150h524v-150h-174v-755h174v-150zM92 1186l-78 88l336 328l336 -328l-78 -88l-258 192z" />
    <glyph glyph-name="idieresis.sc" horiz-adv-x="700" 
d="M612 0h-524v150h174v755h-174v150h524v-150h-174v-755h174v-150zM158 1217q-53 -1 -91 37t-38 92t39 93q39 38 92 38t91 -38t38 -92t-39 -92t-92 -38zM543 1217q-53 -1 -91 37t-38 92t39 93q39 38 92 38t91 -38t38 -92t-39 -92t-92 -38z" />
    <glyph glyph-name="idotaccent.sc" horiz-adv-x="700" 
d="M346 1202q-53 0 -91 39t-38 93t39 93t92 39t92 -39t39 -93t-40 -93t-93 -39zM612 0h-524v150h174v755h-174v150h524v-150h-174v-755h174v-150z" />
    <glyph glyph-name="dotlessi.sc" horiz-adv-x="700" 
d="M612 0h-524v150h174v755h-174v150h524v-150h-174v-755h174v-150z" />
    <glyph glyph-name="igrave.sc" horiz-adv-x="700" 
d="M20 1474q0 48 27 74t71 27q44 0 91 -53l237 -279l-51 -57l-307 194q-68 46 -68 94zM612 0h-524v150h174v755h-174v150h524v-150h-174v-755h174v-150z" />
    <glyph glyph-name="imacron.sc" horiz-adv-x="700" 
d="M27 1251v154h647v-154h-647zM612 0h-524v150h174v755h-174v150h524v-150h-174v-755h174v-150z" />
    <glyph glyph-name="iogonek.sc" horiz-adv-x="700" 
d="M358 -412q-110 0 -166 54t-57 145q0 123 119 213h-166v150h174v755h-174v150h524v-150h-174v-755h174v-150h-200q-125 -72 -125 -172t110 -100q76 0 154 39l-8 -134q-76 -45 -185 -45z" />
    <glyph glyph-name="kcommaaccent.sc" horiz-adv-x="1224" 
d="M1178 150v-150h-279l-313 469l-152 -143v-176h166v-150h-512v150h170v755h-170v150h494v-146h-148v-397l408 397h-144v146h467v-150h-123l-327 -321l297 -434h166zM516 -227q0 45 34 77t85 33q51 0 87 -39q36 -40 36 -116t-65 -172t-204 -172l-40 55q154 121 161 217
q-42 10 -68 41t-26 76z" />
    <glyph glyph-name="lacute.sc" horiz-adv-x="1003" 
d="M319 1174l-51 57l238 278q47 53 91 53t71 -26q26 -27 26 -76t-65 -92zM782 150v198h166v-348h-860v150h168v755h-168v150h520v-150h-176v-755h350z" />
    <glyph glyph-name="lcaron.sc" horiz-adv-x="1003" 
d="M737 836q0 34 -13 80t-13 85t28 72q29 33 78 33t77 -33t28 -88q0 -197 -207 -412l-58 43q80 117 80 220zM782 150v198h166v-348h-860v150h168v755h-168v150h520v-150h-176v-755h350z" />
    <glyph glyph-name="lcommaaccent.sc" horiz-adv-x="1003" 
d="M399 -227q0 45 34 77t85 33q51 0 87 -39q36 -40 36 -116q-1 -76 -65 -172t-203 -172l-41 55q154 121 162 217q-41 10 -68 41t-27 76zM782 150v198h166v-348h-860v150h168v755h-168v150h520v-150h-176v-755h350z" />
    <glyph glyph-name="ldot.sc" horiz-adv-x="1003" 
d="M844 477q-53 0 -91 39t-38 93t39 93t92 39t92 -39t39 -93t-40 -93t-93 -39zM782 150v198h166v-348h-860v150h168v755h-168v150h520v-150h-176v-755h350z" />
    <glyph glyph-name="lslash.sc" horiz-adv-x="1011" 
d="M788 150v198h166v-348h-860v150h168v247l-160 -78l-65 127l225 111v348h-168v150h520v-150h-176v-262l234 115l61 -127l-295 -146v-335h350z" />
    <glyph glyph-name="nacute.sc" horiz-adv-x="1353" 
d="M952 905h-166v150h504v-150h-170v-911h-116l-580 762v-606h162v-150h-500v150h168v755h-168v150h320l546 -713v563zM910 1575q44 0 72 -27q26 -28 26 -76t-66 -92l-309 -194l-51 57l237 279q47 53 91 53z" />
    <glyph glyph-name="ncaron.sc" horiz-adv-x="1353" 
d="M952 905h-166v150h504v-150h-170v-911h-116l-580 762v-606h162v-150h-500v150h168v755h-168v150h320l546 -713v563zM934 1595l78 -90l-336 -325l-336 325l78 90l258 -192z" />
    <glyph glyph-name="ncommaaccent.sc" horiz-adv-x="1353" 
d="M952 905h-166v150h504v-150h-170v-911h-116l-580 762v-606h162v-150h-500v150h168v755h-168v150h320l546 -713v563zM559 -227q0 45 34 77t85 33q51 0 87 -39q36 -40 36 -116t-65 -172t-204 -172l-40 55q154 121 161 217q-41 10 -67 41t-27 76z" />
    <glyph glyph-name="ntilde.sc" horiz-adv-x="1353" 
d="M827 1206q-87 0 -167 68t-121 69q-72 0 -99 -124l-129 30q13 119 75 194t150 75t173 -76q74 -61 112 -62q74 0 101 125l127 -30q-11 -119 -73 -194t-149 -75zM952 905h-166v150h504v-150h-170v-911h-116l-580 762v-606h162v-150h-500v150h168v755h-168v150h320l546 -713
v563z" />
    <glyph glyph-name="oacute.sc" horiz-adv-x="1263" 
d="M865 1575q44 0 71 -27q27 -28 27 -76t-66 -92l-309 -194l-51 57l237 279q47 53 91 53zM633 137q160 0 263 109q103 108 103 282t-103 284t-264 110t-263 -109q-103 -109 -103 -284t104 -283t263 -109zM632 1083q244 -1 396 -159t152 -394t-153 -394t-397 -159
q-244 0 -394 159q-152 159 -152 394t152 394t396 159z" />
    <glyph glyph-name="obreve.sc" horiz-adv-x="1263" 
d="M632 1204q-120 0 -213 80t-134 232l116 47q37 -93 99 -143t131 -50q152 0 231 193l117 -47q-41 -152 -134 -232t-213 -80zM633 137q160 0 263 109q103 108 103 282t-103 284t-264 110t-263 -109q-103 -109 -103 -284t104 -283t263 -109zM632 1083q244 -1 396 -159
t152 -394t-153 -394t-397 -159q-244 0 -394 159q-152 159 -152 394t152 394t396 159z" />
    <glyph glyph-name="ocircumflex.sc" horiz-adv-x="1263" 
d="M633 137q160 0 263 109q103 108 103 282t-103 284t-264 110t-263 -109q-103 -109 -103 -284t104 -283t263 -109zM632 1083q244 -1 396 -159t152 -394t-153 -394t-397 -159q-244 0 -394 159q-152 159 -152 394t152 394t396 159zM375 1186l-78 88l336 328l336 -328l-78 -88
l-258 192z" />
    <glyph glyph-name="odieresis.sc" horiz-adv-x="1263" 
d="M633 137q160 0 263 109q103 108 103 282t-103 284t-264 110t-263 -109q-103 -109 -103 -284t104 -283t263 -109zM632 1083q244 -1 396 -159t152 -394t-153 -394t-397 -159q-244 0 -394 159q-152 159 -152 394t152 394t396 159zM440 1217q-53 -1 -91 37t-38 92t39 93
q39 38 92 38q54 0 92 -38t38 -92t-40 -92q-39 -38 -92 -38zM825 1217q-53 -1 -91 37t-38 92t39 93q39 38 92 38t91 -38t38 -92t-38 -93q-40 -37 -93 -37z" />
    <glyph glyph-name="oe.sc" horiz-adv-x="1574" 
d="M698 1055h766v-336h-164v190h-354v-309h326v-143h-326v-310h357v185h163v-332h-780q-280 0 -440 142t-160 384t162 386t450 143zM770 150v755h-92q-194 0 -304 -101q-110 -100 -110 -276t110 -277t306 -101h90z" />
    <glyph glyph-name="ograve.sc" horiz-adv-x="1263" 
d="M303 1474q0 48 27 74q26 26 70 27q44 0 92 -53l237 -279l-51 -57l-307 194q-68 46 -68 94zM633 137q160 0 263 109q103 108 103 282t-103 284t-264 110t-263 -109q-103 -109 -103 -284t104 -283t263 -109zM632 1083q244 -1 396 -159t152 -394t-153 -394t-397 -159
q-244 0 -394 159q-152 159 -152 394t152 394t396 159z" />
    <glyph glyph-name="ohungarumlaut.sc" horiz-adv-x="1263" 
d="M1144 1563q42 0 66 -27t25 -66q0 -66 -86 -106l-373 -170l-35 61l312 265q49 43 91 43zM698 1569q43 0 70 -27t27 -65q0 -63 -84 -107l-349 -180l-40 59l282 271q51 49 94 49zM633 137q160 0 263 109q103 108 103 282t-103 284t-264 110t-263 -109q-103 -109 -103 -284
t104 -283t263 -109zM632 1083q244 -1 396 -159t152 -394t-153 -394t-397 -159q-244 0 -394 159q-152 159 -152 394t152 394t396 159z" />
    <glyph glyph-name="omacron.sc" horiz-adv-x="1263" 
d="M309 1251v154h647v-154h-647zM633 137q160 0 263 109q103 108 103 282t-103 284t-264 110t-263 -109q-103 -109 -103 -284t104 -283t263 -109zM632 1083q244 -1 396 -159t152 -394t-153 -394t-397 -159q-244 0 -394 159q-152 159 -152 394t152 394t396 159z" />
    <glyph glyph-name="oslash.sc" horiz-adv-x="1269" 
d="M633 137q162 0 265 109t103 284q0 135 -67 236l-506 -569q88 -60 205 -60zM268 546q0 -158 70 -259l506 571q-92 63 -209 64q-163 0 -265 -109t-102 -267zM633 -23q-174 0 -311 89l-123 -142l-117 101l127 141q-123 152 -123 376t153 382q153 160 396 159q180 0 317 -94
l129 150l117 -103l-137 -149q121 -153 121 -373t-152 -378t-397 -159z" />
    <glyph glyph-name="oslashacute.sc" horiz-adv-x="1269" 
d="M874 1575q44 0 70 -27q26 -28 27 -76q0 -48 -66 -92l-309 -194l-51 57l237 279q48 53 92 53zM633 137q162 0 265 109t103 284q0 135 -67 236l-506 -569q88 -60 205 -60zM268 546q0 -158 70 -259l506 571q-92 63 -209 64q-163 0 -265 -109t-102 -267zM633 -23
q-174 0 -311 89l-123 -142l-117 101l127 141q-123 152 -123 376t153 382q153 160 396 159q180 0 317 -94l129 150l117 -103l-137 -149q121 -153 121 -373t-152 -378t-397 -159z" />
    <glyph glyph-name="otilde.sc" horiz-adv-x="1263" 
d="M784 1206q-86 0 -166 68t-122 69q-72 0 -99 -124l-129 30q12 119 74 194t151 75q88 0 173 -76q74 -61 112 -62q74 0 101 125l127 -30q-10 -119 -72 -194t-150 -75zM633 137q160 0 263 109q103 108 103 282t-103 284t-264 110t-263 -109q-103 -109 -103 -284t104 -283
t263 -109zM632 1083q244 -1 396 -159t152 -394t-153 -394t-397 -159q-244 0 -394 159q-152 159 -152 394t152 394t396 159z" />
    <glyph glyph-name="racute.sc" horiz-adv-x="1138" 
d="M432 150h162v-150h-506v150h168v755h-168v150h490q190 0 303 -83t112 -237q0 -98 -55 -173t-147 -113l165 -299h152v-150h-281l-209 406q-85 -9 -186 -3v-253zM567 905h-135v-350q92 -6 139 -6q111 0 178 49t67 133t-66 129t-183 45zM792 1575q44 0 70 -27q26 -28 27 -76
q0 -48 -66 -92l-309 -194l-51 57l237 279q48 53 92 53z" />
    <glyph glyph-name="rcaron.sc" horiz-adv-x="1138" 
d="M432 150h162v-150h-506v150h168v755h-168v150h490q190 0 303 -83t112 -237q0 -98 -55 -173t-147 -113l165 -299h152v-150h-281l-209 406q-85 -9 -186 -3v-253zM567 905h-135v-350q92 -6 139 -6q111 0 178 49t67 133t-66 129t-183 45zM815 1595l78 -90l-336 -325l-336 325
l78 90l258 -192z" />
    <glyph glyph-name="rcommaaccent.sc" horiz-adv-x="1138" 
d="M432 150h162v-150h-506v150h168v755h-168v150h490q190 0 303 -83t112 -237q0 -98 -55 -173t-147 -113l165 -299h152v-150h-281l-209 406q-85 -9 -186 -3v-253zM567 905h-135v-350q92 -6 139 -6q111 0 178 49t67 133t-66 129t-183 45zM469 -227q0 45 34 77t85 33
q51 0 87 -39q36 -40 36 -116t-65 -172t-204 -172l-41 55q154 121 162 217q-41 10 -67 41t-27 76z" />
    <glyph glyph-name="sacute.sc" horiz-adv-x="999" 
d="M773 723q-52 -1 -85 31t-33 72t19 67q-60 43 -160 43t-154 -38t-53 -100q0 -62 52 -98q80 -55 171 -77q236 -84 304 -155t67 -175q-1 -152 -111 -234t-285 -82t-293 76t-118 178q0 59 31 93t84 34t87 -32t34 -72q0 -41 -21 -76q67 -53 183 -53q234 0 235 154
q0 69 -76 109q-55 31 -142 60q-87 30 -127 45q-128 48 -169 91q-84 88 -84 209q0 120 105 205q104 85 272 85q168 1 274 -69t107 -172q0 -53 -31 -86t-83 -33zM746 1575q44 0 72 -27q26 -28 26 -76t-66 -92l-309 -194l-51 57l237 279q47 53 91 53z" />
    <glyph glyph-name="scaron.sc" horiz-adv-x="999" 
d="M773 723q-52 -1 -85 31t-33 72t19 67q-60 43 -160 43t-154 -38t-53 -100q0 -62 52 -98q80 -55 171 -77q236 -84 304 -155t67 -175q-1 -152 -111 -234t-285 -82t-293 76t-118 178q0 59 31 93t84 34t87 -32t34 -72q0 -41 -21 -76q67 -53 183 -53q234 0 235 154
q0 69 -76 109q-55 31 -142 60q-87 30 -127 45q-128 48 -169 91q-84 88 -84 209q0 120 105 205q104 85 272 85q168 1 274 -69t107 -172q0 -53 -31 -86t-83 -33zM770 1595l78 -90l-336 -325l-336 325l78 90l258 -192z" />
    <glyph glyph-name="scedilla.sc" horiz-adv-x="1009" 
d="M336 254q0 -41 -21 -76q67 -53 183 -53q234 0 235 154q0 69 -76 109q-55 31 -142 60q-87 30 -127 45q-128 48 -169 91q-84 88 -84 209q-1 120 105 205t273 85q167 1 273 -69t107 -172q0 -53 -31 -86t-83 -33t-85 32q-32 31 -32 71t18 67q-60 43 -160 43t-153 -38
t-53 -100t52 -98t107 -55q55 -21 97 -35t80 -28t96 -45t88 -61q75 -77 73 -183q0 -147 -103 -228t-276 -88l2 -71q94 -8 148 -51t55 -107q0 -64 -58 -112q-59 -46 -173 -46t-223 64l32 67q92 -41 177 -41t85 58q0 57 -112 57l-33 -2l-39 39l53 150q-147 14 -244 86t-98 163
q0 59 31 93t84 34t87 -32t34 -72z" />
    <glyph glyph-name="scommaaccent.sc" horiz-adv-x="999" 
d="M773 723q-52 -1 -85 31t-33 72t19 67q-60 43 -160 43t-154 -38t-53 -100q0 -62 52 -98q80 -55 171 -77q236 -84 304 -155t67 -175q-1 -152 -111 -234t-285 -82t-293 76t-118 178q0 59 31 93t84 34t87 -32t34 -72q0 -41 -21 -76q67 -53 183 -53q234 0 235 154
q0 69 -76 109q-55 31 -142 60q-87 30 -127 45q-128 48 -169 91q-84 88 -84 209q0 120 105 205q104 85 272 85q168 1 274 -69t107 -172q0 -53 -31 -86t-83 -33zM397 -227q0 45 34 77t85 33q51 0 87 -39q36 -40 36 -116q-1 -76 -65 -172t-203 -172l-41 55q154 121 162 217
q-41 10 -68 41t-27 76z" />
    <glyph glyph-name="tcaron.sc" horiz-adv-x="1097" 
d="M803 1595l78 -90l-336 -325l-336 325l78 90l258 -192zM289 0v150h174v759h-236v-204h-164v350h975v-350h-164v204h-235v-759h174v-150h-524z" />
    <glyph glyph-name="tcommaaccent.sc" horiz-adv-x="1097" 
d="M430 -227q0 45 34 77t85 33q51 0 87 -39q36 -40 36 -116t-65 -172t-204 -172l-41 55q154 121 162 217q-42 10 -68 41t-26 76zM289 0v150h174v759h-236v-204h-164v350h975v-350h-164v204h-235v-759h174v-150h-524z" />
    <glyph glyph-name="thorn.sc" horiz-adv-x="1024" 
d="M578 385q100 0 155 39q55 40 55 108t-55 106t-153 38t-146 -2v-287q44 -2 144 -2zM586 819q168 0 271 -73q103 -72 103 -212t-104 -214q-106 -74 -274 -74q-90 0 -148 2v-101h172v-147h-518v150h168v755h-168v150h518v-146h-172v-92q57 2 152 2z" />
    <glyph glyph-name="uacute.sc" horiz-adv-x="1265" 
d="M391 905v-510q0 -127 65 -197q66 -70 180 -71q114 0 178 69t65 195v514h-166v150h499v-150h-159v-504q0 -207 -113 -317q-112 -110 -308 -109q-196 0 -306 108t-111 312v510h-160v150h500v-150h-164zM865 1575q44 0 71 -27q27 -28 27 -76t-66 -92l-309 -194l-51 57
l237 279q47 53 91 53z" />
    <glyph glyph-name="ubreve.sc" horiz-adv-x="1265" 
d="M630 1204q-120 0 -213 80t-134 232l116 47q37 -93 99 -143t131 -50q152 0 231 193l117 -47q-41 -152 -134 -232t-213 -80zM391 905v-510q0 -127 65 -197q66 -70 180 -71q114 0 178 69t65 195v514h-166v150h499v-150h-159v-504q0 -207 -113 -317q-112 -110 -308 -109
q-196 0 -306 108t-111 312v510h-160v150h500v-150h-164z" />
    <glyph glyph-name="ucircumflex.sc" horiz-adv-x="1265" 
d="M391 905v-510q0 -127 65 -197q66 -70 180 -71q114 0 178 69t65 195v514h-166v150h499v-150h-159v-504q0 -207 -113 -317q-112 -110 -308 -109q-196 0 -306 108t-111 312v510h-160v150h500v-150h-164zM375 1186l-78 88l336 328l336 -328l-78 -88l-258 192z" />
    <glyph glyph-name="udieresis.sc" horiz-adv-x="1265" 
d="M391 905v-510q0 -127 65 -197q66 -70 180 -71q114 0 178 69t65 195v514h-166v150h499v-150h-159v-504q0 -207 -113 -317q-112 -110 -308 -109q-196 0 -306 108t-111 312v510h-160v150h500v-150h-164zM438 1217q-53 -1 -91 37t-38 92t39 93q39 38 92 38t91 -38t38 -92
t-39 -92t-92 -38zM823 1217q-53 -1 -91 37t-38 92t39 93q39 38 92 38t91 -38t38 -92t-39 -92t-92 -38z" />
    <glyph glyph-name="ugrave.sc" horiz-adv-x="1265" 
d="M391 905v-510q0 -127 65 -197q66 -70 180 -71q114 0 178 69t65 195v514h-166v150h499v-150h-159v-504q0 -207 -113 -317q-112 -110 -308 -109q-196 0 -306 108t-111 312v510h-160v150h500v-150h-164zM301 1474q0 48 27 74q26 26 70 27q44 0 91 -53l238 -279l-51 -57
l-307 194q-68 46 -68 94z" />
    <glyph glyph-name="uhungarumlaut.sc" horiz-adv-x="1265" 
d="M391 905v-510q0 -127 65 -197q66 -70 180 -71q114 0 178 69t65 195v514h-166v150h499v-150h-159v-504q0 -207 -113 -317q-112 -110 -308 -109q-196 0 -306 108t-111 312v510h-160v150h500v-150h-164zM1142 1563q42 0 66 -27t25 -66q0 -66 -86 -106l-373 -170l-35 61
l312 265q49 43 91 43zM697 1569q42 0 69 -27t27 -65q0 -63 -84 -107l-349 -180l-41 59l283 271q53 49 95 49z" />
    <glyph glyph-name="umacron.sc" horiz-adv-x="1265" 
d="M391 905v-510q0 -127 65 -197q66 -70 180 -71q114 0 178 69t65 195v514h-166v150h499v-150h-159v-504q0 -207 -113 -317q-112 -110 -308 -109q-196 0 -306 108t-111 312v510h-160v150h500v-150h-164zM309 1251v154h647v-154h-647z" />
    <glyph glyph-name="uogonek.sc" horiz-adv-x="1265" 
d="M391 905v-510q0 -127 65 -197q66 -70 180 -71q114 0 178 69t65 195v514h-166v150h499v-150h-159v-504q1 -193 -99 -301t-272 -123q-92 -66 -92 -147q0 -102 110 -102q76 0 154 39l-8 -134q-76 -45 -184 -45t-166 54t-58 156t99 186q-154 23 -238 128t-84 283v510h-160
v150h500v-150h-164z" />
    <glyph glyph-name="uring.sc" horiz-adv-x="1265" 
d="M391 905v-510q0 -127 65 -197q66 -70 180 -71q114 0 178 69t65 195v514h-166v150h499v-150h-159v-504q0 -207 -113 -317q-112 -110 -308 -109q-196 0 -306 108t-111 312v510h-160v150h500v-150h-164zM632 1292q48 0 79 36t30 87q0 51 -30 86q-31 35 -79 35t-80 -36
t-32 -86t32 -86t80 -36zM631 1171q-102 0 -174 71t-72 172t72 172t174 71t174 -71t72 -172t-72 -172t-174 -71z" />
    <glyph glyph-name="wacute.sc" horiz-adv-x="1634" 
d="M1050 1575q44 0 70 -27q26 -28 27 -76q0 -48 -66 -92l-309 -194l-51 57l237 279q48 53 92 53zM25 905v150h487v-150h-160l183 -626l245 643h86l246 -643l184 626h-163v150h477v-150h-140l-284 -923h-123l-246 643l-248 -643h-120l-285 923h-139z" />
    <glyph glyph-name="wcircumflex.sc" horiz-adv-x="1634" 
d="M25 905v150h487v-150h-160l183 -626l245 643h86l246 -643l184 626h-163v150h477v-150h-140l-284 -923h-123l-246 643l-248 -643h-120l-285 923h-139zM559 1186l-78 88l336 328l336 -328l-78 -88l-258 192z" />
    <glyph glyph-name="wdieresis.sc" horiz-adv-x="1634" 
d="M25 905v150h487v-150h-160l183 -626l245 643h86l246 -643l184 626h-163v150h477v-150h-140l-284 -923h-123l-246 643l-248 -643h-120l-285 923h-139zM625 1217q-53 -1 -91 37t-38 92t39 93q39 38 92 38t91 -38t38 -92t-39 -92t-92 -38zM1010 1217q-53 -1 -91 37t-38 92
t39 93q39 38 92 38t91 -38t38 -92t-39 -92t-92 -38z" />
    <glyph glyph-name="wgrave.sc" horiz-adv-x="1634" 
d="M487 1474q0 48 27 74t71 27q44 0 91 -53l237 -279l-51 -57l-307 194q-68 46 -68 94zM25 905v150h487v-150h-160l183 -626l245 643h86l246 -643l184 626h-163v150h477v-150h-140l-284 -923h-123l-246 643l-248 -643h-120l-285 923h-139z" />
    <glyph glyph-name="yacute.sc" horiz-adv-x="1095" 
d="M1083 1055v-150h-125l-323 -514v-241h174v-150h-522v150h172v241l-322 514h-125v150h463v-146h-149l227 -379l227 379h-153v146h456zM779 1575q44 0 71 -27q27 -28 27 -76t-66 -92l-309 -194l-51 57l237 279q47 53 91 53z" />
    <glyph glyph-name="ycircumflex.sc" horiz-adv-x="1095" 
d="M1083 1055v-150h-125l-323 -514v-241h174v-150h-522v150h172v241l-322 514h-125v150h463v-146h-149l227 -379l227 379h-153v146h456zM289 1186l-78 88l336 328l336 -328l-78 -88l-258 192z" />
    <glyph glyph-name="ydieresis.sc" horiz-adv-x="1095" 
d="M1083 1055v-150h-125l-323 -514v-241h174v-150h-522v150h172v241l-322 514h-125v150h463v-146h-149l227 -379l227 379h-153v146h456zM354 1217q-53 -1 -91 37t-38 92t39 93q39 38 92 38t91 -38t38 -92t-39 -92t-92 -38zM739 1217q-53 -1 -91 37t-38 92t39 93q39 38 92 38
t91 -38t38 -92t-39 -92t-92 -38z" />
    <glyph glyph-name="ygrave.sc" horiz-adv-x="1095" 
d="M217 1474q0 48 27 74q26 26 70 27q44 0 92 -53l237 -279l-51 -57l-307 194q-68 46 -68 94zM1083 1055v-150h-125l-323 -514v-241h174v-150h-522v150h172v241l-322 514h-125v150h463v-146h-149l227 -379l227 379h-153v146h456z" />
    <glyph glyph-name="zacute.sc" horiz-adv-x="1046" 
d="M88 0v100l625 811h-445v-198h-153v342h843v-99l-622 -811h471v197h154v-342h-873zM757 1575q45 0 71 -27q26 -28 26 -76t-66 -92l-309 -194l-51 57l238 279q47 53 91 53z" />
    <glyph glyph-name="zcaron.sc" horiz-adv-x="1046" 
d="M88 0v100l625 811h-445v-198h-153v342h843v-99l-622 -811h471v197h154v-342h-873zM780 1595l78 -90l-336 -325l-336 325l78 90l258 -192z" />
    <glyph glyph-name="zdotaccent.sc" horiz-adv-x="1046" 
d="M522 1202q-53 0 -91 39t-38 93t39 93t92 39t92 -39t39 -93t-40 -93t-93 -39zM88 0v100l625 811h-445v-198h-153v342h843v-99l-622 -811h471v197h154v-342h-873z" />
    <glyph glyph-name="zero.lin" horiz-adv-x="1325" 
d="M663 147q163 -1 261 145t98 380t-98 380q-98 148 -261 148t-261 -146t-99 -378q1 -232 99 -381q98 -148 261 -148zM662 -25q-234 0 -392 196t-158 504t159 503q159 194 391 194t392 -194q158 -194 158 -503q0 -308 -158 -504t-392 -196z" />
    <glyph glyph-name="one.lin" horiz-adv-x="876" 
d="M111 0v164h258v991l-240 -61l-43 161l377 99h92v-1190h254v-164h-698z" />
    <glyph glyph-name="two.lin" horiz-adv-x="1167" 
d="M125 1040q0 72 47 148t156 130q110 54 274 54t294 -108t130 -269q0 -162 -94 -258q-94 -97 -238 -190q-291 -190 -381 -389h578v217h162v-375h-914l-53 84q47 137 138 257q91 121 168 185t200 149t182 151q60 66 60 162t-77 158t-177 62t-168 -30q-70 -30 -97 -70
q66 -31 66 -107q0 -51 -36 -86t-93 -35t-92 44t-35 116z" />
    <glyph glyph-name="three.lin" horiz-adv-x="1116" 
d="M532 141q129 0 214 65t85 161q0 145 -149 206q-94 41 -233 41h-70v164h76q137 0 227 53q117 66 117 187q0 90 -74 139t-206 49t-202 -63q41 -33 41 -82t-36 -85t-84 -36q-49 0 -87 41t-38 101t47 127t146 113t239 46q188 0 316 -96t128 -259t-164 -259q-59 -37 -125 -49
q68 -16 127 -48q193 -100 193 -297q0 -168 -140 -274t-350 -106q-132 0 -246 49t-165 119t-51 132t34 103t88 41t89 -35t35 -87t-42 -83q82 -78 260 -78z" />
    <glyph glyph-name="four.lin" horiz-adv-x="1159" 
d="M457 0v154h233v237h-618l-41 84l719 914l135 -105l-590 -743h395v256l187 75v-329h219v-154h-219v-231h172v-158h-592z" />
    <glyph glyph-name="five.lin" horiz-adv-x="1085" 
d="M522 139q131 0 214 83t83 204t-81 197q-80 75 -228 75t-270 -61l-84 43l65 668h701v-174h-551l-33 -338q90 29 201 28q197 0 329 -116t133 -318q0 -201 -138 -328t-358 -127t-339 115q-68 66 -68 131t35 103t89 38t89 -36t35 -79q0 -44 -18 -69q63 -39 194 -39z" />
    <glyph glyph-name="six.lin" horiz-adv-x="1187" 
d="M309 412q1 -112 95 -194q94 -81 218 -81t206 78t83 195q0 118 -84 192t-214 74t-217 -76t-87 -188zM1034 1130q0 -61 -35 -94q-35 -32 -88 -32t-87 36t-34 74q0 39 15 64q-55 31 -135 30q-158 0 -267 -152t-114 -382q25 35 61 61q125 102 285 103q203 0 334 -121
t131 -304t-137 -311t-347 -127q-210 0 -350 140q-158 158 -158 508q0 349 164 549t400 200q170 0 274 -82q88 -66 88 -160z" />
    <glyph glyph-name="seven.lin" horiz-adv-x="1032" 
d="M233 1190v-236h-167v394h878l41 -91l-569 -1257h-201l549 1190h-531z" />
    <glyph glyph-name="eight.lin" horiz-adv-x="1163" 
d="M580 143q131 0 215 68t84 167t-87 170q-87 70 -212 70t-211 -70t-86 -170q0 -99 83 -167t214 -68zM315 990q0 -96 78 -158q78 -64 188 -64q109 0 187 63t78 159t-75 156t-191 60t-191 -60q-74 -60 -74 -156zM580 -20q-219 0 -354 109q-134 110 -134 278q0 115 76 207
t192 124q-108 37 -174 119t-65 180q0 167 131 269t329 102q199 0 329 -102t130 -269q0 -98 -66 -180t-175 -119q117 -31 195 -124t77 -207q0 -167 -136 -277t-355 -110z" />
    <glyph glyph-name="nine.lin" horiz-adv-x="1187" 
d="M575 666q130 0 217 74t87 189q-1 113 -93 197t-217 84t-209 -78t-84 -199q0 -120 84 -194q85 -73 215 -73zM150 217q0 61 34 94q35 33 88 33t86 -35t33 -76t-16 -67q53 -29 147 -29q156 1 264 145t113 384q-57 -74 -150 -118t-194 -44q-205 0 -336 120t-131 307t137 314
t347 127t348 -137q160 -163 160 -515t-160 -548q-158 -196 -402 -197q-164 0 -278 82q-90 68 -90 160z" />
    <glyph glyph-name="bullet.alt" horiz-adv-x="1300" 
d="M648 -98q-246 0 -398 158t-152 390q0 230 154 390t400 160t399 -160q153 -158 153 -387t-154 -391q-155 -160 -402 -160z" />
    <glyph glyph-name="hyphen.lin" horiz-adv-x="684" 
d="M78 594v180h528v-180h-528z" />
    <glyph glyph-name="endash.lin" horiz-adv-x="1046" 
d="M45 600v168h956v-168h-956z" />
    <glyph glyph-name="emdash.lin" horiz-adv-x="1632" 
d="M45 600v168h1542v-168h-1542z" />
    <glyph glyph-name="parenleft.lin" horiz-adv-x="811" 
d="M336 657q0 -295 137 -513t361 -357l-86 -129q-246 135 -425 398t-180 601q1 229 95 437t224 342q130 133 286 219l86 -129q-222 -138 -360 -356t-138 -513z" />
    <glyph glyph-name="parenright.lin" horiz-adv-x="811" 
d="M475 657q0 295 -137 512t-361 357l86 129q156 -86 286 -219t224 -341t95 -438q0 -338 -180 -601t-425 -398l-86 129q223 139 361 357q137 218 137 513z" />
    <glyph glyph-name="bracketleft.lin" horiz-adv-x="747" 
d="M199 -287v1909h495v-156h-329v-1595h329v-158h-495z" />
    <glyph glyph-name="bracketright.lin" horiz-adv-x="747" 
d="M53 -287v158h330v1595h-330v156h496v-1909h-496z" />
    <glyph glyph-name="braceleft.lin" horiz-adv-x="745" 
d="M141 4q0 84 40 144t128 144t88 150q0 64 -64 105q-65 41 -173 41h-47v151h47q110 0 174 41q64 42 64 106t-89 148q-88 84 -128 144t-40 145q0 143 126 231t378 95v-138q-176 -10 -255 -63q-79 -54 -79 -122t123 -196q145 -145 146 -247q0 -77 -62 -137t-182 -82
q242 -48 244 -232q0 -90 -146 -235q-123 -127 -123 -196t79 -122t255 -63v-138q-252 6 -378 94t-126 232z" />
    <glyph glyph-name="braceright.lin" horiz-adv-x="745" 
d="M434 0q0 68 -123 197q-145 145 -145 247q0 78 62 138t182 82q-119 23 -182 81q-62 59 -62 138q0 102 145 247q123 127 123 196t-79 122t-255 63v138q252 -7 378 -95t126 -231q0 -84 -40 -144q-40 -61 -128 -145t-88 -148t65 -106q65 -41 173 -41h47v-151h-47
q-110 0 -174 -41t-64 -105t88 -149t128 -145t40 -144q0 -144 -126 -232t-378 -94v138q176 10 255 63t79 121z" />
    <glyph glyph-name="registered.alt" horiz-adv-x="1251" 
d="M606 733h-57v-184h57q57 1 91 25t34 69q0 90 -125 90zM618 268h-217v76h66v389h-66v74h209q94 0 152 -42t57 -120q0 -104 -106 -147l92 -154h61v-76h-118l-115 209h-84v-133h69v-76zM170 528q0 -194 128 -328t314 -134t316 135q129 135 129 329t-128 326
q-127 133 -315 133t-316 -133t-128 -328zM1151 528q0 -228 -156 -386t-382 -158t-382 158t-155 384q0 227 155 386q156 159 383 159t382 -158t155 -385z" />
    <glyph glyph-name="copyright.lin" horiz-adv-x="1601" 
d="M816 926q-95 0 -163 -69q-67 -69 -67 -170t66 -170t174 -69t190 87l74 -78q-96 -119 -275 -119q-145 0 -248 98q-102 98 -102 248t105 250q104 102 234 102t206 -53t75 -117q1 -36 -23 -60t-54 -24t-53 22q-21 22 -21 50t12 33q-35 39 -130 39zM801 63q250 1 418 179
t167 432q0 254 -167 432q-168 178 -418 178t-418 -178t-168 -432t168 -432t418 -179zM801 -25q-287 0 -486 204t-198 495q1 290 199 494t485 204t485 -204t199 -494q-1 -290 -199 -495q-198 -204 -485 -204z" />
    <glyph glyph-name="published.lin" horiz-adv-x="1601" 
d="M831 655q66 0 103 36t37 93t-39 90t-103 33h-73v-250l39 -2h36zM823 561h-67v-123h84v-102h-275v102h76v469h-76v103h271q110 0 182 -60t72 -168q0 -107 -72 -164t-195 -57zM801 63q250 1 418 179t167 432q0 254 -167 432q-168 178 -418 178t-418 -178t-168 -432
t168 -432t418 -179zM801 -25q-287 0 -486 204t-198 495q1 290 199 494t485 204t485 -204t199 -494q-1 -290 -199 -495q-198 -204 -485 -204z" />
    <glyph glyph-name="registered.lin" horiz-adv-x="1601" 
d="M729 702h74q63 0 102 29t39 82q0 111 -143 111h-72v-222zM729 608v-153h84v-103h-276v103h77v469h-77v102h262q119 0 191 -52t73 -151q0 -137 -127 -184l104 -184h76v-103h-151l-136 256h-100zM801 63q250 1 418 179t167 432q0 254 -167 432q-168 178 -418 178t-418 -178
t-168 -432t168 -432t418 -179zM801 -25q-287 0 -486 204t-198 495q1 290 199 494t485 204t485 -204t199 -494q-1 -290 -199 -495q-198 -204 -485 -204z" />
    <glyph glyph-name="dollar.lin" horiz-adv-x="1198" 
d="M334 996q0 -77 53 -125t156 -80l32 401q-105 -8 -173 -64t-68 -132zM905 364q0 89 -60 137t-194 85l-41 -432q133 4 214 62t81 148zM214 428q52 0 86 -34t34 -78t-29 -87q55 -49 178 -67l41 461q-176 53 -275 135t-99 232t118 249q119 100 316 109l16 186l150 -12
l-19 -185q147 -23 242 -95q94 -73 94 -165q0 -59 -33 -95t-86 -36t-88 35t-35 78t23 78q-41 33 -141 49l-39 -430q204 -58 312 -140t108 -248t-134 -264q-133 -100 -348 -104l-16 -211l-150 12l19 209q-162 27 -266 107t-105 170q0 61 37 101t89 40z" />
    <glyph glyph-name="sterling.lin" horiz-adv-x="1183" 
d="M57 85q-1 54 57 94t187 30q78 90 78 250q0 25 -2 37h-248v151h219l-18 53q-63 176 -64 273q0 169 122 283t287 114t271 -76t107 -180q0 -55 -35 -96t-89 -41t-88 34t-34 77t24 77q-47 51 -147 51t-172 -69q-72 -70 -72 -169t52 -253l26 -78h373v-151h-348q2 -12 2 -33
q0 -176 -80 -250q82 -2 180 -29q139 -43 203 -43t98 29t74 104l125 -63q-39 -125 -108 -179q-136 -107 -437 -1q-121 41 -238 43q-80 -98 -192 -98t-113 109z" />
    <glyph glyph-name="Euro.lin" horiz-adv-x="1464" 
d="M78 754v153h205q61 217 223 341t367 124t339 -110t136 -242q0 -62 -37 -106t-93 -44t-92 36q-34 36 -34 94t51 92q-27 40 -102 74t-162 34q-157 0 -263 -79t-153 -220h469v-145h-500q-4 -29 -4 -75t4 -108h500v-145h-467q47 -133 147 -207t246 -74q209 0 377 166
l111 -120q-186 -215 -490 -216q-208 0 -360 120t-211 325h-207v153h180q-6 43 -6 83t4 96h-178z" />
    <glyph glyph-name="yen.lin" horiz-adv-x="1316" 
d="M383 2v141h182v142h-334v141h334v129h-334v141h242l-305 496h-135v156h477v-156h-135l289 -504l286 504h-143v156h477v-156h-135l-307 -496h243v-141h-333v-129h333v-141h-333v-142h182v-141h-551z" />
    <glyph glyph-name="cent.lin" horiz-adv-x="1050" 
d="M264 724q0 -225 191 -302l53 594q-106 -18 -175 -98t-69 -194zM86 716q0 165 123 296t309 147l21 219l135 -12l-19 -213q131 -23 218 -99t88 -165q0 -55 -36 -93t-82 -38t-78 30t-32 76q0 45 37 82q-37 49 -135 70l-57 -623h34q158 0 324 96l-12 -159q-139 -84 -330 -84
h-25l-26 -291l-137 12l28 299q-160 43 -254 164t-94 286z" />
    <glyph glyph-name="numbersign.lin" horiz-adv-x="1232" 
d="M514 827l-51 -329h254l51 329h-254zM121 821v158h246l57 369h176l-57 -369h241l56 369h176l-58 -369h234v-158h-258l-47 -317h225l-8 -158h-242l-51 -346h-176l51 346h-240l-53 -346h-176l53 346h-229v158h254l47 317h-221z" />
    <glyph glyph-name="paragraph.lin" horiz-adv-x="1466" 
d="M879 156h157v1036h-157v-1036zM496 0v166h200v305q-16 -2 -112 -2q-236 0 -376 117q-140 118 -140 322t142 322t361 118h811v-166h-163v-1016h163v-166h-886z" />
    <glyph glyph-name="section.lin" horiz-adv-x="1095" 
d="M285 688q0 -51 58 -85t206 -71l94 -24q168 59 168 151q0 49 -59 84q-60 35 -205 70l-98 25q-164 -59 -164 -150zM1001 686q0 -158 -200 -235q129 -70 129 -205q0 -109 -109 -191t-309 -82t-307 97q-59 53 -59 110t30 90q31 33 81 33t83 -31t33 -64t-8 -56q53 -35 159 -35
t160 31q53 32 53 82t-55 80t-225 77q-171 47 -267 109t-96 163q0 160 205 238q-133 68 -133 207q0 104 108 186q109 82 276 82t273 -53q127 -59 127 -164q0 -47 -30 -79t-80 -32q-51 0 -84 31t-33 71t4 52q-47 31 -154 31q-108 0 -161 -32q-54 -32 -54 -82t56 -80
q56 -29 225 -75q170 -46 266 -108t96 -166z" />
    <glyph glyph-name="ordfeminine.lin" horiz-adv-x="714" 
d="M186 1106q0 -74 108 -74q58 0 128 58v86q-56 14 -116 14t-90 -23t-30 -61zM88 717v104h524v-104h-524zM256 946q-86 0 -135 41t-49 112t57 113t149 43q92 0 144 -18v55q0 55 -35 83t-87 28t-75 -12q6 -12 6 -34t-18 -40q-18 -19 -46 -19t-45 18q-18 18 -18 59q0 40 54 79
t148 39q93 0 159 -43t65 -147v-252h82v-95h-188v64q-82 -74 -168 -74z" />
    <glyph glyph-name="ordmasculine.lin" horiz-adv-x="716" 
d="M358 1040q72 0 117 52t45 129q0 78 -45 129t-117 51t-116 -51t-45 -129q1 -77 45 -129t116 -52zM357 946q-125 0 -201 80t-76 195t77 195t201 79q124 0 201 -80q76 -81 76 -195t-77 -194t-201 -80zM106 717v104h504v-104h-504z" />
    <glyph glyph-name="degree.lin" horiz-adv-x="624" 
d="M311 1063q66 0 109 46t43 114q0 67 -43 113t-109 46q-67 0 -109 -46t-42 -114t42 -113q42 -46 109 -46zM311 952q-115 0 -193 79t-77 192q0 113 78 191q79 78 193 79q114 0 191 -79q77 -80 77 -192t-77 -191t-192 -79z" />
    <glyph glyph-name="percent.lin" horiz-adv-x="1339" 
d="M180 1071q0 -82 53 -140q53 -59 129 -59t128 58t53 141q-1 82 -53 140q-52 59 -128 59t-129 -58t-53 -141zM795 276q0 -82 53 -140t129 -58t128 58t52 140t-52 140t-128 59q-76 -1 -129 -59t-53 -140zM236 -25l-82 58q104 141 494 691t454 648l84 -55l-479 -674
q-418 -588 -471 -668zM63 1071q-1 125 87 213t212 88t211 -88q86 -88 86 -213t-87 -214t-211 -89t-211 89t-87 214zM678 276q0 125 87 214q87 90 212 90t212 -90t87 -214q0 -125 -87 -213t-212 -88t-212 88t-87 213z" />
    <glyph glyph-name="perthousand.lin" horiz-adv-x="2043" 
d="M180 1071q0 -82 53 -140q53 -59 129 -59t128 58t53 141q-1 82 -53 140q-52 59 -128 59t-129 -58t-53 -141zM795 276q0 -82 53 -140t129 -58t128 58t52 140t-52 140t-128 59q-76 -1 -129 -59t-53 -140zM1501 276q0 -82 52 -140t128 -58t129 58t54 140q0 82 -54 140
t-129 59q-76 -1 -128 -59t-52 -140zM236 -25l-82 58q104 141 494 691t454 648l84 -55l-479 -674q-418 -588 -471 -668zM63 1071q-1 125 87 213t212 88t211 -88q86 -88 86 -213t-87 -214t-211 -89t-211 89t-87 214zM1382 276q0 125 87 214q87 90 212 90t212 -90t87 -214
q0 -125 -87 -213t-212 -88t-212 88t-87 213zM678 276q0 125 87 214q87 90 212 90t212 -90t87 -214q0 -125 -87 -213t-212 -88t-212 88t-87 213z" />
    <glyph glyph-name="quotedbl.lin" horiz-adv-x="765" 
d="M188 1493q62 0 96 -46t19 -120l-80 -387h-71l-78 387q-14 74 19 120q34 46 95 46zM575 1493q61 0 95 -46t20 -120l-80 -387h-71l-78 387q-14 74 19 120q34 46 95 46z" />
    <glyph glyph-name="quotesingle.lin" horiz-adv-x="378" 
d="M188 1493q62 0 96 -46t19 -120l-80 -387h-71l-78 387q-14 74 19 120q34 46 95 46z" />
    <glyph glyph-name="plus.lin" horiz-adv-x="892" 
d="M369 334v276h-275v152h275v276h155v-276h275v-152h-275v-276h-155z" />
    <glyph glyph-name="minus.lin" horiz-adv-x="892" 
d="M94 610v152h705v-152h-705z" />
    <glyph glyph-name="divide.lin" horiz-adv-x="892" 
d="M446 279q-46 -1 -80 33t-34 81t35 81t82 34t81 -34t33 -81q0 -47 -35 -81t-82 -33zM446 864q-46 0 -80 34t-34 81t35 81t82 34t81 -34t33 -81q0 -47 -35 -81t-82 -34zM799 610h-705v152h705v-152z" />
    <glyph glyph-name="equal.lin" horiz-adv-x="892" 
d="M94 426v152h705v-152h-705zM94 778v152h705v-152h-705z" />
    <glyph glyph-name="multiply.lin" horiz-adv-x="892" 
d="M657 352l-211 223l-210 -223l-111 111l211 221l-211 223l111 113l210 -225l211 223l109 -111l-211 -221l213 -223z" />
    <glyph glyph-name="less.lin" horiz-adv-x="827" 
d="M612 272l-520 363v90l520 362l84 -114l-420 -293l420 -291z" />
    <glyph glyph-name="greater.lin" horiz-adv-x="827" 
d="M215 272l-84 117l420 291l-420 293l84 114l520 -362v-90z" />
    <glyph glyph-name="plusminus.lin" horiz-adv-x="892" 
d="M94 156v153h705v-153h-705zM369 473v277h-275v151h275v277h155v-277h275v-151h-275v-277h-155z" />
    <glyph glyph-name="zero.tab" horiz-adv-x="1085" 
d="M545 1202q-131 0 -202 -144t-71 -383t71 -384t202 -145t201 144q70 146 69 386q1 240 -69 383t-201 143zM545 -27q-209 1 -336 191t-127 510t126 510t336 190t336 -190t126 -510t-126 -510q-126 -191 -335 -191z" />
    <glyph glyph-name="one.tab" horiz-adv-x="1085" 
d="M154 0v164h319v991l-301 -78l-43 162l434 115h96v-1190h316v-164h-821z" />
    <glyph glyph-name="two.tab" horiz-adv-x="1085" 
d="M817 158v213h162v-371h-848l-53 88q57 188 174 322t278 256q66 50 98 76q96 79 119 138q23 60 23 111q0 93 -70 155t-162 62t-154 -28t-87 -72q66 -31 65 -107q0 -51 -34 -87t-94 -36q-58 0 -93 45q-35 43 -35 115t44 149t148 131t263 54q158 0 280 -106t122 -269
q0 -162 -98 -269q-52 -56 -91 -89t-121 -92q-281 -203 -348 -389h512z" />
    <glyph glyph-name="three.tab" horiz-adv-x="1085" 
d="M516 -20q-128 0 -238 50t-161 120t-51 136q0 64 35 105t89 41t89 -35t35 -85t-44 -87q35 -39 104 -63t142 -23q123 0 204 66t81 162q0 143 -148 206q-94 41 -223 41h-70v164h76q129 0 219 51q115 70 115 189q0 90 -72 140t-198 50t-189 -71q39 -33 39 -83t-35 -86
t-85 -36t-88 40t-38 100t41 126q51 74 149 122t232 48q186 0 310 -96t122 -258q0 -162 -167 -260q-74 -39 -132 -49q68 -16 132 -48q197 -100 196 -297q0 -170 -135 -275t-336 -105z" />
    <glyph glyph-name="four.tab" horiz-adv-x="1085" 
d="M416 0v150h223v237h-578l-41 84l666 918l135 -105l-540 -747h358v260l186 75v-333h207v-154h-207v-231h160v-154h-569z" />
    <glyph glyph-name="five.tab" horiz-adv-x="1085" 
d="M506 -25q-221 0 -340 115q-70 64 -70 130t35 104t90 38t89 -36t34 -78q0 -43 -18 -70q68 -39 198 -39t213 83q84 83 84 205t-81 197q-80 74 -228 74t-274 -61l-84 43l65 668h705v-174h-553l-33 -338q90 29 201 28q199 0 331 -116t134 -317q0 -202 -138 -329t-360 -127z
" />
    <glyph glyph-name="six.tab" horiz-adv-x="1085" 
d="M564 137q112 0 186 78t74 195q0 118 -74 192t-189 74t-191 -75t-75 -189q0 -114 80 -193q77 -82 189 -82zM831 1004q-54 0 -88 34q-33 35 -33 78t17 66q-47 31 -119 30q-137 0 -231 -143t-105 -371q14 18 33 33q115 105 293 105t296 -119t118 -303t-128 -312t-324 -127
q-196 0 -332 148t-136 499q0 350 153 550t371 200q158 0 256 -82q80 -63 80 -160q0 -61 -33 -94q-34 -32 -88 -32z" />
    <glyph glyph-name="seven.tab" horiz-adv-x="1085" 
d="M256 1190v-236h-170v394h899l41 -91l-573 -1257h-201l553 1190h-549z" />
    <glyph glyph-name="eight.tab" horiz-adv-x="1085" 
d="M543 768q98 0 168 63q69 63 69 157t-67 157q-68 61 -170 61t-170 -61t-68 -155t70 -158t168 -64zM543 1368q184 0 307 -103t123 -268q0 -98 -65 -180t-175 -119q117 -31 194 -124t77 -207q0 -168 -128 -278q-128 -109 -333 -109t-333 110t-128 277q0 115 77 207t193 124
q-112 37 -176 119t-63 180q0 163 123 267t307 104zM543 143q117 0 193 68t75 167q0 99 -78 170q-79 70 -191 70t-190 -70t-78 -170q0 -99 76 -167t193 -68z" />
    <glyph glyph-name="nine.tab" horiz-adv-x="1085" 
d="M518 1210q-110 0 -184 -80t-74 -198t75 -193t189 -75t191 76q76 76 76 191q0 114 -80 197q-82 82 -193 82zM993 726q1 -352 -151 -552t-369 -199q-156 0 -260 82q-84 68 -84 158q0 63 34 96t88 33t87 -36t33 -78t-17 -68q45 -29 129 -29q133 0 226 141q92 141 102 367
q-14 -18 -33 -33q-111 -104 -289 -104t-298 120t-119 306q0 186 128 314t324 128t324 -139q145 -155 145 -507z" />
    <glyph glyph-name="period.tab" horiz-adv-x="542" 
d="M272 -18q-61 0 -103 43t-42 105t42 106t103 43q62 0 104 -43q42 -44 42 -106t-42 -105t-104 -43z" />
    <glyph glyph-name="comma.tab" horiz-adv-x="542" 
d="M125 141q0 53 43 95q42 42 104 40q62 0 106 -47t44 -142t-79 -211t-249 -210l-51 68q96 74 145 144t54 122q-51 10 -84 49t-33 92z" />
    <glyph glyph-name="colon.tab" horiz-adv-x="542" 
d="M272 524q-59 0 -101 43t-42 103t42 102q42 43 101 43q60 0 102 -43t42 -102t-42 -103q-43 -43 -102 -43zM272 -18q-59 0 -101 43t-42 102t42 102t101 43q60 0 102 -43t42 -102t-42 -102t-102 -43z" />
    <glyph glyph-name="semicolon.tab" horiz-adv-x="542" 
d="M272 524q-59 0 -101 43t-42 103t42 102q42 43 101 43q60 0 102 -43t42 -102t-42 -103q-43 -43 -102 -43zM129 137q0 51 41 92q40 41 102 41t105 -47t43 -138t-78 -206t-246 -207l-49 66q188 145 197 262q-49 10 -82 48t-33 89z" />
    <glyph glyph-name="twodotleader.tab" horiz-adv-x="1085" 
d="M815 -18q-61 0 -103 43t-42 105t42 106t103 43q61 0 103 -43q42 -44 43 -106q-1 -62 -43 -105t-103 -43zM272 -18q-61 0 -103 43t-42 105t42 106t103 43q62 0 104 -43q42 -44 42 -106t-42 -105t-104 -43z" />
    <glyph glyph-name="periodcentered.tab" horiz-adv-x="542" 
d="M272 379q-61 0 -103 43t-42 105q0 61 42 105t103 44q62 0 104 -43t42 -105t-42 -106q-42 -43 -104 -43z" />
    <glyph glyph-name="slash.tab" horiz-adv-x="1085" 
d="M152 -436l-146 74l887 1890l143 -72z" />
    <glyph glyph-name="bar.tab" horiz-adv-x="542" 
d="M195 -410v1909h155v-1909h-155z" />
    <glyph glyph-name="underscore.tab" horiz-adv-x="1085" 
d="M-14 -319v167h1114v-167h-1114z" />
    <glyph glyph-name="dollar.tab" horiz-adv-x="1085" 
d="M311 1004q0 -135 174 -203l35 391q-90 -8 -150 -60t-59 -128zM813 356q0 86 -53 136t-164 90l-39 -428q113 4 185 60t71 142zM74 291q0 61 37 101t89 40t86 -34t34 -79t-29 -88q39 -41 137 -65l43 455q-152 51 -243 137t-91 232q1 146 107 248q106 101 284 110l17 186
l145 -12l-14 -185q141 -25 228 -99t85 -167q0 -61 -34 -96t-87 -35t-88 35t-35 77t25 78q-35 35 -121 54l-39 -426q180 -58 280 -144t99 -246q0 -160 -122 -262t-316 -106l-19 -211l-147 12l21 209q-145 29 -239 110q-93 81 -93 171z" />
    <glyph glyph-name="sterling.tab" horiz-adv-x="1085" 
d="M49 83q0 52 51 92t170 34q78 94 78 258q0 18 -2 29h-225v151h194l-18 58q-59 170 -59 278q0 168 108 278q110 109 266 109t253 -76t98 -180q0 -55 -35 -96t-89 -41t-88 34t-34 77t24 77q-37 49 -126 49t-146 -63t-57 -161t32 -206t39 -137h334v-151h-309v-25
q0 -160 -76 -258q70 0 186 -36t167 -36q52 0 83 28t62 103l127 -59q-35 -125 -100 -180t-159 -55t-220 46q-126 48 -224 50q-80 -98 -186 -99q-57 0 -88 28t-31 80z" />
    <glyph glyph-name="Euro.tab" horiz-adv-x="1085" 
d="M768 1040q0 58 53 95q-65 79 -175 79t-184 -87t-104 -240h316v-144h-332q-2 -25 -2 -79t2 -80h332v-150h-309q31 -139 103 -216t181 -77q139 0 269 158l108 -109q-156 -217 -385 -217q-172 0 -292 123t-165 332h-133v154h111q-2 29 -2 82t2 75h-111v154h129
q45 223 175 352q131 129 295 129t269 -96t105 -215q0 -63 -38 -107t-93 -45q-55 0 -90 36q-35 35 -35 93z" />
    <glyph glyph-name="yen.tab" horiz-adv-x="1085" 
d="M276 0v141h177v144h-291v137h291v121h-291v139h235l-280 510h-119v156h451v-152h-146l246 -467l242 467h-152v152h451v-156h-127l-275 -510h236v-139h-291v-121h291v-137h-291v-144h178v-141h-535z" />
    <glyph glyph-name="cent.tab" horiz-adv-x="1085" 
d="M281 726q0 -232 192 -308l53 600q-109 -18 -177 -97t-68 -195zM612 244h-24l-27 -289l-137 12l29 297q-162 43 -256 164q-95 121 -95 288t124 299t311 148l20 215l135 -12l-18 -209q133 -25 221 -103t88 -165q0 -57 -35 -94t-82 -37t-79 30t-31 76q0 45 37 82
q-39 53 -140 72l-57 -629h35q161 0 327 98l-14 -159q-135 -84 -332 -84z" />
    <glyph glyph-name="numbersign.tab" horiz-adv-x="1085" 
d="M463 834l-49 -342h207l49 342h-207zM109 827v152h219l53 369h164l-53 -369h190l53 369h164l-53 -369h211v-152h-232l-47 -329h199l-8 -150h-213l-49 -348h-164l49 348h-191l-49 -348h-164l50 348h-209v150h231l47 329h-198z" />
    <glyph glyph-name="paragraph.tab" horiz-adv-x="1085" 
d="M647 156h96v1036h-96v-1036zM477 469q-184 1 -309 119t-125 321t131 321t342 118h518v-166h-139v-1016h139v-166h-700v166h168v303h-25z" />
    <glyph glyph-name="section.tab" horiz-adv-x="1085" 
d="M805 659q-1 51 -59 85t-203 69l-97 25q-164 -59 -163 -150q0 -51 57 -85t205 -71l94 -24q166 59 166 151zM995 686q0 -158 -200 -235q129 -70 129 -205q0 -109 -108 -191t-306 -82t-305 97q-61 51 -61 109t30 91q31 33 81 33t83 -31t33 -64t-9 -56q52 -35 158 -35t159 31
q52 32 52 82t-54 80t-224 77q-169 47 -265 109t-96 163q0 158 205 236q-133 72 -133 209q0 104 107 186q108 82 274 82t272 -53q127 -59 127 -164q0 -47 -31 -79t-81 -32t-82 31q-33 31 -33 71t4 52q-47 31 -153 31q-107 0 -159 -32q-53 -32 -53 -82t54 -80q54 -29 224 -75
t266 -108t95 -166z" />
    <glyph glyph-name="degree.tab" horiz-adv-x="1085" 
d="M539 1403q-106 0 -174 -73q-68 -74 -68 -182t68 -180t174 -73q106 0 174 73q67 74 67 182t-68 180t-173 73zM539 780q-160 0 -261 108q-102 108 -102 262t102 260q102 108 261 108q160 0 261 -108t101 -262t-101 -260q-101 -108 -261 -108z" />
    <glyph glyph-name="percent.tab" horiz-adv-x="1085" 
d="M668 279q0 -86 35 -144q35 -57 91 -57t92 57t36 143t-36 143q-36 56 -91 56t-91 -56t-36 -142zM162 1071q0 -88 36 -145q36 -58 93 -58t94 58t37 145q0 86 -37 144q-37 59 -94 59t-93 -58t-36 -145zM178 -23l-82 52q2 2 58 94t352 571l405 676l82 -51q-4 -8 -170 -274
t-285 -471q-120 -204 -238 -399q-118 -194 -122 -198zM553 279q0 129 69 215t173 86t173 -86q68 -86 68 -215t-68 -217q-69 -87 -173 -87q-104 -1 -173 87t-69 217zM49 1071q0 129 69 215t173 86t173 -86q68 -86 68 -215t-68 -216t-173 -87q-104 0 -173 87t-69 216z" />
    <glyph glyph-name="quotedbl.tab" horiz-adv-x="1085" 
d="M763 1493q62 0 96 -47t20 -127l-80 -483h-74l-78 483q-14 78 20 126t96 48zM320 1493q62 0 98 -47q35 -47 20 -127l-80 -483h-73l-80 483q-14 78 19 126q34 48 96 48z" />
    <glyph glyph-name="quotesingle.tab" horiz-adv-x="542" 
d="M269 1493q61 0 97 -47t21 -127l-80 -483h-74l-79 483q-14 78 19 126q34 48 96 48z" />
    <glyph glyph-name="plus.tab" horiz-adv-x="1085" 
d="M465 293v317h-315v152h315v317h156v-317h315v-152h-315v-317h-156z" />
    <glyph glyph-name="minus.tab" horiz-adv-x="1085" 
d="M150 610v152h786v-152h-786z" />
    <glyph glyph-name="divide.tab" horiz-adv-x="1085" 
d="M543 236q-47 0 -82 34t-35 82q0 47 36 82t83 35t81 -35t34 -82t-35 -82q-35 -34 -82 -34zM543 903q-47 0 -82 35t-35 82t36 82t83 35t81 -35t34 -82t-36 -82q-34 -35 -81 -35zM936 610h-786v152h786v-152z" />
    <glyph glyph-name="equal.tab" horiz-adv-x="1085" 
d="M150 403v152h786v-152h-786zM150 801v151h786v-151h-786z" />
    <glyph glyph-name="multiply.tab" horiz-adv-x="1085" 
d="M795 311l-252 264l-252 -264l-111 111l252 264l-252 264l111 111l252 -266l252 264l108 -109l-252 -264l254 -264z" />
    <glyph glyph-name="less.tab" horiz-adv-x="1085" 
d="M782 233l-602 414v68l602 413l84 -116l-485 -332l485 -332z" />
    <glyph glyph-name="greater.tab" horiz-adv-x="1085" 
d="M303 1128l602 -413v-68l-602 -414l-84 115l486 332l-486 332z" />
    <glyph glyph-name="plusminus.tab" horiz-adv-x="1085" 
d="M150 133v152h786v-152h-786zM465 455v317h-315v152h315v317h156v-317h315v-152h-315v-317h-156z" />
    <glyph glyph-name="zero.idx_P2D" horiz-adv-x="2252" 
d="M1125 979q-109 0 -175 -98t-66 -252q0 -153 66 -253q65 -100 175 -100t177 98t66 253q0 154 -66 253q-67 99 -177 99zM1530 627q0 -217 -118 -357t-287 -139q-169 0 -287 140q-118 141 -117 357q0 216 119 356q118 140 286 140t286 -140t118 -357zM1126 1518
q-246 0 -448 -123t-314 -330q-114 -207 -114 -451t114 -450t316 -330q202 -123 446 -123q246 0 448 123t315 330q114 206 114 450t-114 451t-315 330q-202 123 -448 123zM1126 1634q281 0 513 -138q231 -138 363 -372t132 -510t-131 -510t-363 -371q-232 -139 -514 -139
q-281 0 -513 138t-363 372t-131 510t131 510t363 372t513 138z" />
    <glyph glyph-name="one.idx_P2D" horiz-adv-x="2252" 
d="M1421 152h-575v139h211v655l-199 -41l-31 135l310 70h77v-819h207v-139zM1126 1518q-246 0 -448 -123t-314 -330q-114 -207 -114 -451t114 -450t316 -330q202 -123 446 -123q246 0 448 123t315 330q114 206 114 450t-114 451t-315 330q-202 123 -448 123zM1126 1634
q281 0 513 -138q231 -138 363 -372t132 -510t-131 -510t-363 -371q-232 -139 -514 -139q-281 0 -513 138t-363 372t-131 510t131 510t363 372t513 138z" />
    <glyph glyph-name="two.idx_P2D" horiz-adv-x="2252" 
d="M991 855q1 -48 -27 -76q-28 -27 -75 -27t-74 35t-27 89t35 114t116 96q81 38 203 38t220 -78q96 -79 96 -202q0 -72 -39 -133t-79 -93t-113 -77q-207 -131 -275 -260h396v159h131v-290h-672l-47 71q40 101 110 189t124 131t124 90t99 70q79 66 79 153q0 51 -51 92
t-149 41t-150 -57q45 -27 45 -75zM1126 1518q-246 0 -448 -123t-314 -330q-114 -207 -114 -451t114 -450t316 -330q202 -123 446 -123q246 0 448 123t315 330q114 206 114 450t-114 451t-315 330q-202 123 -448 123zM1126 1634q281 0 513 -138q231 -138 363 -372t132 -510
t-131 -510t-363 -371q-232 -139 -514 -139q-281 0 -513 138t-363 372t-131 510t131 510t363 372t513 138z" />
    <glyph glyph-name="three.idx_P2D" horiz-adv-x="2252" 
d="M774 355q0 50 29 83t71 33t70 -28q29 -27 29 -65t-23 -65q52 -45 154 -45t161 40q58 40 58 106q0 96 -98 137q-59 27 -164 27h-47v129h53q96 1 165 41q68 40 68 108t-51 100q-51 31 -137 31t-125 -35q48 -70 -8 -124q-29 -28 -70 -28t-69 32q-28 30 -29 80q0 50 37 94
q88 115 282 114q141 0 237 -70q95 -71 95 -183t-104 -179q-43 -29 -92 -41q51 -14 88 -35q129 -74 129 -202q1 -128 -103 -201q-104 -74 -258 -74q-195 0 -301 113q-47 57 -47 107zM1126 1518q-246 0 -448 -123t-314 -330q-114 -207 -114 -451t114 -450t316 -330
q202 -123 446 -123q246 0 448 123t315 330q114 206 114 450t-114 451t-315 330q-202 123 -448 123zM1126 1634q281 0 513 -138q231 -138 363 -372t132 -510t-131 -510t-363 -371q-232 -139 -514 -139q-281 0 -513 138t-363 372t-131 510t131 510t363 372t513 138z" />
    <glyph glyph-name="four.idx_P2D" horiz-adv-x="2252" 
d="M997 150v124h170v154h-444l-37 70l518 641l115 -88l-416 -504h264v162l148 61v-221h151v-127h-151v-146h117v-126h-435zM1126 1518q-246 0 -448 -123t-314 -330q-114 -207 -114 -451t114 -450t316 -330q202 -123 446 -123q246 0 448 123t315 330q114 206 114 450
t-114 451t-315 330q-202 123 -448 123zM1126 1634q281 0 513 -138q231 -138 363 -372t132 -510t-131 -510t-363 -371q-232 -139 -514 -139q-281 0 -513 138t-363 372t-131 510t131 510t363 372t513 138z" />
    <glyph glyph-name="five.idx_P2D" horiz-adv-x="2252" 
d="M1126 772q142 0 238 -85t96 -228t-97 -235t-245 -93q-148 0 -239 58q-90 58 -91 133q0 42 29 72t73 30t71 -29t27 -59t-9 -47q45 -23 133 -23t141 54t53 136q0 81 -52 130t-160 49t-195 -45l-70 41l45 475h527v-143h-400l-18 -205q68 14 143 14zM1126 1518
q-246 0 -448 -123t-314 -330q-114 -207 -114 -451t114 -450t316 -330q202 -123 446 -123q246 0 448 123t315 330q114 206 114 450t-114 451t-315 330q-202 123 -448 123zM1126 1634q281 0 513 -138q231 -138 363 -372t132 -510t-131 -510t-363 -371q-232 -139 -514 -139
q-281 0 -513 138t-363 372t-131 510t131 510t363 372t513 138z" />
    <glyph glyph-name="six.idx_P2D" horiz-adv-x="2252" 
d="M1118 614q-88 0 -146 -46t-57 -121q1 -77 63 -129t146 -52t140 52q55 52 55 127t-57 122q-56 47 -144 47zM1434 948q0 -51 -28 -76q-28 -24 -72 -24t-68 28t-25 58q0 30 4 43q-45 12 -84 12q-106 0 -180 -94t-78 -242q93 97 237 97t240 -87t96 -219t-100 -222
q-100 -91 -255 -91q-155 -1 -263 107t-106 354q0 246 117 389q118 143 292 143q115 0 187 -47q86 -49 86 -129zM1126 1518q-246 0 -448 -123t-314 -330q-114 -207 -114 -451t114 -450t316 -330q202 -123 446 -123q246 0 448 123t315 330q114 206 114 450t-114 451t-315 330
q-202 123 -448 123zM1126 1634q281 0 513 -138q231 -138 363 -372t132 -510t-131 -510t-363 -371q-232 -139 -514 -139q-281 0 -513 138t-363 372t-131 510t131 510t363 372t513 138z" />
    <glyph glyph-name="seven.idx_P2D" horiz-adv-x="2252" 
d="M954 975v-180h-139v311h647l37 -84l-412 -872h-169l403 825h-367zM1126 1518q-246 0 -448 -123t-314 -330q-114 -207 -114 -451t114 -450t316 -330q202 -123 446 -123q246 0 448 123t315 330q114 206 114 450t-114 451t-315 330q-202 123 -448 123zM1126 1634
q281 0 513 -138q231 -138 363 -372t132 -510t-131 -510t-363 -371q-232 -139 -514 -139q-281 0 -513 138t-363 372t-131 510t131 510t363 372t513 138z" />
    <glyph glyph-name="eight.idx_P2D" horiz-adv-x="2252" 
d="M926 424q0 -64 56 -110t143 -46t144 45q56 45 56 110t-57 112q-58 47 -144 47t-142 -47t-56 -111zM948 845q0 -61 52 -105t125 -44t125 43t52 105t-50 104q-52 41 -128 41t-126 -41t-50 -103zM1124 135q-164 0 -262 79t-98 196q0 78 55 146t144 87q-84 25 -130 82
t-47 127q0 116 96 192t244 76t244 -77t96 -191q0 -70 -47 -127t-133 -82q90 -20 146 -87t55 -146q1 -117 -99 -196t-264 -79zM1126 1518q-246 0 -448 -123t-314 -330q-114 -207 -114 -451t114 -450t316 -330q202 -123 446 -123q246 0 448 123t315 330q114 206 114 450
t-114 451t-315 330q-202 123 -448 123zM1126 1634q281 0 513 -138q231 -138 363 -372t132 -510t-131 -510t-363 -371q-232 -139 -514 -139q-281 0 -513 138t-363 372t-131 510t131 510t363 372t513 138z" />
    <glyph glyph-name="nine.idx_P2D" horiz-adv-x="2252" 
d="M1339 809q0 76 -61 127q-58 55 -144 55t-142 -52t-56 -128t57 -124t145 -48t144 47q57 47 57 123zM821 306q0 52 28 77t71 25q42 0 68 -28t26 -56t-6 -43q33 -12 88 -13q104 0 178 92t76 240q-90 -94 -234 -94t-242 86q-96 86 -96 218t102 223t254 91q154 0 262 -108
t108 -354t-118 -388t-282 -143q-164 0 -242 82q-41 41 -41 93zM1126 1518q-246 0 -448 -123t-314 -330q-114 -207 -114 -451t114 -450t316 -330q202 -123 446 -123q246 0 448 123t315 330q114 206 114 450t-114 451t-315 330q-202 123 -448 123zM1126 1634q281 0 513 -138
q231 -138 363 -372t132 -510t-131 -510t-363 -371q-232 -139 -514 -139q-281 0 -513 138t-363 372t-131 510t131 510t363 372t513 138z" />
    <glyph glyph-name="space.tab" horiz-adv-x="542" 
 />
    <glyph glyph-name="NUL" horiz-adv-x="0" 
 />
    <glyph glyph-name="hfjslug" horiz-adv-x="1421" 
d="M872 580q-33 0 -32 34q0 12 9 24t23 11q14 0 24 -11t9 -24q0 -34 -33 -34zM997 612h-22v35h22q20 0 21 -16q-1 -19 -21 -19zM659 823q-33 0 -33 45t33 78l41 -80q-16 -43 -41 -43zM645 1056q0 30 29 29q27 -1 27 -35t-31 -69q-25 45 -25 75zM494 662l28 -97h17l22 70h2
l23 -70h16l29 97h-17l-20 -72h-2l-23 72h-14l-23 -72h-2l-20 72h-16zM270 662v-95h17v66l51 -66h14v95h-16v-66l-51 66h-15zM395 662v-95h70v15h-53v26h47v15h-47v24h53v15h-70zM750 567h16v35l37 60h-19l-26 -46l-27 46h-18l37 -60v-35zM872 565q20 1 34 15q33 33 1 68
q-15 16 -35 16t-34 -16t-14 -34q0 -20 14 -34t34 -15zM1034 631q0 31 -35 31h-41v-95h17v31h24l21 -31h18l-24 35q20 8 20 29zM1071 662v-95h16v25l17 16l31 -41h20l-41 54l37 41h-21l-40 -50h-3v50h-16zM729 1038q0 72 -55 72q-25 0 -41 -19q-17 -19 -17 -45t29 -79
q-47 -37 -47 -83q0 -91 59 -89q39 0 60 49h2l24 -49l25 12l-35 65q13 29 27 80l-27 6q-8 -37 -16 -61h-2l-33 64q47 43 47 77zM985 799q63 0 64 73v281h-33v-281q0 -45 -33 -45q-16 0 -41 11v-31q20 -8 43 -8zM377 1153v-352h31v162h96v-162h31v352h-31v-162h-96v162h-31z
M819 1153v-352h31v160h78v28h-78v135h88v29h-119zM1319 -410h-426l-16 29h-334l-17 -29h-424v621q29 0 48 19q18 19 18 46q0 26 -20 46t-46 20v1135h205l62 161h684l59 -161h207v-1887z" />
    <glyph glyph-name="A.sc" horiz-adv-x="1206" 
d="M600 918l-154 -433h310zM283 1055h641v-150h-148l279 -755h121v-150h-455v147h156l-70 195h-412l-69 -195h155v-147h-450v150h123l276 755h-147v150z" />
    <glyph glyph-name="B.sc" horiz-adv-x="1097" 
d="M610 0h-524v150h168v755h-168v150h506q190 0 286 -76t95 -197q0 -182 -191 -239q221 -59 222 -250q0 -135 -102 -214t-292 -79zM430 600h160q100 0 152 42t52 115t-52 113q-54 40 -152 39h-160v-309zM430 147h184q98 0 154 43q55 43 55 119q0 160 -223 160h-170v-322z
" />
    <glyph glyph-name="C.sc" horiz-adv-x="1153" 
d="M84 530q0 238 159 395t402 156q172 0 290 -84t118 -188q0 -59 -34 -97t-87 -38t-87 32t-34 80t29 70q-72 68 -218 68t-251 -111t-105 -284t104 -283t275 -108q170 0 309 143l109 -119q-168 -184 -421 -184q-254 0 -406 157t-152 395z" />
    <glyph glyph-name="D.sc" horiz-adv-x="1239" 
d="M535 0h-449v150h168v755h-168v150h461q283 1 445 -139t163 -382t-161 -388t-459 -146zM430 150h129q203 0 311 104t107 280q0 176 -115 274q-115 97 -315 97h-117v-755z" />
    <glyph glyph-name="E.sc" horiz-adv-x="1058" 
d="M950 0h-864v150h168v755h-168v150h864v-336h-164v190h-356v-309h326v-143h-326v-310h356v185h164v-332z" />
    <glyph glyph-name="F.sc" horiz-adv-x="1015" 
d="M608 0h-522v150h168v755h-168v150h860v-336h-166v190h-350v-321h320v-144h-320v-294h178v-150z" />
    <glyph glyph-name="G.sc" horiz-adv-x="1210" 
d="M624 924q-148 0 -253 -112t-105 -284t106 -284t260 -111q153 0 265 78v186h-272v144h444v-541h-168v78q-131 -98 -303 -98q-210 0 -362 150t-152 394q0 246 162 402t403 155q178 0 297 -83t119 -185q0 -59 -34 -96t-87 -37t-87 31t-34 78t25 71q-76 64 -224 64z" />
    <glyph glyph-name="H.sc" horiz-adv-x="1370" 
d="M86 0v150h168v755h-168v150h516v-150h-172v-303h510v303h-172v150h516v-150h-168v-755h168v-150h-516v150h172v303h-510v-303h172v-150h-516z" />
    <glyph glyph-name="I.sc" horiz-adv-x="696" 
d="M610 0h-524v150h174v755h-174v150h524v-150h-174v-755h174v-150z" />
    <glyph glyph-name="J.sc" horiz-adv-x="944" 
d="M373 139q92 0 135 45q53 59 53 189v532h-176v150h508v-150h-158v-536q0 -201 -100 -297q-91 -92 -239 -92t-246 80t-99 196q0 63 36 103t86 40q50 -1 84 -33t34 -85t-49 -78q39 -64 131 -64z" />
    <glyph glyph-name="K.sc" horiz-adv-x="1220" 
d="M1176 150v-150h-279l-313 469l-152 -143v-176h166v-150h-512v150h170v755h-170v150h494v-146h-148v-397l408 397h-144v146h467v-150h-123l-327 -321l297 -434h166z" />
    <glyph glyph-name="L.sc" horiz-adv-x="1001" 
d="M780 150v198h166v-348h-860v150h168v755h-168v150h520v-150h-176v-755h350z" />
    <glyph glyph-name="M.sc" horiz-adv-x="1529" 
d="M1423 1055v-150h-168l35 -755h168v-150h-512v150h166l-22 610l-308 -588h-39l-311 588l-22 -610h172v-150h-512v150h170l32 755h-168v150h342l324 -613l315 613h338z" />
    <glyph glyph-name="N.sc" horiz-adv-x="1345" 
d="M952 905h-166v150h504v-150h-170v-911h-116l-580 762v-606h162v-150h-500v150h168v755h-168v150h320l546 -713v563z" />
    <glyph glyph-name="O.sc" horiz-adv-x="1263" 
d="M633 137q160 0 263 109q103 108 103 282t-103 284t-264 110t-263 -109q-103 -109 -103 -284t104 -283t263 -109zM632 1083q244 -1 396 -159t152 -394t-153 -394t-397 -159q-244 0 -394 159q-152 159 -152 394t152 394t396 159z" />
    <glyph glyph-name="P.sc" horiz-adv-x="1036" 
d="M577 504q90 0 152 56q61 56 61 148t-64 145q-65 52 -167 52h-129v-397q57 -4 147 -4zM86 1055h475q176 0 293 -93t117 -256t-116 -256t-308 -94q-86 0 -117 2v-208h174v-150h-518v150h168v755h-168v150z" />
    <glyph glyph-name="Q.sc" horiz-adv-x="1263" 
d="M632 137q157 0 262 111q105 110 105 282t-103 282t-264 110t-263 -109q-103 -109 -103 -284t104 -283t262 -109zM1030 -233q-56 0 -114 18q-58 19 -85 33t-83 54t-68 46q-63 45 -145 62q-190 43 -297 155q-154 154 -154 392q0 237 153 397t395 160t396 -160
q152 -158 152 -392q0 -186 -98 -327t-265 -193q12 -4 51 -28q90 -58 154 -58t139 60l86 -133q-88 -86 -217 -86z" />
    <glyph glyph-name="Q.sc_alt" horiz-adv-x="1263" 
d="M631 137q61 0 106 15l-102 163l131 84l111 -174q123 113 123 295t-104 292q-103 110 -264 110t-263 -109q-103 -109 -103 -284t104 -283t261 -109zM631 -23q-243 0 -395 159t-152 394q0 234 153 394t395 160t396 -160q152 -158 152 -392q0 -139 -56 -257t-157 -193
l112 -174l-133 -84l-119 184q-98 -31 -196 -31z" />
    <glyph glyph-name="R.sc" horiz-adv-x="1134" 
d="M430 150h162v-150h-506v150h168v755h-168v150h489q189 0 303 -83t113 -237q0 -98 -55 -173t-148 -113l166 -299h152v-150h-281l-209 406q-85 -9 -186 -3v-253zM565 905h-135v-350q92 -6 139 -6q111 0 177 49t67 133q0 84 -65 129q-66 45 -183 45z" />
    <glyph glyph-name="S.sc" horiz-adv-x="993" 
d="M769 719q-52 1 -85 33t-33 73t19 64q-54 43 -156 43t-156 -38t-55 -99q0 -61 52 -97q80 -55 171 -77q231 -80 301 -150t70 -178q0 -152 -111 -234q-112 -82 -286 -82t-292 76t-118 178q0 59 31 93t84 34t87 -32t34 -72q0 -41 -21 -76q67 -53 183 -53q234 0 235 154
q0 70 -69 105q-69 34 -276 106q-40 16 -97 46q-159 85 -156 240q0 135 105 219q104 84 272 84q168 -1 274 -69t107 -170q0 -55 -31 -88t-83 -33z" />
    <glyph glyph-name="T.sc" horiz-adv-x="1110" 
d="M293 0v150h174v759h-236v-204h-163v350h974v-350h-163v204h-236v-759h174v-150h-524z" />
    <glyph glyph-name="U.sc" horiz-adv-x="1265" 
d="M1053 410q-1 -206 -113 -316t-308 -110t-306 108t-111 311v502h-160v150h500v-150h-164v-502q0 -127 65 -197q66 -70 180 -71q114 0 178 69t65 195v506h-166v150h499v-150h-159v-495z" />
    <glyph glyph-name="V.sc" horiz-adv-x="1169" 
d="M20 905v150h463v-150h-151l258 -663l258 663h-152v150h453v-150h-123l-381 -919h-121l-379 919h-125z" />
    <glyph glyph-name="W.sc" horiz-adv-x="1634" 
d="M25 905v150h487v-150h-160l183 -626l245 643h86l246 -643l184 626h-163v150h477v-150h-140l-284 -923h-123l-246 643l-248 -643h-120l-285 923h-139z" />
    <glyph glyph-name="X.sc" horiz-adv-x="1202" 
d="M1157 152v-152h-475v147h143l-233 297l-227 -297h153v-147h-473v152h135l312 389l-293 364h-138v150h469v-146h-133l209 -274l207 274h-133v146h461v-150h-146l-288 -364l317 -389h133z" />
    <glyph glyph-name="Y.sc" horiz-adv-x="1095" 
d="M1083 1055v-150h-125l-323 -514v-241h174v-150h-522v150h172v241l-322 514h-125v150h463v-146h-149l227 -379l227 379h-153v146h456z" />
    <glyph glyph-name="Z.sc" horiz-adv-x="1046" 
d="M88 0v100l625 811h-445v-198h-153v342h843v-99l-622 -811h471v197h154v-342h-873z" />
    <glyph glyph-name="Aacute.sc" horiz-adv-x="1206" 
d="M600 918l-154 -433h310zM832 1575q44 0 72 -27q26 -28 26 -76t-66 -92l-309 -194l-51 57l237 279q47 53 91 53zM283 1055h641v-150h-148l279 -755h121v-150h-455v147h156l-70 195h-412l-69 -195h155v-147h-450v150h123l276 755h-147v150z" />
    <glyph glyph-name="Abreve.sc" horiz-adv-x="1206" 
d="M600 918l-154 -433h310zM597 1204q-120 0 -213 80t-134 232l117 47q37 -93 98 -143t131 -50q152 0 231 193l117 -47q-41 -152 -134 -232t-213 -80zM283 1055h641v-150h-148l279 -755h121v-150h-455v147h156l-70 195h-412l-69 -195h155v-147h-450v150h123l276 755h-147
v150z" />
    <glyph glyph-name="Acircumflex.sc" horiz-adv-x="1206" 
d="M600 918l-154 -433h310zM342 1186l-78 88l336 328l336 -328l-78 -88l-258 192zM283 1055h641v-150h-148l279 -755h121v-150h-455v147h156l-70 195h-412l-69 -195h155v-147h-450v150h123l276 755h-147v150z" />
    <glyph glyph-name="Adieresis.sc" horiz-adv-x="1206" 
d="M406 1217q-53 0 -92 37q-38 38 -38 92t39 93q39 38 93 38t91 -38q38 -38 38 -92t-39 -92t-92 -38zM791 1217q-53 0 -92 37q-37 38 -37 92t38 93q38 38 92 38t92 -38t38 -92t-39 -92t-92 -38zM600 918l-154 -433h310zM283 1055h641v-150h-148l279 -755h121v-150h-455v147
h156l-70 195h-412l-69 -195h155v-147h-450v150h123l276 755h-147v150z" />
    <glyph glyph-name="AE.sc" horiz-adv-x="1490" 
d="M686 489v416h-31l-211 -416h242zM522 0v147h164v199h-313l-101 -199h148v-147h-432v150h110l391 755h-139v150h1032v-336h-163v190h-357v-309h326v-143h-326v-310h357v185h163v-332h-860z" />
    <glyph glyph-name="AEacute.sc" horiz-adv-x="1490" 
d="M686 489v416h-31l-211 -416h242zM1040 1575q44 0 70 -27q26 -28 27 -76q0 -48 -66 -92l-309 -194l-51 57l237 279q48 53 92 53zM522 0v147h164v199h-313l-101 -199h148v-147h-432v150h110l391 755h-139v150h1032v-336h-163v190h-357v-309h326v-143h-326v-310h357v185h163
v-332h-860z" />
    <glyph glyph-name="Agrave.sc" horiz-adv-x="1206" 
d="M600 918l-154 -433h310zM268 1474q0 48 27 74t71 27q44 0 91 -53l237 -279l-51 -57l-307 194q-68 46 -68 94zM283 1055h641v-150h-148l279 -755h121v-150h-455v147h156l-70 195h-412l-69 -195h155v-147h-450v150h123l276 755h-147v150z" />
    <glyph glyph-name="Amacron.sc" horiz-adv-x="1206" 
d="M600 918l-154 -433h310zM276 1251v154h648v-154h-648zM283 1055h641v-150h-148l279 -755h121v-150h-455v147h156l-70 195h-412l-69 -195h155v-147h-450v150h123l276 755h-147v150z" />
    <glyph glyph-name="Aogonek.sc" horiz-adv-x="1206" 
d="M600 918l-154 -433h310zM977 -412q-109 0 -166 54t-57 145q0 123 118 213h-151v147h156l-70 195h-412l-69 -195h155v-147h-450v150h123l276 755h-147v150h641v-150h-148l279 -755h121v-150h-146q-125 -72 -125 -172t111 -100q76 0 153 39l-8 -134q-75 -45 -184 -45z" />
    <glyph glyph-name="Aring.sc" horiz-adv-x="1206" 
d="M600 1063q49 0 80 35t31 86t-31 87t-80 36t-80 -36t-31 -87t31 -86t80 -35zM600 918l-154 -433h310zM481 147v-147h-450v150h123l276 755h-147v150h114q-43 59 -43 145t72 157t174 71t174 -72q72 -70 72 -172q0 -68 -41 -129h119v-150h-148l279 -755h121v-150h-455v147
h156l-70 195h-412l-69 -195h155z" />
    </font>
</defs>
</svg>
