<?xml version="1.0" standalone="no"?>
<!DOCTYPE svg PUBLIC "-//W3C//DTD SVG 1.1//EN" "http://www.w3.org/Graphics/SVG/1.1/DTD/svg11.dtd" >
<svg xmlns="http://www.w3.org/2000/svg">
<metadata>
Created by FontPrep 20130207 at Sun Apr  5 22:22:35 2015
 By Tina Kumar
Copyright (C) 2000, 2007 Hoefler &#38; Frere-Jones. http://www.typography.com
</metadata>
<defs>
<font id="53f1df1cc998cee47a8674f716048b0a" horiz-adv-x='1024' >
  <font-face 
    font-family="Archer-Thin"
    font-weight="265"
    font-stretch="normal"
    units-per-em="2048"
    panose-1="0 0 0 0 0 0 0 0 0 0"
    ascent="1638"
    descent="-410"
    x-height="836"
    cap-height="1348"
    bbox="-92 -461 2677 1898"
    underline-thickness="102"
    underline-position="-102"
    unicode-range="U+0020-FB04"
  />
<missing-glyph horiz-adv-x="1030" 
d="M514 492l-367 -799h734zM924 1384l-353 -770l353 -770v1540zM104 -156l353 770l-353 770v-1540zM147 1536l367 -799l367 799h-734zM2 -410v2048h1024v-2048h-1024z" />
    <glyph glyph-name="f_f" unicode="ff" horiz-adv-x="1021" 
d="M260 836h455v374q0 172 64 236t149 65q42 0 68 -16t26 -45t-29 -30q-29 0 -38 20t1 43q-12 4 -32 4q-68 1 -124 -57t-57 -218v-376h232v-25h-232v-786h172v-25h-362v25h162v786h-455v-786h172v-25h-362v25h161v786h-165v25h165v331q0 176 76 246q57 55 144 55t88 -57
q0 -33 -33 -33q-23 0 -33 20t4 42q-8 4 -35 4q-70 0 -116 -47q-66 -66 -66 -228v-333z" />
    <glyph glyph-name="fi" unicode="fi" horiz-adv-x="923" 
d="M709 836v-811h168v-25h-367v25h170v786h-420v-786h172v-25h-362v25h161v786h-165v25h165v342q0 184 91 264q66 59 141 59q75 1 110 -21t35 -44q0 -42 -35 -43q-27 -1 -33 23t11 44q-27 16 -72 17q-86 0 -143 -58q-76 -76 -76 -239v-344h449z" />
    <glyph glyph-name="fl" unicode="fl" horiz-adv-x="960" 
d="M490 1485q-94 0 -162 -65t-68 -206v-378h451v397q0 25 -2 37h-4q-33 0 -33 33q0 27 24 36q-14 45 -49 84q-62 62 -157 62zM739 1491v-1466h168v-25h-366v25h170v786h-451v-786h172v-25h-362v25h161v786h-165v25h165v378q0 154 74 225t187 70q155 0 221 -135l10 117h16z
" />
    <glyph glyph-name="f_f_i" unicode="ffi" horiz-adv-x="1404" 
d="M478 1440q-90 0 -154 -70t-64 -217v-317h455v342q0 186 88 264q67 59 143 59q76 1 111 -21t35 -44q0 -42 -35 -43q-27 -1 -34 23t9 44q-33 18 -69 19q-84 0 -142 -58q-78 -74 -78 -241v-344h447v-811h168v-25h-365v25h168v786h-418v-786h172v-25h-362v25h162v786h-455
v-786h172v-25h-362v25h161v786h-165v25h165v317q0 156 74 234t189 77q78 0 120 -32t43 -70q0 -16 -10 -28t-27 -11q-17 0 -28 14q-10 13 -6 33t20 31q-38 39 -128 39z" />
    <glyph glyph-name="f_f_l" unicode="ffl" horiz-adv-x="1437" 
d="M743 1214v-378h449v397q0 25 -2 37h-2q-33 0 -33 31t23 36q-14 47 -50 86q-61 61 -155 61t-162 -64q-68 -65 -68 -206zM478 1440q-90 0 -154 -70t-64 -217v-317h455v378q1 152 73 224t183 72t178 -68q31 -31 45 -66l10 115h17v-1466h170v-25h-367v25h168v786h-449v-786
h172v-25h-362v25h162v786h-455v-786h172v-25h-362v25h161v786h-165v25h165v317q0 156 74 234t189 77q78 0 120 -32t43 -70q0 -16 -10 -28t-27 -11q-17 0 -28 14q-10 13 -6 33t20 31q-38 39 -128 39z" />
    <glyph glyph-name="f_b" unicode="fb" horiz-adv-x="1583" 
d="M672 1303q0 27 24 36q-14 45 -49 84q-61 61 -157 61t-162 -64q-68 -65 -68 -206v-378h451v397q0 25 -2 37h-4q-33 0 -33 33zM1077 12q164 0 275 116t110 290q0 174 -106 290t-271 115q-195 0 -346 -176v-487q66 -66 157 -107t181 -41zM739 1491v-815q152 172 338 172
t301 -122t115 -307t-120 -308t-297 -123t-337 141l-14 -129h-14v811h-451v-786h172v-25h-362v25h161v786h-165v25h165v378q0 154 74 225t187 70q155 0 221 -135l10 117h16z" />
    <glyph glyph-name="f_h" unicode="fh" horiz-adv-x="1550" 
d="M672 1303q0 27 24 36q-14 45 -49 84q-61 61 -157 61t-162 -64q-68 -65 -68 -206v-378h451v397q0 25 -2 37h-4q-33 0 -33 33zM1092 848q247 0 247 -305v-518h162v-25h-354v25h164v516q0 127 -35 182q-53 98 -189 98q-184 0 -348 -215v-581h162v-25h-354v25h164v786h-451
v-786h172v-25h-362v25h161v786h-165v25h165v378q0 154 74 225t187 70q155 0 221 -135l10 117h16v-850q164 207 353 207z" />
    <glyph glyph-name="f_j" unicode="fj" horiz-adv-x="874" 
d="M231 836v342q0 184 91 264q66 59 141 59q75 1 110 -21t35 -44q0 -42 -35 -43q-27 -1 -33 23t11 44q-27 16 -72 17q-86 0 -143 -58q-76 -76 -76 -239v-344h449v-861q0 -129 -19 -208q-43 -176 -196 -177q-61 0 -102 31q-40 31 -40 71t33 40t33 -33q0 -25 -25 -35
q27 -49 101 -49q131 0 168 160q18 80 18 198v838h-420v-786h172v-25h-362v25h161v786h-165v25h165z" />
    <glyph glyph-name="f_k" unicode="fk" horiz-adv-x="1490" 
d="M260 1214v-378h451v397q0 25 -2 37h-4q-33 0 -33 33q0 27 24 36q-14 45 -49 84q-61 61 -157 61t-162 -64q-68 -65 -68 -206zM739 1491v-1159l506 479h-219v25h416v-25h-162l-317 -301l340 -485h139v-25h-160l-340 494l-203 -195v-274h162v-25h-354v25h164v786h-451v-786
h172v-25h-362v25h161v786h-165v25h165v378q0 154 74 225t187 70q155 0 221 -135l10 117h16z" />
    <glyph glyph-name="f_f_b" unicode="ffb" horiz-adv-x="2066" 
d="M1188 1270q-33 0 -33 31t23 36q-14 47 -50 86q-61 61 -155 61t-162 -64q-68 -65 -68 -206v-378h449v397q0 25 -2 37h-2zM1551 12q175 0 285 116t110 290t-106 290t-273 115q-195 0 -346 -176v-487q156 -148 330 -148zM478 1440q-90 0 -154 -70t-64 -217v-317h455v378
q1 154 73 225t183 71t178 -68q31 -35 45 -68l10 117h17v-815q152 172 338 172t301 -122q114 -122 114 -307t-120 -308t-296 -123t-337 141l-15 -129h-14v811h-449v-786h172v-25h-362v25h162v786h-455v-786h172v-25h-362v25h161v786h-165v25h165v317q0 156 74 234t189 77
q78 0 120 -32t43 -70q0 -16 -10 -28t-27 -11q-17 0 -28 14q-10 13 -6 33t20 31q-38 39 -128 39z" />
    <glyph glyph-name="f_f_h" unicode="ffh" horiz-adv-x="2033" 
d="M743 1214v-378h449v397q0 25 -2 37h-2q-33 0 -33 31t23 36q-14 47 -50 86q-61 61 -155 61t-162 -64q-68 -65 -68 -206zM478 1440q-90 0 -154 -70t-64 -217v-317h455v378q1 152 73 224t183 72t178 -68q31 -31 45 -66l10 115h17v-850q164 207 352 207q145 0 211 -113
q37 -63 37 -192v-518h164v-25h-355v25h162v516q0 125 -33 182q-53 98 -188 98q-182 0 -350 -215v-581h161v-25h-354v25h164v786h-449v-786h172v-25h-362v25h162v786h-455v-786h172v-25h-362v25h161v786h-165v25h165v317q0 156 74 234t189 77q78 0 120 -32t43 -70
q0 -16 -10 -28t-27 -11q-17 0 -28 14q-10 13 -6 33t20 31q-38 39 -128 39z" />
    <glyph glyph-name="f_f_j" unicode="ffj" horiz-adv-x="1357" 
d="M478 1440q-90 0 -154 -70t-64 -217v-317h455v342q0 186 88 264q67 59 143 59q76 1 111 -21t35 -44q0 -42 -35 -43q-27 -1 -34 23t9 44q-33 18 -69 19q-84 0 -142 -58q-78 -74 -78 -241v-344h447v-861q0 -141 -19 -208q-43 -176 -196 -177q-61 0 -101 31q-38 31 -38 71
t32 40t31 -33q0 -23 -22 -35q23 -49 90 -49q141 0 178 160q16 72 16 198v838h-418v-786h172v-25h-362v25h162v786h-455v-786h172v-25h-362v25h161v786h-165v25h165v317q0 156 74 234t189 77q78 0 120 -32t43 -70q0 -16 -10 -28t-27 -11q-17 0 -28 14q-10 13 -6 33t20 31
q-38 39 -128 39z" />
    <glyph glyph-name="f_f_k" unicode="ffk" horiz-adv-x="1974" 
d="M743 1214v-378h449v397q0 25 -2 37h-2q-33 0 -33 31t23 36q-14 47 -50 86q-61 61 -155 61t-162 -64q-68 -65 -68 -206zM478 1440q-90 0 -154 -70t-64 -217v-317h455v378q1 152 73 224t183 72t178 -68q31 -31 45 -66l10 115h17v-1159l505 479h-219v25h418v-25h-164
l-317 -301l340 -485h141v-25h-160l-342 494l-202 -195v-274h161v-25h-354v25h164v786h-449v-786h172v-25h-362v25h162v786h-455v-786h172v-25h-362v25h161v786h-165v25h165v317q0 156 74 234t189 77q78 0 120 -32t43 -70q0 -16 -10 -28t-27 -11q-17 0 -28 14q-10 13 -6 33
t20 31q-38 39 -128 39z" />
    <glyph glyph-name=".notdef" horiz-adv-x="1030" 
d="M514 492l-367 -799h734zM924 1384l-353 -770l353 -770v1540zM104 -156l353 770l-353 770v-1540zM147 1536l367 -799l367 799h-734zM2 -410v2048h1024v-2048h-1024z" />
    <glyph glyph-name=".null" horiz-adv-x="0" 
 />
    <glyph glyph-name="nonmarkingreturn" horiz-adv-x="681" 
 />
    <glyph glyph-name="space" unicode=" " horiz-adv-x="458" 
 />
    <glyph glyph-name="exclam" unicode="!" horiz-adv-x="389" 
d="M195 -16q-16 0 -29 12q-12 12 -12 28t12 29t28 13t29 -12q28 -29 0 -58q-12 -12 -28 -12zM186 313l-10 1035h39l-10 -1035h-19z" />
    <glyph glyph-name="quotedbl" unicode="&#x22;" horiz-adv-x="446" 
d="M125 1364q27 0 25 -37l-17 -268h-12l-19 268q-4 37 23 37zM319 1364q29 0 23 -37l-16 -268h-13l-16 268q-2 37 22 37z" />
    <glyph glyph-name="numbersign" unicode="#" horiz-adv-x="964" 
d="M340 705l-57 -373h340l57 373h-340zM100 705v26h217l43 283h27l-43 -283h340l45 283h27l-45 -283h217v-26h-221l-58 -373h215v-27h-219l-47 -305h-27l47 305h-339l-48 -305h-26l47 305h-215v27h219l57 373h-213z" />
    <glyph glyph-name="dollar" unicode="$" horiz-adv-x="854" 
d="M158 770q0 -90 66 -140t200 -98l33 447h-19q-124 1 -202 -59t-78 -150zM420 20q139 0 223 64t84 160t-69 150t-212 104l-36 -478h10zM756 244q0 -110 -93 -178t-243 -68h-12l-17 -209l-24 2l16 209q-133 8 -215 66t-82 133q0 47 33 47t33 -35t-31 -41q12 -55 84 -97
t180 -50l37 483q-147 51 -219 107q-72 55 -72 155t86 167t221 66h21l12 158l25 -2l-13 -158q111 -10 181 -59t70 -100t-34 -52q-32 0 -32 33t28 39q-16 43 -74 76q-59 33 -141 41l-32 -453q155 -51 231 -111t76 -169z" />
    <glyph glyph-name="percent" unicode="%" horiz-adv-x="1189" 
d="M205 -27l-23 15l785 1024l20 -15zM1044 221q0 85 -52 143t-131 58t-131 -58t-52 -142t52 -143t131 -59t131 58t52 143zM329 602q79 0 131 58t52 142t-52 144t-131 60t-132 -60t-53 -142t52 -142q54 -60 133 -60zM861 444q89 0 152 -65q62 -66 62 -158t-62 -159
q-61 -66 -151 -66t-151 66t-62 159q-1 91 61 157t151 66zM329 580q-91 0 -153 65q-61 66 -61 159t61 159q60 65 152 65t153 -66t61 -159q0 -91 -60 -157q-62 -66 -153 -66z" />
    <glyph glyph-name="ampersand" unicode="&#x26;" horiz-adv-x="1159" 
d="M246 981q0 -131 147 -295q143 82 217 156t74 170t-59 154t-155 58t-160 -69q-64 -70 -64 -174zM395 10q240 0 410 234l-283 274q-98 94 -137 137q-137 -80 -212 -167q-75 -86 -75 -204t80 -196t217 -78zM1122 594h-123q-72 -217 -161 -344l260 -250l-19 -20l-256 247
q-180 -242 -428 -241q-149 0 -237 84t-88 212t78 218q79 90 221 174q-152 168 -152 295t73 203t180 77q107 -1 175 -65t68 -169t-79 -185t-224 -162l411 -402q96 141 152 328h-139v22h288v-22z" />
    <glyph glyph-name="quotesingle" unicode="'" horiz-adv-x="253" 
d="M125 1364q27 0 25 -37l-17 -268h-12l-19 268q-4 37 23 37z" />
    <glyph glyph-name="parenleft" unicode="(" horiz-adv-x="614" 
d="M139 532q0 270 122 540t360 454l18 -21q-237 -182 -353 -444q-116 -263 -116 -529t117 -528t352 -444l-18 -21q-238 183 -360 453t-122 540z" />
    <glyph glyph-name="parenright" unicode=")" horiz-adv-x="614" 
d="M473 532q1 -270 -121 -540t-358 -453l-19 21q233 182 351 444q117 262 116 528q0 266 -116 528t-351 445l19 21q236 -182 358 -452q122 -272 121 -542z" />
    <glyph glyph-name="asterisk" unicode="*" horiz-adv-x="692" 
d="M346 1436q24 0 19 -33l-13 -227l211 84q33 12 39 -9q2 -22 -29 -28l-217 -60l144 -174q23 -23 6 -39q-20 -14 -39 17l-121 188l-121 -188q-15 -31 -35 -18t3 40l143 174l-219 60q-35 8 -27 28q6 20 37 9l213 -84l-12 227q-6 33 18 33z" />
    <glyph glyph-name="plus" unicode="+" horiz-adv-x="765" 
d="M369 238v284h-277v25h277v284h26v-284h277v-25h-277v-284h-26z" />
    <glyph glyph-name="comma" unicode="," horiz-adv-x="266" 
d="M172 2q0 -119 -113 -209l-8 12q90 90 92 185q-20 -2 -35 9q-16 11 -16 29t10 28q10 11 25 12q45 0 45 -66z" />
    <glyph glyph-name="hyphen" unicode="-" horiz-adv-x="487" 
d="M72 535v28h342v-28h-342z" />
    <glyph glyph-name="period" unicode="." horiz-adv-x="266" 
d="M133 -16q-16 0 -29 12q-12 12 -12 28t12 29q29 29 58 0q12 -12 12 -28t-12 -29q-13 -12 -29 -12z" />
    <glyph glyph-name="slash" unicode="/" horiz-adv-x="829" 
d="M-53 -410l-25 13l840 1896l24 -12z" />
    <glyph glyph-name="zero" unicode="0" horiz-adv-x="1019" 
d="M509 8q175 0 287 142t111 356q0 213 -111 355q-112 143 -287 143t-287 -142t-112 -355q0 -215 112 -357t287 -142zM938 506q0 -222 -121 -372t-308 -150t-308 148t-121 374t121 374t308 148t308 -150t121 -372z" />
    <glyph glyph-name="one" unicode="1" horiz-adv-x="702" 
d="M117 0v25h241v964l-229 -67l-6 24l254 76h10v-997h244v-25h-514z" />
    <glyph glyph-name="two" unicode="2" horiz-adv-x="903" 
d="M428 1006q-180 0 -260 -132q-18 -31 -23 -65q37 -10 37 -42t-35 -32t-35 49t33 103q88 141 285 141q145 0 226 -73t81 -182q1 -109 -65 -187t-199 -169t-224 -180t-138 -212h628v194h27v-219h-686l-6 10q51 136 147 232q97 96 233 190t195 166t59 174t-73 168
q-74 66 -207 66z" />
    <glyph glyph-name="three" unicode="3" horiz-adv-x="907" 
d="M82 -28q0 52 37 53q14 -1 23 -11t10 -24q0 -31 -37 -39q8 -39 30 -68q84 -115 285 -114q154 0 247 91t93 224q0 205 -209 281q-86 35 -219 34h-20v25h22q125 0 221 45q182 84 183 266q0 111 -83 190t-225 79q-182 0 -266 -125q-18 -29 -27 -70q37 -6 37 -40t-32 -34
q-37 0 -37 50t35 104q90 139 290 139q154 0 246 -86t92 -207q0 -207 -207 -289q-63 -25 -116 -32q51 -6 114 -27q109 -37 170 -114t62 -187q-1 -146 -105 -244t-266 -98q-221 0 -309 129q-39 47 -39 99z" />
    <glyph glyph-name="four" unicode="4" horiz-adv-x="915" 
d="M621 -246v408h-594l-4 10l622 860l23 -16l-602 -828h555v420l26 10v-430h242v-26h-242v-408h-26z" />
    <glyph glyph-name="five" unicode="5" horiz-adv-x="874" 
d="M78 -38q0 48 33 48t32 -33q0 -31 -32 -38q8 -33 30 -60q89 -106 261 -106t273 100t101 260t-103 251t-260 91t-270 -59l-14 10l66 588h536v-27h-510l-63 -541q106 53 239 54q182 0 296 -98t114 -269q0 -169 -111 -277t-292 -108t-277 111q-49 55 -49 103z" />
    <glyph glyph-name="six" unicode="6" horiz-adv-x="974" 
d="M512 745q-156 -1 -260 -111t-104 -264t104 -258t256 -104t256 110q102 110 102 266t-99 258q-99 103 -255 103zM567 1257q-178 0 -304 -187t-126 -548v-65l10 41q33 112 133 192t250 80t258 -111t107 -277q0 -166 -111 -282q-112 -116 -276 -116t-282 118t-117 420
q0 372 134 566t324 194q141 0 226 -84q45 -47 45 -96t-33 -49q-33 -1 -33 31t31 44q-12 33 -31 52q-74 77 -205 77z" />
    <glyph glyph-name="seven" unicode="7" horiz-adv-x="821" 
d="M104 991v-252h-26v275h688l6 -10l-522 -1248l-25 11l512 1224h-633z" />
    <glyph glyph-name="eight" unicode="8" horiz-adv-x="942" 
d="M471 8q152 0 251 91t99 227t-101 227q-101 90 -250 90t-250 -90t-101 -226q0 -135 100 -227t252 -92zM470 664q138 0 231 84t93 210t-92 212t-232 87q-140 0 -232 -86q-92 -87 -92 -213t92 -210q94 -84 232 -84zM850 315q0 -135 -108 -233t-272 -98q-162 0 -272 97
t-110 233t84 226q84 91 215 113q-121 25 -197 108t-76 209t102 218q101 94 255 94t253 -93t99 -219q1 -126 -75 -210q-76 -82 -197 -107q131 -23 215 -113t84 -225z" />
    <glyph glyph-name="nine" unicode="9" horiz-adv-x="974" 
d="M123 624q0 -156 99 -260t255 -104t260 112q105 112 105 268t-109 261q-98 103 -252 103t-256 -112t-102 -268zM420 -270q-145 0 -225 84q-47 47 -47 95t36 48q31 0 31 -31t-33 -47q12 -33 33 -51q76 -76 207 -76q180 0 306 188t124 547v68q-6 -43 -21 -72
q-43 -106 -137 -177t-217 -70q-167 0 -275 110t-108 277t112 285t276 118t281 -118q118 -118 118 -421q0 -375 -134 -566t-327 -191z" />
    <glyph glyph-name="colon" unicode=":" horiz-adv-x="303" 
d="M152 -16q-16 0 -29 12q-12 12 -12 28t12 29q13 13 29 13t28 -12q28 -29 0 -58q-12 -12 -28 -12zM152 600q-16 0 -29 12q-12 12 -12 28t12 30q13 12 29 12t28 -12q29 -29 0 -58q-12 -12 -28 -12z" />
    <glyph glyph-name="semicolon" unicode=";" horiz-adv-x="303" 
d="M111 26q0 18 11 30q11 11 25 12q47 0 48 -68q0 -113 -117 -209l-10 12q90 90 94 185q-23 -4 -37 8t-14 30zM152 600q-16 0 -29 12q-12 12 -12 28t12 30q13 12 29 12t28 -12q29 -29 0 -58q-12 -12 -28 -12z" />
    <glyph glyph-name="less" unicode="&#x3c;" horiz-adv-x="724" 
d="M569 209l-460 301v10l460 301l15 -20l-439 -285l439 -287z" />
    <glyph glyph-name="equal" unicode="=" horiz-adv-x="765" 
d="M92 367v24h580v-24h-580zM92 637v25h580v-25h-580z" />
    <glyph glyph-name="greater" unicode="&#x3e;" horiz-adv-x="724" 
d="M156 209l-15 20l437 287l-437 285l15 20l460 -301v-10z" />
    <glyph glyph-name="question" unicode="?" horiz-adv-x="802" 
d="M381 0q-20 -16 -39 8q-16 27 8 42t39 -9q19 -27 -8 -41zM80 1024q-39 0 -39 57t43 125q98 154 311 154q156 0 258 -98q103 -98 103 -242t-100 -246t-275 -141l-4 -320h-21l-6 336q178 37 278 134q99 97 99 233t-93 228q-93 91 -239 91q-203 0 -293 -147q-20 -35 -30 -82
q45 -6 45 -47q1 -15 -11 -25t-26 -10z" />
    <glyph glyph-name="at" unicode="@" horiz-adv-x="1560" 
d="M707 102q145 0 236 134t91 292q0 110 -57 174t-152 64q-137 0 -235 -121t-98 -291q0 -116 56 -184t159 -68zM631 -344q-246 0 -392 163t-147 425q0 262 116 488t309 358q193 131 431 131t382 -152t144 -391q0 -240 -100 -412t-235 -172q-86 0 -123 52t-21 143
q-39 -88 -117 -149q-80 -60 -184 -60t-168 72q-63 72 -63 202q0 180 107 308q108 127 255 126q111 0 169 -72t57 -186l61 252h29l-113 -452q-25 -100 2 -156t109 -57q125 0 219 167q94 166 94 396t-137 374t-369 144t-418 -128q-188 -128 -299 -348t-111 -476t139 -412
q138 -156 374 -156q193 0 352 86l12 -18q-161 -90 -364 -90z" />
    <glyph glyph-name="A" unicode="A" horiz-adv-x="1396" 
d="M414 551h569l-285 774zM14 0v27h174l480 1294h-205v27h473v-27h-205l477 -1294h176v-27h-426v27h218l-183 499h-590l-184 -499h221v-27h-426z" />
    <glyph glyph-name="B" unicode="B" horiz-adv-x="1183" 
d="M313 702h314q182 0 279 88q98 88 98 222q0 133 -96 221t-285 88h-310v-619zM313 27h318q184 0 298 88q113 88 113 236q0 149 -106 237t-309 88h-314v-649zM78 0v27h205v1294h-205v27h547q201 0 305 -96t104 -231q0 -134 -84 -224t-223 -107q166 -16 256 -107t90 -242
t-122 -246t-322 -95h-551z" />
    <glyph glyph-name="C" unicode="C" horiz-adv-x="1413" 
d="M780 -25q-291 0 -480 199t-189 493q1 295 193 499t476 206q207 0 352 -108q144 -109 144 -236q0 -55 -43 -55q-14 0 -26 10q-11 10 -11 27q0 41 45 45q-6 102 -138 196t-323 95q-272 0 -454 -197t-182 -481t180 -475t462 -191t474 209l16 -21q-205 -215 -496 -215z" />
    <glyph glyph-name="D" unicode="D" horiz-adv-x="1439" 
d="M313 27h273q336 0 519 177t183 472t-184 470t-524 175h-267v-1294zM78 0v27h205v1294h-205v27h502q352 0 546 -184t193 -488q0 -304 -193 -490t-540 -186h-508z" />
    <glyph glyph-name="E" unicode="E" horiz-adv-x="1148" 
d="M78 0v27h205v1294h-205v27h934v-301h-29v274h-670v-619h512v-26h-512v-649h670v274h29v-301h-934z" />
    <glyph glyph-name="F" unicode="F" horiz-adv-x="1093" 
d="M78 0v27h205v1294h-205v27h913v-301h-28v274h-650v-627h496v-26h-496v-641h217v-27h-452z" />
    <glyph glyph-name="G" unicode="G" horiz-adv-x="1476" 
d="M779 -25q-286 0 -476 194t-190 496q1 301 197 503t481 204q213 0 358 -100t145 -209q0 -51 -37 -51t-36 37q0 37 36 45q-20 92 -152 172t-317 80q-280 -2 -462 -200t-182 -484t178 -472q180 -188 462 -188t496 211v356h-457v27h486v-596h-29v180q-215 -205 -501 -205z
" />
    <glyph glyph-name="H" unicode="H" horiz-adv-x="1536" 
d="M78 0v27h205v1294h-205v27h446v-27h-211v-614h908v614h-209v27h446v-27h-207v-1294h207v-27h-446v27h209v653h-908v-653h211v-27h-446z" />
    <glyph glyph-name="I" unicode="I" horiz-adv-x="618" 
d="M78 0v27h215v1294h-215v27h463v-27h-215v-1294h215v-27h-463z" />
    <glyph glyph-name="J" unicode="J" horiz-adv-x="1005" 
d="M410 -25q-138 -1 -236 93t-98 235q0 68 43 68q35 0 35 -37q0 -18 -14 -32t-36 -13q2 -121 90 -204t217 -83q128 0 210 86q111 111 110 348v885h-233v27h452v-27h-188v-885q0 -248 -119 -366q-94 -95 -233 -95z" />
    <glyph glyph-name="K" unicode="K" horiz-adv-x="1323" 
d="M78 0v27h205v1294h-205v27h446v-27h-211v-801l785 801h-238v27h447v-27h-174l-545 -555l532 -739h199v-27h-217l-533 745l-256 -260v-458h211v-27h-446z" />
    <glyph glyph-name="L" unicode="L" horiz-adv-x="1050" 
d="M78 0v27h205v1294h-205v27h450v-27h-215v-1294h627v278h31v-305h-893z" />
    <glyph glyph-name="M" unicode="M" horiz-adv-x="1708" 
d="M55 0v27h215l47 1294h-211v27h246l502 -1108l504 1108h244v-27h-211l45 -1294h217v-27h-436v27h190l-43 1267l-504 -1106h-14l-502 1108l-45 -1269h193v-27h-437z" />
    <glyph glyph-name="N" unicode="N" horiz-adv-x="1513" 
d="M311 27h217v-27h-450v27h205v1294h-205v27h231l918 -1299v1272h-209v27h444v-27h-205v-1331h-22l-924 1302v-1265z" />
    <glyph glyph-name="O" unicode="O" horiz-adv-x="1566" 
d="M783 2q273 0 457 195q183 195 183 477t-183 478q-182 194 -456 194t-457 -195t-183 -477t182 -478q184 -194 457 -194zM781 -25q-287 0 -479 203t-191 496q-1 294 193 496t480 202t478 -203t192 -495t-194 -496q-194 -203 -479 -203z" />
    <glyph glyph-name="P" unicode="P" horiz-adv-x="1118" 
d="M598 563q194 -1 306 103q114 104 114 275t-116 275t-312 105h-277v-752q91 -6 285 -6zM78 0v27h205v1294h-205v27h510q209 0 335 -113t126 -294t-124 -293t-347 -111q-104 0 -265 6v-516h211v-27h-446z" />
    <glyph glyph-name="Q" unicode="Q" horiz-adv-x="1566" 
d="M797 2q259 0 443 195q183 195 183 477t-183 478q-182 194 -456 194t-457 -195t-183 -491t208 -492q186 -166 445 -166zM1376 -285q-82 0 -148 31t-195 118t-339 120t-360 168q-223 203 -223 509q-1 307 193 509t480 202t478 -203t192 -491t-181 -489q-181 -200 -456 -207
q127 -27 243 -107q116 -81 178 -107t138 -26t154 47l12 -22q-84 -52 -166 -52z" />
    <glyph glyph-name="R" unicode="R" horiz-adv-x="1200" 
d="M565 629q201 0 320 92t119 253t-111 254t-307 93h-273v-688q160 -4 252 -4zM78 0v27h205v1294h-205v27h510q206 0 326 -102t120 -260q0 -159 -95 -255t-261 -121l356 -583h172v-27h-192l-367 606q-41 -4 -139 -4t-195 4v-579h215v-27h-450z" />
    <glyph glyph-name="S" unicode="S" horiz-adv-x="1032" 
d="M516 -23q-176 0 -290 83t-113 178q0 55 39 55q12 0 23 -11t11 -28q0 -37 -39 -43q17 -82 119 -145q102 -64 259 -64t261 88t104 230t-115 229q-90 67 -209 115q-120 48 -170 74q-157 80 -205 174q-30 60 -29 139q0 137 107 228t263 91t260 -76t105 -168q0 -51 -36 -51
t-36 35t35 45q-16 78 -107 134q-91 57 -227 57t-236 -85q-99 -85 -100 -208q0 -162 161 -256q58 -35 166 -79t166 -75q59 -31 117 -76q120 -93 120 -246q0 -154 -114 -249t-290 -95z" />
    <glyph glyph-name="T" unicode="T" horiz-adv-x="1255" 
d="M393 0v27h219v1294h-508v-279h-28v306h1104v-306h-31v279h-506v-1294h217v-27h-467z" />
    <glyph glyph-name="U" unicode="U" horiz-adv-x="1380" 
d="M690 -25q-210 0 -322 127t-112 365v854h-207v27h445v-27h-209v-852q0 -229 103 -348t303 -119t302 119t103 348v852h-207v27h442v-27h-205v-854q0 -238 -112 -365t-324 -127z" />
    <glyph glyph-name="V" unicode="V" horiz-adv-x="1376" 
d="M6 1321v27h426v-27h-215l471 -1305l471 1305h-217v27h426v-27h-178l-492 -1350h-22l-490 1350h-180z" />
    <glyph glyph-name="W" unicode="W" horiz-adv-x="1951" 
d="M0 1321v27h446v-27h-223l379 -1301l365 1133h18l365 -1133l379 1301h-226v27h449v-27h-193l-399 -1350h-21l-364 1127l-363 -1127h-20l-399 1350h-193z" />
    <glyph glyph-name="X" unicode="X" horiz-adv-x="1390" 
d="M45 0v27h166l467 665l-440 629h-162v27h383v-27h-187l422 -610l424 610h-188v27h383v-27h-162l-440 -629l467 -665h165v-27h-380v27h180l-449 647l-450 -647h184v-27h-383z" />
    <glyph glyph-name="Y" unicode="Y" horiz-adv-x="1277" 
d="M401 0v27h222v553l-426 741h-185v27h439v-27h-220l408 -719l408 719h-220v27h439v-27h-187l-426 -741v-553h221v-27h-473z" />
    <glyph glyph-name="Z" unicode="Z" horiz-adv-x="1159" 
d="M82 0v14l930 1307h-856v-274h-29v301h926v-15l-930 -1306h924v274h28v-301h-993z" />
    <glyph glyph-name="bracketleft" unicode="[" horiz-adv-x="616" 
d="M217 -410v1909h375v-26h-344v-1856h344v-27h-375z" />
    <glyph glyph-name="backslash" unicode="\" horiz-adv-x="829" 
d="M881 -410l-840 1897l25 12l839 -1896z" />
    <glyph glyph-name="bracketright" unicode="]" horiz-adv-x="616" 
d="M25 -410v27h342v1856h-342v26h372v-1909h-372z" />
    <glyph glyph-name="asciicircum" unicode="^" horiz-adv-x="821" 
d="M172 821l-10 13l250 215l247 -215l-10 -13l-237 180z" />
    <glyph glyph-name="underscore" unicode="_" horiz-adv-x="993" 
d="M-8 -248v29h1007v-29h-1007z" />
    <glyph glyph-name="grave" unicode="`" horiz-adv-x="1030" 
d="M268 1167q0 23 21 23q10 0 30 -12l275 -156l-8 -12l-289 129q-29 12 -29 28z" />
    <glyph glyph-name="a" unicode="a" horiz-adv-x="925" 
d="M360 12q182 0 326 176v203q-140 55 -280 55t-216 -63t-76 -155t63 -154q62 -62 183 -62zM686 575q0 248 -260 248q-90 1 -155 -31t-87 -73q23 -10 23 -41t-34 -31t-34 45q0 44 81 100t206 56q166 0 240 -96q49 -61 49 -174v-553h162v-25h-189v160q-141 -172 -328 -172
q-130 0 -202 68t-72 172t86 174t226 69q140 0 288 -55v159z" />
    <glyph glyph-name="b" unicode="b" horiz-adv-x="1054" 
d="M539 12q175 0 285 116t110 290t-106 290t-271 115q-197 0 -348 -176v-487q156 -148 330 -148zM548 -12q-177 0 -337 141l-14 -129h-17v1452h-162v23h191v-799q152 172 339 172t302 -122t115 -307t-120 -308t-297 -123z" />
    <glyph glyph-name="c" unicode="c" horiz-adv-x="913" 
d="M510 -12q-176 0 -299 114t-123 304q0 192 122 317t290 125q133 0 223 -72t90 -158q0 -47 -35 -47t-35 35t39 43q-14 70 -94 122t-188 52q-158 1 -271 -117t-113 -297t116 -288t284 -109t281 88v-26q-111 -86 -287 -86z" />
    <glyph glyph-name="d" unicode="d" horiz-adv-x="1087" 
d="M506 823q-162 -1 -275 -117t-113 -290t108 -289q106 -115 284 -115t334 176v488q-68 63 -160 105t-178 42zM506 -12q-186 0 -301 122t-115 306t120 308t296 124t338 -143v747h-174v23h202v-1450h162v-25h-190v158q-152 -170 -338 -170z" />
    <glyph glyph-name="e" unicode="e" horiz-adv-x="935" 
d="M488 823q-152 0 -256 -104t-113 -262h698q-2 156 -90 261q-87 105 -239 105zM119 432v-8q1 -192 109 -302t278 -110t297 92l-2 -28q-129 -88 -303 -88t-291 116t-117 310q0 192 114 313t282 121t264 -116t96 -281q0 -13 -2 -19h-725z" />
    <glyph glyph-name="f" unicode="f" horiz-adv-x="538" 
d="M539 1460q1 -40 -37 -41q-18 1 -28 21q-9 20 3 43q-20 4 -39 4q-66 -1 -122 -59t-56 -216v-376h232v-25h-232v-786h172v-25h-362v25h161v786h-165v25h165v374q0 170 76 244q57 57 137 57q43 0 69 -16q26 -15 26 -35z" />
    <glyph glyph-name="g" unicode="g" horiz-adv-x="1079" 
d="M509 823q-167 1 -277 -115t-110 -290t105 -289t279 -115t328 179v481q-158 149 -325 149zM862 811v-870q0 -150 -61 -230q-96 -121 -303 -121q-115 0 -193 36t-106 85q-16 27 -17 47q0 41 35 41t35 -33t-31 -40q25 -45 97 -78t182 -33q193 0 278 113q55 74 56 213v221
q-156 -170 -334 -170t-292 122t-114 305t118 306t288 123t336 -143v131h190v-25h-164z" />
    <glyph glyph-name="h" unicode="h" horiz-adv-x="1052" 
d="M213 1452h-164v23h193v-834q164 207 352 207q143 0 209 -113q39 -70 39 -192v-518h162v-25h-355v25h164v516q0 121 -35 182q-57 98 -188 98q-184 0 -348 -215v-581h161v-25h-354v25h164v1427z" />
    <glyph glyph-name="i" unicode="i" horiz-adv-x="479" 
d="M68 0v25h168v786h-168v25h196v-811h168v-25h-364zM199 1210q0 39 38 39t38 -39t-39 -39q-16 -1 -26 11t-11 28z" />
    <glyph glyph-name="j" unicode="j" horiz-adv-x="430" 
d="M229 1171q-16 -1 -26 11t-10 28t10 28t26 11q39 0 39 -39t-39 -39zM-92 -308q0 40 32 40t31 -33q0 -23 -22 -35q23 -49 90 -49q143 0 178 160q16 72 16 198v838h-196v25h225v-861q0 -137 -18 -208q-45 -176 -197 -177q-61 0 -100 31t-39 71z" />
    <glyph glyph-name="k" unicode="k" horiz-adv-x="987" 
d="M49 0v25h164v1427h-164v23h193v-1143l506 479h-220v25h418v-25h-164l-317 -301l340 -485h141v-25h-162l-340 494l-202 -195v-274h161v-25h-354z" />
    <glyph glyph-name="l" unicode="l" horiz-adv-x="466" 
d="M49 0v25h168v1427h-168v23h197v-1450h170v-25h-367z" />
    <glyph glyph-name="m" unicode="m" horiz-adv-x="1638" 
d="M68 0v25h161v786h-161v25h190v-195q168 207 346 207q147 0 207 -119q20 -45 27 -92q164 211 348 211q150 0 211 -123q31 -63 30 -182v-518h162v-25h-354v25h164v516q0 111 -27 170q-53 111 -188 110q-174 0 -342 -213v-583h164v-25h-355v25h162v516q0 115 -25 168
q-49 113 -186 112q-176 0 -344 -213v-583h164v-25h-354z" />
    <glyph glyph-name="n" unicode="n" horiz-adv-x="1071" 
d="M612 848q248 0 248 -305v-518h162v-25h-354v25h163v516q0 113 -28 172q-51 109 -195 108q-182 0 -350 -215v-581h164v-25h-354v25h161v786h-161v25h190v-197q166 209 354 209z" />
    <glyph glyph-name="o" unicode="o" horiz-adv-x="1015" 
d="M507 12q167 0 277 118t111 289q0 171 -110 288q-111 117 -277 117t-278 -118t-112 -289t112 -288q110 -117 277 -117zM507 -12q-179 0 -298 123t-119 305t120 307t299 125t298 -123t119 -305t-120 -307t-299 -125z" />
    <glyph glyph-name="p" unicode="p" horiz-adv-x="1069" 
d="M566 12q167 0 275 115t107 291q0 176 -102 291t-274 115t-328 -179v-485q155 -148 322 -148zM53 -401v24h162v1188h-162v25h191v-160q152 172 331 172t291 -122t111 -308q0 -186 -116 -308t-287 -122t-330 141v-506h164v-24h-355z" />
    <glyph glyph-name="q" unicode="q" horiz-adv-x="1048" 
d="M512 12q180 0 334 176v486q-160 150 -332 150t-284 -116t-112 -291t108 -290q106 -115 286 -115zM682 -401v24h164v535q-156 -170 -340 -170t-300 122t-116 307t120 308t297 123t337 -141l14 129h16v-1213h162v-24h-354z" />
    <glyph glyph-name="r" unicode="r" horiz-adv-x="663" 
d="M528 848q39 0 62 -16t22 -39q0 -37 -34 -37t-35 37q0 14 10 24q-8 4 -29 4q-135 0 -266 -217v-579h172v-25h-362v25h161v786h-161v25h190v-197q123 209 270 209z" />
    <glyph glyph-name="s" unicode="s" horiz-adv-x="796" 
d="M682 685q0 -38 -34 -38t-34 35q0 27 31 35q-8 18 -24 35q-77 72 -205 72t-198 -54q-70 -53 -71 -134q0 -81 67 -121t206 -75t212 -83t73 -146q0 -99 -84 -161t-202 -62t-195 36q-78 36 -108 79t-30 65q0 45 34 45t34 -35q0 -29 -29 -35q20 -49 95 -90q74 -41 190 -41
t191 56t75 141q0 108 -116 160q-55 23 -179 56q-125 32 -194 76t-69 134t81 151q80 61 200 62q168 0 250 -90q33 -35 33 -73z" />
    <glyph glyph-name="t" unicode="t" horiz-adv-x="565" 
d="M350 -12q-121 0 -153 100q-14 43 -15 113v610h-153v25h153v235l29 6v-241h295v-25h-295v-608q0 -63 12 -103q27 -88 129 -88q72 0 152 49l-4 -26q-74 -47 -150 -47z" />
    <glyph glyph-name="u" unicode="u" horiz-adv-x="1058" 
d="M459 -12q-154 0 -215 118q-33 57 -33 187v518h-162v25h191v-543q0 -117 28 -172q55 -109 195 -109q182 0 348 221v578h-162v25h191v-811h164v-25h-191v203q-164 -215 -354 -215z" />
    <glyph glyph-name="v" unicode="v" horiz-adv-x="968" 
d="M-6 811v25h346v-25h-178l323 -797l322 797h-178v25h346v-25h-137l-344 -840h-19l-344 840h-137z" />
    <glyph glyph-name="w" unicode="w" horiz-adv-x="1314" 
d="M-6 811v25h346v-25h-178l213 -788l274 708h17l274 -708l213 788h-178v25h346v-25h-139l-234 -840h-16l-275 713l-276 -713h-16l-232 840h-139z" />
    <glyph glyph-name="x" unicode="x" horiz-adv-x="954" 
d="M31 0v25h129l301 405l-281 381h-133v25h320v-25h-154l266 -365l264 365h-153v25h317v-25h-133l-276 -379l297 -407h129v-25h-326v25h166l-285 389l-286 -389h163v-25h-325z" />
    <glyph glyph-name="y" unicode="y" horiz-adv-x="948" 
d="M152 -410q-39 0 -64 16t-25 40q0 35 33 35q23 -1 33 -21t-4 -43q16 -4 27 -4q90 0 163 104q43 59 103 197l43 104l-328 793h-139v25h346v-25h-176l309 -764l318 764h-181v25h346v-25h-139l-377 -903q-51 -129 -102 -203q-80 -115 -186 -115z" />
    <glyph glyph-name="z" unicode="z" horiz-adv-x="768" 
d="M61 0v16l603 795h-535v-184h-29v209h600v-17l-604 -794h580v182h29v-207h-644z" />
    <glyph glyph-name="braceleft" unicode="{" horiz-adv-x="589" 
d="M129 -165q0 107 130 259t130 236q0 82 -66 141q-67 59 -173 59h-56v25h56q108 0 174 58q66 57 66 141t-126 225q-135 159 -135 267t101 192t264 88v-25q-152 -4 -244 -81t-92 -175q0 -99 130 -247t130 -235t-56 -147t-151 -73q94 -13 150 -75q57 -62 57 -148t-127 -230
q-133 -158 -133 -254t92 -173t244 -83v-22q-160 2 -263 86q-102 84 -102 191z" />
    <glyph glyph-name="bar" unicode="|" horiz-adv-x="460" 
d="M215 -410v1909h29v-1909h-29z" />
    <glyph glyph-name="braceright" unicode="}" horiz-adv-x="589" 
d="M430 -163q0 97 -131 253q-129 140 -129 228t57 149t152 76q-94 14 -152 73q-57 60 -57 148t129 229q131 152 131 251t-91 176t-243 81v25q162 -4 263 -88t101 -190t-136 -269q-123 -139 -123 -223t65 -143q66 -58 174 -58h54v-25h-54q-106 0 -173 -59t-67 -142t131 -236
q130 -153 130 -259q-1 -106 -103 -190t-262 -86v22q152 6 243 83t91 174z" />
    <glyph glyph-name="asciitilde" unicode="~" horiz-adv-x="794" 
d="M539 440q-61 0 -147 64t-136 63q-84 0 -127 -127l-23 6q49 152 152 152q54 0 144 -64t137 -65q84 0 127 121l20 -4q-43 -146 -147 -146z" />
    <glyph glyph-name="uni00A0" unicode="&#xa0;" horiz-adv-x="458" 
 />
    <glyph glyph-name="exclamdown" unicode="&#xa1;" horiz-adv-x="389" 
d="M176 0l8 1034h21l8 -1034h-37zM195 1282q-16 0 -29 12q-12 12 -12 28t12 30q12 12 28 12t29 -12q29 -29 0 -58q-12 -12 -28 -12z" />
    <glyph glyph-name="cent" unicode="&#xa2;" horiz-adv-x="884" 
d="M498 915q-164 -1 -278 -117t-114 -285t90 -272t234 -128l70 802h-2zM821 709q0 -47 -35 -47q-34 0 -34 34t36 41q-16 68 -89 119t-177 59l-69 -806q29 -4 67 -5q143 0 281 80l-2 -26q-129 -78 -281 -78q-41 0 -67 4l-25 -295l-25 2l25 297q-156 26 -252 136t-96 288
t124 302t296 124h4l20 231l25 -2l-21 -229q127 -8 211 -78t84 -151z" />
    <glyph glyph-name="sterling" unicode="&#xa3;" horiz-adv-x="876" 
d="M662 297h-355q10 -57 10 -117q0 -186 -139 -309q29 4 43 4q90 0 207 -39t186 -39q139 0 215 117l21 -10q-78 -131 -236 -131q-74 0 -200 41t-180 41q-52 0 -80 -9q-45 -63 -80 -63t-35 20q0 21 29 39t73 23q145 133 146 315q0 59 -11 117h-192v25h188q-6 31 -24 92
q-55 174 -55 300t91 218q91 94 221 94t206 -60t75 -137q0 -51 -34 -51t-33 35q0 15 10 27t25 14q-12 59 -78 103t-178 44t-193 -87q-82 -87 -82 -208t53 -284q20 -61 27 -100h359v-25z" />
    <glyph glyph-name="yen" unicode="&#xa5;" horiz-adv-x="921" 
d="M141 477v25h295l-299 489h-141v23h336v-23h-162l295 -489l295 489h-164v23h336v-23h-141l-299 -489h294v-25h-307v-190h307v-25h-307v-237h185v-25h-406v25h193v237h-310v25h310v190h-310z" />
    <glyph glyph-name="section" unicode="&#xa7;" horiz-adv-x="839" 
d="M688 496q0 64 -59 99q-59 36 -189 69l-51 12q-104 -14 -169 -56q-64 -42 -64 -104t60 -98q60 -35 190 -68l53 -14q102 14 166 55q63 41 63 105zM174 862q0 70 74 118t188 48q113 0 185 -42t71 -97q0 -37 -33 -37t-32 33q0 23 24 33q-17 38 -75 62t-149 24t-158 -40
t-67 -107t56 -101t192 -70q136 -35 202 -76q66 -40 65 -110q1 -70 -61 -114t-160 -62q90 -29 133 -67q43 -37 43 -107t-76 -118t-188 -48t-185 42q-72 42 -71 97q0 37 32 37t33 -33q0 -25 -24 -33q16 -36 74 -60q59 -24 151 -24t159 40t67 104t-56 100q-54 35 -190 70
q-136 34 -204 76t-67 111q0 69 61 114t164 63q-92 29 -135 67q-43 37 -43 107z" />
    <glyph glyph-name="dieresis" unicode="&#xa8;" horiz-adv-x="1030" 
d="M369 1083q0 39 37 39t37 -38t-37 -37q-16 0 -27 11q-10 11 -10 25zM586 1083q0 39 38 39t38 -39q0 -16 -12 -26t-27 -10q-16 0 -27 11q-10 11 -10 25z" />
    <glyph glyph-name="copyright" unicode="&#xa9;" horiz-adv-x="1163" 
d="M598 774q-100 0 -170 -74t-70 -177t69 -178t168 -75t183 72l13 -16q-86 -76 -198 -76q-113 0 -185 80t-72 194t78 193q78 78 170 78t150 -41t58 -84t-25 -43q-26 1 -26 27t25 30q-12 34 -60 62t-108 28zM582 -2q215 0 357 150t142 364q0 215 -142 366q-142 150 -357 150
t-358 -150q-142 -151 -142 -366t142 -365q143 -149 358 -149zM582 -23q-225 0 -374 155q-148 155 -149 380q1 225 149 381t374 156t373 -156q149 -156 149 -381t-148 -380t-374 -155z" />
    <glyph glyph-name="ordfeminine" unicode="&#xaa;" horiz-adv-x="598" 
d="M229 862q113 0 193 107v112q-88 35 -167 35t-123 -38t-44 -91t36 -89t105 -36zM68 680v20h479v-20h-479zM270 1368q179 0 179 -172v-326h98v-20h-123v92q-84 -102 -195 -102q-80 0 -123 42t-43 106q1 64 53 106q52 43 136 43t170 -33v90q0 72 -34 112t-125 40t-130 -52
q14 -8 14 -26q-1 -29 -27 -29t-26 32q0 33 50 65t126 32z" />
    <glyph glyph-name="guillemotleft" unicode="&#xab;" horiz-adv-x="786" 
d="M395 225l-342 318l342 317l17 -18l-322 -299l322 -299zM684 225l-342 318l342 317l16 -18l-319 -299l319 -299z" />
    <glyph glyph-name="registered" unicode="&#xae;" horiz-adv-x="745" 
d="M311 1051h54q49 1 81 25t31 63q0 88 -110 88h-56v-176zM225 874v21h64v332h-64v20h144q133 0 133 -108q0 -78 -90 -101l82 -143h57v-21h-72l-90 158h-78v-137h62v-21h-148zM700 1054q0 144 -93 244t-235 101q-142 -1 -236 -101t-93 -244q0 -144 94 -244q93 -100 235 -101
q142 0 235 100q93 101 93 245zM373 688q-154 0 -253 106t-100 259q0 154 100 260t253 106q154 0 253 -106t99 -260q0 -153 -99 -259t-253 -106z" />
    <glyph glyph-name="macron" unicode="&#xaf;" horiz-adv-x="1030" 
d="M248 1071v29h534v-29h-534z" />
    <glyph glyph-name="degree" unicode="&#xb0;" horiz-adv-x="524" 
d="M262 907q86 -1 142 61t57 150q-1 88 -57 150t-142 61q-86 0 -143 -61q-57 -62 -57 -150t56 -150q58 -62 144 -61zM262 883q-96 1 -163 69t-66 166q0 98 66 167q67 69 163 69t162 -69t66 -167t-66 -167q-66 -68 -162 -68z" />
    <glyph glyph-name="plusminus" unicode="&#xb1;" horiz-adv-x="765" 
d="M92 170v27h580v-27h-580zM369 328v284h-277v25h277v285h26v-285h277v-25h-277v-284h-26z" />
    <glyph glyph-name="two.sup" unicode="&#xb2;" 
d="M380 1616q-86 0 -146 -40t-70 -87q31 -6 31 -35t-27 -29q-33 0 -33 51q0 50 68 106t172 56t169 -54q64 -54 64 -134t-52 -135t-167 -127q-197 -121 -244 -283h447v148h24v-170h-491l-10 14q49 178 258 309q109 66 159 119t50 124t-58 119t-144 48z" />
    <glyph glyph-name="three.sup" unicode="&#xb3;" 
d="M115 1022q1 35 29 35t28 -36q0 -18 -25 -26q14 -41 79 -71t153 -31q87 0 153 53t66 133t-72 128t-196 50h-37v23h39q104 0 175 50t71 123t-58 117t-141 44q-84 0 -140 -30t-71 -71q27 -7 27 -33t-30 -26t-30 35q0 55 69 101t169 46t166 -50q65 -50 65 -124t-59 -128
t-144 -64q103 -12 163 -64t60 -136t-72 -142t-178 -58t-183 44t-76 108z" />
    <glyph glyph-name="acute" unicode="&#xb4;" horiz-adv-x="1030" 
d="M741 1190q20 0 21 -23q0 -14 -29 -28l-291 -129l-6 12l273 156q20 12 32 12z" />
    <glyph glyph-name="paragraph" unicode="&#xb6;" horiz-adv-x="989" 
d="M612 25h119v966h-119v-966zM410 0v25h172v360q-43 -4 -144 -4q-160 0 -261 87t-101 228q0 142 105 230t263 88h480v-23h-164v-966h164v-25h-514z" />
    <glyph glyph-name="periodcentered" unicode="&#xb7;" horiz-adv-x="430" 
d="M215 442q-17 0 -29 12t-12 30q0 16 12 28t28 12t30 -11q12 -11 12 -29t-12 -30t-29 -12z" />
    <glyph glyph-name="cedilla" unicode="&#xb8;" horiz-adv-x="1030" 
d="M684 -275q0 -63 -45 -99t-135 -36t-178 39l6 23q84 -39 166 -39t120 31t37 82q0 102 -170 108h-18l-8 6l35 164l20 -4l-22 -143q88 -2 140 -36t52 -96z" />
    <glyph glyph-name="one.sup" unicode="&#xb9;" 
d="M152 883v22h215v694l-213 -55l-7 23l232 61h14v-723h211v-22h-452z" />
    <glyph glyph-name="ordmasculine" unicode="&#xba;" horiz-adv-x="638" 
d="M317 862q98 0 164 70t66 172t-66 171t-164 69q-99 0 -163 -70t-64 -171t64 -171t163 -70zM317 842q-109 0 -181 74t-70 187q0 111 72 187t182 76q108 0 181 -75t73 -187t-74 -186q-74 -76 -183 -76zM94 680v20h451v-20h-451z" />
    <glyph glyph-name="guillemotright" unicode="&#xbb;" horiz-adv-x="786" 
d="M102 225l-16 19l322 299l-322 299l16 18l342 -317zM391 225l-16 19l321 299l-321 299l16 18l342 -317z" />
    <glyph glyph-name="onequarter" unicode="&#xbc;" horiz-adv-x="1628" 
d="M451 -18l-21 10l404 659q31 53 216 359t191 311l19 -10q-338 -563 -450 -743t-359 -586zM150 575v23h215v694l-213 -55l-7 23l232 61h14v-723h211v-23h-452zM1188 -2v22h147v205h-389l-6 11l412 509l20 -14l-395 -485h358v235l25 11v-246h145v-21h-145v-205h123v-22h-295
z" />
    <glyph glyph-name="onehalf" unicode="&#xbd;" horiz-adv-x="1628" 
d="M414 -18l-21 10l404 659q31 53 216 359t191 311l19 -10q-338 -563 -450 -743t-359 -586zM117 575v23h215v694l-213 -55l-6 23l231 61h14v-723h211v-23h-452zM1468 564q0 71 -57 119t-144 48t-147 -40t-69 -87q31 -6 31 -35t-27 -28q-33 0 -33 51t68 106q68 56 172 56
t169 -54t65 -135q0 -80 -53 -135q-52 -55 -167 -127q-197 -121 -244 -283h447v148h24v-170h-491l-11 14q49 178 259 310q108 66 158 118t50 124z" />
    <glyph glyph-name="threequarters" unicode="&#xbe;" horiz-adv-x="1628" 
d="M174 750q29 0 29 -36q0 -18 -25 -26q14 -41 79 -72q65 -30 153 -30t153 53q66 53 66 133t-72 128t-197 50h-36v23h38q104 0 176 50q70 50 70 123t-57 117t-141 44t-141 -30q-56 -30 -70 -71q27 -6 26 -30q1 -29 -29 -29t-30 35q0 55 68 101q69 46 169 46t166 -50t66 -124
q1 -74 -59 -128t-144 -64q104 -13 164 -65t59 -135t-73 -141t-178 -59q-106 0 -182 44q-77 44 -77 108q0 35 29 35zM477 -18l-20 10l403 659q31 53 216 359t192 311l18 -10q-338 -563 -502 -828q-163 -264 -307 -501zM1198 -2v22h148v205h-390l-6 11l412 509l20 -14
l-395 -485h359v235l24 11v-246h146v-21h-146v-205h123v-22h-295z" />
    <glyph glyph-name="questiondown" unicode="&#xbf;" horiz-adv-x="802" 
d="M451 1350q27 -14 8 -41q-14 -25 -39 -10t-8 42q19 25 39 9zM762 268q0 -57 -43 -125q-98 -154 -311 -153q-156 0 -260 98q-103 98 -103 242t100 245q100 102 277 142l4 319h20l5 -336q-175 -37 -275 -134t-100 -233q0 -135 93 -227t239 -92q201 0 290 148q27 43 31 82
q-43 6 -43 47q0 14 11 24t26 11q39 -1 39 -58z" />
    <glyph glyph-name="Agrave" unicode="&#xc0;" horiz-adv-x="1396" 
d="M446 1630q0 23 21 23q10 0 31 -13l274 -155l-8 -12l-289 129q-29 12 -29 28zM414 551h569l-285 774zM14 0v27h174l480 1294h-205v27h473v-27h-205l477 -1294h176v-27h-426v27h218l-183 499h-590l-184 -499h221v-27h-426z" />
    <glyph glyph-name="Aacute" unicode="&#xc1;" horiz-adv-x="1396" 
d="M952 1630q0 -14 -28 -28l-291 -129l-6 12l272 155q20 12 33 13q20 0 20 -23zM414 551h569l-285 774zM14 0v27h174l480 1294h-205v27h473v-27h-205l477 -1294h176v-27h-426v27h218l-183 499h-590l-184 -499h221v-27h-426z" />
    <glyph glyph-name="Acircumflex" unicode="&#xc2;" horiz-adv-x="1396" 
d="M459 1460l-10 10l249 216l250 -216l-10 -10l-240 178zM414 551h569l-285 774zM14 0v27h174l480 1294h-205v27h473v-27h-205l477 -1294h176v-27h-426v27h218l-183 499h-590l-184 -499h221v-27h-426z" />
    <glyph glyph-name="Atilde" unicode="&#xc3;" horiz-adv-x="1396" 
d="M842 1489q-54 1 -146 65t-137 64q-80 0 -129 -129l-18 6q49 152 149 152q59 1 143 -63t138 -64q84 0 127 120l20 -6q-43 -145 -147 -145zM414 551h569l-285 774zM14 0v27h174l480 1294h-205v27h473v-27h-205l477 -1294h176v-27h-426v27h218l-183 499h-590l-184 -499h221
v-27h-426z" />
    <glyph glyph-name="Adieresis" unicode="&#xc4;" horiz-adv-x="1396" 
d="M553 1546q0 39 37 39t37 -38t-37 -38q-16 -1 -26 11t-11 26zM770 1546q0 39 38 39t38 -39q0 -16 -12 -26t-27 -11q-17 -1 -27 11t-10 26zM414 551h569l-285 774zM14 0v27h174l480 1294h-205v27h473v-27h-205l477 -1294h176v-27h-426v27h218l-183 499h-590l-184 -499h221
v-27h-426z" />
    <glyph glyph-name="Aring" unicode="&#xc5;" horiz-adv-x="1396" 
d="M698 1346q53 0 88 36t35 92q0 54 -35 92t-88 38t-88 -38t-35 -92t35 -91t88 -37zM414 551h569l-285 774zM850 1477q0 -94 -78 -129h164v-27h-205l477 -1294h183v-27h-441v27h226l-183 499h-590l-184 -499h227v-27h-440v27h182l480 1294h-205v27h160q-76 39 -76 129
q0 61 43 105q42 44 108 44t109 -44t43 -105z" />
    <glyph glyph-name="AE" unicode="&#xc6;" horiz-adv-x="1703" 
d="M838 553v768h-15l-407 -768h422zM-70 0v27h172l691 1294h-195v27h969v-301h-31v274h-668v-619h512v-26h-512v-649h668v274h31v-301h-942v27h213v501h-437l-268 -501h184v-27h-387z" />
    <glyph glyph-name="Ccedilla" unicode="&#xc7;" horiz-adv-x="1413" 
d="M754 -416q-90 0 -179 39l7 23q84 -39 166 -39t120 31t37 81q0 102 -170 109h-18l-8 6l30 143q-276 14 -452 211t-176 485q1 289 193 493t476 206q207 0 352 -108q144 -109 144 -236q0 -55 -43 -55q-14 0 -26 10q-11 10 -11 27q0 41 45 45q-6 102 -138 196t-323 95
q-272 0 -454 -197t-182 -481t180 -475t462 -191t474 209l16 -21q-205 -215 -494 -215h-22l-19 -125q88 -2 141 -35q52 -35 52 -97t-45 -98t-135 -36z" />
    <glyph glyph-name="Egrave" unicode="&#xc8;" horiz-adv-x="1150" 
d="M336 1630q0 23 20 23q8 0 31 -13l275 -155l-9 -12l-288 129q-29 12 -29 28zM78 0v27h205v1294h-205v27h934v-301h-29v274h-670v-619h512v-26h-512v-649h670v274h29v-301h-934z" />
    <glyph glyph-name="Eacute" unicode="&#xc9;" horiz-adv-x="1150" 
d="M78 0v27h205v1294h-205v27h934v-301h-29v274h-670v-619h512v-26h-512v-649h670v274h29v-301h-934zM524 1473l-6 12l273 155q51 31 53 -10q0 -14 -29 -28z" />
    <glyph glyph-name="Ecircumflex" unicode="&#xca;" horiz-adv-x="1150" 
d="M78 0v27h205v1294h-205v27h934v-301h-29v274h-670v-619h512v-26h-512v-649h670v274h29v-301h-934zM350 1460l-10 10l250 216l250 -216l-11 -10l-239 178z" />
    <glyph glyph-name="Edieresis" unicode="&#xcb;" horiz-adv-x="1150" 
d="M78 0v27h205v1294h-205v27h934v-301h-29v274h-670v-619h512v-26h-512v-649h670v274h29v-301h-934zM481 1509q-14 -1 -25 11q-26 27 -1 54q10 11 26 11q37 0 37 -38t-37 -38zM737 1546q1 -16 -11 -26t-27 -11t-26 11t-11 27t10 27t26 11q39 0 39 -39z" />
    <glyph glyph-name="Igrave" unicode="&#xcc;" horiz-adv-x="618" 
d="M57 1630q0 23 21 23q8 0 31 -13l274 -155l-8 -12l-289 129q-29 12 -29 28zM78 0v27h215v1294h-215v27h463v-27h-215v-1294h215v-27h-463z" />
    <glyph glyph-name="Iacute" unicode="&#xcd;" horiz-adv-x="618" 
d="M565 1630q0 -14 -28 -28l-291 -129l-6 12l272 155q20 12 33 13q20 0 20 -23zM78 0v27h215v1294h-215v27h463v-27h-215v-1294h215v-27h-463z" />
    <glyph glyph-name="Icircumflex" unicode="&#xce;" horiz-adv-x="618" 
d="M70 1460l-11 10l250 216l250 -216l-10 -10l-240 178zM78 0v27h215v1294h-215v27h463v-27h-215v-1294h215v-27h-463z" />
    <glyph glyph-name="Idieresis" unicode="&#xcf;" horiz-adv-x="618" 
d="M164 1546q0 39 37 39t37 -38t-37 -38q-17 -1 -27 11t-10 26zM381 1546q0 39 38 39t38 -39q1 -16 -11 -26t-28 -11t-26 11t-11 26zM78 0v27h215v1294h-215v27h463v-27h-215v-1294h215v-27h-463z" />
    <glyph glyph-name="Eth" unicode="&#xd0;" horiz-adv-x="1439" 
d="M313 27h273q336 0 519 177t183 472t-184 470t-524 175h-267v-616h346v-27h-346v-651zM283 678h-164v27h164v616h-205v27h502q352 0 546 -184t193 -488q0 -304 -193 -490t-540 -186h-508v27h205v651z" />
    <glyph glyph-name="Ntilde" unicode="&#xd1;" horiz-adv-x="1515" 
d="M905 1489q-55 1 -146 65t-136 64q-80 0 -129 -129l-19 6q49 152 150 152q59 1 143 -63t137 -64q84 0 127 120l21 -6q-44 -145 -148 -145zM311 27h217v-27h-450v27h205v1294h-205v27h231l918 -1299v1272h-209v27h444v-27h-205v-1331h-22l-924 1302v-1265z" />
    <glyph glyph-name="Ograve" unicode="&#xd2;" horiz-adv-x="1566" 
d="M528 1630q0 23 21 23q8 0 31 -13l274 -155l-8 -12l-289 129q-29 12 -29 28zM783 2q273 0 457 195q183 195 183 477t-183 478q-182 194 -456 194t-457 -195t-183 -477t182 -478q184 -194 457 -194zM781 -25q-287 0 -479 203t-191 496q-1 294 193 496t480 202t478 -203
t192 -495t-194 -496q-194 -203 -479 -203z" />
    <glyph glyph-name="Oacute" unicode="&#xd3;" horiz-adv-x="1566" 
d="M783 2q273 0 457 195q183 195 183 477t-183 478q-182 194 -456 194t-457 -195t-183 -477t182 -478q184 -194 457 -194zM781 -25q-287 0 -479 203t-191 496q-1 294 193 496t480 202t478 -203t192 -495t-194 -496q-194 -203 -479 -203zM1036 1630q0 -14 -28 -28l-291 -129
l-6 12l272 155q20 12 33 13q20 0 20 -23z" />
    <glyph glyph-name="Ocircumflex" unicode="&#xd4;" horiz-adv-x="1566" 
d="M783 2q273 0 457 195q183 195 183 477t-183 478q-182 194 -456 194t-457 -195t-183 -477t182 -478q184 -194 457 -194zM781 -25q-287 0 -479 203t-191 496q-1 294 193 496t480 202t478 -203t192 -495t-194 -496q-194 -203 -479 -203zM543 1460l-11 10l250 216l250 -216
l-10 -10l-240 178z" />
    <glyph glyph-name="Otilde" unicode="&#xd5;" horiz-adv-x="1566" 
d="M926 1489q-54 1 -146 65t-137 64q-80 0 -129 -129l-18 6q49 152 149 152q59 1 143 -63t138 -64q84 0 127 120l20 -6q-43 -145 -147 -145zM783 2q273 0 457 195q183 195 183 477t-183 478q-182 194 -456 194t-457 -195t-183 -477t182 -478q184 -194 457 -194zM781 -25
q-287 0 -479 203t-191 496q-1 294 193 496t480 202t478 -203t192 -495t-194 -496q-194 -203 -479 -203z" />
    <glyph glyph-name="Odieresis" unicode="&#xd6;" horiz-adv-x="1566" 
d="M783 2q273 0 457 195q183 195 183 477t-183 478q-182 194 -456 194t-457 -195t-183 -477t182 -478q184 -194 457 -194zM781 -25q-287 0 -479 203t-191 496q-1 294 193 496t480 202t478 -203t192 -495t-194 -496q-194 -203 -479 -203zM637 1546q0 39 37 39t37 -38t-37 -38
q-14 -1 -26 11t-11 26zM854 1546q0 39 38 39t38 -39q0 -16 -12 -26t-26 -11t-26 11t-12 26z" />
    <glyph glyph-name="multiply" unicode="&#xd7;" horiz-adv-x="765" 
d="M639 262l-256 256l-256 -256l-18 19l256 256l-256 256l18 20l256 -258l256 258l20 -20l-256 -256l256 -256z" />
    <glyph glyph-name="Oslash" unicode="&#xd8;" horiz-adv-x="1566" 
d="M782 1346q-272 0 -456 -194t-183 -482q0 -287 191 -482l862 1004q-176 154 -414 154zM793 2q263 0 447 195q183 195 183 487t-209 492l-862 -1006q178 -168 441 -168zM1454 687q0 -306 -194 -509t-466 -203t-462 175l-172 -203l-19 16l172 205q-203 203 -203 501
q0 299 194 501t478 202q248 0 432 -158l164 189l19 -17l-164 -188q221 -205 221 -511z" />
    <glyph glyph-name="Ugrave" unicode="&#xd9;" horiz-adv-x="1380" 
d="M436 1630q0 23 21 23q10 0 30 -13l275 -155l-8 -12l-289 129q-29 12 -29 28zM690 -25q-210 0 -322 127t-112 365v854h-207v27h445v-27h-209v-852q0 -229 103 -348t303 -119t302 119t103 348v852h-207v27h442v-27h-205v-854q0 -238 -112 -365t-324 -127z" />
    <glyph glyph-name="Uacute" unicode="&#xda;" horiz-adv-x="1380" 
d="M690 -25q-210 0 -322 127t-112 365v854h-207v27h445v-27h-209v-852q0 -229 103 -348t303 -119t302 119t103 348v852h-207v27h442v-27h-205v-854q0 -238 -112 -365t-324 -127zM942 1630q0 -14 -29 -28l-290 -129l-7 12l273 155q20 12 33 13q20 0 20 -23z" />
    <glyph glyph-name="Ucircumflex" unicode="&#xdb;" horiz-adv-x="1380" 
d="M690 -25q-210 0 -322 127t-112 365v854h-207v27h445v-27h-209v-852q0 -229 103 -348t303 -119t302 119t103 348v852h-207v27h442v-27h-205v-854q0 -238 -112 -365t-324 -127zM449 1460l-11 10l250 216l250 -216l-10 -10l-240 178z" />
    <glyph glyph-name="Udieresis" unicode="&#xdc;" horiz-adv-x="1380" 
d="M690 -25q-210 0 -322 127t-112 365v854h-207v27h445v-27h-209v-852q0 -229 103 -348t303 -119t302 119t103 348v852h-207v27h442v-27h-205v-854q0 -238 -112 -365t-324 -127zM543 1546q0 39 37 39t37 -38t-37 -38q-14 -1 -26 11t-11 26zM760 1546q0 39 38 39t38 -39
q0 -16 -12 -26t-26 -11t-26 11t-12 26z" />
    <glyph glyph-name="Yacute" unicode="&#xdd;" horiz-adv-x="1277" 
d="M571 1473l-6 12l273 155q51 31 53 -10q0 -14 -29 -28zM401 0v27h222v553l-426 741h-185v27h439v-27h-220l408 -719l408 719h-220v27h439v-27h-187l-426 -741v-553h221v-27h-473z" />
    <glyph glyph-name="Thorn" unicode="&#xde;" horiz-adv-x="1146" 
d="M586 326q210 0 324 98t114 260t-114 260t-324 98q-92 0 -264 -6v-704q172 -6 264 -6zM78 0v27h213v1294h-213v27h457v-27h-213v-260q111 8 264 8q221 0 345 -106q124 -105 124 -279t-123 -278q-122 -104 -324 -104t-286 5v-280h213v-27h-457z" />
    <glyph glyph-name="germandbls" unicode="&#xdf;" horiz-adv-x="1030" 
d="M506 1487q-246 0 -246 -342v-1145h-190v25h161v786h-165v25h165v309q0 150 39 225q74 139 236 139q127 1 201 -71t73 -195q0 -63 -26 -121q-40 -89 -125 -171q-84 -81 -105 -120q-20 -39 -20 -73q0 -72 55 -127t139 -107t124 -84q40 -33 80 -92t40 -127q0 -103 -76 -169
t-190 -66t-172 32t-58 70q0 39 33 39t33 -35q0 -25 -16 -37q46 -47 164 -47t185 58t67 154q0 95 -63 154q-62 59 -142 111q-80 51 -119 81t-77 83t-38 101t24 88q24 41 42 61q19 20 75 74q56 55 97 119t41 164t-67 166t-179 65z" />
    <glyph glyph-name="agrave" unicode="&#xe0;" horiz-adv-x="925" 
d="M180 1167q0 23 21 23q8 0 30 -12l275 -156l-8 -12l-289 129q-29 12 -29 28zM360 12q182 0 326 176v203q-140 55 -280 55t-216 -63t-76 -155t63 -154q62 -62 183 -62zM686 575q0 248 -260 248q-90 1 -155 -31t-87 -73q23 -10 23 -41t-34 -31t-34 45q0 44 81 100t206 56
q166 0 240 -96q49 -61 49 -174v-553h162v-25h-189v160q-141 -172 -328 -172q-130 0 -202 68t-72 172t86 174t226 69q140 0 288 -55v159z" />
    <glyph glyph-name="aacute" unicode="&#xe1;" horiz-adv-x="925" 
d="M666 1190q20 0 20 -23q0 -14 -29 -28l-290 -129l-7 12l273 156q20 12 33 12zM360 12q182 0 326 176v203q-140 55 -280 55t-216 -63t-76 -155t63 -154q62 -62 183 -62zM686 575q0 248 -260 248q-90 1 -155 -31t-87 -73q23 -10 23 -41t-34 -31t-34 45q0 44 81 100t206 56
q166 0 240 -96q49 -61 49 -174v-553h162v-25h-189v160q-141 -172 -328 -172q-130 0 -202 68t-72 172t86 174t226 69q140 0 288 -55v159z" />
    <glyph glyph-name="acircumflex" unicode="&#xe2;" horiz-adv-x="925" 
d="M193 997l-11 11l250 215l250 -215l-10 -11l-240 179zM360 12q182 0 326 176v203q-140 55 -280 55t-216 -63t-76 -155t63 -154q62 -62 183 -62zM686 575q0 248 -260 248q-90 1 -155 -31t-87 -73q23 -10 23 -41t-34 -31t-34 45q0 44 81 100t206 56q166 0 240 -96
q49 -61 49 -174v-553h162v-25h-189v160q-141 -172 -328 -172q-130 0 -202 68t-72 172t86 174t226 69q140 0 288 -55v159z" />
    <glyph glyph-name="atilde" unicode="&#xe3;" horiz-adv-x="925" 
d="M575 1026q-55 0 -146 65t-136 64q-80 0 -129 -129l-19 6q49 152 150 152q59 0 143 -64t137 -63q84 0 127 121l21 -7q-44 -145 -148 -145zM360 12q182 0 326 176v203q-140 55 -280 55t-216 -63t-76 -155t63 -154q62 -62 183 -62zM686 575q0 248 -260 248q-90 1 -155 -31
t-87 -73q23 -10 23 -41t-34 -31t-34 45q0 44 81 100t206 56q166 0 240 -96q49 -61 49 -174v-553h162v-25h-189v160q-141 -172 -328 -172q-130 0 -202 68t-72 172t86 174t226 69q140 0 288 -55v159z" />
    <glyph glyph-name="adieresis" unicode="&#xe4;" horiz-adv-x="925" 
d="M287 1083q0 39 37 39t37 -38t-37 -37q-16 0 -27 11q-10 11 -10 25zM504 1083q0 39 38 39t38 -39q0 -16 -12 -26t-27 -10q-16 0 -27 11q-10 11 -10 25zM360 12q182 0 326 176v203q-140 55 -280 55t-216 -63t-76 -155t63 -154q62 -62 183 -62zM686 575q0 248 -260 248
q-90 1 -155 -31t-87 -73q23 -10 23 -41t-34 -31t-34 45q0 44 81 100t206 56q166 0 240 -96q49 -61 49 -174v-553h162v-25h-189v160q-141 -172 -328 -172q-130 0 -202 68t-72 172t86 174t226 69q140 0 288 -55v159z" />
    <glyph glyph-name="aring" unicode="&#xe5;" horiz-adv-x="925" 
d="M433 1034q54 0 88 36t34 91t-35 93t-88 38t-88 -38t-35 -92t35 -91t89 -37zM432 1010q-66 0 -108 44t-43 107q0 63 43 109q42 46 108 45q66 0 109 -45q43 -44 43 -108t-43 -108t-109 -44zM360 12q182 0 326 176v203q-140 55 -280 55t-216 -63t-76 -155t63 -154
q62 -62 183 -62zM686 575q0 248 -260 248q-90 1 -155 -31t-87 -73q23 -10 23 -41t-34 -31t-34 45q0 44 81 100t206 56q166 0 240 -96q49 -61 49 -174v-553h162v-25h-189v160q-141 -172 -328 -172q-130 0 -202 68t-72 172t86 174t226 69q140 0 288 -55v159z" />
    <glyph glyph-name="ae" unicode="&#xe6;" horiz-adv-x="1519" 
d="M1074 823q-150 0 -250 -103t-111 -263h686q-2 156 -88 261q-87 105 -237 105zM352 12q114 0 210 54t163 145q-37 88 -39 180q-144 55 -282 55t-214 -63t-76 -155t63 -154q61 -62 175 -62zM686 575q0 248 -260 248q-90 1 -155 -31t-87 -71q23 -12 23 -39q0 -35 -34 -35
t-34 45q0 44 81 100t206 56q164 0 238 -94q49 -65 49 -174q41 124 135 196t215 72q174 0 269 -116t95 -281v-19h-714v-8q0 -196 104 -304q103 -108 271 -108t296 94l-2 -28q-129 -90 -288 -90q-254 0 -359 200q-156 -201 -375 -200q-130 0 -202 68t-72 172t86 174t226 69
q140 0 288 -55v159z" />
    <glyph glyph-name="ccedilla" unicode="&#xe7;" horiz-adv-x="954" 
d="M483 -410q-90 0 -178 39l6 23q84 -39 166 -39t120 31t38 82q0 102 -170 108h-19l-8 6l31 152q-165 14 -273 126t-108 296t122 309t290 125q133 0 223 -72t90 -158q0 -47 -35 -47t-35 35t39 43q-14 70 -94 122t-188 52q-158 1 -271 -117t-113 -297t116 -288t284 -109
t281 88v-26q-111 -86 -277 -86h-28l-21 -131q88 -2 140 -36q53 -34 53 -96q0 -63 -46 -99t-135 -36z" />
    <glyph glyph-name="egrave" unicode="&#xe8;" horiz-adv-x="935" 
d="M223 1167q0 23 21 23q10 0 30 -12l275 -156l-8 -12l-289 129q-29 12 -29 28zM488 823q-152 0 -256 -104t-113 -262h698q-2 156 -90 261q-87 105 -239 105zM119 432v-8q1 -192 109 -302t278 -110t297 92l-2 -28q-129 -88 -303 -88t-291 116t-117 310q0 192 114 313
t282 121t264 -116t96 -281q0 -13 -2 -19h-725z" />
    <glyph glyph-name="eacute" unicode="&#xe9;" horiz-adv-x="935" 
d="M488 823q-152 0 -256 -104t-113 -262h698q-2 156 -90 261q-87 105 -239 105zM119 432v-8q1 -192 109 -302t278 -110t297 92l-2 -28q-129 -88 -303 -88t-291 116t-117 310q0 192 114 313t282 121t264 -116t96 -281q0 -13 -2 -19h-725zM709 1190q20 0 20 -23q0 -14 -29 -28
l-290 -129l-7 12l273 156q20 12 33 12z" />
    <glyph glyph-name="ecircumflex" unicode="&#xea;" horiz-adv-x="935" 
d="M488 823q-152 0 -256 -104t-113 -262h698q-2 156 -90 261q-87 105 -239 105zM119 432v-8q1 -192 109 -302t278 -110t297 92l-2 -28q-129 -88 -303 -88t-291 116t-117 310q0 192 114 313t282 121t264 -116t96 -281q0 -13 -2 -19h-725zM236 997l-11 11l250 215l250 -215
l-10 -11l-240 179z" />
    <glyph glyph-name="edieresis" unicode="&#xeb;" horiz-adv-x="935" 
d="M488 823q-152 0 -256 -104t-113 -262h698q-2 156 -90 261q-87 105 -239 105zM119 432v-8q1 -192 109 -302t278 -110t297 92l-2 -28q-129 -88 -303 -88t-291 116t-117 310q0 192 114 313t282 121t264 -116t96 -281q0 -13 -2 -19h-725zM330 1083q0 39 37 39t37 -38t-37 -37
q-14 0 -26 11q-11 11 -11 25zM547 1083q0 39 38 39t38 -39q1 -16 -11 -26t-27 -10t-27 11q-11 11 -11 25z" />
    <glyph glyph-name="igrave" unicode="&#xec;" horiz-adv-x="516" 
d="M-25 1167q0 23 21 23q8 0 31 -12l274 -156l-8 -12l-289 129q-29 12 -29 28zM68 0v25h168v786h-168v25h196v-811h168v-25h-364z" />
    <glyph glyph-name="iacute" unicode="&#xed;" horiz-adv-x="516" 
d="M68 0v25h168v786h-168v25h196v-811h168v-25h-364zM463 1190q20 0 20 -23q0 -14 -28 -28l-291 -129l-6 12l272 156q20 12 33 12z" />
    <glyph glyph-name="icircumflex" unicode="&#xee;" horiz-adv-x="516" 
d="M68 0v25h168v786h-168v25h196v-811h168v-25h-364zM-12 997l-11 11l250 215l250 -215l-10 -11l-240 179z" />
    <glyph glyph-name="idieresis" unicode="&#xef;" horiz-adv-x="516" 
d="M68 0v25h168v786h-168v25h196v-811h168v-25h-364zM82 1083q0 39 37 39t37 -38t-37 -37q-16 0 -27 11q-10 11 -10 25zM299 1083q0 39 38 39t38 -39q1 -16 -11 -26t-28 -10t-27 11q-10 11 -10 25z" />
    <glyph glyph-name="eth" unicode="&#xf0;" horiz-adv-x="1024" 
d="M899 424q0 152 -111 268q-110 116 -280 115q-170 0 -280 -116q-110 -117 -110 -283t110 -281q108 -115 288 -115t293 142q90 118 90 270zM205 1440q-33 0 -33 30q0 18 15 30t43 13q28 0 77 -12q176 -51 330 -217l205 186l14 -18l-205 -184q291 -322 291 -746
q0 -250 -115 -385q-117 -149 -310 -149t-310 121t-117 299t118 301t289 123t281 -96q110 -95 137 -240v26q0 420 -280 729l-297 -268l-14 18l294 267q-90 96 -191 154t-183 67q-6 -49 -39 -49z" />
    <glyph glyph-name="ntilde" unicode="&#xf1;" horiz-adv-x="1071" 
d="M690 1026q-55 0 -146 65t-136 64q-80 0 -129 -129l-19 6q49 152 150 152q59 0 143 -64t137 -63q84 0 127 121l21 -7q-44 -145 -148 -145zM612 848q248 0 248 -305v-518h162v-25h-354v25h163v516q0 113 -28 172q-51 109 -195 108q-182 0 -350 -215v-581h164v-25h-354v25
h161v786h-161v25h190v-197q166 209 354 209z" />
    <glyph glyph-name="ograve" unicode="&#xf2;" horiz-adv-x="1015" 
d="M256 1167q0 23 20 23q10 0 31 -12l275 -156l-9 -12l-288 129q-29 12 -29 28zM507 12q167 0 277 118t111 289q0 171 -110 288q-111 117 -277 117t-278 -118t-112 -289t112 -288q110 -117 277 -117zM507 -12q-179 0 -298 123t-119 305t120 307t299 125t298 -123t119 -305
t-120 -307t-299 -125z" />
    <glyph glyph-name="oacute" unicode="&#xf3;" horiz-adv-x="1015" 
d="M507 12q167 0 277 118t111 289q0 171 -110 288q-111 117 -277 117t-278 -118t-112 -289t112 -288q110 -117 277 -117zM507 -12q-179 0 -298 123t-119 305t120 307t299 125t298 -123t119 -305t-120 -307t-299 -125zM741 1190q20 0 21 -23q0 -14 -29 -28l-291 -129l-6 12
l273 156q20 12 32 12z" />
    <glyph glyph-name="ocircumflex" unicode="&#xf4;" horiz-adv-x="1015" 
d="M507 12q167 0 277 118t111 289q0 171 -110 288q-111 117 -277 117t-278 -118t-112 -289t112 -288q110 -117 277 -117zM507 -12q-179 0 -298 123t-119 305t120 307t299 125t298 -123t119 -305t-120 -307t-299 -125zM268 997l-10 11l250 215l250 -215l-10 -11l-240 179z
" />
    <glyph glyph-name="otilde" unicode="&#xf5;" horiz-adv-x="1015" 
d="M653 1026q-55 0 -146 65t-136 64q-80 0 -129 -129l-19 6q49 152 150 152q59 0 143 -64t137 -63q84 0 127 121l21 -7q-44 -145 -148 -145zM507 12q167 0 277 118t111 289q0 171 -110 288q-111 117 -277 117t-278 -118t-112 -289t112 -288q110 -117 277 -117zM507 -12
q-179 0 -298 123t-119 305t120 307t299 125t298 -123t119 -305t-120 -307t-299 -125z" />
    <glyph glyph-name="odieresis" unicode="&#xf6;" horiz-adv-x="1015" 
d="M507 12q167 0 277 118t111 289q0 171 -110 288q-111 117 -277 117t-278 -118t-112 -289t112 -288q110 -117 277 -117zM507 -12q-179 0 -298 123t-119 305t120 307t299 125t298 -123t119 -305t-120 -307t-299 -125zM399 1047q-14 0 -25 11q-26 26 -1 53q10 11 26 11
q37 0 37 -38t-37 -37zM655 1083q1 -16 -11 -26t-27 -10t-26 11t-11 26q0 14 10 26t26 12q39 0 39 -39z" />
    <glyph glyph-name="divide" unicode="&#xf7;" horiz-adv-x="765" 
d="M383 260q-37 0 -37 38t37 38q17 0 27 -11t10 -27t-11 -27q-12 -11 -26 -11zM383 733q-37 0 -37 39t37 39q17 0 27 -11q10 -12 10 -28t-11 -28q-12 -11 -26 -11zM672 522h-580v25h580v-25z" />
    <glyph glyph-name="oslash" unicode="&#xf8;" horiz-adv-x="1015" 
d="M119 415q0 -173 114 -292l527 608q-110 92 -264 92t-266 -117q-111 -118 -111 -291zM515 12q159 0 269 118t111 292q0 174 -119 293l-526 -606q106 -97 265 -97zM518 -12q-168 0 -285 100l-106 -123l-18 17l106 122q-125 126 -125 310t120 309t285 125t281 -96l115 135
l18 -17l-114 -135q131 -125 131 -311t-120 -311t-288 -125z" />
    <glyph glyph-name="ugrave" unicode="&#xf9;" horiz-adv-x="1058" 
d="M266 1167q0 23 21 23q8 0 30 -12l275 -156l-8 -12l-289 129q-29 12 -29 28zM459 -12q-154 0 -215 118q-33 57 -33 187v518h-162v25h191v-543q0 -117 28 -172q55 -109 195 -109q182 0 348 221v578h-162v25h191v-811h164v-25h-191v203q-164 -215 -354 -215z" />
    <glyph glyph-name="uacute" unicode="&#xfa;" horiz-adv-x="1058" 
d="M459 -12q-154 0 -215 118q-33 57 -33 187v518h-162v25h191v-543q0 -117 28 -172q55 -109 195 -109q182 0 348 221v578h-162v25h191v-811h164v-25h-191v203q-164 -215 -354 -215zM750 1190q20 0 20 -23q0 -14 -29 -28l-290 -129l-7 12l273 156q20 12 33 12z" />
    <glyph glyph-name="ucircumflex" unicode="&#xfb;" horiz-adv-x="1058" 
d="M459 -12q-154 0 -215 118q-33 57 -33 187v518h-162v25h191v-543q0 -117 28 -172q55 -109 195 -109q182 0 348 221v578h-162v25h191v-811h164v-25h-191v203q-164 -215 -354 -215zM276 997l-10 11l250 215l250 -215l-10 -11l-240 179z" />
    <glyph glyph-name="udieresis" unicode="&#xfc;" horiz-adv-x="1058" 
d="M459 -12q-154 0 -215 118q-33 57 -33 187v518h-162v25h191v-543q0 -117 28 -172q55 -109 195 -109q182 0 348 221v578h-162v25h191v-811h164v-25h-191v203q-164 -215 -354 -215zM371 1083q0 39 37 39t37 -38t-37 -37q-14 0 -26 11q-11 11 -11 25zM588 1083q0 39 38 39
t38 -39q0 -16 -12 -26t-26 -10q-15 0 -27 11q-11 11 -11 25z" />
    <glyph glyph-name="yacute" unicode="&#xfd;" horiz-adv-x="948" 
d="M711 1190q20 0 20 -23q0 -14 -29 -28l-290 -129l-6 12l272 156q20 12 33 12zM152 -410q-39 0 -64 16t-25 40q0 35 33 35q23 -1 33 -21t-4 -43q16 -4 27 -4q90 0 163 104q43 59 103 197l43 104l-328 793h-139v25h346v-25h-176l309 -764l318 764h-181v25h346v-25h-139
l-377 -903q-51 -129 -102 -203q-80 -115 -186 -115z" />
    <glyph glyph-name="thorn" unicode="&#xfe;" horiz-adv-x="1048" 
d="M536 12q172 0 282 116t110 291t-106 290t-269 114q-193 0 -344 -176v-487q156 -148 327 -148zM18 -401v24h162v1829h-162v23h191v-799q152 172 335 172t298 -122q114 -122 114 -307t-118 -308t-294 -123q-175 0 -335 141v-506h164v-24h-355z" />
    <glyph glyph-name="ydieresis" unicode="&#xff;" horiz-adv-x="948" 
d="M330 1083q0 39 37 39t37 -38t-37 -37q-14 0 -26 11q-11 11 -11 25zM547 1083q0 39 38 39t38 -39q1 -16 -11 -26t-27 -10t-27 11q-11 11 -11 25zM152 -410q-39 0 -64 16t-25 40q0 35 33 35q23 -1 33 -21t-4 -43q16 -4 27 -4q90 0 163 104q43 59 103 197l43 104l-328 793
h-139v25h346v-25h-176l309 -764l318 764h-181v25h346v-25h-139l-377 -903q-51 -129 -102 -203q-80 -115 -186 -115z" />
    <glyph glyph-name="Amacron" unicode="&#x100;" horiz-adv-x="1396" 
d="M432 1534v29h535v-29h-535zM414 551h569l-285 774zM14 0v27h174l480 1294h-205v27h473v-27h-205l477 -1294h176v-27h-426v27h218l-183 499h-590l-184 -499h221v-27h-426z" />
    <glyph glyph-name="amacron" unicode="&#x101;" horiz-adv-x="925" 
d="M166 1071v29h534v-29h-534zM360 12q182 0 326 176v203q-140 55 -280 55t-216 -63t-76 -155t63 -154q62 -62 183 -62zM686 575q0 248 -260 248q-90 1 -155 -31t-87 -73q23 -10 23 -41t-34 -31t-34 45q0 44 81 100t206 56q166 0 240 -96q49 -61 49 -174v-553h162v-25h-189
v160q-141 -172 -328 -172q-130 0 -202 68t-72 172t86 174t226 69q140 0 288 -55v159z" />
    <glyph glyph-name="Abreve" unicode="&#x102;" horiz-adv-x="1396" 
d="M699 1470q-85 0 -151 54t-97 143l20 8q73 -170 229 -170t228 170l18 -8q-30 -89 -96 -143t-151 -54zM414 551h569l-285 774zM14 0v27h174l480 1294h-205v27h473v-27h-205l477 -1294h176v-27h-426v27h218l-183 499h-590l-184 -499h221v-27h-426z" />
    <glyph glyph-name="abreve" unicode="&#x103;" horiz-adv-x="925" 
d="M433 1008q-85 0 -151 54t-98 142l21 8q73 -170 229 -170t228 170l18 -8q-30 -88 -96 -142t-151 -54zM360 12q182 0 326 176v203q-140 55 -280 55t-216 -63t-76 -155t63 -154q62 -62 183 -62zM686 575q0 248 -260 248q-90 1 -155 -31t-87 -73q23 -10 23 -41t-34 -31
t-34 45q0 44 81 100t206 56q166 0 240 -96q49 -61 49 -174v-553h162v-25h-189v160q-141 -172 -328 -172q-130 0 -202 68t-72 172t86 174t226 69q140 0 288 -55v159z" />
    <glyph glyph-name="Aogonek" unicode="&#x104;" horiz-adv-x="1396" 
d="M414 551h569l-285 774zM1186 -412q-80 0 -127 46t-47 118q0 152 162 248h-216v27h218l-183 499h-590l-184 -499h221v-27h-426v27h174l480 1294h-205v27h473v-27h-205l477 -1294h176v-27h-165q-85 -45 -133 -111t-48 -131t41 -105t114 -40t134 45v-23q-61 -47 -141 -47z
" />
    <glyph glyph-name="aogonek" unicode="&#x105;" horiz-adv-x="925" 
d="M360 12q182 0 326 176v203q-140 55 -280 55t-216 -63t-76 -155t63 -154q62 -62 183 -62zM686 575q0 248 -260 248q-90 1 -155 -31t-87 -73q23 -10 23 -41t-34 -31t-34 45q0 44 81 100t206 56q166 0 240 -96q49 -61 49 -174v-553h162v-25h-150q-86 -45 -133 -111t-47 -131
t41 -105q42 -40 114 -40t134 45v-23q-62 -47 -142 -47t-127 46t-47 118q0 152 168 252v156q-141 -172 -328 -172q-130 0 -202 68t-72 172t86 174t226 69q140 0 288 -55v159z" />
    <glyph glyph-name="Cacute" unicode="&#x106;" horiz-adv-x="1413" 
d="M780 -25q-291 0 -480 199t-189 493q1 295 193 499t476 206q207 0 352 -108q144 -109 144 -236q0 -55 -43 -55q-14 0 -26 10q-11 10 -11 27q0 41 45 45q-6 102 -138 196t-323 95q-272 0 -454 -197t-182 -481t180 -475t462 -191t474 209l16 -21q-205 -215 -496 -215z
M694 1473l-6 12l273 155q51 31 53 -10q0 -14 -29 -28z" />
    <glyph glyph-name="cacute" unicode="&#x107;" horiz-adv-x="913" 
d="M510 -12q-176 0 -299 114t-123 304q0 192 122 317t290 125q133 0 223 -72t90 -158q0 -47 -35 -47t-35 35t39 43q-14 70 -94 122t-188 52q-158 1 -271 -117t-113 -297t116 -288t284 -109t281 88v-26q-111 -86 -287 -86zM733 1190q20 0 21 -23q0 -14 -29 -28l-291 -129
l-6 12l272 156q20 12 33 12z" />
    <glyph glyph-name="Cdotaccent" unicode="&#x10a;" horiz-adv-x="1413" 
d="M758 1507q-16 -1 -28 11t-11 28q0 16 11 28q12 12 28 13q16 0 27 -12q11 -13 11 -29t-10 -28q-12 -12 -28 -11zM780 -25q-291 0 -480 199t-189 493q1 295 193 499t476 206q207 0 352 -108q144 -109 144 -236q0 -55 -43 -55q-14 0 -26 10q-11 10 -11 27q0 41 45 45
q-6 102 -138 196t-323 95q-272 0 -454 -197t-182 -481t180 -475t462 -191t474 209l16 -21q-205 -215 -496 -215z" />
    <glyph glyph-name="cdotaccent" unicode="&#x10b;" horiz-adv-x="913" 
d="M500 1044q-16 0 -28 12t-11 27q0 17 11 29q12 12 28 12t27 -12t11 -28t-10 -28q-12 -12 -28 -12zM510 -12q-176 0 -299 114t-123 304q0 192 122 317t290 125q133 0 223 -72t90 -158q0 -47 -35 -47t-35 35t39 43q-14 70 -94 122t-188 52q-158 1 -271 -117t-113 -297
t116 -288t284 -109t281 88v-26q-111 -86 -287 -86z" />
    <glyph glyph-name="Ccaron" unicode="&#x10c;" horiz-adv-x="1413" 
d="M780 -25q-291 0 -480 199t-189 493q1 295 193 499t476 206q207 0 352 -108q144 -109 144 -236q0 -55 -43 -55q-14 0 -26 10q-11 10 -11 27q0 41 45 45q-6 102 -138 196t-323 95q-272 0 -454 -197t-182 -481t180 -475t462 -191t474 209l16 -21q-205 -215 -496 -215z
M997 1688l11 -13l-250 -215l-250 215l10 13l240 -181z" />
    <glyph glyph-name="ccaron" unicode="&#x10d;" horiz-adv-x="913" 
d="M510 -12q-176 0 -299 114t-123 304q0 192 122 317t290 125q133 0 223 -72t90 -158q0 -47 -35 -47t-35 35t39 43q-14 70 -94 122t-188 52q-158 1 -271 -117t-113 -297t116 -288t284 -109t281 88v-26q-111 -86 -287 -86zM739 1225l11 -13l-250 -215l-250 215l10 13
l240 -181z" />
    <glyph glyph-name="Dcaron" unicode="&#x10e;" horiz-adv-x="1439" 
d="M313 27h273q336 0 519 177t183 472t-184 470t-524 175h-267v-1294zM78 0v27h205v1294h-205v27h502q352 0 546 -184t193 -488q0 -304 -193 -490t-540 -186h-508zM926 1688l10 -13l-250 -215l-250 215l10 13l240 -181z" />
    <glyph glyph-name="dcaron" unicode="&#x10f;" horiz-adv-x="1087" 
d="M506 823q-162 -1 -275 -117t-113 -290t108 -289q106 -115 284 -115t334 176v488q-68 63 -160 105t-178 42zM506 -12q-186 0 -301 122t-115 306t120 308t296 124t338 -143v747h-174v23h202v-1450h162v-25h-190v158q-152 -170 -338 -170zM1040 1475q22 0 23 -33
q2 -150 -68 -279l-10 8q37 92 37 187l-4 88q0 29 22 29z" />
    <glyph glyph-name="Dcroat" unicode="&#x110;" horiz-adv-x="1439" 
d="M313 27h273q336 0 519 177t183 472t-184 470t-524 175h-267v-616h346v-27h-346v-651zM283 678h-164v27h164v616h-205v27h502q352 0 546 -184t193 -488q0 -304 -193 -490t-540 -186h-508v27h205v651z" />
    <glyph glyph-name="dcroat" unicode="&#x111;" horiz-adv-x="1087" 
d="M506 823q-162 -1 -275 -117t-113 -290t108 -289q106 -115 284 -115t334 176v488q-68 63 -160 105t-178 42zM492 1153v25h352v274h-174v23h202v-297h162v-25h-162v-1128h162v-25h-190v158q-154 -170 -339 -170t-300 122t-115 306t120 308t296 124t338 -143v448h-352z" />
    <glyph glyph-name="Emacron" unicode="&#x112;" horiz-adv-x="1150" 
d="M324 1534v29h534v-29h-534zM78 0v27h205v1294h-205v27h934v-301h-29v274h-670v-619h512v-26h-512v-649h670v274h29v-301h-934z" />
    <glyph glyph-name="emacron" unicode="&#x113;" horiz-adv-x="935" 
d="M209 1071v29h534v-29h-534zM488 823q-152 0 -256 -104t-113 -262h698q-2 156 -90 261q-87 105 -239 105zM119 432v-8q1 -192 109 -302t278 -110t297 92l-2 -28q-129 -88 -303 -88t-291 116t-117 310q0 192 114 313t282 121t264 -116t96 -281q0 -13 -2 -19h-725z" />
    <glyph glyph-name="Ebreve" unicode="&#x114;" horiz-adv-x="1150" 
d="M591 1470q-85 0 -152 54t-97 143l20 8q72 -170 229 -170t228 170l19 -8q-30 -89 -96 -143t-151 -54zM78 0v27h205v1294h-205v27h934v-301h-29v274h-670v-619h512v-26h-512v-649h670v274h29v-301h-934z" />
    <glyph glyph-name="ebreve" unicode="&#x115;" horiz-adv-x="935" 
d="M476 1008q-86 0 -152 54t-97 142l21 8q72 -170 228 -170t229 170l18 -8q-31 -88 -97 -142t-150 -54zM488 823q-152 0 -256 -104t-113 -262h698q-2 156 -90 261q-87 105 -239 105zM119 432v-8q1 -192 109 -302t278 -110t297 92l-2 -28q-129 -88 -303 -88t-291 116
t-117 310q0 192 114 313t282 121t264 -116t96 -281q0 -13 -2 -19h-725z" />
    <glyph glyph-name="Edotaccent" unicode="&#x116;" horiz-adv-x="1150" 
d="M590 1507q-16 -1 -28 11t-11 28q0 16 11 28q12 12 28 13q16 0 27 -12q11 -13 11 -29t-10 -28q-12 -12 -28 -11zM78 0v27h205v1294h-205v27h934v-301h-29v274h-670v-619h512v-26h-512v-649h670v274h29v-301h-934z" />
    <glyph glyph-name="edotaccent" unicode="&#x117;" horiz-adv-x="935" 
d="M475 1044q-15 0 -27 12t-12 27q0 17 11 29t27 12t28 -12t12 -28t-12 -28t-27 -12zM488 823q-152 0 -256 -104t-113 -262h698q-2 156 -90 261q-87 105 -239 105zM119 432v-8q1 -192 109 -302t278 -110t297 92l-2 -28q-129 -88 -303 -88t-291 116t-117 310q0 192 114 313
t282 121t264 -116t96 -281q0 -13 -2 -19h-725z" />
    <glyph glyph-name="Eogonek" unicode="&#x118;" horiz-adv-x="1157" 
d="M84 0v27h205v1294h-205v27h934v-301h-29v274h-670v-619h512v-26h-512v-649h670v274h29v-301h-105q-86 -45 -133 -111t-47 -131t41 -105t114 -40t134 45v-23q-61 -47 -141 -47t-127 46t-47 118q0 152 161 248h-784z" />
    <glyph glyph-name="eogonek" unicode="&#x119;" horiz-adv-x="935" 
d="M488 823q-152 0 -256 -104t-113 -262h698q-2 156 -90 261q-87 105 -239 105zM119 432v-8q1 -192 109 -302t270 -110t305 92l-2 -28q-289 -154 -289 -328q0 -59 41 -97t115 -38t135 45l-2 -23q-61 -47 -141 -47t-128 44q-47 44 -47 117t47 143t134 122q-74 -27 -156 -26
q-186 0 -303 116t-117 310q0 192 114 313t282 121t264 -116t96 -281q0 -13 -2 -19h-725z" />
    <glyph glyph-name="Ecaron" unicode="&#x11a;" horiz-adv-x="1150" 
d="M78 0v27h205v1294h-205v27h934v-301h-29v274h-670v-619h512v-26h-512v-649h670v274h29v-301h-934zM829 1688l11 -13l-250 -215l-250 215l10 13l240 -181z" />
    <glyph glyph-name="ecaron" unicode="&#x11b;" horiz-adv-x="935" 
d="M488 823q-152 0 -256 -104t-113 -262h698q-2 156 -90 261q-87 105 -239 105zM119 432v-8q1 -192 109 -302t278 -110t297 92l-2 -28q-129 -88 -303 -88t-291 116t-117 310q0 192 114 313t282 121t264 -116t96 -281q0 -13 -2 -19h-725zM715 1225l10 -13l-250 -215l-250 215
l11 13l239 -181z" />
    <glyph glyph-name="Gbreve" unicode="&#x11e;" horiz-adv-x="1476" 
d="M783 1470q-85 0 -151 54t-97 143l20 8q73 -170 229 -170t228 170l18 -8q-30 -89 -96 -143t-151 -54zM779 -25q-286 0 -476 194t-190 496q1 301 197 503t481 204q213 0 358 -100t145 -209q0 -51 -37 -51t-36 37q0 37 36 45q-20 92 -152 172t-317 80q-280 -2 -462 -200
t-182 -484t178 -472q180 -188 462 -188t496 211v356h-457v27h486v-596h-29v180q-215 -205 -501 -205z" />
    <glyph glyph-name="gbreve" unicode="&#x11f;" horiz-adv-x="1079" 
d="M548 1008q-85 0 -152 54t-97 142l20 8q72 -170 229 -170t228 170l19 -8q-31 -88 -97 -142t-150 -54zM509 823q-167 1 -277 -115t-110 -290t105 -289t279 -115t328 179v481q-158 149 -325 149zM862 811v-870q0 -150 -61 -230q-96 -121 -303 -121q-115 0 -193 36t-106 85
q-16 27 -17 47q0 41 35 41t35 -33t-31 -40q25 -45 97 -78t182 -33q193 0 278 113q55 74 56 213v221q-156 -170 -334 -170t-292 122t-114 305t118 306t288 123t336 -143v131h190v-25h-164z" />
    <glyph glyph-name="Gdotaccent" unicode="&#x120;" horiz-adv-x="1476" 
d="M782 1507q-16 -1 -27 11t-12 28t11 28t28 13q16 0 28 -12q12 -13 11 -29q1 -16 -11 -28t-28 -11zM779 -25q-286 0 -476 194t-190 496q1 301 197 503t481 204q213 0 358 -100t145 -209q0 -51 -37 -51t-36 37q0 37 36 45q-20 92 -152 172t-317 80q-280 -2 -462 -200
t-182 -484t178 -472q180 -188 462 -188t496 211v356h-457v27h486v-596h-29v180q-215 -205 -501 -205z" />
    <glyph glyph-name="gdotaccent" unicode="&#x121;" horiz-adv-x="1079" 
d="M547 1044q-15 0 -27 12t-12 27q0 17 11 29t27 12t28 -12t12 -28t-12 -28t-27 -12zM509 823q-167 1 -277 -115t-110 -290t105 -289t279 -115t328 179v481q-158 149 -325 149zM862 811v-870q0 -150 -61 -230q-96 -121 -303 -121q-115 0 -193 36t-106 85q-16 27 -17 47
q0 41 35 41t35 -33t-31 -40q25 -45 97 -78t182 -33q193 0 278 113q55 74 56 213v221q-156 -170 -334 -170t-292 122t-114 305t118 306t288 123t336 -143v131h190v-25h-164z" />
    <glyph glyph-name="Gcommaaccent" unicode="&#x122;" horiz-adv-x="1476" 
d="M779 -25q-286 0 -476 194t-190 496q1 301 197 503t481 204q213 0 358 -100t145 -209q0 -51 -37 -51t-36 37q0 37 36 45q-20 92 -152 172t-317 80q-280 -2 -462 -200t-182 -484t178 -472q180 -188 462 -188t496 211v356h-457v27h486v-596h-29v180q-215 -205 -501 -205z
M748 -168q0 18 10 28t24 11q45 0 45 -64q1 -118 -112 -210l-10 12q92 92 92 186q-20 -4 -35 8q-14 11 -14 29z" />
    <glyph glyph-name="gcommaaccent" unicode="&#x123;" horiz-adv-x="1079" 
d="M509 823q-167 1 -277 -115t-110 -290t105 -289t279 -115t328 179v481q-158 149 -325 149zM862 811v-870q0 -150 -61 -230q-96 -121 -303 -121q-115 0 -193 36t-106 85q-16 27 -17 47q0 41 35 41t35 -33t-31 -40q25 -45 97 -78t182 -33q193 0 278 113q55 74 56 213v221
q-156 -170 -334 -170t-292 122t-114 305t118 306t288 123t336 -143v131h190v-25h-164zM567 1084q0 -18 -10 -27q-10 -10 -25 -10q-45 0 -45 63q0 119 113 211l10 -12q-92 -92 -92 -187q20 4 34 -8t15 -30z" />
    <glyph glyph-name="Hbar" unicode="&#x126;" horiz-adv-x="1536" 
d="M313 707h908v294h-908v-294zM119 1001v25h164v295h-205v27h446v-27h-211v-295h908v295h-209v27h446v-27h-207v-295h164v-25h-164v-974h207v-27h-446v27h209v653h-908v-653h211v-27h-446v27h205v974h-164z" />
    <glyph glyph-name="hbar" unicode="&#x127;" horiz-adv-x="1052" 
d="M213 1452h-164v23h193v-297h350v-25h-350v-512q164 207 352 207q143 0 209 -113q39 -70 39 -192v-518h162v-25h-355v25h164v516q0 121 -35 182q-57 98 -188 98q-184 0 -348 -215v-581h161v-25h-354v25h164v1128h-164v25h164v274z" />
    <glyph glyph-name="Imacron" unicode="&#x12a;" horiz-adv-x="618" 
d="M43 1534v29h535v-29h-535zM78 0v27h215v1294h-215v27h463v-27h-215v-1294h215v-27h-463z" />
    <glyph glyph-name="imacron" unicode="&#x12b;" horiz-adv-x="516" 
d="M-39 1071v29h535v-29h-535zM68 0v25h168v786h-168v25h196v-811h168v-25h-364z" />
    <glyph glyph-name="Ibreve" unicode="&#x12c;" horiz-adv-x="618" 
d="M310 1470q-86 0 -152 54t-97 143l21 8q72 -170 228 -170t229 170l18 -8q-31 -89 -97 -143t-150 -54zM78 0v27h215v1294h-215v27h463v-27h-215v-1294h215v-27h-463z" />
    <glyph glyph-name="ibreve" unicode="&#x12d;" horiz-adv-x="516" 
d="M228 1008q-86 0 -152 54t-96 142l20 8q72 -170 228 -170t229 170l18 -8q-31 -88 -97 -142t-150 -54zM68 0v25h168v786h-168v25h196v-811h168v-25h-364z" />
    <glyph glyph-name="Iogonek" unicode="&#x12e;" horiz-adv-x="618" 
d="M78 0v27h215v1294h-215v27h463v-27h-215v-1294h215v-27h-191q-86 -45 -133 -111t-47 -131t41 -105t114 -40t134 45v-23q-61 -47 -141 -47t-128 46q-47 46 -47 118q0 152 162 248h-227z" />
    <glyph glyph-name="iogonek" unicode="&#x12f;" horiz-adv-x="479" 
d="M199 1210q0 39 38 39t38 -39t-39 -39q-16 -1 -26 11t-11 28zM68 0v25h168v786h-168v25h196v-811h168v-25h-164q-76 -45 -120 -111t-44 -131t41 -105t115 -40t135 45l-2 -23q-57 -47 -139 -47t-129 46t-47 118q0 150 151 248h-161z" />
    <glyph glyph-name="Idotaccent" unicode="&#x130;" horiz-adv-x="618" 
d="M309 1507q-16 -1 -27 11t-12 28q0 16 12 28t27 13q15 0 27 -12q12 -13 12 -29t-12 -28t-27 -11zM78 0v27h215v1294h-215v27h463v-27h-215v-1294h215v-27h-463z" />
    <glyph glyph-name="dotlessi" unicode="&#x131;" horiz-adv-x="516" 
d="M68 0v25h168v786h-168v25h196v-811h168v-25h-364z" />
    <glyph glyph-name="Kcommaaccent" unicode="&#x136;" horiz-adv-x="1323" 
d="M78 0v27h205v1294h-205v27h446v-27h-211v-801l785 801h-238v27h447v-27h-174l-545 -555l532 -739h199v-27h-217l-533 745l-256 -260v-458h211v-27h-446zM670 -168q0 18 10 28t25 11q45 0 45 -64q0 -118 -113 -210l-10 12q92 92 92 186q-20 -4 -35 8q-14 11 -14 29z" />
    <glyph glyph-name="kcommaaccent" unicode="&#x137;" horiz-adv-x="987" 
d="M49 0v25h164v1427h-164v23h193v-1143l506 479h-220v25h418v-25h-164l-317 -301l340 -485h141v-25h-162l-340 494l-202 -195v-274h161v-25h-354zM469 -168q0 18 10 28t25 11q45 0 45 -64q0 -118 -113 -210l-10 12q92 92 92 186q-20 -4 -35 8q-14 11 -14 29z" />
    <glyph glyph-name="Lacute" unicode="&#x139;" horiz-adv-x="1056" 
d="M84 0v27h205v1294h-205v27h451v-27h-216v-1294h627v278h31v-305h-893zM584 1657q20 0 20 -23q0 -14 -29 -28l-290 -129l-6 12l272 156q20 12 33 12z" />
    <glyph glyph-name="lacute" unicode="&#x13a;" horiz-adv-x="466" 
d="M49 0v25h168v1427h-168v23h197v-1450h170v-25h-367zM463 1745q20 0 20 -23q0 -14 -28 -28l-291 -129l-6 12l272 156q20 12 33 12z" />
    <glyph glyph-name="Lcommaaccent" unicode="&#x13b;" horiz-adv-x="1050" 
d="M78 0v27h205v1294h-205v27h450v-27h-215v-1294h627v278h31v-305h-893zM498 -168q0 18 10 28t24 11q45 0 46 -64q0 -118 -113 -210l-10 12q92 92 92 186q-20 -4 -35 8q-14 11 -14 29z" />
    <glyph glyph-name="lcommaaccent" unicode="&#x13c;" horiz-adv-x="466" 
d="M49 0v25h168v1427h-168v23h197v-1450h170v-25h-367zM195 -168q0 18 10 28t24 11q45 0 45 -64q1 -118 -112 -210l-10 12q92 92 92 186q-20 -4 -35 8q-14 11 -14 29z" />
    <glyph glyph-name="Lcaron" unicode="&#x13d;" horiz-adv-x="1056" 
d="M84 0v27h205v1294h-205v27h451v-27h-216v-1294h627v278h31v-305h-893zM702 1346q22 0 23 -33q2 -150 -68 -279l-10 8q37 92 37 187l-4 88q0 29 22 29z" />
    <glyph glyph-name="lcaron" unicode="&#x13e;" horiz-adv-x="466" 
d="M49 0v25h168v1427h-168v23h197v-1450h170v-25h-367zM418 1475q23 0 22 -33q3 -150 -67 -279l-11 8q37 92 37 187l-4 88q0 29 23 29z" />
    <glyph glyph-name="Ldot" unicode="&#x13f;" horiz-adv-x="1056" 
d="M829 678q-16 0 -27 11t-11 27t11 29t27 13q15 0 27 -12t12 -29q0 -16 -11 -28q-12 -11 -28 -11zM84 0v27h205v1294h-205v27h451v-27h-216v-1294h627v278h31v-305h-893z" />
    <glyph glyph-name="ldot" unicode="&#x140;" horiz-adv-x="522" 
d="M494 688q-16 0 -28 11q-11 11 -11 27t11 30q12 12 28 12t27 -12t11 -28t-11 -28t-27 -12zM49 0v25h168v1427h-168v23h197v-1450h170v-25h-367z" />
    <glyph glyph-name="Lslash" unicode="&#x141;" horiz-adv-x="1064" 
d="M90 0v27h205v589l-215 -127l-14 23l229 135v674h-205v27h451v-27h-215v-655l366 219l15 -23l-381 -227v-608h626v278h31v-305h-893z" />
    <glyph glyph-name="lslash" unicode="&#x142;" horiz-adv-x="483" 
d="M59 0v25h166v788l-205 -123l-12 19l217 133v610h-166v23h195v-617l184 109l15 -21l-199 -117v-804h170v-25h-365z" />
    <glyph glyph-name="Nacute" unicode="&#x143;" horiz-adv-x="1515" 
d="M311 27h217v-27h-450v27h205v1294h-205v27h231l918 -1299v1272h-209v27h444v-27h-205v-1331h-22l-924 1302v-1265zM696 1473l-6 12l273 155q51 31 53 -10q0 -14 -29 -28z" />
    <glyph glyph-name="nacute" unicode="&#x144;" horiz-adv-x="1071" 
d="M612 848q248 0 248 -305v-518h162v-25h-354v25h163v516q0 113 -28 172q-51 109 -195 108q-182 0 -350 -215v-581h164v-25h-354v25h161v786h-161v25h190v-197q166 209 354 209zM778 1190q20 0 21 -23q0 -14 -29 -28l-291 -129l-6 12l272 156q20 12 33 12z" />
    <glyph glyph-name="Ncommaaccent" unicode="&#x145;" horiz-adv-x="1515" 
d="M311 27h217v-27h-450v27h205v1294h-205v27h231l918 -1299v1272h-209v27h444v-27h-205v-1331h-22l-924 1302v-1265zM727 -168q0 18 10 28t25 11q45 0 45 -64q0 -118 -113 -210l-10 12q92 92 92 186q-20 -4 -35 8q-14 11 -14 29z" />
    <glyph glyph-name="ncommaaccent" unicode="&#x146;" horiz-adv-x="1071" 
d="M612 848q248 0 248 -305v-518h162v-25h-354v25h163v516q0 113 -28 172q-51 109 -195 108q-182 0 -350 -215v-581h164v-25h-354v25h161v786h-161v25h190v-197q166 209 354 209zM510 -168q0 18 10 28t25 11q45 0 45 -64q0 -118 -113 -210l-10 12q92 92 92 186q-20 -4 -35 8
q-14 11 -14 29z" />
    <glyph glyph-name="Ncaron" unicode="&#x147;" horiz-adv-x="1515" 
d="M311 27h217v-27h-450v27h205v1294h-205v27h231l918 -1299v1272h-209v27h444v-27h-205v-1331h-22l-924 1302v-1265zM1001 1688l11 -13l-250 -215l-250 215l10 13l240 -181z" />
    <glyph glyph-name="ncaron" unicode="&#x148;" horiz-adv-x="1071" 
d="M612 848q248 0 248 -305v-518h162v-25h-354v25h163v516q0 113 -28 172q-51 109 -195 108q-182 0 -350 -215v-581h164v-25h-354v25h161v786h-161v25h190v-197q166 209 354 209zM784 1225l11 -13l-250 -215l-250 215l10 13l240 -181z" />
    <glyph glyph-name="Omacron" unicode="&#x14c;" horiz-adv-x="1566" 
d="M783 2q273 0 457 195q183 195 183 477t-183 478q-182 194 -456 194t-457 -195t-183 -477t182 -478q184 -194 457 -194zM781 -25q-287 0 -479 203t-191 496q-1 294 193 496t480 202t478 -203t192 -495t-194 -496q-194 -203 -479 -203zM516 1534v29h535v-29h-535z" />
    <glyph glyph-name="omacron" unicode="&#x14d;" horiz-adv-x="1015" 
d="M507 12q167 0 277 118t111 289q0 171 -110 288q-111 117 -277 117t-278 -118t-112 -289t112 -288q110 -117 277 -117zM507 -12q-179 0 -298 123t-119 305t120 307t299 125t298 -123t119 -305t-120 -307t-299 -125zM242 1071v29h534v-29h-534z" />
    <glyph glyph-name="Obreve" unicode="&#x14e;" horiz-adv-x="1566" 
d="M783 1470q-85 0 -151 54t-97 143l20 8q73 -170 229 -170t228 170l18 -8q-30 -89 -96 -143t-151 -54zM783 2q273 0 457 195q183 195 183 477t-183 478q-182 194 -456 194t-457 -195t-183 -477t182 -478q184 -194 457 -194zM781 -25q-287 0 -479 203t-191 496
q-1 294 193 496t480 202t478 -203t192 -495t-194 -496q-194 -203 -479 -203z" />
    <glyph glyph-name="obreve" unicode="&#x14f;" horiz-adv-x="1015" 
d="M509 1008q-85 0 -152 54t-97 142l21 8q73 -170 229 -170t227 170l19 -8q-30 -88 -96 -142t-151 -54zM507 12q167 0 277 118t111 289q0 171 -110 288q-111 117 -277 117t-278 -118t-112 -289t112 -288q110 -117 277 -117zM507 -12q-179 0 -298 123t-119 305t120 307
t299 125t298 -123t119 -305t-120 -307t-299 -125z" />
    <glyph glyph-name="Ohungarumlaut" unicode="&#x150;" horiz-adv-x="1566" 
d="M783 2q273 0 457 195q183 195 183 477t-183 478q-182 194 -456 194t-457 -195t-183 -477t182 -478q184 -194 457 -194zM781 -25q-287 0 -479 203t-191 496q-1 294 193 496t480 202t478 -203t192 -495t-194 -496q-194 -203 -479 -203zM1194 1659q18 -1 18 -19t-28 -30
l-283 -142l-8 11l266 170q17 10 35 10zM870 1663q25 0 25 -21q0 -14 -29 -28l-280 -150l-8 11l262 176q20 12 30 12z" />
    <glyph glyph-name="ohungarumlaut" unicode="&#x151;" horiz-adv-x="1015" 
d="M507 12q167 0 277 118t111 289q0 171 -110 288q-111 117 -277 117t-278 -118t-112 -289t112 -288q110 -117 277 -117zM507 -12q-179 0 -298 123t-119 305t120 307t299 125t298 -123t119 -305t-120 -307t-299 -125zM915 1196q21 0 21 -18t-29 -31l-282 -141l-9 10l267 170
q18 10 32 10zM594 1200q25 0 24 -20q0 -14 -28 -29l-281 -150l-8 11l262 176q23 12 31 12z" />
    <glyph glyph-name="OE" unicode="&#x152;" horiz-adv-x="1835" 
d="M852 27h115v1294h-123q-336 0 -518 -177t-182 -472t184 -470t524 -175zM852 0q-354 0 -548 184t-194 488t194 489q194 186 542 187h850v-301h-29v274h-668v-619h510v-26h-510v-649h668v274h29v-301h-844z" />
    <glyph glyph-name="oe" unicode="&#x153;" horiz-adv-x="1740" 
d="M1290 823q-152 0 -254 -104t-112 -262h696q-2 156 -90 261t-240 105zM507 12q167 0 277 118t111 289q0 171 -110 288q-111 117 -277 117t-278 -118t-112 -289t112 -288q110 -117 277 -117zM924 424q0 -192 108 -302t277 -110q170 0 297 92l-2 -28q-129 -88 -290 -88
t-270 89t-135 247q-29 -147 -139 -242q-110 -94 -276 -94t-285 123t-119 305t120 307t286 125t274 -93t139 -241q25 146 127 240t261 94t255 -116t97 -281q0 -14 -2 -19h-723v-8z" />
    <glyph glyph-name="Racute" unicode="&#x154;" horiz-adv-x="1200" 
d="M565 629q201 0 320 92t119 253t-111 254t-307 93h-273v-688q160 -4 252 -4zM78 0v27h205v1294h-205v27h510q206 0 326 -102t120 -260q0 -159 -95 -255t-261 -121l356 -583h172v-27h-192l-367 606q-41 -4 -139 -4t-195 4v-579h215v-27h-450zM522 1473l-6 12l272 155
q20 12 33 13q20 0 21 -23q0 -14 -29 -28z" />
    <glyph glyph-name="racute" unicode="&#x155;" horiz-adv-x="663" 
d="M528 848q39 0 62 -16t22 -39q0 -37 -34 -37t-35 37q0 14 10 24q-8 4 -29 4q-135 0 -266 -217v-579h172v-25h-362v25h161v786h-161v25h190v-197q123 209 270 209zM575 1190q20 0 21 -23q0 -14 -29 -28l-291 -129l-6 12l273 156q20 12 32 12z" />
    <glyph glyph-name="Rcommaaccent" unicode="&#x156;" horiz-adv-x="1206" 
d="M571 629q201 0 320 92t119 253t-111 254t-307 93h-273v-688q160 -4 252 -4zM84 0v27h205v1294h-205v27h510q207 0 327 -102q119 -102 119 -260q0 -159 -95 -255t-261 -121l356 -583h172v-27h-192l-367 606q-41 -4 -139 -4t-195 4v-579h216v-27h-451zM578 -168q0 18 10 28
t24 11q45 0 45 -64q1 -118 -112 -210l-10 12q92 92 92 186q-20 -4 -35 8q-14 11 -14 29z" />
    <glyph glyph-name="rcommaaccent" unicode="&#x157;" horiz-adv-x="663" 
d="M528 848q39 0 62 -16t22 -39q0 -37 -34 -37t-35 37q0 14 10 24q-8 4 -29 4q-135 0 -266 -217v-579h172v-25h-362v25h161v786h-161v25h190v-197q123 209 270 209zM211 -168q0 18 10 28t25 11q45 0 45 -64q0 -118 -113 -210l-10 12q92 92 92 186q-20 -4 -35 8
q-14 11 -14 29z" />
    <glyph glyph-name="Rcaron" unicode="&#x158;" horiz-adv-x="1200" 
d="M565 629q201 0 320 92t119 253t-111 254t-307 93h-273v-688q160 -4 252 -4zM78 0v27h205v1294h-205v27h510q206 0 326 -102t120 -260q0 -159 -95 -255t-261 -121l356 -583h172v-27h-192l-367 606q-41 -4 -139 -4t-195 4v-579h215v-27h-450zM827 1688l11 -13l-250 -215
l-250 215l10 13l240 -181z" />
    <glyph glyph-name="rcaron" unicode="&#x159;" horiz-adv-x="663" 
d="M528 848q39 0 62 -16t22 -39q0 -37 -34 -37t-35 37q0 14 10 24q-8 4 -29 4q-135 0 -266 -217v-579h172v-25h-362v25h161v786h-161v25h190v-197q123 209 270 209zM582 1225l10 -13l-250 -215l-250 215l10 13l240 -181z" />
    <glyph glyph-name="Sacute" unicode="&#x15a;" horiz-adv-x="1032" 
d="M516 -23q-176 0 -290 83t-113 178q0 55 39 55q12 0 23 -11t11 -28q0 -37 -39 -43q17 -82 119 -145q102 -64 259 -64t261 88t104 230t-115 229q-90 67 -209 115q-120 48 -170 74q-157 80 -205 174q-30 60 -29 139q0 137 107 228t263 91t260 -76t105 -168q0 -51 -36 -51
t-36 35t35 45q-16 78 -107 134q-91 57 -227 57t-236 -85q-99 -85 -100 -208q0 -162 161 -256q58 -35 166 -79t166 -75q59 -31 117 -76q120 -93 120 -246q0 -154 -114 -249t-290 -95zM481 1473l-6 12l273 155q51 31 53 -10q0 -14 -29 -28z" />
    <glyph glyph-name="sacute" unicode="&#x15b;" horiz-adv-x="796" 
d="M635 1190q20 0 20 -23q0 -14 -28 -28l-291 -129l-6 12l272 156q20 12 33 12zM682 685q0 -38 -34 -38t-34 35q0 27 31 35q-8 18 -24 35q-77 72 -205 72t-198 -54q-70 -53 -71 -134q0 -81 67 -121t206 -75t212 -83t73 -146q0 -99 -84 -161t-202 -62t-195 36q-78 36 -108 79
t-30 65q0 45 34 45t34 -35q0 -29 -29 -35q20 -49 95 -90q74 -41 190 -41t191 56t75 141q0 108 -116 160q-55 23 -179 56q-125 32 -194 76t-69 134t81 151q80 61 200 62q168 0 250 -90q33 -35 33 -73z" />
    <glyph glyph-name="Scedilla" unicode="&#x15e;" horiz-adv-x="1032" 
d="M522 -416q-90 0 -178 39l6 23q84 -39 166 -39t120 31t38 81q0 102 -170 109h-19l-8 6l31 143q-172 2 -284 84t-111 177q0 55 39 55q12 0 23 -11t11 -28q0 -37 -39 -43q17 -82 119 -145q102 -64 259 -64t261 88t104 230t-115 229q-90 67 -209 115q-120 48 -170 74
q-157 80 -205 174q-30 60 -29 139q0 137 107 228t263 91t260 -76t105 -168q0 -51 -36 -51t-36 35t35 45q-16 78 -107 134q-91 57 -227 57t-236 -85q-99 -85 -100 -208q0 -162 161 -256q58 -35 166 -79t166 -75q59 -31 117 -76q120 -93 120 -244t-110 -246t-280 -100
l-20 -127q88 -2 140 -36t52 -96t-45 -98t-135 -36z" />
    <glyph glyph-name="scedilla" unicode="&#x15f;" horiz-adv-x="796" 
d="M397 -410q-90 0 -178 39l6 23q84 -39 166 -39t120 31t38 82q0 102 -170 108h-19l-8 6l31 150q-94 2 -166 38q-71 36 -101 78t-30 64q0 45 34 45t34 -34t-27 -36q18 -49 93 -90q74 -41 190 -41t191 56t75 143q0 88 -68 130t-211 78t-211 79t-68 132t82 150q81 61 199 62
q172 0 250 -90q33 -39 33 -75t-34 -36t-34 35q0 27 29 35q-10 20 -22 32q-73 74 -203 74t-200 -53t-71 -132q0 -79 65 -118t205 -74t214 -83t74 -145q0 -98 -82 -160t-217 -64l-21 -133q88 -2 140 -36q53 -34 53 -96q0 -63 -46 -99t-135 -36z" />
    <glyph glyph-name="Scaron" unicode="&#x160;" horiz-adv-x="1032" 
d="M516 -23q-176 0 -290 83t-113 178q0 55 39 55q12 0 23 -11t11 -28q0 -37 -39 -43q17 -82 119 -145q102 -64 259 -64t261 88t104 230t-115 229q-90 67 -209 115q-120 48 -170 74q-157 80 -205 174q-30 60 -29 139q0 137 107 228t263 91t260 -76t105 -168q0 -51 -36 -51
t-36 35t35 45q-16 78 -107 134q-91 57 -227 57t-236 -85q-99 -85 -100 -208q0 -162 161 -256q58 -35 166 -79t166 -75q59 -31 117 -76q120 -93 120 -246q0 -154 -114 -249t-290 -95zM786 1688l11 -13l-250 -215l-250 215l10 13l240 -181z" />
    <glyph glyph-name="scaron" unicode="&#x161;" horiz-adv-x="796" 
d="M641 1225l10 -13l-250 -215l-249 215l10 13l239 -181zM682 685q0 -38 -34 -38t-34 35q0 27 31 35q-8 18 -24 35q-77 72 -205 72t-198 -54q-70 -53 -71 -134q0 -81 67 -121t206 -75t212 -83t73 -146q0 -99 -84 -161t-202 -62t-195 36q-78 36 -108 79t-30 65q0 45 34 45
t34 -35q0 -29 -29 -35q20 -49 95 -90q74 -41 190 -41t191 56t75 141q0 108 -116 160q-55 23 -179 56q-125 32 -194 76t-69 134t81 151q80 61 200 62q168 0 250 -90q33 -35 33 -73z" />
    <glyph glyph-name="Tcommaaccent" unicode="&#x162;" horiz-adv-x="1255" 
d="M393 0v27h219v1294h-508v-279h-28v306h1104v-306h-31v279h-506v-1294h217v-27h-467zM590 -168q0 18 10 28t25 11q45 0 45 -64q0 -118 -113 -210l-10 12q92 92 92 186q-20 -4 -35 8q-14 11 -14 29z" />
    <glyph glyph-name="tcommaaccent" unicode="&#x163;" horiz-adv-x="565" 
d="M350 -12q-121 0 -153 100q-14 43 -15 113v610h-153v25h153v235l29 6v-241h295v-25h-295v-608q0 -63 12 -103q27 -88 129 -88q72 0 152 49l-4 -26q-74 -47 -150 -47zM303 -129q45 0 45 -64q1 -118 -112 -210l-11 12q92 92 92 186q-20 -4 -34 8q-15 11 -15 29t10 28t25 11z
" />
    <glyph glyph-name="Tcaron" unicode="&#x164;" horiz-adv-x="1255" 
d="M393 0v27h219v1294h-508v-279h-28v306h1104v-306h-31v279h-506v-1294h217v-27h-467zM866 1688l11 -13l-250 -215l-250 215l10 13l240 -181z" />
    <glyph glyph-name="tcaron" unicode="&#x165;" horiz-adv-x="565" 
d="M350 -12q-121 0 -153 100q-14 43 -15 113v610h-153v25h153v235l29 6v-241h295v-25h-295v-608q0 -63 12 -103q27 -88 129 -88q72 0 152 49l-4 -26q-74 -47 -150 -47zM392 1313q22 0 22 -33q2 -150 -68 -279l-10 9q37 92 37 186l-4 88q1 29 23 29z" />
    <glyph glyph-name="Umacron" unicode="&#x16a;" horiz-adv-x="1380" 
d="M422 1534v29h534v-29h-534zM690 -25q-210 0 -322 127t-112 365v854h-207v27h445v-27h-209v-852q0 -229 103 -348t303 -119t302 119t103 348v852h-207v27h442v-27h-205v-854q0 -238 -112 -365t-324 -127z" />
    <glyph glyph-name="umacron" unicode="&#x16b;" horiz-adv-x="1058" 
d="M250 1071v29h534v-29h-534zM459 -12q-154 0 -215 118q-33 57 -33 187v518h-162v25h191v-543q0 -117 28 -172q55 -109 195 -109q182 0 348 221v578h-162v25h191v-811h164v-25h-191v203q-164 -215 -354 -215z" />
    <glyph glyph-name="Ubreve" unicode="&#x16c;" horiz-adv-x="1380" 
d="M689 1470q-85 0 -151 54t-98 143l21 8q73 -170 229 -170t228 170l18 -8q-30 -89 -96 -143t-151 -54zM690 -25q-210 0 -322 127t-112 365v854h-207v27h445v-27h-209v-852q0 -229 103 -348t303 -119t302 119t103 348v852h-207v27h442v-27h-205v-854q0 -238 -112 -365
t-324 -127z" />
    <glyph glyph-name="ubreve" unicode="&#x16d;" horiz-adv-x="1058" 
d="M517 1008q-85 0 -151 54t-98 142l21 8q73 -170 229 -170t227 170l19 -8q-30 -88 -96 -142t-151 -54zM459 -12q-154 0 -215 118q-33 57 -33 187v518h-162v25h191v-543q0 -117 28 -172q55 -109 195 -109q182 0 348 221v578h-162v25h191v-811h164v-25h-191v203
q-164 -215 -354 -215z" />
    <glyph glyph-name="Uring" unicode="&#x16e;" horiz-adv-x="1380" 
d="M690 -25q-210 0 -322 127t-112 365v854h-207v27h445v-27h-209v-852q0 -229 103 -348t303 -119t302 119t103 348v852h-207v27h442v-27h-205v-854q0 -238 -112 -365t-324 -127zM689 1483q54 0 88 36t34 91t-35 93t-88 38t-88 -38t-35 -92t35 -91t89 -37zM688 1458
q-66 0 -108 44t-43 108q0 64 43 108q42 45 108 45t109 -45t43 -108q0 -64 -43 -108t-109 -44z" />
    <glyph glyph-name="uring" unicode="&#x16f;" horiz-adv-x="1058" 
d="M459 -12q-154 0 -215 118q-33 57 -33 187v518h-162v25h191v-543q0 -117 28 -172q55 -109 195 -109q182 0 348 221v578h-162v25h191v-811h164v-25h-191v203q-164 -215 -354 -215zM517 1034q54 0 88 36t34 91t-35 93t-88 38t-88 -38t-35 -92t35 -91t89 -37zM516 1010
q-66 0 -108 44t-43 107q0 63 43 109q42 46 108 45q66 0 109 -45q43 -44 43 -108t-43 -108t-109 -44z" />
    <glyph glyph-name="Uhungarumlaut" unicode="&#x170;" horiz-adv-x="1380" 
d="M1102 1659q18 -1 18 -19t-28 -30l-283 -142l-8 11l266 170q17 10 35 10zM778 1663q25 0 25 -21q0 -14 -29 -28l-280 -150l-9 11l263 176q23 12 30 12zM690 -25q-210 0 -322 127t-112 365v854h-207v27h445v-27h-209v-852q0 -229 103 -348t303 -119t302 119t103 348v852
h-207v27h442v-27h-205v-854q0 -238 -112 -365t-324 -127z" />
    <glyph glyph-name="uhungarumlaut" unicode="&#x171;" horiz-adv-x="1058" 
d="M928 1196q18 0 18 -18t-28 -31l-283 -141l-8 10l266 170q17 10 35 10zM604 1200q25 0 25 -20q0 -14 -29 -29l-281 -150l-8 11l262 176q20 12 31 12zM459 -12q-154 0 -215 118q-33 57 -33 187v518h-162v25h191v-543q0 -117 28 -172q55 -109 195 -109q182 0 348 221v578
h-162v25h191v-811h164v-25h-191v203q-164 -215 -354 -215z" />
    <glyph glyph-name="Uogonek" unicode="&#x172;" horiz-adv-x="1380" 
d="M690 -18q-210 0 -322 127t-112 364v848h-207v27h445v-27h-209v-846q0 -229 103 -348t303 -119t302 119t103 348v846h-207v27h442v-27h-205v-848q0 -221 -97 -346t-279 -143q-154 -94 -154 -230q0 -61 41 -101t115 -40t135 45l-2 -23q-61 -47 -141 -47t-128 46
q-47 46 -47 118q0 135 136 230h-15z" />
    <glyph glyph-name="uogonek" unicode="&#x173;" horiz-adv-x="1058" 
d="M459 -12q-154 0 -215 118q-33 57 -33 187v518h-162v25h191v-543q0 -117 28 -172q55 -109 195 -109q182 0 348 221v578h-162v25h191v-811h164v-25h-152q-86 -45 -133 -111t-47 -131t41 -105t113 -40t135 45v-23q-61 -47 -141 -47t-128 46q-47 46 -47 118q0 156 168 252
v199q-164 -215 -354 -215z" />
    <glyph glyph-name="Wcircumflex" unicode="&#x174;" horiz-adv-x="1951" 
d="M0 1321v27h446v-27h-223l379 -1301l365 1133h18l365 -1133l379 1301h-226v27h449v-27h-193l-399 -1350h-21l-364 1127l-363 -1127h-20l-399 1350h-193zM735 1448l-10 10l250 215l250 -215l-11 -10l-239 178z" />
    <glyph glyph-name="wcircumflex" unicode="&#x175;" horiz-adv-x="1314" 
d="M-6 811v25h346v-25h-178l213 -788l274 708h17l274 -708l213 788h-178v25h346v-25h-139l-234 -840h-16l-275 713l-276 -713h-16l-232 840h-139zM418 985l-10 10l249 215l250 -215l-10 -10l-240 178z" />
    <glyph glyph-name="Ycircumflex" unicode="&#x176;" horiz-adv-x="1277" 
d="M397 1460l-10 10l250 216l250 -216l-10 -10l-240 178zM401 0v27h222v553l-426 741h-185v27h439v-27h-220l408 -719l408 719h-220v27h439v-27h-187l-426 -741v-553h221v-27h-473z" />
    <glyph glyph-name="ycircumflex" unicode="&#x177;" horiz-adv-x="948" 
d="M236 997l-11 11l250 215l250 -215l-10 -11l-240 179zM152 -410q-39 0 -64 16t-25 40q0 35 33 35q23 -1 33 -21t-4 -43q16 -4 27 -4q90 0 163 104q43 59 103 197l43 104l-328 793h-139v25h346v-25h-176l309 -764l318 764h-181v25h346v-25h-139l-377 -903
q-51 -129 -102 -203q-80 -115 -186 -115z" />
    <glyph glyph-name="Ydieresis" unicode="&#x178;" horiz-adv-x="1277" 
d="M528 1509q-16 -1 -26 11t-10 27t10 27t26 11q37 0 37 -38t-37 -38zM745 1509q-16 -1 -26 11t-10 27t10 27t26 11q39 0 39 -39q0 -16 -12 -26t-27 -11zM401 0v27h222v553l-426 741h-185v27h439v-27h-220l408 -719l408 719h-220v27h439v-27h-187l-426 -741v-553h221v-27
h-473z" />
    <glyph glyph-name="Zacute" unicode="&#x179;" horiz-adv-x="1159" 
d="M82 0v14l930 1307h-856v-274h-29v301h926v-15l-930 -1306h924v274h28v-301h-993zM516 1473l-6 12l272 155q20 12 33 13q20 0 21 -23q0 -14 -29 -28z" />
    <glyph glyph-name="zacute" unicode="&#x17a;" horiz-adv-x="768" 
d="M61 0v16l603 795h-535v-184h-29v209h600v-17l-604 -794h580v182h29v-207h-644zM625 1190q20 0 20 -23q0 -14 -29 -28l-290 -129l-7 12l273 156q20 12 33 12z" />
    <glyph glyph-name="Zdotaccent" unicode="&#x17b;" horiz-adv-x="1159" 
d="M582 1507q-16 -1 -28 11t-11 28q0 16 11 28q12 12 28 13q16 0 27 -12q11 -13 11 -29t-10 -28q-12 -12 -28 -11zM82 0v14l930 1307h-856v-274h-29v301h926v-15l-930 -1306h924v274h28v-301h-993z" />
    <glyph glyph-name="zdotaccent" unicode="&#x17c;" horiz-adv-x="768" 
d="M389 1044q-15 0 -27 12t-12 27q0 17 11 29t27 12t28 -12t12 -28t-12 -28t-27 -12zM61 0v16l603 795h-535v-184h-29v209h600v-17l-604 -794h580v182h29v-207h-644z" />
    <glyph glyph-name="Zcaron" unicode="&#x17d;" horiz-adv-x="1159" 
d="M82 0v14l930 1307h-856v-274h-29v301h926v-15l-930 -1306h924v274h28v-301h-993zM821 1688l10 -13l-249 -215l-250 215l10 13l240 -181z" />
    <glyph glyph-name="zcaron" unicode="&#x17e;" horiz-adv-x="768" 
d="M61 0v16l603 795h-535v-184h-29v209h600v-17l-604 -794h580v182h29v-207h-644zM629 1225l10 -13l-250 -215l-250 215l11 13l239 -181z" />
    <glyph glyph-name="Aringacute" unicode="&#x1fa;" horiz-adv-x="1396" 
d="M698 1346q53 0 88 36t35 92q0 54 -35 92t-88 38t-88 -38t-35 -92t35 -91t88 -37zM414 551h569l-285 774zM850 1477q0 -94 -78 -129h164v-27h-205l477 -1294h183v-27h-441v27h226l-183 499h-590l-184 -499h227v-27h-440v27h182l480 1294h-205v27h160q-76 39 -76 129
q0 61 43 105q42 44 108 44t109 -44t43 -105zM930 1898q20 0 20 -22q0 -14 -28 -29l-291 -129l-6 13l272 155q20 12 33 12z" />
    <glyph glyph-name="aringacute" unicode="&#x1fb;" horiz-adv-x="925" 
d="M443 1034q54 0 88 36t34 91t-35 93t-88 38t-88 -38t-35 -92t35 -91t89 -37zM442 1010q-66 0 -108 44t-43 107q0 63 43 109q42 46 108 45q66 0 109 -45q43 -44 43 -108t-43 -108t-109 -44zM676 1618q20 0 20 -23q0 -14 -28 -28l-291 -129l-6 12l272 156q20 12 33 12z
M360 12q182 0 326 176v203q-140 55 -280 55t-216 -63t-76 -155t63 -154q62 -62 183 -62zM686 575q0 248 -260 248q-90 1 -155 -31t-87 -73q23 -10 23 -41t-34 -31t-34 45q0 44 81 100t206 56q166 0 240 -96q49 -61 49 -174v-553h162v-25h-189v160q-141 -172 -328 -172
q-130 0 -202 68t-72 172t86 174t226 69q140 0 288 -55v159z" />
    <glyph glyph-name="AEacute" unicode="&#x1fc;" horiz-adv-x="1703" 
d="M838 553v768h-15l-407 -768h422zM-70 0v27h172l691 1294h-195v27h969v-301h-31v274h-668v-619h512v-26h-512v-649h668v274h31v-301h-942v27h213v501h-437l-268 -501h184v-27h-387zM1208 1630q0 -14 -28 -28l-291 -129l-6 12l272 155q20 12 33 13q20 0 20 -23z" />
    <glyph glyph-name="aeacute" unicode="&#x1fd;" horiz-adv-x="1519" 
d="M1074 823q-150 0 -250 -103t-111 -263h686q-2 156 -88 261q-87 105 -237 105zM352 12q114 0 210 54t163 145q-37 88 -39 180q-144 55 -282 55t-214 -63t-76 -155t63 -154q61 -62 175 -62zM686 575q0 248 -260 248q-90 1 -155 -31t-87 -71q23 -12 23 -39q0 -35 -34 -35
t-34 45q0 44 81 100t206 56q164 0 238 -94q49 -65 49 -174q41 124 135 196t215 72q174 0 269 -116t95 -281v-19h-714v-8q0 -196 104 -304q103 -108 271 -108t296 94l-2 -28q-129 -90 -288 -90q-254 0 -359 200q-156 -201 -375 -200q-130 0 -202 68t-72 172t86 174t226 69
q140 0 288 -55v159zM977 1190q20 0 20 -23q0 -14 -28 -28l-291 -129l-6 12l272 156q20 12 33 12z" />
    <glyph glyph-name="Oslashacute" unicode="&#x1fe;" horiz-adv-x="1566" 
d="M1036 1630q0 -14 -28 -28l-291 -129l-6 12l272 155q20 12 33 13q20 0 20 -23zM782 1346q-272 0 -456 -194t-183 -482q0 -287 191 -482l862 1004q-176 154 -414 154zM793 2q263 0 447 195q183 195 183 487t-209 492l-862 -1006q178 -168 441 -168zM1454 687
q0 -306 -194 -509t-466 -203t-462 175l-172 -203l-19 16l172 205q-203 203 -203 501q0 299 194 501t478 202q248 0 432 -158l164 189l19 -17l-164 -188q221 -205 221 -511z" />
    <glyph glyph-name="oslashacute" unicode="&#x1ff;" horiz-adv-x="1015" 
d="M741 1190q20 0 21 -23q0 -14 -29 -28l-291 -129l-6 12l273 156q20 12 32 12zM119 415q0 -173 114 -292l527 608q-110 92 -264 92t-266 -117q-111 -118 -111 -291zM515 12q159 0 269 118t111 292q0 174 -119 293l-526 -606q106 -97 265 -97zM518 -12q-168 0 -285 100
l-106 -123l-18 17l106 122q-125 126 -125 310t120 309t285 125t281 -96l115 135l18 -17l-114 -135q131 -125 131 -311t-120 -311t-288 -125z" />
    <glyph glyph-name="Scommaaccent" unicode="&#x218;" horiz-adv-x="1032" 
d="M516 -23q-176 0 -290 83t-113 178q0 55 39 55q12 0 23 -11t11 -28q0 -37 -39 -43q17 -82 119 -145q102 -64 259 -64t261 88t104 230t-115 229q-90 67 -209 115q-120 48 -170 74q-157 80 -205 174q-30 60 -29 139q0 137 107 228t263 91t260 -76t105 -168q0 -51 -36 -51
t-36 35t35 45q-16 78 -107 134q-91 57 -227 57t-236 -85q-99 -85 -100 -208q0 -162 161 -256q58 -35 166 -79t166 -75q59 -31 117 -76q120 -93 120 -246q0 -154 -114 -249t-290 -95zM524 -129q45 0 45 -64q1 -118 -112 -210l-11 12q92 92 93 186q-20 -4 -35 8q-14 11 -14 29
t10 28t24 11z" />
    <glyph glyph-name="scommaaccent" unicode="&#x219;" horiz-adv-x="796" 
d="M365 -168q0 18 10 28t24 11q45 0 45 -64q1 -118 -112 -210l-10 12q92 92 92 186q-20 -4 -35 8q-14 11 -14 29zM682 685q0 -38 -34 -38t-34 35q0 27 31 35q-8 18 -24 35q-77 72 -205 72t-198 -54q-70 -53 -71 -134q0 -81 67 -121t206 -75t212 -83t73 -146q0 -99 -84 -161
t-202 -62t-195 36q-78 36 -108 79t-30 65q0 45 34 45t34 -35q0 -29 -29 -35q20 -49 95 -90q74 -41 190 -41t191 56t75 141q0 108 -116 160q-55 23 -179 56q-125 32 -194 76t-69 134t81 151q80 61 200 62q168 0 250 -90q33 -35 33 -73z" />
    <glyph glyph-name="schwa" unicode="&#x259;" horiz-adv-x="935" 
d="M448 12q152 0 255 104t112 263h-696q2 -155 90 -261q87 -106 239 -106zM846 421q0 -191 -114 -312t-281 -121q-168 0 -265 115q-96 116 -96 282q0 12 2 16h725v9q1 194 -107 304t-279 110t-296 -95v29q129 90 303 90t291 -118t117 -309z" />
    <glyph glyph-name="circumflex" unicode="&#x2c6;" horiz-adv-x="1030" 
d="M274 997l-10 11l250 215l250 -215l-10 -11l-240 179z" />
    <glyph glyph-name="caron" unicode="&#x2c7;" horiz-adv-x="1030" 
d="M754 1225l10 -13l-250 -215l-250 215l10 13l240 -181z" />
    <glyph glyph-name="breve" unicode="&#x2d8;" horiz-adv-x="1030" 
d="M515 1008q-85 0 -151 54t-98 142l21 8q73 -170 229 -170t227 170l19 -8q-30 -88 -96 -142t-151 -54z" />
    <glyph glyph-name="dotaccent" unicode="&#x2d9;" horiz-adv-x="1030" 
d="M514 1044q-16 0 -28 12t-11 27q0 17 11 29q12 12 28 12t28 -12t11 -28q1 -16 -11 -28t-28 -12z" />
    <glyph glyph-name="ring" unicode="&#x2da;" horiz-adv-x="1030" 
d="M515 1034q54 0 88 36t34 91t-35 93t-88 38t-88 -38t-35 -92t35 -91t89 -37zM514 1010q-66 0 -108 44t-44 107q0 63 44 109t108 45q66 0 109 -45q43 -44 43 -108t-43 -108t-109 -44z" />
    <glyph glyph-name="ogonek" unicode="&#x2db;" horiz-adv-x="1030" 
d="M485 -412q-80 0 -127 46t-47 122t51 146t144 116l37 -6q-98 -45 -152 -113q-53 -69 -53 -137t41 -109q41 -40 114 -40t134 45v-23q-62 -47 -142 -47z" />
    <glyph glyph-name="tilde" unicode="&#x2dc;" horiz-adv-x="1030" 
d="M655 1026q-55 0 -146 65t-136 64q-80 0 -129 -129l-19 6q49 152 150 152q59 0 143 -64t137 -63q84 0 127 121l21 -7q-44 -145 -148 -145z" />
    <glyph glyph-name="hungarumlaut" unicode="&#x2dd;" horiz-adv-x="1030" 
d="M888 1196q18 0 17 -18q0 -18 -28 -31l-283 -141l-8 10l266 170q18 10 36 10zM563 1200q25 0 25 -20q0 -14 -29 -29l-280 -150l-9 11l262 176q20 12 31 12z" />
    <glyph glyph-name="commaaccent" unicode="&#x326;" horiz-adv-x="442" 
d="M156 -168q0 18 10 28t24 11q45 0 46 -64q0 -118 -113 -210l-10 12q92 92 92 186q-20 -4 -35 8q-14 11 -14 29z" />
    <glyph glyph-name="Wgrave" unicode="&#x1e80;" horiz-adv-x="1951" 
d="M723 1618q0 23 20 22q10 0 31 -12l275 -155l-9 -13l-288 129q-29 12 -29 29zM0 1321v27h446v-27h-223l379 -1301l365 1133h18l365 -1133l379 1301h-226v27h449v-27h-193l-399 -1350h-21l-364 1127l-363 -1127h-20l-399 1350h-193z" />
    <glyph glyph-name="wgrave" unicode="&#x1e81;" horiz-adv-x="1314" 
d="M403 1155q0 23 21 23q10 0 31 -13l274 -155l-8 -13l-289 129q-29 12 -29 29zM-6 811v25h346v-25h-178l213 -788l274 708h17l274 -708l213 788h-178v25h346v-25h-139l-234 -840h-16l-275 713l-276 -713h-16l-232 840h-139z" />
    <glyph glyph-name="Wacute" unicode="&#x1e82;" horiz-adv-x="1951" 
d="M0 1321v27h446v-27h-223l379 -1301l365 1133h18l365 -1133l379 1301h-226v27h449v-27h-193l-399 -1350h-21l-364 1127l-363 -1127h-20l-399 1350h-193zM1210 1640q20 0 21 -22q0 -14 -29 -29l-291 -129l-6 13l273 155q20 12 32 12z" />
    <glyph glyph-name="wacute" unicode="&#x1e83;" horiz-adv-x="1314" 
d="M-6 811v25h346v-25h-178l213 -788l274 708h17l274 -708l213 788h-178v25h346v-25h-139l-234 -840h-16l-275 713l-276 -713h-16l-232 840h-139zM913 1155q0 -14 -28 -29l-291 -129l-6 13l272 155q20 12 33 13q20 0 20 -23z" />
    <glyph glyph-name="Wdieresis" unicode="&#x1e84;" horiz-adv-x="1951" 
d="M0 1321v27h446v-27h-223l379 -1301l365 1133h18l365 -1133l379 1301h-226v27h449v-27h-193l-399 -1350h-21l-364 1127l-363 -1127h-20l-399 1350h-193zM866 1497q-14 0 -25 11q-26 26 -1 54q10 11 26 11q37 0 37 -38t-37 -38zM1084 1497q-15 0 -26 11q-11 10 -11 26
t10 28t26 11q39 0 39 -39q0 -16 -11 -27q-12 -10 -27 -10z" />
    <glyph glyph-name="wdieresis" unicode="&#x1e85;" horiz-adv-x="1314" 
d="M-6 811v25h346v-25h-178l213 -788l274 708h17l274 -708l213 788h-178v25h346v-25h-139l-234 -840h-16l-275 713l-276 -713h-16l-232 840h-139zM512 1071q0 39 37 39t37 -38t-37 -38q-17 0 -27 12t-10 25zM729 1071q0 39 38 39t38 -39q0 -16 -11 -27q-12 -10 -28 -10
t-26 12t-11 25z" />
    <glyph glyph-name="Ygrave" unicode="&#x1ef2;" horiz-adv-x="1277" 
d="M383 1630q0 23 20 23q10 0 31 -13l275 -155l-9 -12l-288 129q-29 12 -29 28zM401 0v27h222v553l-426 741h-185v27h439v-27h-220l408 -719l408 719h-220v27h439v-27h-187l-426 -741v-553h221v-27h-473z" />
    <glyph glyph-name="ygrave" unicode="&#x1ef3;" horiz-adv-x="948" 
d="M223 1167q0 23 21 23q10 0 30 -12l275 -156l-8 -12l-289 129q-29 12 -29 28zM152 -410q-39 0 -64 16t-25 40q0 35 33 35q23 -1 33 -21t-4 -43q16 -4 27 -4q90 0 163 104q43 59 103 197l43 104l-328 793h-139v25h346v-25h-176l309 -764l318 764h-181v25h346v-25h-139
l-377 -903q-51 -129 -102 -203q-80 -115 -186 -115z" />
    <glyph glyph-name="enspace" unicode="&#x2002;" horiz-adv-x="1024" 
 />
    <glyph glyph-name="emspace" unicode="&#x2003;" horiz-adv-x="2048" 
 />
    <glyph glyph-name="threeperemspace" unicode="&#x2004;" horiz-adv-x="681" 
 />
    <glyph glyph-name="fourperemspace" unicode="&#x2005;" horiz-adv-x="512" 
 />
    <glyph glyph-name="figurespace" unicode="&#x2007;" horiz-adv-x="1085" 
 />
    <glyph glyph-name="thinspace" unicode="&#x2009;" horiz-adv-x="272" 
 />
    <glyph glyph-name="hairspace" unicode="&#x200a;" horiz-adv-x="153" 
 />
    <glyph glyph-name="endash" unicode="&#x2013;" horiz-adv-x="800" 
d="M45 535v28h711v-28h-711z" />
    <glyph glyph-name="emdash" unicode="&#x2014;" horiz-adv-x="1316" 
d="M45 535v28h1227v-28h-1227z" />
    <glyph glyph-name="quoteleft" unicode="&#x2018;" horiz-adv-x="268" 
d="M135 1092q-45 0 -45 65q0 123 117 223l10 -12q-94 -98 -94 -197q23 2 36 -10t13 -31q0 -38 -37 -38z" />
    <glyph glyph-name="quoteright" unicode="&#x2019;" horiz-adv-x="268" 
d="M133 1368q45 0 45 -65q0 -124 -115 -224l-10 15q92 94 94 196q-49 -4 -51 41q0 13 12 25t25 12z" />
    <glyph glyph-name="quotesinglbase" unicode="&#x201a;" horiz-adv-x="266" 
d="M172 2q0 -119 -113 -209l-8 12q90 90 92 185q-20 -2 -35 9q-16 11 -16 29t10 28q10 11 25 12q45 0 45 -66z" />
    <glyph glyph-name="quotedblleft" unicode="&#x201c;" horiz-adv-x="460" 
d="M135 1092q-45 0 -45 65q0 123 117 223l10 -12q-94 -98 -94 -197q23 2 36 -10t13 -31q0 -38 -37 -38zM328 1092q-45 0 -45 65q0 123 114 223l11 -12q-92 -98 -93 -197q21 2 35 -10t15 -31q0 -38 -37 -38z" />
    <glyph glyph-name="quotedblright" unicode="&#x201d;" horiz-adv-x="460" 
d="M133 1368q45 0 45 -65q0 -124 -115 -224l-10 15q92 94 94 196q-49 -4 -51 41q0 13 12 25t25 12zM289 1328q0 18 11 28q11 12 26 12q45 0 45 -65q0 -124 -115 -224l-10 15q92 98 94 196q-23 -2 -37 9t-14 29z" />
    <glyph glyph-name="quotedblbase" unicode="&#x201e;" horiz-adv-x="456" 
d="M172 2q0 -119 -113 -209l-8 12q90 90 92 185q-20 -2 -35 9q-16 11 -16 29t10 28q10 11 25 12q45 0 45 -66zM283 28q0 18 10 28q10 11 24 12q45 0 45 -66q1 -117 -112 -209l-10 12q92 92 94 185q-23 -2 -37 9t-14 29z" />
    <glyph glyph-name="dagger" unicode="&#x2020;" horiz-adv-x="782" 
d="M84 813q-18 0 -29 11q-10 11 -10 26q0 43 45 43q16 0 31 -2l260 -45l-12 399q-1 45 23 45t22 -45l-13 -399l261 45q14 2 30 2q43 0 43 -43q0 -14 -10 -26t-27 -11q-37 0 -36 47l-256 -31l-7 -833h-16l-8 833l-256 31q2 -20 -8 -34q-9 -14 -27 -13z" />
    <glyph glyph-name="daggerdbl" unicode="&#x2021;" horiz-adv-x="782" 
d="M59 123q0 41 39 41t35 -49l242 32l8 371l-8 373l-242 31q4 -47 -37 -48q-16 0 -26 12t-11 25q0 43 45 43q14 0 29 -4l248 -43l-12 338q-3 45 23 45t20 -45l-11 -338l246 43q14 4 31 4q45 0 45 -43q0 -14 -11 -25t-28 -12q-37 0 -37 48l-241 -31l-7 -373l7 -371l241 -32
q0 49 37 49q16 0 28 -11t11 -28q0 -43 -45 -43q-2 0 -31 4l-246 45l11 -340q6 -45 -20 -45t-23 45l12 340l-248 -45l-29 -4q-45 0 -45 41z" />
    <glyph glyph-name="bullet" unicode="&#x2022;" horiz-adv-x="458" 
d="M229 408q-59 0 -101 41t-42 102t42 102t101 41t101 -41t41 -102q1 -61 -41 -102t-101 -41z" />
    <glyph glyph-name="ellipsis" unicode="&#x2026;" horiz-adv-x="847" 
d="M141 -16q-16 0 -28 12q-13 12 -13 28t12 29q29 28 58 0q12 -12 12 -28t-12 -29q-13 -12 -29 -12zM424 -16q-16 0 -29 12q-12 12 -12 28t12 29q29 29 58 0q12 -12 12 -28t-12 -29q-13 -12 -29 -12zM707 -16q-16 0 -28 12q-11 12 -11 28t11 29t27 13t29 -12q28 -29 0 -58
q-12 -12 -28 -12z" />
    <glyph glyph-name="perthousand" unicode="&#x2030;" horiz-adv-x="1689" 
d="M205 -27l-23 15l785 1024l20 -15zM1178 222q0 -84 52 -144q52 -58 131 -58t131 58t52 142q0 83 -53 142q-53 60 -131 60t-130 -58t-52 -142zM678 222q0 -84 52 -144q52 -58 131 -58t131 58t52 143t-52 143t-131 58t-131 -58t-52 -142zM329 602q79 0 131 58t52 142
t-52 144t-131 60t-132 -60t-53 -142t52 -142q54 -60 133 -60zM861 -4q-89 0 -150 66t-62 159q-1 92 61 158q62 65 151 65t152 -65q62 -66 62 -158t-62 -159q-63 -66 -152 -66zM1360 -4q-90 0 -152 66q-61 67 -61 159t61 158q62 65 152 65t151 -66t61 -157q0 -93 -60 -159
q-62 -66 -152 -66zM329 580q-91 0 -153 65q-61 66 -61 159t61 159q60 65 152 65t153 -66t61 -159q0 -91 -60 -157q-62 -66 -153 -66z" />
    <glyph glyph-name="guilsinglleft" unicode="&#x2039;" horiz-adv-x="497" 
d="M395 225l-342 318l342 317l17 -18l-322 -299l322 -299z" />
    <glyph glyph-name="guilsinglright" unicode="&#x203a;" horiz-adv-x="497" 
d="M102 225l-16 19l322 299l-322 299l16 18l342 -317z" />
    <glyph glyph-name="fraction" unicode="&#x2044;" horiz-adv-x="956" 
d="M90 -18l-20 10l403 659q31 53 216 359t192 311l18 -10q-338 -563 -450 -743t-359 -586z" />
    <glyph glyph-name="zero.sup" unicode="&#x2070;" 
d="M360 895q106 0 178 99q70 99 70 260t-69 260q-70 100 -178 100q-107 0 -177 -100t-70 -260q0 -161 70 -260t176 -99zM360 872q-120 0 -196 104t-76 278q0 172 78 278t196 106t195 -105q78 -105 78 -277t-78 -278t-197 -106z" />
    <glyph glyph-name="four.sup" unicode="&#x2074;" 
d="M328 883v22h147v205h-389l-6 10l412 510l20 -14l-395 -486h358v236l25 10v-246h145v-20h-145v-205h123v-22h-295z" />
    <glyph glyph-name="five.sup" unicode="&#x2075;" 
d="M360 868q-104 0 -175 40t-70 93q-1 33 29 33t30 -26t-22 -29q16 -37 72 -63t124 -25q106 0 175 60q69 61 69 153t-62 145t-164 53t-192 -45l-16 9l43 358h372v-25h-352l-37 -313q82 39 188 39t177 -58q69 -57 69 -161t-76 -171q-78 -67 -182 -67z" />
    <glyph glyph-name="six.sup" unicode="&#x2076;" 
d="M141 1104q0 -88 63 -150t163 -63q100 0 168 62q67 63 67 153t-63 149t-161 59t-168 -60q-69 -62 -69 -150zM590 1525q0 -32 -30 -32t-30 29q0 18 23 26l-12 19q-45 49 -133 49q-117 0 -198 -108t-81 -310v-45q12 61 59 109q74 74 187 74t183 -66t69 -164q0 -98 -74 -168
q-75 -70 -187 -70t-187 77t-75 271t88 309q88 114 216 113q100 0 155 -55q27 -26 27 -58z" />
    <glyph glyph-name="seven.sup" unicode="&#x2077;" 
d="M145 1602v-136h-24v158h506l4 -10l-350 -731h-29l348 719h-455z" />
    <glyph glyph-name="eight.sup" unicode="&#x2078;" 
d="M360 1257q-98 0 -166 -52t-67 -133t67 -130t167 -49t168 49t67 130t-69 133t-167 52zM360 1278q90 0 154 47t64 122t-62 120t-156 45q-92 0 -153 -45t-61 -120t62 -122t152 -47zM361 870q-113 0 -187 56t-74 138q0 83 56 137t143 67q-78 12 -129 61t-51 126t69 128
q70 51 172 51t174 -51t70 -128q0 -77 -51 -126t-131 -61q86 -12 143 -66t57 -139t-73 -139q-74 -54 -188 -54z" />
    <glyph glyph-name="nine.sup" unicode="&#x2079;" 
d="M582 1402q0 88 -63 152q-63 62 -163 62t-168 -62t-68 -153q0 -89 64 -149t162 -60t167 61t69 149zM322 891q110 -1 191 107t81 311v45q-12 -61 -59 -109q-74 -74 -188 -74q-115 0 -183 66t-68 164t74 168q74 69 186 69t187 -73q75 -81 75 -275t-88 -308t-215 -114
q-100 0 -155 56q-27 26 -27 58t30 32t30 -27t-25 -31q44 -65 154 -65z" />
    <glyph glyph-name="zero.inf" unicode="&#x2080;" 
d="M360 -272q106 0 178 99q70 99 70 260t-69 260q-70 99 -178 99q-107 0 -177 -99t-70 -260t70 -260t176 -99zM360 -295q-120 1 -196 105t-76 277t78 279t196 105q118 0 195 -105q78 -106 78 -278t-78 -278t-197 -105z" />
    <glyph glyph-name="one.inf" unicode="&#x2081;" 
d="M152 -285v23h215v694l-213 -55l-7 22l232 62h14v-723h211v-23h-452z" />
    <glyph glyph-name="two.inf" unicode="&#x2082;" 
d="M195 287q0 -29 -27 -29q-33 0 -33 51t68 107t172 55q104 0 169 -54q64 -54 64 -134q0 -79 -52 -135t-167 -128q-197 -121 -244 -282h447v147h24v-170h-491l-10 15q49 178 258 309q109 66 159 119t50 124q0 70 -58 118t-144 48t-146 -39q-60 -40 -70 -87q31 -6 31 -35z
" />
    <glyph glyph-name="three.inf" unicode="&#x2083;" 
d="M143 -111q29 1 29 -35q0 -18 -25 -26q14 -41 79 -72q65 -30 153 -30q87 0 153 53t66 133t-72 128t-196 50h-37v23h39q104 0 175 50t71 123q0 72 -58 116t-141 44q-84 0 -140 -30t-71 -70q27 -6 27 -33t-29 -26q-31 0 -31 35q0 55 69 101t169 46t166 -50q65 -50 65 -124
t-59 -128t-144 -65q103 -12 163 -64t60 -135t-72 -141t-178 -59q-106 0 -183 44t-76 108q0 35 28 34z" />
    <glyph glyph-name="four.inf" unicode="&#x2084;" 
d="M328 -285v23h147v205h-389l-6 10l412 510l20 -14l-395 -486h358v236l25 10v-246h145v-20h-145v-205h123v-23h-295z" />
    <glyph glyph-name="five.inf" unicode="&#x2085;" 
d="M372 158q106 0 177 -58q69 -58 69 -162q0 -103 -76 -170t-182 -67q-104 0 -175 40t-70 93q-1 33 29 33t30 -26t-22 -29q16 -37 72 -63t124 -25q106 0 175 60t69 152t-62 146q-62 53 -164 53t-192 -45l-16 8l43 359h372v-25h-352l-37 -313q82 39 188 39z" />
    <glyph glyph-name="six.inf" unicode="&#x2086;" 
d="M141 -63q0 -89 63 -151t163 -62t168 62q67 62 67 152t-63 150q-63 59 -161 59t-168 -61q-69 -61 -69 -149zM590 357q0 -32 -31 -31q-29 0 -29 28q0 18 23 27l-12 18q-45 49 -133 50q-117 0 -198 -108t-81 -310v-45q12 61 59 108q74 74 187 74t183 -66t69 -164
q0 -98 -74 -167q-75 -70 -187 -70t-187 77q-75 78 -75 272t88 308t216 113q100 0 155 -55q27 -27 27 -59z" />
    <glyph glyph-name="seven.inf" unicode="&#x2087;" 
d="M145 434v-135h-24v158h506l4 -11l-350 -731h-29l348 719h-455z" />
    <glyph glyph-name="eight.inf" unicode="&#x2088;" 
d="M360 90q-98 0 -166 -52t-67 -133t67 -130t167 -49t168 49t67 130t-69 133t-167 52zM360 111q90 0 154 47q64 48 64 122t-62 119t-156 45q-92 0 -153 -45t-61 -120t62 -121t152 -47zM361 -297q-113 0 -187 55q-74 54 -74 138t56 138t143 66q-78 12 -129 62t-51 126
q0 77 69 128q70 51 172 51t174 -51t70 -128q0 -77 -51 -126t-131 -62q86 -12 143 -66t57 -138t-73 -138q-74 -54 -188 -55z" />
    <glyph glyph-name="nine.inf" unicode="&#x2089;" 
d="M582 236q0 88 -63 150t-163 63q-100 -1 -168 -63t-68 -152t64 -150q64 -59 162 -59t167 61q69 62 69 150zM322 -276q110 0 191 108t81 309v45q-12 -61 -59 -108q-74 -74 -188 -74q-115 0 -183 66t-68 164t74 167q74 70 186 70t188 -77q74 -78 74 -272t-88 -308t-215 -113
q-100 0 -155 55q-27 26 -27 58t30 32t30 -26t-25 -31q44 -65 154 -65z" />
    <glyph glyph-name="Euro" unicode="&#x20ac;" horiz-adv-x="1089" 
d="M55 618v27h142q41 169 167 275t280 106t256 -80t101 -174q0 -53 -36 -53q-31 0 -31 34t37 40q-11 79 -101 145t-230 65t-258 -99q-116 -98 -157 -259h457v-27h-463q-12 -57 -12 -119t8 -106h467v-26h-461q37 -160 155 -259q118 -100 295 -100t312 129l16 -20
q-143 -133 -331 -133t-313 106q-126 106 -162 277h-138v26h131q-8 43 -8 105t12 120h-135z" />
    <glyph glyph-name="published" unicode="&#x2117;" horiz-adv-x="1163" 
d="M638 459q60 0 106 41q46 40 46 108t-48 108t-124 40h-94v-293q54 -4 114 -4zM621 438q-43 0 -97 4v-186h86v-20h-194v20h84v500h-84v20h202q86 0 142 -46t55 -122q0 -76 -53 -123t-141 -47zM582 -2q215 0 357 150t142 364q0 215 -142 366q-142 150 -357 150t-358 -150
q-142 -151 -142 -366t142 -365q143 -149 358 -149zM582 -23q-225 0 -374 155q-148 155 -149 380q1 225 149 381t374 156t373 -156q149 -156 149 -381t-148 -380t-374 -155z" />
    <glyph glyph-name="servicemark" unicode="&#x2120;" horiz-adv-x="1046" 
d="M186 831q-70 0 -114 30t-43 65t25 35t24 -25q0 -18 -19 -29q33 -57 129 -57q61 0 99 32q37 32 37 82t-33 78t-97 52q-64 26 -104 58q-39 32 -39 84t41 87q40 35 100 35t101 -29t41 -63t-26 -33q-26 0 -25 27q0 16 20 26q-10 23 -41 38q-30 15 -74 15q-44 1 -79 -29
t-35 -74t35 -73t99 -53t102 -56q36 -34 36 -90t-45 -94t-115 -39zM403 846v18h78l17 465h-76v19h104l185 -406l186 406h102v-19h-75l18 -465h76v-18h-174v18h76l-15 451l-186 -406h-14l-189 406l-12 -451h76v-18h-177z" />
    <glyph glyph-name="trademark" unicode="&#x2122;" horiz-adv-x="1146" 
d="M145 846v18h78v465h-176v-100h-22v119h419v-119h-20v100h-178v-465h78v-18h-179zM504 846v18h76l18 465h-76v19h105l184 -406l186 406h103v-19h-76l18 -465h76v-18h-174v18h76l-14 451l-187 -406h-14l-189 406l-14 -451h76v-18h-174z" />
    <glyph glyph-name="onethird" unicode="&#x2153;" horiz-adv-x="1628" 
d="M1020 137q0 35 28 35t29 -36q0 -18 -24 -25q14 -41 79 -72q64 -31 152 -31t154 53t66 133t-72 129q-72 48 -197 50h-37v22h39q104 0 175 50t71 123q1 73 -57 117t-142 44t-140 -30t-71 -70q27 -6 27 -33t-30 -27t-30 35q0 56 69 102t169 46t166 -50t66 -125
q0 -73 -60 -127q-59 -54 -143 -65q104 -12 163 -64q60 -51 60 -135t-72 -142t-178 -58t-183 44t-77 107zM436 -18l-20 10l403 659q31 53 216 359t192 311l18 -10q-338 -563 -502 -828q-163 -264 -307 -501zM139 575v23h215v694l-213 -55l-6 23l232 61h14v-723h211v-23h-453z
" />
    <glyph glyph-name="twothirds" unicode="&#x2154;" horiz-adv-x="1628" 
d="M1030 137q0 35 28 35t29 -36q0 -18 -24 -25q14 -41 79 -72q64 -31 152 -31t154 53t66 133t-72 129q-72 48 -197 50h-37v22h39q104 0 175 50t71 123t-57 117q-58 44 -142 44t-140 -30t-71 -70q27 -6 27 -33t-30 -27t-29 35q0 55 68 102q69 46 169 46t166 -50t66 -125
q0 -73 -60 -127t-143 -65q103 -12 163 -64q60 -51 60 -135t-72 -142t-178 -58t-183 44t-77 107zM467 -18l-21 10l404 659q31 53 216 359t191 311l19 -10q-338 -563 -450 -743t-359 -586zM584 1142q0 71 -58 119t-144 48q-87 0 -146 -40t-70 -87q31 -6 31 -35t-27 -29
q-33 0 -33 51t68 107t172 55q104 0 169 -54q64 -54 64 -134t-52 -135t-167 -127q-197 -121 -244 -283h447v147h24v-170h-491l-10 15q49 178 258 309q109 66 159 119t50 124z" />
    <glyph glyph-name="onefifth" unicode="&#x2155;" horiz-adv-x="1628" 
d="M1286 440q106 0 176 -58t70 -162t-76 -170t-182 -66q-104 0 -175 40t-71 93q0 33 30 33t29 -27q0 -25 -22 -29q17 -36 73 -62t143 -26t156 60t69 153q0 91 -62 145t-164 54t-193 -45l-16 8l43 358h373v-24h-352l-37 -314q82 39 188 39zM135 575v23h215v694l-213 -55
l-6 23l231 61h15v-723h211v-23h-453zM432 -18l-20 10l403 659q31 53 216 359t192 311l18 -10q-338 -563 -450 -743t-359 -586z" />
    <glyph glyph-name="twofifths" unicode="&#x2156;" horiz-adv-x="1628" 
d="M1294 -16q-104 0 -175 40t-70 93q-1 33 29 33t30 -26t-23 -30q17 -36 73 -62t143 -26t156 60t69 153q0 91 -62 145t-164 54t-192 -45l-16 8l43 358h372v-24h-352l-37 -314q82 39 188 39t177 -58q69 -58 69 -162t-76 -170q-78 -66 -182 -66zM465 -18l-21 10l404 659
q31 53 216 359t191 311l19 -10q-338 -563 -450 -743t-359 -586zM590 1142q0 71 -58 119t-144 48q-87 0 -146 -40t-70 -87q31 -6 31 -35t-27 -29q-33 0 -33 51t68 107t172 55q104 0 169 -54q64 -54 64 -134t-52 -135t-167 -127q-197 -121 -243 -283h446v147h25v-170h-492
l-10 15q49 178 258 309q109 66 159 119t50 124z" />
    <glyph glyph-name="threefifths" unicode="&#x2157;" horiz-adv-x="1628" 
d="M119 715q1 35 29 35t28 -36q0 -18 -24 -26q14 -41 78 -72q64 -30 153 -30q88 0 154 53q65 53 65 133t-72 128t-196 50h-37v23h39q104 0 175 50t71 123t-58 117t-141 44q-84 0 -140 -30t-71 -71q27 -6 27 -32t-30 -27q-30 0 -30 35q0 55 69 101t169 46t166 -50
q65 -50 65 -124t-59 -128t-143 -64q104 -13 163 -65t59 -135t-72 -141t-178 -59q-106 0 -182 44q-77 44 -77 108zM1288 440q106 0 176 -58t70 -162t-76 -170t-182 -66q-104 0 -175 40t-71 93q0 33 30 33t30 -26t-23 -30q17 -36 73 -62t143 -26t156 60t69 153q0 91 -62 145
t-164 54t-192 -45l-17 8l43 358h373v-24h-352l-37 -314q82 39 188 39zM432 -18l-20 10l403 659q31 53 216 359t192 311l18 -10q-338 -563 -450 -743t-359 -586z" />
    <glyph glyph-name="fourfifths" unicode="&#x2158;" horiz-adv-x="1628" 
d="M1292 440q106 0 176 -58t70 -162t-76 -170t-182 -66q-104 0 -175 40t-71 93q0 33 30 33t30 -26t-23 -30q17 -36 73 -62t143 -26t156 60t69 153q0 91 -62 145t-164 54t-192 -45l-17 8l43 358h373v-24h-352l-37 -314q82 39 188 39zM467 -18l-21 10l404 659q31 53 216 359
t191 311l19 -10q-338 -563 -450 -743t-359 -586zM334 575v23h147v205h-389l-6 10l412 510l20 -14l-395 -486h358v236l25 10v-246h145v-20h-145v-205h123v-23h-295z" />
    <glyph glyph-name="onesixth" unicode="&#x2159;" horiz-adv-x="1628" 
d="M426 -18l-20 10l403 659q31 53 216 359t192 311l18 -10q-338 -563 -450 -743t-359 -586zM129 575v23h215v694l-213 -55l-6 23l231 61h15v-723h211v-23h-453zM1044 220q0 -88 63 -152q63 -62 163 -62t168 62t67 153q0 89 -63 149q-64 60 -162 60t-167 -61t-69 -149z
M1493 640q0 -32 -30 -32t-29 29q0 18 22 27l-12 18q-45 49 -133 49q-117 1 -198 -107t-81 -311v-45q12 61 60 109q74 74 188 74t182 -66t68 -164t-74 -168q-74 -69 -186 -69t-187 73q-75 81 -75 275t88 308t215 114q100 0 155 -56q27 -26 27 -58z" />
    <glyph glyph-name="fivesixths" unicode="&#x215a;" horiz-adv-x="1628" 
d="M430 -18l-20 10l403 659q31 53 216 359t192 311l18 -10q-338 -563 -450 -743t-359 -586zM362 561q-104 0 -175 40t-70 93q-1 33 29 33t30 -26t-22 -29q16 -37 72 -63t124 -25q106 0 175 60t69 152t-62 146q-62 53 -163 53q-102 0 -193 -45l-16 8l43 359h372v-25h-352
l-37 -313q82 39 189 39t177 -58t69 -162q0 -103 -77 -170q-78 -67 -182 -67zM1040 220q0 -88 63 -152q63 -62 163 -62t168 62t67 153q0 89 -63 149q-64 60 -162 60t-167 -61t-69 -149zM1489 640q0 -32 -30 -32t-29 29q0 18 22 27l-12 18q-45 49 -133 49q-117 1 -198 -107
t-81 -311v-45q12 61 59 109q74 74 188 74q115 0 183 -66t68 -164t-74 -168q-74 -69 -186 -69t-187 73q-75 81 -75 275t88 308t215 114q100 0 155 -56q27 -26 27 -58z" />
    <glyph glyph-name="oneeighth" unicode="&#x215b;" horiz-adv-x="1628" 
d="M1281 8q101 0 168 49t67 130t-69 133t-167 53q-98 0 -166 -52q-68 -51 -68 -133t68 -131q66 -49 167 -49zM1280 393q90 0 154 47q63 47 63 122t-62 120q-63 45 -155 45t-154 -45t-61 -120t63 -122t152 -47zM1542 178q0 -84 -74 -138t-187 -54t-187 55t-74 138t56 137
t143 67q-78 12 -129 61q-52 49 -52 126t70 128q70 52 172 52t173 -52t71 -128q0 -77 -51 -126t-132 -61q85 -13 143 -67t58 -138zM432 -18l-20 10l403 659q31 53 216 359t192 311l18 -10q-338 -563 -450 -743t-359 -586zM145 575v23h215v694l-213 -55l-6 23l232 61h14v-723
h211v-23h-453z" />
    <glyph glyph-name="threeeighths" unicode="&#x215c;" horiz-adv-x="1628" 
d="M115 715q1 35 29 35t28 -36q0 -18 -25 -26q14 -41 79 -72q65 -30 153 -30q87 0 153 53t66 133t-72 128t-196 50h-37v23h39q104 0 175 50t71 123t-58 117t-141 44q-84 0 -140 -30t-71 -71q27 -6 27 -32t-30 -27q-30 0 -30 35q0 55 69 101t169 46t166 -50q65 -50 65 -124
t-59 -128t-144 -64q103 -13 163 -65t60 -135t-72 -141t-178 -59q-106 0 -183 44t-76 108zM1289 8q101 0 168 49t67 130t-69 133t-167 53q-98 0 -166 -52q-68 -51 -68 -133t68 -131q66 -49 167 -49zM1288 393q90 0 154 47q63 47 63 122t-62 120q-63 45 -155 45t-153 -45
t-61 -120t62 -122t152 -47zM1550 178q0 -84 -74 -138t-187 -54t-187 55t-74 138t56 137t143 67q-78 12 -129 61t-51 126t69 128q70 52 172 52t173 -52t71 -128q0 -77 -51 -126t-131 -61q86 -13 143 -67t57 -138zM428 -18l-20 10l403 659q31 53 216 359t192 311l18 -10
q-338 -563 -450 -743t-359 -586z" />
    <glyph glyph-name="fiveeighths" unicode="&#x215d;" horiz-adv-x="1628" 
d="M1277 8q101 0 168 49t67 130t-69 134q-69 52 -167 52t-166 -52q-68 -51 -68 -133t67 -131t168 -49zM1276 393q90 0 154 47q63 47 63 122t-62 120q-63 45 -155 45t-154 -45t-61 -120t63 -122t152 -47zM1538 178q0 -84 -74 -138t-187 -54t-187 55t-74 138t56 137t142 67
q-78 12 -129 61t-51 126t70 128q70 52 172 52t173 -52t71 -128q0 -77 -52 -126t-131 -61q85 -13 143 -67t58 -138zM420 -18l-21 10l404 659q31 53 216 359t191 311l19 -10q-338 -563 -450 -743t-359 -586zM366 561q-104 0 -175 40t-70 93q0 33 30 33t29 -27q0 -25 -22 -28
q16 -37 72 -63t124 -25q106 0 175 60t69 152t-61 146q-61 53 -163 53t-194 -45l-16 8l43 359h373v-25h-353l-37 -313q82 39 189 39t177 -58t69 -162q0 -103 -77 -170q-78 -67 -182 -67z" />
    <glyph glyph-name="seveneighths" unicode="&#x215e;" horiz-adv-x="1628" 
d="M1238 8q101 0 168 49t67 130t-69 133t-167 53q-98 0 -166 -52q-67 -51 -67 -133t66 -131t168 -49zM1237 393q90 0 154 47q63 47 63 122t-62 120t-154 45t-154 -45t-62 -120t62 -122t153 -47zM1499 178q1 -84 -73 -138t-188 -54t-188 55t-73 138q0 83 56 137t143 67
q-78 12 -129 61t-51 126t69 128q70 52 172 52t173 -52t71 -128q0 -77 -51 -126t-132 -61q86 -13 144 -67t57 -138zM334 -18l-21 10l404 659q31 53 216 359t191 311l19 -10q-338 -563 -450 -743t-359 -586zM172 1294v-135h-25v158h506l4 -10l-350 -732h-28l348 719h-455z" />
    <glyph glyph-name="minus" unicode="&#x2212;" horiz-adv-x="765" 
d="M92 522v25h580v-25h-580z" />
    <glyph glyph-name="Q.alt" horiz-adv-x="1566" 
d="M782 2q143 0 271 57l-195 310l23 14l194 -311q160 84 254 244t94 358q0 284 -183 478q-182 194 -456 194t-457 -195t-183 -477t182 -478q184 -194 456 -194zM784 1372q286 0 478 -203q193 -203 192 -495q0 -203 -99 -370t-265 -255l143 -225l-23 -14l-143 227
q-135 -61 -285 -62q-288 0 -480 203t-191 496q-1 294 193 496t480 202z" />
    <glyph glyph-name="a.sc" horiz-adv-x="1185" 
d="M592 993l-223 -577h446zM358 1014h469v-23h-204l374 -966h183v-25h-439v25h226l-144 366h-465l-141 -366h227v-25h-438v25h182l375 966h-205v23z" />
    <glyph glyph-name="b.sc" horiz-adv-x="1017" 
d="M569 0h-512v25h209v966h-209v23h514q154 0 232 -72t78 -171q1 -99 -61 -167t-175 -84q119 -10 191 -77t72 -183t-92 -188q-91 -72 -247 -72zM295 535h274q139 -1 211 65t72 163t-72 163t-209 65h-276v-456zM295 25h274q141 0 226 65q84 66 84 180t-85 176q-85 61 -231 62
h-268v-483z" />
    <glyph glyph-name="c.sc" horiz-adv-x="1112" 
d="M952 719q-31 0 -30 35q0 35 39 41q-11 82 -111 145t-238 64q-205 0 -342 -144t-137 -353q0 -210 136 -353q137 -144 353 -144t357 158l16 -21q-145 -161 -373 -161t-373 148t-145 370t146 374q146 151 362 150q156 0 267 -79t110 -173q0 -57 -37 -57z" />
    <glyph glyph-name="d.sc" horiz-adv-x="1175" 
d="M494 0h-437v25h209v966h-209v23h437q266 0 425 -135t159 -365t-155 -373q-155 -141 -429 -141zM295 25h201q260 0 406 135t146 354t-150 348q-151 129 -404 129h-199v-966z" />
    <glyph glyph-name="e.sc" horiz-adv-x="968" 
d="M846 0h-789v25h209v966h-209v23h789v-246h-27v223h-524v-461h399v-26h-399v-479h524v221h27v-246z" />
    <glyph glyph-name="f.sc" horiz-adv-x="925" 
d="M514 0h-457v25h209v966h-209v23h783v-246h-27v223h-518v-471h381v-24h-381v-471h219v-25z" />
    <glyph glyph-name="g.sc" horiz-adv-x="1165" 
d="M612 1004q-209 0 -347 -144t-138 -355q0 -210 136 -352q136 -143 347 -143t371 156v266h-328v25h355v-457h-27v137q-156 -151 -374 -151t-363 147q-146 147 -146 371t148 374q148 151 368 150q164 0 276 -75t111 -156q1 -57 -35 -57t-36 34q0 35 39 41q-14 69 -115 129
t-242 60z" />
    <glyph glyph-name="h.sc" horiz-adv-x="1298" 
d="M57 0v25h209v966h-209v23h451v-23h-213v-467h709v467h-213v23h452v-23h-211v-966h211v-25h-452v25h213v475h-709v-475h213v-25h-451z" />
    <glyph glyph-name="i.sc" horiz-adv-x="573" 
d="M516 0h-459v25h215v966h-215v23h459v-23h-215v-966h215v-25z" />
    <glyph glyph-name="j.sc" horiz-adv-x="890" 
d="M364 10q108 0 185 76q84 90 84 285v620h-213v23h432v-23h-190v-620q0 -211 -88 -298t-210 -87q-124 0 -206 72t-82 173q0 59 35 59t35 -34q0 -35 -40 -41q4 -81 77 -143t181 -62z" />
    <glyph glyph-name="k.sc" horiz-adv-x="1097" 
d="M1092 25v-25h-222l-387 547l-188 -193v-329h213v-25h-451v25h209v966h-209v23h447v-23h-209v-602l590 602h-221v23h409v-23h-153l-418 -426l385 -540h205z" />
    <glyph glyph-name="l.sc" horiz-adv-x="897" 
d="M801 25v221h26v-246h-770v25h209v966h-209v23h457v-23h-219v-966h506z" />
    <glyph glyph-name="m.sc" horiz-adv-x="1429" 
d="M1339 1014v-23h-190l41 -966h176v-25h-408v25h201l-35 944l-403 -826h-12l-404 826l-37 -944h203v-25h-408v25h179l39 966h-191v23h221l404 -828l403 828h221z" />
    <glyph glyph-name="n.sc" horiz-adv-x="1284" 
d="M1006 991h-215v23h452v-23h-211v-997h-18l-721 971v-940h215v-25h-451v25h209v966h-209v23h234l715 -963v940z" />
    <glyph glyph-name="o.sc" horiz-adv-x="1220" 
d="M610 10q211 0 347 142q137 142 137 355q0 212 -136 355q-136 144 -348 144q-211 0 -347 -144t-136 -355q0 -213 136 -355t347 -142zM610 1030q223 0 368 -150q144 -151 144 -373t-143 -372q-143 -149 -369 -149t-368 150q-144 150 -144 371q0 223 144 373t368 150z" />
    <glyph glyph-name="p.sc" horiz-adv-x="927" 
d="M492 432q160 0 244 77t85 202q0 125 -90 203t-239 77h-197v-553q86 -6 197 -6zM57 1014h435q162 0 260 -83t98 -220t-93 -221t-268 -82q-109 0 -194 6v-389h213v-25h-451v25h209v966h-209v23z" />
    <glyph glyph-name="q.sc" horiz-adv-x="1220" 
d="M619 10q202 0 338 142q137 142 137 355q0 212 -136 355q-136 144 -348 144q-211 0 -347 -144t-136 -363q0 -220 158 -368q132 -121 334 -121zM1060 -209q-64 0 -116 23q-52 24 -116 66t-111 66t-170 42q-170 25 -283 127q-166 150 -166 382t144 383q144 150 368 150
q223 0 368 -150q144 -151 144 -368q0 -218 -136 -366t-347 -156q57 -8 103 -32t112 -64q64 -40 107 -58t96 -18t119 37l12 -23q-64 -41 -128 -41z" />
    <glyph glyph-name="q.sc_alt" horiz-adv-x="1220" 
d="M1094 508q0 211 -136 354q-136 144 -348 144q-211 0 -347 -144t-136 -355q0 -212 136 -354t347 -143q96 0 176 31l-141 229l23 15l143 -234q131 57 207 179t76 278zM1122 508q0 -162 -80 -291t-217 -188l111 -181l-21 -14l-114 184q-92 -33 -191 -32q-225 0 -368 150
q-144 150 -144 371q0 222 144 373q144 150 368 150q223 0 368 -150q144 -151 144 -372z" />
    <glyph glyph-name="r.sc" horiz-adv-x="1019" 
d="M295 25h213v-25h-451v25h209v966h-209v23h445q162 0 255 -76t93 -195t-73 -193t-195 -93l266 -432h170v-25h-189l-276 451q-33 -4 -93 -4t-165 4v-426zM500 991h-205v-516q106 -4 190 -4q152 0 244 71q92 70 92 190t-87 190t-234 69z" />
    <glyph glyph-name="s.sc" horiz-adv-x="866" 
d="M707 801q-31 0 -31 33t31 43q-10 51 -85 90q-76 39 -186 39t-190 -62t-80 -164q0 -101 96 -162q67 -42 157 -74q89 -32 127 -47q214 -85 218 -253q0 -115 -94 -187q-94 -71 -240 -71t-236 55q-92 55 -92 113t34 57q34 0 34 -34t-31 -40q16 -49 94 -88t205 -39t212 65
t85 166t-77 158t-181 95t-144 55q-40 18 -93 52q-103 66 -103 178q0 111 88 181q87 70 217 70t216 -53t85 -115q0 -62 -36 -61z" />
    <glyph glyph-name="t.sc" horiz-adv-x="1001" 
d="M270 0v25h217v966h-372v-223h-27v246h827v-246h-28v223h-371v-966h215v-25h-461z" />
    <glyph glyph-name="u.sc" horiz-adv-x="1216" 
d="M272 991v-629q0 -172 87 -262t249 -90t249 90t87 262v629h-213v23h449v-23h-207v-629q0 -184 -94 -280q-95 -96 -271 -96t-270 96t-94 280v629h-207v23h448v-23h-213z" />
    <glyph glyph-name="v.sc" horiz-adv-x="1163" 
d="M4 991v23h440v-23h-227l367 -973l364 973h-227v23h440v-23h-184l-385 -1014h-21l-383 1014h-184z" />
    <glyph glyph-name="w.sc" horiz-adv-x="1638" 
d="M4 991v23h445v-23h-228l299 -968l293 847h14l291 -847l299 968h-227v23h444v-23h-188l-316 -1016h-20l-291 844l-291 -844h-20l-315 1016h-189z" />
    <glyph glyph-name="x.sc" horiz-adv-x="1114" 
d="M1096 25v-25h-391v25h186l-344 479l-344 -479h188v-25h-393v25h172l358 495l-338 471h-165v23h395v-23h-197l324 -452l323 452h-196v23h395v-23h-166l-340 -471l361 -495h172z" />
    <glyph glyph-name="y.sc" horiz-adv-x="1105" 
d="M1104 1014v-23h-180l-357 -606v-360h215v-25h-458v25h215v360l-355 606h-182v23h430v-23h-215l336 -579l340 579h-219v23h430z" />
    <glyph glyph-name="z.sc" horiz-adv-x="927" 
d="M86 0v14l721 977h-672v-221h-26v244h737v-15l-719 -974h696v219h27v-244h-764z" />
    <glyph glyph-name="aacute.sc" horiz-adv-x="1185" 
d="M592 993l-223 -577h446zM358 1014h469v-23h-204l374 -966h183v-25h-439v25h226l-144 366h-465l-141 -366h227v-25h-438v25h182l375 966h-205v23zM854 1323q0 -14 -29 -29l-290 -129l-7 13l273 155q20 12 33 13q20 0 20 -23z" />
    <glyph glyph-name="abreve.sc" horiz-adv-x="1185" 
d="M603 1163q-85 1 -151 55t-98 142l21 8q73 -170 229 -170t227 170l19 -8q-30 -88 -96 -142t-151 -55zM592 993l-223 -577h446zM358 1014h469v-23h-204l374 -966h183v-25h-439v25h226l-144 366h-465l-141 -366h227v-25h-438v25h182l375 966h-205v23z" />
    <glyph glyph-name="acircumflex.sc" horiz-adv-x="1185" 
d="M592 993l-223 -577h446zM358 1014h469v-23h-204l374 -966h183v-25h-439v25h226l-144 366h-465l-141 -366h227v-25h-438v25h182l375 966h-205v23zM362 1153l-10 10l250 215l250 -215l-10 -10l-240 178z" />
    <glyph glyph-name="adieresis.sc" horiz-adv-x="1185" 
d="M592 993l-223 -577h446zM358 1014h469v-23h-204l374 -966h183v-25h-439v25h226l-144 366h-465l-141 -366h227v-25h-438v25h182l375 966h-205v23zM457 1239q0 39 37 39t37 -38t-37 -38q-14 0 -26 11q-11 11 -11 26zM674 1239q0 39 38 39t38 -39q0 -17 -12 -27t-26 -10
q-15 0 -27 11q-11 11 -11 26z" />
    <glyph glyph-name="ae.sc" horiz-adv-x="1394" 
d="M692 418v573h-10l-322 -573h332zM481 0v25h211v366h-348l-205 -366h189v-25h-383v25h164l544 966h-202v23h821v-246h-27v223h-524v-461h399v-26h-399v-479h524v221h27v-246h-791z" />
    <glyph glyph-name="aeacute.sc" horiz-adv-x="1394" 
d="M692 418v573h-10l-322 -573h332zM481 0v25h211v366h-348l-205 -366h189v-25h-383v25h164l544 966h-202v23h821v-246h-27v223h-524v-461h399v-26h-399v-479h524v221h27v-246h-791zM1038 1323q0 -14 -28 -29l-291 -129l-6 13l272 155q20 12 33 13q20 0 20 -23z" />
    <glyph glyph-name="agrave.sc" horiz-adv-x="1185" 
d="M354 1323q0 23 21 23q10 0 31 -13l274 -155l-8 -13l-289 129q-29 12 -29 29zM592 993l-223 -577h446zM358 1014h469v-23h-204l374 -966h183v-25h-439v25h226l-144 366h-465l-141 -366h227v-25h-438v25h182l375 966h-205v23z" />
    <glyph glyph-name="amacron.sc" horiz-adv-x="1185" 
d="M336 1227v28h534v-28h-534zM592 993l-223 -577h446zM358 1014h469v-23h-204l374 -966h183v-25h-439v25h226l-144 366h-465l-141 -366h227v-25h-438v25h182l375 966h-205v23z" />
    <glyph glyph-name="aogonek.sc" horiz-adv-x="1185" 
d="M592 993l-223 -577h446zM975 -412q-80 0 -127 46t-47 118q0 152 162 248h-222v25h226l-144 366h-465l-141 -366h227v-25h-438v25h182l375 966h-205v23h469v-23h-204l374 -966h183v-25h-172q-86 -45 -134 -111t-47 -131q0 -65 41 -105t114 -40t134 45v-23
q-61 -47 -141 -47z" />
    <glyph glyph-name="aring.sc" horiz-adv-x="1185" 
d="M593 1016q52 0 87 36t35 89t-35 89t-87 36t-87 -36t-35 -89t35 -89t87 -36zM592 993l-223 -577h446zM358 1014h164q-78 39 -78 127q0 61 42 105t106 44t105 -44q42 -44 42 -105q0 -92 -77 -127h165v-23h-204l374 -966h183v-25h-439v25h226l-144 366h-465l-141 -366h227
v-25h-438v25h182l375 966h-205v23z" />
    <glyph glyph-name="aringacute.sc" horiz-adv-x="1175" 
d="M593 1016q52 0 87 36t35 89t-35 89t-87 36t-87 -36t-35 -89t35 -89t87 -36zM592 993l-223 -577h446zM358 1014h164q-78 39 -78 127q0 61 42 105t106 44t105 -44q42 -44 42 -105q0 -92 -77 -127h165v-23h-204l374 -966h183v-25h-439v25h226l-144 366h-465l-141 -366h227
v-25h-438v25h182l375 966h-205v23zM813 1585q20 0 21 -22q0 -14 -29 -29l-291 -129l-6 12l272 156q20 12 33 12z" />
    <glyph glyph-name="atilde.sc" horiz-adv-x="1185" 
d="M748 1182q-54 0 -146 64t-137 65q-80 0 -129 -129l-19 6q49 152 150 151q59 0 143 -63t138 -64q84 0 126 121l21 -6q-43 -145 -147 -145zM592 993l-223 -577h446zM358 1014h469v-23h-204l374 -966h183v-25h-439v25h226l-144 366h-465l-141 -366h227v-25h-438v25h182
l375 966h-205v23z" />
    <glyph glyph-name="cacute.sc" horiz-adv-x="1112" 
d="M952 719q-31 0 -30 35q0 35 39 41q-11 82 -111 145t-238 64q-205 0 -342 -144t-137 -353q0 -210 136 -353q137 -144 353 -144t357 158l16 -21q-145 -161 -373 -161t-373 148t-145 370t146 374q146 151 362 150q156 0 267 -79t110 -173q0 -57 -37 -57zM530 1165l-6 13
l273 155q51 31 53 -10q0 -14 -29 -29z" />
    <glyph glyph-name="ccaron.sc" horiz-adv-x="1112" 
d="M952 719q-31 0 -30 35q0 35 39 41q-11 82 -111 145t-238 64q-205 0 -342 -144t-137 -353q0 -210 136 -353q137 -144 353 -144t357 158l16 -21q-145 -161 -373 -161t-373 148t-145 370t146 374q146 151 362 150q156 0 267 -79t110 -173q0 -57 -37 -57zM840 1380l10 -12
l-250 -215l-250 215l10 12l240 -180z" />
    <glyph glyph-name="ccedilla.sc" horiz-adv-x="1112" 
d="M766 -275q0 -63 -45 -99t-135 -36t-178 39l6 23q84 -39 166 -39t120 31t37 82q0 102 -170 108h-18l-8 6l30 148q-205 14 -335 160t-132 362q0 216 146 368q146 151 362 150q156 0 267 -79t110 -173q0 -57 -37 -57q-31 0 -30 35q0 35 39 41q-11 82 -111 145t-238 64
q-205 0 -342 -144t-137 -353q0 -210 136 -353q137 -144 353 -144t357 158l16 -21q-145 -162 -381 -161h-20l-21 -129q89 -2 141 -36t52 -96z" />
    <glyph glyph-name="cdotaccent.sc" horiz-adv-x="1112" 
d="M600 1200q-16 0 -28 11q-11 11 -11 27t11 30q12 12 28 12t28 -12t11 -28q0 -16 -11 -29q-12 -11 -28 -11zM952 719q-31 0 -30 35q0 35 39 41q-11 82 -111 145t-238 64q-205 0 -342 -144t-137 -353q0 -210 136 -353q137 -144 353 -144t357 158l16 -21q-145 -161 -373 -161
t-373 148t-145 370t146 374q146 151 362 150q156 0 267 -79t110 -173q0 -57 -37 -57z" />
    <glyph glyph-name="dcaron.sc" horiz-adv-x="1177" 
d="M788 1380l11 -12l-250 -215l-250 215l10 12l240 -180zM494 0h-437v25h209v966h-209v23h437q266 0 425 -135t159 -365t-155 -373q-155 -141 -429 -141zM295 25h201q260 0 406 135t146 354t-150 348q-151 129 -404 129h-199v-966z" />
    <glyph glyph-name="dcroat.sc" horiz-adv-x="1181" 
d="M301 25h201q260 0 406 135t146 354t-150 348q-151 129 -404 129h-199v-463h248v-24h-248v-479zM500 0h-437v25h209v479h-168v24h168v463h-209v23h437q266 0 425 -135t159 -365t-155 -373q-155 -141 -429 -141z" />
    <glyph glyph-name="eacute.sc" horiz-adv-x="970" 
d="M846 0h-789v25h209v966h-209v23h789v-246h-27v223h-524v-461h399v-26h-399v-479h524v221h27v-246zM741 1323q0 -14 -28 -29l-291 -129l-6 13l272 155q20 12 33 13q20 0 20 -23z" />
    <glyph glyph-name="ebreve.sc" horiz-adv-x="970" 
d="M493 1163q-85 1 -152 55t-97 142l20 8q72 -170 229 -170t228 170l18 -8q-31 -88 -96 -142t-150 -55zM846 0h-789v25h209v966h-209v23h789v-246h-27v223h-524v-461h399v-26h-399v-479h524v221h27v-246z" />
    <glyph glyph-name="ecaron.sc" horiz-adv-x="970" 
d="M846 0h-789v25h209v966h-209v23h789v-246h-27v223h-524v-461h399v-26h-399v-479h524v221h27v-246zM731 1380l10 -12l-249 -215l-250 215l10 12l240 -180z" />
    <glyph glyph-name="ecircumflex.sc" horiz-adv-x="970" 
d="M846 0h-789v25h209v966h-209v23h789v-246h-27v223h-524v-461h399v-26h-399v-479h524v221h27v-246zM252 1153l-10 10l250 215l249 -215l-10 -10l-239 178z" />
    <glyph glyph-name="edieresis.sc" horiz-adv-x="970" 
d="M846 0h-789v25h209v966h-209v23h789v-246h-27v223h-524v-461h399v-26h-399v-479h524v221h27v-246zM346 1239q0 39 37 39t37 -38t-37 -38q-14 0 -26 11q-11 11 -11 26zM563 1239q0 39 38 39t38 -39q0 -16 -11 -27q-12 -10 -27 -10t-27 11q-11 11 -11 26z" />
    <glyph glyph-name="edotaccent.sc" horiz-adv-x="970" 
d="M846 0h-789v25h209v966h-209v23h789v-246h-27v223h-524v-461h399v-26h-399v-479h524v221h27v-246zM492 1200q-16 0 -28 11q-11 11 -11 27t11 30q12 12 28 12t27 -12t11 -28t-11 -28t-27 -12z" />
    <glyph glyph-name="egrave.sc" horiz-adv-x="970" 
d="M846 0h-789v25h209v966h-209v23h789v-246h-27v223h-524v-461h399v-26h-399v-479h524v221h27v-246zM262 1346q8 0 31 -13l274 -155l-8 -13l-289 129q-29 12 -28 29q0 23 20 23z" />
    <glyph glyph-name="emacron.sc" horiz-adv-x="970" 
d="M846 0h-789v25h209v966h-209v23h789v-246h-27v223h-524v-461h399v-26h-399v-479h524v221h27v-246zM225 1227v28h535v-28h-535z" />
    <glyph glyph-name="eogonek.sc" horiz-adv-x="970" 
d="M846 0h-115q-86 -45 -133 -111t-47 -131t41 -105t114 -40t134 45v-23q-62 -47 -142 -47t-127 46t-47 118q0 152 162 248h-629v25h209v966h-209v23h789v-246h-27v223h-524v-461h399v-26h-399v-479h524v221h27v-246z" />
    <glyph glyph-name="eth.sc" horiz-adv-x="1181" 
d="M301 25h201q260 0 406 135t146 354t-150 348q-151 129 -404 129h-199v-463h248v-24h-248v-479zM500 0h-437v25h209v479h-168v24h168v463h-209v23h437q266 0 425 -135t159 -365t-155 -373q-155 -141 -429 -141z" />
    <glyph glyph-name="gbreve.sc" horiz-adv-x="1165" 
d="M605 1163q-85 1 -151 55t-98 142l21 8q73 -170 229 -170t228 170l18 -8q-30 -88 -96 -142t-151 -55zM612 1004q-209 0 -347 -144t-138 -355q0 -210 136 -352q136 -143 347 -143t371 156v266h-328v25h355v-457h-27v137q-156 -151 -374 -151t-363 147q-146 147 -146 371
t148 374q148 151 368 150q164 0 276 -75t111 -156q1 -57 -35 -57t-36 34q0 35 39 41q-14 69 -115 129t-242 60z" />
    <glyph glyph-name="gcommaaccent.sc" horiz-adv-x="1165" 
d="M612 1004q-209 0 -347 -144t-138 -355q0 -210 136 -352q136 -143 347 -143t371 156v266h-328v25h355v-457h-27v137q-156 -151 -374 -151t-363 147q-146 147 -146 371t148 374q148 151 368 150q164 0 276 -75t111 -156q1 -57 -35 -57t-36 34q0 35 39 41q-14 69 -115 129
t-242 60zM559 -168q0 18 10 28t25 11q45 0 45 -64q0 -118 -113 -210l-10 12q92 92 92 186q-20 -4 -35 8q-14 11 -14 29z" />
    <glyph glyph-name="gdotaccent.sc" horiz-adv-x="1165" 
d="M604 1200q-16 0 -27 11t-11 27t10 30q12 12 28 12t28 -12t11 -28q0 -16 -11 -29q-12 -11 -28 -11zM612 1004q-209 0 -347 -144t-138 -355q0 -210 136 -352q136 -143 347 -143t371 156v266h-328v25h355v-457h-27v137q-156 -151 -374 -151t-363 147q-146 147 -146 371
t148 374q148 151 368 150q164 0 276 -75t111 -156q1 -57 -35 -57t-36 34q0 35 39 41q-14 69 -115 129t-242 60z" />
    <glyph glyph-name="hbar.sc" horiz-adv-x="1310" 
d="M301 524h709v221h-709v-221zM63 0v25h209v720h-168v25h168v221h-209v23h451v-23h-213v-221h709v221h-213v23h452v-23h-211v-221h170v-25h-170v-720h211v-25h-452v25h213v475h-709v-475h213v-25h-451z" />
    <glyph glyph-name="iacute.sc" horiz-adv-x="573" 
d="M516 0h-459v25h215v966h-215v23h459v-23h-215v-966h215v-25zM225 1165l-6 13l273 155q51 31 53 -10q0 -14 -29 -29z" />
    <glyph glyph-name="ibreve.sc" horiz-adv-x="573" 
d="M294 1163q-85 1 -152 55t-97 142l21 8q72 -170 228 -170t228 170l19 -8q-31 -88 -97 -142t-150 -55zM516 0h-459v25h215v966h-215v23h459v-23h-215v-966h215v-25z" />
    <glyph glyph-name="icircumflex.sc" horiz-adv-x="573" 
d="M516 0h-459v25h215v966h-215v23h459v-23h-215v-966h215v-25zM53 1153l-10 10l250 215l250 -215l-11 -10l-239 178z" />
    <glyph glyph-name="idieresis.sc" horiz-adv-x="573" 
d="M516 0h-459v25h215v966h-215v23h459v-23h-215v-966h215v-25zM184 1202q-16 0 -26 11q-25 27 0 54q10 11 26 11q37 0 37 -38t-37 -38zM401 1202q-16 0 -26 11t-10 27t10 26q10 12 26 12q39 0 39 -39q0 -16 -11 -27q-12 -10 -28 -10z" />
    <glyph glyph-name="idotaccent.sc" horiz-adv-x="575" 
d="M293 1200q-16 0 -28 11q-11 11 -11 27t11 30q11 12 27 12t28 -12t12 -28t-11 -29q-12 -11 -28 -11zM516 0h-459v25h215v966h-215v23h459v-23h-215v-966h215v-25z" />
    <glyph glyph-name="dotlessi.sc" horiz-adv-x="573" 
d="M516 0h-459v25h215v966h-215v23h459v-23h-215v-966h215v-25z" />
    <glyph glyph-name="igrave.sc" horiz-adv-x="573" 
d="M43 1326q0 20 20 20q10 0 31 -13l275 -155l-9 -13l-288 129q-29 12 -29 32zM516 0h-459v25h215v966h-215v23h459v-23h-215v-966h215v-25z" />
    <glyph glyph-name="imacron.sc" horiz-adv-x="573" 
d="M27 1227v28h534v-28h-534zM516 0h-459v25h215v966h-215v23h459v-23h-215v-966h215v-25z" />
    <glyph glyph-name="iogonek.sc" horiz-adv-x="575" 
d="M283 -412q-80 0 -127 46t-47 118q0 152 161 248h-213v25h215v966h-215v23h459v-23h-215v-966h215v-25h-201q-86 -45 -133 -111t-47 -131t41 -105t114 -40t134 45v-23q-61 -47 -141 -47z" />
    <glyph glyph-name="kcommaaccent.sc" horiz-adv-x="1097" 
d="M1092 25v-25h-222l-387 547l-188 -193v-329h213v-25h-451v25h209v966h-209v23h447v-23h-209v-602l590 602h-221v23h409v-23h-153l-418 -426l385 -540h205zM539 -168q0 18 10 28t24 11q45 0 45 -64q1 -118 -112 -210l-10 12q92 92 92 186q-20 -4 -35 8q-14 11 -14 29z" />
    <glyph glyph-name="lacute.sc" horiz-adv-x="897" 
d="M561 1323q0 -14 -29 -29l-290 -129l-6 13l272 155q20 12 33 13q20 0 20 -23zM801 25v221h26v-246h-770v25h209v966h-209v23h457v-23h-219v-966h506z" />
    <glyph glyph-name="lcaron.sc" horiz-adv-x="897" 
d="M646 1016q22 0 22 -33q2 -149 -68 -278l-10 8q37 92 37 186l-4 88q1 29 23 29zM801 25v221h26v-246h-770v25h209v966h-209v23h457v-23h-219v-966h506z" />
    <glyph glyph-name="lcommaaccent.sc" horiz-adv-x="897" 
d="M410 -168q0 18 10 28t24 11q45 0 45 -64q1 -118 -112 -210l-10 12q92 92 92 186q-20 -4 -35 8q-14 11 -14 29zM801 25v221h26v-246h-770v25h209v966h-209v23h457v-23h-219v-966h506z" />
    <glyph glyph-name="ldot.sc" horiz-adv-x="897" 
d="M733 500q-16 0 -27 11q-12 11 -12 27t12 29t27 13t27 -12t12 -29q0 -16 -11 -28q-12 -11 -28 -11zM801 25v221h26v-246h-770v25h209v966h-209v23h457v-23h-219v-966h506z" />
    <glyph glyph-name="lslash.sc" horiz-adv-x="905" 
d="M809 25v221h27v-246h-770v25h208v438l-215 -121l-12 20l227 127v502h-208v23h456v-23h-219v-485l340 190l12 -20l-352 -197v-454h506z" />
    <glyph glyph-name="nacute.sc" horiz-adv-x="1284" 
d="M1006 991h-215v23h452v-23h-211v-997h-18l-721 971v-940h215v-25h-451v25h209v966h-209v23h234l715 -963v940zM573 1165l-6 13l273 155q51 31 53 -10q0 -14 -29 -29z" />
    <glyph glyph-name="ncaron.sc" horiz-adv-x="1284" 
d="M1006 991h-215v23h452v-23h-211v-997h-18l-721 971v-940h215v-25h-451v25h209v966h-209v23h234l715 -963v940zM883 1380l10 -12l-250 -215l-250 215l10 12l240 -180z" />
    <glyph glyph-name="ncommaaccent.sc" horiz-adv-x="1284" 
d="M1006 991h-215v23h452v-23h-211v-997h-18l-721 971v-940h215v-25h-451v25h209v966h-209v23h234l715 -963v940zM596 -168q0 18 10 28t25 11q45 0 45 -64q0 -118 -113 -210l-10 12q92 92 92 186q-20 -4 -35 8q-14 11 -14 29z" />
    <glyph glyph-name="ntilde.sc" horiz-adv-x="1284" 
d="M788 1182q-55 0 -146 64t-136 65q-80 0 -129 -129l-19 6q49 152 150 151q59 0 143 -63t137 -64q84 0 127 121l21 -6q-44 -145 -148 -145zM1006 991h-215v23h452v-23h-211v-997h-18l-721 971v-940h215v-25h-451v25h209v966h-209v23h234l715 -963v940z" />
    <glyph glyph-name="oacute.sc" horiz-adv-x="1220" 
d="M860 1323q0 -14 -29 -29l-290 -129l-6 13l272 155q20 12 33 13q20 0 20 -23zM610 10q211 0 347 142q137 142 137 355q0 212 -136 355q-136 144 -348 144q-211 0 -347 -144t-136 -355q0 -213 136 -355t347 -142zM610 1030q223 0 368 -150q144 -151 144 -373t-143 -372
q-143 -149 -369 -149t-368 150q-144 150 -144 371q0 223 144 373t368 150z" />
    <glyph glyph-name="obreve.sc" horiz-adv-x="1220" 
d="M611 1163q-85 1 -151 55t-98 142l21 8q73 -170 229 -170t228 170l18 -8q-30 -88 -96 -142t-151 -55zM610 10q211 0 347 142q137 142 137 355q0 212 -136 355q-136 144 -348 144q-211 0 -347 -144t-136 -355q0 -213 136 -355t347 -142zM610 1030q223 0 368 -150
q144 -151 144 -373t-143 -372q-143 -149 -369 -149t-368 150q-144 150 -144 371q0 223 144 373t368 150z" />
    <glyph glyph-name="ocircumflex.sc" horiz-adv-x="1220" 
d="M610 10q211 0 347 142q137 142 137 355q0 212 -136 355q-136 144 -348 144q-211 0 -347 -144t-136 -355q0 -213 136 -355t347 -142zM610 1030q223 0 368 -150q144 -151 144 -373t-143 -372q-143 -149 -369 -149t-368 150q-144 150 -144 371q0 223 144 373t368 150z
M371 1153l-11 10l250 215l250 -215l-10 -10l-240 178z" />
    <glyph glyph-name="odieresis.sc" horiz-adv-x="1220" 
d="M610 10q211 0 347 142q137 142 137 355q0 212 -136 355q-136 144 -348 144q-211 0 -347 -144t-136 -355q0 -213 136 -355t347 -142zM610 1030q223 0 368 -150q144 -151 144 -373t-143 -372q-143 -149 -369 -149t-368 150q-144 150 -144 371q0 223 144 373t368 150z
M465 1239q0 39 37 39t37 -38t-37 -38q-14 0 -26 11q-11 11 -11 26zM682 1239q0 39 38 39t38 -39q0 -17 -12 -27t-26 -10q-15 0 -27 11q-11 11 -11 26z" />
    <glyph glyph-name="oe.sc" horiz-adv-x="1568" 
d="M770 1014h676v-246h-27v221h-522v-459h399v-26h-399v-479h522v221h27v-246h-676q-266 0 -423 137t-157 367t156 370t424 140zM866 25v964h-96q-254 0 -401 -133t-147 -352t146 -349q148 -130 400 -130h98z" />
    <glyph glyph-name="ograve.sc" horiz-adv-x="1220" 
d="M362 1323q0 23 21 23q10 0 31 -13l274 -155l-8 -13l-289 129q-29 12 -29 29zM610 10q211 0 347 142q137 142 137 355q0 212 -136 355q-136 144 -348 144q-211 0 -347 -144t-136 -355q0 -213 136 -355t347 -142zM610 1030q223 0 368 -150q144 -151 144 -373t-143 -372
q-143 -149 -369 -149t-368 150q-144 150 -144 371q0 223 144 373t368 150z" />
    <glyph glyph-name="ohungarumlaut.sc" horiz-adv-x="1220" 
d="M743 1161l-8 10l266 170q18 10 33 11q20 0 20 -18t-28 -31zM428 1157l-8 10l262 176q23 12 31 13q25 0 24 -21q0 -14 -28 -28zM610 10q211 0 347 142q137 142 137 355q0 212 -136 355q-136 144 -348 144q-211 0 -347 -144t-136 -355q0 -213 136 -355t347 -142zM610 1030
q223 0 368 -150q144 -151 144 -373t-143 -372q-143 -149 -369 -149t-368 150q-144 150 -144 371q0 223 144 373t368 150z" />
    <glyph glyph-name="omacron.sc" horiz-adv-x="1220" 
d="M344 1227v28h535v-28h-535zM610 10q211 0 347 142q137 142 137 355q0 212 -136 355q-136 144 -348 144q-211 0 -347 -144t-136 -355q0 -213 136 -355t347 -142zM610 1030q223 0 368 -150q144 -151 144 -373t-143 -372q-143 -149 -369 -149t-368 150q-144 150 -144 371
q0 223 144 373t368 150z" />
    <glyph glyph-name="oslash.sc" horiz-adv-x="1222" 
d="M597 1006q-196 0 -332 -144t-136 -361q0 -218 145 -360l650 754q-131 111 -327 111zM624 10q200 0 335 142q137 142 137 363q0 220 -154 364l-651 -752q133 -117 333 -117zM100 501q0 229 144 379t352 150q206 0 346 -117l119 142l20 -17l-120 -139q163 -152 163 -383
t-143 -381q-143 -149 -355 -149t-354 123l-122 -144l-19 17l125 141q-156 150 -156 378z" />
    <glyph glyph-name="oslashacute.sc" horiz-adv-x="1222" 
d="M597 1006q-196 0 -332 -144t-136 -361q0 -218 145 -360l650 754q-131 111 -327 111zM624 10q200 0 335 142q137 142 137 363q0 220 -154 364l-651 -752q133 -117 333 -117zM100 501q0 229 144 379t352 150q206 0 346 -117l119 142l20 -17l-120 -139q163 -152 163 -383
t-143 -381q-143 -149 -355 -149t-354 123l-122 -144l-19 17l125 141q-156 150 -156 378zM862 1323q0 -14 -28 -29l-291 -129l-6 13l272 155q20 12 33 13q20 0 20 -23z" />
    <glyph glyph-name="otilde.sc" horiz-adv-x="1220" 
d="M756 1182q-54 0 -146 64t-137 65q-80 0 -129 -129l-18 6q49 152 149 151q59 0 143 -63t138 -64q84 0 127 121l20 -6q-43 -145 -147 -145zM610 10q211 0 347 142q137 142 137 355q0 212 -136 355q-136 144 -348 144q-211 0 -347 -144t-136 -355q0 -213 136 -355t347 -142z
M610 1030q223 0 368 -150q144 -151 144 -373t-143 -372q-143 -149 -369 -149t-368 150q-144 150 -144 371q0 223 144 373t368 150z" />
    <glyph glyph-name="racute.sc" horiz-adv-x="1019" 
d="M295 25h213v-25h-451v25h209v966h-209v23h445q162 0 255 -76t93 -195t-73 -193t-195 -93l266 -432h170v-25h-189l-276 451q-33 -4 -93 -4t-165 4v-426zM500 991h-205v-516q106 -4 190 -4q152 0 244 71q92 70 92 190t-87 190t-234 69zM430 1165l-6 13l272 155q20 12 33 13
q20 0 21 -23q0 -14 -29 -29z" />
    <glyph glyph-name="rcaron.sc" horiz-adv-x="1019" 
d="M295 25h213v-25h-451v25h209v966h-209v23h445q162 0 255 -76t93 -195t-73 -193t-195 -93l266 -432h170v-25h-189l-276 451q-33 -4 -93 -4t-165 4v-426zM500 991h-205v-516q106 -4 190 -4q152 0 244 71q92 70 92 190t-87 190t-234 69zM739 1380l11 -12l-250 -215l-250 215
l10 12l240 -180z" />
    <glyph glyph-name="rcommaaccent.sc" horiz-adv-x="1019" 
d="M295 25h213v-25h-451v25h209v966h-209v23h445q162 0 255 -76t93 -195t-73 -193t-195 -93l266 -432h170v-25h-189l-276 451q-33 -4 -93 -4t-165 4v-426zM500 991h-205v-516q106 -4 190 -4q152 0 244 71q92 70 92 190t-87 190t-234 69zM516 -129q45 0 45 -64
q1 -118 -112 -210l-11 12q92 92 92 186q-20 -4 -34 8q-14 11 -14 29t10 28t24 11z" />
    <glyph glyph-name="sacute.sc" horiz-adv-x="866" 
d="M707 801q-31 0 -31 33t31 43q-10 51 -85 90q-76 39 -186 39t-190 -62t-80 -164q0 -101 96 -162q67 -42 157 -74q89 -32 127 -47q214 -85 218 -253q0 -115 -94 -187q-94 -71 -240 -71t-236 55q-92 55 -92 113t34 57q34 0 34 -34t-31 -40q16 -49 94 -88t205 -39t212 65
t85 166t-77 158t-181 95t-144 55q-40 18 -93 52q-103 66 -103 178q0 111 88 181q87 70 217 70t216 -53t85 -115q0 -62 -36 -61zM389 1165l-6 13l272 155q20 12 33 13q20 0 21 -23q0 -14 -29 -29z" />
    <glyph glyph-name="scaron.sc" horiz-adv-x="866" 
d="M707 801q-31 0 -31 33t31 43q-10 51 -85 90q-76 39 -186 39t-190 -62t-80 -164q0 -101 96 -162q67 -42 157 -74q89 -32 127 -47q214 -85 218 -253q0 -115 -94 -187q-94 -71 -240 -71t-236 55q-92 55 -92 113t34 57q34 0 34 -34t-31 -40q16 -49 94 -88t205 -39t212 65
t85 166t-77 158t-181 95t-144 55q-40 18 -93 52q-103 66 -103 178q0 111 88 181q87 70 217 70t216 -53t85 -115q0 -62 -36 -61zM698 1380l11 -12l-250 -215l-250 215l10 12l240 -180z" />
    <glyph glyph-name="scedilla.sc" horiz-adv-x="866" 
d="M586 -275q0 -63 -45 -99t-135 -36t-179 39l6 23q85 -39 167 -39t120 31t37 82q0 102 -170 108h-18l-9 6l31 146q-129 8 -209 61t-80 109t34 55q34 0 34 -34t-31 -40q16 -49 94 -88t205 -39t212 65t85 166t-77 158t-181 95t-144 55q-40 18 -93 52q-103 66 -103 178
q0 111 88 181q87 70 217 70t216 -53t85 -115q0 -62 -36 -61q-31 0 -31 33t31 43q-10 51 -85 90q-76 39 -186 39t-190 -62t-80 -164q0 -101 96 -162q67 -42 157 -74q89 -32 127 -47q214 -85 218 -253q0 -115 -94 -187t-242 -71h-14l-21 -129q89 -2 141 -36t52 -96z" />
    <glyph glyph-name="scommaaccent.sc" horiz-adv-x="866" 
d="M707 801q-31 0 -31 33t31 43q-10 51 -85 90q-76 39 -186 39t-190 -62t-80 -164q0 -101 96 -162q67 -42 157 -74q89 -32 127 -47q214 -85 218 -253q0 -115 -94 -187q-94 -71 -240 -71t-236 55q-92 55 -92 113t34 57q34 0 34 -34t-31 -40q16 -49 94 -88t205 -39t212 65
t85 166t-77 158t-181 95t-144 55q-40 18 -93 52q-103 66 -103 178q0 111 88 181q87 70 217 70t216 -53t85 -115q0 -62 -36 -61zM410 -168q0 18 10 28t24 11q45 0 45 -64q1 -118 -112 -210l-10 12q92 92 92 186q-20 -4 -35 8q-14 11 -14 29z" />
    <glyph glyph-name="tcaron.sc" horiz-adv-x="1001" 
d="M743 1380l11 -12l-250 -215l-250 215l10 12l240 -180zM270 0v25h217v966h-372v-223h-27v246h827v-246h-28v223h-371v-966h215v-25h-461z" />
    <glyph glyph-name="tcommaaccent.sc" horiz-adv-x="1001" 
d="M457 -168q0 18 10 28t25 11q45 0 45 -64q0 -118 -113 -210l-10 12q92 92 92 186q-20 -4 -35 8q-14 11 -14 29zM270 0v25h217v966h-372v-223h-27v246h827v-246h-28v223h-371v-966h215v-25h-461z" />
    <glyph glyph-name="thorn.sc" horiz-adv-x="933" 
d="M514 248q138 0 222 76t85 198q0 122 -89 199q-89 76 -238 76q-27 0 -199 -4v-539q81 -6 219 -6zM295 25h213v-25h-451v25h209v966h-209v23h451v-23h-213v-174q86 4 197 4q164 0 261 -82t97 -217t-93 -217t-268 -82q-114 0 -194 6v-204z" />
    <glyph glyph-name="uacute.sc" horiz-adv-x="1216" 
d="M272 991v-629q0 -172 87 -262t249 -90t249 90t87 262v629h-213v23h449v-23h-207v-629q0 -184 -94 -280q-95 -96 -271 -96t-270 96t-94 280v629h-207v23h448v-23h-213zM860 1323q0 -14 -29 -29l-290 -129l-6 13l272 155q20 12 33 13q20 0 20 -23z" />
    <glyph glyph-name="ubreve.sc" horiz-adv-x="1216" 
d="M609 1163q-85 1 -151 55t-98 142l21 8q73 -170 229 -170t228 170l18 -8q-30 -88 -96 -142t-151 -55zM272 991v-629q0 -172 87 -262t249 -90t249 90t87 262v629h-213v23h449v-23h-207v-629q0 -184 -94 -280q-95 -96 -271 -96t-270 96t-94 280v629h-207v23h448v-23h-213z
" />
    <glyph glyph-name="ucircumflex.sc" horiz-adv-x="1216" 
d="M272 991v-629q0 -172 87 -262t249 -90t249 90t87 262v629h-213v23h449v-23h-207v-629q0 -184 -94 -280q-95 -96 -271 -96t-270 96t-94 280v629h-207v23h448v-23h-213zM369 1153l-11 10l250 215l250 -215l-10 -10l-240 178z" />
    <glyph glyph-name="udieresis.sc" horiz-adv-x="1216" 
d="M272 991v-629q0 -172 87 -262t249 -90t249 90t87 262v629h-213v23h449v-23h-207v-629q0 -184 -94 -280q-95 -96 -271 -96t-270 96t-94 280v629h-207v23h448v-23h-213zM463 1239q0 39 37 39t37 -38t-37 -38q-16 0 -27 11q-10 11 -10 26zM680 1239q0 39 38 39t38 -39
q0 -17 -12 -27t-27 -10q-16 0 -27 11q-10 11 -10 26z" />
    <glyph glyph-name="ugrave.sc" horiz-adv-x="1216" 
d="M272 991v-629q0 -172 87 -262t249 -90t249 90t87 262v629h-213v23h449v-23h-207v-629q0 -184 -94 -280q-95 -96 -271 -96t-270 96t-94 280v629h-207v23h448v-23h-213zM360 1323q0 23 21 23q8 0 31 -13l274 -155l-8 -13l-289 129q-29 12 -29 29z" />
    <glyph glyph-name="uhungarumlaut.sc" horiz-adv-x="1216" 
d="M272 991v-629q0 -172 87 -262t249 -90t249 90t87 262v629h-213v23h449v-23h-207v-629q0 -184 -94 -280q-95 -96 -271 -96t-270 96t-94 280v629h-207v23h448v-23h-213zM741 1161l-8 10l266 170q18 10 33 11q20 0 20 -18t-28 -31zM426 1157l-8 10l262 176q20 12 31 13
q25 0 24 -21q0 -14 -28 -28z" />
    <glyph glyph-name="umacron.sc" horiz-adv-x="1216" 
d="M272 991v-629q0 -172 87 -262t249 -90t249 90t87 262v629h-213v23h449v-23h-207v-629q0 -184 -94 -280q-95 -96 -271 -96t-270 96t-94 280v629h-207v23h448v-23h-213zM342 1227v28h535v-28h-535z" />
    <glyph glyph-name="uogonek.sc" horiz-adv-x="1216" 
d="M272 991v-626q0 -171 87 -263t249 -92t249 91t87 264v626h-213v23h449v-23h-207v-626q0 -175 -83 -271t-243 -106q-152 -98 -151 -228q0 -66 41 -106t117 -41q76 0 134 47v-27q-59 -45 -142 -45t-131 47t-48 121q0 133 141 230q-178 0 -271 97t-93 282v626h-207v23h448
v-23h-213z" />
    <glyph glyph-name="uring.sc" horiz-adv-x="1216" 
d="M272 991v-629q0 -172 87 -262t249 -90t249 90t87 262v629h-213v23h449v-23h-207v-629q0 -184 -94 -280q-95 -96 -271 -96t-270 96t-94 280v629h-207v23h448v-23h-213zM609 1190q54 0 88 36t34 91t-35 93t-88 38t-88 -38t-35 -92t35 -91t89 -37zM608 1165q-66 0 -108 44
q-42 43 -43 107q0 64 43 109q42 45 108 45t109 -45t43 -108t-43 -107t-109 -45z" />
    <glyph glyph-name="wacute.sc" horiz-adv-x="1638" 
d="M1071 1323q0 -14 -29 -29l-290 -129l-7 13l273 155q20 12 33 13q20 0 20 -23zM4 991v23h445v-23h-228l299 -968l293 847h14l291 -847l299 968h-227v23h444v-23h-188l-316 -1016h-20l-291 844l-291 -844h-20l-315 1016h-189z" />
    <glyph glyph-name="wcircumflex.sc" horiz-adv-x="1638" 
d="M4 991v23h445v-23h-228l299 -968l293 847h14l291 -847l299 968h-227v23h444v-23h-188l-316 -1016h-20l-291 844l-291 -844h-20l-315 1016h-189zM580 1153l-11 10l250 215l250 -215l-10 -10l-240 178z" />
    <glyph glyph-name="wdieresis.sc" horiz-adv-x="1638" 
d="M4 991v23h445v-23h-228l299 -968l293 847h14l291 -847l299 968h-227v23h444v-23h-188l-316 -1016h-20l-291 844l-291 -844h-20l-315 1016h-189zM674 1239q0 39 37 39t37 -38t-37 -38q-14 0 -26 11q-11 11 -11 26zM891 1239q0 39 38 39t38 -39q1 -17 -11 -27t-27 -10
t-27 11q-11 11 -11 26z" />
    <glyph glyph-name="wgrave.sc" horiz-adv-x="1638" 
d="M571 1323q0 23 21 23q10 0 31 -13l274 -155l-8 -13l-289 129q-29 12 -29 29zM4 991v23h445v-23h-228l299 -968l293 847h14l291 -847l299 968h-227v23h444v-23h-188l-316 -1016h-20l-291 844l-291 -844h-20l-315 1016h-189z" />
    <glyph glyph-name="yacute.sc" horiz-adv-x="1105" 
d="M1104 1014v-23h-180l-357 -606v-360h215v-25h-458v25h215v360l-355 606h-182v23h430v-23h-215l336 -579l340 579h-219v23h430zM485 1165l-6 13l273 155q51 31 53 -10q0 -14 -29 -29z" />
    <glyph glyph-name="ycircumflex.sc" horiz-adv-x="1105" 
d="M1104 1014v-23h-180l-357 -606v-360h215v-25h-458v25h215v360l-355 606h-182v23h430v-23h-215l336 -579l340 579h-219v23h430zM315 1153l-10 10l250 215l250 -215l-10 -10l-240 178z" />
    <glyph glyph-name="ydieresis.sc" horiz-adv-x="1105" 
d="M1104 1014v-23h-180l-357 -606v-360h215v-25h-458v25h215v360l-355 606h-182v23h430v-23h-215l336 -579l340 579h-219v23h430zM446 1202q-16 0 -26 11t-10 27t10 26q10 12 26 12q37 0 37 -38t-37 -38zM627 1239q0 39 38 39t37 -39q0 -17 -11 -27t-27 -10t-27 11
q-10 11 -10 26z" />
    <glyph glyph-name="ygrave.sc" horiz-adv-x="1105" 
d="M305 1323q0 23 21 23q10 0 30 -13l275 -155l-8 -13l-289 129q-29 12 -29 29zM1104 1014v-23h-180l-357 -606v-360h215v-25h-458v25h215v360l-355 606h-182v23h430v-23h-215l336 -579l340 579h-219v23h430z" />
    <glyph glyph-name="zacute.sc" horiz-adv-x="927" 
d="M86 0v14l721 977h-672v-221h-26v244h737v-15l-719 -974h696v219h27v-244h-764zM401 1165l-6 13l273 155q51 31 53 -10q0 -14 -29 -29z" />
    <glyph glyph-name="zcaron.sc" horiz-adv-x="927" 
d="M86 0v14l721 977h-672v-221h-26v244h737v-15l-719 -974h696v219h27v-244h-764zM711 1380l10 -12l-250 -215l-250 215l10 12l240 -180z" />
    <glyph glyph-name="zdotaccent.sc" horiz-adv-x="927" 
d="M471 1200q-16 0 -28 11q-11 11 -11 27t11 30q11 12 27 12t28 -12t12 -28t-11 -29q-12 -11 -28 -11zM86 0v14l721 977h-672v-221h-26v244h737v-15l-719 -974h696v219h27v-244h-764z" />
    <glyph glyph-name="zero.lin" horiz-adv-x="1183" 
d="M143 676q0 -296 127 -482t323 -186q195 0 321 186t126 482q0 295 -127 482q-127 188 -321 188t-322 -188q-127 -188 -127 -482zM592 -18q-207 0 -343 192t-136 501q0 308 138 503q138 194 343 194t341 -194t136 -502q0 -310 -136 -502t-343 -192z" />
    <glyph glyph-name="one.lin" horiz-adv-x="716" 
d="M88 0v27h274v1302l-262 -76l-6 25l287 84h12v-1335h275v-27h-580z" />
    <glyph glyph-name="two.lin" horiz-adv-x="1032" 
d="M141 1049q0 55 21 106q39 93 133 153t215 60q172 0 273 -96t101 -236t-77 -242q-78 -100 -242 -224q-165 -124 -275 -248t-159 -295h754v288h30v-315h-809l-8 14q51 184 165 316t280 257q167 126 239 221t72 226t-92 219t-252 88q-111 0 -197 -52t-123 -140
q-10 -23 -20 -76q45 -6 45 -43t-37 -37q-37 1 -37 56z" />
    <glyph glyph-name="three.lin" horiz-adv-x="983" 
d="M459 8q170 0 272 97t103 245q0 225 -234 307q-100 35 -231 35h-23v25h25q125 0 237 51q197 92 197 283q0 125 -89 210t-245 85q-205 0 -295 -142q-20 -33 -29 -71q39 -6 39 -39q0 -14 -10 -26t-24 -11q-37 0 -37 51q1 52 39 114t124 106t193 44q168 0 266 -95t99 -226
q0 -205 -211 -303q-59 -29 -138 -41q80 -10 131 -29q246 -88 246 -328q0 -160 -112 -264t-293 -104q-111 0 -200 38t-133 96q-44 60 -44 114t36 55q36 0 36 -33t-39 -43q12 -47 35 -76q98 -125 309 -125z" />
    <glyph glyph-name="four.lin" horiz-adv-x="1052" 
d="M416 0v27h262v397h-629l-6 10l674 936l22 -14l-651 -907h590v483l31 12v-495h249v-25h-249v-397h219v-27h-512z" />
    <glyph glyph-name="five.lin" horiz-adv-x="956" 
d="M426 8q182 0 293 109t111 283t-109 276q-109 100 -271 100t-290 -65l-17 12l70 625h567v-31h-544l-62 -572q119 57 258 58q192 -1 310 -107t118 -292t-120 -305q-120 -117 -314 -117t-293 122q-43 54 -43 104t35 50t35 -35t-37 -43q8 -29 33 -59q88 -113 270 -113z" />
    <glyph glyph-name="six.lin" horiz-adv-x="1071" 
d="M548 8q166 0 276 116t110 282t-106 274t-272 108q-164 0 -278 -112t-114 -276q0 -166 108 -279t276 -113zM897 1183q0 -54 -35 -55q-35 0 -35 37q0 31 33 41q-14 39 -43 64q-84 76 -211 76q-201 0 -331 -202t-130 -591q0 -70 2 -98q8 111 78 198q123 162 315 162
t309 -116q116 -115 116 -291t-119 -302t-295 -124q-176 0 -305 124t-129 455q0 401 139 606t350 205q143 0 236 -84q55 -51 55 -105z" />
    <glyph glyph-name="seven.lin" horiz-adv-x="913" 
d="M123 1321v-272h-29v299h754l6 -13l-557 -1335h-31l553 1321h-696z" />
    <glyph glyph-name="eight.lin" horiz-adv-x="1060" 
d="M530 6q164 0 275 97t111 243t-112 245t-275 99t-273 -98t-111 -245q1 -147 111 -244t274 -97zM531 715q155 0 255 88t100 223t-102 228q-102 94 -254 94t-254 -94t-102 -227q0 -134 101 -223t256 -89zM531 -18q-179 0 -298 103t-118 265q0 130 90 228t229 124
q-127 25 -210 113t-83 223q0 134 111 234q110 100 278 100t278 -99t110 -235t-82 -223q-82 -88 -211 -113q141 -28 230 -124t89 -243t-117 -250t-296 -103z" />
    <glyph glyph-name="nine.lin" horiz-adv-x="1071" 
d="M524 1346q-168 0 -276 -117t-109 -284q1 -167 107 -275t270 -109q164 0 279 113q115 114 115 282t-110 279q-108 111 -276 111zM170 172q0 53 35 53q35 -1 35 -33t-33 -42q12 -37 47 -68q90 -74 217 -74q197 0 328 195t129 588q0 59 -2 86q-12 -90 -58 -156
q-55 -86 -146 -136t-200 -50q-186 1 -301 115t-115 293t119 304t299 125t297 -121q133 -137 133 -460q0 -412 -136 -611t-347 -198q-143 0 -242 84q-59 53 -59 106z" />
    <glyph glyph-name="bullet.alt" horiz-adv-x="1234" 
d="M616 -96q-212 0 -364 152t-152 366t152 366t364 152t366 -153q153 -153 153 -365t-153 -366q-153 -152 -366 -152z" />
    <glyph glyph-name="hyphen.lin" horiz-adv-x="487" 
d="M72 657v29h342v-29h-342z" />
    <glyph glyph-name="endash.lin" horiz-adv-x="800" 
d="M45 657v29h711v-29h-711z" />
    <glyph glyph-name="emdash.lin" horiz-adv-x="1316" 
d="M45 657v29h1227v-29h-1227z" />
    <glyph glyph-name="parenleft.lin" horiz-adv-x="614" 
d="M139 655q0 271 122 541t360 453l18 -21q-237 -182 -353 -444t-116 -528t117 -529q117 -262 352 -444l-18 -21q-238 182 -360 452t-122 541z" />
    <glyph glyph-name="parenright.lin" horiz-adv-x="614" 
d="M473 656q1 -270 -121 -542q-122 -270 -358 -452l-19 21q233 182 351 444q117 262 116 528q0 267 -116 529t-351 444l19 21q236 -183 358 -453t121 -540z" />
    <glyph glyph-name="bracketleft.lin" horiz-adv-x="616" 
d="M217 -287v1909h375v-27h-344v-1855h344v-27h-375z" />
    <glyph glyph-name="bracketright.lin" horiz-adv-x="616" 
d="M25 -287v27h342v1855h-342v27h372v-1909h-372z" />
    <glyph glyph-name="braceleft.lin" horiz-adv-x="589" 
d="M129 -42q0 108 130 260t130 234t-66 142q-67 59 -173 59h-56v25h56q108 0 174 58t66 142t-126 224q-135 160 -135 268t101 191q101 84 264 88v-25q-152 -4 -244 -81t-92 -175t130 -246t130 -236q0 -86 -56 -146t-151 -74q94 -14 150 -76q57 -62 57 -147q0 -86 -127 -230
q-133 -158 -133 -254t92 -173t244 -83v-22q-160 2 -263 86q-102 84 -102 191z" />
    <glyph glyph-name="braceright.lin" horiz-adv-x="589" 
d="M430 -40q0 97 -131 253q-129 141 -129 229t57 148q57 61 152 76q-94 14 -152 73q-57 59 -57 147t129 230q131 152 131 251t-91 176t-243 81v25q162 -4 263 -88q101 -85 101 -191t-136 -268q-123 -139 -123 -223t65 -143q66 -58 174 -58h54v-25h-54q-106 0 -173 -59
t-67 -142t131 -236q130 -154 130 -260q-1 -106 -103 -190t-262 -85v22q152 6 243 83t91 174z" />
    <glyph glyph-name="registered.alt" horiz-adv-x="1163" 
d="M561 772h-88v-262h84q72 0 117 35t45 96t-43 96t-115 35zM559 254h-199v20h91v498h-91v21h203q82 0 131 -41t49 -109q0 -117 -129 -145l134 -224h77v-20h-94l-141 238q-14 -2 -27 -3h-90v-215h86v-20zM582 -23q-225 0 -374 155q-148 155 -149 380q1 225 149 381t374 156
t373 -156q149 -156 149 -381t-148 -380t-374 -155zM582 -2q215 0 357 150t142 364q0 215 -142 366q-142 150 -357 150t-358 -150q-142 -151 -142 -366t142 -365q143 -149 358 -149z" />
    <glyph glyph-name="copyright.lin" horiz-adv-x="1574" 
d="M809 1008q-129 0 -216 -94t-87 -229q0 -134 86 -228q86 -95 218 -95t230 93l13 -17q-101 -98 -245 -98t-237 101q-92 101 -92 245t96 244t234 100q98 0 171 -52t73 -118q0 -37 -30 -37t-30 29t33 33q-12 47 -74 85t-143 38zM786 6q274 0 459 194t185 474t-184 474
t-458 194t-458 -194t-184 -474t182 -474q184 -194 458 -194zM785 -14q-284 0 -475 198t-191 489q1 289 193 489t476 200t474 -199q192 -199 192 -489t-192 -489q-193 -199 -477 -199z" />
    <glyph glyph-name="published.lin" horiz-adv-x="1574" 
d="M817 623q100 0 160 51q59 51 59 135t-61 133t-164 49h-109v-364q58 -4 115 -4zM817 600q-61 0 -115 4v-246h101v-20h-223v20h98v633h-98v21h231q113 0 181 -56t69 -148q-1 -92 -67 -150t-177 -58zM786 6q274 0 459 194t185 474t-184 474t-458 194t-458 -194t-184 -474
t182 -474q184 -194 458 -194zM785 -14q-284 0 -475 198t-191 489q1 289 193 489t476 200t474 -199q192 -199 192 -489t-192 -489q-193 -199 -477 -199z" />
    <glyph glyph-name="registered.lin" horiz-adv-x="1574" 
d="M664 668h133q78 0 135 46t57 122t-56 122t-149 46h-120v-336zM664 645v-274h100v-21h-223v21h100v633h-100v20h245q102 0 164 -52t64 -132q0 -80 -53 -130t-127 -61l188 -278h88v-21h-104l-197 295h-145zM786 6q274 0 459 194t185 474t-184 474t-458 194t-458 -194
t-184 -474t182 -474q184 -194 458 -194zM785 -14q-284 0 -475 198t-191 489q1 289 193 489t476 200t474 -199q192 -199 192 -489t-192 -489q-193 -199 -477 -199z" />
    <glyph glyph-name="dollar.lin" horiz-adv-x="1064" 
d="M209 1039q0 -123 81 -193t247 -135l51 610h-13q-164 4 -265 -78t-101 -204zM928 322q0 134 -87 208t-280 146l-53 -651h14q178 -6 292 79t114 218zM956 322q0 -146 -122 -238t-312 -84h-16l-17 -195l-26 5l16 192q-166 12 -267 92t-101 170q0 55 37 55t36 -38
q0 -33 -34 -43q16 -78 105 -138t226 -73l54 657q-176 68 -266 144q-89 77 -89 211q0 135 110 223t288 84h12l14 182l27 -4l-15 -181q137 -12 229 -81q91 -70 91 -150q0 -51 -36 -51t-36 36t33 48q-14 63 -92 113t-191 61l-51 -617q203 -76 298 -156q95 -78 95 -224z" />
    <glyph glyph-name="sterling.lin" horiz-adv-x="1046" 
d="M106 25q0 19 31 39t82 28q154 141 154 342q0 61 -13 127h-227v27h221q-14 59 -35 125q-59 182 -59 295q0 152 96 250t236 98t223 -68q84 -68 84 -147q0 -53 -37 -54q-33 0 -33 37q-1 14 11 28t24 17q-14 66 -87 113t-193 47t-206 -91q-87 -92 -87 -212t57 -305
q20 -61 37 -133h360v-27h-356q12 -61 12 -146t-42 -173t-103 -144q33 4 47 4q79 0 233 -46t236 -46q143 0 197 158l24 -10q-55 -172 -221 -172q-88 0 -244 46t-214 46q-56 0 -83 -6q-53 -74 -89 -74t-36 27z" />
    <glyph glyph-name="Euro.lin" horiz-adv-x="1366" 
d="M39 805v26h211q43 233 196 381q154 148 350 150t315 -102q120 -104 120 -220q0 -59 -41 -59q-14 0 -26 11q-11 12 -11 28t13 28t34 15q-10 98 -118 185t-289 87t-326 -140t-188 -364h569v-26h-576q-10 -79 -10 -149t12 -142h574v-27h-569q43 -217 183 -348t331 -131
q244 0 411 168l17 -20q-178 -172 -428 -172q-203 0 -352 138q-148 138 -191 365h-211v27h207q-23 141 -2 291h-205z" />
    <glyph glyph-name="yen.lin" horiz-adv-x="1282" 
d="M401 0v25h222v311h-357v24h357v213h-357v25h346l-415 723h-185v27h439v-27h-220l408 -719l408 719h-220v27h439v-27h-187l-415 -723h348v-25h-359v-213h359v-24h-359v-311h221v-25h-473z" />
    <glyph glyph-name="cent.lin" horiz-adv-x="911" 
d="M115 699q0 -167 89 -270t228 -128l70 803q-162 -2 -274 -120t-113 -285zM84 698q0 178 124 304t298 126l22 244l25 -2l-23 -244q125 -8 209 -78t84 -149q0 -47 -35 -47t-34 35q0 35 39 41q-14 66 -88 116t-177 58l-69 -805q37 -4 61 -4q170 0 285 90l-2 -29
q-117 -86 -283 -86q-25 0 -65 4l-27 -309l-25 2l27 311q-154 25 -250 135q-96 109 -96 287z" />
    <glyph glyph-name="numbersign.lin" horiz-adv-x="1073" 
d="M401 895l-71 -459h340l71 459h-340zM115 895v27h264l65 424h27l-63 -424h337l66 424h27l-66 -424h264v-27h-268l-72 -459h260v-26h-264l-61 -410h-29l64 410h-338l-64 -410h-28l63 410h-262v26h266l72 459h-260z" />
    <glyph glyph-name="paragraph.lin" horiz-adv-x="1241" 
d="M764 27h162v1294h-162v-1294zM526 0v27h207v481q-78 -4 -143 -4q-221 0 -353 116q-133 116 -133 307t140 306t354 115h557v-27h-199v-1294h199v-27h-629z" />
    <glyph glyph-name="section.lin" horiz-adv-x="1030" 
d="M152 684q0 -119 190 -175q76 -23 145 -44l78 -23q303 61 303 224q0 88 -102 138q-78 38 -159 61q-81 22 -111 30t-43 12q-301 -59 -301 -223zM198 217q36 0 35 -35q0 -27 -28 -39q23 -51 101 -91t201 -40q124 0 209 56t85 143q0 86 -73 133q-73 48 -198 82
q-269 74 -339 128q-70 55 -68 128q0 178 295 236q-113 36 -170 84q-58 48 -58 137t96 157t254 68t261 -86q59 -53 59 -98q0 -16 -11 -28t-26 -13q-35 0 -35 33t27 40q-8 25 -37 50q-88 76 -236 76t-235 -60q-88 -60 -88 -148t78 -132t204 -76t178 -52q143 -51 190 -114
q28 -39 28 -88q0 -176 -297 -238q119 -39 175 -88t56 -138q0 -88 -94 -152t-239 -64q-213 0 -308 118q-29 39 -28 72q0 39 36 39z" />
    <glyph glyph-name="ordfeminine.lin" horiz-adv-x="598" 
d="M229 1012q113 0 193 106v113q-88 35 -167 35t-123 -38t-44 -91t36 -89t105 -36zM68 829v21h479v-21h-479zM270 1518q179 0 179 -172v-326h98v-21h-123v93q-84 -103 -195 -103q-80 0 -123 42t-43 106q1 65 53 107t136 42t170 -33v90q0 72 -34 112t-125 40t-130 -51
q14 -8 14 -27q0 -29 -26 -28q-27 -1 -27 31t50 65t126 33z" />
    <glyph glyph-name="ordmasculine.lin" horiz-adv-x="638" 
d="M319 1012q98 0 164 70t66 171q0 102 -66 171t-164 69q-99 0 -163 -70t-64 -171q0 -100 64 -170t163 -70zM319 991q-109 0 -181 75q-72 74 -70 186q0 112 72 188q74 76 182 76t181 -75t73 -187t-74 -188t-183 -75zM96 829v21h451v-21h-451z" />
    <glyph glyph-name="degree.lin" horiz-adv-x="524" 
d="M262 1053q86 0 142 61q56 62 56 150t-56 149t-142 61t-143 -60q-57 -62 -57 -150t56 -150q58 -62 144 -61zM262 1028q-96 0 -163 69t-66 167q0 98 66 167q67 69 163 69t162 -70q66 -68 66 -166t-66 -167t-162 -69z" />
    <glyph glyph-name="percent.lin" horiz-adv-x="1253" 
d="M682 274q0 -108 70 -186t174 -78t174 77t70 187t-70 187q-70 78 -174 78t-174 -78t-70 -187zM651 274q0 121 79 205t196 84q118 0 196 -84t78 -205q0 -122 -79 -206t-195 -84t-196 84q-79 84 -79 206zM182 -4l-20 14l911 1346l23 -15zM84 1074q0 -110 70 -188t174 -77
q104 0 174 78q70 79 70 187t-70 186t-174 78t-174 -78q-70 -76 -70 -186zM53 1073q0 121 79 206t196 85q118 0 196 -85t78 -206t-79 -205t-195 -84t-196 84q-79 84 -79 205z" />
    <glyph glyph-name="perthousand.lin" horiz-adv-x="1892" 
d="M1321 274q0 -108 70 -186t175 -78t174 77q68 77 68 187t-69 187q-70 78 -174 78t-174 -78t-70 -187zM1290 274q0 121 79 205t196 84t195 -84t79 -205q0 -122 -79 -206q-80 -84 -196 -84t-195 84t-79 206zM682 274q0 -108 70 -186t174 -78t174 77t70 187t-70 187
q-70 78 -174 78t-174 -78t-70 -187zM651 274q0 121 79 205t196 84q118 0 196 -84t78 -205q0 -122 -79 -206t-195 -84t-196 84q-79 84 -79 206zM182 -4l-20 14l911 1346l23 -15zM84 1074q0 -110 70 -188t174 -77q104 0 174 78q70 79 70 187t-70 186t-174 78t-174 -78
q-70 -76 -70 -186zM53 1073q0 121 79 206t196 85q118 0 196 -85t78 -206t-79 -205t-195 -84t-196 84q-79 84 -79 205z" />
    <glyph glyph-name="quotedbl.lin" horiz-adv-x="446" 
d="M121 1206l-19 269q-4 37 23 36q27 0 25 -36l-17 -269h-12zM313 1206l-16 269q-2 37 22 36q29 0 23 -36l-16 -269h-13z" />
    <glyph glyph-name="quotesingle.lin" horiz-adv-x="253" 
d="M121 1206l-19 269q-4 37 23 36q27 0 25 -36l-17 -269h-12z" />
    <glyph glyph-name="plus.lin" horiz-adv-x="765" 
d="M369 385v285h-277v24h277v285h26v-285h277v-24h-277v-285h-26z" />
    <glyph glyph-name="minus.lin" horiz-adv-x="765" 
d="M92 670v24h580v-24h-580z" />
    <glyph glyph-name="divide.lin" horiz-adv-x="765" 
d="M383 408q-37 0 -37 38t37 37q17 0 27 -11q10 -10 10 -26t-12 -27t-25 -11zM383 881q-37 0 -37 39t37 38q17 0 27 -11t10 -27t-11 -28q-12 -11 -26 -11zM672 670h-580v24h580v-24z" />
    <glyph glyph-name="equal.lin" horiz-adv-x="765" 
d="M92 514v25h580v-25h-580zM92 784v25h580v-25h-580z" />
    <glyph glyph-name="multiply.lin" horiz-adv-x="765" 
d="M639 410l-256 256l-256 -256l-18 18l256 256l-256 256l18 21l256 -259l256 259l20 -21l-256 -256l256 -256z" />
    <glyph glyph-name="less.lin" horiz-adv-x="724" 
d="M569 356l-460 301v11l460 301l15 -21l-439 -284l439 -287z" />
    <glyph glyph-name="greater.lin" horiz-adv-x="724" 
d="M156 356l-15 21l437 287l-437 284l15 21l460 -301v-11z" />
    <glyph glyph-name="plusminus.lin" horiz-adv-x="765" 
d="M92 317v27h580v-27h-580zM369 475v285h-277v24h277v285h26v-285h277v-24h-277v-285h-26z" />
    <glyph glyph-name="zero.tab" horiz-adv-x="1085" 
d="M543 1348q-182 0 -302 -186t-120 -484q0 -297 119 -482q119 -186 303 -186t303 186t119 482q0 298 -120 484t-302 186zM543 -18q-197 0 -325 192t-128 503q0 310 129 504q129 193 324 193t323 -194t129 -503q1 -311 -127 -503t-325 -192z" />
    <glyph glyph-name="one.tab" horiz-adv-x="1085" 
d="M197 0v27h352v1300l-346 -104l-4 26l362 111h19v-1333h354v-27h-737z" />
    <glyph glyph-name="two.tab" horiz-adv-x="1085" 
d="M541 1370q177 0 281 -95t104 -237t-81 -242q-81 -99 -219 -205q-138 -105 -214 -173t-154 -174t-111 -217h781v278h30v-305h-837l-8 16q56 195 197 340q104 108 268 235q164 126 240 219t77 225q0 132 -96 220t-258 88q-117 0 -207 -55t-131 -147q-12 -27 -23 -80
q45 -6 45 -43t-37 -37q-36 0 -36 56t24 112q41 101 140 161t225 60z" />
    <glyph glyph-name="three.tab" horiz-adv-x="1085" 
d="M508 -16q-246 0 -365 149q-41 53 -41 109t37 55q15 0 25 -10t10 -25q0 -35 -39 -41q6 -41 37 -78q47 -59 136 -96t200 -37q182 0 297 98t115 244q0 225 -267 310q-98 33 -239 32h-39v27h41q137 0 241 43q236 86 236 289q0 123 -99 208t-272 85q-215 0 -319 -144
q-29 -37 -37 -82q39 -10 39 -43q0 -14 -10 -24t-25 -11q-37 0 -37 54t43 114q115 164 348 164q182 0 291 -93t109 -228q0 -215 -250 -308q-74 -29 -142 -36q63 -6 138 -29q281 -88 280 -328q0 -158 -122 -263t-320 -105z" />
    <glyph glyph-name="four.tab" horiz-adv-x="1085" 
d="M469 0v27h258v393h-664l-8 12l711 938l25 -14l-689 -910h625v484l31 12v-496h248v-26h-248v-393h221v-27h-510z" />
    <glyph glyph-name="five.tab" horiz-adv-x="1085" 
d="M967 400q0 -188 -131 -302q-131 -116 -344 -116t-328 122q-49 50 -49 102t35 52t34 -35q0 -33 -34 -43q10 -33 38 -61q102 -109 304 -109t323 109t121 281t-121 272t-299 100t-332 -70l-10 5l78 641h620v-31h-593l-72 -576q129 57 313 57t316 -104q131 -106 131 -294z
" />
    <glyph glyph-name="six.tab" horiz-adv-x="1085" 
d="M561 791q-167 0 -281 -114t-114 -280q0 -167 110 -277t280 -110q169 0 281 117q111 117 111 283t-110 274t-277 107zM877 1128q-17 0 -27 12t-10 25q0 31 34 41q-18 37 -32 54q-82 86 -230 86q-192 0 -328 -202t-137 -575v-104q12 94 74 182q123 170 338 170
q184 0 302 -116q118 -115 118 -291t-121 -302t-305 -126t-299 118q-70 72 -103 181q-34 109 -34 288q0 395 147 600t350 205q152 0 244 -88q54 -54 54 -106t-35 -52z" />
    <glyph glyph-name="seven.tab" horiz-adv-x="1085" 
d="M164 1321v-272h-29v299h866l7 -11l-619 -1337h-33l611 1321h-803z" />
    <glyph glyph-name="eight.tab" horiz-adv-x="1085" 
d="M543 715q158 0 262 90t104 225t-103 226q-103 92 -263 92t-263 -92q-104 -92 -104 -226q0 -135 104 -225t263 -90zM543 1374q173 0 285 -97t112 -233t-87 -227q-87 -90 -222 -115q141 -20 239 -118t98 -245t-122 -252q-123 -105 -303 -105t-303 105t-123 251t98 246
q98 98 240 118q-135 25 -223 115q-87 90 -87 226q0 135 113 233t285 98zM543 8q167 0 281 98t114 242t-117 244q-117 98 -279 98t-278 -98q-117 -98 -117 -242t115 -244q115 -98 281 -98z" />
    <glyph glyph-name="nine.tab" horiz-adv-x="1085" 
d="M924 958q0 166 -113 278t-280 112t-279 -118t-111 -285q0 -167 110 -275q109 -108 275 -109q166 0 282 115q116 116 116 282zM971 786q-1 -395 -147 -600t-349 -204q-150 0 -244 90q-55 51 -55 102t36 51t36 -33t-35 -42q8 -29 43 -62q86 -78 221 -78q193 0 329 202
t136 576q0 72 -2 103q-12 -102 -74 -184q-124 -172 -322 -172q-198 -1 -316 115t-118 294t120 304t304 126t300 -119q70 -73 104 -181t33 -288z" />
    <glyph glyph-name="period.tab" horiz-adv-x="542" 
d="M272 -16q-18 0 -30 12t-12 30t12 29q12 13 30 13t30 -12t13 -30q0 -17 -12 -30q-13 -12 -31 -12z" />
    <glyph glyph-name="comma.tab" horiz-adv-x="542" 
d="M266 68q45 0 45 -70q1 -115 -116 -211l-11 14q94 92 95 185q-18 -4 -35 9q-16 13 -17 34q0 39 39 39z" />
    <glyph glyph-name="colon.tab" horiz-adv-x="542" 
d="M272 596q-18 0 -30 13q-28 30 0 60q12 13 30 13t30 -13t13 -29q0 -16 -12 -31q-13 -13 -31 -13zM272 -16q-18 0 -30 12t-12 30t12 29q12 13 30 13t30 -12t13 -30q0 -17 -12 -30q-13 -12 -31 -12z" />
    <glyph glyph-name="semicolon.tab" horiz-adv-x="542" 
d="M272 596q-18 0 -30 13q-28 30 0 60q12 13 30 13t30 -13t13 -29q0 -16 -12 -31q-13 -13 -31 -13zM199 -213l-11 14q90 88 95 185q-20 -4 -37 9q-16 13 -16 31t12 30q12 11 28 12q45 0 45 -70q1 -115 -116 -211z" />
    <glyph glyph-name="twodotleader.tab" horiz-adv-x="1085" 
d="M815 -16q-18 0 -31 12q-12 12 -12 30t12 29q12 13 30 13t32 -12q12 -12 12 -30q0 -17 -12 -30q-13 -12 -31 -12zM272 -16q-18 0 -30 12t-12 30t12 29q12 13 30 13t30 -12t13 -30q0 -17 -12 -30q-13 -12 -31 -12z" />
    <glyph glyph-name="periodcentered.tab" horiz-adv-x="542" 
d="M272 440q-18 0 -30 12t-12 30t12 30t30 12t30 -12t13 -30q-1 -18 -13 -30t-30 -12z" />
    <glyph glyph-name="slash.tab" horiz-adv-x="1085" 
d="M-14 -410l-25 15l1024 1896l25 -14z" />
    <glyph glyph-name="bar.tab" horiz-adv-x="542" 
d="M258 -410v1909h29v-1909h-29z" />
    <glyph glyph-name="underscore.tab" horiz-adv-x="1085" 
d="M-10 -248v29h1106v-29h-1106z" />
    <glyph glyph-name="dollar.tab" horiz-adv-x="1085" 
d="M209 1040q0 -116 82 -190t252 -139l49 610h-27q-160 0 -258 -82t-98 -199zM547 25q175 0 283 84t108 211q0 126 -89 204t-282 148l-53 -647h33zM547 -2h-35l-16 -193l-27 5l16 190q-168 16 -269 98t-101 174q0 55 37 56q34 0 34 -36t-34 -48q18 -78 108 -142t227 -75
l54 655q-180 68 -271 148q-90 81 -90 209t106 217t281 90h27l16 182l27 -2l-16 -183q143 -13 236 -83t93 -154q0 -49 -36 -49t-35 37q0 31 32 45q-16 63 -97 115t-196 63l-49 -617q205 -74 302 -158t97 -221q0 -139 -117 -231q-118 -92 -304 -92z" />
    <glyph glyph-name="sterling.tab" horiz-adv-x="1085" 
d="M115 25q0 18 29 35q30 17 79 26q168 141 168 346q0 66 -12 127h-238v27h232q-18 70 -35 127q-59 186 -59 295q0 154 101 250q102 96 242 96t226 -66t86 -147q0 -55 -39 -56q-35 0 -35 39q0 12 11 24t24 17q-12 66 -84 114q-73 48 -195 48t-216 -89t-93 -230
q0 -96 39 -226t55 -196h373v-27h-366q12 -61 12 -129q0 -201 -150 -334q42 4 90 4t204 -44t236 -44q79 0 124 40t77 114l25 -10q-68 -172 -231 -172q-67 0 -229 46t-226 46t-100 -13q-53 -67 -89 -67t-36 29z" />
    <glyph glyph-name="Euro.tab" horiz-adv-x="1085" 
d="M907 1042q0 35 43 41q-8 90 -93 171t-212 81q-159 -2 -273 -140t-147 -366h484v-24h-488q-8 -63 -8 -146t8 -143h488v-27h-484q35 -215 145 -347t261 -132q184 0 323 168l21 -18q-145 -178 -344 -178q-166 0 -284 139t-152 368h-160v27h155q-8 58 -8 142t8 147h-155v24
h160q35 238 157 384q122 147 280 149t254 -96t97 -205q0 -57 -39 -57q-14 0 -26 11t-11 27z" />
    <glyph glyph-name="yen.tab" horiz-adv-x="1085" 
d="M326 0v27h200v309h-315v26h315v213h-315v25h307l-366 721h-158v27h397v-27h-207l357 -709l358 709h-207v27h395v-27h-155l-367 -721h307v-25h-317v-213h317v-26h-317v-309h203v-27h-432z" />
    <glyph glyph-name="cent.tab" horiz-adv-x="1085" 
d="M184 699q0 -169 92 -271t242 -127l70 803q-168 -4 -286 -120t-118 -285zM612 266q-23 0 -71 4l-27 -307l-27 2l27 309q-160 27 -260 138q-100 110 -100 288t126 302t310 126l22 244l29 -2l-23 -242q129 -6 220 -78q90 -73 90 -157q0 -49 -36 -49t-36 35t41 43
q-16 70 -95 122t-188 60l-69 -807q41 -4 69 -4q178 0 293 94v-31q-117 -90 -295 -90z" />
    <glyph glyph-name="numbersign.tab" horiz-adv-x="1085" 
d="M403 895l-71 -461h346l72 461h-347zM113 895v27h268l65 424h27l-63 -424h344l65 424h27l-66 -424h269v-27h-273l-71 -461h266v-24h-271l-61 -410h-27l62 410h-344l-64 -410h-26l61 410h-266v24h270l72 461h-264z" />
    <glyph glyph-name="paragraph.tab" horiz-adv-x="1085" 
d="M551 504q-205 0 -331 116t-126 306q0 192 132 307t335 115h465v-27h-195v-1294h195v-27h-582v27h189v481q-37 -4 -82 -4zM662 27h141v1294h-141v-1294z" />
    <glyph glyph-name="section.tab" horiz-adv-x="1085" 
d="M164 683q0 -77 88 -124t268 -94l74 -21q317 61 317 222q0 80 -89 128t-265 93l-80 20q-157 -31 -235 -89t-78 -135zM209 221q35 0 35 -35q0 -29 -27 -36q25 -50 107 -94t212 -44t218 58q90 58 90 140q0 81 -76 130q-76 50 -205 84q-275 73 -352 129q-78 56 -78 132
q0 77 76 138t229 97q-121 39 -178 84t-57 120q0 100 101 170q100 70 276 70t276 -96q49 -49 49 -90q0 -18 -11 -32t-26 -13q-35 0 -34 36q0 27 28 37q-6 20 -28 43q-92 88 -254 88t-254 -60q-92 -59 -92 -145t78 -131q79 -45 260 -91q180 -46 276 -98t96 -137t-78 -147
t-233 -96q129 -43 185 -92t56 -135t-97 -152q-97 -65 -233 -65t-218 36t-117 83t-35 73q0 41 35 41z" />
    <glyph glyph-name="degree.tab" horiz-adv-x="1085" 
d="M539 1483q-141 -1 -231 -97t-91 -234q0 -138 90 -234q89 -96 231 -96t232 96t90 234t-90 234t-231 97zM539 799q-154 0 -251 103q-98 102 -98 250t98 252t251 103q154 0 251 -103q97 -102 97 -250t-97 -252t-251 -103z" />
    <glyph glyph-name="percent.tab" horiz-adv-x="1085" 
d="M143 -4l-22 12l827 1348l21 -15q-2 -2 -197 -319t-212 -347q-18 -30 -120 -197t-198 -324zM799 539q-91 0 -149 -78t-58 -188q0 -109 58 -187t148 -78t149 78t59 188t-58 187q-58 78 -149 78zM78 1073q0 -111 59 -189t149 -77q90 0 150 79q60 78 60 188t-60 189t-149 79
q-90 0 -150 -79q-59 -79 -59 -190zM51 1074q0 122 67 206t168 84t168 -85q66 -85 66 -206t-66 -205t-168 -84q-101 0 -168 84t-67 206zM563 274q0 121 67 205t169 84t169 -84q66 -84 66 -205q0 -122 -66 -206t-169 -84q-102 0 -169 84t-67 206z" />
    <glyph glyph-name="quotedbl.tab" horiz-adv-x="1085" 
d="M707 1065l-21 414q-4 33 25 32q29 0 24 -32l-18 -414h-10zM369 1065l-19 414q-4 33 25 32q29 0 24 -32l-20 -414h-10z" />
    <glyph glyph-name="quotesingle.tab" horiz-adv-x="542" 
d="M266 1065l-18 414q-4 33 24 32q29 0 25 -32l-21 -414h-10z" />
    <glyph glyph-name="plus.tab" horiz-adv-x="1085" 
d="M528 346v326h-317v24h317v326h29v-326h317v-24h-317v-326h-29z" />
    <glyph glyph-name="minus.tab" horiz-adv-x="1085" 
d="M211 672v24h663v-24h-663z" />
    <glyph glyph-name="divide.tab" horiz-adv-x="1085" 
d="M543 369q-14 0 -26 10q-11 11 -11 27t11 26t26 10q35 0 35 -36t-35 -37zM543 928q-14 0 -26 11q-11 11 -11 25t11 26q11 11 26 11q35 -1 35 -37t-35 -36zM874 672h-663v24h663v-24z" />
    <glyph glyph-name="equal.tab" horiz-adv-x="1085" 
d="M211 492v24h663v-24h-663zM211 815v25h663v-25h-663z" />
    <glyph glyph-name="multiply.tab" horiz-adv-x="1085" 
d="M842 371l-297 297l-297 -297l-19 18l297 297l-299 297l21 21l297 -297l297 297l18 -21l-297 -297l297 -297z" />
    <glyph glyph-name="less.tab" horiz-adv-x="1085" 
d="M791 319l-543 345v8l543 344l14 -21l-518 -327l518 -328z" />
    <glyph glyph-name="greater.tab" horiz-adv-x="1085" 
d="M295 1016l543 -344v-8l-543 -345l-14 21l518 328l-518 327z" />
    <glyph glyph-name="plusminus.tab" horiz-adv-x="1085" 
d="M211 289v26h663v-26h-663zM528 455v323h-317v27h317v325h29v-325h317v-27h-317v-323h-29z" />
    <glyph glyph-name="zero.idx_P2D" horiz-adv-x="2197" 
d="M1097 1098q-139 0 -229 -130t-90 -338t90 -339t228 -131q137 0 228 130t91 339t-90 339t-228 130zM1446 628q0 -220 -101 -356t-249 -137q-148 0 -248 137q-98 138 -98 358t99 356t249 136t249 -137t99 -357zM1098 1597q-401 0 -677 -286q-275 -287 -275 -697t274 -696
q276 -286 678 -287q266 0 485 132q219 131 344 357t125 494t-125 494t-344 357q-219 132 -485 132zM1098 1622q272 0 497 -135t355 -367t129 -506q0 -274 -129 -505q-128 -231 -354 -367t-498 -135q-272 0 -498 135q-225 134 -353 366t-128 506t128 506t353 367
q226 135 498 135z" />
    <glyph glyph-name="one.idx_P2D" horiz-adv-x="2197" 
d="M1354 150h-484v24h228v909l-224 -57l-4 25l242 63h14v-940h228v-24zM1098 1597q-401 0 -677 -286q-275 -287 -275 -697t274 -696q276 -286 678 -287q266 0 485 132q219 131 344 357t125 494t-125 494t-344 357q-219 132 -485 132zM1098 1622q272 0 497 -135t355 -367
t129 -506q0 -274 -129 -505q-128 -231 -354 -367t-498 -135q-272 0 -498 135q-225 134 -353 366t-128 506t128 506t353 367q226 135 498 135z" />
    <glyph glyph-name="two.idx_P2D" horiz-adv-x="2197" 
d="M891 886q0 -32 -33 -32t-33 38t19 79q30 69 98 111t176 42t185 -70q75 -70 75 -168q0 -99 -57 -171t-177 -160t-201 -176t-118 -205h549v197h29v-221h-602l-8 12q41 131 125 227t202 180t173 153q57 69 57 161t-68 153t-180 62q-172 0 -234 -131q-8 -20 -12 -43
q35 -6 35 -38zM1098 1597q-401 0 -677 -286q-275 -287 -275 -697t274 -696q276 -286 678 -287q266 0 485 132q219 131 344 357t125 494t-125 494t-344 357q-219 132 -485 132zM1098 1622q272 0 497 -135t355 -367t129 -506q0 -274 -129 -505q-128 -231 -354 -367t-498 -135
q-272 0 -498 135q-225 134 -353 366t-128 506t128 506t353 367q226 135 498 135z" />
    <glyph glyph-name="three.idx_P2D" horiz-adv-x="2197" 
d="M811 315q0 45 33 45q12 0 21 -9t9 -21q0 -31 -32 -37q8 -31 30 -53q70 -80 203 -80t207 68t74 169q0 152 -162 211q-63 25 -164 25h-20v26h22q94 0 168 37q135 66 135 197q0 84 -64 142q-65 59 -191 59t-191 -90q-16 -23 -25 -50q33 -6 33 -34q0 -14 -9 -24t-22 -9
q-32 0 -32 41t30 86q76 104 232 104q124 0 196 -66t72 -159q0 -143 -152 -215q-41 -20 -86 -29q43 -6 84 -20q174 -66 174 -232q0 -113 -82 -187t-231 -75q-148 0 -227 96q-33 39 -33 84zM1098 1597q-401 0 -677 -286q-275 -287 -275 -697t274 -696q276 -286 678 -287
q266 0 485 132q219 131 344 357t125 494t-125 494t-344 357q-219 132 -485 132zM1098 1622q272 0 497 -135t355 -367t129 -506q0 -274 -129 -505q-128 -231 -354 -367t-498 -135q-272 0 -498 135q-225 134 -353 366t-128 506t128 506t353 367q226 135 498 135z" />
    <glyph glyph-name="four.idx_P2D" horiz-adv-x="2197" 
d="M938 150v24h221v279h-469l-6 10l500 663l22 -14l-481 -635h434v316l29 12v-328h213v-24h-213v-279h186v-24h-436zM1098 1597q-401 0 -677 -286q-275 -287 -275 -697t274 -696q276 -286 678 -287q266 0 485 132q219 131 344 357t125 494t-125 494t-344 357
q-219 132 -485 132zM1098 1622q272 0 497 -135t355 -367t129 -506q0 -274 -129 -505q-128 -231 -354 -367t-498 -135q-272 0 -498 135q-225 134 -353 366t-128 506t128 506t353 367q226 135 498 135z" />
    <glyph glyph-name="five.idx_P2D" horiz-adv-x="2197" 
d="M1082 137q-120 0 -198 49t-77 113q0 41 30 41q29 0 29 -30t-26 -36q16 -48 82 -80t168 -32t182 77t80 199t-77 194q-77 70 -199 70t-216 -47l-14 9l47 444h434v-27h-412l-41 -393q84 39 210 39t211 -77t85 -211t-89 -218t-209 -84zM1098 1597q-401 0 -677 -286
q-275 -287 -275 -697t274 -696q276 -286 678 -287q266 0 485 132q219 131 344 357t125 494t-125 494t-344 357q-219 132 -485 132zM1098 1622q272 0 497 -135t355 -367t129 -506q0 -274 -129 -505q-128 -231 -354 -367t-498 -135q-272 0 -498 135q-225 134 -353 366
t-128 506t128 506t353 367q226 135 498 135z" />
    <glyph glyph-name="six.idx_P2D" horiz-adv-x="2197" 
d="M817 435q0 -116 80 -197q84 -80 201 -80q118 0 196 81t78 197t-77 193q-77 76 -197 76t-201 -77q-80 -77 -80 -193zM1139 1120q105 0 161 -49t56 -90t-33 -41q-31 0 -31 37q0 19 25 29q-6 20 -29 38q-55 51 -151 52q-141 0 -235 -138t-95 -411v-35q23 96 101 157
q79 60 201 60t207 -83t85 -210t-87 -215t-219 -88t-216 88q-98 98 -99 326q0 285 102 429t257 144zM1098 1597q-401 0 -677 -286q-275 -287 -275 -697t274 -696q276 -286 678 -287q266 0 485 132q219 131 344 357t125 494t-125 494t-344 357q-219 132 -485 132zM1098 1622
q272 0 497 -135t355 -367t129 -506q0 -274 -129 -505q-128 -231 -354 -367t-498 -135q-272 0 -498 135q-225 134 -353 366t-128 506t128 506t353 367q226 135 498 135z" />
    <glyph glyph-name="seven.idx_P2D" horiz-adv-x="2197" 
d="M858 1059v-185h-29v209h609l6 -8l-420 -948h-29l414 932h-551zM1098 1597q-401 0 -677 -286q-275 -287 -275 -697t274 -696q276 -286 678 -287q266 0 485 132q219 131 344 357t125 494t-125 494t-344 357q-219 132 -485 132zM1098 1622q272 0 497 -135t355 -367t129 -506
q0 -274 -129 -505q-128 -231 -354 -367t-498 -135q-272 0 -498 135q-225 134 -353 366t-128 506t128 506t353 367q226 135 498 135z" />
    <glyph glyph-name="eight.idx_P2D" horiz-adv-x="2197" 
d="M825 398q0 -100 78 -168t196 -68q117 0 195 66t78 169q0 102 -80 169t-194 67t-194 -67q-79 -67 -79 -168zM1098 657q110 -1 182 61t72 155t-73 158t-181 65t-182 -65q-72 -65 -72 -158t72 -155t182 -61zM1401 388q0 -102 -86 -176t-216 -75q-130 0 -216 75t-86 176
t64 171q65 70 161 86q-92 21 -150 83t-57 156q0 94 81 166t203 70q121 0 201 -70t80 -166t-56 -157t-150 -82q98 -16 162 -85q64 -70 65 -172zM1098 1597q-401 0 -677 -286q-275 -287 -275 -697t274 -696q276 -286 678 -287q266 0 485 132q219 131 344 357t125 494t-125 494
t-344 357q-219 132 -485 132zM1098 1622q272 0 497 -135t355 -367t129 -506q0 -274 -129 -505q-128 -231 -354 -367t-498 -135q-272 0 -498 135q-225 134 -353 366t-128 506t128 506t353 367q226 135 498 135z" />
    <glyph glyph-name="nine.idx_P2D" horiz-adv-x="2197" 
d="M1102 547q122 -1 202 75t80 194t-81 199t-199 81t-196 -81q-79 -81 -79 -199t76 -194t197 -75zM844 273q0 42 30 42q30 -1 29 -29q0 -28 -22 -36q8 -25 30 -41q61 -51 156 -51q139 0 233 137t95 407v35q-21 -94 -101 -155q-80 -62 -202 -62t-207 83q-84 83 -84 211
t87 217t217 89t223 -92t93 -323q0 -289 -101 -431t-255 -141q-104 0 -178 62q-43 36 -43 78zM1098 1597q-401 0 -677 -286q-275 -287 -275 -697t274 -696q276 -286 678 -287q266 0 485 132q219 131 344 357t125 494t-125 494t-344 357q-219 132 -485 132zM1098 1622
q272 0 497 -135t355 -367t129 -506q0 -274 -129 -505q-128 -231 -354 -367t-498 -135q-272 0 -498 135q-225 134 -353 366t-128 506t128 506t353 367q226 135 498 135z" />
    <glyph glyph-name="space.tab" horiz-adv-x="542" 
 />
    <glyph glyph-name="NUL" horiz-adv-x="0" 
 />
    <glyph glyph-name="hfjslug" horiz-adv-x="1427" 
d="M874 580q-33 0 -32 34q0 12 9 24t23 11q14 0 24 -11t9 -24q0 -34 -33 -34zM999 612h-22v35h22q20 0 21 -16q-1 -19 -21 -19zM662 823q-33 0 -33 45t33 78l40 -80q-16 -43 -40 -43zM647 1056q0 30 29 29q27 -1 27 -35t-31 -69q-25 45 -25 75zM496 662l28 -97h17l22 70h2
l23 -70h16l29 97h-17l-20 -72h-2l-23 72h-14l-22 -72h-3l-20 72h-16zM272 662v-95h17v66l51 -66h14v95h-16v-66l-51 66h-15zM397 662v-95h70v15h-53v26h47v15h-47v24h53v15h-70zM752 567h16v35l37 60h-19l-26 -46l-27 46h-18l37 -60v-35zM874 565q20 1 34 15q33 33 1 68
q-15 16 -35 16t-34 -16t-14 -34q0 -20 14 -34t34 -15zM1036 631q0 31 -35 31h-40v-95h16v31h24l21 -31h18l-24 35q20 8 20 29zM1073 662v-95h17v25l16 16l31 -41h20l-41 54l37 41h-20l-41 -50h-2v50h-17zM731 1038q0 72 -55 72q-25 0 -41 -19q-17 -19 -17 -45t29 -79
q-47 -37 -47 -83q0 -91 59 -89q39 0 60 49h2l24 -49l25 12l-35 65q13 29 27 80l-27 6q-8 -37 -16 -61h-2l-33 64q47 43 47 77zM987 799q63 0 64 73v281h-33v-281q0 -45 -33 -45q-14 0 -41 11v-31q20 -8 43 -8zM379 1153v-352h31v162h96v-162h31v352h-31v-162h-96v162h-31z
M821 1153v-352h31v160h78v28h-78v135h88v29h-119zM1321 -410h-426l-16 29h-334l-17 -29h-424v621q27 0 47 19q19 19 19 46q0 26 -19 46t-47 20v1135h205l62 161h684l59 -161h207v-1887z" />
    <glyph glyph-name="A.sc" horiz-adv-x="1185" 
d="M592 993l-223 -577h446zM358 1014h469v-23h-204l374 -966h183v-25h-439v25h226l-144 366h-465l-141 -366h227v-25h-438v25h182l375 966h-205v23z" />
    <glyph glyph-name="B.sc" horiz-adv-x="1017" 
d="M569 0h-512v25h209v966h-209v23h514q154 0 232 -72t78 -171q1 -99 -61 -167t-175 -84q119 -10 191 -77t72 -183t-92 -188q-91 -72 -247 -72zM295 535h274q139 -1 211 65t72 163t-72 163t-209 65h-276v-456zM295 25h274q141 0 226 65q84 66 84 180t-85 176q-85 61 -231 62
h-268v-483z" />
    <glyph glyph-name="C.sc" horiz-adv-x="1112" 
d="M952 719q-31 0 -30 35q0 35 39 41q-11 82 -111 145t-238 64q-205 0 -342 -144t-137 -353q0 -210 136 -353q137 -144 353 -144t357 158l16 -21q-145 -161 -373 -161t-373 148t-145 370t146 374q146 151 362 150q156 0 267 -79t110 -173q0 -57 -37 -57z" />
    <glyph glyph-name="D.sc" horiz-adv-x="1175" 
d="M494 0h-437v25h209v966h-209v23h437q266 0 425 -135t159 -365t-155 -373q-155 -141 -429 -141zM295 25h201q260 0 406 135t146 354t-150 348q-151 129 -404 129h-199v-966z" />
    <glyph glyph-name="E.sc" horiz-adv-x="968" 
d="M846 0h-789v25h209v966h-209v23h789v-246h-27v223h-524v-461h399v-26h-399v-479h524v221h27v-246z" />
    <glyph glyph-name="F.sc" horiz-adv-x="925" 
d="M514 0h-457v25h209v966h-209v23h783v-246h-27v223h-518v-471h381v-24h-381v-471h219v-25z" />
    <glyph glyph-name="G.sc" horiz-adv-x="1165" 
d="M612 1004q-209 0 -347 -144t-138 -355q0 -210 136 -352q136 -143 347 -143t371 156v266h-328v25h355v-457h-27v137q-156 -151 -374 -151t-363 147q-146 147 -146 371t148 374q148 151 368 150q164 0 276 -75t111 -156q1 -57 -35 -57t-36 34q0 35 39 41q-14 69 -115 129
t-242 60z" />
    <glyph glyph-name="H.sc" horiz-adv-x="1298" 
d="M57 0v25h209v966h-209v23h451v-23h-213v-467h709v467h-213v23h452v-23h-211v-966h211v-25h-452v25h213v475h-709v-475h213v-25h-451z" />
    <glyph glyph-name="I.sc" horiz-adv-x="573" 
d="M516 0h-459v25h215v966h-215v23h459v-23h-215v-966h215v-25z" />
    <glyph glyph-name="J.sc" horiz-adv-x="890" 
d="M364 10q108 0 185 76q84 90 84 285v620h-213v23h432v-23h-190v-620q0 -211 -88 -298t-210 -87q-124 0 -206 72t-82 173q0 59 35 59t35 -34q0 -35 -40 -41q4 -81 77 -143t181 -62z" />
    <glyph glyph-name="K.sc" horiz-adv-x="1097" 
d="M1092 25v-25h-222l-387 547l-188 -193v-329h213v-25h-451v25h209v966h-209v23h447v-23h-209v-602l590 602h-221v23h409v-23h-153l-418 -426l385 -540h205z" />
    <glyph glyph-name="L.sc" horiz-adv-x="897" 
d="M801 25v221h26v-246h-770v25h209v966h-209v23h457v-23h-219v-966h506z" />
    <glyph glyph-name="M.sc" horiz-adv-x="1429" 
d="M1339 1014v-23h-190l41 -966h176v-25h-408v25h201l-35 944l-403 -826h-12l-404 826l-37 -944h203v-25h-408v25h179l39 966h-191v23h221l404 -828l403 828h221z" />
    <glyph glyph-name="N.sc" horiz-adv-x="1284" 
d="M1006 991h-215v23h452v-23h-211v-997h-18l-721 971v-940h215v-25h-451v25h209v966h-209v23h234l715 -963v940z" />
    <glyph glyph-name="O.sc" horiz-adv-x="1220" 
d="M610 10q211 0 347 142q137 142 137 355q0 212 -136 355q-136 144 -348 144q-211 0 -347 -144t-136 -355q0 -213 136 -355t347 -142zM610 1030q223 0 368 -150q144 -151 144 -373t-143 -372q-143 -149 -369 -149t-368 150q-144 150 -144 371q0 223 144 373t368 150z" />
    <glyph glyph-name="P.sc" horiz-adv-x="927" 
d="M492 432q160 0 244 77t85 202q0 125 -90 203t-239 77h-197v-553q86 -6 197 -6zM57 1014h435q162 0 260 -83t98 -220t-93 -221t-268 -82q-109 0 -194 6v-389h213v-25h-451v25h209v966h-209v23z" />
    <glyph glyph-name="Q.sc" horiz-adv-x="1220" 
d="M619 10q202 0 338 142q137 142 137 355q0 212 -136 355q-136 144 -348 144q-211 0 -347 -144t-136 -363q0 -220 158 -368q132 -121 334 -121zM1060 -209q-64 0 -116 23q-52 24 -116 66t-111 66t-170 42q-170 25 -283 127q-166 150 -166 382t144 383q144 150 368 150
q223 0 368 -150q144 -151 144 -368q0 -218 -136 -366t-347 -156q57 -8 103 -32t112 -64q64 -40 107 -58t96 -18t119 37l12 -23q-64 -41 -128 -41z" />
    <glyph glyph-name="Q.sc_alt" horiz-adv-x="1220" 
d="M1094 508q0 211 -136 354q-136 144 -348 144q-211 0 -347 -144t-136 -355q0 -212 136 -354t347 -143q96 0 176 31l-141 229l23 15l143 -234q131 57 207 179t76 278zM1122 508q0 -162 -80 -291t-217 -188l111 -181l-21 -14l-114 184q-92 -33 -191 -32q-225 0 -368 150
q-144 150 -144 371q0 222 144 373q144 150 368 150q223 0 368 -150q144 -151 144 -372z" />
    <glyph glyph-name="R.sc" horiz-adv-x="1019" 
d="M295 25h213v-25h-451v25h209v966h-209v23h445q162 0 255 -76t93 -195t-73 -193t-195 -93l266 -432h170v-25h-189l-276 451q-33 -4 -93 -4t-165 4v-426zM500 991h-205v-516q106 -4 190 -4q152 0 244 71q92 70 92 190t-87 190t-234 69z" />
    <glyph glyph-name="S.sc" horiz-adv-x="866" 
d="M707 801q-31 0 -31 33t31 43q-10 51 -85 90q-76 39 -186 39t-190 -62t-80 -164q0 -101 96 -162q67 -42 157 -74q89 -32 127 -47q214 -85 218 -253q0 -115 -94 -187q-94 -71 -240 -71t-236 55q-92 55 -92 113t34 57q34 0 34 -34t-31 -40q16 -49 94 -88t205 -39t212 65
t85 166t-77 158t-181 95t-144 55q-40 18 -93 52q-103 66 -103 178q0 111 88 181q87 70 217 70t216 -53t85 -115q0 -62 -36 -61z" />
    <glyph glyph-name="T.sc" horiz-adv-x="1001" 
d="M270 0v25h217v966h-372v-223h-27v246h827v-246h-28v223h-371v-966h215v-25h-461z" />
    <glyph glyph-name="U.sc" horiz-adv-x="1216" 
d="M272 991v-629q0 -172 87 -262t249 -90t249 90t87 262v629h-213v23h449v-23h-207v-629q0 -184 -94 -280q-95 -96 -271 -96t-270 96t-94 280v629h-207v23h448v-23h-213z" />
    <glyph glyph-name="V.sc" horiz-adv-x="1163" 
d="M4 991v23h440v-23h-227l367 -973l364 973h-227v23h440v-23h-184l-385 -1014h-21l-383 1014h-184z" />
    <glyph glyph-name="W.sc" horiz-adv-x="1638" 
d="M4 991v23h445v-23h-228l299 -968l293 847h14l291 -847l299 968h-227v23h444v-23h-188l-316 -1016h-20l-291 844l-291 -844h-20l-315 1016h-189z" />
    <glyph glyph-name="X.sc" horiz-adv-x="1114" 
d="M1096 25v-25h-391v25h186l-344 479l-344 -479h188v-25h-393v25h172l358 495l-338 471h-165v23h395v-23h-197l324 -452l323 452h-196v23h395v-23h-166l-340 -471l361 -495h172z" />
    <glyph glyph-name="Y.sc" horiz-adv-x="1105" 
d="M1104 1014v-23h-180l-357 -606v-360h215v-25h-458v25h215v360l-355 606h-182v23h430v-23h-215l336 -579l340 579h-219v23h430z" />
    <glyph glyph-name="Z.sc" horiz-adv-x="927" 
d="M86 0v14l721 977h-672v-221h-26v244h737v-15l-719 -974h696v219h27v-244h-764z" />
    <glyph glyph-name="Aacute.sc" horiz-adv-x="1185" 
d="M592 993l-223 -577h446zM358 1014h469v-23h-204l374 -966h183v-25h-439v25h226l-144 366h-465l-141 -366h227v-25h-438v25h182l375 966h-205v23zM854 1323q0 -14 -29 -29l-290 -129l-7 13l273 155q20 12 33 13q20 0 20 -23z" />
    <glyph glyph-name="Abreve.sc" horiz-adv-x="1185" 
d="M603 1163q-85 1 -151 55t-98 142l21 8q73 -170 229 -170t227 170l19 -8q-30 -88 -96 -142t-151 -55zM592 993l-223 -577h446zM358 1014h469v-23h-204l374 -966h183v-25h-439v25h226l-144 366h-465l-141 -366h227v-25h-438v25h182l375 966h-205v23z" />
    <glyph glyph-name="Acircumflex.sc" horiz-adv-x="1185" 
d="M592 993l-223 -577h446zM358 1014h469v-23h-204l374 -966h183v-25h-439v25h226l-144 366h-465l-141 -366h227v-25h-438v25h182l375 966h-205v23zM362 1153l-10 10l250 215l250 -215l-10 -10l-240 178z" />
    <glyph glyph-name="Adieresis.sc" horiz-adv-x="1185" 
d="M592 993l-223 -577h446zM358 1014h469v-23h-204l374 -966h183v-25h-439v25h226l-144 366h-465l-141 -366h227v-25h-438v25h182l375 966h-205v23zM457 1239q0 39 37 39t37 -38t-37 -38q-14 0 -26 11q-11 11 -11 26zM674 1239q0 39 38 39t38 -39q0 -17 -12 -27t-26 -10
q-15 0 -27 11q-11 11 -11 26z" />
    <glyph glyph-name="AE.sc" horiz-adv-x="1394" 
d="M692 418v573h-10l-322 -573h332zM481 0v25h211v366h-348l-205 -366h189v-25h-383v25h164l544 966h-202v23h821v-246h-27v223h-524v-461h399v-26h-399v-479h524v221h27v-246h-791z" />
    <glyph glyph-name="AEacute.sc" horiz-adv-x="1394" 
d="M692 418v573h-10l-322 -573h332zM481 0v25h211v366h-348l-205 -366h189v-25h-383v25h164l544 966h-202v23h821v-246h-27v223h-524v-461h399v-26h-399v-479h524v221h27v-246h-791zM1038 1323q0 -14 -28 -29l-291 -129l-6 13l272 155q20 12 33 13q20 0 20 -23z" />
    <glyph glyph-name="Agrave.sc" horiz-adv-x="1185" 
d="M354 1323q0 23 21 23q10 0 31 -13l274 -155l-8 -13l-289 129q-29 12 -29 29zM592 993l-223 -577h446zM358 1014h469v-23h-204l374 -966h183v-25h-439v25h226l-144 366h-465l-141 -366h227v-25h-438v25h182l375 966h-205v23z" />
    <glyph glyph-name="Amacron.sc" horiz-adv-x="1185" 
d="M336 1227v28h534v-28h-534zM592 993l-223 -577h446zM358 1014h469v-23h-204l374 -966h183v-25h-439v25h226l-144 366h-465l-141 -366h227v-25h-438v25h182l375 966h-205v23z" />
    <glyph glyph-name="Aogonek.sc" horiz-adv-x="1185" 
d="M592 993l-223 -577h446zM975 -412q-80 0 -127 46t-47 118q0 152 162 248h-222v25h226l-144 366h-465l-141 -366h227v-25h-438v25h182l375 966h-205v23h469v-23h-204l374 -966h183v-25h-172q-86 -45 -134 -111t-47 -131q0 -65 41 -105t114 -40t134 45v-23
q-61 -47 -141 -47z" />
    <glyph glyph-name="Aring.sc" horiz-adv-x="1185" 
d="M593 1016q52 0 87 36t35 89t-35 89t-87 36t-87 -36t-35 -89t35 -89t87 -36zM592 993l-223 -577h446zM358 1014h164q-78 39 -78 127q0 61 42 105t106 44t105 -44q42 -44 42 -105q0 -92 -77 -127h165v-23h-204l374 -966h183v-25h-439v25h226l-144 366h-465l-141 -366h227
v-25h-438v25h182l375 966h-205v23z" />
    <glyph glyph-name="Aringacute.sc" horiz-adv-x="1175" 
d="M593 1016q52 0 87 36t35 89t-35 89t-87 36t-87 -36t-35 -89t35 -89t87 -36zM592 993l-223 -577h446zM358 1014h164q-78 39 -78 127q0 61 42 105t106 44t105 -44q42 -44 42 -105q0 -92 -77 -127h165v-23h-204l374 -966h183v-25h-439v25h226l-144 366h-465l-141 -366h227
v-25h-438v25h182l375 966h-205v23zM813 1585q20 0 21 -22q0 -14 -29 -29l-291 -129l-6 12l272 156q20 12 33 12z" />
    <glyph glyph-name="Atilde.sc" horiz-adv-x="1185" 
d="M748 1182q-54 0 -146 64t-137 65q-80 0 -129 -129l-19 6q49 152 150 151q59 0 143 -63t138 -64q84 0 126 121l21 -6q-43 -145 -147 -145zM592 993l-223 -577h446zM358 1014h469v-23h-204l374 -966h183v-25h-439v25h226l-144 366h-465l-141 -366h227v-25h-438v25h182
l375 966h-205v23z" />
    <glyph glyph-name="Cacute.sc" horiz-adv-x="1112" 
d="M952 719q-31 0 -30 35q0 35 39 41q-11 82 -111 145t-238 64q-205 0 -342 -144t-137 -353q0 -210 136 -353q137 -144 353 -144t357 158l16 -21q-145 -161 -373 -161t-373 148t-145 370t146 374q146 151 362 150q156 0 267 -79t110 -173q0 -57 -37 -57zM530 1165l-6 13
l273 155q51 31 53 -10q0 -14 -29 -29z" />
    <glyph glyph-name="Ccaron.sc" horiz-adv-x="1112" 
d="M952 719q-31 0 -30 35q0 35 39 41q-11 82 -111 145t-238 64q-205 0 -342 -144t-137 -353q0 -210 136 -353q137 -144 353 -144t357 158l16 -21q-145 -161 -373 -161t-373 148t-145 370t146 374q146 151 362 150q156 0 267 -79t110 -173q0 -57 -37 -57zM840 1380l10 -12
l-250 -215l-250 215l10 12l240 -180z" />
    <glyph glyph-name="Ccedilla.sc" horiz-adv-x="1112" 
d="M766 -275q0 -63 -45 -99t-135 -36t-178 39l6 23q84 -39 166 -39t120 31t37 82q0 102 -170 108h-18l-8 6l30 148q-205 14 -335 160t-132 362q0 216 146 368q146 151 362 150q156 0 267 -79t110 -173q0 -57 -37 -57q-31 0 -30 35q0 35 39 41q-11 82 -111 145t-238 64
q-205 0 -342 -144t-137 -353q0 -210 136 -353q136 -144 352 -144t358 158l16 -21q-145 -162 -381 -161h-20l-21 -129q89 -2 141 -36t52 -96z" />
    <glyph glyph-name="Cdotaccent.sc" horiz-adv-x="1112" 
d="M600 1200q-16 0 -28 11q-11 11 -11 27t11 30q12 12 28 12t28 -12t11 -28q0 -16 -11 -29q-12 -11 -28 -11zM952 719q-31 0 -30 35q0 35 39 41q-11 82 -111 145t-238 64q-205 0 -342 -144t-137 -353q0 -210 136 -353q137 -144 353 -144t357 158l16 -21q-145 -161 -373 -161
t-373 148t-145 370t146 374q146 151 362 150q156 0 267 -79t110 -173q0 -57 -37 -57z" />
    <glyph glyph-name="Dcaron.sc" horiz-adv-x="1177" 
d="M788 1380l11 -12l-250 -215l-250 215l10 12l240 -180zM494 0h-437v25h209v966h-209v23h437q266 0 425 -135t159 -365t-155 -373q-155 -141 -429 -141zM295 25h201q260 0 406 135t146 354t-150 348q-151 129 -404 129h-199v-966z" />
    <glyph glyph-name="Dcroat.sc" horiz-adv-x="1181" 
d="M301 25h201q260 0 406 135t146 354t-150 348q-151 129 -404 129h-199v-463h248v-24h-248v-479zM500 0h-437v25h209v479h-168v24h168v463h-209v23h437q266 0 425 -135t159 -365t-155 -373q-155 -141 -429 -141z" />
    <glyph glyph-name="Eacute.sc" horiz-adv-x="970" 
d="M846 0h-789v25h209v966h-209v23h789v-246h-27v223h-524v-461h399v-26h-399v-479h524v221h27v-246zM741 1323q0 -14 -28 -29l-291 -129l-6 13l272 155q20 12 33 13q20 0 20 -23z" />
    <glyph glyph-name="Ebreve.sc" horiz-adv-x="970" 
d="M493 1163q-85 1 -152 55t-97 142l20 8q72 -170 229 -170t228 170l18 -8q-31 -88 -96 -142t-150 -55zM846 0h-789v25h209v966h-209v23h789v-246h-27v223h-524v-461h399v-26h-399v-479h524v221h27v-246z" />
    <glyph glyph-name="Ecaron.sc" horiz-adv-x="970" 
d="M846 0h-789v25h209v966h-209v23h789v-246h-27v223h-524v-461h399v-26h-399v-479h524v221h27v-246zM731 1380l10 -12l-249 -215l-250 215l10 12l240 -180z" />
    <glyph glyph-name="Ecircumflex.sc" horiz-adv-x="970" 
d="M846 0h-789v25h209v966h-209v23h789v-246h-27v223h-524v-461h399v-26h-399v-479h524v221h27v-246zM252 1153l-10 10l250 215l249 -215l-10 -10l-239 178z" />
    </font>
</defs>
</svg>
