<?xml version="1.0" standalone="no"?>
<!DOCTYPE svg PUBLIC "-//W3C//DTD SVG 1.1//EN" "http://www.w3.org/Graphics/SVG/1.1/DTD/svg11.dtd" >
<svg xmlns="http://www.w3.org/2000/svg">
<metadata>
Created by FontPrep 20130207 at Sun Apr  5 22:22:32 2015
 By Tina Kumar
Copyright (C) 2000, 2007 Hoefler &#38; Frere-Jones. http://www.typography.com
</metadata>
<defs>
<font id="1af0b113f355fd8a38a2ffe39023657f" horiz-adv-x='1024' >
  <font-face 
    font-family="Archer-ThinItalic"
    font-weight="265"
    font-style="italic"
    font-stretch="normal"
    units-per-em="2048"
    panose-1="0 0 0 0 0 0 0 0 0 0"
    ascent="1638"
    descent="-410"
    x-height="836"
    cap-height="1348"
    bbox="-229 -451 2079.01 1958"
    underline-thickness="102"
    underline-position="-102"
    slope="-12"
    unicode-range="U+0020-FB04"
  />
<missing-glyph horiz-adv-x="1030" 
d="M514 492l-367 -799h734zM924 1384l-353 -770l353 -770v1540zM104 -156l353 770l-353 770v-1540zM147 1536l367 -799l367 799h-734zM2 -410v2048h1024v-2048h-1024z" />
    <glyph glyph-name="f_f" unicode="ff" horiz-adv-x="1017" 
d="M1163 1505q47 0 73 -17t26 -42q0 -35 -33 -35q-18 0 -29 11q-10 12 -10 28t6 25q-16 4 -35 4q-84 0 -143 -60q-80 -74 -121 -260l-76 -323h234l-4 -25h-236l-186 -811h-29l188 811h-446l-186 -811h-29l188 811h-163l4 25h166l65 282q43 199 129 277q68 66 162 65
q42 0 68 -17t26 -40q0 -35 -33 -35q-39 0 -39 43q0 6 5 19q-16 4 -33 4q-80 0 -147 -64t-111 -254l-66 -280h447l75 327q43 195 122 269t171 73z" />
    <glyph glyph-name="fi" unicode="fi" horiz-adv-x="950" 
d="M705 1503q77 0 123 -34q46 -33 46 -73t-34 -40t-35 39q0 25 20 35q-37 49 -120 49q-150 0 -222 -150q-37 -72 -59 -174l-74 -319h451l-170 -584q-31 -98 -31 -144t25 -70q25 -26 67 -26q82 0 137 156l23 -6q-35 -94 -72 -134t-91 -40t-85 32t-31 83q0 50 29 153l164 555
h-422l-188 -811h-29l186 811h-161l4 25h163l76 323q25 104 62 176q80 168 248 168z" />
    <glyph glyph-name="fl" unicode="fl" horiz-adv-x="972" 
d="M690 1481q-119 0 -184 -92q-42 -54 -62 -146l-94 -407h432l86 372l4 25q-30 0 -30 34t32 40q-6 80 -55 127t-129 47zM742 12q42 0 75 36t66 120l20 -6q-33 -94 -72 -134t-92 -40t-85 32t-32 79q0 46 19 120l135 592h-432l-188 -811h-29l188 811h-163l4 25h166l94 409
q20 90 61 150q78 113 213 112q84 0 140 -48t69 -128l47 158h17l-293 -1274q-37 -133 6 -177q24 -26 66 -26z" />
    <glyph glyph-name="f_f_i" unicode="ffi" horiz-adv-x="1423" 
d="M682 1460q51 0 85 -17t34 -50t-31 -33q-41 0 -41 43q0 8 4 24q-25 8 -51 9q-84 0 -153 -64t-107 -225l-74 -311h445l75 323q27 109 64 184q82 160 246 160q76 0 122 -34q46 -33 48 -73q0 -40 -35 -40t-35 39q0 27 18 35q-37 49 -118 49q-145 0 -220 -146
q-37 -68 -61 -178l-74 -319h451l-172 -584q-29 -102 -29 -146t24 -70q25 -24 67 -24t75 36t64 120l20 -6q-33 -94 -70 -134t-91 -40t-85 32t-31 83q0 50 29 153l162 555h-420l-188 -811h-29l186 811h-444l-186 -811h-29l188 811h-163l4 25h166l71 313q43 175 119 243t170 68
z" />
    <glyph glyph-name="f_f_l" unicode="ffl" horiz-adv-x="1445" 
d="M1315 1267q0 34 33 40q-6 80 -56 127t-129 47q-191 0 -245 -238l-95 -407h432l86 372l5 25q-31 0 -31 34zM825 1373q0 -38 -30 -38q-37 0 -37 43q0 18 12 31q-35 27 -98 27q-119 0 -180 -93q-31 -43 -54 -124l-90 -383h447l94 409q18 92 63 156q82 106 211 106
q85 0 141 -48t68 -128l47 158h17l-295 -1274q-17 -68 -17 -110q0 -41 25 -67t67 -26t74 36q33 36 66 120l20 -6q-34 -94 -72 -134t-92 -40t-85 32t-31 77q0 44 16 122l137 592h-432l-188 -811h-29l188 811h-446l-186 -811h-29l186 811h-161l4 25h163l91 385q59 240 264 239
q63 0 107 -24t44 -63z" />
    <glyph glyph-name="f_b" unicode="fb" horiz-adv-x="1511" 
d="M842 1267q0 34 35 40q-7 80 -57 127t-130 47q-119 0 -184 -92q-41 -53 -62 -146l-94 -407h432l86 372l4 25q-30 0 -30 34zM989 12q176 0 289 150t113 321t-73 255t-202 85q-172 -1 -293 -159t-121 -318t79 -248q79 -86 208 -86zM1127 848q128 0 211 -92t83 -274
t-121 -339q-121 -156 -309 -155q-131 0 -214 81t-93 220l-66 -289h-28l186 811h-432l-188 -811h-29l188 811h-163l4 25h166l94 409q20 90 61 150q78 113 213 112q84 0 141 -48t68 -128l47 158h17l-207 -893q59 112 151 182t220 70z" />
    <glyph glyph-name="f_h" unicode="fh" horiz-adv-x="1509" 
d="M842 1267q0 34 32 40q-6 80 -55 127t-129 47q-119 0 -184 -92q-41 -53 -62 -146l-94 -407h432l86 372l4 25q-30 0 -30 34zM1110 848q106 0 160 -51t55 -133q0 -82 -35 -195l-65 -217q-31 -98 -31 -144t25 -70q25 -26 67 -26t74 36q33 36 65 120l21 -6q-35 -94 -72 -134
t-91 -40t-86 32t-32 85q0 52 31 151l66 217q34 115 34 189t-46 118q-46 43 -132 43q-135 0 -253 -134t-165 -337l-82 -352h-28l186 811h-432l-188 -811h-29l188 811h-163l4 25h166l94 409q20 90 61 150q78 113 213 112q84 0 140 -48t69 -128l47 158h17l-220 -952
q63 139 163 225q98 86 204 86z" />
    <glyph glyph-name="f_j" unicode="fj" horiz-adv-x="876" 
d="M705 1479q-150 0 -222 -150q-37 -72 -59 -174l-74 -319h449l-170 -766q-66 -281 -142 -389q-72 -90 -172 -91q-72 0 -71 48q0 12 10 21t25 9q39 0 38 -45l-2 -4v-4q96 0 154 86q74 109 131 373l166 737h-422l-188 -811h-29l186 811h-161l4 25h163l76 323q25 104 62 176
q80 168 248 168q77 0 123 -34q46 -33 46 -73t-34 -40t-35 39q0 25 20 35q-37 49 -120 49z" />
    <glyph glyph-name="f_k" unicode="fk" horiz-adv-x="1400" 
d="M872 1233q-30 0 -30 34t32 40q-6 80 -55 127t-129 47q-119 0 -184 -92q-41 -53 -62 -146l-94 -407h432l86 372q4 16 4 25zM1233 812q0 36 35 36t35 -51q0 -135 -385 -342l112 -271q39 -94 70 -133t69 -39q84 0 129 181l23 -7q-47 -199 -154 -198q-55 0 -86 43
q-35 41 -77 145l-111 266q-113 -57 -193 -90l-82 -352h-28l186 811h-432l-188 -811h-29l188 811h-163l4 25h166l94 409q20 90 61 150q78 113 213 112q84 0 140 -48t69 -128l47 158h17l-256 -1106q195 81 369 193t192 194q-35 6 -35 42z" />
    <glyph glyph-name="f_f_b" unicode="ffb" horiz-adv-x="1982" 
d="M1315 1267q0 34 33 40q-6 80 -56 127t-129 47q-192 0 -245 -238l-95 -407h432l86 372l5 25q-31 0 -31 34zM1462 12q176 0 289 150t113 321t-74 255t-203 85q-172 1 -292 -159q-119 -160 -119 -320t78 -246q79 -86 208 -86zM825 1373q0 -38 -30 -38q-37 0 -37 43
q0 18 12 31q-35 27 -98 27q-119 0 -180 -93q-31 -43 -54 -124l-90 -383h447l94 409q18 92 63 156q82 106 211 106q85 0 141 -48t68 -128l47 158h17l-207 -895q59 114 151 184t220 70t211 -92t83 -274t-120 -339q-120 -156 -310 -155q-131 0 -215 80t-94 215l-63 -283h-29
l186 811h-432l-188 -811h-29l188 811h-446l-186 -811h-29l186 811h-161l4 25h163l91 385q59 240 264 239q63 0 107 -24t44 -63z" />
    <glyph glyph-name="f_f_h" unicode="ffh" horiz-adv-x="1980" 
d="M1315 1267q0 34 33 40q-6 80 -56 127t-129 47q-192 0 -245 -238l-95 -407h432l86 372l5 25q-31 0 -31 34zM825 1373q0 -38 -30 -38q-37 0 -37 43q0 18 12 31q-35 27 -98 27q-119 0 -180 -93q-31 -43 -54 -124l-90 -383h447l94 409q18 92 63 156q82 106 211 106
q85 0 141 -48t68 -128l47 158h17l-224 -963q64 142 164 232t206 90t162 -51q54 -51 54 -133t-35 -195l-65 -217q-31 -98 -31 -144t25 -70q24 -26 66 -26t75 36t65 120l21 -6q-35 -94 -72 -134t-91 -40t-86 32t-32 85q0 52 31 151l66 217q35 115 35 189t-47 118
q-46 43 -132 43q-135 0 -253 -134t-164 -337l-82 -352h-29l186 811h-432l-188 -811h-29l188 811h-446l-186 -811h-29l186 811h-161l4 25h163l91 385q59 240 264 239q63 0 107 -24t44 -63z" />
    <glyph glyph-name="f_f_j" unicode="ffj" horiz-adv-x="1349" 
d="M1178 1503q76 1 123 -33t47 -74t-35 -40t-35 39q0 27 18 35q-37 49 -118 49q-145 0 -220 -146q-37 -68 -61 -178l-74 -319h449l-170 -766q-66 -281 -141 -389q-72 -90 -173 -91q-72 0 -71 48q0 12 10 21t25 9q39 0 39 -45v-4l-3 -4q96 0 154 86q74 109 131 373l164 737
h-420l-188 -811h-29l186 811h-444l-186 -811h-29l188 811h-163l4 25h166l71 313q43 175 119 243t170 68q51 0 85 -17t34 -50t-31 -33q-41 0 -41 43q0 8 4 24q-25 8 -51 9q-84 0 -153 -64t-107 -225l-74 -311h445l75 323q27 109 64 184q82 160 246 160z" />
    <glyph glyph-name="f_f_k" unicode="ffk" horiz-adv-x="1873" 
d="M1315 1267q0 34 33 40q-6 80 -56 127t-129 47q-192 0 -245 -238l-95 -407h432l86 372q4 16 5 25q-31 0 -31 34zM825 1373q0 -38 -30 -38q-37 0 -37 43q0 18 12 31q-35 27 -98 27q-119 0 -180 -93q-31 -43 -54 -124l-90 -383h447l94 409q18 92 63 156q82 106 211 106
q85 0 141 -48t68 -128l47 158h17l-256 -1106q194 81 368 193t193 194q-35 6 -35 42t35 36t35 -51q0 -135 -385 -342l112 -271q39 -94 70 -133t69 -39q84 0 130 181l22 -7q-47 -199 -154 -198q-53 0 -88 43t-75 145l-111 266q-113 -57 -192 -90l-82 -352h-29l186 811h-432
l-188 -811h-29l188 811h-446l-186 -811h-29l186 811h-161l4 25h163l91 385q59 240 264 239q63 0 107 -24t44 -63z" />
    <glyph glyph-name=".notdef" horiz-adv-x="1030" 
d="M514 492l-367 -799h734zM924 1384l-353 -770l353 -770v1540zM104 -156l353 770l-353 770v-1540zM147 1536l367 -799l367 799h-734zM2 -410v2048h1024v-2048h-1024z" />
    <glyph glyph-name=".null" 
 />
    <glyph glyph-name="nonmarkingreturn" horiz-adv-x="681" 
 />
    <glyph glyph-name="space" unicode=" " horiz-adv-x="395" 
 />
    <glyph glyph-name="exclam" unicode="!" horiz-adv-x="391" 
d="M113 -16q-16 0 -28 12q-11 12 -11 28t11 29t27 13t29 -12q28 -29 0 -58q-12 -12 -28 -12zM166 305l225 1043h39l-242 -1043h-22z" />
    <glyph glyph-name="quotedbl" unicode="&#x22;" horiz-adv-x="446" 
d="M276 1364q27 0 27 -21q0 -12 -8 -26l-84 -258h-12l53 270q6 35 24 35zM471 1364q25 0 25 -21q0 -12 -7 -26l-86 -258h-10l53 270q6 35 25 35z" />
    <glyph glyph-name="numbersign" unicode="#" horiz-adv-x="1032" 
d="M403 707l-104 -375h336l102 375h-334zM152 707l6 24h225l78 287h26l-77 -287h333l80 287h27l-78 -287h199l-6 -24h-201l-102 -375h221l-4 -27h-224l-84 -305h-26l82 305h-334l-84 -305h-27l84 305h-200l6 27h200l103 375h-223z" />
    <glyph glyph-name="dollar" unicode="$" horiz-adv-x="835" 
d="M506 983q-113 1 -193 -57t-80 -138q1 -80 51 -134t152 -109l129 434q-29 4 -59 4zM377 35q133 -1 215 63t82 148t-56 141t-167 119l-138 -467q29 -4 64 -4zM74 268q30 0 30 -36t-32 -39q10 -47 70 -91t147 -59l141 475q-223 121 -223 258q0 102 88 167t213 65q23 0 63 -4
l47 161l25 -8l-47 -158q92 -20 152 -70q60 -49 61 -101q0 -52 -34 -52t-34 33t33 41q-12 41 -62 77t-124 48l-129 -443q121 -66 182 -130t61 -144q0 -108 -91 -178t-236 -70q-35 0 -68 4l-63 -223l-25 8l64 219q-107 20 -177 78t-70 116q0 56 38 56z" />
    <glyph glyph-name="percent" unicode="%" horiz-adv-x="1224" 
d="M855 -6q-93 0 -142 55t-49 148t69 175q70 81 163 81q93 1 143 -55q51 -56 51 -149t-71 -174t-164 -81zM372 565q-92 -1 -142 55t-50 149t70 175t163 82t142 -56t49 -148t-69 -175q-70 -82 -163 -82zM375 588q80 0 140 75t60 159q1 84 -41 132t-122 47q-80 0 -142 -74
q-61 -75 -61 -159t43 -132t123 -48zM121 -43l-19 16l1010 1051l16 -18l-501 -525zM858 16q80 0 140 75t60 159t-41 132q-42 48 -122 48t-141 -75q-62 -75 -62 -159t43 -132t123 -48z" />
    <glyph glyph-name="ampersand" unicode="&#x26;" horiz-adv-x="1159" 
d="M391 936q0 -121 72 -242q79 33 111 47q32 15 94 51t90 66q76 76 76 194q0 70 -54 118t-147 48q-94 0 -168 -80q-74 -81 -74 -202zM82 258q0 -114 72 -184t195 -70q122 0 213 71t190 199l-168 205q-90 109 -133 183q-173 -74 -271 -163t-98 -241zM51 258q0 172 124 273
q101 84 261 151q-74 127 -74 256t83 218t187 89t168 -56t64 -133t-26 -129t-53 -83t-95 -70t-98 -52t-115 -50q31 -53 129 -178l162 -199q111 147 170 199q60 52 124 54q64 1 64 -38q0 -29 -30 -29q-14 1 -26 13t-15 28q-57 -2 -109 -51t-162 -192l224 -273l-21 -16
l-219 266q-98 -129 -196 -202q-98 -72 -227 -72q-130 0 -212 76t-82 200z" />
    <glyph glyph-name="quotesingle" unicode="'" horiz-adv-x="253" 
d="M276 1364q27 0 27 -21q0 -12 -8 -26l-84 -258h-12l53 270q6 35 24 35z" />
    <glyph glyph-name="parenleft" unicode="(" horiz-adv-x="606" 
d="M172 383q0 -489 381 -815l-16 -19q-393 334 -394 834q0 363 195 671t524 480l15 -21q-325 -172 -515 -473t-190 -657z" />
    <glyph glyph-name="parenright" unicode=")" horiz-adv-x="606" 
d="M473 700q0 492 -379 816l17 18q393 -334 393 -834q0 -362 -194 -670t-525 -481l-14 23q322 170 512 471t190 657z" />
    <glyph glyph-name="asterisk" unicode="*" horiz-adv-x="692" 
d="M630 934q0 -12 -19 -12t-25 24l-82 211l-154 -160q-14 -16 -27 -16t-18 16q0 14 17 29l176 141l-199 101q-25 10 -25 24q0 20 19 21q8 0 24 -10l185 -125l37 221q2 31 22 31q27 0 14 -37l-59 -217l223 34q6 4 19 4q18 0 18 -18q0 -23 -33 -22l-227 -11l102 -198
q12 -19 12 -31z" />
    <glyph glyph-name="plus" unicode="+" horiz-adv-x="763" 
d="M494 831l-66 -280h274l-6 -27h-274l-72 -303h-26l69 303h-274l4 27h276l66 280h29z" />
    <glyph glyph-name="comma" unicode="," horiz-adv-x="256" 
d="M29 28q0 18 10 28q10 11 24 12q45 0 45 -56t-44 -116q-45 -60 -117 -101l-8 15q125 80 137 180q-20 -2 -34 9q-13 11 -13 29z" />
    <glyph glyph-name="hyphen" unicode="-" horiz-adv-x="452" 
d="M88 535l6 28h307l-6 -28h-307z" />
    <glyph glyph-name="period" unicode="." horiz-adv-x="260" 
d="M72 -16q-16 0 -29 12q-12 12 -12 28t12 29q13 13 29 13t28 -12q28 -29 0 -58q-12 -12 -28 -12z" />
    <glyph glyph-name="slash" unicode="/" horiz-adv-x="722" 
d="M-156 -408l-24 13l1044 1894l23 -12z" />
    <glyph glyph-name="zero" unicode="0" horiz-adv-x="1011" 
d="M457 10q199 0 333 181t134 417q0 186 -90 290t-234 106q-201 0 -336 -182t-135 -416q1 -186 91 -291t237 -105zM457 -14q-160 0 -259 112t-100 308q0 248 144 435t358 187q156 0 255 -113t99 -307q0 -246 -143 -434t-354 -188z" />
    <glyph glyph-name="one" unicode="1" horiz-adv-x="679" 
d="M4 0l4 25h244l223 968l-260 -67v26l287 74l8 -8l-229 -993h241l-6 -25h-512z" />
    <glyph glyph-name="two" unicode="2" horiz-adv-x="905" 
d="M795 788q0 96 -74 156t-197 60q-124 0 -204 -58t-93 -133q37 -6 37 -40t-35 -34t-34 47q0 92 92 167t231 75t223 -66t84 -171q0 -104 -68 -177q-69 -72 -205 -143t-196 -107q-180 -109 -245 -204q-43 -61 -68 -135h614q47 213 56 243h26l-59 -268h-662l-6 16
q47 164 189 272q76 58 136 94q61 36 195 108t198 137t65 161z" />
    <glyph glyph-name="three" unicode="3" horiz-adv-x="917" 
d="M338 -254q-141 0 -247 73q-105 73 -105 171q0 55 39 55q31 0 30 -33q0 -16 -11 -27t-30 -12q8 -82 104 -142t222 -60q170 0 271 97t101 234t-98 217t-266 80h-26l4 27h28q217 0 339 89t122 230q0 109 -78 184t-200 75q-123 0 -203 -50t-98 -120q38 -6 38 -40t-32 -34
q-37 0 -37 49q2 86 98 153q96 66 233 66q138 0 224 -81t86 -210t-108 -220t-289 -107q139 -20 217 -102t78 -217q0 -133 -110 -239q-108 -106 -296 -106z" />
    <glyph glyph-name="four" unicode="4" horiz-adv-x="915" 
d="M688 621l-102 -433h248l-7 -26h-247l-95 -408h-26l94 408h-569l-2 10l784 856l18 -16l-755 -824h530l98 420z" />
    <glyph glyph-name="five" unicode="5" horiz-adv-x="870" 
d="M291 -258q-127 0 -221 62t-95 143q0 49 34 49t34 -34t-35 -38q10 -61 95 -109t190 -48q166 -1 288 119t121 294q0 137 -81 214t-215 77t-254 -49l-15 8l197 586h522l-6 -27h-498q-12 -37 -85 -251t-95 -283q109 41 223 41q158 0 247 -85t89 -229q0 -184 -130 -312
t-310 -128z" />
    <glyph glyph-name="six" unicode="6" horiz-adv-x="993" 
d="M542 737q-154 1 -268 -123q-116 -124 -116 -272t86 -240q92 -92 246 -92t267 128q114 128 113 298q0 133 -87 217t-241 84zM488 -14q-167 0 -266 98t-99 282t79 408q80 222 222 364t334 142q112 0 178 -57t66 -115t-34 -57q-34 -1 -34 31t35 42q-11 49 -69 90t-146 41
q-174 0 -320 -141q-120 -122 -194 -314t-88 -364q33 135 143 230q111 94 263 94t246 -91q95 -91 95 -252t-122 -296t-289 -135z" />
    <glyph glyph-name="seven" unicode="7" horiz-adv-x="823" 
d="M78 -246l-21 15l795 1222h-633l-59 -252h-27l66 277h680l8 -17z" />
    <glyph glyph-name="eight" unicode="8" horiz-adv-x="927" 
d="M464 651q-146 0 -254 -103q-108 -102 -108 -238t88 -217t234 -81t254 98t108 236q0 137 -88 221t-234 84zM535 674q145 0 251 90t106 214t-77 201q-78 77 -194 76q-150 0 -247 -94t-98 -233q0 -106 76 -180t183 -74zM422 -12q-158 0 -253 88t-95 230t104 246
q104 105 264 118q-88 26 -141 98t-53 162q0 146 106 248t269 102q125 0 213 -84t88 -211t-100 -220t-244 -108q106 -27 172 -109t65 -190q-1 -160 -119 -265t-276 -105z" />
    <glyph glyph-name="nine" unicode="9" horiz-adv-x="993" 
d="M870 678q0 154 -91 240t-243 86t-265 -125q-112 -125 -111 -297q0 -136 86 -220t240 -84t269 123t115 277zM274 -258q-110 0 -178 56t-68 114t34 59q34 0 34 -30q0 -35 -35 -41q9 -52 67 -94t148 -42q178 0 322 144q117 117 188 304q72 187 88 355q-36 -133 -144 -223
t-260 -90t-246 93q-95 93 -95 254t123 294t289 133t265 -99t99 -283t-78 -403q-78 -221 -219 -361t-334 -140z" />
    <glyph glyph-name="colon" unicode=":" horiz-adv-x="286" 
d="M90 -16q-16 0 -29 12q-12 12 -12 28t12 29q29 29 58 0q12 -12 12 -28t-12 -29q-13 -12 -29 -12zM231 600q-16 0 -28 12q-29 29 0 58q12 12 28 12q17 0 29 -12t12 -28t-12 -30q-13 -12 -29 -12z" />
    <glyph glyph-name="semicolon" unicode=";" horiz-adv-x="284" 
d="M49 28q0 18 11 28q11 11 26 12q45 0 45 -56t-46 -116t-118 -101l-6 15q125 82 137 180q-20 -2 -35 9q-14 11 -14 29zM231 600q-16 0 -28 12q-29 29 0 58q12 12 28 12q17 0 29 -12t12 -28t-12 -30q-13 -12 -29 -12z" />
    <glyph glyph-name="less" unicode="&#x3c;" horiz-adv-x="724" 
d="M512 199l-389 313l2 10l534 297l15 -22l-510 -283l364 -293z" />
    <glyph glyph-name="equal" unicode="=" horiz-adv-x="763" 
d="M76 358l6 27h577l-4 -27h-579zM141 637l6 25h578l-4 -25h-580z" />
    <glyph glyph-name="greater" unicode="&#x3e;" horiz-adv-x="724" 
d="M104 205l-14 22l510 283l-362 293l16 22l387 -313l-2 -10z" />
    <glyph glyph-name="question" unicode="?" horiz-adv-x="847" 
d="M195 -16q-16 0 -28 12q-11 12 -11 28t11 29t27 13t29 -12q28 -29 0 -58q-12 -12 -28 -12zM587 1333q-128 1 -217 -67t-102 -158q43 -4 43 -41t-35 -37q-41 0 -40 53q0 103 100 189t244 86t235 -84q90 -84 90 -215q0 -168 -137 -284t-418 -144l-80 -322h-20l78 344
q280 23 414 133t135 271q0 123 -81 199t-209 77z" />
    <glyph glyph-name="at" unicode="@" horiz-adv-x="1560" 
d="M707 102q145 0 236 134t91 292q0 110 -57 174t-152 64q-137 0 -235 -121t-98 -291q0 -116 56 -184t159 -68zM631 -344q-246 0 -392 163t-147 425q0 262 116 488t309 358q193 131 431 131t382 -152t144 -391q0 -240 -100 -412t-235 -172q-86 0 -123 52t-21 143
q-39 -88 -117 -149q-80 -60 -184 -60t-168 72q-63 72 -63 202q0 180 107 308q108 127 255 126q111 0 169 -72t57 -186l61 252h29l-113 -452q-25 -100 2 -156t109 -57q125 0 219 167q94 166 94 396t-137 374t-369 144t-418 -128q-188 -128 -299 -348t-111 -476t139 -412
q138 -156 374 -156q193 0 352 86l12 -18q-161 -90 -364 -90z" />
    <glyph glyph-name="A" unicode="A" horiz-adv-x="1396" 
d="M440 547h580l-111 778zM-33 0l6 27h119l785 1294h-195l6 27h445l-7 -27h-188l186 -1294h142l-6 -27h-363l6 27h191l-70 493h-598l-299 -493h209l-6 -27h-363z" />
    <glyph glyph-name="B" unicode="B" horiz-adv-x="1159" 
d="M467 27q135 -1 243 23t195 106q101 90 101 228t-98 220t-285 82h-246l-154 -659h244zM637 711q223 0 343 94t120 250q0 266 -383 266h-195l-141 -610h256zM721 1348q170 0 266 -50q143 -78 143 -251q0 -141 -105 -239t-298 -112q153 -18 231 -99t78 -200
q0 -162 -112 -264q-92 -86 -234 -115q-86 -18 -227 -18h-471l6 27h195l299 1294h-216l7 27h438z" />
    <glyph glyph-name="C" unicode="C" horiz-adv-x="1310" 
d="M700 -18q-250 0 -395 160t-145 409q0 199 90 384t262 309t374 124t316 -93t113 -206q0 -57 -41 -57q-35 0 -35 38t43 44q-8 94 -112 172t-292 78t-352 -122q-164 -120 -250 -300t-86 -371q0 -233 138 -389t374 -156q119 0 243 53t222 148l19 -21q-100 -96 -230 -150
t-256 -54z" />
    <glyph glyph-name="D" unicode="D" horiz-adv-x="1363" 
d="M416 27q432 0 667 235q215 219 215 531q0 225 -137 362q-166 166 -491 166h-148l-299 -1294h193zM672 1348q336 0 510 -174q145 -145 145 -379q0 -330 -223 -553q-238 -242 -692 -242h-420l6 27h195l299 1294h-216l7 27h389z" />
    <glyph glyph-name="E" unicode="E" horiz-adv-x="1118" 
d="M-8 0l6 27h195l299 1294h-216l7 27h911l-64 -281h-30l59 254h-637l-141 -619h496l-7 -26h-495l-152 -649h637l58 254h30l-65 -281h-891z" />
    <glyph glyph-name="F" unicode="F" horiz-adv-x="1062" 
d="M-8 0l6 27h195l299 1294h-216l7 27h891l-64 -281h-31l60 254h-617l-147 -643h493l-6 -27h-493l-146 -624h209l-6 -27h-434z" />
    <glyph glyph-name="G" unicode="G" horiz-adv-x="1388" 
d="M684 -18q-248 0 -386 148t-138 370t93 416t271 323t402 129t346 -131q72 -78 71 -166q0 -51 -38 -51q-14 0 -26 10q-11 10 -11 26t12 30q12 13 31 16q-6 57 -62 121q-49 51 -136 86t-195 34q-209 -1 -380 -127t-259 -314q-89 -188 -89 -398q0 -211 132 -354
q132 -144 372 -144q242 0 443 180l96 379h-447l7 27h475l-148 -592h-28l36 150q-196 -168 -444 -168z" />
    <glyph glyph-name="H" unicode="H" horiz-adv-x="1482" 
d="M-8 0l6 27h195l299 1294h-216l7 27h446l-6 -27h-201l-141 -610h856l139 610h-219l4 27h447l-4 -27h-197l-297 -1294h213l-6 -27h-436l4 27h194l152 657h-854l-154 -657h213l-6 -27h-438z" />
    <glyph glyph-name="I" unicode="I" horiz-adv-x="616" 
d="M-8 0l6 27h205l299 1294h-205l4 27h442l-6 -27h-205l-299 -1294h205l-4 -27h-442z" />
    <glyph glyph-name="J" unicode="J" horiz-adv-x="1032" 
d="M371 -18q-133 0 -224 77q-90 78 -90 211q0 78 49 78q35 0 35 -35q0 -45 -55 -45q0 -116 80 -188t207 -72q188 0 282 158q70 109 125 356l187 799h-234l6 27h453l-6 -27h-191l-184 -801q-59 -258 -129 -368q-108 -170 -311 -170z" />
    <glyph glyph-name="K" unicode="K" horiz-adv-x="1263" 
d="M1266 1321l-658 -565l363 -729h190l-4 -27h-205l-364 739l-250 -215l-115 -497h213l-6 -27h-438l6 27h195l299 1294h-216l7 27h446l-6 -27h-201l-176 -758l879 758h-236l6 27h428l-6 -27h-151z" />
    <glyph glyph-name="L" unicode="L" horiz-adv-x="1011" 
d="M-8 0l6 27h195l299 1294h-216l7 27h446l-6 -27h-201l-299 -1294h584l59 260h29l-66 -287h-837z" />
    <glyph glyph-name="M" unicode="M" horiz-adv-x="1660" 
d="M-25 0l7 27h200l344 1294h-215l6 27h248l226 -1102l731 1102h229l-6 -27h-193l-254 -1294h218l-5 -27h-434l4 27h189l248 1267l-732 -1099h-14l-225 1099l-336 -1267h205l-6 -27h-435z" />
    <glyph glyph-name="N" unicode="N" horiz-adv-x="1478" 
d="M1102 -10l-590 1306l-289 -1269h215l-6 -27h-438l4 27h197l294 1294h-210l6 27h233l590 -1303l291 1276h-221l6 27h446l-6 -27h-194l-306 -1331h-22z" />
    <glyph glyph-name="O" unicode="O" horiz-adv-x="1460" 
d="M698 8q193 0 356 118t252 299t89 395q-1 214 -137 369t-373 154q-195 1 -357 -117t-250 -300t-90 -395q0 -213 137 -368t373 -155zM696 -18q-246 0 -391 162t-145 403q0 201 90 388t260 310t377 123q246 0 392 -162t146 -382t-90 -407t-261 -311t-378 -124z" />
    <glyph glyph-name="P" unicode="P" horiz-adv-x="1071" 
d="M565 567q248 0 388 120t141 308q0 109 -60 191t-154 108t-200 27h-158l-172 -743q143 -11 215 -11zM684 1348q269 0 375 -143q66 -89 65 -208q0 -203 -152 -329t-409 -127q-111 0 -217 12l-123 -526h213l-6 -27h-438l6 27h195l299 1294h-242l4 27h430z" />
    <glyph glyph-name="Q" unicode="Q" horiz-adv-x="1468" 
d="M698 8q193 0 356 118t252 299t89 395q-1 214 -137 369t-373 154q-195 1 -357 -117t-250 -300t-90 -395q0 -213 137 -368t373 -155zM1425 805q0 -199 -89 -385t-257 -310t-370 -128q66 -102 168 -174q103 -72 211 -72t190 43l10 -25q-94 -45 -184 -45q-135 0 -246 80
t-180 193q-240 8 -379 168t-139 379t90 406t260 310t377 123q246 0 392 -162t146 -401z" />
    <glyph glyph-name="R" unicode="R" horiz-adv-x="1165" 
d="M578 629q246 0 385 103t139 274q0 133 -74 204q-109 111 -358 111h-148l-157 -686q57 -6 213 -6zM580 602q-129 0 -222 6l-135 -581h213l-6 -27h-438l6 27h195l299 1294h-216l7 27h389q262 0 379 -119q82 -77 82 -231t-121 -262t-336 -128l256 -581h164l-6 -27h-179
l-264 604l-36 -2h-31z" />
    <glyph glyph-name="S" unicode="S" horiz-adv-x="1003" 
d="M470 -18q-175 0 -289 84t-113 178q0 49 41 49q33 0 33 -36t-36 -40q16 -82 116 -145q100 -64 255 -64q154 0 256 89q103 89 103 207t-62 196q-62 76 -202 178q-142 102 -205 184t-64 189q0 141 109 229q108 88 262 88t249 -74t95 -166q0 -49 -37 -49t-37 36t37 42
q-14 76 -95 131t-218 55t-237 -79q-99 -80 -99 -211q0 -100 60 -177t203 -180q143 -104 206 -182t63 -192q0 -147 -109 -244q-110 -96 -285 -96z" />
    <glyph glyph-name="T" unicode="T" horiz-adv-x="1173" 
d="M283 0l6 27h192l297 1294h-467l-61 -268h-29l68 295h1024l-68 -295h-28l61 268h-467l-299 -1294h213l-6 -27h-436z" />
    <glyph glyph-name="U" unicode="U" horiz-adv-x="1374" 
d="M633 -18q-168 0 -274 90q-105 90 -105 266q0 76 31 213l176 770h-213l6 27h446l-6 -27h-202l-179 -774q-31 -137 -30 -207q0 -166 97 -249q96 -83 272 -83t288 120t168 376l188 817h-221l6 27h447l-6 -27h-195l-190 -819q-61 -270 -179 -395t-325 -125z" />
    <glyph glyph-name="V" unicode="V" horiz-adv-x="1370" 
d="M559 -33l-184 1354h-148l6 27h373l-4 -27h-196l176 -1303l766 1303h-207l4 27h375l-7 -27h-133l-800 -1354h-21z" />
    <glyph glyph-name="W" unicode="W" horiz-adv-x="1914" 
d="M463 -35l-68 1356h-162l7 27h387l-6 -27h-195l61 -1296l592 1122h19l106 -1122l672 1296h-195l7 27h387l-7 -27h-157l-711 -1356h-18l-105 1120l-594 -1120h-20z" />
    <glyph glyph-name="X" unicode="X" horiz-adv-x="1388" 
d="M-49 0l6 27h170l616 667l-284 627h-174l6 27h401l-4 -27h-196l270 -608l561 608h-195l7 27h401l-6 -27h-172l-584 -631l303 -663h176l-6 -27h-401l4 27h194l-288 645l-594 -645h196l-6 -27h-401z" />
    <glyph glyph-name="Y" unicode="Y" horiz-adv-x="1269" 
d="M303 0l6 27h207l131 548l-278 746h-138l7 27h370l-4 -27h-205l267 -721l612 721h-201l6 27h371l-4 -27h-135l-639 -750l-129 -544h215l-4 -27h-455z" />
    <glyph glyph-name="Z" unicode="Z" horiz-adv-x="1169" 
d="M-2 0v16l1225 1305h-856l-60 -256h-28l63 283h928v-17l-1225 -1304h899l62 256h28l-65 -283h-971z" />
    <glyph glyph-name="bracketleft" unicode="[" horiz-adv-x="616" 
d="M33 -410l444 1909h373l-6 -26h-344l-430 -1856h342l-4 -27h-375z" />
    <glyph glyph-name="backslash" unicode="\" horiz-adv-x="829" 
d="M528 -401l-129 1896l29 2l129 -1896z" />
    <glyph glyph-name="bracketright" unicode="]" horiz-adv-x="616" 
d="M-174 -410l4 27h344l432 1856h-344l6 26h373l-442 -1909h-373z" />
    <glyph glyph-name="asciicircum" unicode="^" horiz-adv-x="837" 
d="M252 813l-10 12l307 215l192 -215l-12 -10l-186 178z" />
    <glyph glyph-name="underscore" unicode="_" horiz-adv-x="993" 
d="M-158 -248l4 29h1006l-4 -29h-1006z" />
    <glyph glyph-name="grave" unicode="`" horiz-adv-x="1030" 
d="M600 1204q0 18 18 19q16 0 31 -15l230 -188l-9 -10l-247 164q-23 12 -23 30z" />
    <glyph glyph-name="a" unicode="a" horiz-adv-x="1056" 
d="M381 12q174 0 293 163t119 345q0 133 -77 218t-198 85q-170 -1 -285 -155t-114 -351q-1 -145 71 -225t191 -80zM372 -12q-122 0 -202 86t-80 241q0 209 123 371t305 162q123 0 205 -82t90 -217l70 287h28l-153 -625q-16 -69 -16 -107t22 -65q24 -27 66 -27t74 35t67 121
l20 -6q-35 -94 -73 -134t-90 -40q-54 0 -84 34t-30 77t17 116l6 23q-57 -110 -150 -180t-215 -70z" />
    <glyph glyph-name="b" unicode="b" horiz-adv-x="1019" 
d="M496 12q178 0 290 150t113 321q0 171 -73 255t-201 85q-174 -1 -294 -159t-120 -318t79 -248q79 -86 206 -86zM636 848q128 0 210 -92t82 -274t-119 -339q-119 -156 -309 -155q-133 0 -217 85t-90 224l-68 -297h-29l344 1475h-176l4 24h205l-209 -903q56 112 150 182
t222 70z" />
    <glyph glyph-name="c" unicode="c" horiz-adv-x="870" 
d="M431 -12q-146 0 -245 97q-98 97 -98 281t131 332q131 150 318 150q127 0 203 -65t77 -144q0 -51 -33 -51q-32 0 -32 34t36 37q-10 68 -77 116q-68 48 -176 48q-174 0 -296 -143q-122 -144 -122 -316t89 -262t230 -90t266 97l-4 -31q-121 -90 -267 -90z" />
    <glyph glyph-name="d" unicode="d" horiz-adv-x="1079" 
d="M395 12q172 0 293 159t121 319t-80 246q-80 87 -207 87q-178 1 -291 -149t-113 -322t74 -256t203 -84zM90 352q0 182 120 340q120 156 310 156q131 0 215 -83t90 -222l215 932h-176l4 24h207l-295 -1282q-18 -79 -18 -115t22 -63t67 -27q44 0 76 36t64 120l21 -6
q-35 -94 -72 -134t-91 -40t-84 34t-30 88q1 54 13 92t12 46q-56 -115 -152 -188q-96 -72 -225 -72t-211 91t-82 273z" />
    <glyph glyph-name="e" unicode="e" horiz-adv-x="903" 
d="M784 559q0 125 -66 195t-196 69q-130 0 -242 -102t-149 -258h643q10 51 10 96zM117 334q0 -150 88 -236t230 -86t267 72l-6 -29q-123 -67 -269 -67t-244 93q-97 93 -97 255q0 208 131 360t322 152q127 0 201 -78t73 -213q0 -45 -16 -119h-670q-10 -57 -10 -104z" />
    <glyph glyph-name="f" unicode="f" horiz-adv-x="544" 
d="M756 1411q-18 0 -29 11q-10 12 -10 28t6 25q-16 4 -35 4q-84 0 -143 -60q-76 -74 -121 -260l-74 -323h232l-4 -25h-234l-188 -811h-29l188 811h-163l4 25h166l75 327q43 195 123 269t170 73q47 0 73 -17t25 -42q0 -35 -32 -35z" />
    <glyph glyph-name="g" unicode="g" horiz-adv-x="995" 
d="M403 16q172 0 293 164t121 338q0 133 -81 219t-212 86q-172 1 -286 -151t-115 -316t75 -252t205 -88zM307 -410q-69 0 -137 25q-128 48 -129 131q0 41 35 41q34 0 34 -44q0 -22 -28 -32q20 -43 88 -69t141 -27q182 0 281 109q70 82 115 264l61 266q-58 -114 -154 -188
t-224 -74t-213 94t-85 270t123 334t309 158q135 0 219 -84t93 -217l65 284h29l-195 -845q-45 -195 -125 -281q-102 -115 -303 -115z" />
    <glyph glyph-name="h" unicode="h" horiz-adv-x="1017" 
d="M620 848q106 0 159 -51q55 -51 55 -133t-35 -195l-66 -217q-31 -98 -31 -144t25 -70q25 -26 68 -26t75 36t64 120l22 -6q-34 -94 -72 -134t-92 -40t-86 32t-32 85q0 52 31 151l65 217q35 115 35 182q0 168 -178 168q-135 0 -253 -134t-165 -337l-84 -352h-29l348 1475
h-176l4 24h207l-229 -971q64 140 164 230t206 90z" />
    <glyph glyph-name="i" unicode="i" horiz-adv-x="524" 
d="M265 -12q-54 0 -86 32t-32 80q0 47 31 156l164 555h-182l6 25h209l-168 -584q-31 -98 -31 -144t25 -70q25 -26 67 -26t73 36q32 36 65 120l22 -6q-35 -94 -72 -134t-91 -40zM393 1085q-35 0 -35 37q0 14 10 24t25 11q15 0 25 -10t10 -25q0 -37 -35 -37z" />
    <glyph glyph-name="j" unicode="j" horiz-adv-x="438" 
d="M367 1085q-35 0 -35 36t35 36t35 -36t-35 -36zM-125 -410q-70 0 -70 48q-1 12 9 21t26 9t28 -13t11 -32v-8q94 4 152 86q70 106 131 373l164 737h-183l4 25h211l-170 -766q-61 -284 -134 -382t-179 -98z" />
    <glyph glyph-name="k" unicode="k" horiz-adv-x="911" 
d="M743 811q1 17 11 27t23 10t25 -14t11 -37q0 -135 -385 -342l111 -271q39 -94 69 -133t72 -39q82 0 129 181l20 -7q-47 -199 -153 -198q-51 0 -86 43t-76 145l-113 266q-121 -61 -192 -88l-82 -354h-29l342 1475h-172l4 24h201l-258 -1118q199 82 372 196t189 193
q-33 6 -33 41z" />
    <glyph glyph-name="l" unicode="l" horiz-adv-x="485" 
d="M250 -12q-53 0 -85 34t-32 80t19 121l288 1252h-170l4 24h201l-297 -1282q-16 -67 -16 -109t24 -69t66 -27q43 0 76 36t63 120l21 -6q-35 -94 -72 -134t-90 -40z" />
    <glyph glyph-name="m" unicode="m" horiz-adv-x="1544" 
d="M626 848q96 0 145 -50q48 -50 48 -139q0 -43 -14 -118q66 141 166 224q101 83 197 83t146 -50t50 -134t-37 -195l-67 -217q-29 -92 -29 -140q-1 -48 23 -74t65 -26q84 0 143 156l21 -6q-35 -94 -72 -134t-92 -40t-86 32t-31 86q0 53 31 152l65 215q37 121 37 193t-42 114
q-42 43 -117 43q-131 0 -246 -131t-170 -334l-96 -358h-29l127 473q31 109 31 182q0 168 -156 168q-129 0 -245 -133t-167 -336l-88 -354h-28l202 811h-174l4 25h205l-80 -312q68 148 166 236t194 88z" />
    <glyph glyph-name="n" unicode="n" horiz-adv-x="1030" 
d="M805 -12q-55 0 -86 32t-31 85q0 52 31 151l67 217q35 104 35 182q0 168 -176 168q-133 0 -251 -133t-169 -336l-88 -354h-28l202 811h-174l4 25h205l-80 -312q68 148 169 236t205 88t156 -50q54 -50 54 -132t-35 -197l-70 -217q-29 -102 -29 -146t24 -68q24 -26 67 -26
t76 36t65 120l21 -6q-35 -94 -72 -134t-92 -40z" />
    <glyph glyph-name="o" unicode="o" horiz-adv-x="968" 
d="M438 12q174 0 292 142t118 313q0 172 -89 264t-231 92q-174 0 -292 -142q-118 -141 -117 -313q0 -172 90 -264t229 -92zM438 -12q-150 0 -249 98t-99 280t126 332t312 150q152 0 250 -98t98 -282t-124 -332q-126 -148 -314 -148z" />
    <glyph glyph-name="p" unicode="p" horiz-adv-x="1040" 
d="M520 12q174 0 288 150t114 320t-74 256t-203 85q-172 1 -293 -159t-121 -320t79 -246t210 -86zM658 848q128 0 210 -92t82 -274t-120 -339q-120 -156 -310 -155q-131 0 -214 81t-91 218l-156 -664h181l-7 -24h-329l4 24h123l276 1188h-176l6 25h203l-57 -250
q55 114 151 188t224 74z" />
    <glyph glyph-name="q" unicode="q" horiz-adv-x="1005" 
d="M397 12q172 0 293 159t121 319t-79 246q-79 87 -208 87q-176 1 -288 -149t-113 -322q1 -172 73 -256t201 -84zM384 -12q-128 0 -210 91t-82 273t120 340q120 156 310 156q129 0 213 -81t94 -216l66 285h29l-281 -1213h176l-4 -24h-207l148 637q-60 -112 -152 -180
t-220 -68z" />
    <glyph glyph-name="r" unicode="r" horiz-adv-x="600" 
d="M555 848q31 0 51 -18t21 -37q0 -35 -33 -35q-18 0 -29 12q-10 12 -10 26t4 19q-4 2 -14 2q-82 0 -172 -135t-142 -342l-86 -340h-28l200 811h-174l4 25h205l-80 -318q60 160 136 245t147 85z" />
    <glyph glyph-name="s" unicode="s" horiz-adv-x="768" 
d="M366 -12q-189 0 -276 106q-37 51 -37 94t35 43q29 1 29 -33t-31 -42q6 -25 29 -50q78 -94 235 -94q108 0 176 54t68 133q0 78 -51 124t-155 96t-160 99q-54 49 -54 130t75 140t181 60q162 0 240 -90q35 -37 35 -78t-33 -41t-33 35q0 29 29 39q-12 25 -27 39
q-72 72 -211 71q-94 0 -161 -52q-67 -53 -67 -123t49 -113t155 -95t161 -101q55 -50 55 -140q0 -91 -76 -151q-78 -60 -180 -60z" />
    <glyph glyph-name="t" unicode="t" horiz-adv-x="573" 
d="M252 12q76 0 188 97l15 -19q-119 -102 -193 -102q-146 0 -145 135q0 41 18 106l144 582h-164l4 25h166l57 227l31 6l-60 -233h273l-6 -25h-273l-145 -584q-16 -73 -16 -115t28 -71q29 -29 78 -29z" />
    <glyph glyph-name="u" unicode="u" horiz-adv-x="1040" 
d="M188 173q0 -71 44 -116t124 -45q131 0 248 133t166 334l88 357h29l-154 -625q-16 -69 -16 -107q1 -38 23 -65t66 -27t76 36t64 120l21 -6q-35 -94 -72 -134t-90 -40t-84 32t-31 80t17 119l22 86q-66 -141 -166 -229q-101 -88 -201 -88t-152 52t-52 122t37 217l106 432
h-176l6 25h203l-113 -459q-33 -133 -33 -204z" />
    <glyph glyph-name="v" unicode="v" horiz-adv-x="890" 
d="M787 770q-12 0 -26 12q-13 12 -13 28t9 28q9 10 23 10q49 0 49 -80q0 -143 -129 -361t-338 -442h-12l-127 846h-164l7 25h182l123 -828q426 473 434 764q-6 -2 -18 -2z" />
    <glyph glyph-name="w" unicode="w" horiz-adv-x="1280" 
d="M1167 762v8q-6 -2 -18 -2t-26 12q-13 12 -13 31q0 35 33 35q51 0 51 -84q0 -129 -100 -354t-252 -443h-17l-143 703l-387 -703h-14l-54 846h-164l5 25h186l49 -811l379 692h14l148 -709q139 207 231 421t92 333z" />
    <glyph glyph-name="x" unicode="x" horiz-adv-x="933" 
d="M39 78q19 0 29 -13t10 -27t-8 -24q4 -2 12 -2q88 0 229 197q141 207 148 217l-150 385h-155l4 25h174l143 -385q80 131 123 188q146 209 234 209q42 0 63 -16q20 -16 20 -36q0 -40 -32 -40q-39 0 -39 41q0 14 8 22q-4 2 -14 2q-44 0 -94 -45q-50 -46 -138 -170t-119 -178
l91 -238q40 -106 68 -142t65 -36q68 0 110 154l21 -6q-27 -94 -58 -133q-30 -39 -76 -39t-79 40t-76 150l-84 225q-20 -37 -139 -210q-146 -205 -234 -205t-90 53q0 37 33 37z" />
    <glyph glyph-name="y" unicode="y" horiz-adv-x="901" 
d="M-70 -403q-31 0 -50 13t-19 36q0 33 33 32q43 0 43 -43q0 -8 -3 -14q63 4 178 93q114 89 261 268l-160 829h-162l4 25h183l157 -830q170 209 291 431t123 335q-6 -2 -18 -2t-26 12q-13 12 -13 31q0 35 32 35q51 0 52 -74q0 -115 -128 -348t-307 -449q-311 -380 -471 -380
z" />
    <glyph glyph-name="z" unicode="z" horiz-adv-x="819" 
d="M506 8q72 0 117 51t75 160l23 -4q-33 -117 -83 -174t-134 -57q-37 0 -138 22t-159 23q-123 0 -203 -43l-12 16l780 809h-555l-45 -178h-25l50 203h608l8 -17l-766 -792q112 50 323 4q101 -23 136 -23z" />
    <glyph glyph-name="braceleft" unicode="{" horiz-adv-x="557" 
d="M47 -145q0 93 43 159t119 138q152 139 151 241q0 59 -51 101t-149 43h-64l8 28h66q127 0 196 52q133 100 5 358q-66 135 -66 231q0 135 114 222t308 92l-4 -25q-177 -2 -283 -84t-106 -205q0 -94 64 -226q125 -257 2 -366q-62 -55 -167 -65q70 -8 113 -52t43 -104
q0 -109 -158 -258q-156 -143 -155 -270q0 -92 59 -162t166 -104l-6 -25q-113 35 -181 112t-67 169z" />
    <glyph glyph-name="bar" unicode="|" horiz-adv-x="460" 
d="M215 -410v1909h29v-1909h-29z" />
    <glyph glyph-name="braceright" unicode="}" horiz-adv-x="557" 
d="M276 -113q0 93 -66 225t-65 222q-1 90 63 145t169 66q-70 8 -113 52t-43 103q0 111 156 258q158 145 158 271q-1 92 -61 162t-167 104l8 25q113 -35 180 -112t66 -179q0 -137 -156 -283t-155 -246q0 -59 50 -101t149 -42h63l-6 -29h-66q-126 0 -196 -52t-70 -138t65 -220
t64 -231q1 -135 -113 -222t-307 -91l4 25q176 2 283 84q106 82 106 204z" />
    <glyph glyph-name="asciitilde" unicode="~" horiz-adv-x="948" 
d="M637 440q-63 0 -149 66t-133 65q-47 1 -77 -29t-57 -96l-20 7q55 147 155 147q62 0 148 -66t134 -65q48 0 80 31t60 96l21 -6q-60 -150 -162 -150z" />
    <glyph glyph-name="uni00A0" unicode="&#xa0;" horiz-adv-x="395" 
 />
    <glyph glyph-name="exclamdown" unicode="&#xa1;" horiz-adv-x="391" 
d="M80 0l242 1042h20l-223 -1042h-39zM395 1282q-16 0 -27 12q-27 29 0 58q11 12 27 12q17 0 29 -12t12 -28t-12 -30q-13 -12 -29 -12z" />
    <glyph glyph-name="cent" unicode="&#xa2;" horiz-adv-x="872" 
d="M135 432q0 -121 53 -201t144 -108l235 797q-176 4 -304 -138t-128 -350zM432 86q-47 0 -82 8l-90 -301l-24 6l90 301q-100 31 -161 116q-60 85 -61 216q0 219 140 369t329 141l68 223l25 -6l-66 -219q110 -12 174 -74t64 -124t-33 -62t-33 34t37 40q-7 57 -65 105
t-150 59l-238 -801q33 -8 78 -8q141 0 277 104l-4 -31q-125 -96 -275 -96z" />
    <glyph glyph-name="sterling" unicode="&#xa3;" horiz-adv-x="903" 
d="M623 1024q113 0 185 -59t71 -121q0 -62 -35 -62q-33 0 -33 34t35 38q-8 57 -70 101t-153 44q-164 -1 -249 -113t-85 -270q0 -59 11 -156t13 -141h353l-7 -24h-346v-10q0 -240 -223 -414q92 6 230 -43t236 -49t212 92l16 -18q-123 -99 -227 -99t-250 52t-239 40
q-50 -63 -86 -63t-35 24q0 18 30 37q31 18 80 25q225 176 226 416v10h-199l6 24h193q-3 41 -13 141t-10 156q0 166 92 287t271 121z" />
    <glyph glyph-name="yen" unicode="&#xa5;" horiz-adv-x="952" 
d="M154 457l6 24h295l-191 514h-131l6 25h346l-6 -25h-184l188 -518l430 518h-180l6 25h346l-6 -25h-133l-432 -514h299l-6 -24h-313l-41 -174h315l-6 -23h-313l-54 -235h189l-4 -25h-406l4 25h189l55 235h-313l6 23h311l41 174h-313z" />
    <glyph glyph-name="section" unicode="&#xa7;" horiz-adv-x="823" 
d="M694 492q0 53 -53 93t-154 79l-45 18q-130 -16 -200 -58t-70 -98t50 -93q50 -38 147 -77l53 -22q272 37 272 158zM504 1006q-88 0 -148 -40t-59 -100q0 -60 52 -101q53 -40 157 -81t160 -85t57 -107q0 -62 -71 -108t-199 -65q143 -68 143 -165q0 -70 -67 -119t-174 -49
t-180 48t-73 96t32 48t32 -30t-27 -35q11 -41 73 -72t149 -31t147 42q59 42 59 102t-51 98q-50 37 -158 81t-161 86t-54 105q0 131 267 172q-141 70 -142 170q0 70 68 117t175 47t177 -47t70 -94t-33 -47q-14 0 -24 9q-9 9 -9 21q0 29 27 35q-11 39 -69 69t-146 30z" />
    <glyph glyph-name="dieresis" unicode="&#xa8;" horiz-adv-x="1030" 
d="M504 1083q0 39 38 39t38 -39q0 -16 -12 -26t-27 -10q-16 0 -27 11q-10 11 -10 25zM721 1083q0 39 37 39t39 -39q1 -14 -11 -25t-27 -11t-27 10q-11 10 -11 26z" />
    <glyph glyph-name="copyright" unicode="&#xa9;" horiz-adv-x="1191" 
d="M630 250q-110 0 -184 80t-74 194t79 193q78 78 170 78t150 -41t58 -84q1 -43 -25 -43q-26 1 -26 27t25 30q-11 34 -59 62t-109 28q-98 0 -168 -74t-70 -178t68 -178t167 -74t183 72l12 -16q-87 -76 -197 -76zM618 -2q215 0 358 149q142 150 142 366t-142 366
q-142 149 -358 149t-357 -150q-142 -150 -142 -366q0 -214 142 -364t357 -150zM618 -23q-225 0 -373 155t-149 380q0 225 148 381t374 156t374 -156t148 -381t-148 -380q-149 -155 -374 -155z" />
    <glyph glyph-name="ordfeminine" unicode="&#xaa;" horiz-adv-x="620" 
d="M115 680l6 20h495l-6 -20h-495zM336 860q102 0 174 99t72 193t-46 143q-46 51 -132 51t-156 -92t-70 -196q0 -102 43 -150t115 -48zM332 840q-80 0 -129 53t-49 165t75 212q76 98 189 98q74 0 123 -47t53 -123l41 162h24l-96 -385q-8 -33 -8 -62q0 -53 48 -53t87 94
l19 -6q-43 -109 -107 -108q-70 0 -70 73q0 23 11 68q-82 -141 -211 -141z" />
    <glyph glyph-name="guillemotleft" unicode="&#xab;" horiz-adv-x="776" 
d="M352 225l-270 320l424 317l14 -18l-401 -303l252 -299zM614 225l-270 320l424 317l14 -18l-401 -303l252 -299z" />
    <glyph glyph-name="registered" unicode="&#xae;" horiz-adv-x="759" 
d="M465 1051h53q49 1 82 25t33 63q0 88 -111 88h-57v-176zM655 1139q0 -78 -88 -101l80 -143h58v-21h-72l-90 158h-78v-137h61v-21h-145v21h61v332h-61v20h143q131 0 131 -108zM526 1399q-141 -1 -235 -101t-94 -244t94 -244t235 -101q141 0 235 100q93 101 93 245t-94 244
t-234 101zM526 688q-154 0 -253 106t-99 259q0 154 99 260t253 106t253 -106t99 -260q0 -153 -98 -259q-100 -106 -254 -106z" />
    <glyph glyph-name="macron" unicode="&#xaf;" horiz-adv-x="1030" 
d="M369 1071l6 29h532l-6 -29h-532z" />
    <glyph glyph-name="degree" unicode="&#xb0;" horiz-adv-x="634" 
d="M395 897q92 0 161 77t69 172q-1 95 -51 146t-141 51q-91 1 -161 -77t-70 -172t51 -146q50 -51 142 -51zM435 1366q103 0 159 -58t57 -162t-77 -189t-180 -85t-162 60q-58 60 -58 162t79 187t182 85z" />
    <glyph glyph-name="plusminus" unicode="&#xb1;" horiz-adv-x="763" 
d="M35 174l4 27h579l-6 -27h-577zM512 924l-66 -281h275l-4 -27h-277l-69 -294h-27l70 294h-277l6 27h277l65 281h27z" />
    <glyph glyph-name="two.sup" unicode="&#xb2;" horiz-adv-x="722" 
d="M811 1464q0 66 -50 107t-134 41q-83 0 -147 -42t-72 -91q30 -4 30 -33t-28 -29t-29 53q0 52 72 108t172 56t156 -47q57 -47 57 -123t-60 -131t-146 -101q-231 -122 -303 -220q-36 -49 -59 -109h428l41 168h23l-43 -190h-475l-6 12q48 131 143 206t213 138
q217 111 217 227z" />
    <glyph glyph-name="three.sup" unicode="&#xb3;" horiz-adv-x="722" 
d="M770 1078q0 -78 -76 -141t-180 -63q-106 0 -174 48t-68 103q0 54 30 54t30 -30q0 -11 -10 -21t-25 -10q11 -49 69 -86t150 -37t160 57q68 58 68 134t-56 122q-55 46 -137 47h-45l4 23h39q109 0 181 54t73 125q0 71 -53 113q-52 42 -134 42t-135 -32t-61 -71q31 -1 31 -29
t-29 -28t-29 48q1 48 63 91t158 43t156 -49t59 -123q0 -74 -61 -129t-158 -67q72 -12 116 -60q44 -50 44 -128z" />
    <glyph glyph-name="acute" unicode="&#xb4;" horiz-adv-x="1030" 
d="M805 1210q23 0 22 -22q0 -16 -28 -29l-285 -149l-6 10l264 176q23 14 33 14z" />
    <glyph glyph-name="paragraph" unicode="&#xb6;" horiz-adv-x="1009" 
d="M506 25h121l262 970h-121zM147 659q0 161 117 261t307 100h498l-6 -25h-145l-261 -970h146l-6 -25h-480l7 25h153l96 358q-262 0 -354 92q-72 72 -72 184z" />
    <glyph glyph-name="periodcentered" unicode="&#xb7;" horiz-adv-x="430" 
d="M270 483q0 -17 -12 -29t-28 -12q-17 0 -28 12t-12 29q0 41 40 41t40 -41z" />
    <glyph glyph-name="cedilla" unicode="&#xb8;" horiz-adv-x="1030" 
d="M537 -273q-1 -57 -47 -97t-140 -40t-192 60l12 20q100 -55 181 -55t119 33t38 82q0 50 -40 78t-122 26l-4 6l74 170l20 -8l-59 -145q82 -4 121 -39t39 -91z" />
    <glyph glyph-name="one.sup" unicode="&#xb9;" horiz-adv-x="722" 
d="M279 881l4 22h211l165 699l-235 -72v24l254 78l12 -6l-170 -723h207l-6 -22h-442z" />
    <glyph glyph-name="ordmasculine" unicode="&#xba;" horiz-adv-x="638" 
d="M233 1072q1 -106 57 -162t152 -56t169 87t73 193t-55 162q-55 58 -151 58t-171 -88q-74 -88 -74 -194zM150 680l6 20h460l-6 -20h-460zM478 1376q108 0 170 -63t62 -178t-80 -209t-188 -95t-170 63t-63 179q0 115 81 209t188 94z" />
    <glyph glyph-name="guillemotright" unicode="&#xbb;" horiz-adv-x="776" 
d="M66 225l-17 21l404 301l-252 299l18 16l270 -319zM328 225l-17 21l404 301l-252 299l18 16l271 -319z" />
    <glyph glyph-name="onequarter" unicode="&#xbc;" horiz-adv-x="1628" 
d="M1417 1300l-1095 -1310l-17 14l549 655q274 326 547 654zM184 573l4 23h211l166 698l-235 -71v24l254 78l12 -6l-170 -723h207l-6 -23h-443zM1231 20l51 218h-371l-4 12l506 504l17 -17l-484 -479h340l53 221l29 15l-55 -234h145l-4 -22h-145l-52 -218h119l-4 -20h-287
l7 20h139z" />
    <glyph glyph-name="onehalf" unicode="&#xbd;" horiz-adv-x="1628" 
d="M1393 1300l-1096 -1310l-16 14l548 655q274 326 547 654zM162 573l4 23h211l166 698l-236 -71v24l254 78l12 -6l-170 -723h207l-6 -23h-442zM1460 584q0 66 -50 106t-134 41q-84 0 -148 -42t-71 -91q31 -4 30 -31q0 -31 -28 -30q-29 0 -29 53t72 108q72 56 172 56
t156 -47t57 -123t-59 -131t-147 -101q-127 -68 -222 -138q-94 -70 -139 -191h428l41 167h22l-43 -190h-475l-6 12q48 131 141 204q93 74 215 140q217 111 217 228z" />
    <glyph glyph-name="threequarters" unicode="&#xbe;" horiz-adv-x="1628" 
d="M721 771q1 -79 -75 -141t-182 -63q-106 0 -173 48q-68 49 -68 103t30 54t30 -31q-1 -12 -11 -21t-24 -9q10 -49 68 -86t150 -37t161 57q67 57 67 133t-55 123t-137 47h-45l4 23h39q110 0 182 54t72 125t-54 113t-134 42q-81 0 -134 -32t-61 -71q31 0 30 -28
q0 -29 -26 -29q-31 0 -31 48t62 91t159 43q95 0 155 -49t60 -123t-61 -129t-158 -68q72 -12 116 -60t44 -127zM1446 1300l-1096 -1310l-16 14l549 655q274 326 547 654zM1227 20l51 218h-371l-4 12l506 504l16 -17l-483 -479h340l53 221l29 15l-55 -234h145l-4 -22h-145
l-52 -218h119l-4 -20h-287l6 20h140z" />
    <glyph glyph-name="questiondown" unicode="&#xbf;" horiz-adv-x="847" 
d="M382 -10q-144 0 -235 85q-90 85 -90 216q-1 169 137 283t418 145l82 319h21l-78 -342q-281 -26 -416 -136t-135 -269q0 -123 81 -199t210 -76t217 68t100 158q-18 0 -30 12t-13 29q0 37 37 36q16 0 28 -14t11 -39q0 -104 -100 -190q-101 -86 -245 -86zM769 1282
q-17 0 -29 12q-11 12 -11 29q0 41 40 41t40 -41q0 -16 -11 -29q-12 -12 -29 -12z" />
    <glyph glyph-name="Agrave" unicode="&#xc0;" horiz-adv-x="1396" 
d="M1028 1473l-248 163q-22 12 -22 30t18 20q16 0 31 -15l229 -188zM440 547h580l-111 778zM-33 0l6 27h119l785 1294h-195l6 27h445l-7 -27h-188l186 -1294h142l-6 -27h-363l6 27h191l-70 493h-598l-299 -493h209l-6 -27h-363z" />
    <glyph glyph-name="Aacute" unicode="&#xc1;" horiz-adv-x="1396" 
d="M1135 1673q23 0 22 -22q0 -16 -29 -29l-284 -149l-6 10l264 176q20 14 33 14zM440 547h580l-111 778zM-33 0l6 27h119l785 1294h-195l6 27h445l-7 -27h-188l186 -1294h142l-6 -27h-363l6 27h191l-70 493h-598l-299 -493h209l-6 -27h-363z" />
    <glyph glyph-name="Acircumflex" unicode="&#xc2;" horiz-adv-x="1396" 
d="M690 1458l-10 12l307 216l193 -216l-13 -10l-186 178zM440 547h580l-111 778zM-33 0l6 27h119l785 1294h-195l6 27h445l-7 -27h-188l186 -1294h142l-6 -27h-363l6 27h191l-70 493h-598l-299 -493h209l-6 -27h-363z" />
    <glyph glyph-name="Atilde" unicode="&#xc3;" horiz-adv-x="1396" 
d="M1098 1489q-60 0 -148 65t-135 66q-82 0 -133 -125l-18 8q53 145 153 146q57 -1 145 -65t137 -64q50 0 81 30t59 97l21 -9q-58 -149 -162 -149zM440 547h580l-111 778zM-33 0l6 27h119l785 1294h-195l6 27h445l-7 -27h-188l186 -1294h142l-6 -27h-363l6 27h191l-70 493
h-598l-299 -493h209l-6 -27h-363z" />
    <glyph glyph-name="Adieresis" unicode="&#xc4;" horiz-adv-x="1396" 
d="M807 1546q0 39 38 39t38 -39q1 -16 -11 -26t-28 -11t-26 11t-11 26zM1063 1585q17 0 27 -11q10 -10 10 -26t-12 -28t-26 -11t-26 11t-12 26q0 39 39 39zM440 547h580l-111 778zM-33 0l6 27h119l785 1294h-195l6 27h445l-7 -27h-188l186 -1294h142l-6 -27h-363l6 27h191
l-70 493h-598l-299 -493h209l-6 -27h-363z" />
    <glyph glyph-name="Aring" unicode="&#xc5;" horiz-adv-x="1396" 
d="M440 547h580l-111 778zM819 1464q0 -54 28 -86q28 -30 79 -30t91 48t40 102t-28 85t-79 31t-91 -48t-40 -102zM951 1636q63 0 99 -37t36 -91t-28 -98t-73 -62h148l-7 -27h-188l186 -1294h142l-6 -27h-363l6 27h191l-70 493h-598l-299 -493h209l-6 -27h-363l6 27h119
l785 1294h-195l6 27h168q-66 28 -66 104t49 130q48 54 112 54z" />
    <glyph glyph-name="AE" unicode="&#xc6;" horiz-adv-x="1703" 
d="M465 553h442l178 770h-16zM-117 0l6 27h129l1018 1294h-213l6 27h951l-66 -281h-28l59 254h-631l-141 -619h489l-6 -26h-489l-150 -649h629l59 254h29l-66 -281h-884l6 27h196l115 499h-457l-393 -499h201l-6 -27h-363z" />
    <glyph glyph-name="Ccedilla" unicode="&#xc7;" horiz-adv-x="1310" 
d="M733 -273q0 -57 -46 -97t-140 -40t-193 60l13 20q100 -55 181 -55t119 33t38 82q0 50 -40 78t-122 26l-4 6l65 148q-208 32 -326 186t-118 365t90 396t262 309t374 124t316 -93t113 -206q0 -57 -41 -57q-35 0 -35 38t43 44q-8 94 -112 172t-292 78t-352 -122
q-164 -120 -250 -300t-86 -371q0 -233 138 -389t374 -156q119 0 243 53t222 148l19 -21q-100 -96 -230 -150t-256 -54q-25 0 -73 4l-54 -129q82 -4 121 -39t39 -91z" />
    <glyph glyph-name="Egrave" unicode="&#xc8;" horiz-adv-x="1118" 
d="M612 1666q0 18 19 20q16 0 31 -15l229 -188l-8 -10l-248 163q-23 12 -23 30zM-8 0l6 27h195l299 1294h-216l7 27h911l-64 -281h-30l59 254h-637l-141 -619h496l-7 -26h-495l-152 -649h637l58 254h30l-65 -281h-891z" />
    <glyph glyph-name="Eacute" unicode="&#xc9;" horiz-adv-x="1118" 
d="M-8 0l6 27h195l299 1294h-216l7 27h911l-64 -281h-30l59 254h-637l-141 -619h496l-7 -26h-495l-152 -649h637l58 254h30l-65 -281h-891zM991 1673q23 0 23 -22q0 -16 -29 -29l-285 -149l-6 10l264 176q20 14 33 14z" />
    <glyph glyph-name="Ecircumflex" unicode="&#xca;" horiz-adv-x="1118" 
d="M-8 0l6 27h195l299 1294h-216l7 27h911l-64 -281h-30l59 254h-637l-141 -619h496l-7 -26h-495l-152 -649h637l58 254h30l-65 -281h-891zM545 1458l-10 12l307 216l192 -216l-12 -10l-186 178z" />
    <glyph glyph-name="Edieresis" unicode="&#xcb;" horiz-adv-x="1118" 
d="M-8 0l6 27h195l299 1294h-216l7 27h911l-64 -281h-30l59 254h-637l-141 -619h496l-7 -26h-495l-152 -649h637l58 254h30l-65 -281h-891zM700 1509q-16 -1 -26 11t-10 27t10 27t26 11q39 0 39 -39q1 -16 -11 -26t-28 -11zM956 1548q0 -16 -11 -28t-26 -11t-27 11t-11 26
q0 39 39 39q16 0 26 -11q10 -10 10 -26z" />
    <glyph glyph-name="Igrave" unicode="&#xcc;" horiz-adv-x="616" 
d="M645 1473l-248 163q-23 12 -23 30t19 20q16 0 31 -15l229 -188zM-8 0l6 27h205l299 1294h-205l4 27h442l-6 -27h-205l-299 -1294h205l-4 -27h-442z" />
    <glyph glyph-name="Iacute" unicode="&#xcd;" horiz-adv-x="616" 
d="M752 1673q23 0 22 -22q0 -16 -29 -29l-284 -149l-6 10l264 176q23 14 33 14zM-8 0l6 27h205l299 1294h-205l4 27h442l-6 -27h-205l-299 -1294h205l-4 -27h-442z" />
    <glyph glyph-name="Icircumflex" unicode="&#xce;" horiz-adv-x="616" 
d="M307 1458l-10 12l307 216l193 -216l-13 -10l-186 178zM-8 0l6 27h205l299 1294h-205l4 27h442l-6 -27h-205l-299 -1294h205l-4 -27h-442z" />
    <glyph glyph-name="Idieresis" unicode="&#xcf;" horiz-adv-x="616" 
d="M424 1546q0 39 38 39t38 -39q0 -16 -12 -26t-26 -11t-26 11t-12 26zM680 1509q-16 1 -28 11t-11 26q0 39 39 39q16 0 26 -11q10 -10 11 -26q-1 -16 -11 -28t-26 -11zM-8 0l6 27h205l299 1294h-205l4 27h442l-6 -27h-205l-299 -1294h205l-4 -27h-442z" />
    <glyph glyph-name="Eth" unicode="&#xd0;" horiz-adv-x="1376" 
d="M416 27q432 0 667 235q215 219 215 531q0 225 -137 362q-166 166 -491 166h-148l-143 -619h319l-6 -26h-319l-150 -649h193zM672 1348q336 0 510 -174q145 -145 145 -379q0 -330 -223 -553q-238 -242 -692 -242h-420l6 27h195l149 649h-170l4 26h172l144 619h-216l7 27
h389z" />
    <glyph glyph-name="Ntilde" unicode="&#xd1;" horiz-adv-x="1478" 
d="M1143 1489q-61 0 -149 65t-134 66q-82 0 -133 -125l-18 8q53 145 153 146q56 -1 144 -65t138 -64t81 30t59 97l21 -9q-58 -149 -162 -149zM1102 -10l-590 1306l-289 -1269h215l-6 -27h-438l4 27h197l294 1294h-210l6 27h233l590 -1303l291 1276h-221l6 27h446l-6 -27
h-194l-306 -1331h-22z" />
    <glyph glyph-name="Ograve" unicode="&#xd2;" horiz-adv-x="1460" 
d="M1065 1473l-248 163q-23 12 -23 30t19 20q16 0 31 -15l229 -188zM698 8q193 0 356 118t252 299t89 395q-1 214 -137 369t-373 154q-195 1 -357 -117t-250 -300t-90 -395q0 -213 137 -368t373 -155zM696 -18q-246 0 -391 162t-145 403q0 201 90 388t260 310t377 123
q246 0 392 -162t146 -382t-90 -407t-261 -311t-378 -124z" />
    <glyph glyph-name="Oacute" unicode="&#xd3;" horiz-adv-x="1460" 
d="M698 8q193 0 356 118t252 299t89 395q-1 214 -137 369t-373 154q-195 1 -357 -117t-250 -300t-90 -395q0 -213 137 -368t373 -155zM696 -18q-246 0 -391 162t-145 403q0 201 90 388t260 310t377 123q246 0 392 -162t146 -382t-90 -407t-261 -311t-378 -124zM1171 1673
q23 0 23 -22q0 -16 -29 -29l-284 -149l-7 10l265 176q20 14 32 14z" />
    <glyph glyph-name="Ocircumflex" unicode="&#xd4;" horiz-adv-x="1460" 
d="M698 8q193 0 356 118t252 299t89 395q-1 214 -137 369t-373 154q-195 1 -357 -117t-250 -300t-90 -395q0 -213 137 -368t373 -155zM696 -18q-246 0 -391 162t-145 403q0 201 90 388t260 310t377 123q246 0 392 -162t146 -382t-90 -407t-261 -311t-378 -124zM725 1458
l-10 12l307 216l192 -216l-12 -10l-186 178z" />
    <glyph glyph-name="Otilde" unicode="&#xd5;" horiz-adv-x="1460" 
d="M1135 1489q-61 0 -149 65t-134 66q-82 0 -133 -125l-19 8q53 145 154 146q56 -1 144 -65t138 -64t81 30t59 97l20 -9q-57 -149 -161 -149zM698 8q193 0 356 118t252 299t89 395q-1 214 -137 369t-373 154q-195 1 -357 -117t-250 -300t-90 -395q0 -213 137 -368t373 -155z
M696 -18q-246 0 -391 162t-145 403q0 201 90 388t260 310t377 123q246 0 392 -162t146 -382t-90 -407t-261 -311t-378 -124z" />
    <glyph glyph-name="Odieresis" unicode="&#xd6;" horiz-adv-x="1460" 
d="M698 8q193 0 356 118t252 299t89 395q-1 214 -137 369t-373 154q-195 1 -357 -117t-250 -300t-90 -395q0 -213 137 -368t373 -155zM696 -18q-246 0 -391 162t-145 403q0 201 90 388t260 310t377 123q246 0 392 -162t146 -382t-90 -407t-261 -311t-378 -124zM844 1546
q0 39 38 39t38 -39q0 -16 -12 -26t-27 -11q-17 -1 -27 11t-10 26zM1061 1546q0 39 37 39t39 -39q1 -14 -11 -26t-27 -11t-27 11t-11 26z" />
    <glyph glyph-name="multiply" unicode="&#xd7;" horiz-adv-x="763" 
d="M213 819l201 -262l309 250l16 -23l-309 -249l205 -265l-21 -18l-204 266l-312 -252l-14 23l309 250l-200 262z" />
    <glyph glyph-name="Oslash" unicode="&#xd8;" horiz-adv-x="1460" 
d="M188 562q0 -182 72 -310l1036 887q-139 205 -411 204q-195 1 -357 -117t-251 -300t-89 -364zM698 8q193 0 356 118t252 299t89 371t-84 322l-1039 -887q139 -223 426 -223zM696 -18q-297 0 -444 229l-264 -225l-17 18l269 229q-80 135 -80 325t90 377t260 310t377 123
q281 0 432 -211l244 211l16 -18l-246 -213q92 -143 92 -338t-90 -382t-261 -311t-378 -124z" />
    <glyph glyph-name="Ugrave" unicode="&#xd9;" horiz-adv-x="1374" 
d="M737 1666q0 18 19 20q16 0 30 -15l230 -188l-8 -10l-248 163q-23 12 -23 30zM633 -18q-168 0 -274 90q-105 90 -105 266q0 76 31 213l176 770h-213l6 27h446l-6 -27h-202l-179 -774q-31 -137 -30 -207q0 -166 97 -249q96 -83 272 -83t288 120t168 376l188 817h-221l6 27
h447l-6 -27h-195l-190 -819q-61 -270 -179 -395t-325 -125z" />
    <glyph glyph-name="Uacute" unicode="&#xda;" horiz-adv-x="1374" 
d="M633 -18q-168 0 -274 90q-105 90 -105 266q0 76 31 213l176 770h-213l6 27h446l-6 -27h-202l-179 -774q-31 -137 -30 -207q0 -166 97 -249q96 -83 272 -83t288 120t168 376l188 817h-221l6 27h447l-6 -27h-195l-190 -819q-61 -270 -179 -395t-325 -125zM1116 1673
q23 0 23 -22q0 -16 -29 -29l-285 -149l-6 10l264 176q23 14 33 14z" />
    <glyph glyph-name="Ucircumflex" unicode="&#xdb;" horiz-adv-x="1374" 
d="M633 -18q-168 0 -274 90q-105 90 -105 266q0 76 31 213l176 770h-213l6 27h446l-6 -27h-202l-179 -774q-31 -137 -30 -207q0 -166 97 -249q96 -83 272 -83t288 120t168 376l188 817h-221l6 27h447l-6 -27h-195l-190 -819q-61 -270 -179 -395t-325 -125zM670 1458l-11 12
l308 216l192 -216l-12 -10l-186 178z" />
    <glyph glyph-name="Udieresis" unicode="&#xdc;" horiz-adv-x="1374" 
d="M633 -18q-168 0 -274 90q-105 90 -105 266q0 76 31 213l176 770h-213l6 27h446l-6 -27h-202l-179 -774q-31 -137 -30 -207q0 -166 97 -249q96 -83 272 -83t288 120t168 376l188 817h-221l6 27h447l-6 -27h-195l-190 -819q-61 -270 -179 -395t-325 -125zM823 1509
q-16 -1 -26 11q-24 27 0 54q10 11 26 11q39 0 39 -39q0 -16 -12 -26t-27 -11zM1042 1585q16 0 26 -11q10 -10 11 -26t-11 -28t-27 -11t-26 11t-11 26q0 39 38 39z" />
    <glyph glyph-name="Yacute" unicode="&#xdd;" horiz-adv-x="1269" 
d="M1065 1673q23 0 22 -22q0 -16 -28 -29l-285 -149l-6 10l264 176q20 14 33 14zM303 0l6 27h207l131 548l-278 746h-138l7 27h370l-4 -27h-205l267 -721l612 721h-201l6 27h371l-4 -27h-135l-639 -750l-129 -544h215l-4 -27h-455z" />
    <glyph glyph-name="Thorn" unicode="&#xde;" horiz-adv-x="1077" 
d="M516 322q240 0 379 114t139 289q0 129 -76 211q-104 111 -327 111h-172l-164 -715q129 -10 221 -10zM633 1073q236 0 348 -119q84 -90 84 -227q0 -190 -150 -311t-401 -121q-123 0 -225 12l-66 -280h207l-4 -27h-436l6 27h197l299 1294h-205l6 27h434l-4 -27h-201
l-57 -248h168z" />
    <glyph glyph-name="germandbls" unicode="&#xdf;" horiz-adv-x="972" 
d="M414 215q30 0 30 -44q0 -24 -32 -32q10 -49 63 -88t143 -39t156 62t66 162q0 53 -25 106t-51 85q-27 32 -74 81t-67 73q-66 79 -66 136t31 107t59 78q29 28 101 94t120 134q47 70 47 154t-51 142t-139 59q-231 0 -313 -361l-262 -1124h-29l188 811h-162l5 25h163l68 290
q89 385 327 385q116 0 175 -66q59 -67 59 -159t-49 -165t-123 -139t-102 -93q-27 -27 -57 -73q-29 -46 -29 -84t20 -78t42 -64t68 -69q46 -46 74 -81q79 -97 79 -208q-1 -111 -74 -177q-75 -65 -179 -65t-170 54t-66 112t36 59z" />
    <glyph glyph-name="agrave" unicode="&#xe0;" horiz-adv-x="1056" 
d="M442 1204q0 18 19 19q16 0 31 -15l229 -188l-8 -10l-248 164q-23 12 -23 30zM381 12q174 0 293 163t119 345q0 133 -77 218t-198 85q-170 -1 -285 -155t-114 -351q-1 -145 71 -225t191 -80zM372 -12q-122 0 -202 86t-80 241q0 209 123 371t305 162q123 0 205 -82t90 -217
l70 287h28l-153 -625q-16 -69 -16 -107t22 -65q24 -27 66 -27t74 35t67 121l20 -6q-35 -94 -73 -134t-90 -40q-54 0 -84 34t-30 77t17 116l6 23q-57 -110 -150 -180t-215 -70z" />
    <glyph glyph-name="aacute" unicode="&#xe1;" horiz-adv-x="1056" 
d="M817 1210q23 0 23 -22q0 -16 -29 -29l-285 -149l-6 10l264 176q23 14 33 14zM381 12q174 0 293 163t119 345q0 133 -77 218t-198 85q-170 -1 -285 -155t-114 -351q-1 -145 71 -225t191 -80zM372 -12q-122 0 -202 86t-80 241q0 209 123 371t305 162q123 0 205 -82t90 -217
l70 287h28l-153 -625q-16 -69 -16 -107t22 -65q24 -27 66 -27t74 35t67 121l20 -6q-35 -94 -73 -134t-90 -40q-54 0 -84 34t-30 77t17 116l6 23q-57 -110 -150 -180t-215 -70z" />
    <glyph glyph-name="acircumflex" unicode="&#xe2;" horiz-adv-x="1056" 
d="M373 995l-11 13l308 215l192 -215l-12 -11l-186 179zM381 12q174 0 293 163t119 345q0 133 -77 218t-198 85q-170 -1 -285 -155t-114 -351q-1 -145 71 -225t191 -80zM372 -12q-122 0 -202 86t-80 241q0 209 123 371t305 162q123 0 205 -82t90 -217l70 287h28l-153 -625
q-16 -69 -16 -107t22 -65q24 -27 66 -27t74 35t67 121l20 -6q-35 -94 -73 -134t-90 -40q-54 0 -84 34t-30 77t17 116l6 23q-57 -110 -150 -180t-215 -70z" />
    <glyph glyph-name="atilde" unicode="&#xe3;" horiz-adv-x="1056" 
d="M782 1026q-61 0 -148 66t-134 65q-82 0 -133 -125l-19 8q53 145 154 146q57 0 144 -64t137 -65t81 29t60 98l20 -8q-58 -150 -162 -150zM381 12q174 0 293 163t119 345q0 133 -77 218t-198 85q-170 -1 -285 -155t-114 -351q-1 -145 71 -225t191 -80zM372 -12
q-122 0 -202 86t-80 241q0 209 123 371t305 162q123 0 205 -82t90 -217l70 287h28l-153 -625q-16 -69 -16 -107t22 -65q24 -27 66 -27t74 35t67 121l20 -6q-35 -94 -73 -134t-90 -40q-54 0 -84 34t-30 77t17 116l6 23q-57 -110 -150 -180t-215 -70z" />
    <glyph glyph-name="adieresis" unicode="&#xe4;" horiz-adv-x="1056" 
d="M528 1047q-16 0 -26 11t-10 26q0 14 10 26t26 12q39 0 39 -39q1 -16 -11 -26t-28 -10zM747 1047q-15 0 -27 10q-11 10 -11 26q0 39 39 39q16 0 26 -11t10 -27t-11 -26q-11 -11 -26 -11zM381 12q174 0 293 163t119 345q0 133 -77 218t-198 85q-170 -1 -285 -155t-114 -351
q-1 -145 71 -225t191 -80zM372 -12q-122 0 -202 86t-80 241q0 209 123 371t305 162q123 0 205 -82t90 -217l70 287h28l-153 -625q-16 -69 -16 -107t22 -65q24 -27 66 -27t74 35t67 121l20 -6q-35 -94 -73 -134t-90 -40q-54 0 -84 34t-30 77t17 116l6 23q-57 -110 -150 -180
t-215 -70z" />
    <glyph glyph-name="aring" unicode="&#xe5;" horiz-adv-x="1056" 
d="M541 1144q-1 -54 27 -85t79 -31t90 49t39 103t-27 85q-28 29 -79 29t-90 -48t-39 -102zM646 1006q-64 0 -99 38t-35 101q0 64 47 119t111 55t100 -38q35 -39 35 -101t-48 -118q-47 -56 -111 -56zM381 12q174 0 293 163t119 345q0 133 -77 218t-198 85q-170 -1 -285 -155
t-114 -351q-1 -145 71 -225t191 -80zM372 -12q-122 0 -202 86t-80 241q0 209 123 371t305 162q123 0 205 -82t90 -217l70 287h28l-153 -625q-16 -69 -16 -107t22 -65q24 -27 66 -27t74 35t67 121l20 -6q-35 -94 -73 -134t-90 -40q-54 0 -84 34t-30 77t17 116l6 23
q-57 -110 -150 -180t-215 -70z" />
    <glyph glyph-name="ae" unicode="&#xe6;" horiz-adv-x="1505" 
d="M1386 559q0 123 -65 193t-195 71q-130 0 -240 -102t-149 -258h639q10 51 10 96zM291 10q145 0 276 123t138 305h-254q-175 0 -275 -62t-100 -177q0 -82 55 -136q56 -53 160 -53zM723 332q0 -150 87 -235q86 -85 230 -85t265 72l-7 -29q-119 -67 -263 -67t-236 84
t-101 231q-48 -141 -164 -229t-240 -88t-185 60t-62 153q0 125 108 195t294 69h256q-4 158 -73 259t-216 101q-88 0 -140 -37q-25 -16 -34 -38q46 -24 17 -63q-9 -11 -23 -11q-37 0 -37 45q1 45 63 87t152 42q150 0 224 -93t89 -247q45 150 157 245t248 95t210 -77t73 -214
q0 -60 -16 -119h-666q-10 -57 -10 -106z" />
    <glyph glyph-name="ccedilla" unicode="&#xe7;" horiz-adv-x="870" 
d="M475 -273q0 -57 -46 -97t-140 -40t-193 60l13 20q100 -55 181 -55t119 33t37 82q0 50 -40 78t-121 26l-4 6l67 156q-116 27 -188 119t-72 233q0 200 131 350t318 150q127 0 203 -65t77 -144q0 -51 -33 -51q-32 0 -32 34t36 37q-10 68 -77 116q-68 48 -176 48
q-174 0 -296 -143q-122 -144 -122 -316t89 -262t230 -90t266 97l-4 -31q-121 -90 -268 -90q-23 0 -59 4l-56 -135q82 -4 121 -39t39 -91z" />
    <glyph glyph-name="egrave" unicode="&#xe8;" horiz-adv-x="903" 
d="M399 1204q0 18 19 19q16 0 31 -15l229 -188l-8 -10l-248 164q-23 12 -23 30zM784 559q0 125 -66 195t-196 69q-130 0 -242 -102t-149 -258h643q10 51 10 96zM117 334q0 -150 88 -236t230 -86t267 72l-6 -29q-123 -67 -269 -67t-244 93q-97 93 -97 255q0 208 131 360
t322 152q127 0 201 -78t73 -213q0 -45 -16 -119h-670q-10 -57 -10 -104z" />
    <glyph glyph-name="eacute" unicode="&#xe9;" horiz-adv-x="903" 
d="M784 559q0 125 -66 195t-196 69q-130 0 -242 -102t-149 -258h643q10 51 10 96zM117 334q0 -150 88 -236t230 -86t267 72l-6 -29q-123 -67 -269 -67t-244 93q-97 93 -97 255q0 208 131 360t322 152q127 0 201 -78t73 -213q0 -45 -16 -119h-670q-10 -57 -10 -104zM778 1210
q23 0 23 -22q0 -16 -29 -29l-285 -149l-6 10l264 176q20 14 33 14z" />
    <glyph glyph-name="ecircumflex" unicode="&#xea;" horiz-adv-x="903" 
d="M784 559q0 125 -66 195t-196 69q-130 0 -242 -102t-149 -258h643q10 51 10 96zM117 334q0 -150 88 -236t230 -86t267 72l-6 -29q-123 -67 -269 -67t-244 93q-97 93 -97 255q0 208 131 360t322 152q127 0 201 -78t73 -213q0 -45 -16 -119h-670q-10 -57 -10 -104zM332 995
l-10 13l307 215l192 -215l-12 -11l-186 179z" />
    <glyph glyph-name="edieresis" unicode="&#xeb;" horiz-adv-x="903" 
d="M784 559q0 125 -66 195t-196 69q-130 0 -242 -102t-149 -258h643q10 51 10 96zM117 334q0 -150 88 -236t230 -86t267 72l-6 -29q-123 -67 -269 -67t-244 93q-97 93 -97 255q0 208 131 360t322 152q127 0 201 -78t73 -213q0 -45 -16 -119h-670q-10 -57 -10 -104zM524 1083
q0 -16 -12 -26t-26 -10q-15 0 -26 11t-11 26q0 14 10 26t26 12q39 0 39 -39zM705 1047q-16 0 -28 10q-11 10 -11 26q0 39 39 39q16 0 26 -11t10 -27t-10 -26q-10 -11 -26 -11z" />
    <glyph glyph-name="igrave" unicode="&#xec;" horiz-adv-x="524" 
d="M213 1204q0 18 18 19q16 0 31 -15l230 -188l-9 -10l-247 164q-23 12 -23 30zM265 -12q-54 0 -86 32t-32 80q0 47 31 156l164 555h-182l6 25h209l-168 -584q-31 -98 -31 -144t25 -70q25 -26 67 -26t73 36q32 36 65 120l22 -6q-35 -94 -72 -134t-91 -40z" />
    <glyph glyph-name="iacute" unicode="&#xed;" horiz-adv-x="524" 
d="M265 -12q-54 0 -86 32t-32 80q0 47 31 156l164 555h-182l6 25h209l-168 -584q-31 -98 -31 -144t25 -70q25 -26 67 -26t73 36q32 36 65 120l22 -6q-35 -94 -72 -134t-91 -40zM604 1210q23 0 23 -22q0 -16 -29 -29l-285 -149l-6 10l264 176q23 14 33 14z" />
    <glyph glyph-name="icircumflex" unicode="&#xee;" horiz-adv-x="524" 
d="M265 -12q-54 0 -86 32t-32 80q0 47 31 156l164 555h-182l6 25h209l-168 -584q-31 -98 -31 -144t25 -70q25 -26 67 -26t73 36q32 36 65 120l22 -6q-35 -94 -72 -134t-91 -40zM160 995l-10 13l307 215l192 -215l-12 -11l-186 179z" />
    <glyph glyph-name="idieresis" unicode="&#xef;" horiz-adv-x="524" 
d="M265 -12q-54 0 -86 32t-32 80q0 47 31 156l164 555h-182l6 25h209l-168 -584q-31 -98 -31 -144t25 -70q25 -26 67 -26t73 36q32 36 65 120l22 -6q-35 -94 -72 -134t-91 -40zM315 1047q-16 0 -26 11t-10 26q0 14 10 26t26 12q39 0 39 -39q0 -16 -12 -26t-27 -10zM534 1047
q-15 0 -27 10q-11 10 -11 26q0 39 39 39q16 0 26 -11t10 -27t-11 -26q-11 -11 -26 -11z" />
    <glyph glyph-name="eth" unicode="&#xf0;" horiz-adv-x="983" 
d="M432 12q160 0 285 129t125 324q0 153 -90 239t-224 87q-170 1 -284 -135t-115 -302q0 -166 88 -254t215 -88zM530 815q126 0 218 -76t108 -215q6 66 6 140q0 348 -143 583l-283 -252l-16 19l285 256q-61 92 -141 149t-156 64q-6 -43 -43 -43q-31 0 -31 30q0 39 53 39
q86 0 176 -60t160 -165l219 197l16 -19l-221 -198q154 -238 154 -608t-166 -543q-125 -127 -279 -125t-250 95t-96 270t123 319t307 143z" />
    <glyph glyph-name="ntilde" unicode="&#xf1;" horiz-adv-x="1030" 
d="M807 1026q-61 0 -149 66t-134 65q-82 0 -133 -125l-18 8q53 145 153 146q56 0 144 -64t138 -65t81 29t59 98l21 -8q-58 -150 -162 -150zM805 -12q-55 0 -86 32t-31 85q0 52 31 151l67 217q35 104 35 182q0 168 -176 168q-133 0 -251 -133t-169 -336l-88 -354h-28l202 811
h-174l4 25h205l-80 -312q68 148 169 236t205 88t156 -50q54 -50 54 -132t-35 -197l-70 -217q-29 -102 -29 -146t24 -68q24 -26 67 -26t76 36t65 120l21 -6q-35 -94 -72 -134t-92 -40z" />
    <glyph glyph-name="ograve" unicode="&#xf2;" horiz-adv-x="968" 
d="M434 1204q0 18 19 19q16 0 30 -15l230 -188l-8 -10l-248 164q-23 12 -23 30zM438 12q174 0 292 142t118 313q0 172 -89 264t-231 92q-174 0 -292 -142q-118 -141 -117 -313q0 -172 90 -264t229 -92zM438 -12q-150 0 -249 98t-99 280t126 332t312 150q152 0 250 -98
t98 -282t-124 -332q-126 -148 -314 -148z" />
    <glyph glyph-name="oacute" unicode="&#xf3;" horiz-adv-x="968" 
d="M438 12q174 0 292 142t118 313q0 172 -89 264t-231 92q-174 0 -292 -142q-118 -141 -117 -313q0 -172 90 -264t229 -92zM438 -12q-150 0 -249 98t-99 280t126 332t312 150q152 0 250 -98t98 -282t-124 -332q-126 -148 -314 -148zM809 1210q23 0 22 -22q0 -16 -28 -29
l-285 -149l-6 10l264 176q20 14 33 14z" />
    <glyph glyph-name="ocircumflex" unicode="&#xf4;" horiz-adv-x="968" 
d="M438 12q174 0 292 142t118 313q0 172 -89 264t-231 92q-174 0 -292 -142q-118 -141 -117 -313q0 -172 90 -264t229 -92zM438 -12q-150 0 -249 98t-99 280t126 332t312 150q152 0 250 -98t98 -282t-124 -332q-126 -148 -314 -148zM367 995l-11 13l308 215l192 -215
l-12 -11l-187 179z" />
    <glyph glyph-name="otilde" unicode="&#xf5;" horiz-adv-x="968" 
d="M774 1026q-61 0 -148 66t-134 65q-82 0 -134 -125l-18 8q53 145 154 146q57 0 144 -64t137 -65t81 29t59 98l21 -8q-58 -150 -162 -150zM438 12q174 0 292 142t118 313q0 172 -89 264t-231 92q-174 0 -292 -142q-118 -141 -117 -313q0 -172 90 -264t229 -92zM438 -12
q-150 0 -249 98t-99 280t126 332t312 150q152 0 250 -98t98 -282t-124 -332q-126 -148 -314 -148z" />
    <glyph glyph-name="odieresis" unicode="&#xf6;" horiz-adv-x="968" 
d="M438 12q174 0 292 142t118 313q0 172 -89 264t-231 92q-174 0 -292 -142q-118 -141 -117 -313q0 -172 90 -264t229 -92zM438 -12q-150 0 -249 98t-99 280t126 332t312 150q152 0 250 -98t98 -282t-124 -332q-126 -148 -314 -148zM520 1047q-16 0 -26 11q-24 27 0 53
q10 11 26 11q39 0 39 -39q1 -16 -11 -26t-28 -10zM739 1122q17 0 27 -11t10 -27t-12 -26q-12 -11 -26 -11q-15 0 -26 10t-12 26q0 39 39 39z" />
    <glyph glyph-name="divide" unicode="&#xf7;" horiz-adv-x="763" 
d="M354 260q-37 0 -37 38t37 38t37 -38t-37 -38zM465 733q-37 0 -37 39t37 39q17 0 27 -11q10 -12 10 -28t-12 -28t-25 -11zM119 524l4 27h579l-6 -27h-577z" />
    <glyph glyph-name="oslash" unicode="&#xf8;" horiz-adv-x="968" 
d="M440 12q172 0 290 142t118 327q0 113 -49 195l-619 -539q88 -125 260 -125zM119 352q0 -111 49 -196l618 540q-86 127 -259 127q-173 -1 -291 -143t-117 -328zM442 -12q-184 0 -282 131l-150 -131l-16 16l153 133q-57 90 -57 215q0 196 126 346t311 150t280 -133l156 135
l16 -19l-158 -137q55 -90 56 -213q1 -197 -125 -345t-310 -148z" />
    <glyph glyph-name="ugrave" unicode="&#xf9;" horiz-adv-x="1040" 
d="M444 1204q0 18 19 19q16 0 31 -15l229 -188l-8 -10l-248 164q-23 12 -23 30zM188 173q0 -71 44 -116t124 -45q131 0 248 133t166 334l88 357h29l-154 -625q-16 -69 -16 -107q1 -38 23 -65t66 -27t76 36t64 120l21 -6q-35 -94 -72 -134t-90 -40t-84 32t-31 80t17 119
l22 86q-66 -141 -166 -229q-101 -88 -201 -88t-152 52t-52 122t37 217l106 432h-176l6 25h203l-113 -459q-33 -133 -33 -204z" />
    <glyph glyph-name="uacute" unicode="&#xfa;" horiz-adv-x="1040" 
d="M188 173q0 -71 44 -116t124 -45q131 0 248 133t166 334l88 357h29l-154 -625q-16 -69 -16 -107q1 -38 23 -65t66 -27t76 36t64 120l21 -6q-35 -94 -72 -134t-90 -40t-84 32t-31 80t17 119l22 86q-66 -141 -166 -229q-101 -88 -201 -88t-152 52t-52 122t37 217l106 432
h-176l6 25h203l-113 -459q-33 -133 -33 -204zM819 1210q23 0 23 -22q0 -16 -29 -29l-285 -149l-6 10l264 176q20 14 33 14z" />
    <glyph glyph-name="ucircumflex" unicode="&#xfb;" horiz-adv-x="1040" 
d="M188 173q0 -71 44 -116t124 -45q131 0 248 133t166 334l88 357h29l-154 -625q-16 -69 -16 -107q1 -38 23 -65t66 -27t76 36t64 120l21 -6q-35 -94 -72 -134t-90 -40t-84 32t-31 80t17 119l22 86q-66 -141 -166 -229q-101 -88 -201 -88t-152 52t-52 122t37 217l106 432
h-176l6 25h203l-113 -459q-33 -133 -33 -204zM375 995l-10 13l307 215l192 -215l-12 -11l-186 179z" />
    <glyph glyph-name="udieresis" unicode="&#xfc;" horiz-adv-x="1040" 
d="M188 173q0 -71 44 -116t124 -45q131 0 248 133t166 334l88 357h29l-154 -625q-16 -69 -16 -107q1 -38 23 -65t66 -27t76 36t64 120l21 -6q-35 -94 -72 -134t-90 -40t-84 32t-31 80t17 119l22 86q-66 -141 -166 -229q-101 -88 -201 -88t-152 52t-52 122t37 217l106 432
h-176l6 25h203l-113 -459q-33 -133 -33 -204zM569 1083q1 -16 -11 -26t-27 -10t-26 11t-11 26q0 14 10 26t26 12q39 0 39 -39zM750 1047q-16 0 -28 10q-11 10 -11 26q0 39 39 39q16 0 26 -11t10 -27t-10 -26q-10 -11 -26 -11z" />
    <glyph glyph-name="yacute" unicode="&#xfd;" horiz-adv-x="901" 
d="M770 1210q23 0 23 -22q0 -16 -29 -29l-285 -149l-6 10l264 176q20 14 33 14zM-70 -403q-31 0 -50 13t-19 36q0 33 33 32q43 0 43 -43q0 -8 -3 -14q63 4 178 93q114 89 261 268l-160 829h-162l4 25h183l157 -830q170 209 291 431t123 335q-6 -2 -18 -2t-26 12
q-13 12 -13 31q0 35 32 35q51 0 52 -74q0 -115 -128 -348t-307 -449q-311 -380 -471 -380z" />
    <glyph glyph-name="thorn" unicode="&#xfe;" horiz-adv-x="1019" 
d="M500 12q174 0 286 150t113 321q0 171 -73 255t-201 85q-172 1 -293 -159t-121 -320t79 -246t210 -86zM638 848q128 0 209 -91t81 -275t-119 -339q-119 -156 -309 -155q-131 0 -215 81t-95 220l-153 -666h180l-4 -24h-332l6 24h121l432 1852h-176l4 24h205l-209 -905
q58 114 152 184t222 70z" />
    <glyph glyph-name="ydieresis" unicode="&#xff;" horiz-adv-x="901" 
d="M479 1047q-16 0 -26 11q-24 27 0 53q10 11 26 11q39 0 39 -39q0 -16 -12 -26t-27 -10zM698 1122q16 0 26 -11t11 -27t-11 -26q-12 -11 -27 -11t-26 10t-12 26q0 39 39 39zM-70 -403q-31 0 -50 13t-19 36q0 33 33 32q43 0 43 -43q0 -8 -3 -14q63 4 178 93q114 89 261 268
l-160 829h-162l4 25h183l157 -830q170 209 291 431t123 335q-6 -2 -18 -2t-26 12q-13 12 -13 31q0 35 32 35q51 0 52 -74q0 -115 -128 -348t-307 -449q-311 -380 -471 -380z" />
    <glyph glyph-name="Amacron" unicode="&#x100;" horiz-adv-x="1396" 
d="M688 1534l6 29h533l-6 -29h-533zM440 547h580l-111 778zM-33 0l6 27h119l785 1294h-195l6 27h445l-7 -27h-188l186 -1294h142l-6 -27h-363l6 27h191l-70 493h-598l-299 -493h209l-6 -27h-363z" />
    <glyph glyph-name="amacron" unicode="&#x101;" horiz-adv-x="1056" 
d="M369 1071l6 29h532l-6 -29h-532zM381 12q174 0 293 163t119 345q0 133 -77 218t-198 85q-170 -1 -285 -155t-114 -351q-1 -145 71 -225t191 -80zM372 -12q-122 0 -202 86t-80 241q0 209 123 371t305 162q123 0 205 -82t90 -217l70 287h28l-153 -625q-16 -69 -16 -107
t22 -65q24 -27 66 -27t74 35t67 121l20 -6q-35 -94 -73 -134t-90 -40q-54 0 -84 34t-30 77t17 116l6 23q-57 -110 -150 -180t-215 -70z" />
    <glyph glyph-name="Abreve" unicode="&#x102;" horiz-adv-x="1396" 
d="M936 1470q-90 0 -148 54t-75 147l22 8q43 -176 208 -176t263 172l19 -10q-43 -87 -121 -141t-168 -54zM440 547h580l-111 778zM-33 0l6 27h119l785 1294h-195l6 27h445l-7 -27h-188l186 -1294h142l-6 -27h-363l6 27h191l-70 493h-598l-299 -493h209l-6 -27h-363z" />
    <glyph glyph-name="abreve" unicode="&#x103;" horiz-adv-x="1056" 
d="M620 1008q-90 0 -147 54t-76 146l23 9q43 -177 208 -177t263 172l18 -10q-43 -86 -121 -140t-168 -54zM381 12q174 0 293 163t119 345q0 133 -77 218t-198 85q-170 -1 -285 -155t-114 -351q-1 -145 71 -225t191 -80zM372 -12q-122 0 -202 86t-80 241q0 209 123 371
t305 162q123 0 205 -82t90 -217l70 287h28l-153 -625q-16 -69 -16 -107t22 -65q24 -27 66 -27t74 35t67 121l20 -6q-35 -94 -73 -134t-90 -40q-54 0 -84 34t-30 77t17 116l6 23q-57 -110 -150 -180t-215 -70z" />
    <glyph glyph-name="Aogonek" unicode="&#x104;" horiz-adv-x="1396" 
d="M440 547h580l-111 778zM1047 -387q53 0 100 18l-8 -24q-41 -19 -102 -19t-99 36t-37 100q0 137 191 276h-195l6 27h191l-70 493h-598l-299 -493h209l-6 -27h-363l6 27h119l785 1294h-195l6 27h445l-7 -27h-188l186 -1294h142l-6 -27h-138q-193 -150 -192 -272
q0 -53 32 -84t85 -31z" />
    <glyph glyph-name="aogonek" unicode="&#x105;" horiz-adv-x="1056" 
d="M381 12q174 0 293 163t119 345q0 133 -77 218t-198 85q-170 -1 -285 -155t-114 -351q-1 -145 71 -225t191 -80zM715 99q0 43 16 116l6 23q-57 -111 -150 -181q-93 -69 -215 -69t-202 86t-80 241q0 209 123 371t305 162q123 0 205 -81t90 -216l70 285h28l-153 -625
q-16 -69 -16 -107t22 -65t64 -27t76 36t67 120l20 -6q-37 -102 -106 -166q-4 -4 -49 -41q-44 -37 -58 -51t-53 -60t-39 -107q0 -62 32 -93t84 -31t99 18l-6 -24q-45 -19 -103 -19t-97 36q-38 36 -38 105q-1 69 51 131t142 130q-10 -2 -25 -2q-51 0 -81 34q-29 34 -29 77z
" />
    <glyph glyph-name="Cacute" unicode="&#x106;" horiz-adv-x="1310" 
d="M700 -18q-250 0 -395 160t-145 409q0 199 90 384t262 309t374 124t316 -93t113 -206q0 -57 -41 -57q-35 0 -35 38t43 44q-8 94 -112 172t-292 78t-352 -122q-164 -120 -250 -300t-86 -371q0 -233 138 -389t374 -156q119 0 243 53t222 148l19 -21q-100 -96 -230 -150
t-256 -54zM1130 1673q23 0 23 -22q0 -16 -29 -29l-284 -149l-6 10l264 176q20 14 32 14z" />
    <glyph glyph-name="cacute" unicode="&#x107;" horiz-adv-x="870" 
d="M431 -12q-146 0 -245 97q-98 97 -98 281t131 332q131 150 318 150q127 0 203 -65t77 -144q0 -51 -33 -51q-32 0 -32 34t36 37q-10 68 -77 116q-68 48 -176 48q-174 0 -296 -143q-122 -144 -122 -316t89 -262t230 -90t266 97l-4 -31q-121 -90 -267 -90zM795 1210
q23 0 22 -22q0 -16 -29 -29l-284 -149l-6 10l264 176q20 14 33 14z" />
    <glyph glyph-name="Cdotaccent" unicode="&#x10a;" horiz-adv-x="1310" 
d="M956 1542q-39 0 -38 39q0 17 11 29t27 12t28 -12t11 -29q0 -39 -39 -39zM700 -18q-250 0 -395 160t-145 409q0 199 90 384t262 309t374 124t316 -93t113 -206q0 -57 -41 -57q-35 0 -35 38t43 44q-8 94 -112 172t-292 78t-352 -122q-164 -120 -250 -300t-86 -371
q0 -233 138 -389t374 -156q119 0 243 53t222 148l19 -21q-100 -96 -230 -150t-256 -54z" />
    <glyph glyph-name="cdotaccent" unicode="&#x10b;" horiz-adv-x="870" 
d="M621 1079q-39 0 -39 39q0 16 11 28t27 13q16 0 28 -12q11 -12 11 -29q1 -39 -38 -39zM431 -12q-146 0 -245 97q-98 97 -98 281t131 332q131 150 318 150q127 0 203 -65t77 -144q0 -51 -33 -51q-32 0 -32 34t36 37q-10 68 -77 116q-68 48 -176 48q-174 0 -296 -143
q-122 -144 -122 -316t89 -262t230 -90t266 97l-4 -31q-121 -90 -267 -90z" />
    <glyph glyph-name="Ccaron" unicode="&#x10c;" horiz-adv-x="1310" 
d="M700 -18q-250 0 -395 160t-145 409q0 199 90 384t262 309t374 124t316 -93t113 -206q0 -57 -41 -57q-35 0 -35 38t43 44q-8 94 -112 172t-292 78t-352 -122q-164 -120 -250 -300t-86 -371q0 -233 138 -389t374 -156q119 0 243 53t222 148l19 -21q-100 -96 -230 -150
t-256 -54zM909 1460l-192 215l12 11l186 -179l291 181l11 -13z" />
    <glyph glyph-name="ccaron" unicode="&#x10d;" horiz-adv-x="870" 
d="M431 -12q-146 0 -245 97q-98 97 -98 281t131 332q131 150 318 150q127 0 203 -65t77 -144q0 -51 -33 -51q-32 0 -32 34t36 37q-10 68 -77 116q-68 48 -176 48q-174 0 -296 -143q-122 -144 -122 -316t89 -262t230 -90t266 97l-4 -31q-121 -90 -267 -90zM573 997l-192 215
l12 11l187 -179l290 181l11 -13z" />
    <glyph glyph-name="Dcaron" unicode="&#x10e;" horiz-adv-x="1363" 
d="M416 27q432 0 667 235q215 219 215 531q0 225 -137 362q-166 166 -491 166h-148l-299 -1294h193zM672 1348q336 0 510 -174q145 -145 145 -379q0 -330 -223 -553q-238 -242 -692 -242h-420l6 27h195l299 1294h-216l7 27h389zM807 1460l-193 215l13 11l186 -179l291 181
l10 -13z" />
    <glyph glyph-name="dcaron" unicode="&#x10f;" horiz-adv-x="1079" 
d="M395 12q172 0 293 159t121 319t-80 246q-80 87 -207 87q-178 1 -291 -149t-113 -322t74 -256t203 -84zM90 352q0 182 120 340q120 156 310 156q131 0 215 -83t90 -222l215 932h-176l4 24h207l-295 -1282q-18 -79 -18 -115t22 -63t67 -27q44 0 76 36t64 120l21 -6
q-35 -94 -72 -134t-91 -40t-84 34t-30 88q1 54 13 92t12 46q-56 -115 -152 -188q-96 -72 -225 -72t-211 91t-82 273zM1219 1497q52 0 -15 -154q-33 -73 -94 -151l-10 10q54 74 70 126t24 142q2 27 25 27z" />
    <glyph glyph-name="Dcroat" unicode="&#x110;" horiz-adv-x="1398" 
d="M416 27q432 0 667 235q215 219 215 531q0 225 -137 362q-166 166 -491 166h-148l-143 -619h319l-6 -26h-319l-150 -649h193zM672 1348q336 0 510 -174q145 -145 145 -379q0 -330 -223 -553q-238 -242 -692 -242h-420l6 27h195l149 649h-170l4 26h172l144 619h-216l7 27
h389z" />
    <glyph glyph-name="dcroat" unicode="&#x111;" horiz-adv-x="1079" 
d="M395 12q172 0 293 159t121 319t-80 246q-80 87 -207 87q-178 1 -291 -149t-113 -322t74 -256t203 -84zM762 102q0 -36 22 -63t67 -27q44 0 76 36t64 120l21 -6q-35 -94 -72 -134t-91 -40t-84 34t-30 88q1 54 13 92t12 46q-56 -115 -152 -188q-96 -72 -225 -72t-211 91
t-82 273t120 340q120 156 310 156q129 0 213 -83t92 -220l142 608h-342l6 25h342l67 297h-176l4 24h207l-74 -321h166l-6 -25h-166l-215 -936q-18 -79 -18 -115z" />
    <glyph glyph-name="Emacron" unicode="&#x112;" horiz-adv-x="1118" 
d="M543 1534l6 29h532l-6 -29h-532zM-8 0l6 27h195l299 1294h-216l7 27h911l-64 -281h-30l59 254h-637l-141 -619h496l-7 -26h-495l-152 -649h637l58 254h30l-65 -281h-891z" />
    <glyph glyph-name="emacron" unicode="&#x113;" horiz-adv-x="903" 
d="M330 1071l6 29h532l-6 -29h-532zM784 559q0 125 -66 195t-196 69q-130 0 -242 -102t-149 -258h643q10 51 10 96zM117 334q0 -150 88 -236t230 -86t267 72l-6 -29q-123 -67 -269 -67t-244 93q-97 93 -97 255q0 208 131 360t322 152q127 0 201 -78t73 -213q0 -45 -16 -119
h-670q-10 -57 -10 -104z" />
    <glyph glyph-name="Ebreve" unicode="&#x114;" horiz-adv-x="1118" 
d="M793 1470q-89 0 -147 54t-77 147l23 8q43 -176 208 -176t263 172l18 -10q-43 -87 -121 -141t-167 -54zM-8 0l6 27h195l299 1294h-216l7 27h911l-64 -281h-30l59 254h-637l-141 -619h496l-7 -26h-495l-152 -649h637l58 254h30l-65 -281h-891z" />
    <glyph glyph-name="ebreve" unicode="&#x115;" horiz-adv-x="903" 
d="M577 1008q-90 0 -147 54t-76 146l23 9q43 -177 208 -177t263 172l18 -10q-43 -86 -121 -140t-168 -54zM784 559q0 125 -66 195t-196 69q-130 0 -242 -102t-149 -258h643q10 51 10 96zM117 334q0 -150 88 -236t230 -86t267 72l-6 -29q-123 -67 -269 -67t-244 93
q-97 93 -97 255q0 208 131 360t322 152q127 0 201 -78t73 -213q0 -45 -16 -119h-670q-10 -57 -10 -104z" />
    <glyph glyph-name="Edotaccent" unicode="&#x116;" horiz-adv-x="1118" 
d="M819 1542q-39 0 -39 39q0 17 12 29t27 12t27 -12t12 -29q0 -39 -39 -39zM-8 0l6 27h195l299 1294h-216l7 27h911l-64 -281h-30l59 254h-637l-141 -619h496l-7 -26h-495l-152 -649h637l58 254h30l-65 -281h-891z" />
    <glyph glyph-name="edotaccent" unicode="&#x117;" horiz-adv-x="903" 
d="M604 1079q-39 0 -39 39q-1 16 11 28t28 13q16 0 28 -12t11 -29q0 -39 -39 -39zM784 559q0 125 -66 195t-196 69q-130 0 -242 -102t-149 -258h643q10 51 10 96zM117 334q0 -150 88 -236t230 -86t267 72l-6 -29q-123 -67 -269 -67t-244 93q-97 93 -97 255q0 208 131 360
t322 152q127 0 201 -78t73 -213q0 -45 -16 -119h-670q-10 -57 -10 -104z" />
    <glyph glyph-name="Eogonek" unicode="&#x118;" horiz-adv-x="1118" 
d="M623 -272q-1 -53 31 -84t85 -31t101 18l-9 -24q-41 -19 -101 -19t-98 36t-38 100q0 137 190 276h-792l6 27h195l299 1294h-216l7 27h911l-64 -281h-30l59 254h-637l-141 -619h496l-7 -26h-495l-152 -649h637l58 254h30l-65 -281h-70q-190 -147 -190 -272z" />
    <glyph glyph-name="eogonek" unicode="&#x119;" horiz-adv-x="894" 
d="M784 559q0 125 -66 195t-196 69q-130 0 -242 -102t-149 -258h643q10 51 10 96zM530 -412q-58 0 -98 36q-39 36 -39 100q0 145 217 294q-80 -31 -182 -30q-147 0 -245 93q-97 93 -97 255q0 208 131 360t322 152q127 0 201 -78t73 -213q0 -45 -16 -119h-670
q-10 -57 -10 -104q0 -150 88 -236t230 -86t267 72l-6 -29q-274 -178 -274 -327q0 -53 33 -84t85 -31t99 18l-6 -24q-45 -19 -103 -19z" />
    <glyph glyph-name="Ecaron" unicode="&#x11a;" horiz-adv-x="1118" 
d="M-8 0l6 27h195l299 1294h-216l7 27h911l-64 -281h-30l59 254h-637l-141 -619h496l-7 -26h-495l-152 -649h637l58 254h30l-65 -281h-891zM772 1460l-192 215l12 11l186 -179l291 181l10 -13z" />
    <glyph glyph-name="ecaron" unicode="&#x11b;" horiz-adv-x="903" 
d="M784 559q0 125 -66 195t-196 69q-130 0 -242 -102t-149 -258h643q10 51 10 96zM117 334q0 -150 88 -236t230 -86t267 72l-6 -29q-123 -67 -269 -67t-244 93q-97 93 -97 255q0 208 131 360t322 152q127 0 201 -78t73 -213q0 -45 -16 -119h-670q-10 -57 -10 -104zM557 997
l-192 215l12 11l186 -179l291 181l10 -13z" />
    <glyph glyph-name="Gbreve" unicode="&#x11e;" horiz-adv-x="1388" 
d="M948 1470q-90 0 -147 54t-76 147l23 8q44 -176 208 -176t263 172l18 -10q-43 -87 -121 -141t-168 -54zM684 -18q-248 0 -386 148t-138 370t93 416t271 323t402 129t346 -131q72 -78 71 -166q0 -51 -38 -51q-14 0 -26 10q-11 10 -11 26t12 30q12 13 31 16q-6 57 -62 121
q-49 51 -136 86t-195 34q-209 -1 -380 -127t-259 -314q-89 -188 -89 -398q0 -211 132 -354q132 -144 372 -144q242 0 443 180l96 379h-447l7 27h475l-148 -592h-28l36 150q-196 -168 -444 -168z" />
    <glyph glyph-name="gbreve" unicode="&#x11f;" horiz-adv-x="995" 
d="M631 1008q-90 0 -148 54q-57 54 -75 146l22 9q43 -177 208 -177t263 172l19 -10q-43 -86 -121 -140t-168 -54zM403 16q172 0 293 164t121 338q0 133 -81 219t-212 86q-172 1 -286 -151t-115 -316t75 -252t205 -88zM307 -410q-69 0 -137 25q-128 48 -129 131q0 41 35 41
q34 0 34 -44q0 -22 -28 -32q20 -43 88 -69t141 -27q182 0 281 109q70 82 115 264l61 266q-58 -114 -154 -188t-224 -74t-213 94t-85 270t123 334t309 158q135 0 219 -84t93 -217l65 284h29l-195 -845q-45 -195 -125 -281q-102 -115 -303 -115z" />
    <glyph glyph-name="Gdotaccent" unicode="&#x120;" horiz-adv-x="1388" 
d="M973 1542q-39 0 -39 39q0 17 11 29t27 12t28 -12q11 -12 12 -29q0 -39 -39 -39zM684 -18q-248 0 -386 148t-138 370t93 416t271 323t402 129t346 -131q72 -78 71 -166q0 -51 -38 -51q-14 0 -26 10q-11 10 -11 26t12 30q12 13 31 16q-6 57 -62 121q-49 51 -136 86t-195 34
q-209 -1 -380 -127t-259 -314q-89 -188 -89 -398q0 -211 132 -354q132 -144 372 -144q242 0 443 180l96 379h-447l7 27h475l-148 -592h-28l36 150q-196 -168 -444 -168z" />
    <glyph glyph-name="gdotaccent" unicode="&#x121;" horiz-adv-x="995" 
d="M657 1079q-39 0 -39 39q0 16 12 28t27 13q15 0 27 -12t12 -29q0 -39 -39 -39zM403 16q172 0 293 164t121 338q0 133 -81 219t-212 86q-172 1 -286 -151t-115 -316t75 -252t205 -88zM307 -410q-69 0 -137 25q-128 48 -129 131q0 41 35 41q34 0 34 -44q0 -22 -28 -32
q20 -43 88 -69t141 -27q182 0 281 109q70 82 115 264l61 266q-58 -114 -154 -188t-224 -74t-213 94t-85 270t123 334t309 158q135 0 219 -84t93 -217l65 284h29l-195 -845q-45 -195 -125 -281q-102 -115 -303 -115z" />
    <glyph glyph-name="Gcommaaccent" unicode="&#x122;" horiz-adv-x="1388" 
d="M547 -166q0 16 10 26t25 11q45 0 45 -56q0 -55 -45 -115t-117 -99l-8 14q127 82 139 180q-20 -2 -35 10q-14 13 -14 29zM684 -18q-248 0 -386 148t-138 370t93 416t271 323t402 129t346 -131q72 -78 71 -166q0 -51 -38 -51q-14 0 -26 10q-11 10 -11 26t12 30q12 13 31 16
q-6 57 -62 121q-49 51 -136 86t-195 34q-209 -1 -380 -127t-259 -314q-89 -188 -89 -398q0 -211 132 -354q132 -144 372 -144q242 0 443 180l96 379h-447l7 27h475l-148 -592h-28l36 150q-196 -168 -444 -168z" />
    <glyph glyph-name="gcommaaccent" unicode="&#x123;" horiz-adv-x="1015" 
d="M684 1122q0 -35 -35 -37q-45 1 -45 57t45 116t117 98l8 -15q-127 -82 -139 -180q21 2 35 -10q14 -13 14 -29zM403 16q172 0 293 164t121 338q0 133 -81 219t-212 86q-172 1 -286 -151t-115 -316t75 -252t205 -88zM307 -410q-69 0 -137 25q-128 48 -129 131q0 41 35 41
q34 0 34 -44q0 -22 -28 -32q20 -43 88 -69t141 -27q182 0 281 109q70 82 115 264l61 266q-58 -114 -154 -188t-224 -74t-213 94t-85 270t123 334t309 158q135 0 219 -84t93 -217l65 284h29l-195 -845q-45 -195 -125 -281q-102 -115 -303 -115z" />
    <glyph glyph-name="Hbar" unicode="&#x126;" horiz-adv-x="1482" 
d="M381 711h856l66 290h-854zM1505 1026l-4 -25h-168l-223 -974h213l-6 -27h-436l4 27h194l152 657h-854l-154 -657h213l-6 -27h-438l6 27h195l225 974h-168l4 25h170l68 295h-216l7 27h446l-6 -27h-201l-67 -295h854l67 295h-219l4 27h447l-4 -27h-197l-68 -295h166z" />
    <glyph glyph-name="hbar" unicode="&#x127;" horiz-adv-x="1017" 
d="M620 848q106 0 159 -51q55 -51 55 -133t-35 -195l-66 -217q-31 -98 -31 -144t25 -70q25 -26 68 -26t75 36t64 120l22 -6q-34 -94 -72 -134t-92 -40t-86 32t-32 85q0 52 31 151l65 217q35 115 35 182q0 168 -178 168q-135 0 -253 -134t-165 -337l-84 -352h-29l273 1153
h-168l6 25h168l69 297h-176l4 24h207l-76 -321h340l-6 -25h-340l-147 -625q64 140 164 230t206 90z" />
    <glyph glyph-name="Imacron" unicode="&#x12a;" horiz-adv-x="616" 
d="M305 1534l6 29h533l-6 -29h-533zM-8 0l6 27h205l299 1294h-205l4 27h442l-6 -27h-205l-299 -1294h205l-4 -27h-442z" />
    <glyph glyph-name="imacron" unicode="&#x12b;" horiz-adv-x="524" 
d="M158 1071l6 29h532l-6 -29h-532zM265 -12q-54 0 -86 32t-32 80q0 47 31 156l164 555h-182l6 25h209l-168 -584q-31 -98 -31 -144t25 -70q25 -26 67 -26t73 36q32 36 65 120l22 -6q-35 -94 -72 -134t-91 -40z" />
    <glyph glyph-name="Ibreve" unicode="&#x12c;" horiz-adv-x="616" 
d="M553 1470q-90 0 -147 54t-76 147l22 8q43 -176 208 -176t263 172l19 -10q-43 -87 -121 -141t-168 -54zM-8 0l6 27h205l299 1294h-205l4 27h442l-6 -27h-205l-299 -1294h205l-4 -27h-442z" />
    <glyph glyph-name="ibreve" unicode="&#x12d;" horiz-adv-x="524" 
d="M408 1008q-90 0 -148 54q-57 54 -76 146l23 9q43 -177 208 -177t263 172l18 -10q-42 -86 -120 -140t-168 -54zM265 -12q-54 0 -86 32t-32 80q0 47 31 156l164 555h-182l6 25h209l-168 -584q-31 -98 -31 -144t25 -70q25 -26 67 -26t73 36q32 36 65 120l22 -6
q-35 -94 -72 -134t-91 -40z" />
    <glyph glyph-name="Iogonek" unicode="&#x12e;" horiz-adv-x="616" 
d="M156 -387q53 0 100 18l-8 -24q-42 -19 -102 -19t-98 36t-38 100q0 135 191 276h-209l6 27h205l299 1294h-205l4 27h442l-6 -27h-205l-299 -1294h205l-4 -27h-203q-193 -150 -192 -272q0 -53 32 -84t85 -31z" />
    <glyph glyph-name="iogonek" unicode="&#x12f;" horiz-adv-x="524" 
d="M393 1085q-35 0 -35 37q0 14 10 24t25 11q15 0 25 -10t10 -25q0 -37 -35 -37zM123 -282q0 -44 32 -74q32 -31 85 -31t98 18l-4 -24q-48 -19 -106 -19t-96 36t-38 105t52 131t145 132q-12 -4 -27 -4q-51 0 -84 32t-33 79q0 48 31 157l164 555h-182l6 25h209l-168 -584
q-31 -109 -31 -149q0 -39 25 -65t65 -26t74 36q33 36 66 120l22 -6q-49 -117 -106 -166q-78 -63 -101 -86q-22 -24 -49 -55t-38 -62t-11 -75z" />
    <glyph glyph-name="Idotaccent" unicode="&#x130;" horiz-adv-x="616" 
d="M580 1542q-39 0 -39 39q0 17 11 29q12 12 28 12t27 -12t11 -29q1 -39 -38 -39zM-8 0l6 27h205l299 1294h-205l4 27h442l-6 -27h-205l-299 -1294h205l-4 -27h-442z" />
    <glyph glyph-name="dotlessi" unicode="&#x131;" horiz-adv-x="524" 
d="M265 -12q-54 0 -86 32t-32 80q0 47 31 156l164 555h-182l6 25h209l-168 -584q-31 -98 -31 -144t25 -70q25 -26 67 -26t73 36q32 36 65 120l22 -6q-35 -94 -72 -134t-91 -40z" />
    <glyph glyph-name="Kcommaaccent" unicode="&#x136;" horiz-adv-x="1263" 
d="M1266 1321l-658 -565l363 -729h190l-4 -27h-205l-364 739l-250 -215l-115 -497h213l-6 -27h-438l6 27h195l299 1294h-216l7 27h446l-6 -27h-201l-176 -758l879 758h-236l6 27h428l-6 -27h-151zM522 -129q45 0 45 -56q-1 -55 -45 -115t-116 -99l-9 14q127 82 140 180
q-20 -2 -35 10q-14 13 -14 29t10 26t24 11z" />
    <glyph glyph-name="kcommaaccent" unicode="&#x137;" horiz-adv-x="911" 
d="M743 811q1 17 11 27t23 10t25 -14t11 -37q0 -135 -385 -342l111 -271q39 -94 69 -133t72 -39q82 0 129 181l20 -7q-47 -199 -153 -198q-51 0 -86 43t-76 145l-113 266q-121 -61 -192 -88l-82 -354h-29l342 1475h-172l4 24h201l-258 -1118q199 82 372 196t189 193
q-33 6 -33 41zM291 -166q0 16 10 26t25 11q45 0 45 -56q0 -55 -45 -115t-117 -99l-8 14q127 82 139 180q-20 -2 -35 10q-14 13 -14 29z" />
    <glyph glyph-name="Lacute" unicode="&#x139;" horiz-adv-x="1011" 
d="M-8 0l6 27h195l299 1294h-216l7 27h446l-6 -27h-201l-299 -1294h584l59 260h29l-66 -287h-837zM793 1663q23 0 22 -23q0 -16 -29 -28l-284 -150l-6 11l264 176q20 14 33 14z" />
    <glyph glyph-name="lacute" unicode="&#x13a;" horiz-adv-x="485" 
d="M250 -12q-53 0 -85 34t-32 80t19 121l288 1252h-170l4 24h201l-297 -1282q-16 -67 -16 -109t24 -69t66 -27q43 0 76 36t63 120l21 -6q-35 -94 -72 -134t-90 -40zM422 1583l-6 10l264 176q20 15 38 15t18 -20t-29 -31z" />
    <glyph glyph-name="Lcommaaccent" unicode="&#x13b;" horiz-adv-x="1011" 
d="M-8 0l6 27h195l299 1294h-216l7 27h446l-6 -27h-201l-299 -1294h584l59 260h29l-66 -287h-837zM379 -166q0 16 10 26t25 11q45 0 45 -56q0 -55 -45 -115t-117 -99l-8 14q127 82 139 180q-20 -2 -35 10q-14 13 -14 29z" />
    <glyph glyph-name="lcommaaccent" unicode="&#x13c;" horiz-adv-x="491" 
d="M256 -12q-53 0 -85 34t-32 80t19 121l288 1252h-170l5 24h200l-297 -1282q-16 -67 -16 -109t24 -69t66 -27q43 0 76 36t63 120l21 -6q-35 -94 -72 -134t-90 -40zM162 -166q0 16 10 26t25 11q45 0 45 -56q0 -55 -45 -115t-117 -99l-8 14q127 82 139 180q-20 -2 -35 10
q-14 13 -14 29z" />
    <glyph glyph-name="Lcaron" unicode="&#x13d;" horiz-adv-x="1011" 
d="M-8 0l6 27h195l299 1294h-216l7 27h446l-6 -27h-201l-299 -1294h584l59 260h29l-66 -287h-837zM899 1348q23 0 23 -35t-35 -114t-96 -157l-11 11q54 74 70 126t24 142q2 27 25 27z" />
    <glyph glyph-name="lcaron" unicode="&#x13e;" horiz-adv-x="491" 
d="M256 -12q-53 0 -85 34t-32 80t19 121l288 1252h-170l5 24h200l-297 -1282q-16 -67 -16 -109t24 -69t66 -27q43 0 76 36t63 120l21 -6q-35 -94 -72 -134t-90 -40zM627 1497q52 0 -15 -154q-33 -73 -94 -151l-10 10q54 74 70 126t24 142q2 27 25 27z" />
    <glyph glyph-name="Ldot" unicode="&#x13f;" horiz-adv-x="1011" 
d="M870 678q-39 0 -39 39q-1 16 11 28q12 13 28 13t28 -12t11 -29q0 -39 -39 -39zM-8 0l6 27h195l299 1294h-216l7 27h446l-6 -27h-201l-299 -1294h584l59 260h29l-66 -287h-837z" />
    <glyph glyph-name="ldot" unicode="&#x140;" horiz-adv-x="528" 
d="M553 688q-39 0 -39 39q0 17 11 29t27 12t28 -12t12 -29q0 -39 -39 -39zM256 -12q-53 0 -85 34t-32 80t19 121l288 1252h-170l5 24h200l-297 -1282q-16 -67 -16 -109t24 -69t66 -27q43 0 76 36t63 120l21 -6q-35 -94 -72 -134t-90 -40z" />
    <glyph glyph-name="Lslash" unicode="&#x141;" horiz-adv-x="1054" 
d="M-8 0l6 27h195l139 602l-230 -90l-8 24l244 94l154 664h-216l7 27h446l-6 -27h-201l-149 -649l338 133l6 -25l-350 -137l-144 -616h584l59 260h29l-66 -287h-837z" />
    <glyph glyph-name="lslash" unicode="&#x142;" horiz-adv-x="509" 
d="M260 -12q-53 0 -85 34t-32 80t19 121l139 604l-240 -102l-8 23l254 108l144 619h-170l4 24h200l-147 -633l254 107l10 -21l-270 -114l-144 -621q-16 -67 -16 -109t24 -69t66 -27t76 36q33 36 63 120l21 -6q-35 -94 -72 -134t-90 -40z" />
    <glyph glyph-name="Nacute" unicode="&#x143;" horiz-adv-x="1478" 
d="M1102 -10l-590 1306l-289 -1269h215l-6 -27h-438l4 27h197l294 1294h-210l6 27h233l590 -1303l291 1276h-221l6 27h446l-6 -27h-194l-306 -1331h-22zM1182 1673q23 0 22 -22q0 -16 -28 -29l-285 -149l-6 10l264 176q23 14 33 14z" />
    <glyph glyph-name="nacute" unicode="&#x144;" horiz-adv-x="1030" 
d="M805 -12q-55 0 -86 32t-31 85q0 52 31 151l67 217q35 104 35 182q0 168 -176 168q-133 0 -251 -133t-169 -336l-88 -354h-28l202 811h-174l4 25h205l-80 -312q68 148 169 236t205 88t156 -50q54 -50 54 -132t-35 -197l-70 -217q-29 -102 -29 -146t24 -68q24 -26 67 -26
t76 36t65 120l21 -6q-35 -94 -72 -134t-92 -40zM844 1210q23 0 22 -22q0 -16 -28 -29l-285 -149l-6 10l264 176q20 14 33 14z" />
    <glyph glyph-name="Ncommaaccent" unicode="&#x145;" horiz-adv-x="1478" 
d="M1102 -10l-590 1306l-289 -1269h215l-6 -27h-438l4 27h197l294 1294h-210l6 27h233l590 -1303l291 1276h-221l6 27h446l-6 -27h-194l-306 -1331h-22zM586 -166q0 16 10 26t25 11q45 0 45 -56q0 -55 -45 -115t-117 -99l-8 14q127 82 139 180q-20 -2 -35 10q-14 13 -14 29z
" />
    <glyph glyph-name="ncommaaccent" unicode="&#x146;" horiz-adv-x="1030" 
d="M805 -12q-55 0 -86 32t-31 85q0 52 31 151l67 217q35 104 35 182q0 168 -176 168q-133 0 -251 -133t-169 -336l-88 -354h-28l202 811h-174l4 25h205l-80 -312q68 148 169 236t205 88t156 -50q54 -50 54 -132t-35 -197l-70 -217q-29 -102 -29 -146t24 -68q24 -26 67 -26
t76 36t65 120l21 -6q-35 -94 -72 -134t-92 -40zM389 -129q45 0 45 -56q0 -55 -45 -115t-117 -99l-8 14q127 82 139 180q-20 -2 -34 10q-15 13 -15 29t10 26t25 11z" />
    <glyph glyph-name="Ncaron" unicode="&#x147;" horiz-adv-x="1478" 
d="M1102 -10l-590 1306l-289 -1269h215l-6 -27h-438l4 27h197l294 1294h-210l6 27h233l590 -1303l291 1276h-221l6 27h446l-6 -27h-194l-306 -1331h-22zM961 1460l-193 215l12 11l187 -179l290 181l11 -13z" />
    <glyph glyph-name="ncaron" unicode="&#x148;" horiz-adv-x="1030" 
d="M805 -12q-55 0 -86 32t-31 85q0 52 31 151l67 217q35 104 35 182q0 168 -176 168q-133 0 -251 -133t-169 -336l-88 -354h-28l202 811h-174l4 25h205l-80 -312q68 148 169 236t205 88t156 -50q54 -50 54 -132t-35 -197l-70 -217q-29 -102 -29 -146t24 -68q24 -26 67 -26
t76 36t65 120l21 -6q-35 -94 -72 -134t-92 -40zM625 997l-193 215l12 11l187 -179l291 181l10 -13z" />
    <glyph glyph-name="Omacron" unicode="&#x14c;" horiz-adv-x="1460" 
d="M698 8q193 0 356 118t252 299t89 395q-1 214 -137 369t-373 154q-195 1 -357 -117t-250 -300t-90 -395q0 -213 137 -368t373 -155zM696 -18q-246 0 -391 162t-145 403q0 201 90 388t260 310t377 123q246 0 392 -162t146 -382t-90 -407t-261 -311t-378 -124zM723 1534
l6 29h533l-7 -29h-532z" />
    <glyph glyph-name="omacron" unicode="&#x14d;" horiz-adv-x="968" 
d="M438 12q174 0 292 142t118 313q0 172 -89 264t-231 92q-174 0 -292 -142q-118 -141 -117 -313q0 -172 90 -264t229 -92zM438 -12q-150 0 -249 98t-99 280t126 332t312 150q152 0 250 -98t98 -282t-124 -332q-126 -148 -314 -148zM365 1071l6 29h532l-6 -29h-532z" />
    <glyph glyph-name="Obreve" unicode="&#x14e;" horiz-adv-x="1460" 
d="M973 1470q-89 0 -147 54t-76 147l22 8q43 -176 208 -176t263 172l19 -10q-43 -87 -121 -141t-168 -54zM698 8q193 0 356 118t252 299t89 395q-1 214 -137 369t-373 154q-195 1 -357 -117t-250 -300t-90 -395q0 -213 137 -368t373 -155zM696 -18q-246 0 -391 162t-145 403
q0 201 90 388t260 310t377 123q246 0 392 -162t146 -382t-90 -407t-261 -311t-378 -124z" />
    <glyph glyph-name="obreve" unicode="&#x14f;" horiz-adv-x="968" 
d="M612 1008q-90 0 -147 54t-76 146l23 9q44 -177 208 -177t263 172l18 -10q-43 -86 -121 -140t-168 -54zM438 12q174 0 292 142t118 313q0 172 -89 264t-231 92q-174 0 -292 -142q-118 -141 -117 -313q0 -172 90 -264t229 -92zM438 -12q-150 0 -249 98t-99 280t126 332
t312 150q152 0 250 -98t98 -282t-124 -332q-126 -148 -314 -148z" />
    <glyph glyph-name="Ohungarumlaut" unicode="&#x150;" horiz-adv-x="1460" 
d="M698 8q193 0 356 118t252 299t89 395q-1 214 -137 369t-373 154q-195 1 -357 -117t-250 -300t-90 -395q0 -213 137 -368t373 -155zM696 -18q-246 0 -391 162t-145 403q0 201 90 388t260 310t377 123q246 0 392 -162t146 -382t-90 -407t-261 -311t-378 -124zM1366 1665
q18 0 18 -18t-28 -31l-273 -146l-8 13l258 172q15 10 33 10zM1048 1669q18 0 17 -19q0 -19 -27 -32l-270 -150l-6 13l252 176q16 12 34 12z" />
    <glyph glyph-name="ohungarumlaut" unicode="&#x151;" horiz-adv-x="968" 
d="M438 12q174 0 292 142t118 313q0 172 -89 264t-231 92q-174 0 -292 -142q-118 -141 -117 -313q0 -172 90 -264t229 -92zM438 -12q-150 0 -249 98t-99 280t126 332t312 150q152 0 250 -98t98 -282t-124 -332q-126 -148 -314 -148zM1001 1202q18 0 19 -20q0 -16 -29 -29
l-272 -145l-8 12l258 172q14 10 32 10zM682 1206q18 0 18 -19t-26 -32l-271 -149l-6 12l252 176q15 12 33 12z" />
    <glyph glyph-name="OE" unicode="&#x152;" horiz-adv-x="1880" 
d="M827 27h127l299 1294h-178q-434 0 -665 -236q-217 -217 -217 -536q0 -221 137 -359q163 -163 497 -163zM825 0q-346 0 -518 172q-143 143 -143 377q0 334 223 557q238 242 692 242h877l-66 -281h-28l59 254h-637l-141 -619h495l-4 -26h-499l-148 -649h635l59 254h29
l-65 -281h-820z" />
    <glyph glyph-name="oe" unicode="&#x153;" horiz-adv-x="1646" 
d="M1528 559q0 125 -66 195t-196 69q-129 0 -240 -102t-147 -258h639q10 51 10 96zM438 12q174 0 292 142t118 313q0 172 -89 264t-231 92q-174 0 -292 -142q-118 -141 -117 -313q0 -172 90 -264t229 -92zM432 -12q-144 0 -243 98t-99 280t126 332t312 150q142 0 236 -87
t106 -239q49 146 159 236t245 90t209 -77t73 -214q0 -59 -16 -119h-666q-10 -57 -10 -106q0 -150 87 -235t229 -85t268 72l-8 -29q-120 -67 -264 -67t-235 83t-99 228q-47 -135 -156 -223q-110 -88 -254 -88z" />
    <glyph glyph-name="Racute" unicode="&#x154;" horiz-adv-x="1165" 
d="M578 629q246 0 385 103t139 274q0 133 -74 204q-109 111 -358 111h-148l-157 -686q57 -6 213 -6zM580 602q-129 0 -222 6l-135 -581h213l-6 -27h-438l6 27h195l299 1294h-216l7 27h389q262 0 379 -119q82 -77 82 -231t-121 -262t-336 -128l256 -581h164l-6 -27h-179
l-264 604l-36 -2h-31zM979 1673q23 0 22 -22q0 -16 -28 -29l-285 -149l-6 10l264 176q20 14 33 14z" />
    <glyph glyph-name="racute" unicode="&#x155;" horiz-adv-x="600" 
d="M555 848q31 0 51 -18t21 -37q0 -35 -33 -35q-18 0 -29 12q-10 12 -10 26t4 19q-4 2 -14 2q-82 0 -172 -135t-142 -342l-86 -340h-28l200 811h-174l4 25h205l-80 -318q60 160 136 245t147 85zM686 1210q23 0 23 -22q0 -16 -29 -29l-285 -149l-6 10l264 176q20 14 33 14z
" />
    <glyph glyph-name="Rcommaaccent" unicode="&#x156;" horiz-adv-x="1165" 
d="M578 629q246 0 385 103t139 274q0 133 -74 204q-109 111 -358 111h-148l-157 -686q57 -6 213 -6zM580 602q-129 0 -222 6l-135 -581h213l-6 -27h-438l6 27h195l299 1294h-216l7 27h389q262 0 379 -119q82 -77 82 -231t-121 -262t-336 -128l256 -581h164l-6 -27h-179
l-264 604l-36 -2h-31zM453 -166q0 16 10 26t24 11q45 0 45 -56q0 -55 -44 -115t-117 -99l-9 14q127 82 140 180q-20 -2 -35 10q-14 13 -14 29z" />
    <glyph glyph-name="rcommaaccent" unicode="&#x157;" horiz-adv-x="587" 
d="M549 848q31 0 51 -18t21 -37q0 -35 -33 -35q-18 0 -29 12q-10 12 -10 26t4 19q-4 2 -14 2q-82 0 -172 -135t-142 -342l-86 -340h-28l200 811h-174l4 25h205l-80 -318q61 160 136 245t147 85zM98 -129q45 0 45 -56q-1 -55 -45 -115t-116 -99l-9 14q127 82 140 180
q-20 -2 -35 10q-14 13 -14 29t10 26t24 11z" />
    <glyph glyph-name="Rcaron" unicode="&#x158;" horiz-adv-x="1165" 
d="M578 629q246 0 385 103t139 274q0 133 -74 204q-109 111 -358 111h-148l-157 -686q57 -6 213 -6zM580 602q-129 0 -222 6l-135 -581h213l-6 -27h-438l6 27h195l299 1294h-216l7 27h389q262 0 379 -119q82 -77 82 -231t-121 -262t-336 -128l256 -581h164l-6 -27h-179
l-264 604l-36 -2h-31zM758 1460l-193 215l13 11l186 -179l291 181l10 -13z" />
    <glyph glyph-name="rcaron" unicode="&#x159;" horiz-adv-x="600" 
d="M555 848q31 0 51 -18t21 -37q0 -35 -33 -35q-18 0 -29 12q-10 12 -10 26t4 19q-4 2 -14 2q-82 0 -172 -135t-142 -342l-86 -340h-28l200 811h-174l4 25h205l-80 -318q60 160 136 245t147 85zM465 997l-193 215l13 11l186 -179l291 181l10 -13z" />
    <glyph glyph-name="Sacute" unicode="&#x15a;" horiz-adv-x="1003" 
d="M470 -18q-175 0 -289 84t-113 178q0 49 41 49q33 0 33 -36t-36 -40q16 -82 116 -145q100 -64 255 -64q154 0 256 89q103 89 103 207t-62 196q-62 76 -202 178q-142 102 -205 184t-64 189q0 141 109 229q108 88 262 88t249 -74t95 -166q0 -49 -37 -49t-37 36t37 42
q-14 76 -95 131t-218 55t-237 -79q-99 -80 -99 -211q0 -100 60 -177t203 -180q143 -104 206 -182t63 -192q0 -147 -109 -244q-110 -96 -285 -96zM948 1673q23 0 23 -22q0 -16 -29 -29l-285 -149l-6 10l264 176q23 14 33 14z" />
    <glyph glyph-name="sacute" unicode="&#x15b;" horiz-adv-x="768" 
d="M366 -12q-189 0 -276 106q-37 51 -37 94t35 43q29 1 29 -33t-31 -42q6 -25 29 -50q78 -94 235 -94q108 0 176 54t68 133q0 78 -51 124t-155 96t-160 99q-54 49 -54 130t75 140t181 60q162 0 240 -90q35 -37 35 -78t-33 -41t-33 35q0 29 29 39q-12 25 -27 39
q-72 72 -211 71q-94 0 -161 -52q-67 -53 -67 -123t49 -113t155 -95t161 -101q55 -50 55 -140q0 -91 -76 -151q-78 -60 -180 -60zM733 1210q23 0 23 -22q0 -16 -29 -29l-285 -149l-6 10l264 176q20 14 33 14z" />
    <glyph glyph-name="Scedilla" unicode="&#x15e;" horiz-adv-x="1003" 
d="M463 -18h-31l-51 -125q82 -4 122 -39t40 -91q0 -57 -46 -97t-141 -40t-194 60l12 20q100 -55 182 -55t120 33t38 81q0 47 -41 77t-121 28l-6 6l64 144q-147 14 -245 94q-97 80 -97 166q0 49 41 49q33 0 33 -36t-36 -40q16 -82 116 -145q100 -64 255 -64q154 0 256 89
q103 89 103 207t-62 196q-62 76 -202 178q-142 102 -205 184t-64 189q0 141 109 229q108 88 262 88t249 -74t95 -166q0 -49 -37 -49t-37 36t37 42q-14 76 -95 131t-218 55t-237 -79q-99 -80 -99 -211q0 -100 60 -177t203 -180q143 -104 206 -182t63 -192q0 -147 -109 -244
q-110 -96 -292 -96z" />
    <glyph glyph-name="scedilla" unicode="&#x15f;" horiz-adv-x="768" 
d="M258 -410q-94 0 -192 60l12 20q100 -55 181 -55t119 33t38 82q0 50 -40 78t-122 26l-4 6l65 152q-152 12 -223 106q-39 45 -39 90t33 45q33 -1 33 -35t-33 -38q6 -18 31 -51q78 -94 233 -95q108 0 176 54t68 131q0 78 -51 124t-155 96t-160 99q-54 49 -54 130t75 139
t181 59q160 0 238 -90q34 -37 34 -78t-32 -41t-33 35q0 27 29 39q-6 18 -27 39q-72 72 -211 71q-94 0 -160 -51q-66 -52 -66 -122t49 -113t155 -95t161 -101q55 -50 55 -140q0 -89 -75 -149q-76 -60 -197 -60h-12l-53 -133q82 -4 121 -39q38 -35 38 -91q0 -57 -46 -97
t-140 -40z" />
    <glyph glyph-name="Scaron" unicode="&#x160;" horiz-adv-x="1003" 
d="M470 -18q-175 0 -289 84t-113 178q0 49 41 49q33 0 33 -36t-36 -40q16 -82 116 -145q100 -64 255 -64q154 0 256 89q103 89 103 207t-62 196q-62 76 -202 178q-142 102 -205 184t-64 189q0 141 109 229q108 88 262 88t249 -74t95 -166q0 -49 -37 -49t-37 36t37 42
q-14 76 -95 131t-218 55t-237 -79q-99 -80 -99 -211q0 -100 60 -177t203 -180q143 -104 206 -182t63 -192q0 -147 -109 -244q-110 -96 -285 -96zM729 1460l-192 215l12 11l186 -179l291 181l10 -13z" />
    <glyph glyph-name="scaron" unicode="&#x161;" horiz-adv-x="768" 
d="M366 -12q-189 0 -276 106q-37 51 -37 94t35 43q29 1 29 -33t-31 -42q6 -25 29 -50q78 -94 235 -94q108 0 176 54t68 133q0 78 -51 124t-155 96t-160 99q-54 49 -54 130t75 140t181 60q162 0 240 -90q35 -37 35 -78t-33 -41t-33 35q0 29 29 39q-12 25 -27 39
q-72 72 -211 71q-94 0 -161 -52q-67 -53 -67 -123t49 -113t155 -95t161 -101q55 -50 55 -140q0 -91 -76 -151q-78 -60 -180 -60zM514 997l-192 215l12 11l186 -179l291 181l10 -13z" />
    <glyph glyph-name="Tcommaaccent" unicode="&#x162;" horiz-adv-x="1173" 
d="M283 0l6 27h192l297 1294h-467l-61 -268h-29l68 295h1024l-68 -295h-28l61 268h-467l-299 -1294h213l-6 -27h-436zM420 -166q0 16 10 26t25 11q45 0 45 -56q0 -55 -45 -115t-117 -99l-8 14q127 82 139 180q-20 -2 -35 10q-14 13 -14 29z" />
    <glyph glyph-name="tcommaaccent" unicode="&#x163;" horiz-adv-x="573" 
d="M252 12q76 0 188 97l15 -19q-119 -102 -193 -102q-146 0 -145 135q0 41 18 106l144 582h-164l4 25h166l57 227l31 6l-60 -233h273l-6 -25h-273l-145 -584q-16 -73 -16 -115t28 -71q29 -29 78 -29zM164 -166q0 16 10 26t25 11q45 0 45 -56q0 -55 -45 -115t-117 -99l-8 14
q127 82 139 180q-20 -2 -35 10q-14 13 -14 29z" />
    <glyph glyph-name="Tcaron" unicode="&#x164;" horiz-adv-x="1173" 
d="M283 0l6 27h192l297 1294h-467l-61 -268h-29l68 295h1024l-68 -295h-28l61 268h-467l-299 -1294h213l-6 -27h-436zM805 1460l-193 215l13 11l186 -179l291 181l10 -13z" />
    <glyph glyph-name="tcaron" unicode="&#x165;" horiz-adv-x="573" 
d="M252 12q76 0 188 97l15 -19q-119 -102 -193 -102q-146 0 -145 135q0 41 18 106l144 582h-164l4 25h166l57 227l31 6l-60 -233h273l-6 -25h-273l-145 -584q-16 -73 -16 -115t28 -71q29 -29 78 -29zM570 1284q22 0 22 -34t-35 -114q-35 -79 -96 -157l-10 10q55 75 70 127
t24 141q3 27 25 27z" />
    <glyph glyph-name="Umacron" unicode="&#x16a;" horiz-adv-x="1374" 
d="M668 1534l6 29h532l-6 -29h-532zM633 -18q-168 0 -274 90q-105 90 -105 266q0 76 31 213l176 770h-213l6 27h446l-6 -27h-202l-179 -774q-31 -137 -30 -207q0 -166 97 -249q96 -83 272 -83t288 120t168 376l188 817h-221l6 27h447l-6 -27h-195l-190 -819
q-61 -270 -179 -395t-325 -125z" />
    <glyph glyph-name="umacron" unicode="&#x16b;" horiz-adv-x="1040" 
d="M371 1071l6 29h532l-6 -29h-532zM188 173q0 -71 44 -116t124 -45q131 0 248 133t166 334l88 357h29l-154 -625q-16 -69 -16 -107q1 -38 23 -65t66 -27t76 36t64 120l21 -6q-35 -94 -72 -134t-90 -40t-84 32t-31 80t17 119l22 86q-66 -141 -166 -229q-101 -88 -201 -88
t-152 52t-52 122t37 217l106 432h-176l6 25h203l-113 -459q-33 -133 -33 -204z" />
    <glyph glyph-name="Ubreve" unicode="&#x16c;" horiz-adv-x="1374" 
d="M915 1470q-90 0 -147 54t-76 147l23 8q43 -176 208 -176t263 172l18 -10q-43 -87 -121 -141t-168 -54zM633 -18q-168 0 -274 90q-105 90 -105 266q0 76 31 213l176 770h-213l6 27h446l-6 -27h-202l-179 -774q-31 -137 -30 -207q0 -166 97 -249q96 -83 272 -83t288 120
t168 376l188 817h-221l6 27h447l-6 -27h-195l-190 -819q-61 -270 -179 -395t-325 -125z" />
    <glyph glyph-name="ubreve" unicode="&#x16d;" horiz-adv-x="1040" 
d="M625 1008q-90 0 -148 54q-57 54 -76 146l23 9q43 -177 208 -177t263 172l18 -10q-43 -86 -121 -140t-167 -54zM188 173q0 -71 44 -116t124 -45q131 0 248 133t166 334l88 357h29l-154 -625q-16 -69 -16 -107q1 -38 23 -65t66 -27t76 36t64 120l21 -6q-35 -94 -72 -134
t-90 -40t-84 32t-31 80t17 119l22 86q-66 -141 -166 -229q-101 -88 -201 -88t-152 52t-52 122t37 217l106 432h-176l6 25h203l-113 -459q-33 -133 -33 -204z" />
    <glyph glyph-name="Uring" unicode="&#x16e;" horiz-adv-x="1374" 
d="M633 -18q-168 0 -274 90q-105 90 -105 266q0 76 31 213l176 770h-213l6 27h446l-6 -27h-202l-179 -774q-31 -137 -30 -207q0 -166 97 -249q96 -83 272 -83t288 120t168 376l188 817h-221l6 27h447l-6 -27h-195l-190 -819q-61 -270 -179 -395t-325 -125zM1071 1644
q0 54 -28 84q-29 30 -79 29q-50 0 -90 -48q-40 -49 -38 -103q0 -54 28 -84t78 -31q51 0 90 49q39 50 39 104zM1100 1644q0 -62 -48 -120q-48 -56 -112 -56t-98 38q-35 38 -35 102t47 118q48 56 112 56t99 -38t35 -100z" />
    <glyph glyph-name="uring" unicode="&#x16f;" horiz-adv-x="1040" 
d="M188 173q0 -71 44 -116t124 -45q131 0 248 133t166 334l88 357h29l-154 -625q-16 -69 -16 -107q1 -38 23 -65t66 -27t76 36t64 120l21 -6q-35 -94 -72 -134t-90 -40t-84 32t-31 80t17 119l22 86q-66 -141 -166 -229q-101 -88 -201 -88t-152 52t-52 122t37 217l106 432
h-176l6 25h203l-113 -459q-33 -133 -33 -204zM541 1144q-1 -54 27 -85t79 -31t90 49t39 103t-27 85q-28 29 -79 29t-90 -48t-39 -102zM646 1006q-64 0 -99 38t-35 101q0 64 47 119t111 55t100 -38q35 -39 35 -101t-48 -118q-47 -56 -111 -56z" />
    <glyph glyph-name="Uhungarumlaut" unicode="&#x170;" horiz-adv-x="1374" 
d="M1308 1665q18 0 19 -18q0 -18 -29 -31l-272 -146l-8 13l258 172q14 10 32 10zM990 1669q18 0 18 -19t-27 -32l-270 -150l-6 13l251 176q16 12 34 12zM633 -18q-168 0 -274 90q-105 90 -105 266q0 76 31 213l176 770h-213l6 27h446l-6 -27h-202l-179 -774
q-31 -137 -30 -207q0 -166 97 -249q96 -83 272 -83t288 120t168 376l188 817h-221l6 27h447l-6 -27h-195l-190 -819q-61 -270 -179 -395t-325 -125z" />
    <glyph glyph-name="uhungarumlaut" unicode="&#x171;" horiz-adv-x="1040" 
d="M1014 1202q18 0 18 -18t-28 -31l-273 -145l-8 12l258 172q15 10 33 10zM695 1206q17 0 17 -19t-26 -32l-270 -149l-6 12l252 176q16 12 33 12zM188 173q0 -71 44 -116t124 -45q131 0 248 133t166 334l88 357h29l-154 -625q-16 -69 -16 -107q1 -38 23 -65t66 -27t76 36
t64 120l21 -6q-35 -94 -72 -134t-90 -40t-84 32t-31 80t17 119l22 86q-66 -141 -166 -229q-101 -88 -201 -88t-152 52t-52 122t37 217l106 432h-176l6 25h203l-113 -459q-33 -133 -33 -204z" />
    <glyph glyph-name="Uogonek" unicode="&#x172;" horiz-adv-x="1374" 
d="M633 -18q-168 0 -274 90q-105 90 -105 266q0 76 31 213l176 770h-213l6 27h446l-6 -27h-202l-179 -774q-31 -137 -30 -207q0 -166 97 -249q96 -83 272 -83t288 120t168 376l188 817h-221l6 27h447l-6 -27h-195l-190 -819q-57 -256 -168 -382t-299 -138
q-168 -137 -168 -254q0 -53 33 -85t82 -32t102 20l-6 -24q-45 -19 -103 -19t-97 37q-38 37 -38 99q0 131 164 258h-6z" />
    <glyph glyph-name="uogonek" unicode="&#x173;" horiz-adv-x="1040" 
d="M778 -387q53 0 99 18l-7 -24q-46 -19 -104 -19t-96 36t-37 105q0 69 51 131t141 130q-8 -2 -22 -2q-51 0 -82 32t-31 80t8 84t31 123q-68 -145 -166 -232q-97 -87 -199 -87t-154 52t-52 122t37 217l106 432h-176l6 25h203l-113 -459q-33 -133 -33 -204t44 -116t124 -45
q131 0 248 133t166 334l88 357h29l-154 -625q-16 -69 -16 -107q1 -38 23 -65t64 -27t76 36q33 36 66 120l21 -6q-43 -109 -109 -166q-74 -59 -98 -85q-24 -25 -61 -68t-39 -105q-1 -63 32 -94t86 -31z" />
    <glyph glyph-name="Wcircumflex" unicode="&#x174;" horiz-adv-x="1914" 
d="M463 -35l-68 1356h-162l7 27h387l-6 -27h-195l61 -1296l592 1122h19l106 -1122l672 1296h-195l7 27h387l-7 -27h-157l-711 -1356h-18l-105 1120l-594 -1120h-20zM1032 1458l-10 12l307 216l193 -216l-13 -10l-186 178z" />
    <glyph glyph-name="wcircumflex" unicode="&#x175;" horiz-adv-x="1280" 
d="M1167 762v8q-6 -2 -18 -2t-26 12q-13 12 -13 31q0 35 33 35q51 0 51 -84q0 -129 -100 -354t-252 -443h-17l-143 703l-387 -703h-14l-54 846h-164l5 25h186l49 -811l379 692h14l148 -709q139 207 231 421t92 333zM506 995l-10 13l307 215l192 -215l-12 -11l-186 179z" />
    <glyph glyph-name="Ycircumflex" unicode="&#x176;" horiz-adv-x="1269" 
d="M618 1458l-10 12l307 216l193 -216l-12 -10l-187 178zM303 0l6 27h207l131 548l-278 746h-138l7 27h370l-4 -27h-205l267 -721l612 721h-201l6 27h371l-4 -27h-135l-639 -750l-129 -544h215l-4 -27h-455z" />
    <glyph glyph-name="ycircumflex" unicode="&#x177;" horiz-adv-x="901" 
d="M326 995l-11 13l308 215l192 -215l-12 -11l-187 179zM-70 -403q-31 0 -50 13t-19 36q0 33 33 32q43 0 43 -43q0 -8 -3 -14q63 4 178 93q114 89 261 268l-160 829h-162l4 25h183l157 -830q170 209 291 431t123 335q-6 -2 -18 -2t-26 12q-13 12 -13 31q0 35 32 35
q51 0 52 -74q0 -115 -128 -348t-307 -449q-311 -380 -471 -380z" />
    <glyph glyph-name="Ydieresis" unicode="&#x178;" horiz-adv-x="1269" 
d="M774 1509q-16 -1 -26 11q-24 27 0 54q10 11 26 11q39 0 39 -39q1 -16 -11 -26t-28 -11zM993 1585q17 0 27 -11q10 -10 10 -26t-12 -28t-26 -11q-15 1 -26 11t-12 26q0 39 39 39zM303 0l6 27h207l131 548l-278 746h-138l7 27h370l-4 -27h-205l267 -721l612 721h-201l6 27
h371l-4 -27h-135l-639 -750l-129 -544h215l-4 -27h-455z" />
    <glyph glyph-name="Zacute" unicode="&#x179;" horiz-adv-x="1169" 
d="M-2 0v16l1225 1305h-856l-60 -256h-28l63 283h928v-17l-1225 -1304h899l62 256h28l-65 -283h-971zM1014 1673q23 0 22 -22q0 -16 -28 -29l-285 -149l-6 10l264 176q23 14 33 14z" />
    <glyph glyph-name="zacute" unicode="&#x17a;" horiz-adv-x="819" 
d="M506 8q72 0 117 51t75 160l23 -4q-33 -117 -83 -174t-134 -57q-37 0 -138 22t-159 23q-123 0 -203 -43l-12 16l780 809h-555l-45 -178h-25l50 203h608l8 -17l-766 -792q112 50 323 4q101 -23 136 -23zM739 1210q23 0 23 -22q0 -16 -29 -29l-284 -149l-7 10l265 176
q23 14 32 14z" />
    <glyph glyph-name="Zdotaccent" unicode="&#x17b;" horiz-adv-x="1169" 
d="M840 1542q-39 0 -39 39q0 17 11 29q12 12 28 12t27 -12t12 -29q0 -39 -39 -39zM-2 0v16l1225 1305h-856l-60 -256h-28l63 283h928v-17l-1225 -1304h899l62 256h28l-65 -283h-971z" />
    <glyph glyph-name="zdotaccent" unicode="&#x17c;" horiz-adv-x="819" 
d="M565 1079q-39 0 -39 39q0 16 12 28t27 13q15 0 27 -12t12 -29q0 -39 -39 -39zM506 8q72 0 117 51t75 160l23 -4q-33 -117 -83 -174t-134 -57q-37 0 -138 22t-159 23q-123 0 -203 -43l-12 16l780 809h-555l-45 -178h-25l50 203h608l8 -17l-766 -792q112 50 323 4
q101 -23 136 -23z" />
    <glyph glyph-name="Zcaron" unicode="&#x17d;" horiz-adv-x="1169" 
d="M-2 0v16l1225 1305h-856l-60 -256h-28l63 283h928v-17l-1225 -1304h899l62 256h28l-65 -283h-971zM793 1460l-193 215l12 11l187 -179l291 181l10 -13z" />
    <glyph glyph-name="zcaron" unicode="&#x17e;" horiz-adv-x="819" 
d="M506 8q72 0 117 51t75 160l23 -4q-33 -117 -83 -174t-134 -57q-37 0 -138 22t-159 23q-123 0 -203 -43l-12 16l780 809h-555l-45 -178h-25l50 203h608l8 -17l-766 -792q112 50 323 4q101 -23 136 -23zM518 997l-192 215l12 11l186 -179l291 181l10 -13z" />
    <glyph glyph-name="Aringacute" unicode="&#x1fa;" horiz-adv-x="1396" 
d="M440 547h580l-111 778zM819 1464q0 -54 28 -86q28 -30 79 -30t91 48t40 102t-28 85t-79 31t-91 -48t-40 -102zM951 1636q63 0 99 -37t36 -91t-28 -98t-73 -62h148l-7 -27h-188l186 -1294h142l-6 -27h-363l6 27h191l-70 493h-598l-299 -493h209l-6 -27h-363l6 27h119
l785 1294h-195l6 27h168q-66 28 -66 104t49 130q48 54 112 54zM1245 1958q23 0 23 -23q0 -16 -29 -28l-285 -150l-6 10l264 177q20 14 33 14z" />
    <glyph glyph-name="aringacute" unicode="&#x1fb;" horiz-adv-x="1056" 
d="M684 1454l-6 10l264 176q20 14 38 14t18 -18q0 -20 -29 -32zM541 1144q-1 -54 27 -85t79 -31t90 49t39 103t-27 85q-28 29 -79 29t-90 -48t-39 -102zM646 1006q-64 0 -99 38t-35 101q0 64 47 119t111 55t100 -38q35 -39 35 -101t-48 -118q-47 -56 -111 -56zM381 12
q174 0 293 163t119 345q0 133 -77 218t-198 85q-170 -1 -285 -155t-114 -351q-1 -145 71 -225t191 -80zM372 -12q-122 0 -202 86t-80 241q0 209 123 371t305 162q123 0 205 -82t90 -217l70 287h28l-153 -625q-16 -69 -16 -107t22 -65q24 -27 66 -27t74 35t67 121l20 -6
q-35 -94 -73 -134t-90 -40q-54 0 -84 34t-30 77t17 116l6 23q-57 -110 -150 -180t-215 -70z" />
    <glyph glyph-name="AEacute" unicode="&#x1fc;" horiz-adv-x="1703" 
d="M465 553h442l178 770h-16zM-117 0l6 27h129l1018 1294h-213l6 27h951l-66 -281h-28l59 254h-631l-141 -619h489l-6 -26h-489l-150 -649h629l59 254h29l-66 -281h-884l6 27h196l115 499h-457l-393 -499h201l-6 -27h-363zM1442 1673q23 0 22 -22q0 -16 -28 -29l-285 -149
l-6 10l264 176q20 14 33 14z" />
    <glyph glyph-name="aeacute" unicode="&#x1fd;" horiz-adv-x="1505" 
d="M1386 559q0 123 -65 193t-195 71q-130 0 -240 -102t-149 -258h639q10 51 10 96zM291 10q145 0 276 123t138 305h-254q-175 0 -275 -62t-100 -177q0 -82 55 -136q56 -53 160 -53zM723 332q0 -150 87 -235q86 -85 230 -85t265 72l-7 -29q-119 -67 -263 -67t-236 84
t-101 231q-48 -141 -164 -229t-240 -88t-185 60t-62 153q0 125 108 195t294 69h256q-4 158 -73 259t-216 101q-88 0 -140 -37q-25 -16 -34 -38q46 -24 17 -63q-9 -11 -23 -11q-37 0 -37 45q1 45 63 87t152 42q150 0 224 -93t89 -247q45 150 157 245t248 95t210 -77t73 -214
q0 -60 -16 -119h-666q-10 -57 -10 -106zM1063 1210q23 0 22 -22q0 -16 -28 -29l-285 -149l-6 10l264 176q23 14 33 14z" />
    <glyph glyph-name="Oslashacute" unicode="&#x1fe;" horiz-adv-x="1460" 
d="M1153 1673q23 0 23 -22q0 -16 -29 -29l-285 -149l-6 10l264 176q23 14 33 14zM188 562q0 -182 72 -310l1036 887q-139 205 -411 204q-195 1 -357 -117t-251 -300t-89 -364zM698 8q193 0 356 118t252 299t89 371t-84 322l-1039 -887q139 -223 426 -223zM696 -18
q-297 0 -444 229l-264 -225l-17 18l269 229q-80 135 -80 325t90 377t260 310t377 123q281 0 432 -211l244 211l16 -18l-246 -213q92 -143 92 -338t-90 -382t-261 -311t-378 -124z" />
    <glyph glyph-name="oslashacute" unicode="&#x1ff;" horiz-adv-x="968" 
d="M817 1210q23 0 23 -22q0 -16 -29 -29l-285 -149l-6 10l264 176q23 14 33 14zM440 12q172 0 290 142t118 327q0 113 -49 195l-619 -539q88 -125 260 -125zM119 352q0 -111 49 -196l618 540q-86 127 -259 127q-173 -1 -291 -143t-117 -328zM442 -12q-184 0 -282 131
l-150 -131l-16 16l153 133q-57 90 -57 215q0 196 126 346t311 150t280 -133l156 135l16 -19l-158 -137q55 -90 56 -213q1 -197 -125 -345t-310 -148z" />
    <glyph glyph-name="Scommaaccent" unicode="&#x218;" horiz-adv-x="1003" 
d="M470 -18q-175 0 -289 84t-113 178q0 49 41 49q33 0 33 -36t-36 -40q16 -82 116 -145q100 -64 255 -64q154 0 256 89q103 89 103 207t-62 196q-62 76 -202 178q-142 102 -205 184t-64 189q0 141 109 229q108 88 262 88t249 -74t95 -166q0 -49 -37 -49t-37 36t37 42
q-14 76 -95 131t-218 55t-237 -79q-99 -80 -99 -211q0 -100 60 -177t203 -180q143 -104 206 -182t63 -192q0 -147 -109 -244q-110 -96 -285 -96zM344 -166q0 16 10 26t25 11q45 0 45 -56q0 -55 -45 -115t-117 -99l-8 14q127 82 139 180q-20 -2 -35 10q-14 13 -14 29z" />
    <glyph glyph-name="scommaaccent" unicode="&#x219;" horiz-adv-x="768" 
d="M366 -12q-189 0 -276 106q-37 51 -37 94t35 43q29 1 29 -33t-31 -42q6 -25 29 -50q78 -94 235 -94q108 0 176 54t68 133q0 78 -51 124t-155 96t-160 99q-54 49 -54 130t75 140t181 60q162 0 240 -90q35 -37 35 -78t-33 -41t-33 35q0 29 29 39q-12 25 -27 39
q-72 72 -211 71q-94 0 -161 -52q-67 -53 -67 -123t49 -113t155 -95t161 -101q55 -50 55 -140q0 -91 -76 -151q-78 -60 -180 -60zM268 -129q45 0 45 -56q-1 -55 -45 -115t-116 -99l-9 14q127 82 140 180q-20 -2 -35 10q-14 13 -14 29t10 26t24 11z" />
    <glyph glyph-name="schwa" unicode="&#x259;" horiz-adv-x="884" 
d="M113 289q0 -264 252 -264q130 0 240 102t147 258h-629q-10 -51 -10 -96zM84 291q0 59 16 119h658q10 57 10 106q0 150 -87 235t-224 85t-262 -72l6 29q123 67 264 67t237 -92t97 -252q0 -208 -129 -362t-320 -154q-130 0 -198 77t-68 214z" />
    <glyph glyph-name="circumflex" unicode="&#x2c6;" horiz-adv-x="1030" 
d="M410 995l-11 13l308 215l192 -215l-12 -11l-187 179z" />
    <glyph glyph-name="caron" unicode="&#x2c7;" horiz-adv-x="1030" 
d="M639 997l-193 215l13 11l186 -179l291 181l10 -13z" />
    <glyph glyph-name="breve" unicode="&#x2d8;" horiz-adv-x="1030" 
d="M651 1008q-90 0 -147 54t-76 146l23 9q43 -177 207 -177t264 172l18 -10q-43 -86 -121 -140t-168 -54z" />
    <glyph glyph-name="dotaccent" unicode="&#x2d9;" horiz-adv-x="1030" 
d="M674 1079q-39 0 -39 39q0 16 11 28q12 12 28 13q16 0 27 -12t12 -29q0 -39 -39 -39z" />
    <glyph glyph-name="ring" unicode="&#x2da;" horiz-adv-x="1030" 
d="M680 1028q51 0 90 49t39 103t-28 85q-29 29 -79 29t-90 -48t-39 -102q0 -54 28 -85t79 -31zM678 1006q-64 0 -98 38q-35 38 -35 101q0 64 47 119q48 55 112 55t99 -38q35 -39 35 -101t-48 -118t-112 -56z" />
    <glyph glyph-name="ogonek" unicode="&#x2db;" horiz-adv-x="1030" 
d="M315 -272q0 -53 32 -84t85 -31t100 18l-8 -24q-42 -19 -102 -19t-98 36t-37 100q0 144 219 296l26 -2q-217 -160 -217 -290z" />
    <glyph glyph-name="tilde" unicode="&#x2dc;" horiz-adv-x="1030" 
d="M807 1026q-61 0 -149 66t-134 65q-82 0 -133 -125l-18 8q53 145 153 146q56 0 144 -64t138 -65t81 29t59 98l21 -8q-58 -150 -162 -150z" />
    <glyph glyph-name="hungarumlaut" unicode="&#x2dd;" horiz-adv-x="1030" 
d="M913 1202q18 0 19 -20q0 -16 -29 -29l-272 -145l-8 12l258 172q14 10 32 10zM594 1206q18 0 18 -19t-26 -32l-271 -149l-6 12l252 176q15 12 33 12z" />
    <glyph glyph-name="commaaccent" unicode="&#x326;" horiz-adv-x="401" 
d="M162 -166q0 16 10 26t25 11q45 0 45 -56q0 -55 -45 -115t-117 -99l-8 14q127 82 139 180q-20 -2 -35 10q-14 13 -14 29z" />
    <glyph glyph-name="Wgrave" unicode="&#x1e80;" horiz-adv-x="1914" 
d="M1370 1473l-248 163q-22 12 -22 30t18 20q16 0 31 -15l229 -188zM463 -35l-68 1356h-162l7 27h387l-6 -27h-195l61 -1296l592 1122h19l106 -1122l672 1296h-195l7 27h387l-7 -27h-157l-711 -1356h-18l-105 1120l-594 -1120h-20z" />
    <glyph glyph-name="wgrave" unicode="&#x1e81;" horiz-adv-x="1280" 
d="M848 1010l-248 164q-22 12 -22 30t18 19q16 0 31 -15l229 -188zM1167 762v8q-6 -2 -18 -2t-26 12q-13 12 -13 31q0 35 33 35q51 0 51 -84q0 -129 -100 -354t-252 -443h-17l-143 703l-387 -703h-14l-54 846h-164l5 25h186l49 -811l379 692h14l148 -709q139 207 231 421
t92 333z" />
    <glyph glyph-name="Wacute" unicode="&#x1e82;" horiz-adv-x="1914" 
d="M463 -35l-68 1356h-162l7 27h387l-6 -27h-195l61 -1296l592 1122h19l106 -1122l672 1296h-195l7 27h387l-7 -27h-157l-711 -1356h-18l-105 1120l-594 -1120h-20zM1477 1673q23 0 22 -22q0 -16 -29 -29l-284 -149l-6 10l264 176q23 14 33 14z" />
    <glyph glyph-name="wacute" unicode="&#x1e83;" horiz-adv-x="1280" 
d="M1167 762v8q-6 -2 -18 -2t-26 12q-13 12 -13 31q0 35 33 35q51 0 51 -84q0 -129 -100 -354t-252 -443h-17l-143 703l-387 -703h-14l-54 846h-164l5 25h186l49 -811l379 692h14l148 -709q139 207 231 421t92 333zM952 1210q23 0 23 -22q0 -16 -29 -29l-284 -149l-7 10
l265 176q23 14 32 14z" />
    <glyph glyph-name="Wdieresis" unicode="&#x1e84;" horiz-adv-x="1914" 
d="M463 -35l-68 1356h-162l7 27h387l-6 -27h-195l61 -1296l592 1122h19l106 -1122l672 1296h-195l7 27h387l-7 -27h-157l-711 -1356h-18l-105 1120l-594 -1120h-20zM1149 1546q0 39 38 39t38 -39q1 -16 -11 -26t-27 -11t-27 11t-11 26zM1405 1509q-15 1 -27 11t-12 26
q0 39 39 39q17 0 27 -11q10 -10 10 -26t-10 -28t-27 -11z" />
    <glyph glyph-name="wdieresis" unicode="&#x1e85;" horiz-adv-x="1280" 
d="M1167 762v8q-6 -2 -18 -2t-26 12q-13 12 -13 31q0 35 33 35q51 0 51 -84q0 -129 -100 -354t-252 -443h-17l-143 703l-387 -703h-14l-54 846h-164l5 25h186l49 -811l379 692h14l148 -709q139 207 231 421t92 333zM625 1083q0 39 38 39t37 -39q0 -16 -11 -26t-26 -10
t-27 11q-11 11 -11 25zM842 1083q0 39 37 39t39 -39q0 -14 -10 -25t-27 -11q-16 0 -28 10q-11 10 -11 26z" />
    <glyph glyph-name="Ygrave" unicode="&#x1ef2;" horiz-adv-x="1269" 
d="M688 1666q0 18 19 20q16 0 30 -15l230 -188l-9 -10l-247 163q-23 12 -23 30zM303 0l6 27h207l131 548l-278 746h-138l7 27h370l-4 -27h-205l267 -721l612 721h-201l6 27h371l-4 -27h-135l-639 -750l-129 -544h215l-4 -27h-455z" />
    <glyph glyph-name="ygrave" unicode="&#x1ef3;" horiz-adv-x="901" 
d="M393 1204q0 18 19 19q16 0 30 -15l230 -188l-8 -10l-248 164q-23 12 -23 30zM-70 -403q-31 0 -50 13t-19 36q0 33 33 32q43 0 43 -43q0 -8 -3 -14q63 4 178 93q114 89 261 268l-160 829h-162l4 25h183l157 -830q170 209 291 431t123 335q-6 -2 -18 -2t-26 12
q-13 12 -13 31q0 35 32 35q51 0 52 -74q0 -115 -128 -348t-307 -449q-311 -380 -471 -380z" />
    <glyph glyph-name="enspace" unicode="&#x2002;" horiz-adv-x="1024" 
 />
    <glyph glyph-name="emspace" unicode="&#x2003;" horiz-adv-x="2048" 
 />
    <glyph glyph-name="threeperemspace" unicode="&#x2004;" horiz-adv-x="681" 
 />
    <glyph glyph-name="fourperemspace" unicode="&#x2005;" horiz-adv-x="512" 
 />
    <glyph glyph-name="figurespace" unicode="&#x2007;" horiz-adv-x="1085" 
 />
    <glyph glyph-name="thinspace" unicode="&#x2009;" horiz-adv-x="272" 
 />
    <glyph glyph-name="hairspace" unicode="&#x200a;" horiz-adv-x="153" 
 />
    <glyph glyph-name="endash" unicode="&#x2013;" horiz-adv-x="768" 
d="M61 535l5 28h679l-6 -28h-678z" />
    <glyph glyph-name="emdash" unicode="&#x2014;" horiz-adv-x="1241" 
d="M61 535l5 28h1153l-7 -28h-1151z" />
    <glyph glyph-name="quoteleft" unicode="&#x2018;" horiz-adv-x="268" 
d="M307 1132q1 -18 -11 -29t-29 -11t-29 17t-12 61t43 104q44 60 118 102l8 -14q-135 -90 -139 -191q23 2 37 -10q14 -11 14 -29z" />
    <glyph glyph-name="quoteright" unicode="&#x2019;" horiz-adv-x="268" 
d="M254 1329q0 39 37 39q45 0 45 -60t-44 -121t-120 -102l-6 15q135 90 139 188q-23 -2 -37 10t-14 31z" />
    <glyph glyph-name="quotesinglbase" unicode="&#x201a;" horiz-adv-x="256" 
d="M29 28q0 18 10 28q10 11 24 12q45 0 45 -56t-44 -116q-45 -60 -117 -101l-8 15q125 80 137 180q-20 -2 -34 9q-13 11 -13 29z" />
    <glyph glyph-name="quotedblleft" unicode="&#x201c;" horiz-adv-x="460" 
d="M307 1132q1 -18 -11 -29t-29 -11t-29 17t-12 61t43 104q44 60 118 102l8 -14q-135 -90 -139 -191q23 2 37 -10q14 -11 14 -29zM460 1092q-17 0 -30 17q-12 17 -12 42q0 63 44 123t118 102l8 -14q-135 -90 -139 -191q23 2 35 -10q12 -11 14 -29q0 -18 -10 -29t-28 -11z
" />
    <glyph glyph-name="quotedblright" unicode="&#x201d;" horiz-adv-x="460" 
d="M254 1329q0 39 37 39q45 0 45 -60t-44 -121t-120 -102l-6 15q135 90 139 188q-23 -2 -37 10t-14 31zM483 1368q45 0 45 -59t-44 -120t-119 -104l-7 15q133 88 140 188q-23 -2 -37 10q-15 12 -15 30t10 28q10 12 27 12z" />
    <glyph glyph-name="quotedblbase" unicode="&#x201e;" horiz-adv-x="446" 
d="M29 28q0 18 10 28q10 11 24 12q45 0 45 -56t-44 -116q-45 -60 -117 -101l-8 15q125 80 137 180q-20 -2 -34 9q-13 11 -13 29zM217 28q0 18 11 28q12 12 28 12t28 -16t13 -57q0 -39 -45 -99t-115 -101l-8 15q125 82 137 180q-20 -2 -35 9q-14 11 -14 29z" />
    <glyph glyph-name="dagger" unicode="&#x2020;" horiz-adv-x="823" 
d="M807 893q45 0 45 -41q0 -16 -11 -28t-30 -11q-39 0 -33 47l-260 -35l-199 -829h-16l186 833l-251 33q0 -47 -37 -47t-37 35q0 45 45 45q2 0 31 -4l258 -45l77 403q6 41 29 41q31 0 17 -47l-103 -399l258 45l26 4h5z" />
    <glyph glyph-name="daggerdbl" unicode="&#x2021;" horiz-adv-x="823" 
d="M16 125q0 15 12 27t27 12q39 0 35 -47l246 33l92 368l76 373l-242 33q0 -47 -37 -47t-37 34q0 45 45 45q2 0 31 -4l248 -45l63 342q8 41 29 41q31 0 17 -43l-89 -342l248 45q14 2 31 2q43 0 43 -39q0 -16 -11 -27t-28 -12q-39 0 -35 48l-248 -35l-90 -371l-75 -369
l241 -32q0 45 37 45t37 -35q0 -43 -45 -43q-16 0 -31 4l-246 45l-67 -342q-8 -41 -27 -41q-29 0 -18 41l90 344l-248 -45l-31 -4q-43 0 -43 41z" />
    <glyph glyph-name="bullet" unicode="&#x2022;" horiz-adv-x="456" 
d="M258 408q-59 0 -101 41t-42 102t42 102t101 41t100 -41t41 -102t-41 -102t-100 -41z" />
    <glyph glyph-name="ellipsis" unicode="&#x2026;" horiz-adv-x="804" 
d="M79 -16q-17 0 -29 12q-11 12 -11 28t11 29q10 13 28 13t30 -12t11 -29q0 -16 -11 -29q-12 -12 -29 -12zM340 -16q-16 0 -29 12q-12 12 -12 28t12 29q29 29 58 0q12 -12 12 -28t-12 -29q-13 -12 -29 -12zM602 -16q-16 0 -29 12q-12 12 -12 28t12 29q29 29 58 0
q12 -12 12 -28t-12 -29q-13 -12 -29 -12z" />
    <glyph glyph-name="perthousand" unicode="&#x2030;" horiz-adv-x="1677" 
d="M1348 -6q-93 0 -143 55t-50 148t71 175t163 81q92 1 142 -55t50 -149t-70 -174t-163 -81zM1386 430q-80 0 -140 -75t-60 -159t42 -132t121 -48q80 0 141 75q60 75 60 159t-42 132t-122 48zM855 -6q-93 0 -142 55t-49 148t69 175q70 81 163 81q93 1 143 -55
q51 -56 51 -149t-71 -174t-164 -81zM858 16q80 0 140 75t60 159t-41 132q-42 48 -122 48t-141 -75q-62 -75 -62 -159t43 -132t123 -48zM372 565q-92 -1 -142 55t-50 149t70 175t163 82t142 -56t49 -148t-69 -175q-70 -82 -163 -82zM375 588q80 0 140 75t60 159q1 84 -41 132
t-122 47q-80 0 -142 -74q-61 -75 -61 -159t43 -132t123 -48zM121 -43l-19 16l1010 1051l16 -18l-501 -525z" />
    <glyph glyph-name="guilsinglleft" unicode="&#x2039;" horiz-adv-x="526" 
d="M352 225l-270 320l424 317l14 -18l-401 -303l252 -299z" />
    <glyph glyph-name="guilsinglright" unicode="&#x203a;" horiz-adv-x="514" 
d="M66 225l-17 21l404 301l-252 299l18 16l270 -319z" />
    <glyph glyph-name="fraction" unicode="&#x2044;" horiz-adv-x="956" 
d="M1036 1300l-1095 -1310l-17 14l549 655q274 326 547 654z" />
    <glyph glyph-name="zero.sup" unicode="&#x2070;" horiz-adv-x="722" 
d="M500 895q127 0 211 142t84 325q1 116 -49 184t-138 68q-127 0 -210 -140t-83 -325q1 -115 49 -185t136 -69zM500 874q-100 0 -156 75q-55 75 -55 198q0 197 90 343t231 146q98 0 155 -74q56 -75 56 -200q0 -196 -91 -342t-230 -146z" />
    <glyph glyph-name="four.sup" unicode="&#x2074;" horiz-adv-x="722" 
d="M575 901l52 217h-371l-4 12l506 504l16 -16l-483 -479h340l53 221l29 14l-56 -233h146l-4 -23h-146l-51 -217h119l-4 -20h-287l6 20h139z" />
    <glyph glyph-name="five.sup" unicode="&#x2075;" horiz-adv-x="722" 
d="M461 870q-80 0 -139 41q-60 41 -60 86t28 45t27 -26q0 -25 -26 -29q10 -37 59 -67t113 -29q121 0 203 74t82 176q0 73 -50 117t-148 44q-97 0 -179 -36l-15 10l115 342h375l-4 -23h-355l-102 -301q84 31 180 31q97 0 153 -50t56 -132q0 -113 -90 -193t-223 -80z" />
    <glyph glyph-name="six.sup" unicode="&#x2076;" horiz-adv-x="722" 
d="M518 895q92 0 164 74t72 159t-49 132t-139 47t-166 -72q-74 -72 -74 -152t50 -134t142 -54zM801 1475q-25 1 -25 27t27 32q-6 30 -41 54t-92 24q-94 0 -185 -86q-69 -70 -113 -178t-53 -205q27 80 99 133t160 53t146 -54q56 -54 56 -147q0 -92 -80 -174t-182 -82t-162 61
q-62 61 -62 169t48 235q47 127 135 211q87 84 177 84t134 -36t46 -78q0 -42 -33 -43z" />
    <glyph glyph-name="seven.sup" unicode="&#x2077;" horiz-adv-x="722" 
d="M373 881l489 718h-428l-31 -137h-26l37 160h475l8 -12l-496 -729h-28z" />
    <glyph glyph-name="eight.sup" unicode="&#x2078;" horiz-adv-x="722" 
d="M756 1082q0 79 -62 128q-62 50 -158 50q-95 0 -166 -56t-71 -134q1 -77 61 -126t154 -49t168 54t74 133zM399 1441q1 -71 59 -117t142 -46t153 53t69 121t-57 116q-56 46 -145 46t-155 -51t-66 -122zM780 1072q0 -78 -78 -138t-186 -60q-106 0 -175 54t-69 139
q0 84 73 144t165 65q-57 16 -97 60t-40 114t73 128q74 58 176 58t163 -52q63 -52 63 -127t-62 -128t-155 -65q149 -44 149 -192z" />
    <glyph glyph-name="nine.sup" unicode="&#x2079;" horiz-adv-x="722" 
d="M609 1610q-89 0 -161 -73t-71 -158q0 -85 50 -133t139 -48t164 72t75 153t-51 136q-56 51 -145 51zM552 1178q-90 0 -146 53t-56 147t80 174t181 80t163 -60t62 -168t-48 -236q-48 -126 -134 -210q-88 -84 -178 -86q-90 0 -134 36q-45 36 -45 80t33 44q24 0 24 -28
t-26 -33q6 -31 41 -53t92 -23q94 0 173 76q79 77 123 185t52 204q-27 -80 -97 -131t-160 -51z" />
    <glyph glyph-name="zero.inf" unicode="&#x2080;" horiz-adv-x="722" 
d="M231 -272q127 0 211 142t84 325q0 115 -49 183t-137 68q-127 0 -210 -140t-83 -324q0 -114 48 -184t136 -70zM231 -293q-100 0 -155 75t-56 198q0 197 90 343t232 146q98 0 154 -75t57 -199q1 -195 -91 -341t-231 -147z" />
    <glyph glyph-name="one.inf" unicode="&#x2081;" horiz-adv-x="722" 
d="M10 -287l4 23h211l166 698l-235 -72v25l254 78l12 -6l-170 -723h207l-6 -23h-443z" />
    <glyph glyph-name="two.inf" unicode="&#x2082;" horiz-adv-x="722" 
d="M543 297q0 67 -50 107q-51 40 -135 40t-147 -42t-72 -91q31 -5 31 -33t-29 -28t-29 53t72 109q72 55 172 55t156 -47t57 -123q0 -76 -59 -131q-59 -56 -146 -102q-231 -123 -295 -208q-45 -61 -67 -120h428l41 168h23l-43 -191h-476l-6 13q61 168 250 282q43 27 107 62
q217 111 217 227z" />
    <glyph glyph-name="three.inf" unicode="&#x2083;" horiz-adv-x="722" 
d="M502 -89q0 -79 -76 -141t-182 -63q-106 0 -172 48q-68 49 -68 103t30 54t29 -31q0 -12 -10 -21t-24 -10q10 -49 68 -86q58 -36 150 -36t161 57q68 57 68 133t-56 123q-55 47 -137 47h-45l4 23h39q109 0 181 54t73 125q1 70 -53 112t-135 42t-134 -32t-61 -70q31 0 30 -29
q0 -29 -26 -28q-31 0 -31 48t62 91q63 43 159 43t156 -49t59 -123q0 -74 -61 -129t-158 -68q72 -12 116 -60t44 -127z" />
    <glyph glyph-name="four.inf" unicode="&#x2084;" horiz-adv-x="722" 
d="M307 -266l51 217h-370l-4 12l505 504l17 -16l-483 -480h339l54 222l28 14l-55 -234h146l-5 -22h-145l-51 -217h119l-4 -21h-287l6 21h139z" />
    <glyph glyph-name="five.inf" unicode="&#x2085;" horiz-adv-x="722" 
d="M193 -297q-80 0 -140 41q-59 41 -59 86t28 45t27 -27q0 -25 -26 -28q10 -37 59 -67t113 -29q121 0 203 74t81 175q0 72 -50 117t-147 45t-180 -37l-14 11l115 342h375l-5 -23h-354l-102 -301q84 31 180 31q97 0 153 -50t56 -133q0 -113 -90 -193t-223 -79z" />
    <glyph glyph-name="six.inf" unicode="&#x2086;" horiz-adv-x="722" 
d="M297 139q-90 1 -165 -71t-75 -152q1 -80 51 -134t142 -54t164 74t72 158q0 85 -50 132q-49 47 -139 47zM565 350q0 -43 -33 -43q-25 0 -24 27q0 27 27 33q-6 31 -41 55t-93 22q-94 0 -184 -86q-70 -70 -114 -178t-52 -205q27 79 99 133t160 54t146 -54q56 -54 56 -148
t-80 -174q-80 -81 -182 -81t-162 60q-62 60 -62 169t48 236q47 127 135 211t177 84t134 -36t45 -79z" />
    <glyph glyph-name="seven.inf" unicode="&#x2087;" horiz-adv-x="722" 
d="M104 -287l490 719h-428l-31 -137h-26l36 160h476l8 -13l-496 -729h-29z" />
    <glyph glyph-name="eight.inf" unicode="&#x2088;" horiz-adv-x="722" 
d="M246 -272q94 0 168 54t74 133t-63 128q-61 49 -157 49t-167 -56t-71 -133t62 -126q60 -49 154 -49zM352 446q-90 0 -156 -51t-65 -122t59 -117t142 -45q84 0 152 53q68 54 69 122q0 68 -56 114q-55 46 -145 46zM512 -95q0 -79 -78 -139t-186 -59q-106 0 -175 54
q-69 55 -69 139t73 144t165 65q-57 16 -98 60q-40 43 -40 113t74 128t175 59q101 0 163 -52t64 -127q0 -75 -62 -128t-156 -66q150 -44 150 -191z" />
    <glyph glyph-name="nine.inf" unicode="&#x2089;" horiz-adv-x="722" 
d="M341 442q-89 0 -161 -72t-72 -158q0 -85 51 -133q50 -48 139 -48q89 -1 164 71t75 153t-52 136q-55 51 -144 51zM82 211q0 94 80 174t181 80t163 -60t62 -169t-48 -235q-47 -126 -135 -211t-177 -85t-134 36t-45 80t32 44q25 0 25 -28t-27 -34q6 -31 41 -53t93 -22
q94 0 173 76q78 76 122 184t53 205q-27 -79 -98 -131t-159 -52t-146 53q-56 54 -56 148z" />
    <glyph glyph-name="Euro" unicode="&#x20ac;" horiz-adv-x="1081" 
d="M195 391v21q0 100 32 204h-145l4 25h152q63 165 194 273q132 108 286 108t250 -76t95 -174q0 -53 -35 -53t-35 36t39 40q-10 82 -96 143t-224 61t-262 -101t-184 -257h439l-5 -25h-444q-33 -104 -33 -202v-23h439l-7 -24h-430q13 -158 115 -251t267 -93t315 120l14 -18
q-158 -127 -332 -127t-284 100t-123 269h-160l6 24h152z" />
    <glyph glyph-name="published" unicode="&#x2117;" horiz-adv-x="1191" 
d="M676 459q58 0 106 41q47 40 47 108t-49 108t-125 40h-94v-293q57 -4 115 -4zM453 236v20h84v500h-84v20h202q85 0 141 -46t56 -122t-53 -123t-142 -47q-43 0 -96 4v-186h86v-20h-194zM618 -2q215 0 358 149q142 150 142 366t-142 366q-142 149 -358 149t-357 -150
q-142 -150 -142 -366q0 -214 142 -364t357 -150zM618 -23q-225 0 -373 155t-149 380q0 225 148 381t374 156t374 -156t148 -381t-148 -380q-149 -155 -374 -155z" />
    <glyph glyph-name="servicemark" unicode="&#x2120;" horiz-adv-x="1050" 
d="M512 846l4 18h74l125 465h-84l4 19h108l91 -392l270 392h104l-4 -19h-78l-88 -465h78l-4 -18h-172l4 18h74l84 445l-268 -387h-13l-90 385l-119 -443h76l-4 -18h-172zM309 838q-71 0 -113 34t-42 68q0 35 26 35t25 -25q0 -18 -21 -28q10 -27 44 -46q34 -20 88 -20t91 32
q35 32 35 87t-106 124t-105 140q0 51 41 85q42 34 100 34t97 -29t39 -63t-25 -35q-25 0 -24 24q0 20 20 27q-25 57 -108 57q-49 1 -83 -27t-34 -79t98 -119q113 -74 113 -137t-43 -101t-113 -38z" />
    <glyph glyph-name="trademark" unicode="&#x2122;" horiz-adv-x="1140" 
d="M231 846l5 18h75l105 465h-168l-25 -96h-22l28 115h406l-25 -115h-22l20 96h-168l-106 -465h76l-4 -18h-175zM604 846l2 18h74l125 465h-82l4 19h107l92 -392l268 392h106l-6 -19h-77l-87 -465h78l-4 -18h-174l4 18h74l84 445l-268 -387h-11l-92 385l-119 -443h76l-4 -18
h-170z" />
    <glyph glyph-name="onethird" unicode="&#x2153;" horiz-adv-x="1628" 
d="M1170 -6q-106 0 -173 48t-67 102t30 55q30 0 29 -31q0 -12 -10 -22t-25 -9q10 -49 68 -86t151 -37q92 0 160 58t68 133q0 76 -55 123t-138 47h-45l4 22h39q109 1 182 55q72 54 72 125t-53 113t-134 41q-81 0 -134 -32t-62 -70q31 0 31 -29t-29 -29t-29 48q0 47 63 91
t159 44t155 -49t59 -123t-60 -129q-62 -55 -158 -68q72 -12 116 -60t43 -127q0 -79 -75 -142q-76 -62 -182 -62zM1391 1300l-1096 -1310l-16 14l548 655q274 326 547 654zM188 573l5 23h210l166 698l-235 -71v24l254 78l12 -6l-170 -723h207l-6 -23h-443z" />
    <glyph glyph-name="twothirds" unicode="&#x2154;" horiz-adv-x="1628" 
d="M1444 198q0 -80 -76 -142t-180 -62q-106 0 -174 48t-68 102t30 55q30 0 30 -31q0 -12 -10 -22t-25 -9q10 -49 68 -86q59 -37 151 -37t160 58t68 133q0 76 -56 123q-55 47 -137 47h-45l4 22h39q109 1 181 55t73 125t-53 113t-135 41q-81 0 -134 -32t-61 -70q31 0 30 -29
q0 -29 -26 -29q-31 0 -31 48q0 47 62 91q63 44 159 44t156 -49t59 -123q0 -74 -61 -129t-158 -68q72 -12 116 -60t44 -127zM1425 1300l-1095 -1310l-17 14l549 655q274 326 547 654zM741 1157q0 66 -50 107t-134 41t-147 -42t-72 -92q31 -5 31 -33t-29 -28t-29 53t72 109
t172 55q101 0 157 -47t56 -123t-59 -131q-59 -56 -146 -102q-235 -126 -304 -219q-36 -49 -58 -109h428l41 168h22l-43 -191h-475l-6 13q61 168 250 282q43 27 106 62q217 111 217 227z" />
    <glyph glyph-name="onefifth" unicode="&#x2155;" horiz-adv-x="1628" 
d="M1389 1300l-1096 -1310l-17 14l549 655q274 326 547 654zM174 573l4 23h211l166 698l-236 -71v24l254 78l13 -6l-170 -723h207l-7 -23h-442zM1106 -10q-80 0 -139 41t-59 86t27 45q28 0 28 -26t-27 -30q10 -36 59 -66t113 -30q121 0 203 74t82 176q-1 72 -51 117t-147 45
t-179 -37l-15 10l115 342h375l-4 -22h-354l-103 -301q84 30 180 30t152 -50t57 -132q0 -112 -90 -192t-223 -80z" />
    <glyph glyph-name="twofifths" unicode="&#x2156;" horiz-adv-x="1628" 
d="M1438 1300l-1096 -1310l-16 14l548 655q274 326 547 654zM1133 -10q-80 0 -140 41q-59 41 -59 86t28 45t27 -27q0 -25 -26 -29q10 -36 59 -66t113 -30q121 0 203 74t81 176q0 72 -50 117t-147 45t-180 -37l-14 10l115 342h375l-5 -22h-354l-102 -301q84 30 180 30
q97 0 153 -50t56 -132q0 -112 -90 -192t-223 -80zM764 1157q0 66 -50 107t-134 41t-148 -42t-72 -92q31 -5 31 -33t-29 -28q-28 0 -28 53t72 109t172 55q100 0 156 -47t56 -123t-58 -131q-60 -56 -147 -102q-233 -125 -303 -219q-36 -49 -59 -109h428l41 168h23l-43 -191
h-475l-7 13q61 168 250 282q43 27 107 62q217 111 217 227z" />
    <glyph glyph-name="threefifths" unicode="&#x2157;" horiz-adv-x="1628" 
d="M715 771q0 -79 -76 -141q-75 -62 -181 -63q-106 0 -174 48q-68 49 -67 103q0 54 30 54t29 -31q0 -12 -10 -21t-24 -9q10 -49 68 -86t150 -37t161 57q67 57 67 133t-55 123t-137 47h-45l4 23h39q110 0 182 54t72 125t-54 113t-134 42q-81 0 -134 -32t-61 -71q31 0 30 -28
q0 -29 -26 -29q-31 0 -31 48t62 91t158 43t156 -49t60 -123t-61 -129t-158 -68q72 -12 116 -60t44 -127zM1409 1300l-1096 -1310l-16 14l549 655q274 326 547 654zM1130 -10q-80 0 -139 41t-59 86t28 45t27 -27q0 -25 -26 -29q10 -36 59 -66t113 -30q121 0 203 74t81 176
q0 72 -50 117t-147 45t-180 -37l-14 10l115 342h375l-5 -22h-354l-102 -301q84 30 180 30q97 0 153 -50t56 -132q0 -112 -90 -192t-224 -80z" />
    <glyph glyph-name="fourfifths" unicode="&#x2158;" horiz-adv-x="1628" 
d="M1427 1300l-1095 -1310l-17 14l549 655q274 326 547 654zM1151 -10q-80 0 -139 41q-60 41 -60 86t28 45t28 -26t-27 -30q10 -36 59 -66t113 -30q121 0 203 74t82 176q0 72 -50 117t-148 45t-179 -37l-14 10l114 342h375l-4 -22h-354l-103 -301q84 30 180 30q97 0 153 -50
t56 -132q0 -112 -90 -192t-223 -80zM516 594l51 217h-370l-4 12l505 504l17 -16l-484 -480h340l54 222l28 14l-55 -233h145l-4 -23h-145l-51 -217h119l-5 -21h-286l6 21h139z" />
    <glyph glyph-name="onesixth" unicode="&#x2159;" horiz-adv-x="1628" 
d="M1384 1300l-1095 -1310l-17 14l549 655q274 326 547 654zM178 573l4 23h211l166 698l-235 -71v24l254 78l12 -6l-170 -723h207l-6 -23h-443zM952 202q0 -80 50 -134t143 -54q92 0 164 74q71 74 71 159t-49 132t-139 47t-165 -72t-75 -152zM1460 637q0 -43 -33 -43
q-25 0 -24 27q0 27 27 32q-6 31 -41 55t-93 23q-94 0 -184 -86q-70 -71 -114 -179t-52 -204q27 80 98 133q72 53 161 53t145 -54t57 -147q0 -93 -80 -174q-79 -81 -181 -81t-164 60t-60 168q0 108 47 236t135 212t177 84t134 -36t45 -79z" />
    <glyph glyph-name="fivesixths" unicode="&#x215a;" horiz-adv-x="1628" 
d="M1419 1300l-1095 -1310l-17 14l549 655q274 326 547 654zM408 563q-80 0 -140 41q-59 41 -59 86t28 45t27 -26q0 -25 -26 -29q10 -37 59 -67t113 -29q120 0 202 74t82 176q0 72 -50 116t-147 45q-97 0 -180 -37l-14 11l115 342h375l-5 -23h-354l-102 -301q84 31 180 31
t152 -50t57 -132q0 -113 -90 -193t-223 -80zM979 202q0 -80 50 -134t142 -54t164 74t72 159t-49 132t-139 47t-165 -72t-75 -152zM1172 -8q-102 0 -162 60q-62 60 -62 168t47 236t135 212t178 84t134 -36q45 -36 45 -79t-33 -43q-25 0 -24 27q0 27 26 32q-6 31 -41 55
t-92 23q-94 0 -184 -86q-70 -71 -114 -179t-52 -204q27 80 98 133q72 53 161 53t145 -54q57 -54 57 -147t-80 -174t-182 -81z" />
    <glyph glyph-name="oneeighth" unicode="&#x215b;" horiz-adv-x="1628" 
d="M954 190q0 -78 60 -127t155 -49q94 0 168 54t74 134q0 79 -62 128q-61 49 -157 49t-167 -56q-71 -55 -71 -133zM1255 397q84 -1 153 53t69 122q-1 68 -57 115q-56 46 -145 46t-155 -51t-66 -122t59 -117q58 -46 142 -46zM1436 205q0 -91 -79 -151t-185 -60t-176 54
q-68 54 -68 138t72 145q73 60 165 64q-57 17 -97 61t-40 114t74 127q74 59 175 59t163 -52t63 -128q0 -74 -61 -127t-156 -66q68 -21 109 -67t41 -111zM1405 1300l-1096 -1310l-16 14l549 655q274 326 547 654zM199 573l4 23h211l166 698l-236 -71v24l254 78l12 -6
l-170 -723h207l-6 -23h-442z" />
    <glyph glyph-name="threeeighths" unicode="&#x215c;" horiz-adv-x="1628" 
d="M694 771q0 -79 -76 -141t-180 -63q-106 0 -174 48q-68 49 -68 103t30 54t30 -31q0 -12 -10 -21t-25 -9q11 -49 69 -86t150 -37t160 57t68 133t-56 123t-137 47h-45l4 23h39q109 0 181 54t73 125q0 71 -53 113q-52 42 -134 42t-134 -32t-62 -71q31 0 31 -28t-29 -29
q-29 0 -29 48q1 48 63 91t158 43t156 -49t60 -123t-62 -129t-157 -68q71 -12 115 -60t44 -127zM1403 1300l-1096 -1310l-16 14l549 655q274 326 546 654zM1180 14q94 0 168 54t74 134q0 79 -63 128q-61 49 -157 49t-167 -56q-71 -55 -71 -133t62 -127q60 -49 154 -49z
M1265 397q84 -1 153 53t69 122t-56 115q-55 46 -145 46t-156 -51t-66 -122t59 -117q58 -46 142 -46zM1446 192q0 -78 -78 -138t-186 -60q-106 0 -175 54t-69 138t73 144t165 65q-58 17 -98 61t-40 114t74 127q74 59 175 59t163 -52t63 -128q0 -74 -61 -127t-156 -66
q150 -44 150 -191z" />
    <glyph glyph-name="fiveeighths" unicode="&#x215d;" horiz-adv-x="1628" 
d="M954 190q0 -78 60 -127t155 -49q94 0 168 54t74 134q0 79 -62 128q-61 49 -157 49t-167 -56q-71 -55 -71 -133zM1255 397q84 -1 153 53t69 122q-1 68 -57 115q-56 46 -145 46t-155 -51t-66 -122t59 -117q58 -46 142 -46zM1436 205q0 -91 -79 -151t-185 -60t-176 54
q-68 54 -68 138t72 145q73 60 165 64q-57 17 -97 61t-40 114t74 127q74 59 175 59t163 -52t63 -128q0 -74 -61 -127t-156 -66q68 -21 109 -67t41 -111zM1391 1300l-1096 -1310l-16 14l548 655q274 326 547 654zM387 563q-80 0 -139 41q-60 41 -60 86t28 45q28 1 28 -25
t-27 -30q10 -37 59 -67t113 -29q121 0 203 74t82 176q0 72 -50 116t-148 45q-98 0 -179 -37l-14 11l114 342h375l-4 -23h-354l-103 -301q84 31 180 31q97 0 153 -50t56 -132q0 -113 -90 -193t-223 -80z" />
    <glyph glyph-name="seveneighths" unicode="&#x215e;" horiz-adv-x="1628" 
d="M1329 1300l-1096 -1310l-16 14l549 655q274 326 547 654zM954 190q0 -78 60 -127t155 -49q94 0 168 54t74 134q0 79 -62 128q-61 49 -157 49t-167 -56q-71 -55 -71 -133zM1255 397q84 -1 153 53t69 122q-1 68 -57 115q-56 46 -145 46t-155 -51t-66 -122t59 -117
q58 -46 142 -46zM1436 205q0 -91 -79 -151t-185 -60t-176 54q-68 54 -68 138t72 145q73 60 165 64q-57 17 -97 61t-40 114t74 127q74 59 175 59t163 -52t63 -128q0 -74 -61 -127t-156 -66q68 -21 109 -67t41 -111zM324 573l489 719h-428l-31 -137h-26l37 160h475l8 -12
l-496 -730h-28z" />
    <glyph glyph-name="minus" unicode="&#x2212;" horiz-adv-x="763" 
d="M119 524l4 27h579l-6 -27h-577z" />
    <glyph glyph-name="Q.alt" horiz-adv-x="1460" 
d="M698 8q125 0 244 53l-121 336l27 11l121 -334q190 96 308 300t118 432q-1 228 -137 383t-373 154q-195 1 -357 -117t-250 -300t-90 -395q0 -213 137 -368t373 -155zM696 -18q-246 0 -391 162t-145 403q0 201 90 388t260 310t377 123q246 0 392 -162t146 -397t-123 -450
q-124 -214 -325 -312l94 -260l-27 -10l-92 258q-123 -53 -256 -53z" />
    <glyph glyph-name="zero.lin" horiz-adv-x="1204" 
d="M182 481q0 -217 98 -343t268 -126q169 0 306 125t211 321t74 414q1 218 -97 342q-98 125 -268 125t-307 -125q-137 -124 -211 -320t-74 -413zM779 1366q179 0 285 -132t105 -360t-79 -430q-78 -200 -222 -328t-324 -128q-179 0 -286 132q-106 132 -106 359t79 429
q81 202 225 330t323 128z" />
    <glyph glyph-name="one.lin" horiz-adv-x="722" 
d="M6 0l6 27h264l304 1300l-324 -102v28l348 113l12 -8l-309 -1331h266l-6 -27h-561z" />
    <glyph glyph-name="two.lin" horiz-adv-x="1017" 
d="M344 1042q0 -37 -37 -36q-39 0 -39 53q0 109 123 209t288 100t257 -86t92 -221t-96 -235t-295 -214q-199 -115 -255 -162q-57 -47 -128 -111t-124 -155q-52 -91 -75 -157h740l71 317h29l-78 -344h-788l-9 16q32 96 90 184t112 144q54 57 142 122q108 80 271 175
q276 160 336 293q27 59 26 129q0 121 -84 200q-85 79 -231 79t-256 -82q-110 -80 -123 -177q17 -2 29 -14t12 -27z" />
    <glyph glyph-name="three.lin" horiz-adv-x="991" 
d="M424 -16q-152 0 -266 80t-115 184q0 57 39 57q33 0 33 -35q1 -16 -11 -27t-30 -12q6 -85 110 -153t242 -68q188 0 301 108t113 252t-100 231t-267 87h-49l4 27h51q215 0 343 98t128 246q0 119 -85 201t-221 82t-226 -56q-90 -55 -105 -129q39 -6 39 -41t-37 -35t-36 52
q0 91 106 163t258 72t245 -88t93 -226t-113 -236t-295 -120q137 -23 218 -109q80 -87 79 -214q0 -162 -121 -277q-122 -114 -325 -114z" />
    <glyph glyph-name="four.lin" horiz-adv-x="1056" 
d="M834 897l-103 -434h256l-6 -27h-256l-96 -409h217l-6 -27h-504l6 27h256l96 409h-635l-4 15l912 915l18 -18l-883 -885h598l101 420z" />
    <glyph glyph-name="five.lin" horiz-adv-x="980" 
d="M387 -16q-131 0 -231 68t-101 151q0 51 36 51t36 -35t-37 -39q12 -66 100 -118t199 -52q197 0 325 142t128 304q0 164 -89 243t-235 79t-272 -55l-13 12l199 613h576l-7 -29h-550l-183 -561q112 47 262 47t246 -87t96 -260q0 -174 -136 -324t-349 -150z" />
    <glyph glyph-name="six.lin" horiz-adv-x="1064" 
d="M534 10q160 0 284 136t124 317q0 141 -94 229t-259 88t-288 -131t-123 -289t94 -254q102 -96 262 -96zM532 -16q-176 0 -284 108t-107 306q0 200 80 432q79 232 227 384t345 152q125 0 197 -63t73 -128q0 -65 -39 -65q-33 0 -33 34t39 44q-6 57 -71 105t-166 48
q-184 0 -334 -153q-125 -125 -198 -326t-87 -391q41 145 158 241q116 96 276 95q160 0 261 -96t102 -250q0 -189 -132 -333q-131 -144 -307 -144z" />
    <glyph glyph-name="seven.lin" horiz-adv-x="950" 
d="M166 0l891 1321h-727l-62 -256h-28l65 283h778l11 -17l-893 -1331h-35z" />
    <glyph glyph-name="eight.lin" horiz-adv-x="1050" 
d="M518 10q158 0 275 102t117 254q0 150 -101 238q-100 88 -270 88t-286 -110t-116 -257q-1 -147 111 -231t270 -84zM301 1012q1 -134 93 -216t248 -81q156 0 264 96q108 95 108 233t-95 219t-249 81t-262 -99t-107 -233zM938 377q0 -173 -125 -283t-296 -110t-291 92
t-120 246t114 268t288 121q-106 29 -171 109t-65 184q0 156 116 261t283 105t270 -88t103 -230t-102 -242t-272 -114q128 -28 198 -114t70 -205z" />
    <glyph glyph-name="nine.lin" horiz-adv-x="1062" 
d="M244 887q0 -141 94 -229t259 -89t288 131t123 292t-98 253q-98 94 -258 94t-284 -136t-124 -316zM213 889q0 189 133 333q132 144 308 144t284 -108t106 -307q0 -200 -80 -431t-228 -384q-149 -153 -343 -152q-123 0 -197 63t-73 129q0 66 39 66q14 0 23 -10t10 -25
q0 -35 -39 -45q6 -55 70 -104q65 -48 167 -48q184 0 334 154q123 126 196 324t89 389q-41 -141 -159 -237q-119 -96 -277 -95q-158 0 -261 96q-102 96 -102 248z" />
    <glyph glyph-name="bullet.alt" horiz-adv-x="1234" 
d="M618 -98q-216 0 -370 154t-154 370q0 217 154 371q154 153 370 153t371 -154q154 -154 154 -370t-154 -370t-371 -154z" />
    <glyph glyph-name="hyphen.lin" horiz-adv-x="452" 
d="M117 657l4 29h307l-4 -29h-307z" />
    <glyph glyph-name="endash.lin" horiz-adv-x="768" 
d="M88 657l6 29h678l-4 -29h-680z" />
    <glyph glyph-name="emdash.lin" horiz-adv-x="1241" 
d="M88 657l6 29h1151l-4 -29h-1153z" />
    <glyph glyph-name="parenleft.lin" horiz-adv-x="606" 
d="M172 506q0 362 195 670t524 481l14 -21q-324 -172 -514 -473t-190 -657q0 -489 381 -815l-17 -19q-393 334 -393 834z" />
    <glyph glyph-name="parenright.lin" horiz-adv-x="606" 
d="M532 823q0 -363 -194 -671t-524 -480l-15 23q322 170 512 471t191 657q0 492 -379 815l16 19q393 -334 393 -834z" />
    <glyph glyph-name="bracketleft.lin" horiz-adv-x="616" 
d="M61 -287l445 1909h373l-7 -27h-344l-430 -1855h342l-4 -27h-375z" />
    <glyph glyph-name="bracketright.lin" horiz-adv-x="616" 
d="M-145 -287l4 27h344l432 1855h-344l6 27h373l-443 -1909h-372z" />
    <glyph glyph-name="braceleft.lin" horiz-adv-x="557" 
d="M188 659h-63l8 29h66q127 0 195 52t69 142q0 90 -65 220q-65 131 -64 227q0 135 113 222q114 87 309 91l-4 -24q-178 -2 -284 -84t-106 -190t64 -241q125 -257 3 -366q-62 -55 -167 -65q70 -8 113 -52t43 -104q0 -109 -158 -258q-156 -143 -156 -270q0 -92 60 -162
t166 -105l-6 -24q-113 35 -181 112q-67 77 -67 169t43 158t119 138q152 139 151 242q0 59 -51 101t-150 42z" />
    <glyph glyph-name="braceright.lin" horiz-adv-x="557" 
d="M305 10q1 94 -65 226t-66 221q0 90 64 145t168 66q-70 8 -113 52t-43 103q0 111 156 258q158 145 157 271q0 92 -60 162t-167 104l8 24q114 -36 180 -112t66 -178q0 -136 -156 -282t-155 -247q0 -59 50 -101t148 -42h64l-6 -29h-66q-127 0 -197 -52t-70 -138t66 -220
q64 -134 64 -231q0 -135 -114 -222t-306 -91l4 24q176 2 283 84q106 82 106 205z" />
    <glyph glyph-name="registered.alt" horiz-adv-x="1191" 
d="M512 510h84q70 0 116 36t46 95t-44 95t-116 36h-86v-262zM397 254v20h90v498h-90v21h205q82 0 130 -41t48 -109q0 -117 -129 -145l133 -224h80v-20h-94l-141 238q-16 -2 -27 -3h-90v-215h84v-20h-199zM618 -2q215 0 358 149q142 150 142 366t-142 366q-142 149 -358 149
t-357 -150q-142 -150 -142 -366q0 -214 142 -364t357 -150zM618 -23q-225 0 -373 155t-149 380q0 225 148 381t374 156t374 -156t148 -381t-148 -380q-149 -155 -374 -155z" />
    <glyph glyph-name="copyright.lin" horiz-adv-x="1611" 
d="M885 340q-143 0 -236 101q-92 101 -92 245t96 244t234 100q98 0 171 -52t72 -118q0 -37 -30 -37t-29 29q0 29 33 33q-12 47 -74 85t-143 38q-129 0 -216 -94t-87 -229q0 -134 86 -228q86 -95 218 -95t230 93l12 -17q-102 -98 -245 -98zM864 6q274 0 459 194
q184 194 184 474t-184 474q-183 194 -457 194t-458 -194t-184 -474t182 -474q184 -194 458 -194zM863 -14q-284 0 -475 198t-191 489q1 289 193 489t476 200t474 -199q192 -199 192 -489t-192 -488q-192 -200 -477 -200z" />
    <glyph glyph-name="published.lin" horiz-adv-x="1611" 
d="M895 623q100 0 160 51q59 51 59 135t-61 133t-164 49h-109v-364q58 -4 115 -4zM657 338v20h99v633h-99v21h232q113 0 181 -56t69 -148q0 -92 -67 -150t-177 -58q-61 0 -115 4v-246h101v-20h-224zM864 6q274 0 459 194q184 194 184 474t-184 474q-183 194 -457 194
t-458 -194t-184 -474t182 -474q184 -194 458 -194zM863 -14q-284 0 -475 198t-191 489q1 289 193 489t476 200t474 -199q192 -199 192 -489t-192 -488q-192 -200 -477 -200z" />
    <glyph glyph-name="registered.lin" horiz-adv-x="1611" 
d="M741 668h133q78 0 136 46q57 46 57 122t-56 122t-149 46h-121v-336zM618 350v21h101v633h-101v20h246q102 0 164 -52t64 -132q0 -80 -54 -130t-127 -61l189 -278h88v-21h-105l-196 295h-146v-274h101v-21h-224zM864 6q274 0 459 194q184 194 184 474t-184 474
q-183 194 -457 194t-458 -194t-184 -474t182 -474q184 -194 458 -194zM863 -14q-284 0 -475 198t-191 489q1 289 193 489t476 200t474 -199q192 -199 192 -489t-192 -488q-192 -200 -477 -200z" />
    <glyph glyph-name="dollar.lin" horiz-adv-x="1038" 
d="M662 1317q-154 0 -260 -75t-105 -202q0 -127 81 -196t195 -133l183 598q-41 8 -94 8zM483 31q176 0 285 84t109 211t-86 204q-86 76 -203 142l-195 -635q43 -6 90 -6zM68 253q0 60 36 60t37 -37q0 -37 -37 -43q14 -57 87 -112t178 -78l196 641q-117 65 -207 142t-90 213
q0 137 114 221t280 83q47 0 102 -10l59 193l23 -8l-58 -191q109 -27 176 -90q66 -63 66 -121t-37 -57q-37 0 -37 37t37 43q-12 47 -68 94t-145 70l-186 -605q76 -44 117 -70t94 -72q102 -88 101 -229q0 -141 -116 -231t-307 -90q-51 0 -98 8l-66 -217l-24 8l65 213
q-128 29 -210 102t-82 133z" />
    <glyph glyph-name="sterling.lin" horiz-adv-x="1046" 
d="M444 559q0 -264 -251 -455q111 4 260 -47t235 -51q123 0 248 98l16 -20q-140 -104 -250 -104t-267 55t-265 45q-57 -66 -94 -66t-37 23t33 41t86 24q256 199 256 457h-215l6 27h209q-2 46 -14 160t-13 182q0 176 98 303t293 127q123 0 201 -65t78 -130t-37 -65
q-14 0 -26 10q-11 10 -11 29q0 35 39 41q-10 61 -77 108t-169 47q-180 0 -270 -120t-90 -285q0 -68 13 -182t15 -160h371l-4 -27h-367z" />
    <glyph glyph-name="Euro.lin" horiz-adv-x="1302" 
d="M307 494v-5q0 -213 115 -343t309 -130q115 0 225 50t191 135l18 -19q-190 -190 -436 -190q-209 0 -331 135t-122 362v5h-202l6 24h196q4 147 43 285h-174l7 24h176q72 231 224 380q153 148 361 149q158 0 270 -95t111 -208q0 -55 -38 -55t-38 37q0 38 44 44
q-10 94 -112 172t-239 78q-197 0 -340 -141t-213 -361h586l-6 -24h-588q-39 -137 -43 -285h565l-6 -24h-559z" />
    <glyph glyph-name="yen.lin" horiz-adv-x="1282" 
d="M266 567l6 25h353l-265 729h-141l6 27h375l-6 -27h-201l256 -721l617 721h-203l6 27h375l-6 -27h-138l-628 -729h348l-4 -25h-363l-51 -209h363l-4 -24h-365l-76 -307h221l-6 -27h-469l4 27h222l75 307h-356l4 24h358l54 209h-361z" />
    <glyph glyph-name="cent.lin" horiz-adv-x="915" 
d="M199 625q0 -123 54 -205t146 -113l236 795q-172 14 -304 -130t-132 -347zM500 266q-45 0 -84 10l-90 -311l-25 8l90 310q-100 35 -161 123q-60 88 -60 219q0 215 141 365t330 136l74 244l24 -8l-71 -240q104 -14 166 -75t61 -125q0 -64 -34 -64t-34 35t37 41
q-8 57 -62 104t-143 60l-235 -799q35 -8 78 -8q143 0 274 104l-2 -30q-127 -99 -274 -99z" />
    <glyph glyph-name="numbersign.lin" horiz-adv-x="1064" 
d="M477 897l-127 -461h342l127 461h-342zM973 1348l-119 -424h262l-6 -27h-262l-129 -461h272l-6 -24h-272l-115 -412h-27l113 412h-340l-115 -412h-26l114 412h-262l6 24h263l129 461h-273l6 27h273l119 424h26l-119 -424h342l119 424h27z" />
    <glyph glyph-name="paragraph.lin" horiz-adv-x="1206" 
d="M645 27h150l299 1294h-150zM631 504q-203 0 -322 100t-119 287t153 321t392 136h551l-4 -27h-156l-301 -1294h174l-6 -27h-553l4 27h170l113 479q-27 -2 -96 -2z" />
    <glyph glyph-name="section.lin" horiz-adv-x="958" 
d="M889 653q0 51 -41 95t-83 68q-121 65 -140 69q-19 5 -29 10l-25 10q-371 -51 -370 -211q1 -76 65 -123t199 -106l57 -25q367 53 367 213zM172 692q0 176 363 230q-98 47 -152 98q-53 51 -53 137q0 87 90 149t225 62q195 0 287 -108q39 -46 39 -92t-35 -46t-35 34t31 42
q-10 31 -35 55q-82 90 -250 90q-125 0 -207 -56t-82 -136t65 -130q65 -49 167 -95t143 -65t91 -53q94 -64 94 -150q0 -87 -92 -147t-271 -85q101 -47 153 -99t52 -134q0 -81 -86 -145t-204 -64t-194 32t-114 80q-38 47 -37 90q0 43 34 43q34 -1 34 -35t-31 -38q6 -23 37 -57
q31 -33 97 -61t172 -28q105 0 184 56t79 136q0 79 -68 131q-69 52 -212 111q-143 60 -211 112t-68 136z" />
    <glyph glyph-name="ordfeminine.lin" horiz-adv-x="620" 
d="M147 827l7 21h495l-6 -21h-496zM369 1008q102 0 174 99q71 99 71 193t-46 143q-46 50 -117 50q-100 0 -170 -92q-70 -93 -70 -195t43 -150t115 -48zM365 987q-80 0 -129 53q-50 53 -50 166t76 211t189 99q75 0 123 -48t53 -122l41 161h24l-96 -385q-8 -33 -8 -61
q0 -53 48 -53t87 94l18 -6q-43 -109 -106 -109q-70 0 -70 74q0 23 10 67q-81 -141 -210 -141z" />
    <glyph glyph-name="ordmasculine.lin" horiz-adv-x="638" 
d="M266 1220q0 -106 56 -162t153 -57q96 -1 169 87t73 193t-55 163q-56 58 -152 57q-96 0 -170 -88q-74 -87 -74 -193zM182 827l6 21h461l-6 -21h-461zM242 1220q0 116 81 210t188 94t169 -64t63 -178q-1 -115 -81 -209t-188 -94t-170 63t-62 178z" />
    <glyph glyph-name="degree.lin" horiz-adv-x="634" 
d="M428 1044q92 0 161 77t69 172t-51 147q-50 52 -141 51q-91 0 -161 -78q-69 -78 -69 -172q0 -93 50 -145t142 -52zM207 1241q0 103 79 187t182 85q104 0 160 -58t56 -162q0 -105 -78 -189t-180 -84t-161 59q-58 59 -58 162z" />
    <glyph glyph-name="percent.lin" horiz-adv-x="1349" 
d="M970 10q104 0 183 92q80 92 80 200t-57 170q-57 60 -162 60t-185 -92q-79 -92 -79 -200t58 -170q58 -60 162 -60zM454 815q104 0 184 92q81 93 81 201t-57 168t-162 61q-105 0 -185 -92q-79 -93 -79 -201t57 -168t161 -61zM1264 304q0 -118 -90 -219t-208 -101
q-116 0 -182 68t-66 186t91 220q89 102 207 101q118 0 183 -69q65 -68 65 -186zM106 -8l-18 18l1278 1346l18 -19zM748 1108q0 -118 -90 -218q-90 -102 -206 -102q-118 0 -183 69t-65 187t91 218q91 102 207 102t181 -69t65 -187z" />
    <glyph glyph-name="perthousand.lin" horiz-adv-x="1984" 
d="M1600 -16q-118 0 -182 68t-64 186t90 220t206 101q116 0 183 -69q65 -68 65 -186t-90 -219t-208 -101zM1384 240q0 -108 58 -170q58 -60 162 -60t184 92t80 200t-58 170q-58 60 -162 60t-184 -92t-80 -200zM1264 304q0 -118 -90 -219t-208 -101q-116 0 -182 68t-66 186
t91 220q89 102 207 101q118 0 183 -69q65 -68 65 -186zM970 10q104 0 183 92q80 92 80 200t-57 170q-57 60 -162 60t-185 -92q-79 -92 -79 -200t58 -170q58 -60 162 -60zM748 1108q0 -118 -90 -218q-90 -102 -206 -102q-118 0 -183 69t-65 187t91 218q91 102 207 102
t181 -69t65 -187zM454 815q104 0 184 92q81 93 81 201t-57 168t-162 61q-105 0 -185 -92q-79 -93 -79 -201t57 -168t161 -61zM106 -8l-18 18l1278 1346l18 -19z" />
    <glyph glyph-name="quotedbl.lin" horiz-adv-x="499" 
d="M336 1491q0 -12 -8 -27l-84 -258h-13l54 271q7 35 29 35t22 -21zM426 1206l53 271q6 35 25 34q25 0 24 -20q0 -12 -6 -27l-86 -258h-10z" />
    <glyph glyph-name="quotesingle.lin" horiz-adv-x="249" 
d="M336 1491q0 -12 -8 -27l-84 -258h-13l54 271q7 35 29 35t22 -21z" />
    <glyph glyph-name="plus.lin" horiz-adv-x="763" 
d="M526 979l-65 -281h274l-6 -26h-274l-72 -303h-27l70 303h-274l4 26h276l66 281h28z" />
    <glyph glyph-name="minus.lin" horiz-adv-x="763" 
d="M152 672l4 26h579l-6 -26h-577z" />
    <glyph glyph-name="divide.lin" horiz-adv-x="763" 
d="M387 408q-37 0 -37 38t37 37q37 1 37 -37t-37 -38zM498 881q-37 0 -37 39t37 38q16 0 26 -11t10 -27t-10 -28q-12 -12 -26 -11zM152 672l4 26h579l-6 -26h-577z" />
    <glyph glyph-name="equal.lin" horiz-adv-x="763" 
d="M88 506l6 26h578l-4 -26h-580zM154 784l6 25h577l-4 -25h-579z" />
    <glyph glyph-name="multiply.lin" horiz-adv-x="763" 
d="M219 967l201 -262l309 249l16 -22l-309 -250l205 -264l-20 -19l-205 267l-312 -252l-14 22l309 250l-200 262z" />
    <glyph glyph-name="less.lin" horiz-adv-x="724" 
d="M545 346l-389 313l2 11l534 297l15 -23l-510 -282l364 -293z" />
    <glyph glyph-name="greater.lin" horiz-adv-x="724" 
d="M139 352l-14 23l510 282l-363 293l17 23l387 -314l-2 -10z" />
    <glyph glyph-name="plusminus.lin" horiz-adv-x="763" 
d="M41 322l4 26h580l-7 -26h-577zM518 1071l-65 -280h274l-4 -27h-277l-69 -295h-27l70 295h-277l7 27h276l66 280h26z" />
    <glyph glyph-name="zero.tab" horiz-adv-x="1085" 
d="M180 459q0 -209 78 -327t221 -118t273 134q129 134 200 336q72 202 72 412t-78 327t-221 117t-272 -135q-129 -133 -201 -335t-72 -411zM475 -12q-156 0 -243 125t-85 345t78 428t212 344t292 136t243 -125t85 -345t-78 -428t-212 -344t-292 -136z" />
    <glyph glyph-name="one.tab" horiz-adv-x="1085" 
d="M98 0l4 27h355l303 1302l-414 -119v27l436 129l15 -10l-310 -1329h355l-6 -27h-738z" />
    <glyph glyph-name="two.tab" horiz-adv-x="1085" 
d="M1040 1060q0 126 -87 204t-245 78t-266 -88q-109 -87 -123 -189q39 -4 39 -40t-34 -36q-39 0 -39 53q0 118 122 222t298 104t272 -86t96 -224t-107 -238q-107 -99 -252 -182q-146 -83 -210 -125q-219 -143 -322 -285q-65 -90 -106 -201h766l69 311h31l-76 -338h-821
l-6 16q41 117 109 214q115 162 333 300q73 46 221 130q148 86 243 180t95 220z" />
    <glyph glyph-name="three.tab" horiz-adv-x="1085" 
d="M938 377q0 -162 -125 -277t-332 -114q-161 0 -279 87t-118 195q0 58 36 58t36 -35q0 -15 -12 -27t-29 -12q12 -92 117 -166t249 -74q197 0 311 106t114 252q0 144 -103 231q-102 87 -285 87h-65l4 27h71q219 0 352 99q132 100 132 234t-92 214t-238 80t-244 -62
q-100 -61 -112 -141q39 -6 39 -41t-37 -35t-37 51q0 100 112 177q113 77 277 77t263 -87t99 -224t-117 -238t-307 -119q150 -22 235 -110t85 -213z" />
    <glyph glyph-name="four.tab" horiz-adv-x="1085" 
d="M881 895l-103 -432h252l-4 -27h-254l-94 -409h219l-6 -27h-508l6 27h260l94 409h-655l-4 17l930 915l22 -18l-903 -887h617l96 416z" />
    <glyph glyph-name="five.tab" horiz-adv-x="1085" 
d="M442 -16q-150 0 -258 72t-106 165q0 51 37 51q14 0 24 -10t11 -24q0 -33 -35 -39q16 -76 109 -132t220 -57q218 0 356 140t138 302t-100 243t-261 81t-311 -53l-14 12l203 613h647l-6 -29h-623l-186 -563q141 49 276 49q188 0 298 -89t110 -262q0 -174 -148 -322
t-381 -148z" />
    <glyph glyph-name="six.tab" horiz-adv-x="1085" 
d="M190 342q0 -140 100 -236t263 -96q164 0 289 136t125 315q1 143 -93 233t-262 90t-294 -132q-128 -132 -128 -310zM811 1341q-185 0 -323 -138t-216 -347t-88 -391q35 143 158 245t289 101q166 0 267 -97t101 -268q0 -170 -135 -316t-313 -146t-289 108
q-110 108 -110 306q0 200 82 434t225 378q152 156 352 156q133 0 206 -67t73 -132t-41 -65q-31 0 -31 35t35 45q-9 59 -69 109t-173 50z" />
    <glyph glyph-name="seven.tab" horiz-adv-x="1085" 
d="M252 0l903 1321h-795l-59 -254h-29l64 281h854l8 -15l-909 -1333h-37z" />
    <glyph glyph-name="eight.tab" horiz-adv-x="1085" 
d="M558 694q-176 0 -297 -110q-120 -110 -120 -254q0 -142 111 -230q112 -88 276 -88t289 102t125 252q0 148 -104 238t-280 90zM973 375q0 -168 -133 -279q-134 -110 -312 -110t-298 93t-119 247t121 268t298 119q-110 27 -182 109t-72 186q0 150 122 256t295 106t279 -90
t105 -231q0 -141 -107 -240q-108 -98 -282 -111q129 -26 207 -114t78 -209zM662 717q161 1 273 97t112 230q-1 134 -97 217t-256 83t-274 -98q-114 -97 -113 -229q0 -132 97 -216t258 -84z" />
    <glyph glyph-name="nine.tab" horiz-adv-x="1085" 
d="M1030 992q0 161 -97 254t-263 93t-291 -136q-125 -137 -125 -297t94 -250t262 -91q168 0 294 133t126 294zM412 10q182 0 333 148q127 129 206 342t87 395q-33 -145 -155 -251q-123 -105 -290 -105t-269 98t-103 252q0 189 135 333q136 144 314 144t286 -102
q113 -112 113 -312t-81 -434q-82 -234 -232 -384q-150 -151 -344 -150q-135 0 -208 66t-73 132t41 66q33 0 33 -34t-37 -44q10 -60 70 -110t174 -50z" />
    <glyph glyph-name="period.tab" horiz-adv-x="542" 
d="M211 -16q-41 0 -41 43q0 16 11 28q11 13 29 13t32 -12q12 -12 12 -30q0 -17 -12 -30q-13 -12 -31 -12z" />
    <glyph glyph-name="comma.tab" horiz-adv-x="542" 
d="M168 31q0 39 39 39q45 0 45 -58t-43 -118t-123 -103l-6 14q135 86 135 185q-18 -4 -33 8q-14 12 -14 33z" />
    <glyph glyph-name="colon.tab" horiz-adv-x="542" 
d="M360 598q-18 0 -30 12t-13 31q0 43 42 43t42 -43q0 -18 -11 -31q-12 -12 -30 -12zM260 26q0 -42 -42 -42t-42 43q0 16 11 28t30 13q43 0 43 -42z" />
    <glyph glyph-name="semicolon.tab" horiz-adv-x="542" 
d="M360 598q-39 0 -41 43q0 43 42 43t42 -43q0 -18 -12 -31q-13 -12 -31 -12zM262 12q0 -58 -43 -118t-123 -103l-6 14q135 86 135 185q-18 -4 -32 8t-15 33q0 37 37 39q47 0 47 -58z" />
    <glyph glyph-name="twodotleader.tab" horiz-adv-x="1085" 
d="M754 -16q-41 0 -41 43q0 16 11 28q12 13 30 13t30 -12t12 -30t-12 -30t-30 -12zM211 -16q-41 0 -41 43q0 16 11 28q11 13 29 13t32 -12q12 -12 12 -30q0 -17 -12 -30q-13 -12 -31 -12z" />
    <glyph glyph-name="periodcentered.tab" horiz-adv-x="542" 
d="M289 449q-41 0 -41 43q0 16 11 28t29 12t30 -12q11 -12 12 -28q0 -43 -41 -43z" />
    <glyph glyph-name="slash.tab" horiz-adv-x="1085" 
d="M-84 -408l-20 17l1261 1890l23 -16z" />
    <glyph glyph-name="bar.tab" horiz-adv-x="542" 
d="M258 -410v1909h29v-1909h-29z" />
    <glyph glyph-name="underscore.tab" horiz-adv-x="1085" 
d="M-143 -248l6 29h1108l-6 -29h-1108z" />
    <glyph glyph-name="dollar.tab" horiz-adv-x="1085" 
d="M692 1315q-160 0 -270 -76t-109 -198q0 -122 79 -190t210 -140l182 596q-57 8 -92 8zM918 324q0 124 -77 196t-225 150l-192 -631q39 -6 84 -6q184 0 297 83t113 208zM90 260q0 64 37 64q35 0 35 -37t-35 -43q12 -62 87 -120t185 -81l195 639q-135 73 -200 126
q-64 54 -89 106t-24 114q0 145 119 229q120 84 294 84q57 0 99 -8l57 193l27 -8l-60 -191q115 -27 183 -93t67 -123q0 -58 -37 -58q-14 0 -25 10t-12 27q0 35 37 40q-14 52 -74 100t-147 70l-184 -602q248 -131 299 -240q25 -54 24 -120q0 -150 -120 -241t-320 -91
q-49 0 -92 6l-66 -215l-24 8l63 213q-131 30 -215 104t-84 138z" />
    <glyph glyph-name="sterling.tab" horiz-adv-x="1085" 
d="M436 930q0 -72 14 -185t15 -159h391l-6 -27h-385v-8q0 -270 -264 -449q131 10 278 -43t253 -53t239 96l16 -20q-133 -102 -270 -102q-96 0 -255 56t-286 40q-53 -66 -91 -66t-38 22t33 42q33 18 84 24q272 188 272 451v10h-219l6 27h211q-2 44 -15 158t-13 184
q0 178 100 304t301 126q127 0 211 -66t84 -147q0 -53 -37 -53t-37 36t39 43q-12 61 -83 109t-177 49q-187 1 -279 -117t-92 -282z" />
    <glyph glyph-name="Euro.tab" horiz-adv-x="1085" 
d="M1100 1065q0 -59 -41 -59q-35 0 -35 38t41 43q-6 94 -75 167t-183 73q-164 0 -298 -138t-202 -358h479l-6 -26h-481q-41 -141 -47 -289h463l-6 -27h-457v-22q0 -211 87 -329t236 -118q201 0 359 199l22 -16q-164 -209 -385 -209q-162 0 -257 124t-95 347v24h-166l6 27
h160q6 141 45 289h-141l6 26h143q72 231 216 377t321 146q133 0 212 -87t79 -202z" />
    <glyph glyph-name="yen.tab" horiz-adv-x="1085" 
d="M221 567l4 27h307l-186 727h-143l6 27h383l-6 -27h-209l184 -721l545 721h-213l6 27h383l-6 -27h-135l-553 -727h305l-6 -27h-320l-51 -209h320l-7 -26h-319l-76 -305h207l-6 -27h-445l7 27h206l76 305h-315l6 26h315l52 209h-316z" />
    <glyph glyph-name="cent.tab" horiz-adv-x="1085" 
d="M258 625q0 -123 61 -207t162 -113l236 795q-183 12 -321 -132t-138 -343zM227 625q-1 211 147 361t349 138l74 246l22 -8l-71 -240q114 -12 182 -76t68 -128q0 -62 -34 -62t-34 35t37 41q-11 59 -71 106t-157 60l-235 -799q35 -8 80 -8q166 0 293 106v-32
q-139 -98 -297 -99q-47 0 -82 8l-90 -307l-25 8l92 306q-111 31 -179 121t-69 223z" />
    <glyph glyph-name="numbersign.tab" horiz-adv-x="1085" 
d="M483 897l-127 -459h351l129 459h-353zM989 1348l-119 -424h265l-7 -27h-264l-129 -459h275l-6 -26h-275l-115 -412h-28l114 412h-352l-112 -412h-29l115 412h-265l6 26h265l129 459h-275l6 27h275l119 424h28l-118 -424h350l119 424h28z" />
    <glyph glyph-name="paragraph.tab" horiz-adv-x="1085" 
d="M559 27h141l299 1294h-139zM596 502q-184 0 -298 101t-114 271q0 207 159 340t407 134h430l-4 -27h-148l-299 -1294h162l-6 -27h-539l6 27h178l111 477q-18 -2 -45 -2z" />
    <glyph glyph-name="section.tab" horiz-adv-x="1085" 
d="M248 694q0 -76 70 -125t208 -100l68 -27q381 53 381 215q0 80 -96 138t-212 97q-4 1 -8 3l-22 8q-189 -23 -289 -78t-100 -131zM217 690q0 172 381 230q-221 94 -221 225q0 101 98 163q99 62 225 62t206 -35t117 -84q36 -49 36 -97t-34 -48t-34 34t31 42q-6 25 -31 55
q-33 45 -105 76t-186 31t-203 -56q-89 -55 -89 -136t68 -132t168 -91q242 -97 301 -149t61 -123q0 -170 -375 -231q109 -47 163 -99t54 -134q0 -81 -94 -145t-221 -64t-208 36t-118 85t-37 95t35 46t35 -36t-31 -40q6 -24 35 -60q30 -36 102 -68t188 -32t199 56
q84 56 84 136q0 79 -75 132q-74 53 -226 110q-152 58 -226 110t-73 136z" />
    <glyph glyph-name="degree.tab" horiz-adv-x="1085" 
d="M618 821q164 0 274 118t109 271q0 117 -75 195q-76 78 -203 78q-167 0 -275 -117t-108 -272q0 -117 76 -195t202 -78zM618 799q-139 0 -221 84t-82 211q0 164 116 288t292 125q139 0 222 -85t83 -212q0 -164 -117 -288t-293 -123z" />
    <glyph glyph-name="percent.tab" horiz-adv-x="1085" 
d="M748 10q106 0 179 102t72 236q0 86 -40 137t-111 52q-104 1 -180 -103t-76 -237q0 -87 41 -137t115 -50zM745 -14q-84 0 -132 56t-48 151q0 147 83 257t202 109q82 0 129 -56t47 -153q0 -148 -81 -256t-200 -108zM362 813q104 0 179 102q74 102 73 236q0 86 -41 137
t-110 51q-106 0 -181 -102t-75 -238q-1 -84 41 -135t114 -51zM360 788q-84 0 -132 58t-48 151q0 147 83 257t202 110q82 0 129 -57t47 -154q0 -145 -82 -255t-199 -110zM84 -8l-21 16l1065 1350l19 -17z" />
    <glyph glyph-name="quotedbl.tab" horiz-adv-x="1085" 
d="M762 1067l80 416q6 29 30 28q20 0 21 -20q0 -10 -4 -21l-117 -403h-10zM426 1067l80 416q2 29 29 28q23 0 22 -20l-121 -424h-10z" />
    <glyph glyph-name="quotesingle.tab" horiz-adv-x="542" 
d="M354 1067l82 416q2 29 29 28q23 0 22 -20l-120 -424h-13z" />
    <glyph glyph-name="plus.tab" horiz-adv-x="1085" 
d="M698 1020l-75 -320h317l-6 -26h-318l-79 -346h-29l80 346h-316l7 26h315l76 320h28z" />
    <glyph glyph-name="minus.tab" horiz-adv-x="1085" 
d="M272 674l7 26h661l-6 -26h-662z" />
    <glyph glyph-name="divide.tab" horiz-adv-x="1085" 
d="M539 369q-14 0 -25 10q-10 10 -10 24q0 37 35 37t34 -37q0 -14 -10 -24t-24 -10zM672 928q-14 0 -25 10q-10 10 -10 25q0 37 35 36q35 0 35 -36q-1 -15 -11 -25t-24 -10zM272 674l7 26h661l-6 -26h-662z" />
    <glyph glyph-name="equal.tab" horiz-adv-x="1085" 
d="M215 492l6 26h647l-6 -26h-647zM293 815l6 25h647l-6 -25h-647z" />
    <glyph glyph-name="multiply.tab" horiz-adv-x="1085" 
d="M348 1014l236 -307l352 286l16 -24l-350 -283l242 -311l-23 -19l-241 312l-357 -289l-16 22l354 287l-235 305z" />
    <glyph glyph-name="less.tab" horiz-adv-x="1085" 
d="M743 291l-448 373l2 10l618 336l15 -23l-592 -321l426 -355z" />
    <glyph glyph-name="greater.tab" horiz-adv-x="1085" 
d="M451 1034l448 -370v-11l-620 -338l-13 23l590 321l-424 357z" />
    <glyph glyph-name="plusminus.tab" horiz-adv-x="1085" 
d="M160 285l4 26h661l-4 -26h-661zM700 1128l-75 -321h317l-6 -27h-318l-79 -340h-27l80 340h-318l7 27h317l76 321h26z" />
    <glyph glyph-name="zero.idx_P2D" horiz-adv-x="2197" 
d="M1097 1098q-139 0 -229 -130t-90 -338t90 -339t228 -131q137 0 228 130t91 339t-90 339t-228 130zM1446 628q0 -220 -101 -356t-249 -137q-148 0 -248 137q-98 138 -98 358t99 356t249 136t249 -137t99 -357zM1098 1597q-401 0 -677 -286q-275 -287 -275 -697t274 -696
q276 -286 678 -287q266 0 485 132q219 131 344 357t125 494t-125 494t-344 357q-219 132 -485 132zM1098 1622q272 0 497 -135t355 -367t129 -506q0 -274 -129 -505q-128 -231 -354 -367t-498 -135q-272 0 -498 135q-225 134 -353 366t-128 506t128 506t353 367
q226 135 498 135z" />
    <glyph glyph-name="one.idx_P2D" horiz-adv-x="2197" 
d="M1354 150h-484v24h228v909l-224 -57l-4 25l242 63h14v-940h228v-24zM1098 1597q-401 0 -677 -286q-275 -287 -275 -697t274 -696q276 -286 678 -287q266 0 485 132q219 131 344 357t125 494t-125 494t-344 357q-219 132 -485 132zM1098 1622q272 0 497 -135t355 -367
t129 -506q0 -274 -129 -505q-128 -231 -354 -367t-498 -135q-272 0 -498 135q-225 134 -353 366t-128 506t128 506t353 367q226 135 498 135z" />
    <glyph glyph-name="two.idx_P2D" horiz-adv-x="2197" 
d="M891 886q0 -32 -33 -32t-33 38t19 79q30 69 98 111t176 42t185 -70q75 -70 75 -168q0 -99 -57 -171t-177 -160t-201 -176t-118 -205h549v197h29v-221h-602l-8 12q41 131 125 227t202 180t173 153q57 69 57 161t-68 153t-180 62q-172 0 -234 -131q-8 -20 -12 -43
q35 -6 35 -38zM1098 1597q-401 0 -677 -286q-275 -287 -275 -697t274 -696q276 -286 678 -287q266 0 485 132q219 131 344 357t125 494t-125 494t-344 357q-219 132 -485 132zM1098 1622q272 0 497 -135t355 -367t129 -506q0 -274 -129 -505q-128 -231 -354 -367t-498 -135
q-272 0 -498 135q-225 134 -353 366t-128 506t128 506t353 367q226 135 498 135z" />
    <glyph glyph-name="three.idx_P2D" horiz-adv-x="2197" 
d="M811 315q0 45 33 45q12 0 21 -9t9 -21q0 -31 -32 -37q8 -31 30 -53q70 -80 203 -80t207 68t74 169q0 152 -162 211q-63 25 -164 25h-20v26h22q98 0 168 39q135 57 135 195q0 84 -64 142q-65 59 -191 59t-191 -90q-16 -23 -25 -50q33 -6 33 -34q0 -14 -9 -24t-22 -9
q-32 0 -32 41t30 86q76 104 232 104q124 0 196 -66t72 -159q0 -152 -152 -215q-41 -20 -86 -29q43 -6 84 -20q174 -66 174 -232q0 -113 -82 -187t-231 -75q-148 0 -227 96q-33 39 -33 84zM1098 1597q-401 0 -677 -286q-275 -287 -275 -697t274 -696q276 -286 678 -287
q266 0 485 132q219 131 344 357t125 494t-125 494t-344 357q-219 132 -485 132zM1098 1622q272 0 497 -135t355 -367t129 -506q0 -274 -129 -505q-128 -231 -354 -367t-498 -135q-272 0 -498 135q-225 134 -353 366t-128 506t128 506t353 367q226 135 498 135z" />
    <glyph glyph-name="four.idx_P2D" horiz-adv-x="2197" 
d="M938 150v24h221v279h-469l-6 10l500 663l22 -14l-481 -635h434v316l29 12v-328h213v-24h-213v-279h186v-24h-436zM1098 1597q-401 0 -677 -286q-275 -287 -275 -697t274 -696q276 -286 678 -287q266 0 485 132q219 131 344 357t125 494t-125 494t-344 357
q-219 132 -485 132zM1098 1622q272 0 497 -135t355 -367t129 -506q0 -274 -129 -505q-128 -231 -354 -367t-498 -135q-272 0 -498 135q-225 134 -353 366t-128 506t128 506t353 367q226 135 498 135z" />
    <glyph glyph-name="five.idx_P2D" horiz-adv-x="2197" 
d="M1082 137q-120 0 -198 49t-77 113q0 41 30 41q29 0 29 -30t-26 -36q16 -48 82 -80t168 -32t182 77t80 199t-77 194q-77 70 -199 70t-216 -47l-14 9l47 444h434v-27h-412l-41 -393q84 39 210 39t211 -77t85 -211t-89 -218t-209 -84zM1098 1597q-401 0 -677 -286
q-275 -287 -275 -697t274 -696q276 -286 678 -287q266 0 485 132q219 131 344 357t125 494t-125 494t-344 357q-219 132 -485 132zM1098 1622q272 0 497 -135t355 -367t129 -506q0 -274 -129 -505q-128 -231 -354 -367t-498 -135q-272 0 -498 135q-225 134 -353 366
t-128 506t128 506t353 367q226 135 498 135z" />
    <glyph glyph-name="six.idx_P2D" horiz-adv-x="2197" 
d="M817 435q0 -116 80 -197q84 -80 201 -80q118 0 196 81t78 197t-77 193q-77 76 -197 76t-201 -77q-80 -77 -80 -193zM1292 977q0 19 25 29q-6 20 -29 38q-55 51 -151 52q-141 0 -235 -138t-95 -411v-35q23 96 101 157q79 60 201 60t207 -83t85 -210t-87 -215t-219 -88
t-216 88q-98 98 -99 326q0 285 102 429t257 144q106 0 168 -57q49 -37 49 -80t-31 -43q-32 0 -33 37zM1098 1597q-401 0 -677 -286q-275 -287 -275 -697t274 -696q276 -286 678 -287q266 0 485 132q219 131 344 357t125 494t-125 494t-344 357q-219 132 -485 132zM1098 1622
q272 0 497 -135t355 -367t129 -506q0 -274 -129 -505q-128 -231 -354 -367t-498 -135q-272 0 -498 135q-225 134 -353 366t-128 506t128 506t353 367q226 135 498 135z" />
    <glyph glyph-name="seven.idx_P2D" horiz-adv-x="2197" 
d="M858 1059v-185h-29v209h609l6 -8l-420 -948h-29l414 932h-551zM1098 1597q-401 0 -677 -286q-275 -287 -275 -697t274 -696q276 -286 678 -287q266 0 485 132q219 131 344 357t125 494t-125 494t-344 357q-219 132 -485 132zM1098 1622q272 0 497 -135t355 -367t129 -506
q0 -274 -129 -505q-128 -231 -354 -367t-498 -135q-272 0 -498 135q-225 134 -353 366t-128 506t128 506t353 367q226 135 498 135z" />
    <glyph glyph-name="eight.idx_P2D" horiz-adv-x="2197" 
d="M825 398q0 -100 78 -168t196 -68q117 0 195 66t78 169q0 102 -80 169t-194 67t-194 -67q-79 -67 -79 -168zM1098 657q110 -1 182 61t72 155t-73 158t-181 65t-182 -65q-72 -65 -72 -158t72 -155t182 -61zM1401 388q0 -102 -86 -176t-216 -75q-130 0 -216 75t-86 176
t64 171q65 70 161 86q-92 21 -150 83t-57 156q0 94 81 166t203 70q121 0 201 -70t80 -166t-56 -157t-150 -82q98 -16 162 -85q64 -70 65 -172zM1098 1597q-401 0 -677 -286q-275 -287 -275 -697t274 -696q276 -286 678 -287q266 0 485 132q219 131 344 357t125 494t-125 494
t-344 357q-219 132 -485 132zM1098 1622q272 0 497 -135t355 -367t129 -506q0 -274 -129 -505q-128 -231 -354 -367t-498 -135q-272 0 -498 135q-225 134 -353 366t-128 506t128 506t353 367q226 135 498 135z" />
    <glyph glyph-name="nine.idx_P2D" horiz-adv-x="2197" 
d="M1102 547q122 -1 202 75t80 194t-81 199t-199 81t-196 -81q-79 -81 -79 -199t76 -194t197 -75zM844 273q0 42 30 42q30 -1 29 -29q0 -28 -22 -36q8 -25 30 -41q57 -51 156 -51q139 0 233 137t95 407v35q-21 -94 -101 -155q-80 -62 -202 -62t-207 83q-84 83 -84 211
t87 217t217 89t223 -92t93 -323q0 -289 -101 -431t-255 -141q-106 0 -176 62q-45 36 -45 78zM1098 1597q-401 0 -677 -286q-275 -287 -275 -697t274 -696q276 -286 678 -287q266 0 485 132q219 131 344 357t125 494t-125 494t-344 357q-219 132 -485 132zM1098 1622
q272 0 497 -135t355 -367t129 -506q0 -274 -129 -505q-128 -231 -354 -367t-498 -135q-272 0 -498 135q-225 134 -353 366t-128 506t128 506t353 367q226 135 498 135z" />
    <glyph glyph-name="space.tab" horiz-adv-x="542" 
 />
    <glyph glyph-name="NUL" 
 />
    <glyph glyph-name="hfjslug" horiz-adv-x="1427" 
d="M874 580q-33 0 -32 34q0 12 9 24t23 11q14 0 24 -11t9 -24q0 -34 -33 -34zM999 612h-22v35h22q20 0 21 -16q-1 -19 -21 -19zM662 823q-33 0 -33 45t33 78l40 -80q-16 -43 -40 -43zM647 1056q0 30 29 29q27 -1 27 -35t-31 -69q-25 45 -25 75zM496 662l28 -97h17l22 70h2
l23 -70h16l29 97h-17l-20 -72h-2l-23 72h-14l-22 -72h-3l-20 72h-16zM272 662v-95h17v66l51 -66h14v95h-16v-66l-51 66h-15zM397 662v-95h70v15h-53v26h47v15h-47v24h53v15h-70zM752 567h16v35l37 60h-19l-26 -46l-27 46h-18l37 -60v-35zM874 565q20 1 34 15q33 33 1 68
q-15 16 -35 16t-34 -16t-14 -34q0 -20 14 -34t34 -15zM1036 631q0 31 -35 31h-40v-95h16v31h24l21 -31h18l-24 35q20 8 20 29zM1073 662v-95h17v25l16 16l31 -41h20l-41 54l37 41h-20l-41 -50h-2v50h-17zM731 1038q0 72 -55 72q-25 0 -41 -19q-17 -19 -17 -45t29 -79
q-47 -37 -47 -83q0 -91 59 -89q39 0 60 49h2l24 -49l25 12l-35 65q13 29 27 80l-27 6q-8 -37 -16 -61h-2l-33 64q47 43 47 77zM987 799q63 0 64 73v281h-33v-281q0 -45 -33 -45q-14 0 -41 11v-31q20 -8 43 -8zM379 1153v-352h31v162h96v-162h31v352h-31v-162h-96v162h-31z
M821 1153v-352h31v160h78v28h-78v135h88v29h-119zM1321 -410h-426l-16 29h-334l-17 -29h-424v621q27 0 47 19q19 19 19 46q0 26 -19 46t-47 20v1135h205l62 161h684l59 -161h207v-1887z" />
    <glyph glyph-name="i.dot" horiz-adv-x="524" 
d="M265 -12q-54 0 -86 32t-32 80q0 47 31 156l164 555h-182l6 25h209l-168 -584q-31 -98 -31 -144t25 -70q25 -26 67 -26t73 36q32 36 65 120l22 -6q-35 -94 -72 -134t-91 -40zM393 1085q-35 0 -35 37q0 14 10 24t25 11q15 0 25 -10t10 -25q0 -37 -35 -37z" />
    <glyph glyph-name="zero.num" horiz-adv-x="722" 
d="M369 588q127 0 211 142t84 325q0 115 -50 183t-137 69q-127 -1 -210 -141t-83 -324q0 -115 48 -185q49 -69 137 -69zM369 567q-100 0 -156 75q-55 75 -55 198q0 197 90 343t231 146q99 0 155 -75t56 -199q0 -195 -91 -341t-230 -147z" />
    <glyph glyph-name="one.num" horiz-adv-x="722" 
d="M147 573l5 23h210l166 698l-235 -71v24l254 78l12 -6l-170 -723h207l-6 -23h-443z" />
    <glyph glyph-name="two.num" horiz-adv-x="722" 
d="M680 1157q0 66 -50 107t-134 41t-148 -42t-72 -92q31 -5 31 -33q-1 -28 -29 -28t-28 53t72 109t172 55q100 0 156 -47t56 -123t-58 -131q-60 -56 -147 -102q-233 -125 -303 -219q-36 -49 -59 -109h428l41 168h23l-43 -191h-475l-7 13q61 168 250 282q43 27 107 62
q217 111 217 227z" />
    <glyph glyph-name="three.num" horiz-adv-x="722" 
d="M639 771q1 -79 -75 -141t-182 -63q-106 0 -173 48q-68 49 -68 103t30 54t30 -31q-1 -12 -11 -21t-24 -9q10 -49 68 -86t150 -37t161 57q67 57 67 133t-55 123t-137 47h-45l4 23h39q110 0 182 54t72 125t-54 113t-134 42q-81 0 -134 -32t-61 -71q31 0 30 -28
q0 -29 -26 -29q-31 0 -31 48t62 91t159 43q95 0 155 -49t60 -123t-61 -129t-158 -68q72 -12 116 -60t44 -127z" />
    <glyph glyph-name="four.num" horiz-adv-x="722" 
d="M444 594l52 217h-371l-4 12l506 504l16 -16l-483 -480h340l53 222l29 14l-56 -233h146l-4 -23h-146l-51 -217h119l-4 -21h-287l6 21h139z" />
    <glyph glyph-name="five.num" horiz-adv-x="722" 
d="M330 563q-80 0 -140 41q-59 41 -59 86t28 45t27 -26q0 -25 -26 -29q10 -37 59 -67t113 -29q121 0 203 74t81 176q0 72 -50 116t-147 45q-97 0 -179 -37l-15 11l115 342h375l-4 -23h-355l-102 -301q84 31 180 31t152 -50t57 -132q0 -113 -90 -193t-223 -80z" />
    <glyph glyph-name="six.num" horiz-adv-x="722" 
d="M623 820q1 84 -49 132q-50 47 -140 47q-90 1 -165 -71t-75 -152t51 -134q50 -54 142 -54t164 74t72 158zM702 1210q0 -43 -32 -43q-25 0 -25 27t27 33q-6 31 -41 55t-92 23q-94 0 -185 -86q-70 -70 -114 -179t-52 -204q27 80 99 133q73 53 161 53t144 -54t57 -148
q0 -94 -80 -174q-79 -80 -181 -80t-164 60t-60 168q0 108 47 236q47 127 135 211t178 84t134 -36t44 -79z" />
    <glyph glyph-name="seven.num" horiz-adv-x="722" 
d="M242 573l489 719h-428l-31 -137h-26l37 160h475l8 -12l-496 -730h-28z" />
    <glyph glyph-name="eight.num" horiz-adv-x="722" 
d="M168 763q0 -77 60 -126t155 -49q94 0 168 54t74 133q-1 79 -63 128t-157 49t-166 -56t-71 -133zM489 1307q-89 1 -155 -51t-66 -123t58 -117t143 -45q84 0 153 53q68 54 68 122t-56 114t-145 47zM649 765q-1 -79 -79 -139t-184 -59t-176 55q-69 54 -69 138t73 144t165 65
q-57 16 -97 60t-40 114t73 128t175 58t164 -52t62 -127t-60 -128q-62 -53 -156 -66q149 -44 149 -191z" />
    <glyph glyph-name="nine.num" horiz-adv-x="722" 
d="M478 1303q-89 0 -161 -73q-71 -73 -71 -158t50 -133t139 -48t164 72q75 73 75 153t-51 135q-56 52 -145 52zM219 1071q0 94 80 174t181 80t163 -60q62 -61 62 -169q1 -108 -47 -234t-136 -212q-88 -85 -177 -85t-134 36t-45 80t33 44q25 0 25 -28t-27 -33q6 -31 41 -54
t92 -22q94 0 173 76t123 184t52 205q-28 -80 -98 -131q-70 -52 -159 -52t-145 54t-57 147z" />
    <glyph glyph-name="zero.den" horiz-adv-x="722" 
d="M236 14q126 0 210 142t84 325q0 115 -49 184t-137 68q-127 0 -210 -140t-83 -325q1 -114 49 -184t136 -70zM236 -6q-100 0 -156 75q-55 75 -55 197q0 197 90 343t231 147q98 0 154 -75t57 -200q0 -195 -91 -341t-230 -146z" />
    <glyph glyph-name="one.den" horiz-adv-x="722" 
d="M14 0l4 23h211l166 698l-235 -72v25l254 78l12 -7l-170 -722h207l-6 -23h-443z" />
    <glyph glyph-name="two.den" horiz-adv-x="722" 
d="M547 584q0 66 -50 106t-134 41q-83 0 -147 -42t-73 -91q31 -4 31 -33t-29 -29t-29 54q0 53 72 108q72 56 172 56t157 -47q56 -47 56 -123t-59 -131t-146 -101q-127 -68 -221 -138q-94 -69 -141 -191h428l41 167h23l-43 -190h-475l-7 12q47 129 143 205t214 139
q217 111 217 228z" />
    <glyph glyph-name="three.den" horiz-adv-x="722" 
d="M506 198q0 -80 -76 -142t-180 -62q-106 0 -174 48t-68 102t30 55q30 0 30 -31q0 -12 -10 -22t-25 -9q10 -49 68 -86q59 -37 151 -37t160 58t68 133q0 76 -56 123q-55 47 -137 47h-45l4 22h39q109 1 181 55t73 125t-53 113t-135 41q-81 0 -134 -32t-61 -70q31 0 30 -29
q0 -29 -26 -29q-31 0 -31 48q0 47 62 91q63 44 159 44t156 -49t59 -123q0 -74 -61 -129t-158 -68q72 -12 116 -60t44 -127z" />
    <glyph glyph-name="four.den" horiz-adv-x="722" 
d="M311 20l51 218h-370l-4 12l506 504l16 -17l-483 -479h340l53 221l29 15l-56 -234h146l-4 -22h-146l-51 -218h119l-4 -20h-287l6 20h139z" />
    <glyph glyph-name="five.den" horiz-adv-x="722" 
d="M197 -10q-80 0 -140 41q-59 41 -59 86t28 45t27 -27q0 -25 -26 -29q10 -36 59 -66t113 -30q121 0 203 74t81 176q0 72 -50 117t-147 45t-180 -37l-14 10l115 342h375l-4 -22h-355l-102 -301q84 30 180 30q97 0 153 -50t56 -132q0 -112 -90 -192t-223 -80z" />
    <glyph glyph-name="six.den" horiz-adv-x="722" 
d="M61 202q1 -80 51 -134t142 -54t164 74t72 159t-50 132q-49 47 -139 47t-165 -72t-75 -152zM569 637q0 -43 -32 -43q-25 0 -25 27t27 32q-6 31 -41 55t-92 23q-94 0 -185 -86q-69 -71 -113 -179t-53 -204q27 80 99 133t160 53t146 -54q56 -54 56 -147t-80 -174t-182 -81
t-162 60q-62 60 -62 168t48 236q47 128 135 212q87 84 177 84t134 -36t45 -79z" />
    <glyph glyph-name="seven.den" horiz-adv-x="722" 
d="M109 0l489 719h-428l-31 -137h-26l37 159h475l8 -12l-496 -729h-28z" />
    <glyph glyph-name="eight.den" horiz-adv-x="722" 
d="M250 14q94 0 168 54t74 134q0 79 -62 128t-158 49t-167 -56q-71 -55 -71 -133t62 -127q60 -49 154 -49zM356 733q-90 0 -156 -51t-65 -122t59 -117t142 -46q84 -1 152 53t69 122q0 68 -56 115q-55 46 -145 46zM516 192q0 -78 -78 -138t-186 -60q-106 0 -175 54t-69 138
t73 144t165 65q-58 17 -98 61t-40 114t74 127q74 59 175 59t163 -52t64 -128q0 -74 -62 -127t-155 -66q149 -43 149 -191z" />
    <glyph glyph-name="nine.den" horiz-adv-x="722" 
d="M345 729q-89 0 -161 -73t-72 -158q0 -84 51 -132q50 -48 139 -48t164 71q75 72 75 153t-52 136q-55 51 -144 51zM86 497q0 95 80 175t181 80t163 -60t62 -170q0 -108 -48 -234q-47 -126 -135 -211t-177 -85t-134 36t-45 80t33 44q24 0 24 -28t-27 -34q6 -32 41 -54
t93 -22q94 0 173 76t123 184t52 205q-27 -80 -98 -131t-159 -51t-146 53q-56 53 -56 147z" />
    <glyph glyph-name="caron.alt" horiz-adv-x="1030" 
d="M568 1485q22 0 22 -35q0 -36 -35 -114t-96 -156l-10 10q55 74 70 126t24 142q3 27 25 27z" />
    <glyph glyph-name="g.sc" 
 />
    <glyph glyph-name="gbreve.sc" 
 />
    <glyph glyph-name="i.sc" 
 />
    <glyph glyph-name="iacute.sc" 
 />
    <glyph glyph-name="ibreve.sc" 
 />
    <glyph glyph-name="icircumflex.sc" 
 />
    <glyph glyph-name="idieresis.sc" 
 />
    <glyph glyph-name="igrave.sc" 
 />
    <glyph glyph-name="imacron.sc" 
 />
    <glyph glyph-name="iogonek.sc" 
 />
    <glyph glyph-name="S.sc" 
 />
    <glyph glyph-name="Sacute.sc" 
 />
    <glyph glyph-name="Aring.sc" 
 />
    <glyph glyph-name="Aringacute.sc" 
 />
    <glyph glyph-name="E.sc" 
 />
    <glyph glyph-name="Eacute.sc" 
 />
    <glyph glyph-name="Ebreve.sc" 
 />
    <glyph glyph-name="Ecircumflex.sc" 
 />
    <glyph glyph-name="Edieresis.sc" 
 />
    <glyph glyph-name="Egrave.sc" 
 />
    <glyph glyph-name="Emacron.sc" 
 />
    <glyph glyph-name="Eogonek.sc" 
 />
    <glyph glyph-name="N.sc" 
 />
    <glyph glyph-name="Nacute.sc" 
 />
    <glyph glyph-name="Ntilde.sc" 
 />
    <glyph glyph-name="a.sc" 
 />
    <glyph glyph-name="aogonek.sc" 
 />
    <glyph glyph-name="L.sc" 
 />
    <glyph glyph-name="Lacute.sc" 
 />
    <glyph glyph-name="s.sc" 
 />
    <glyph glyph-name="sacute.sc" 
 />
    <glyph glyph-name="aring.sc" 
 />
    <glyph glyph-name="aringacute.sc" 
 />
    <glyph glyph-name="C.sc" 
 />
    <glyph glyph-name="Cacute.sc" 
 />
    <glyph glyph-name="e.sc" 
 />
    <glyph glyph-name="eacute.sc" 
 />
    <glyph glyph-name="ebreve.sc" 
 />
    <glyph glyph-name="ecircumflex.sc" 
 />
    <glyph glyph-name="edieresis.sc" 
 />
    <glyph glyph-name="egrave.sc" 
 />
    <glyph glyph-name="emacron.sc" 
 />
    <glyph glyph-name="eogonek.sc" 
 />
    <glyph glyph-name="n.sc" 
 />
    <glyph glyph-name="nacute.sc" 
 />
    <glyph glyph-name="ntilde.sc" 
 />
    <glyph glyph-name="l.sc" 
 />
    <glyph glyph-name="lacute.sc" 
 />
    <glyph glyph-name="c.sc" 
 />
    <glyph glyph-name="cacute.sc" 
 />
    <glyph glyph-name="R.sc" 
 />
    <glyph glyph-name="Racute.sc" 
 />
    <glyph glyph-name="G.sc" 
 />
    <glyph glyph-name="Gbreve.sc" 
 />
    <glyph glyph-name="I.sc" 
 />
    <glyph glyph-name="Iacute.sc" 
 />
    <glyph glyph-name="Ibreve.sc" 
 />
    <glyph glyph-name="Icircumflex.sc" 
 />
    <glyph glyph-name="Idieresis.sc" 
 />
    <glyph glyph-name="Igrave.sc" 
 />
    <glyph glyph-name="Imacron.sc" 
 />
    <glyph glyph-name="Iogonek.sc" 
 />
    <glyph glyph-name="r.sc" 
 />
    <glyph glyph-name="racute.sc" 
 />
    <glyph glyph-name="A.sc" 
 />
    <glyph glyph-name="Aogonek.sc" 
 />
    </font>
</defs>
</svg>
