<?xml version="1.0" standalone="no"?>
<!DOCTYPE svg PUBLIC "-//W3C//DTD SVG 1.1//EN" "http://www.w3.org/Graphics/SVG/1.1/DTD/svg11.dtd" >
<svg xmlns="http://www.w3.org/2000/svg">
<metadata>
Created by FontPrep 20130207 at Sun Apr  5 22:22:31 2015
 By Tina Kumar
Copyright (C) 2000, 2007 Hoefler &#38; Frere-Jones. http://www.typography.com
</metadata>
<defs>
<font id="bcaac54866ee2803e27bee9644908f49" horiz-adv-x='1024' >
  <font-face 
    font-family="Archer-ExtraLight"
    font-weight="285"
    font-stretch="normal"
    units-per-em="2048"
    panose-1="0 0 0 0 0 0 0 0 0 0"
    ascent="1638"
    descent="-410"
    x-height="844"
    cap-height="1348"
    bbox="-86 -461 2734 1956"
    underline-thickness="102"
    underline-position="-102"
    unicode-range="U+0020-FB04"
  />
<missing-glyph horiz-adv-x="1036" 
d="M518 492l-366 -799h733zM928 1384l-353 -770l353 -770v1540zM109 -156l352 770l-352 770v-1540zM152 1536l366 -799l367 799h-733zM6 -410v2048h1024v-2048h-1024z" />
    <glyph glyph-name="f_f" unicode="ff" horiz-adv-x="1069" 
d="M285 844h456v358q0 172 78 250q61 59 146 59q47 0 75 -18q28 -17 27 -43q0 -26 -14 -40t-35 -15q-55 0 -60 73q-63 0 -106 -45q-61 -68 -61 -217v-362h229v-41h-229v-762h172v-41h-373v41h151v762h-456v-762h172v-41h-373v41h152v762h-162v41h162v317q0 174 77 248
q61 61 146 61q47 0 75 -18t28 -44t-15 -40q-14 -14 -35 -14q-55 0 -59 73q-63 0 -107 -45q-61 -68 -61 -219v-319z" />
    <glyph glyph-name="fi" unicode="fi" horiz-adv-x="976" 
d="M645 1424q0 -60 -57 -60q-29 0 -42 31t3 61q-33 12 -57 12q-80 0 -140 -65q-68 -78 -67 -229v-330h473v-803h164v-41h-379v41h166v762h-424v-762h172v-41h-373v41h152v762h-162v41h162v325q0 195 96 279q68 59 150 59q82 -1 123 -27q40 -26 40 -56z" />
    <glyph glyph-name="fl" unicode="fl" horiz-adv-x="999" 
d="M508 1468q-90 0 -156 -61q-68 -68 -67 -207v-356h444v362l-2 45q-21 1 -35 15t-14 40t24 42q-52 120 -194 120zM778 1497v-1456h166v-41h-381v41h166v762h-444v-762h172v-41h-373v41h152v762h-162v41h162v356q0 160 78 236t200 75q150 0 217 -112l21 98h26z" />
    <glyph glyph-name="f_f_i" unicode="ffi" horiz-adv-x="1482" 
d="M614 1448q70 -27 70 -82t-58 -55q-30 0 -43 35t7 63q-43 18 -84 18q-94 -1 -158 -65t-63 -211v-307h456v325q0 193 97 279q68 59 150 59q82 -1 123 -27q40 -26 40 -56q0 -60 -57 -60q-29 0 -42 31t3 61q-25 12 -58 12q-74 0 -131 -57q-76 -80 -75 -237v-330h473v-803h163
v-41h-378v41h165v762h-423v-762h172v-41h-373v41h151v762h-456v-762h172v-41h-373v41h152v762h-162v41h162v307q0 160 77 242q76 76 199 75q55 0 102 -20z" />
    <glyph glyph-name="f_f_l" unicode="ffl" horiz-adv-x="1497" 
d="M1014 1468q-90 0 -156 -61q-67 -68 -67 -207v-356h444v362l-2 45q-21 1 -35 15t-14 40t24 42q-52 120 -194 120zM623 1444q61 -25 61 -79t-58 -54q-30 0 -43 35t7 63q-37 18 -84 18q-94 -1 -158 -65t-63 -211v-307h456v356q0 160 78 236t201 75q150 0 217 -112l20 98h27
v-1456h166v-41h-381v41h166v762h-444v-762h172v-41h-373v41h151v762h-456v-762h172v-41h-373v41h152v762h-162v41h162v307q0 160 77 242q76 76 199 75q63 0 111 -24z" />
    <glyph glyph-name="f_b" unicode="fb" horiz-adv-x="1617" 
d="M678 1306q0 26 24 42q-52 120 -194 120q-90 0 -156 -61q-68 -68 -67 -207v-356h444v362l-2 45q-21 1 -35 15t-14 40zM1094 29q174 -1 277 111t104 282t-99 282t-260 111q-201 0 -338 -170v-475q142 -141 316 -141zM778 1497v-803q138 162 328 162t305 -123t115 -310
t-120 -311t-302 -124t-324 131l-26 -119h-25v803h-444v-762h172v-41h-373v41h152v762h-162v41h162v356q0 160 78 236t200 75q150 0 217 -112l21 98h26z" />
    <glyph glyph-name="f_h" unicode="fh" horiz-adv-x="1585" 
d="M678 1306q0 26 24 42q-52 120 -194 120q-90 0 -156 -61q-68 -68 -67 -207v-356h444v362l-2 45q-21 1 -35 15t-14 40zM778 1497v-825q156 184 340 184q141 0 207 -98q47 -66 47 -195v-522h154v-41h-355v41h152v518q0 117 -47 185t-164 69q-170 0 -334 -195v-577h152v-41
h-355v41h154v762h-444v-762h172v-41h-373v41h152v762h-162v41h162v356q0 160 78 236t200 75q150 0 217 -112l21 98h26z" />
    <glyph glyph-name="f_j" unicode="fj" horiz-adv-x="921" 
d="M645 1424q0 -60 -57 -60q-29 0 -42 31t3 61q-33 12 -57 12q-80 0 -140 -65q-68 -78 -67 -229v-330h473v-869q0 -385 -226 -385q-59 0 -97 29t-38 61q0 66 46 66t46 -45q0 -33 -20 -47q18 -23 63 -23q177 0 177 340v832h-424v-762h172v-41h-373v41h152v762h-162v41h162
v325q0 195 96 279q68 59 150 59q82 -1 123 -27q40 -26 40 -56z" />
    <glyph glyph-name="f_k" unicode="fk" horiz-adv-x="1538" 
d="M508 1468q-90 0 -156 -61q-67 -68 -67 -207v-356h444v362l-2 45q-21 1 -35 15t-14 40t24 42q-52 120 -194 120zM778 1497v-1143l479 449h-213v41h431v-41h-156l-313 -295l325 -467h144v-41h-177l-327 479l-193 -182v-256h152v-41h-355v41h154v762h-444v-762h172v-41h-373
v41h152v762h-162v41h162v356q0 160 78 236t200 75q150 0 217 -112l21 98h26z" />
    <glyph glyph-name="f_f_b" unicode="ffb" horiz-adv-x="2123" 
d="M1184 1306q0 26 24 42q-52 120 -194 120q-90 0 -156 -61q-68 -68 -67 -207v-356h444v362l-2 45q-21 1 -35 15t-14 40zM1600 29q174 -1 277 111t103 282t-99 282t-259 111q-201 0 -338 -170v-475q142 -141 316 -141zM623 1444q61 -25 61 -79t-58 -54q-30 0 -43 35t7 63
q-37 18 -84 18q-94 -1 -158 -65t-63 -211v-307h456v356q0 160 78 236t201 75q150 0 217 -112l20 98h27v-803q138 162 328 162t305 -123t115 -310t-120 -311t-302 -124t-324 131l-26 -119h-25v803h-444v-762h172v-41h-373v41h151v762h-456v-762h172v-41h-373v41h152v762h-162
v41h162v307q0 160 77 242q76 76 199 75q63 0 111 -24z" />
    <glyph glyph-name="f_f_h" unicode="ffh" horiz-adv-x="2091" 
d="M1014 1468q-90 0 -156 -61q-67 -68 -67 -207v-356h444v362l-2 45q-21 1 -35 15t-14 40t24 42q-52 120 -194 120zM623 1444q61 -25 61 -79t-58 -54q-30 0 -43 35t7 63q-37 18 -84 18q-94 -1 -158 -65t-63 -211v-307h456v356q0 160 78 236t201 75q150 0 217 -112l20 98h27
v-825q156 184 340 184q141 0 207 -98q47 -66 47 -195v-522h154v-41h-355v41h152v518q0 117 -47 185t-164 69q-170 0 -334 -195v-577h152v-41h-355v41h154v762h-444v-762h172v-41h-373v41h151v762h-456v-762h172v-41h-373v41h152v762h-162v41h162v307q0 160 77 242
q76 76 199 75q63 0 111 -24z" />
    <glyph glyph-name="f_f_j" unicode="ffj" horiz-adv-x="1427" 
d="M1151 1424q0 -60 -57 -60q-29 0 -42 31t3 61q-25 12 -58 12q-74 0 -131 -57q-76 -80 -75 -237v-330h473v-869q0 -385 -226 -385q-59 0 -97 29t-38 61q0 66 46 66t46 -45q0 -33 -20 -47q18 -23 63 -23q179 0 176 340v832h-423v-762h172v-41h-373v41h151v762h-456v-762h172
v-41h-373v41h152v762h-162v41h162v307q0 160 77 242q76 76 199 75q55 0 102 -20q70 -27 70 -82t-58 -55q-30 0 -43 35t7 63q-35 18 -84 18q-94 -1 -158 -65t-63 -211v-307h456v325q0 193 97 279q68 59 150 59q82 -1 123 -27q40 -26 40 -56z" />
    <glyph glyph-name="f_f_k" unicode="ffk" horiz-adv-x="2043" 
d="M1014 1468q-90 0 -156 -61q-67 -68 -67 -207v-356h444v362l-2 45q-21 1 -35 15t-14 40t24 42q-52 120 -194 120zM623 1444q61 -25 61 -79t-58 -54q-30 0 -43 35t7 63q-37 18 -84 18q-94 -1 -158 -65t-63 -211v-307h456v356q0 160 78 236t201 75q150 0 217 -112l20 98h27
v-1143l479 449h-213v41h430v-41h-155l-314 -295l326 -467h143v-41h-176l-327 479l-193 -182v-256h152v-41h-355v41h154v762h-444v-762h172v-41h-373v41h151v762h-456v-762h172v-41h-373v41h152v762h-162v41h162v307q0 160 77 242q76 76 199 75q63 0 111 -24z" />
    <glyph glyph-name=".notdef" horiz-adv-x="1036" 
d="M518 492l-366 -799h733zM928 1384l-353 -770l353 -770v1540zM109 -156l352 770l-352 770v-1540zM152 1536l366 -799l367 799h-733zM6 -410v2048h1024v-2048h-1024z" />
    <glyph glyph-name=".null" horiz-adv-x="0" 
 />
    <glyph glyph-name="nonmarkingreturn" horiz-adv-x="681" 
 />
    <glyph glyph-name="space" unicode=" " horiz-adv-x="444" 
 />
    <glyph glyph-name="exclam" unicode="!" horiz-adv-x="432" 
d="M216 -16q-26 0 -43 17t-17 44t17 44t43 17t43 -17t17 -44t-17 -44t-43 -17zM201 328l-19 1020h68l-19 -1020h-30z" />
    <glyph glyph-name="quotedbl" unicode="&#x22;" horiz-adv-x="487" 
d="M129 1366q47 0 37 -72l-27 -288h-22l-29 288q-6 72 41 72zM360 1366q47 0 37 -72l-26 -288h-23l-29 288q-6 72 41 72z" />
    <glyph glyph-name="numbersign" unicode="#" horiz-adv-x="989" 
d="M360 696l-55 -356h324l53 356h-322zM106 696v43h216l43 279h45l-43 -279h321l45 279h45l-43 -279h209v-43h-215l-55 -356h207v-43h-215l-45 -297h-46l46 297h-322l-45 -297h-47l45 297h-209v43h217l55 356h-209z" />
    <glyph glyph-name="dollar" unicode="$" horiz-adv-x="878" 
d="M446 975q-122 -1 -196 -59t-74 -145t64 -133t188 -87l33 424h-15zM434 39q143 0 221 61q78 62 78 156t-67 144q-68 50 -201 94l-35 -455h4zM92 192q0 66 48 66t48 -59q0 -29 -34 -43q20 -41 82 -74t153 -41l37 465q-147 49 -221 103q-74 55 -74 159t90 175t230 71h12
l12 153l41 -4l-12 -151q112 -12 182 -62t70 -108q0 -57 -47 -58q-17 0 -31 14t-14 40q0 28 28 45q-49 72 -190 88l-33 -434q143 -47 203 -89q61 -40 85 -84t23 -104q0 -120 -94 -190t-254 -70h-4l-16 -213l-41 4l16 211q-125 8 -210 66t-85 124z" />
    <glyph glyph-name="percent" unicode="%" horiz-adv-x="1214" 
d="M881 406q-74 0 -120 -54t-46 -135q0 -80 46 -134t120 -54q73 0 119 54t47 134q0 81 -46 135t-120 54zM881 446q92 0 154 -68q63 -68 63 -161q0 -94 -62 -162q-62 -67 -155 -67q-92 0 -155 67q-62 68 -62 162t62 162q63 67 155 67zM221 -35l-37 25l396 514l393 518l37 -27
l-396 -514zM334 612q74 0 120 56t46 134q0 79 -46 134t-120 55t-121 -56t-47 -134q0 -77 47 -133t121 -56zM334 573q-92 0 -155 67q-62 67 -62 162t62 162q63 66 155 66t154 -66t62 -162q0 -95 -62 -162t-154 -67z" />
    <glyph glyph-name="ampersand" unicode="&#x26;" horiz-adv-x="1183" 
d="M484 1212q-90 0 -152 -66q-60 -66 -60 -184q0 -116 140 -268q138 78 204 150t66 166t-54 148t-144 54zM418 29q223 0 389 215l-264 256q-82 76 -144 143q-274 -160 -274 -356q0 -111 78 -185t215 -73zM1139 580h-123q-57 -184 -154 -328l252 -242l-29 -35l-249 242
q-176 -229 -418 -229q-156 0 -250 84t-94 217q0 215 297 385q-150 166 -150 294t77 208t186 80t181 -67q71 -67 71 -174t-77 -189q-76 -82 -219 -162q49 -51 133 -129l261 -254q90 131 139 299h-133v41h299v-41z" />
    <glyph glyph-name="quotesingle" unicode="'" horiz-adv-x="258" 
d="M129 1366q47 0 37 -72l-27 -288h-22l-29 288q-6 72 41 72z" />
    <glyph glyph-name="parenleft" unicode="(" horiz-adv-x="638" 
d="M141 532q0 270 126 540t370 454l31 -37q-242 -182 -358 -438q-234 -516 0 -1037q116 -256 358 -438l-31 -37q-244 183 -370 453t-126 540z" />
    <glyph glyph-name="parenright" unicode=")" horiz-adv-x="638" 
d="M496 532q0 -270 -126 -540t-370 -453l-29 37q240 182 357 438q235 514 0 1036q-117 257 -357 439l29 37q244 -182 370 -452q126 -272 126 -542z" />
    <glyph glyph-name="asterisk" unicode="*" horiz-adv-x="716" 
d="M360 1434q44 0 29 -66l-22 -199l180 86q20 11 43 11t28 -19q13 -43 -53 -53l-192 -41l135 -141q43 -43 16 -70q-37 -37 -69 31l-97 168l-96 -168q-27 -61 -65 -35q-35 27 12 74l135 141l-192 41q-70 12 -54 53q12 35 72 8l178 -86l-22 199q-10 66 34 66z" />
    <glyph glyph-name="plus" unicode="+" horiz-adv-x="790" 
d="M371 231v283h-275v45h275v283h47v-283h276v-45h-276v-283h-47z" />
    <glyph glyph-name="comma" unicode="," horiz-adv-x="309" 
d="M153 106q62 0 62 -102q0 -56 -43 -124t-111 -109l-12 20q109 96 115 201q-31 2 -49 18q-19 16 -19 40t16 40t41 16z" />
    <glyph glyph-name="hyphen" unicode="-" horiz-adv-x="512" 
d="M76 528v50h360v-50h-360z" />
    <glyph glyph-name="period" unicode="." horiz-adv-x="309" 
d="M155 -16q-26 0 -43 17t-18 44q0 27 18 44t43 17q26 0 43 -17t17 -44t-17 -44t-43 -17z" />
    <glyph glyph-name="slash" unicode="/" horiz-adv-x="854" 
d="M-31 -414l-43 21l840 1896l43 -20z" />
    <glyph glyph-name="zero" unicode="0" horiz-adv-x="1044" 
d="M522 27q168 0 273 137q104 137 104 345t-105 345q-104 137 -272 137t-272 -136t-104 -345t104 -346t272 -137zM522 -16q-188 0 -309 150t-121 375q0 226 121 376q121 149 309 149t309 -150t121 -374q0 -226 -121 -376t-309 -150z" />
    <glyph glyph-name="one" unicode="1" horiz-adv-x="739" 
d="M125 0v43h244v928l-232 -68l-8 41l272 82h19v-983h242v-43h-537z" />
    <glyph glyph-name="two" unicode="2" horiz-adv-x="917" 
d="M432 993q-80 0 -146 -34t-98 -91q-16 -25 -18 -49q49 -10 49 -55q0 -20 -14 -34t-35 -13q-53 0 -53 59q1 59 35 118q34 60 111 100t171 40q146 0 232 -76t86 -190t-67 -194q-67 -81 -200 -171q-256 -170 -340 -360h592v201h45v-244h-694l-6 14q53 140 147 236
q95 96 227 187t188 159t56 169t-69 165q-70 63 -199 63z" />
    <glyph glyph-name="three" unicode="3" horiz-adv-x="931" 
d="M171 717q-52 0 -52 79q0 42 39 100q40 58 118 98t173 40q161 0 255 -87t95 -212q0 -190 -185 -278q-61 -29 -129 -41q59 -6 141 -39t138 -108t57 -179q1 -152 -107 -249t-272 -97q-106 0 -193 38t-126 92t-39 116t55 61q19 0 33 -13t14 -34q0 -41 -49 -53q6 -29 27 -55
q80 -109 280 -109q147 0 236 87q88 87 88 214q0 182 -176 258q-92 45 -234 45h-30v43h32q139 0 240 60q145 86 145 241q0 109 -79 183q-80 74 -217 73q-172 0 -250 -110q-18 -27 -27 -62q49 -10 49 -55q0 -20 -14 -34t-36 -13z" />
    <glyph glyph-name="four" unicode="4" horiz-adv-x="940" 
d="M625 -246v400h-588l-6 14l626 864l37 -28l-588 -807h519v397l45 18v-415h243v-43h-243v-400h-45z" />
    <glyph glyph-name="five" unicode="5" horiz-adv-x="899" 
d="M84 -41q0 25 14 43t37 18q47 0 47 -43t-43 -55q12 -25 27 -41q88 -94 248 -94t257 96q95 96 95 251t-95 241t-245 86t-274 -58l-21 17l66 598h551v-47h-508l-58 -512q106 47 228 47q182 0 296 -98t114 -270t-114 -284q-112 -110 -287 -110t-280 104q-55 56 -55 111z" />
    <glyph glyph-name="six" unicode="6" horiz-adv-x="995" 
d="M514 27q148 0 245 103q95 103 95 255t-92 249t-242 97t-250 -104t-100 -250t98 -248t246 -102zM573 1247q-165 0 -289 -185t-126 -546v-16q29 114 130 194t232 80q168 0 277 -110t109 -278q0 -167 -112 -285q-112 -117 -276 -117t-280 112q-127 127 -127 420
q0 377 137 575t332 197q141 0 221 -84q47 -51 47 -100q0 -70 -53 -70q-45 0 -45 43t41 64q-53 106 -218 106z" />
    <glyph glyph-name="seven" unicode="7" horiz-adv-x="841" 
d="M131 977v-238h-45v279h688l10 -21l-522 -1245l-43 19l506 1206h-594z" />
    <glyph glyph-name="eight" unicode="8" horiz-adv-x="958" 
d="M479 25q143 0 238 88q94 88 94 219t-96 218q-97 87 -237 87t-235 -86t-95 -218t94 -220t237 -88zM479 676q131 0 218 80t87 202t-87 206t-218 83q-131 0 -218 -83q-87 -84 -87 -206t87 -202t218 -80zM478 -16q-164 0 -274 99t-110 249q0 117 77 206t202 119
q-113 31 -183 112t-69 187q0 140 102 236t256 96t255 -95t102 -237q0 -104 -70 -185t-180 -114q124 -29 200 -119t76 -221q0 -132 -110 -233q-111 -100 -274 -100z" />
    <glyph glyph-name="nine" unicode="9" horiz-adv-x="995" 
d="M484 989q-146 0 -242 -105t-96 -257t92 -247t242 -95t250 103q101 103 101 252t-106 251q-95 98 -241 98zM414 -256q-150 0 -228 82q-47 49 -47 100q0 72 54 72q47 0 47 -55q0 -29 -41 -52q6 -23 24 -38q63 -68 193 -68q180 0 305 180t121 533v18q-40 -135 -161 -215
q-91 -59 -202 -59q-169 0 -277 110t-108 275q0 167 113 285t279 118t276 -112q127 -129 127 -420q0 -378 -137 -566t-338 -188z" />
    <glyph glyph-name="colon" unicode=":" horiz-adv-x="346" 
d="M173 -16q-26 0 -43 17t-17 44t17 44t43 17t43 -17t17 -44t-17 -44t-43 -17zM173 580q-26 0 -43 17t-17 44t17 44t43 17t43 -17t17 -44t-17 -44t-43 -17z" />
    <glyph glyph-name="semicolon" unicode=";" horiz-adv-x="346" 
d="M72 -233l-15 22q113 96 121 199q-70 0 -69 63q0 23 17 40t44 17t46 -24q20 -24 20 -78t-47 -125t-117 -114zM173 580q-26 0 -43 17t-17 44t17 44t43 17t43 -17t17 -44t-17 -44t-43 -17z" />
    <glyph glyph-name="less" unicode="&#x3c;" horiz-adv-x="749" 
d="M578 195l-474 311v16l474 312l26 -37l-432 -283l432 -283z" />
    <glyph glyph-name="equal" unicode="=" horiz-adv-x="790" 
d="M96 352v45h598v-45h-598zM96 631v45h598v-45h-598z" />
    <glyph glyph-name="greater" unicode="&#x3e;" horiz-adv-x="749" 
d="M172 195l-27 36l430 283l-430 283l27 37l473 -312v-16z" />
    <glyph glyph-name="question" unicode="?" horiz-adv-x="827" 
d="M420 9q-14 -17 -36 -19t-39 12t-20 38t11 41t37 19t40 -12t19 -38t-12 -41zM47 1073q0 76 45 139q45 70 128 111t188 41q160 0 263 -100t103 -244t-97 -248t-276 -145l-8 -299h-31l-10 327q180 37 276 133q95 96 95 228t-88 219q-88 86 -227 86q-94 0 -169 -38
q-112 -57 -141 -169q66 -6 66 -63q0 -21 -16 -37t-40 -16t-42 20t-19 55z" />
    <glyph glyph-name="at" unicode="@" horiz-adv-x="1585" 
d="M721 115q139 0 225 127t86 280q0 104 -55 166t-146 62q-131 0 -224 -115t-93 -279q0 -113 54 -177t153 -64zM643 -352q-249 0 -399 165t-150 431t117 493t313 360q198 132 438 132t388 -154t147 -397q0 -242 -104 -418t-242 -176q-90 0 -130 50t-28 132
q-31 -74 -109 -132t-182 -58q-102 0 -170 72t-67 208q0 180 109 307q110 126 257 125q101 0 159 -61t69 -162l55 219h47l-114 -456q-29 -94 -3 -150q27 -55 107 -55q123 0 215 166q92 165 92 391t-135 369t-377 143q-334 0 -572 -280t-239 -668q0 -250 136 -405t372 -154
q195 0 350 86l19 -33q-164 -90 -369 -90z" />
    <glyph glyph-name="A" unicode="A" horiz-adv-x="1423" 
d="M434 559h555l-276 750zM29 0v45h159l469 1258h-184v45h477v-45h-182l467 -1258h162v-45h-412v45h193l-172 469h-588l-174 -469h196v-45h-411z" />
    <glyph glyph-name="B" unicode="B" horiz-adv-x="1189" 
d="M338 713h285q184 0 274 85t90 212t-93 210t-276 83h-280v-590zM338 45h291q177 0 287 86q110 85 110 229t-103 225t-305 81h-280v-621zM90 0v45h195v1258h-195v45h533q205 0 311 -96t106 -230q0 -133 -80 -221t-208 -111q154 -20 240 -107t87 -218q0 -169 -125 -267
t-327 -98h-537z" />
    <glyph glyph-name="C" unicode="C" horiz-adv-x="1425" 
d="M774 -20q-286 0 -471 198q-186 198 -186 490t189 496t472 204q207 0 351 -105t145 -237q0 -37 -18 -57q-18 -21 -45 -21q-26 0 -43 16t-17 42q0 25 16 44t47 21q-16 90 -139 171t-297 81q-262 0 -434 -190q-172 -191 -172 -465t171 -458t438 -185q267 0 460 192l29 -35
q-210 -202 -496 -202z" />
    <glyph glyph-name="D" unicode="D" horiz-adv-x="1445" 
d="M338 45h260q324 0 499 171t175 459t-177 458t-507 170h-250v-1258zM90 0v45h195v1258h-195v45h498q350 0 544 -184t194 -488q0 -305 -193 -491q-193 -185 -539 -185h-504z" />
    <glyph glyph-name="E" unicode="E" horiz-adv-x="1163" 
d="M90 0v45h195v1258h-195v45h930v-295h-51v250h-631v-590h496v-47h-496v-621h631v250h51v-295h-930z" />
    <glyph glyph-name="F" unicode="F" horiz-adv-x="1107" 
d="M90 0v45h195v1258h-195v45h909v-295h-51v250h-610v-611h485v-45h-485v-602h207v-45h-455z" />
    <glyph glyph-name="G" unicode="G" horiz-adv-x="1482" 
d="M768 -20q-268 0 -458 186q-189 186 -189 496t198 507q199 197 480 199q209 0 353 -98t144 -205q0 -31 -17 -49t-42 -19q-53 0 -53 56q0 45 43 65q-33 80 -152 142t-278 61q-275 0 -449 -193q-174 -192 -174 -472t171 -456t430 -175q259 0 487 182v352h-435v45h486v-604
h-51v154q-226 -174 -494 -174z" />
    <glyph glyph-name="H" unicode="H" horiz-adv-x="1542" 
d="M90 0v45h195v1258h-195v45h447v-45h-199v-586h866v586h-198v45h446v-45h-195v-1258h195v-45h-446v45h198v625h-866v-625h199v-45h-447z" />
    <glyph glyph-name="I" unicode="I" horiz-adv-x="645" 
d="M92 0v45h203v1258h-203v45h463v-45h-205v-1258h205v-45h-463z" />
    <glyph glyph-name="J" unicode="J" horiz-adv-x="1021" 
d="M414 -20q-146 0 -247 93t-101 234q0 98 67 99q23 0 39 -16t16 -43q0 -26 -19 -43t-54 -17q4 -109 89 -186t209 -77t199 80q109 109 109 338v861h-227v45h462v-45h-182v-863q0 -246 -123 -364q-91 -96 -237 -96z" />
    <glyph glyph-name="K" unicode="K" horiz-adv-x="1329" 
d="M90 0v45h195v1258h-195v45h447v-45h-199v-768l737 768h-219v45h444v-45h-165l-512 -531l510 -727h180v-45h-213l-512 735l-250 -260v-430h199v-45h-447z" />
    <glyph glyph-name="L" unicode="L" horiz-adv-x="1064" 
d="M90 0v45h195v1258h-195v45h447v-45h-199v-1258h580v260h51v-305h-879z" />
    <glyph glyph-name="M" unicode="M" horiz-adv-x="1714" 
d="M66 0v45h206l45 1258h-198v45h262l479 -1072l479 1072h256v-45h-198l45 -1258h207v-45h-437v45h181l-43 1210l-482 -1071h-20l-481 1076l-45 -1215h180v-45h-436z" />
    <glyph glyph-name="N" unicode="N" horiz-adv-x="1525" 
d="M334 45h203v-45h-447v45h195v1258h-195v45h238l893 -1250v1205h-199v45h444v-45h-194v-1309h-37l-901 1259v-1208z" />
    <glyph glyph-name="O" unicode="O" horiz-adv-x="1572" 
d="M786 25q264 0 440 187q175 188 175 462t-175 462q-176 188 -440 187q-264 0 -439 -187q-175 -188 -175 -462t175 -462t439 -187zM786 -20q-286 0 -478 200t-192 493q0 291 194 493q192 202 476 202t478 -201q192 -201 192 -493t-192 -493q-193 -201 -478 -201z" />
    <glyph glyph-name="P" unicode="P" horiz-adv-x="1134" 
d="M582 575q204 1 312 99t108 261t-116 265t-304 103h-244v-723q103 -5 244 -5zM90 0v45h195v1258h-195v45h490q209 0 342 -114t133 -298t-127 -295t-346 -111q-150 0 -244 5v-490h199v-45h-447z" />
    <glyph glyph-name="Q" unicode="Q" horiz-adv-x="1572" 
d="M806 25q248 0 421 187q174 188 174 462t-175 462q-176 188 -440 187q-264 0 -439 -187t-175 -462q0 -311 203 -492q183 -157 431 -157zM1375 -285q-83 0 -151 32t-198 119q-129 87 -305 118q-229 39 -379 170q-225 199 -225 505q1 305 193 507t476 202t478 -201
q192 -201 192 -485t-169 -477t-427 -215q98 -25 232 -113q100 -69 155 -93t128 -24t149 45l22 -38q-88 -52 -171 -52z" />
    <glyph glyph-name="R" unicode="R" horiz-adv-x="1212" 
d="M584 641q176 0 288 86q112 87 113 241q0 154 -106 244t-291 91h-250v-660q70 -2 246 -2zM90 0v45h195v1258h-195v45h502q203 0 326 -104q122 -104 122 -260t-92 -252t-252 -126l355 -561h163v-45h-198l-373 600q-45 -4 -143 -4t-162 2v-553h199v-45h-447z" />
    <glyph glyph-name="S" unicode="S" horiz-adv-x="1050" 
d="M525 -18q-177 0 -292 83t-114 179q0 35 16 54q17 19 39 19t38 -16t17 -39q0 -47 -47 -63q29 -70 122 -121q92 -51 238 -51t243 85t97 218t-111 215q-90 66 -206 112q-117 47 -169 73t-111 69q-117 85 -117 232q0 146 108 241q110 94 264 94t263 -77t108 -169
q0 -31 -16 -49q-15 -18 -37 -18t-39 15q-16 15 -16 47t41 54q-25 63 -111 107q-85 44 -207 45q-122 0 -216 -81t-93 -206q0 -125 114 -205q60 -41 104 -61t164 -70t227 -130q108 -80 108 -235t-116 -253t-293 -98z" />
    <glyph glyph-name="T" unicode="T" horiz-adv-x="1261" 
d="M395 0v45h209v1258h-465v-261h-51v306h1086v-306h-52v261h-465v-1258h209v-45h-471z" />
    <glyph glyph-name="U" unicode="U" horiz-adv-x="1402" 
d="M1149 465q0 -233 -116 -359t-332 -126q-215 0 -331 126t-116 359v838h-195v45h447v-45h-199v-834q1 -217 101 -331t294 -113q395 0 396 444v834h-201v45h446v-45h-194v-838z" />
    <glyph glyph-name="V" unicode="V" horiz-adv-x="1374" 
d="M12 1303v45h412v-45h-193l457 -1254l459 1254h-197v45h412v-45h-164l-493 -1330h-37l-492 1330h-164z" />
    <glyph glyph-name="W" unicode="W" horiz-adv-x="1947" 
d="M12 1303v45h428v-45h-194l358 -1248l354 1098h33l357 -1098l358 1248h-201v45h430v-45h-178l-393 -1332h-35l-356 1088l-355 -1088h-34l-394 1332h-178z" />
    <glyph glyph-name="X" unicode="X" horiz-adv-x="1427" 
d="M72 0v45h151l461 645l-436 613h-150v45h375v-45h-166l406 -582l407 582h-168v45h375v-45h-151l-435 -609l463 -649h150v-45h-375v45h166l-432 617l-434 -617h167v-45h-374z" />
    <glyph glyph-name="Y" unicode="Y" horiz-adv-x="1286" 
d="M399 0v45h217v528l-430 730h-159v45h409v-45h-188l397 -689l395 689h-188v45h408v-45h-162l-428 -730v-528h215v-45h-486z" />
    <glyph glyph-name="Z" unicode="Z" horiz-adv-x="1165" 
d="M82 0v25l903 1278h-805v-250h-51v295h930v-25l-903 -1278h872v250h51v-295h-997z" />
    <glyph glyph-name="bracketleft" unicode="[" horiz-adv-x="641" 
d="M219 -410v1909h389v-45h-338v-1819h338v-45h-389z" />
    <glyph glyph-name="backslash" unicode="\" horiz-adv-x="854" 
d="M883 -414l-840 1897l45 20l840 -1896z" />
    <glyph glyph-name="bracketright" unicode="]" horiz-adv-x="641" 
d="M31 -410v45h338v1819h-338v45h391v-1909h-391z" />
    <glyph glyph-name="asciicircum" unicode="^" horiz-adv-x="837" 
d="M178 803l-18 20l260 244l258 -244l-19 -20l-239 180z" />
    <glyph glyph-name="underscore" unicode="_" horiz-adv-x="1017" 
d="M-4 -258v49h1026v-49h-1026z" />
    <glyph glyph-name="grave" unicode="`" horiz-adv-x="1036" 
d="M266 1194q0 16 12 28t27 13q16 0 49 -23l252 -172l-14 -22l-279 127q-47 23 -47 49z" />
    <glyph glyph-name="a" unicode="a" horiz-adv-x="940" 
d="M369 29q174 0 311 155v209q-134 45 -270 45t-204 -61t-69 -145q1 -84 59 -144q58 -59 173 -59zM371 -12q-133 0 -208 68t-75 176t86 178t230 70t276 -50v164q0 90 -45 143q-63 80 -210 80t-212 -82q25 -17 25 -45t-14 -42t-34 -15q-49 0 -49 57q0 58 80 112q79 54 229 54
t224 -90q55 -66 55 -168v-557h152v-41h-199v139q-135 -151 -311 -151z" />
    <glyph glyph-name="b" unicode="b" horiz-adv-x="1062" 
d="M539 29q174 -1 277 111t104 282q0 170 -100 282t-259 111q-201 0 -338 -170v-475q142 -141 316 -141zM549 -12q-182 0 -324 131l-26 -119h-25v1450h-154v41h203v-797q139 162 329 162t304 -123q115 -123 115 -310t-120 -311t-302 -124z" />
    <glyph glyph-name="c" unicode="c" horiz-adv-x="917" 
d="M510 -12q-172 0 -296 114t-124 308q0 192 122 319t292 127q133 0 225 -72t92 -159q0 -29 -15 -48q-16 -19 -38 -19t-36 12q-13 13 -13 34q0 47 49 62q-18 61 -92 105t-170 44q-152 0 -260 -115q-108 -116 -107 -288q0 -172 112 -278q111 -106 269 -105q158 0 283 86
l-2 -47q-119 -80 -291 -80z" />
    <glyph glyph-name="d" unicode="d" horiz-adv-x="1093" 
d="M500 29q195 0 336 170v477q-152 139 -319 139t-271 -113q-104 -112 -104 -282t100 -280t258 -111zM510 -12q-186 0 -302 123t-116 310t120 311t300 124t324 -133v727h-179v41h228v-1450h153v-41h-200v150q-142 -162 -328 -162z" />
    <glyph glyph-name="e" unicode="e" horiz-adv-x="950" 
d="M492 815q-144 0 -241 -98t-110 -248h670q-4 147 -90 247q-85 100 -229 99zM141 428q-1 -190 103 -294t272 -105q168 0 301 98l-4 -49q-129 -90 -307 -90t-296 118t-118 310q0 194 116 317t282 123t268 -116t102 -279q0 -17 -4 -33h-715z" />
    <glyph glyph-name="f" unicode="f" horiz-adv-x="563" 
d="M512 1395q-53 0 -57 73h-13q-57 0 -100 -49q-57 -68 -57 -213v-362h229v-41h-229v-762h172v-41h-373v41h152v762h-162v41h162v358q0 172 77 250q61 59 146 59q47 0 75 -18q28 -17 28 -43t-15 -41q-15 -14 -35 -14z" />
    <glyph glyph-name="g" unicode="g" horiz-adv-x="1095" 
d="M520 815q-168 -1 -270 -111t-102 -278t98 -279t258 -110q186 0 327 170v465q-143 143 -311 143zM881 803v-866q0 -150 -72 -230q-98 -117 -302 -117t-288 101q-31 35 -31 67t16 47q16 17 36 17q22 0 38 -16t15 -44q0 -28 -37 -43q28 -37 94 -63t158 -25q178 0 264 105
q59 72 59 198v224q-141 -160 -323 -160t-296 122t-114 305t119 307t294 124t323 -135v123h200v-41h-153z" />
    <glyph glyph-name="h" unicode="h" horiz-adv-x="1064" 
d="M209 1450h-154v41h203v-819q156 184 340 184q141 0 207 -98q47 -66 47 -195v-522h154v-41h-355v41h152v518q0 117 -47 185t-164 69q-170 0 -334 -195v-577h152v-41h-355v41h154v1409z" />
    <glyph glyph-name="i" unicode="i" horiz-adv-x="509" 
d="M76 0v41h166v762h-166v41h215v-803h166v-41h-381zM250 1155q-23 0 -38 16t-15 39t15 39q15 17 38 17t38 -16t15 -40q0 -23 -15 -39t-38 -16z" />
    <glyph glyph-name="j" unicode="j" horiz-adv-x="438" 
d="M231 1155q-23 0 -37 16t-16 39q0 23 16 39q16 17 38 17t37 -16t15 -40q0 -23 -14 -39q-16 -16 -39 -16zM49 -369q179 0 176 340v832h-184v41h233v-869q0 -135 -24 -219q-51 -166 -201 -166q-59 0 -97 29t-38 61q0 66 46 66t46 -45q0 -33 -20 -47q18 -23 63 -23z" />
    <glyph glyph-name="k" unicode="k" horiz-adv-x="1001" 
d="M55 0v41h154v1409h-154v41h203v-1137l479 449h-213v41h430v-41h-155l-314 -295l326 -467h143v-41h-176l-327 479l-193 -182v-256h152v-41h-355z" />
    <glyph glyph-name="l" unicode="l" horiz-adv-x="489" 
d="M55 0v41h164v1409h-164v41h213v-1450h166v-41h-379z" />
    <glyph glyph-name="m" unicode="m" horiz-adv-x="1646" 
d="M600 856q210 0 246 -190q162 190 330 190q258 0 258 -293v-522h153v-41h-354v41h151v518q0 94 -24 150q-47 104 -178 104q-166 0 -326 -192v-580h154v-41h-355v41h152v518q0 254 -201 254q-162 0 -325 -190v-582h151v-41h-354v41h153v762h-153v41h201v-172
q161 184 321 184z" />
    <glyph glyph-name="n" unicode="n" horiz-adv-x="1087" 
d="M279 844v-174q158 186 342 186q154 0 217 -113q37 -61 36 -180v-522h154v-41h-354v41h151v518q0 94 -26 154q-49 100 -185 100q-172 0 -333 -195v-577h151v-41h-354v41h153v762h-153v41h201z" />
    <glyph glyph-name="o" unicode="o" horiz-adv-x="1032" 
d="M516 29q162 1 267 113t106 280t-105 280t-268 113q-162 0 -268 -113q-106 -112 -106 -280t106 -280t268 -113zM514 -12q-182 0 -302 124t-120 309t122 310t304 125t302 -124t120 -309t-122 -310t-304 -125z" />
    <glyph glyph-name="p" unicode="p" horiz-adv-x="1083" 
d="M576 29q164 -1 265 111t101 283t-96 282t-254 110q-186 0 -328 -170v-477q148 -139 312 -139zM61 -401v41h154v1163h-154v41h201v-150q142 162 324 162t294 -123t112 -310t-118 -311q-116 -124 -292 -124t-318 131v-479h152v-41h-355z" />
    <glyph glyph-name="q" unicode="q" horiz-adv-x="1062" 
d="M502 29q197 0 338 170v473q-146 143 -318 143t-276 -112q-104 -113 -104 -283t98 -280q100 -110 262 -111zM688 -401v41h152v507q-146 -159 -332 -159t-301 123t-115 310t119 311t302 124t325 -131l26 119h25v-1204h153v-41h-354z" />
    <glyph glyph-name="r" unicode="r" horiz-adv-x="669" 
d="M520 856q54 0 76 -19t22 -43q-1 -51 -51 -53q-19 -1 -35 15t-16 45v8q-117 -8 -235 -207v-561h168v-41h-371v41h153v762h-153v41h201v-187q51 86 119 143q68 56 122 56z" />
    <glyph glyph-name="s" unicode="s" horiz-adv-x="813" 
d="M137 225q49 0 49 -57q0 -29 -32 -39q24 -39 96 -70t178 -31t176 53q68 52 68 129t-48 117t-109 58q-61 17 -123 33q-203 51 -250 131q-22 37 -21 88q0 95 82 157t205 62q172 0 254 -86q34 -35 34 -67q0 -62 -49 -62q-20 0 -34 14q-13 14 -13 41t29 43q-6 10 -21 21
q-74 55 -192 55t-184 -50q-64 -50 -64 -130t74 -114t163 -57q89 -22 132 -38q122 -44 159 -113q23 -41 23 -98q0 -103 -85 -165t-226 -62q-190 0 -289 108q-31 35 -31 67q0 62 49 62z" />
    <glyph glyph-name="t" unicode="t" horiz-adv-x="577" 
d="M233 190q0 -160 127 -159q68 0 152 51l-8 -49q-70 -45 -146 -45q-171 0 -174 198v617h-155v41h155v233l49 15v-248h279v-41h-279v-613z" />
    <glyph glyph-name="u" unicode="u" horiz-adv-x="1071" 
d="M465 -12q-254 0 -254 293v522h-154v41h203v-559q0 -100 29 -158q47 -96 182 -96q170 0 334 209v563h-152v41h201v-803h154v-41h-201v190q-158 -202 -342 -202z" />
    <glyph glyph-name="v" unicode="v" horiz-adv-x="976" 
d="M-4 803v41h348v-41h-166l311 -760l310 760h-166v41h348v-41h-129l-352 -838h-23l-352 838h-129z" />
    <glyph glyph-name="w" unicode="w" horiz-adv-x="1323" 
d="M-4 803v41h346v-41h-164l201 -740l272 676h23l272 -676l201 740h-166v41h346v-41h-133l-233 -838h-23l-276 692l-277 -692h-23l-233 838h-133z" />
    <glyph glyph-name="x" unicode="x" horiz-adv-x="948" 
d="M33 0v41h121l292 391l-274 371h-123v41h316v-41h-138l248 -342l250 342h-139v41h313v-41h-123l-270 -367l291 -395h118v-41h-325v41h151l-264 367l-270 -367h151v-41h-325z" />
    <glyph glyph-name="y" unicode="y" horiz-adv-x="954" 
d="M51 -344q1 24 15 38t40 15q26 -1 39 -25q14 -24 5 -55q96 0 169 117q37 55 82 160l52 121l-326 776h-131v41h346v-41h-162l295 -729l307 729h-166v41h345v-41h-132l-393 -918q-35 -83 -80 -157q-86 -137 -209 -138q-45 0 -71 20q-26 22 -25 46z" />
    <glyph glyph-name="z" unicode="z" horiz-adv-x="784" 
d="M59 0v23l590 780h-506v-178h-49v219h621v-23l-592 -780h553v176h47v-217h-664z" />
    <glyph glyph-name="braceleft" unicode="{" horiz-adv-x="614" 
d="M129 -160q0 108 130 256t130 230q0 80 -64 136q-65 56 -163 56h-66v47h66q98 -1 163 55t64 138q0 82 -123 217q-137 159 -137 267t108 195t273 89v-41q-154 -6 -242 -80t-88 -166q0 -93 130 -239t130 -234t-61 -150t-162 -75q99 -11 161 -73t62 -152t-129 -232
q-131 -152 -131 -243t88 -164t242 -80v-41q-166 2 -274 89t-107 195z" />
    <glyph glyph-name="bar" unicode="|" horiz-adv-x="485" 
d="M217 -410v1909h49v-1909h-49z" />
    <glyph glyph-name="braceright" unicode="}" horiz-adv-x="614" 
d="M432 -158q0 92 -129 242q-131 142 -131 232t62 151t161 74q-100 14 -162 75q-61 60 -61 148t130 234t130 240t-88 167q-88 74 -240 80v41q166 -2 274 -89t108 -197t-131 -254q-130 -144 -130 -227q-1 -83 63 -138t165 -56h63v-47h-63q-99 0 -163 -56t-64 -137t129 -228
q130 -147 130 -257q1 -110 -107 -196t-274 -88v41q154 9 241 81t87 164z" />
    <glyph glyph-name="asciitilde" unicode="~" horiz-adv-x="813" 
d="M546 428q-64 0 -148 66q-85 66 -132 65q-48 0 -74 -29t-47 -94l-36 8q37 168 155 168q66 0 158 -69q131 -105 199 -34q27 28 47 93l34 -8q-14 -74 -53 -120t-103 -46z" />
    <glyph glyph-name="uni00A0" unicode="&#xa0;" horiz-adv-x="444" 
 />
    <glyph glyph-name="exclamdown" unicode="&#xa1;" horiz-adv-x="432" 
d="M182 0l19 1020h30l19 -1020h-68zM276 1303q0 -27 -17 -45t-43 -17q-26 0 -43 17q-17 16 -17 44t17 45t43 17t43 -17t17 -44z" />
    <glyph glyph-name="cent" unicode="&#xa2;" horiz-adv-x="909" 
d="M135 514q0 -162 83 -260t218 -127l70 776q-158 -3 -264 -115t-107 -274zM838 713q0 -29 -16 -48t-38 -19t-35 12q-13 13 -14 34q0 47 49 60q-18 57 -84 99t-155 50l-68 -782q18 -2 58 -2q150 0 282 84l-2 -47q-123 -78 -283 -78q-39 0 -59 2l-24 -289l-41 4l24 291
q-156 28 -251 138t-95 290t123 306q123 124 299 126l20 227l41 -4l-20 -225q125 -12 207 -80t82 -149z" />
    <glyph glyph-name="sterling" unicode="&#xa3;" horiz-adv-x="901" 
d="M678 328v-41h-342q6 -47 6 -101q0 -176 -127 -299h4q106 0 219 -43q111 -37 185 -37q143 0 211 121l34 -18q-76 -145 -245 -146q-70 0 -199 43t-229 43h-17q-47 -78 -98 -78t-51 34q0 32 34 56q35 24 105 21q121 131 121 303q0 39 -8 101h-191v41h184l-24 88
q-51 162 -51 288t91 226t227 100t214 -61t78 -131t-49 -70t-49 49q0 43 37 55q-14 47 -72 81t-146 34q-128 0 -204 -88t-76 -208t51 -265l27 -98h350z" />
    <glyph glyph-name="yen" unicode="&#xa5;" horiz-adv-x="946" 
d="M147 473v41h277l-281 463h-133v41h336v-41h-147l276 -469l279 469h-152v41h336v-41h-133l-281 -463h277v-41h-303v-178h303v-41h-303v-211h178v-43h-406v43h181v211h-304v41h304v178h-304z" />
    <glyph glyph-name="section" unicode="&#xa7;" horiz-adv-x="864" 
d="M690 498q0 59 -57 93t-189 66l-65 17q-201 -43 -201 -158q0 -59 56 -91t188 -67l65 -18q203 45 203 158zM446 1032q115 0 189 -44t74 -97t-45 -53t-46 43q0 29 21 43q-17 27 -71 46t-136 19t-143 -37t-61 -97t50 -92q52 -32 188 -67q136 -36 204 -76t67 -118
q0 -133 -196 -178q147 -55 147 -162q0 -80 -77 -130t-191 -50t-190 45q-75 45 -74 102q0 21 12 35t33 14q45 0 45 -45q0 -29 -19 -41q41 -66 193 -65q96 0 159 36q62 37 62 97t-52 92q-51 32 -187 66t-204 75t-69 119q0 133 195 178q-145 53 -146 162q0 80 76 130t192 50z
" />
    <glyph glyph-name="dieresis" unicode="&#xa8;" horiz-adv-x="1036" 
d="M401 1053q-23 0 -37 15t-16 38q0 23 16 39t38 16t37 -16t15 -39t-14 -38q-16 -15 -39 -15zM635 1053q-23 0 -38 15t-15 38t15 39t38 16t38 -16t15 -39t-15 -38t-38 -15z" />
    <glyph glyph-name="copyright" unicode="&#xa9;" horiz-adv-x="1187" 
d="M598 795q92 0 150 -41t59 -87q0 -46 -35 -46q-35 1 -35 31t27 34q-14 30 -56 52t-96 22q-96 0 -162 -71t-65 -168q0 -97 66 -167q67 -70 161 -70t174 68l21 -26q-82 -76 -197 -76q-114 0 -188 80t-74 194t79 193q79 78 171 78zM111 513q0 -207 138 -353t344 -146t344 146
t138 354q0 207 -137 352q-137 146 -344 146t-345 -146t-138 -353zM593 -18q-222 0 -370 153q-147 154 -147 377t147 378q147 154 369 154t371 -154q147 -155 147 -377t-147 -377q-148 -154 -370 -154z" />
    <glyph glyph-name="ordfeminine" unicode="&#xaa;" horiz-adv-x="622" 
d="M242 874q104 0 182 93v108q-74 29 -155 29t-119 -34t-39 -82q0 -48 34 -81t97 -33zM76 666v34h479v-34h-479zM424 1190q0 143 -145 143q-82 0 -119 -41q12 -10 12 -30q0 -35 -36 -35t-36 39q0 40 50 72t131 32q80 0 132 -42t52 -132v-313h90v-35h-129v80
q-78 -90 -171 -90t-139 42t-46 108t54 108q54 43 143 43t157 -29v80z" />
    <glyph glyph-name="guillemotleft" unicode="&#xab;" horiz-adv-x="802" 
d="M403 227l-342 318l342 317l27 -31l-305 -286l305 -287zM694 227l-342 318l342 317l29 -31l-305 -286l305 -287z" />
    <glyph glyph-name="registered" unicode="&#xae;" horiz-adv-x="770" 
d="M330 1059h47q45 -1 74 21t28 57q0 78 -100 77h-49v-155zM383 1247q133 -1 133 -119q0 -62 -80 -92l76 -129h49v-33h-74l-90 154h-67v-121h53v-33h-143v33h55v307h-55v33h143zM385 1384q-135 0 -225 -96t-90 -234t90 -234t225 -97q135 0 224 96q89 95 89 235t-89 235
t-224 95zM385 688q-154 0 -253 106t-99 259q0 154 99 260t253 106t253 -106t99 -260q0 -153 -99 -259t-253 -106z" />
    <glyph glyph-name="macron" unicode="&#xaf;" horiz-adv-x="1036" 
d="M238 1081v49h561v-49h-561z" />
    <glyph glyph-name="degree" unicode="&#xb0;" horiz-adv-x="548" 
d="M274 915q84 1 136 59t53 144q0 86 -52 144q-53 58 -137 59q-84 0 -137 -58q-53 -59 -53 -145t53 -144t137 -59zM274 874q-100 0 -169 71t-68 173q0 102 68 173q69 71 169 71t169 -71t69 -173t-69 -173t-169 -71z" />
    <glyph glyph-name="plusminus" unicode="&#xb1;" horiz-adv-x="790" 
d="M96 147v46h598v-46h-598zM371 322v284h-275v45h275v283h47v-283h276v-45h-276v-284h-47z" />
    <glyph glyph-name="two.sup" unicode="&#xb2;" 
d="M176 1409q-45 0 -45 59q0 58 68 114t171 56t170 -55q66 -55 66 -136t-50 -136t-161 -125q-188 -117 -233 -266h413v139h41v-176h-491l-14 20q53 182 260 311q98 64 144 114t46 117t-53 111t-133 46q-80 0 -134 -35t-63 -76q35 -10 35 -41q0 -18 -11 -30t-26 -11z" />
    <glyph glyph-name="three.sup" unicode="&#xb3;" 
d="M209 1477q0 -39 -39 -39t-39 52t68 99t170 47t168 -51q65 -51 65 -125t-56 -126t-138 -64q98 -12 156 -64t58 -135q0 -82 -73 -141q-73 -60 -179 -60t-184 45t-78 101t40 57q39 0 38 -37q1 -29 -26 -39q14 -35 72 -63t141 -27q83 0 145 49t62 124t-68 121t-186 48h-39v37
h41q98 0 165 48t67 116t-55 109q-54 41 -130 41t-127 -26t-66 -61q27 -12 27 -36z" />
    <glyph glyph-name="acute" unicode="&#xb4;" horiz-adv-x="1036" 
d="M731 1235q15 0 27 -12t12 -29q0 -27 -47 -49l-279 -127l-14 22l252 172q33 23 49 23z" />
    <glyph glyph-name="paragraph" unicode="&#xb6;" horiz-adv-x="1013" 
d="M625 43h118v934h-118v-934zM414 0v43h159v344q-37 -2 -143 -2q-160 0 -261 87q-101 86 -101 228t105 230t263 88h510v-41h-151v-934h151v-43h-532z" />
    <glyph glyph-name="periodcentered" unicode="&#xb7;" horiz-adv-x="473" 
d="M297 496q0 -26 -17 -44t-43 -18t-43 18t-18 44q0 27 18 44t43 17q26 0 43 -17t17 -44z" />
    <glyph glyph-name="cedilla" unicode="&#xb8;" horiz-adv-x="1036" 
d="M690 -273q0 -61 -47 -99t-140 -38t-181 41l14 35q84 -37 160 -37t112 28t35 71q0 92 -154 94q-18 0 -30 -2l-13 10l46 186l30 -6l-22 -149q90 -2 140 -37t50 -97z" />
    <glyph glyph-name="one.sup" unicode="&#xb9;" 
d="M147 883v39h211v659l-206 -53l-11 39l238 61h22v-706h207v-39h-461z" />
    <glyph glyph-name="ordmasculine" unicode="&#xba;" horiz-adv-x="663" 
d="M332 874q94 0 155 67t62 165t-61 164t-156 66t-156 -66q-61 -66 -61 -164q-1 -98 61 -165t156 -67zM332 1372q110 0 184 -76t74 -190t-74 -190t-185 -76q-112 0 -185 76q-72 76 -72 189q0 115 74 191t184 76zM102 666v34h457v-34h-457z" />
    <glyph glyph-name="guillemotright" unicode="&#xbb;" horiz-adv-x="802" 
d="M109 227l-29 31l305 287l-305 286l29 31l342 -317zM399 227l-26 31l305 287l-305 286l26 31l342 -317z" />
    <glyph glyph-name="onequarter" unicode="&#xbc;" horiz-adv-x="1628" 
d="M139 575v39h211v660l-207 -53l-10 39l238 61h22v-707h207v-39h-461zM463 -20l-35 18q328 535 403 659l404 666l33 -18q-6 -13 -195 -322q-188 -309 -211 -348zM1184 -2v37h143v188h-377l-8 17l406 510l32 -25l-376 -467h323v213l41 16v-229h139v-35h-139v-188h117v-37
h-301z" />
    <glyph glyph-name="onehalf" unicode="&#xbd;" horiz-adv-x="1628" 
d="M115 575v39h211v660l-207 -53l-10 39l237 61h23v-707h206v-39h-460zM430 -20l-35 18q328 535 404 659l403 666l33 -18q-6 -13 -195 -322q-188 -309 -211 -348zM1022 584q0 59 68 114q68 56 171 56t170 -56t67 -136q0 -81 -51 -136q-50 -55 -161 -125q-188 -117 -233 -266
h413v139h41v-176h-491l-15 20q53 182 261 312q98 63 144 113t46 117t-53 112t-133 45t-134 -35t-63 -76q35 -10 35 -41q0 -18 -11 -29t-26 -12q-45 1 -45 60z" />
    <glyph glyph-name="threequarters" unicode="&#xbe;" horiz-adv-x="1628" 
d="M483 -20l-34 18q328 535 403 659l403 666l33 -18q-6 -12 -167 -275t-238 -395zM1190 -2v37h143v188h-377l-8 17l406 510l32 -25l-376 -467h323v213l41 16v-229h139v-35h-139v-188h117v-37h-301zM405 600q82 0 144 49q61 49 61 124t-67 121q-68 46 -187 48h-39v37h41
q98 0 165 48t67 116q0 69 -54 109t-130 40t-128 -26q-50 -26 -65 -60q27 -12 27 -32q0 -41 -37 -44q-41 0 -41 52t67 100q68 47 170 47t168 -51t66 -125t-56 -126t-139 -64q98 -13 156 -65t59 -134t-73 -141t-180 -59t-183 44q-78 46 -78 102t39 56t39 -37q0 -29 -27 -39
q14 -34 74 -62t141 -28z" />
    <glyph glyph-name="questiondown" unicode="&#xbf;" horiz-adv-x="827" 
d="M415 1348q17 14 39 12t36 -20t12 -41t-20 -37t-40 -12t-36 18q-14 18 -12 42t21 38zM780 276q0 -76 -45 -139q-102 -152 -315 -151q-160 0 -264 100t-104 244t96 248q97 104 278 145l8 299h31l8 -328q-180 -37 -274 -133q-95 -96 -95 -228t88 -218t228 -86q197 0 280 139
q23 33 27 68q-63 6 -63 63q0 23 16 38t40 15t42 -22t18 -54z" />
    <glyph glyph-name="Agrave" unicode="&#xc0;" horiz-adv-x="1423" 
d="M770 1473l-278 126q-47 23 -48 50q0 16 12 28q25 26 76 -10l252 -172zM434 559h555l-276 750zM29 0v45h159l469 1258h-184v45h477v-45h-182l467 -1258h162v-45h-412v45h193l-172 469h-588l-174 -469h196v-45h-411z" />
    <glyph glyph-name="Aacute" unicode="&#xc1;" horiz-adv-x="1423" 
d="M938 1690q16 0 28 -12t11 -29q0 -27 -47 -50l-279 -126l-14 22l252 172q33 23 49 23zM434 559h555l-276 750zM29 0v45h159l469 1258h-184v45h477v-45h-182l467 -1258h162v-45h-412v45h193l-172 469h-588l-174 -469h196v-45h-411z" />
    <glyph glyph-name="Acircumflex" unicode="&#xc2;" horiz-adv-x="1423" 
d="M469 1460l-18 21l260 243l260 -243l-19 -21l-241 180zM434 559h555l-276 750zM29 0v45h159l469 1258h-184v45h477v-45h-182l467 -1258h162v-45h-412v45h193l-172 469h-588l-174 -469h196v-45h-411z" />
    <glyph glyph-name="Atilde" unicode="&#xc3;" horiz-adv-x="1423" 
d="M856 1477q-66 0 -153 65q-87 66 -132 66t-71 -29t-49 -94l-35 8q37 168 153 168q68 1 151 -65t131 -66t75 28t49 93l35 -9q-37 -165 -154 -165zM434 559h555l-276 750zM29 0v45h159l469 1258h-184v45h477v-45h-182l467 -1258h162v-45h-412v45h193l-172 469h-588
l-174 -469h196v-45h-411z" />
    <glyph glyph-name="Adieresis" unicode="&#xc4;" horiz-adv-x="1423" 
d="M594 1507q-23 -1 -38 15t-15 39t15 39t38 16t38 -16t15 -40q0 -22 -15 -38t-38 -15zM827 1507q-23 -1 -37 15t-16 39q0 23 16 39t38 16t37 -16t15 -40q0 -22 -14 -38q-16 -16 -39 -15zM434 559h555l-276 750zM29 0v45h159l469 1258h-184v45h477v-45h-182l467 -1258h162
v-45h-412v45h193l-172 469h-588l-174 -469h196v-45h-411z" />
    <glyph glyph-name="Aring" unicode="&#xc5;" horiz-adv-x="1423" 
d="M590 1476q0 -56 34 -94t88 -39q54 0 89 39q35 38 35 94t-35 95t-88 39t-88 -39t-35 -95zM434 559h555l-276 750zM885 1471q0 -78 -70 -123h135v-45h-182l467 -1258h162v-45h-412v45h193l-172 469h-588l-174 -469h196v-45h-411v45h159l469 1258h-184v45h135
q-68 45 -68 124q0 80 50 128q49 48 123 48t123 -49q49 -50 49 -128z" />
    <glyph glyph-name="AE" unicode="&#xc6;" horiz-adv-x="1708" 
d="M829 561v742h-20l-385 -742h405zM-63 0v45h163l656 1258h-185v45h994v-295h-52v250h-630v-590h495v-47h-495v-621h630v250h52v-295h-932v45h196v471h-430l-243 -471h168v-45h-387z" />
    <glyph glyph-name="Ccedilla" unicode="&#xc7;" horiz-adv-x="1425" 
d="M946 -275q0 -61 -47 -99t-140 -38t-181 41l14 35q84 -37 160 -37t112 28t35 71q0 92 -154 94q-18 0 -30 -2l-13 10l37 154q-279 16 -451 212t-171 480q0 284 189 490q189 204 472 204q207 0 351 -105t145 -237q0 -37 -18 -57q-18 -21 -45 -21q-26 0 -43 16t-17 42
q0 25 16 44t47 21q-16 90 -139 171t-297 81q-262 0 -434 -190q-172 -191 -172 -465t171 -458t438 -185q267 0 460 192l29 -35q-209 -203 -486 -202h-10l-18 -121q90 -2 140 -37t50 -97z" />
    <glyph glyph-name="Egrave" unicode="&#xc8;" horiz-adv-x="1165" 
d="M328 1649q0 16 11 28q24 27 77 -10l252 -172l-15 -22l-278 126q-47 23 -47 50zM92 0v45h195v1258h-195v45h930v-295h-51v250h-631v-590h496v-47h-496v-621h631v250h51v-295h-930z" />
    <glyph glyph-name="Eacute" unicode="&#xc9;" horiz-adv-x="1165" 
d="M92 0v45h195v1258h-195v45h930v-295h-51v250h-631v-590h496v-47h-496v-621h631v250h51v-295h-930zM821 1690q15 0 27 -12t12 -29q0 -27 -47 -50l-278 -126l-15 22l252 172q33 23 49 23z" />
    <glyph glyph-name="Ecircumflex" unicode="&#xca;" horiz-adv-x="1165" 
d="M92 0v45h195v1258h-195v45h930v-295h-51v250h-631v-590h496v-47h-496v-621h631v250h51v-295h-930zM352 1460l-18 21l260 243l260 -243l-18 -21l-242 180z" />
    <glyph glyph-name="Edieresis" unicode="&#xcb;" horiz-adv-x="1165" 
d="M92 0v45h195v1258h-195v45h930v-295h-51v250h-631v-590h496v-47h-496v-621h631v250h51v-295h-930zM477 1507q-23 -1 -38 15t-15 39t15 39t38 16t38 -16t15 -40q0 -22 -15 -38t-38 -15zM711 1507q-23 -1 -38 15t-16 39t15 39t39 16t38 -16t15 -40q0 -22 -15 -38t-38 -15z
" />
    <glyph glyph-name="Igrave" unicode="&#xcc;" horiz-adv-x="645" 
d="M57 1649q-1 16 11 28q25 26 77 -10l252 -172l-14 -22l-279 126q-47 23 -47 50zM92 0v45h203v1258h-203v45h463v-45h-205v-1258h205v-45h-463z" />
    <glyph glyph-name="Iacute" unicode="&#xcd;" horiz-adv-x="645" 
d="M551 1690q15 0 27 -12t12 -29q0 -27 -47 -50l-279 -126l-14 22l252 172q33 23 49 23zM92 0v45h203v1258h-203v45h463v-45h-205v-1258h205v-45h-463z" />
    <glyph glyph-name="Icircumflex" unicode="&#xce;" horiz-adv-x="645" 
d="M82 1460l-19 21l261 243l260 -243l-19 -21l-241 180zM92 0v45h203v1258h-203v45h463v-45h-205v-1258h205v-45h-463z" />
    <glyph glyph-name="Idieresis" unicode="&#xcf;" horiz-adv-x="645" 
d="M207 1507q-23 -1 -38 15t-15 39t15 39t38 16t38 -16t15 -40q0 -22 -15 -38t-38 -15zM440 1507q-23 -1 -38 15t-15 39t15 39t38 16t38 -16q16 -16 16 -40q0 -22 -16 -38t-38 -15zM92 0v45h203v1258h-203v45h463v-45h-205v-1258h205v-45h-463z" />
    <glyph glyph-name="Eth" unicode="&#xd0;" horiz-adv-x="1445" 
d="M338 45h260q324 0 499 171t175 459t-177 458t-507 170h-250v-588h336v-47h-336v-623zM285 668h-154v47h154v588h-195v45h498q350 0 544 -184t194 -488q0 -305 -193 -491q-193 -185 -539 -185h-504v45h195v623z" />
    <glyph glyph-name="Ntilde" unicode="&#xd1;" horiz-adv-x="1527" 
d="M918 1477q-66 0 -152 65q-86 66 -132 66t-73 -29t-49 -94l-35 8q37 168 154 168q69 1 151 -65t130 -66t76 28q26 28 48 93l35 -9q-36 -165 -153 -165zM336 45h203v-45h-447v45h195v1258h-195v45h238l893 -1250v1205h-199v45h444v-45h-194v-1309h-37l-901 1259v-1208z" />
    <glyph glyph-name="Ograve" unicode="&#xd2;" horiz-adv-x="1572" 
d="M518 1649q0 16 11 28q24 27 77 -10l252 -172l-14 -22l-279 126q-47 23 -47 50zM786 25q264 0 440 187q175 188 175 462t-175 462q-176 188 -440 187q-264 0 -439 -187q-175 -188 -175 -462t175 -462t439 -187zM786 -20q-286 0 -478 200t-192 493q0 291 194 493
q192 202 476 202t478 -201q192 -201 192 -493t-192 -493q-193 -201 -478 -201z" />
    <glyph glyph-name="Oacute" unicode="&#xd3;" horiz-adv-x="1572" 
d="M786 25q264 0 440 187q175 188 175 462t-175 462q-176 188 -440 187q-264 0 -439 -187q-175 -188 -175 -462t175 -462t439 -187zM786 -20q-286 0 -478 200t-192 493q0 291 194 493q192 202 476 202t478 -201q192 -201 192 -493t-192 -493q-193 -201 -478 -201zM1014 1690
q16 0 27 -12t12 -29q0 -27 -47 -50l-279 -126l-14 22l252 172q33 23 49 23z" />
    <glyph glyph-name="Ocircumflex" unicode="&#xd4;" horiz-adv-x="1572" 
d="M786 25q264 0 440 187q175 188 175 462t-175 462q-176 188 -440 187q-264 0 -439 -187q-175 -188 -175 -462t175 -462t439 -187zM786 -20q-286 0 -478 200t-192 493q0 291 194 493q192 202 476 202t478 -201q192 -201 192 -493t-192 -493q-193 -201 -478 -201zM545 1460
l-19 21l260 243l261 -243l-19 -21l-242 180z" />
    <glyph glyph-name="Otilde" unicode="&#xd5;" horiz-adv-x="1572" 
d="M930 1477q-66 0 -152 65q-86 66 -132 66t-73 -29t-49 -94l-35 8q37 168 154 168q68 1 151 -65t131 -66q49 0 75 28t49 93l34 -9q-36 -165 -153 -165zM786 25q264 0 440 187q175 188 175 462t-175 462q-176 188 -440 187q-264 0 -439 -187q-175 -188 -175 -462t175 -462
t439 -187zM786 -20q-286 0 -478 200t-192 493q0 291 194 493q192 202 476 202t478 -201q192 -201 192 -493t-192 -493q-193 -201 -478 -201z" />
    <glyph glyph-name="Odieresis" unicode="&#xd6;" horiz-adv-x="1572" 
d="M786 25q264 0 440 187q175 188 175 462t-175 462q-176 188 -440 187q-264 0 -439 -187q-175 -188 -175 -462t175 -462t439 -187zM786 -20q-286 0 -478 200t-192 493q0 291 194 493q192 202 476 202t478 -201q192 -201 192 -493t-192 -493q-193 -201 -478 -201zM670 1507
q-23 -1 -38 15t-16 39q0 23 16 39t38 16q23 0 38 -16t15 -40q0 -22 -15 -38t-38 -15zM903 1507q-23 -1 -38 15t-15 39t15 39t38 16t38 -16t15 -40q0 -22 -15 -38t-38 -15z" />
    <glyph glyph-name="multiply" unicode="&#xd7;" horiz-adv-x="790" 
d="M641 258l-246 246l-245 -246l-33 33l245 246l-245 245l33 35l245 -248l246 248l33 -35l-246 -243l246 -248z" />
    <glyph glyph-name="Oslash" unicode="&#xd8;" horiz-adv-x="1572" 
d="M786 1323q-264 1 -439 -187t-175 -463t174 -460l832 969q-168 141 -392 141zM798 25q252 0 428 187q175 187 175 468t-191 471l-833 -969q169 -157 421 -157zM800 -20q-270 0 -454 163l-176 -202l-33 28l176 207q-197 201 -197 495q0 293 194 495q192 202 476 202
q242 0 422 -151l166 192l33 -29l-166 -192q215 -203 215 -504t-192 -503q-194 -201 -464 -201z" />
    <glyph glyph-name="Ugrave" unicode="&#xd9;" horiz-adv-x="1402" 
d="M434 1649q0 16 11 28q24 27 77 -10l252 -172l-14 -22l-279 126q-47 23 -47 50zM1149 465q0 -233 -116 -359t-332 -126q-215 0 -331 126t-116 359v838h-195v45h447v-45h-199v-834q1 -217 101 -331t294 -113q395 0 396 444v834h-201v45h446v-45h-194v-838z" />
    <glyph glyph-name="Uacute" unicode="&#xda;" horiz-adv-x="1402" 
d="M1149 465q0 -233 -116 -359t-332 -126q-215 0 -331 126t-116 359v838h-195v45h447v-45h-199v-834q1 -217 101 -331t294 -113q395 0 396 444v834h-201v45h446v-45h-194v-838zM928 1690q16 0 27 -12t12 -29q0 -27 -47 -50l-279 -126l-14 22l252 172q33 23 49 23z" />
    <glyph glyph-name="Ucircumflex" unicode="&#xdb;" horiz-adv-x="1402" 
d="M1149 465q0 -233 -116 -359t-332 -126q-215 0 -331 126t-116 359v838h-195v45h447v-45h-199v-834q1 -217 101 -331t294 -113q395 0 396 444v834h-201v45h446v-45h-194v-838zM459 1460l-19 21l260 243l261 -243l-19 -21l-242 180z" />
    <glyph glyph-name="Udieresis" unicode="&#xdc;" horiz-adv-x="1402" 
d="M1149 465q0 -233 -116 -359t-332 -126q-215 0 -331 126t-116 359v838h-195v45h447v-45h-199v-834q1 -217 101 -331t294 -113q395 0 396 444v834h-201v45h446v-45h-194v-838zM584 1507q-23 -1 -38 15t-16 39q0 23 16 39t38 16q23 0 38 -16t15 -40q0 -22 -15 -38t-38 -15z
M817 1507q-23 -1 -38 15t-15 39t15 39t38 16t38 -16t15 -40q0 -22 -15 -38t-38 -15z" />
    <glyph glyph-name="Yacute" unicode="&#xdd;" horiz-adv-x="1286" 
d="M868 1690q16 0 28 -12t11 -29q0 -27 -47 -50l-278 -126l-15 22l252 172q33 23 49 23zM399 0v45h217v528l-430 730h-159v45h409v-45h-188l397 -689l395 689h-188v45h408v-45h-162l-428 -730v-528h215v-45h-486z" />
    <glyph glyph-name="Thorn" unicode="&#xde;" horiz-adv-x="1155" 
d="M584 340q204 0 312 92t108 248t-110 250t-310 94q-137 0 -244 -4v-676q107 -4 244 -4zM90 0v45h197v1258h-197v45h451v-45h-201v-238q147 6 244 6q217 1 345 -107t128 -285t-126 -281t-347 -103q-145 0 -244 4v-254h201v-45h-451z" />
    <glyph glyph-name="germandbls" unicode="&#xdf;" horiz-adv-x="1036" 
d="M688 -16q-120 0 -179 33q-58 34 -58 84t45 51q48 0 50 -55q0 -26 -18 -40q39 -35 147 -35q107 0 173 58q66 57 66 146q0 88 -56 148q-55 60 -154 122q-100 62 -158 124q-58 60 -59 140q0 39 21 79q20 39 40 61t60 65q145 141 146 276q0 105 -64 167t-172 62
q-137 0 -201 -127q-33 -68 -32 -188v-1155h-201v41h152v762h-162v41h162v311q0 131 47 219q78 137 235 137q125 -1 206 -75t81 -180t-40 -172q-41 -67 -97 -124t-73 -75q-17 -17 -37 -55t-19 -78t33 -83q32 -44 66 -70t119 -79t146 -121q61 -69 61 -173t-78 -173t-198 -69z
" />
    <glyph glyph-name="agrave" unicode="&#xe0;" horiz-adv-x="940" 
d="M176 1194q0 16 11 28t27 13q16 0 50 -23l252 -172l-14 -22l-279 127q-47 23 -47 49zM369 29q174 0 311 155v209q-134 45 -270 45t-204 -61t-69 -145q1 -84 59 -144q58 -59 173 -59zM371 -12q-133 0 -208 68t-75 176t86 178t230 70t276 -50v164q0 90 -45 143
q-63 80 -210 80t-212 -82q25 -17 25 -45t-14 -42t-34 -15q-49 0 -49 57q0 58 80 112q79 54 229 54t224 -90q55 -66 55 -168v-557h152v-41h-199v139q-135 -151 -311 -151z" />
    <glyph glyph-name="aacute" unicode="&#xe1;" horiz-adv-x="940" 
d="M670 1235q16 0 27 -12t12 -29q0 -27 -47 -49l-279 -127l-14 22l252 172q33 23 49 23zM369 29q174 0 311 155v209q-134 45 -270 45t-204 -61t-69 -145q1 -84 59 -144q58 -59 173 -59zM371 -12q-133 0 -208 68t-75 176t86 178t230 70t276 -50v164q0 90 -45 143
q-63 80 -210 80t-212 -82q25 -17 25 -45t-14 -42t-34 -15q-49 0 -49 57q0 58 80 112q79 54 229 54t224 -90q55 -66 55 -168v-557h152v-41h-199v139q-135 -151 -311 -151z" />
    <glyph glyph-name="acircumflex" unicode="&#xe2;" horiz-adv-x="940" 
d="M201 1006l-19 20l260 244l260 -244l-18 -20l-242 180zM369 29q174 0 311 155v209q-134 45 -270 45t-204 -61t-69 -145q1 -84 59 -144q58 -59 173 -59zM371 -12q-133 0 -208 68t-75 176t86 178t230 70t276 -50v164q0 90 -45 143q-63 80 -210 80t-212 -82q25 -17 25 -45
t-14 -42t-34 -15q-49 0 -49 57q0 58 80 112q79 54 229 54t224 -90q55 -66 55 -168v-557h152v-41h-199v139q-135 -151 -311 -151z" />
    <glyph glyph-name="atilde" unicode="&#xe3;" horiz-adv-x="940" 
d="M586 1022q-66 0 -152 66t-132 65q-46 0 -73 -29t-49 -94l-35 8q37 168 154 168q68 0 151 -65q139 -109 205 -38q27 28 50 93l34 -8q-36 -166 -153 -166zM369 29q174 0 311 155v209q-134 45 -270 45t-204 -61t-69 -145q1 -84 59 -144q58 -59 173 -59zM371 -12
q-133 0 -208 68t-75 176t86 178t230 70t276 -50v164q0 90 -45 143q-63 80 -210 80t-212 -82q25 -17 25 -45t-14 -42t-34 -15q-49 0 -49 57q0 58 80 112q79 54 229 54t224 -90q55 -66 55 -168v-557h152v-41h-199v139q-135 -151 -311 -151z" />
    <glyph glyph-name="adieresis" unicode="&#xe4;" horiz-adv-x="940" 
d="M326 1053q-23 0 -38 15t-16 38q0 23 16 39t38 16q23 0 38 -16t15 -39t-15 -38t-38 -15zM559 1053q-23 0 -38 15t-15 38t15 39t38 16t38 -16t15 -39t-15 -38t-38 -15zM369 29q174 0 311 155v209q-134 45 -270 45t-204 -61t-69 -145q1 -84 59 -144q58 -59 173 -59zM371 -12
q-133 0 -208 68t-75 176t86 178t230 70t276 -50v164q0 90 -45 143q-63 80 -210 80t-212 -82q25 -17 25 -45t-14 -42t-34 -15q-49 0 -49 57q0 58 80 112q79 54 229 54t224 -90q55 -66 55 -168v-557h152v-41h-199v139q-135 -151 -311 -151z" />
    <glyph glyph-name="aring" unicode="&#xe5;" horiz-adv-x="940" 
d="M442 1044q55 0 89 38t34 94t-35 94q-35 39 -88 39t-88 -39t-35 -94q0 -56 34 -94t89 -38zM442 1004q-74 0 -123 50t-49 122t49 122t123 52q74 0 123 -52t49 -122q0 -72 -49 -122t-123 -50zM369 29q174 0 311 155v209q-134 45 -270 45t-204 -61t-69 -145q1 -84 59 -144
q58 -59 173 -59zM371 -12q-133 0 -208 68t-75 176t86 178t230 70t276 -50v164q0 90 -45 143q-63 80 -210 80t-212 -82q25 -17 25 -45t-14 -42t-34 -15q-49 0 -49 57q0 58 80 112q79 54 229 54t224 -90q55 -66 55 -168v-557h152v-41h-199v139q-135 -151 -311 -151z" />
    <glyph glyph-name="ae" unicode="&#xe6;" horiz-adv-x="1525" 
d="M1070 815q-142 0 -240 -98t-109 -248h663q-2 147 -86 247q-86 100 -228 99zM369 29q207 0 354 178q-41 86 -43 186q-142 45 -274 45t-200 -61t-69 -145q1 -84 59 -144q58 -59 173 -59zM424 817q-146 0 -211 -82q25 -17 25 -45t-14 -42t-34 -15q-49 0 -49 57q0 58 80 112
q81 54 227 54t220 -88q45 -53 51 -141q47 105 138 167t204 62q174 0 273 -115t100 -280q0 -25 -2 -33h-711q0 -190 101 -294q100 -104 268 -105q168 0 303 98l-4 -49q-131 -90 -297 -90q-244 0 -353 184q-154 -184 -368 -184q-133 0 -208 68t-75 176t86 178t230 70t276 -50
v164q0 90 -45 143q-65 80 -211 80z" />
    <glyph glyph-name="ccedilla" unicode="&#xe7;" horiz-adv-x="1011" 
d="M676 -273q0 -61 -47 -99t-140 -38t-182 41l15 35q84 -37 160 -37t111 28q36 28 36 71q0 92 -154 94q-18 0 -31 -2l-12 10l39 162q-168 16 -274 128q-107 112 -107 297t122 312t292 127q133 0 225 -72t92 -159q0 -29 -15 -48q-16 -19 -38 -19t-36 12q-13 13 -13 34
q0 47 49 62q-18 61 -92 105t-170 44q-152 0 -260 -115q-108 -116 -107 -288q0 -172 112 -278q111 -106 269 -105q158 0 283 86l-2 -47q-119 -80 -275 -80h-22l-19 -127q91 -2 141 -37t50 -97z" />
    <glyph glyph-name="egrave" unicode="&#xe8;" horiz-adv-x="950" 
d="M223 1194q0 16 11 28q12 12 28 13q16 0 49 -23l252 -172l-14 -22l-279 127q-47 23 -47 49zM492 815q-144 0 -241 -98t-110 -248h670q-4 147 -90 247q-85 100 -229 99zM141 428q-1 -190 103 -294t272 -105q168 0 301 98l-4 -49q-129 -90 -307 -90t-296 118t-118 310
q0 194 116 317t282 123t268 -116t102 -279q0 -17 -4 -33h-715z" />
    <glyph glyph-name="eacute" unicode="&#xe9;" horiz-adv-x="950" 
d="M717 1235q16 0 27 -12t12 -29q0 -27 -47 -49l-279 -127l-14 22l252 172q33 23 49 23zM492 815q-144 0 -241 -98t-110 -248h670q-4 147 -90 247q-85 100 -229 99zM141 428q-1 -190 103 -294t272 -105q168 0 301 98l-4 -49q-129 -90 -307 -90t-296 118t-118 310
q0 194 116 317t282 123t268 -116t102 -279q0 -17 -4 -33h-715z" />
    <glyph glyph-name="ecircumflex" unicode="&#xea;" horiz-adv-x="950" 
d="M248 1006l-19 20l260 244l261 -244l-19 -20l-242 180zM492 815q-144 0 -241 -98t-110 -248h670q-4 147 -90 247q-85 100 -229 99zM141 428q-1 -190 103 -294t272 -105q168 0 301 98l-4 -49q-129 -90 -307 -90t-296 118t-118 310q0 194 116 317t282 123t268 -116t102 -279
q0 -17 -4 -33h-715z" />
    <glyph glyph-name="edieresis" unicode="&#xeb;" horiz-adv-x="950" 
d="M606 1053q-23 0 -38 15t-15 38t15 39t38 16t38 -16t15 -39t-15 -38t-38 -15zM373 1053q-23 0 -38 15t-16 38t15 39t39 16t38 -16t15 -39t-15 -38t-38 -15zM492 815q-144 0 -241 -98t-110 -248h670q-4 147 -90 247q-85 100 -229 99zM141 428q-1 -190 103 -294t272 -105
q168 0 301 98l-4 -49q-129 -90 -307 -90t-296 118t-118 310q0 194 116 317t282 123t268 -116t102 -279q0 -17 -4 -33h-715z" />
    <glyph glyph-name="igrave" unicode="&#xec;" horiz-adv-x="522" 
d="M-14 1194q0 16 11 28t27 13q16 0 50 -23l252 -172l-15 -22l-278 127q-47 23 -47 49zM76 0v41h166v762h-166v41h215v-803h166v-41h-381z" />
    <glyph glyph-name="iacute" unicode="&#xed;" horiz-adv-x="522" 
d="M76 0v41h166v762h-166v41h215v-803h166v-41h-381zM479 1235q15 0 27 -12t12 -29q0 -27 -47 -49l-278 -127l-15 22l252 172q33 23 49 23z" />
    <glyph glyph-name="icircumflex" unicode="&#xee;" horiz-adv-x="522" 
d="M76 0v41h166v762h-166v41h215v-803h166v-41h-381zM10 1006l-18 20l260 244l260 -244l-18 -20l-242 180z" />
    <glyph glyph-name="idieresis" unicode="&#xef;" horiz-adv-x="522" 
d="M76 0v41h166v762h-166v41h215v-803h166v-41h-381zM135 1053q-23 0 -38 15t-15 38t15 39t38 16t38 -16t15 -39t-15 -38t-38 -15zM369 1053q-23 0 -38 15t-16 38t15 39t39 16t38 -16t15 -39t-15 -38t-38 -15z" />
    <glyph glyph-name="eth" unicode="&#xf0;" horiz-adv-x="1030" 
d="M891 418q0 156 -110 264q-111 109 -271 109t-264 -111q-104 -112 -104 -272t102 -270q104 -110 269 -110t271 118q106 116 107 272zM150 1450q0 25 21 44t63 19t98 -18q158 -55 301 -207l205 189l26 -31l-205 -186q289 -324 289 -752q0 -258 -135 -393
q-115 -127 -301 -127t-303 121t-117 299t120 301t300 122q139 0 240 -70q100 -71 147 -188q-20 377 -270 660l-289 -262l-27 30l287 263q-182 188 -348 206q0 -28 -14 -50t-38 -22q-50 2 -50 52z" />
    <glyph glyph-name="ntilde" unicode="&#xf1;" horiz-adv-x="1087" 
d="M702 1022q-66 0 -152 66t-131 65q-46 0 -73 -29t-49 -94l-35 8q37 168 154 168q68 0 150 -65t131 -65q48 0 75 27q27 28 49 93l35 -8q-37 -166 -154 -166zM279 844v-174q158 186 342 186q154 0 217 -113q37 -61 36 -180v-522h154v-41h-354v41h151v518q0 94 -26 154
q-49 100 -185 100q-172 0 -333 -195v-577h151v-41h-354v41h153v762h-153v41h201z" />
    <glyph glyph-name="ograve" unicode="&#xf2;" horiz-adv-x="1032" 
d="M250 1194q0 16 11 28t27 13q16 0 50 -23l252 -172l-15 -22l-278 127q-47 23 -47 49zM516 29q162 1 267 113t106 280t-105 280t-268 113q-162 0 -268 -113q-106 -112 -106 -280t106 -280t268 -113zM514 -12q-182 0 -302 124t-120 309t122 310t304 125t302 -124t120 -309
t-122 -310t-304 -125z" />
    <glyph glyph-name="oacute" unicode="&#xf3;" horiz-adv-x="1032" 
d="M516 29q162 1 267 113t106 280t-105 280t-268 113q-162 0 -268 -113q-106 -112 -106 -280t106 -280t268 -113zM514 -12q-182 0 -302 124t-120 309t122 310t304 125t302 -124t120 -309t-122 -310t-304 -125zM741 1235q15 0 27 -12t12 -29q0 -27 -47 -49l-278 -127l-15 22
l252 172q33 23 49 23z" />
    <glyph glyph-name="ocircumflex" unicode="&#xf4;" horiz-adv-x="1032" 
d="M516 29q162 1 267 113t106 280t-105 280t-268 113q-162 0 -268 -113q-106 -112 -106 -280t106 -280t268 -113zM514 -12q-182 0 -302 124t-120 309t122 310t304 125t302 -124t120 -309t-122 -310t-304 -125zM274 1006l-18 20l260 244l260 -244l-18 -20l-242 180z" />
    <glyph glyph-name="otilde" unicode="&#xf5;" horiz-adv-x="1032" 
d="M662 1022q-66 0 -156 70q-84 61 -129 61t-72 -29t-49 -94l-35 8q37 168 154 168q69 0 151 -65q139 -110 205 -38q27 28 49 93l35 -8q-36 -166 -153 -166zM516 29q162 1 267 113t106 280t-105 280t-268 113q-162 0 -268 -113q-106 -112 -106 -280t106 -280t268 -113z
M514 -12q-182 0 -302 124t-120 309t122 310t304 125t302 -124t120 -309t-122 -310t-304 -125z" />
    <glyph glyph-name="odieresis" unicode="&#xf6;" horiz-adv-x="1032" 
d="M516 29q162 1 267 113t106 280t-105 280t-268 113q-162 0 -268 -113q-106 -112 -106 -280t106 -280t268 -113zM514 -12q-182 0 -302 124t-120 309t122 310t304 125t302 -124t120 -309t-122 -310t-304 -125zM399 1053q-23 0 -38 15t-15 38t15 39t38 16t38 -16t15 -39
t-14 -38q-16 -15 -39 -15zM633 1053q-23 0 -38 15t-15 38t15 39t38 16t38 -16t15 -39t-15 -38t-38 -15z" />
    <glyph glyph-name="divide" unicode="&#xf7;" horiz-adv-x="790" 
d="M395 238q-23 0 -38 16t-15 39t15 39t38 16t38 -16t15 -39t-14 -39q-16 -16 -39 -16zM395 725q-23 0 -38 16t-15 39t15 39q15 17 38 17t38 -16t15 -40q0 -23 -14 -39q-16 -16 -39 -16zM694 514h-598v45h598v-45z" />
    <glyph glyph-name="oslash" unicode="&#xf8;" horiz-adv-x="1032" 
d="M141 422q0 -168 105 -279l508 586q-102 86 -251 86q-149 -1 -255 -113t-107 -280zM526 29q152 1 257 113t106 280q0 168 -107 280l-506 -587q98 -86 250 -86zM528 -12q-168 0 -282 92l-105 -121l-30 29l104 118q-123 124 -123 312t122 313t289 125t281 -92l109 129
l31 -29l-111 -127q127 -123 127 -311t-122 -313t-290 -125z" />
    <glyph glyph-name="ugrave" unicode="&#xf9;" horiz-adv-x="1071" 
d="M264 1194q0 16 11 28t27 13q16 0 50 -23l252 -172l-14 -22l-279 127q-47 23 -47 49zM465 -12q-254 0 -254 293v522h-154v41h203v-559q0 -100 29 -158q47 -96 182 -96q170 0 334 209v563h-152v41h201v-803h154v-41h-201v190q-158 -202 -342 -202z" />
    <glyph glyph-name="uacute" unicode="&#xfa;" horiz-adv-x="1071" 
d="M465 -12q-254 0 -254 293v522h-154v41h203v-559q0 -100 29 -158q47 -96 182 -96q170 0 334 209v563h-152v41h201v-803h154v-41h-201v190q-158 -202 -342 -202zM756 1235q16 0 27 -12t12 -29q0 -27 -47 -49l-279 -127l-14 22l252 172q33 23 49 23z" />
    <glyph glyph-name="ucircumflex" unicode="&#xfb;" horiz-adv-x="1071" 
d="M465 -12q-254 0 -254 293v522h-154v41h203v-559q0 -100 29 -158q47 -96 182 -96q170 0 334 209v563h-152v41h201v-803h154v-41h-201v190q-158 -202 -342 -202zM287 1006l-19 20l260 244l260 -244l-18 -20l-242 180z" />
    <glyph glyph-name="udieresis" unicode="&#xfc;" horiz-adv-x="1071" 
d="M465 -12q-254 0 -254 293v522h-154v41h203v-559q0 -100 29 -158q47 -96 182 -96q170 0 334 209v563h-152v41h201v-803h154v-41h-201v190q-158 -202 -342 -202zM412 1053q-23 0 -38 15t-16 38q0 23 16 39t38 16q23 0 38 -16t15 -39t-15 -38t-38 -15zM645 1053
q-23 0 -38 15t-15 38t15 39t38 16t38 -16t15 -39t-15 -38t-38 -15z" />
    <glyph glyph-name="yacute" unicode="&#xfd;" horiz-adv-x="954" 
d="M706 1235q16 0 28 -12q11 -12 11 -29q0 -27 -47 -49l-278 -127l-14 22l251 172q33 23 49 23zM51 -344q1 24 15 38t40 15q26 -1 39 -25q14 -24 5 -55q96 0 169 117q37 55 82 160l52 121l-326 776h-131v41h346v-41h-162l295 -729l307 729h-166v41h345v-41h-132l-393 -918
q-35 -83 -80 -157q-86 -137 -209 -138q-45 0 -71 20q-26 22 -25 46z" />
    <glyph glyph-name="thorn" unicode="&#xfe;" horiz-adv-x="1046" 
d="M534 29q167 -1 269 111t102 283t-97 282t-255 110q-193 0 -330 -170v-477q144 -139 311 -139zM20 -401v41h154v1810h-154v41h203l-2 -797q143 162 325 162t296 -123q112 -123 112 -310t-118 -311t-294 -124q-177 0 -319 131v-479h152v-41h-355z" />
    <glyph glyph-name="ydieresis" unicode="&#xff;" horiz-adv-x="954" 
d="M596 1053q-23 0 -38 15t-15 38t15 39t38 16t38 -16t15 -39t-15 -38t-38 -15zM362 1053q-24 0 -38 15t-15 38t15 39t38 16t38 -16t16 -39t-16 -38t-38 -15zM51 -344q1 24 15 38t40 15q26 -1 39 -25q14 -24 5 -55q96 0 169 117q37 55 82 160l52 121l-326 776h-131v41h346
v-41h-162l295 -729l307 729h-166v41h345v-41h-132l-393 -918q-35 -83 -80 -157q-86 -137 -209 -138q-45 0 -71 20q-26 22 -25 46z" />
    <glyph glyph-name="Amacron" unicode="&#x100;" horiz-adv-x="1423" 
d="M430 1536v49h561v-49h-561zM434 559h555l-276 750zM29 0v45h159l469 1258h-184v45h477v-45h-182l467 -1258h162v-45h-412v45h193l-172 469h-588l-174 -469h196v-45h-411z" />
    <glyph glyph-name="amacron" unicode="&#x101;" horiz-adv-x="940" 
d="M162 1081v49h561v-49h-561zM369 29q174 0 311 155v209q-134 45 -270 45t-204 -61t-69 -145q1 -84 59 -144q58 -59 173 -59zM371 -12q-133 0 -208 68t-75 176t86 178t230 70t276 -50v164q0 90 -45 143q-63 80 -210 80t-212 -82q25 -17 25 -45t-14 -42t-34 -15
q-49 0 -49 57q0 58 80 112q79 54 229 54t224 -90q55 -66 55 -168v-557h152v-41h-199v139q-135 -151 -311 -151z" />
    <glyph glyph-name="Abreve" unicode="&#x102;" horiz-adv-x="1423" 
d="M711 1473q-88 0 -158 55t-102 143l34 17q72 -154 226 -154t225 154l35 -17q-33 -88 -103 -143t-157 -55zM434 559h555l-276 750zM29 0v45h159l469 1258h-184v45h477v-45h-182l467 -1258h162v-45h-412v45h193l-172 469h-588l-174 -469h196v-45h-411z" />
    <glyph glyph-name="abreve" unicode="&#x103;" horiz-adv-x="940" 
d="M442 1018q-88 0 -158 55t-102 144l35 16q71 -154 225 -154t226 154l34 -16q-33 -88 -102 -144q-70 -55 -158 -55zM369 29q174 0 311 155v209q-134 45 -270 45t-204 -61t-69 -145q1 -84 59 -144q58 -59 173 -59zM371 -12q-133 0 -208 68t-75 176t86 178t230 70t276 -50
v164q0 90 -45 143q-63 80 -210 80t-212 -82q25 -17 25 -45t-14 -42t-34 -15q-49 0 -49 57q0 58 80 112q79 54 229 54t224 -90q55 -66 55 -168v-557h152v-41h-199v139q-135 -151 -311 -151z" />
    <glyph glyph-name="Aogonek" unicode="&#x104;" horiz-adv-x="1423" 
d="M434 559h555l-276 750zM1199 -412q-85 0 -133 46t-48 120q0 147 164 246h-197v45h193l-172 469h-588l-174 -469h196v-45h-411v45h159l469 1258h-184v45h477v-45h-182l467 -1258h162v-45h-146q-92 -46 -140 -110t-48 -126t38 -99q39 -36 107 -36t140 45l-5 -36
q-59 -50 -144 -50z" />
    <glyph glyph-name="aogonek" unicode="&#x105;" horiz-adv-x="940" 
d="M369 29q174 0 311 155v209q-134 45 -270 45t-204 -61t-69 -145q1 -84 59 -144q58 -59 173 -59zM695 -412q-85 0 -133 46t-48 120q0 150 168 248v137q-135 -152 -311 -151q-133 0 -208 68t-75 176t86 178t230 70t276 -50v164q0 90 -45 143q-63 80 -210 80t-212 -82
q25 -17 25 -45t-14 -42t-34 -15q-49 0 -49 57q0 58 80 112q79 54 229 54t224 -90q55 -66 55 -168v-557h152v-41h-133q-92 -46 -140 -110t-49 -126q0 -62 38 -99q39 -36 107 -36t140 45l-4 -36q-60 -50 -145 -50z" />
    <glyph glyph-name="Cacute" unicode="&#x106;" horiz-adv-x="1425" 
d="M774 -20q-286 0 -471 198q-186 198 -186 490t189 496t472 204q207 0 351 -105t145 -237q0 -37 -18 -57q-18 -21 -45 -21q-26 0 -43 16t-17 42q0 25 16 44t47 21q-16 90 -139 171t-297 81q-262 0 -434 -190q-172 -191 -172 -465t171 -458t438 -185q267 0 460 192l29 -35
q-210 -202 -496 -202zM993 1690q15 0 27 -12t12 -29q0 -27 -47 -50l-278 -126l-15 22l252 172q33 23 49 23z" />
    <glyph glyph-name="cacute" unicode="&#x107;" horiz-adv-x="917" 
d="M510 -12q-172 0 -296 114t-124 308q0 192 122 319t292 127q133 0 225 -72t92 -159q0 -29 -15 -48q-16 -19 -38 -19t-36 12q-13 13 -13 34q0 47 49 62q-18 61 -92 105t-170 44q-152 0 -260 -115q-108 -116 -107 -288q0 -172 112 -278q111 -106 269 -105q158 0 283 86
l-2 -47q-119 -80 -291 -80zM725 1235q15 0 27 -12t12 -29q0 -27 -47 -49l-279 -127l-14 22l252 172q33 23 49 23z" />
    <glyph glyph-name="Cdotaccent" unicode="&#x10a;" horiz-adv-x="1425" 
d="M766 1503q-25 -1 -41 17t-16 42t16 42t41 18t41 -18t16 -42t-16 -42t-41 -17zM774 -20q-286 0 -471 198q-186 198 -186 490t189 496t472 204q207 0 351 -105t145 -237q0 -37 -18 -57q-18 -21 -45 -21q-26 0 -43 16t-17 42q0 25 16 44t47 21q-16 90 -139 171t-297 81
q-262 0 -434 -190q-172 -191 -172 -465t171 -458t438 -185q267 0 460 192l29 -35q-210 -202 -496 -202z" />
    <glyph glyph-name="cdotaccent" unicode="&#x10b;" horiz-adv-x="917" 
d="M498 1049q-25 0 -41 17q-17 17 -17 41t16 42t42 18q25 0 41 -18t16 -42t-16 -41t-41 -17zM510 -12q-172 0 -296 114t-124 308q0 192 122 319t292 127q133 0 225 -72t92 -159q0 -29 -15 -48q-16 -19 -38 -19t-36 12q-13 13 -13 34q0 47 49 62q-18 61 -92 105t-170 44
q-152 0 -260 -115q-108 -116 -107 -288q0 -172 112 -278q111 -106 269 -105q158 0 283 86l-2 -47q-119 -80 -291 -80z" />
    <glyph glyph-name="Ccaron" unicode="&#x10c;" horiz-adv-x="1425" 
d="M774 -20q-286 0 -471 198q-186 198 -186 490t189 496t472 204q207 0 351 -105t145 -237q0 -37 -18 -57q-18 -21 -45 -21q-26 0 -43 16t-17 42q0 25 16 44t47 21q-16 90 -139 171t-297 81q-262 0 -434 -190q-172 -191 -172 -465t171 -458t438 -185q267 0 460 192l29 -35
q-210 -202 -496 -202zM1008 1726l18 -20l-260 -244l-260 244l18 20l242 -180z" />
    <glyph glyph-name="ccaron" unicode="&#x10d;" horiz-adv-x="917" 
d="M510 -12q-172 0 -296 114t-124 308q0 192 122 319t292 127q133 0 225 -72t92 -159q0 -29 -15 -48q-16 -19 -38 -19t-36 12q-13 13 -13 34q0 47 49 62q-18 61 -92 105t-170 44q-152 0 -260 -115q-108 -116 -107 -288q0 -172 112 -278q111 -106 269 -105q158 0 283 86
l-2 -47q-119 -80 -291 -80zM739 1272l19 -21l-260 -243l-260 243l18 21l242 -180z" />
    <glyph glyph-name="Dcaron" unicode="&#x10e;" horiz-adv-x="1445" 
d="M338 45h260q324 0 499 171t175 459t-177 458t-507 170h-250v-1258zM90 0v45h195v1258h-195v45h498q350 0 544 -184t194 -488q0 -305 -193 -491q-193 -185 -539 -185h-504zM926 1726l18 -20l-260 -244l-260 244l18 20l242 -180z" />
    <glyph glyph-name="dcaron" unicode="&#x10f;" horiz-adv-x="1093" 
d="M500 29q195 0 336 170v477q-152 139 -319 139t-271 -113q-104 -112 -104 -282t100 -280t258 -111zM510 -12q-186 0 -302 123t-116 310t120 311t300 124t324 -133v727h-179v41h228v-1450h153v-41h-200v150q-142 -162 -328 -162zM1069 1489q39 0 39 -53q0 -156 -109 -301
l-20 14q57 102 57 197l-6 94q0 49 39 49z" />
    <glyph glyph-name="Dcroat" unicode="&#x110;" horiz-adv-x="1445" 
d="M338 45h260q324 0 499 171t175 459t-177 458t-507 170h-250v-588h336v-47h-336v-623zM285 668h-154v47h154v588h-195v45h498q350 0 544 -184t194 -488q0 -305 -193 -491q-193 -185 -539 -185h-504v45h195v623z" />
    <glyph glyph-name="dcroat" unicode="&#x111;" horiz-adv-x="1093" 
d="M500 29q195 0 336 170v477q-152 139 -319 139t-271 -113q-104 -112 -104 -282t100 -280t258 -111zM494 1139v41h342v270h-179v41h228v-311h153v-41h-153v-1098h153v-41h-200v150q-142 -162 -328 -162t-302 123t-116 310t120 311t300 124t324 -133v416h-342z" />
    <glyph glyph-name="Emacron" unicode="&#x112;" horiz-adv-x="1165" 
d="M313 1536v49h561v-49h-561zM92 0v45h195v1258h-195v45h930v-295h-51v250h-631v-590h496v-47h-496v-621h631v250h51v-295h-930z" />
    <glyph glyph-name="emacron" unicode="&#x113;" horiz-adv-x="950" 
d="M209 1081v49h561v-49h-561zM492 815q-144 0 -241 -98t-110 -248h670q-4 147 -90 247q-85 100 -229 99zM141 428q-1 -190 103 -294t272 -105q168 0 301 98l-4 -49q-129 -90 -307 -90t-296 118t-118 310q0 194 116 317t282 123t268 -116t102 -279q0 -17 -4 -33h-715z" />
    <glyph glyph-name="Ebreve" unicode="&#x114;" horiz-adv-x="1165" 
d="M594 1473q-88 0 -158 55t-102 143l35 17q71 -154 225 -154t225 154l35 -17q-32 -88 -102 -143t-158 -55zM92 0v45h195v1258h-195v45h930v-295h-51v250h-631v-590h496v-47h-496v-621h631v250h51v-295h-930z" />
    <glyph glyph-name="ebreve" unicode="&#x115;" horiz-adv-x="950" 
d="M489 1018q-87 0 -157 55t-103 144l35 16q72 -154 226 -154t225 154l35 -16q-33 -87 -103 -143t-158 -56zM492 815q-144 0 -241 -98t-110 -248h670q-4 147 -90 247q-85 100 -229 99zM141 428q-1 -190 103 -294t272 -105q168 0 301 98l-4 -49q-129 -90 -307 -90t-296 118
t-118 310q0 194 116 317t282 123t268 -116t102 -279q0 -17 -4 -33h-715z" />
    <glyph glyph-name="Edotaccent" unicode="&#x116;" horiz-adv-x="1165" 
d="M594 1503q-25 -1 -41 17t-16 42t16 42t41 18t41 -18t16 -42t-16 -42t-41 -17zM92 0v45h195v1258h-195v45h930v-295h-51v250h-631v-590h496v-47h-496v-621h631v250h51v-295h-930z" />
    <glyph glyph-name="edotaccent" unicode="&#x117;" horiz-adv-x="950" 
d="M489 1049q-25 0 -41 17t-16 41t16 42t42 18q24 0 40 -18t16 -42t-16 -41t-41 -17zM492 815q-144 0 -241 -98t-110 -248h670q-4 147 -90 247q-85 100 -229 99zM141 428q-1 -190 103 -294t272 -105q168 0 301 98l-4 -49q-129 -90 -307 -90t-296 118t-118 310q0 194 116 317
t282 123t268 -116t102 -279q0 -17 -4 -33h-715z" />
    <glyph glyph-name="Eogonek" unicode="&#x118;" horiz-adv-x="1165" 
d="M92 0v45h195v1258h-195v45h930v-295h-51v250h-631v-590h496v-47h-496v-621h631v250h51v-295h-96q-92 -46 -140 -110t-49 -126q0 -62 38 -99q38 -36 107 -36t140 45l-4 -36q-58 -50 -144 -50t-134 46t-48 120q0 147 164 246h-764z" />
    <glyph glyph-name="eogonek" unicode="&#x119;" horiz-adv-x="950" 
d="M492 815q-144 0 -241 -98t-110 -248h670q-4 147 -90 247q-85 100 -229 99zM141 428q-1 -190 103 -294t271 -105q167 0 302 98l-4 -51q-159 -82 -233 -157t-74 -163q0 -57 38 -92t106 -35t141 45l-5 -36q-59 -50 -144 -50t-133 46t-48 118t43 138t121 110
q-66 -12 -109 -12q-188 0 -306 118t-118 310q0 194 116 317t282 123t268 -116t102 -279q0 -17 -4 -33h-715z" />
    <glyph glyph-name="Ecaron" unicode="&#x11a;" horiz-adv-x="1165" 
d="M92 0v45h195v1258h-195v45h930v-295h-51v250h-631v-590h496v-47h-496v-621h631v250h51v-295h-930zM836 1726l18 -20l-260 -244l-260 244l18 20l242 -180z" />
    <glyph glyph-name="ecaron" unicode="&#x11b;" horiz-adv-x="950" 
d="M731 1272l19 -21l-261 -243l-260 243l19 21l241 -180zM492 815q-144 0 -241 -98t-110 -248h670q-4 147 -90 247q-85 100 -229 99zM141 428q-1 -190 103 -294t272 -105q168 0 301 98l-4 -49q-129 -90 -307 -90t-296 118t-118 310q0 194 116 317t282 123t268 -116t102 -279
q0 -17 -4 -33h-715z" />
    <glyph glyph-name="Gbreve" unicode="&#x11e;" horiz-adv-x="1482" 
d="M791 1473q-88 0 -158 55t-103 143l35 17q72 -154 226 -154t225 154l35 -17q-33 -88 -103 -143t-157 -55zM768 -20q-268 0 -458 186q-189 186 -189 496t198 507q199 197 480 199q209 0 353 -98t144 -205q0 -31 -17 -49t-42 -19q-53 0 -53 56q0 45 43 65q-33 80 -152 142
t-278 61q-275 0 -449 -193q-174 -192 -174 -472t171 -456t430 -175q259 0 487 182v352h-435v45h486v-604h-51v154q-226 -174 -494 -174z" />
    <glyph glyph-name="gbreve" unicode="&#x11f;" horiz-adv-x="1095" 
d="M539 1018q-88 0 -158 55t-102 144l34 16q72 -154 226 -154t225 154l35 -16q-33 -87 -103 -143t-157 -56zM520 815q-168 -1 -270 -111t-102 -278t98 -279t258 -110q186 0 327 170v465q-143 143 -311 143zM881 803v-866q0 -150 -72 -230q-98 -117 -302 -117t-288 101
q-31 35 -31 67t16 47q16 17 36 17q22 0 38 -16t15 -44q0 -28 -37 -43q28 -37 94 -63t158 -25q178 0 264 105q59 72 59 198v224q-141 -160 -323 -160t-296 122t-114 305t119 307t294 124t323 -135v123h200v-41h-153z" />
    <glyph glyph-name="Gdotaccent" unicode="&#x120;" horiz-adv-x="1482" 
d="M791 1503q-25 -1 -41 17t-16 42t16 42t41 18t41 -18t16 -42t-16 -42t-41 -17zM768 -20q-268 0 -458 186q-189 186 -189 496t198 507q199 197 480 199q209 0 353 -98t144 -205q0 -31 -17 -49t-42 -19q-53 0 -53 56q0 45 43 65q-33 80 -152 142t-278 61q-275 0 -449 -193
q-174 -192 -174 -472t171 -456t430 -175q259 0 487 182v352h-435v45h486v-604h-51v154q-226 -174 -494 -174z" />
    <glyph glyph-name="gdotaccent" unicode="&#x121;" horiz-adv-x="1095" 
d="M539 1049q-25 0 -41 17t-16 41t16 42t41 18t41 -18t16 -42t-16 -41t-41 -17zM520 815q-168 -1 -270 -111t-102 -278t98 -279t258 -110q186 0 327 170v465q-143 143 -311 143zM881 803v-866q0 -150 -72 -230q-98 -117 -302 -117t-288 101q-31 35 -31 67t16 47q16 17 36 17
q22 0 38 -16t15 -44q0 -28 -37 -43q28 -37 94 -63t158 -25q178 0 264 105q59 72 59 198v224q-141 -160 -323 -160t-296 122t-114 305t119 307t294 124t323 -135v123h200v-41h-153z" />
    <glyph glyph-name="Gcommaaccent" unicode="&#x122;" horiz-adv-x="1482" 
d="M768 -20q-268 0 -458 186q-189 186 -189 496t198 507q199 197 480 199q209 0 353 -98t144 -205q0 -31 -17 -49t-42 -19q-53 0 -53 56q0 45 43 65q-33 80 -152 142t-278 61q-275 0 -449 -193q-174 -192 -174 -472t171 -456t430 -175q259 0 487 182v352h-435v45h486v-604
h-51v154q-226 -174 -494 -174zM792 -125q60 -1 60 -103q0 -58 -43 -124q-43 -68 -111 -109l-12 21q111 96 115 200q-66 4 -66 62q-1 23 15 38t42 15z" />
    <glyph glyph-name="gcommaaccent" unicode="&#x123;" horiz-adv-x="1095" 
d="M520 815q-168 -1 -270 -111t-102 -278t98 -279t258 -110q186 0 327 170v465q-143 143 -311 143zM881 803v-866q0 -150 -72 -230q-98 -117 -302 -117t-288 101q-31 35 -31 67t16 47q16 17 36 17q22 0 38 -16t15 -44q0 -28 -37 -43q28 -37 94 -63t158 -25q178 0 264 105
q59 72 59 198v224q-141 -160 -323 -160t-296 122t-114 305t119 307t294 124t323 -135v123h200v-41h-153zM529 1063q-60 1 -60 103q0 58 43 124q43 68 111 109l12 -21q-111 -96 -115 -200q66 -4 66 -62q0 -23 -16 -38t-41 -15z" />
    <glyph glyph-name="Hbar" unicode="&#x126;" horiz-adv-x="1542" 
d="M338 717h866v270h-866v-270zM131 987v45h154v271h-195v45h447v-45h-199v-271h866v271h-198v45h446v-45h-195v-271h154v-45h-154v-942h195v-45h-446v45h198v625h-866v-625h199v-45h-447v45h195v942h-154z" />
    <glyph glyph-name="hbar" unicode="&#x127;" horiz-adv-x="1064" 
d="M209 1450h-154v41h203v-311h342v-41h-342v-467q156 184 340 184q141 0 207 -98q47 -66 47 -195v-522h154v-41h-355v41h152v518q0 117 -47 185t-164 69q-170 0 -334 -195v-577h152v-41h-355v41h154v1098h-154v41h154v270z" />
    <glyph glyph-name="Imacron" unicode="&#x12a;" horiz-adv-x="645" 
d="M43 1536v49h561v-49h-561zM92 0v45h203v1258h-203v45h463v-45h-205v-1258h205v-45h-463z" />
    <glyph glyph-name="imacron" unicode="&#x12b;" horiz-adv-x="522" 
d="M-29 1081v49h561v-49h-561zM76 0v41h166v762h-166v41h215v-803h166v-41h-381z" />
    <glyph glyph-name="Ibreve" unicode="&#x12c;" horiz-adv-x="645" 
d="M324 1473q-88 0 -158 55t-103 143l35 17q72 -154 226 -154t225 154l35 -17q-32 -88 -102 -143t-158 -55zM92 0v45h203v1258h-203v45h463v-45h-205v-1258h205v-45h-463z" />
    <glyph glyph-name="ibreve" unicode="&#x12d;" horiz-adv-x="522" 
d="M252 1018q-88 0 -158 55t-102 144l35 16q71 -154 225 -154t225 154l35 -16q-33 -88 -102 -144q-70 -55 -158 -55zM76 0v41h166v762h-166v41h215v-803h166v-41h-381z" />
    <glyph glyph-name="Iogonek" unicode="&#x12e;" horiz-adv-x="645" 
d="M92 0v45h203v1258h-203v45h463v-45h-205v-1258h205v-45h-158q-92 -46 -140 -110t-48 -126t38 -99q39 -36 107 -36t140 45l-5 -36q-59 -50 -144 -50t-133 46t-48 120q0 147 164 246h-236z" />
    <glyph glyph-name="iogonek" unicode="&#x12f;" horiz-adv-x="509" 
d="M250 1155q-23 0 -38 16t-15 39t15 39q15 17 38 17t38 -16t15 -40q0 -23 -15 -39t-38 -16zM76 0v41h166v762h-166v41h215v-803h166v-41h-152q-82 -45 -128 -111t-46 -127t38 -97q39 -36 107 -36t140 45l-4 -36q-58 -50 -144 -50t-134 46t-48 120q0 145 152 246h-162z" />
    <glyph glyph-name="Idotaccent" unicode="&#x130;" horiz-adv-x="645" 
d="M324 1503q-25 -1 -41 17q-17 18 -17 42t16 42t42 18q25 0 41 -18t16 -42t-16 -42t-41 -17zM92 0v45h203v1258h-203v45h463v-45h-205v-1258h205v-45h-463z" />
    <glyph glyph-name="dotlessi" unicode="&#x131;" horiz-adv-x="522" 
d="M76 0v41h166v762h-166v41h215v-803h166v-41h-381z" />
    <glyph glyph-name="Kcommaaccent" unicode="&#x136;" horiz-adv-x="1329" 
d="M90 0v45h195v1258h-195v45h447v-45h-199v-768l737 768h-219v45h444v-45h-165l-512 -531l510 -727h180v-45h-213l-512 735l-250 -260v-430h199v-45h-447zM647 -178q-1 23 15 38t42 15q26 -1 42 -23q18 -22 18 -80t-43 -124q-43 -68 -111 -109l-12 21q111 96 115 200
q-66 4 -66 62z" />
    <glyph glyph-name="kcommaaccent" unicode="&#x137;" horiz-adv-x="1001" 
d="M55 0v41h154v1409h-154v41h203v-1137l479 449h-213v41h430v-41h-155l-314 -295l326 -467h143v-41h-176l-327 479l-193 -182v-256h152v-41h-355zM509 -125q60 -1 60 -103q-1 -58 -43 -124q-42 -68 -110 -109l-13 21q111 96 115 200q-66 4 -65 62q0 23 15 38t41 15z" />
    <glyph glyph-name="Lacute" unicode="&#x139;" horiz-adv-x="1067" 
d="M92 0v45h195v1258h-195v45h447v-45h-199v-1258h580v260h51v-305h-879zM590 1698q16 0 27 -12t12 -29q0 -27 -47 -49l-279 -127l-14 22l252 172q33 23 49 23z" />
    <glyph glyph-name="lacute" unicode="&#x13a;" horiz-adv-x="489" 
d="M55 0v41h164v1409h-164v41h213v-1450h166v-41h-379zM504 1753q0 -25 -47 -49l-279 -127l-14 22l252 173q51 36 77 10q11 -12 11 -29z" />
    <glyph glyph-name="Lcommaaccent" unicode="&#x13b;" horiz-adv-x="1067" 
d="M92 0v45h195v1258h-195v45h447v-45h-199v-1258h580v260h51v-305h-879zM536 -125q60 -1 60 -103q0 -58 -43 -124q-43 -68 -111 -109l-12 21q111 96 115 200q-66 4 -66 62q-1 23 15 38t42 15z" />
    <glyph glyph-name="lcommaaccent" unicode="&#x13c;" horiz-adv-x="489" 
d="M55 0v41h164v1409h-164v41h213v-1450h166v-41h-379zM245 -125q60 -1 60 -103q-1 -58 -43 -124q-42 -68 -110 -109l-13 21q111 96 115 200q-66 4 -66 62q0 23 16 38t41 15z" />
    <glyph glyph-name="Lcaron" unicode="&#x13d;" horiz-adv-x="1067" 
d="M92 0v45h195v1258h-195v45h447v-45h-199v-1258h580v260h51v-305h-879zM698 1204l-6 94q0 49 39 50q39 0 39 -54q1 -156 -108 -301l-21 15q57 102 57 196z" />
    <glyph glyph-name="lcaron" unicode="&#x13e;" horiz-adv-x="489" 
d="M55 0v41h164v1409h-164v41h213v-1450h166v-41h-379zM455 1489q39 0 39 -53q0 -156 -109 -301l-20 14q57 102 57 197l-6 94q0 49 39 49z" />
    <glyph glyph-name="Ldot" unicode="&#x13f;" horiz-adv-x="1067" 
d="M840 659q-25 -1 -41 17q-17 18 -17 42t16 42t42 18q25 0 41 -18t16 -42t-16 -42t-41 -17zM92 0v45h195v1258h-195v45h447v-45h-199v-1258h580v260h51v-305h-879z" />
    <glyph glyph-name="ldot" unicode="&#x140;" horiz-adv-x="548" 
d="M514 664q-25 0 -41 17t-16 41t16 42t41 18t41 -18t16 -42t-16 -41t-41 -17zM55 0v41h164v1409h-164v41h213v-1450h166v-41h-379z" />
    <glyph glyph-name="Lslash" unicode="&#x141;" horiz-adv-x="1083" 
d="M106 0v45h195v553l-199 -117l-24 39l223 133v650h-195v45h447v-45h-199v-619l348 209l27 -39l-375 -223v-586h580v260h51v-305h-879z" />
    <glyph glyph-name="lslash" unicode="&#x142;" horiz-adv-x="528" 
d="M76 0v41h164v756l-203 -121l-21 35l224 135v604h-164v41h213v-617l178 107l22 -37l-200 -119v-784h166v-41h-379z" />
    <glyph glyph-name="Nacute" unicode="&#x143;" horiz-adv-x="1527" 
d="M336 45h203v-45h-447v45h195v1258h-195v45h238l893 -1250v1205h-199v45h444v-45h-194v-1309h-37l-901 1259v-1208zM999 1690q15 0 27 -12t12 -29q0 -27 -47 -50l-278 -126l-15 22l252 172q33 23 49 23z" />
    <glyph glyph-name="nacute" unicode="&#x144;" horiz-adv-x="1087" 
d="M279 844v-174q158 186 342 186q154 0 217 -113q37 -61 36 -180v-522h154v-41h-354v41h151v518q0 94 -26 154q-49 100 -185 100q-172 0 -333 -195v-577h151v-41h-354v41h153v762h-153v41h201zM784 1235q16 0 28 -12t11 -29q0 -27 -47 -49l-278 -127l-15 22l252 172
q33 23 49 23z" />
    <glyph glyph-name="Ncommaaccent" unicode="&#x145;" horiz-adv-x="1527" 
d="M336 45h203v-45h-447v45h195v1258h-195v45h238l893 -1250v1205h-199v45h444v-45h-194v-1309h-37l-901 1259v-1208zM775 -125q26 -1 43 -23q18 -22 18 -80t-43 -124q-43 -68 -111 -109l-12 21q111 96 114 200q-66 4 -65 62q0 23 15 38t41 15z" />
    <glyph glyph-name="ncommaaccent" unicode="&#x146;" horiz-adv-x="1087" 
d="M279 844v-174q158 186 342 186q154 0 217 -113q37 -61 36 -180v-522h154v-41h-354v41h151v518q0 94 -26 154q-49 100 -185 100q-172 0 -333 -195v-577h151v-41h-354v41h153v762h-153v41h201zM560 -125q26 -1 43 -23t17 -80t-42 -124q-43 -68 -111 -109l-12 21
q111 96 114 200q-66 4 -65 62q0 23 15 38t41 15z" />
    <glyph glyph-name="Ncaron" unicode="&#x147;" horiz-adv-x="1527" 
d="M336 45h203v-45h-447v45h195v1258h-195v45h238l893 -1250v1205h-199v45h444v-45h-194v-1309h-37l-901 1259v-1208zM1014 1726l18 -20l-260 -244l-260 244l18 20l242 -180z" />
    <glyph glyph-name="ncaron" unicode="&#x148;" horiz-adv-x="1087" 
d="M279 844v-174q158 186 342 186q154 0 217 -113q37 -61 36 -180v-522h154v-41h-354v41h151v518q0 94 -26 154q-49 100 -185 100q-172 0 -333 -195v-577h151v-41h-354v41h153v762h-153v41h201zM799 1272l18 -21l-260 -243l-260 243l18 21l242 -180z" />
    <glyph glyph-name="Omacron" unicode="&#x14c;" horiz-adv-x="1572" 
d="M786 25q264 0 440 187q175 188 175 462t-175 462q-176 188 -440 187q-264 0 -439 -187q-175 -188 -175 -462t175 -462t439 -187zM786 -20q-286 0 -478 200t-192 493q0 291 194 493q192 202 476 202t478 -201q192 -201 192 -493t-192 -493q-193 -201 -478 -201zM506 1536
v49h561v-49h-561z" />
    <glyph glyph-name="omacron" unicode="&#x14d;" horiz-adv-x="1032" 
d="M516 29q162 1 267 113t106 280t-105 280t-268 113q-162 0 -268 -113q-106 -112 -106 -280t106 -280t268 -113zM514 -12q-182 0 -302 124t-120 309t122 310t304 125t302 -124t120 -309t-122 -310t-304 -125zM236 1081v49h561v-49h-561z" />
    <glyph glyph-name="Obreve" unicode="&#x14e;" horiz-adv-x="1572" 
d="M786 1473q-88 0 -158 55t-102 143l35 17q71 -154 225 -154t226 154l35 -17q-33 -88 -103 -143t-158 -55zM786 25q264 0 440 187q175 188 175 462t-175 462q-176 188 -440 187q-264 0 -439 -187q-175 -188 -175 -462t175 -462t439 -187zM786 -20q-286 0 -478 200t-192 493
q0 291 194 493q192 202 476 202t478 -201q192 -201 192 -493t-192 -493q-193 -201 -478 -201z" />
    <glyph glyph-name="obreve" unicode="&#x14f;" horiz-adv-x="1032" 
d="M516 1018q-88 0 -158 55t-102 144l35 16q71 -154 225 -154t225 154l35 -16q-33 -88 -102 -144q-70 -55 -158 -55zM516 29q162 1 267 113t106 280t-105 280t-268 113q-162 0 -268 -113q-106 -112 -106 -280t106 -280t268 -113zM514 -12q-182 0 -302 124t-120 309t122 310
t304 125t302 -124t120 -309t-122 -310t-304 -125z" />
    <glyph glyph-name="Ohungarumlaut" unicode="&#x150;" horiz-adv-x="1572" 
d="M786 25q264 0 440 187q175 188 175 462t-175 462q-176 188 -440 187q-264 0 -439 -187q-175 -188 -175 -462t175 -462t439 -187zM786 -20q-286 0 -478 200t-192 493q0 291 194 493q192 202 476 202t478 -201q192 -201 192 -493t-192 -493q-193 -201 -478 -201zM1245 1657
q0 -29 -51 -51l-276 -127l-15 18l252 176q52 36 79 9q11 -11 11 -25zM869 1702q17 0 29 -11t13 -26q0 -27 -47 -51l-270 -144l-14 19l241 188q31 25 48 25z" />
    <glyph glyph-name="ohungarumlaut" unicode="&#x151;" horiz-adv-x="1032" 
d="M516 29q162 1 267 113t106 280t-105 280t-268 113q-162 0 -268 -113q-106 -112 -106 -280t106 -280t268 -113zM514 -12q-182 0 -302 124t-120 309t122 310t304 125t302 -124t120 -309t-122 -310t-304 -125zM933 1239q19 0 31 -11t11 -26q0 -29 -51 -51l-277 -127l-14 18
l252 177q29 20 48 20zM641 1210q0 -27 -47 -51l-270 -143l-15 18l242 189q48 39 78 13q12 -11 12 -26z" />
    <glyph glyph-name="OE" unicode="&#x152;" horiz-adv-x="1853" 
d="M856 45h117v1258h-127q-324 0 -499 -171t-175 -459t176 -458t508 -170zM854 0q-350 0 -544 183t-194 489t193 490q193 185 539 186h862v-295h-51v250h-631v-590h496v-47h-496v-621h631v250h51v-295h-856z" />
    <glyph glyph-name="oe" unicode="&#x153;" horiz-adv-x="1744" 
d="M1286 815q-144 0 -240 -98q-97 -98 -110 -248h668q-4 147 -89 247t-229 99zM516 29q162 1 267 113t106 280t-105 280t-268 113q-162 0 -268 -113q-106 -112 -106 -280t106 -280t268 -113zM1309 29q168 0 303 98l-6 -49q-129 -90 -289 -90t-265 79t-141 220
q-39 -133 -145 -216t-250 -83q-184 0 -304 124t-120 309t122 310t302 125q146 0 252 -82t143 -217q35 131 133 215t234 84q174 0 274 -115t101 -280q0 -16 -4 -33h-713q0 -190 102 -295q103 -104 271 -104z" />
    <glyph glyph-name="Racute" unicode="&#x154;" horiz-adv-x="1214" 
d="M586 641q176 0 288 86q112 87 113 241q0 154 -106 244t-291 91h-250v-660q70 -2 246 -2zM92 0v45h195v1258h-195v45h502q203 0 326 -104q122 -104 122 -260t-92 -252t-252 -126l355 -561h164v-45h-199l-373 600q-45 -4 -143 -4t-162 2v-553h199v-45h-447zM827 1690
q15 0 27 -12t12 -29q0 -27 -47 -50l-278 -126l-15 22l252 172q33 23 49 23z" />
    <glyph glyph-name="racute" unicode="&#x155;" horiz-adv-x="669" 
d="M578 1235q16 0 27 -12t11 -29q0 -27 -47 -49l-278 -127l-15 22l252 172q34 23 50 23zM520 856q54 0 76 -19t22 -43q-1 -51 -51 -53q-19 -1 -35 15t-16 45v8q-117 -8 -235 -207v-561h168v-41h-371v41h153v762h-153v41h201v-187q51 86 119 143q68 56 122 56z" />
    <glyph glyph-name="Rcommaaccent" unicode="&#x156;" horiz-adv-x="1214" 
d="M586 641q176 0 288 86q112 87 113 241q0 154 -106 244t-291 91h-250v-660q70 -2 246 -2zM92 0v45h195v1258h-195v45h502q203 0 326 -104q122 -104 122 -260t-92 -252t-252 -126l355 -561h164v-45h-199l-373 600q-45 -4 -143 -4t-162 2v-553h199v-45h-447zM607 -125
q26 -1 43 -23q18 -22 18 -80t-43 -124q-43 -68 -111 -109l-12 21q111 96 114 200q-66 4 -65 62q0 23 15 38t41 15z" />
    <glyph glyph-name="rcommaaccent" unicode="&#x157;" horiz-adv-x="669" 
d="M257 -125q60 -1 60 -103q-1 -58 -43 -124q-42 -68 -110 -109l-12 21q111 96 114 200q-66 4 -65 62q0 23 15 38t41 15zM520 856q54 0 76 -19t22 -43q-1 -51 -51 -53q-19 -1 -35 15t-16 45v8q-117 -8 -235 -207v-561h168v-41h-371v41h153v762h-153v41h201v-187
q51 86 119 143q68 56 122 56z" />
    <glyph glyph-name="Rcaron" unicode="&#x158;" horiz-adv-x="1214" 
d="M586 641q176 0 288 86q112 87 113 241q0 154 -106 244t-291 91h-250v-660q70 -2 246 -2zM92 0v45h195v1258h-195v45h502q203 0 326 -104q122 -104 122 -260t-92 -252t-252 -126l355 -561h164v-45h-199l-373 600q-45 -4 -143 -4t-162 2v-553h199v-45h-447zM842 1726
l18 -20l-260 -244l-260 244l18 20l242 -180z" />
    <glyph glyph-name="rcaron" unicode="&#x159;" horiz-adv-x="669" 
d="M592 1272l18 -21l-260 -243l-260 243l19 21l241 -180zM520 856q54 0 76 -19t22 -43q-1 -51 -51 -53q-19 -1 -35 15t-16 45v8q-117 -8 -235 -207v-561h168v-41h-371v41h153v762h-153v41h201v-187q51 86 119 143q68 56 122 56z" />
    <glyph glyph-name="Sacute" unicode="&#x15a;" horiz-adv-x="1050" 
d="M525 -18q-177 0 -292 83t-114 179q0 35 16 54q17 19 39 19t38 -16t17 -39q0 -47 -47 -63q29 -70 122 -121q92 -51 238 -51t243 85t97 218t-111 215q-90 66 -206 112q-117 47 -169 73t-111 69q-117 85 -117 232q0 146 108 241q110 94 264 94t263 -77t108 -169
q0 -31 -16 -49q-15 -18 -37 -18t-39 15q-16 15 -16 47t41 54q-25 63 -111 107q-85 44 -207 45q-122 0 -216 -81t-93 -206q0 -125 114 -205q60 -41 104 -61t164 -70t227 -130q108 -80 108 -235t-116 -253t-293 -98zM790 1690q16 0 28 -12q11 -12 11 -29q0 -27 -47 -50
l-278 -126l-15 22l252 172q33 23 49 23z" />
    <glyph glyph-name="sacute" unicode="&#x15b;" horiz-adv-x="813" 
d="M643 1235q15 0 27 -12t12 -29q0 -27 -47 -49l-279 -127l-14 22l252 172q33 23 49 23zM137 225q49 0 49 -57q0 -29 -32 -39q24 -39 96 -70t178 -31t176 53q68 52 68 129t-48 117t-109 58q-61 17 -123 33q-203 51 -250 131q-22 37 -21 88q0 95 82 157t205 62q172 0 254 -86
q34 -35 34 -67q0 -62 -49 -62q-20 0 -34 14q-13 14 -13 41t29 43q-6 10 -21 21q-74 55 -192 55t-184 -50q-64 -50 -64 -130t74 -114t163 -57q89 -22 132 -38q122 -44 159 -113q23 -41 23 -98q0 -103 -85 -165t-226 -62q-190 0 -289 108q-31 35 -31 67q0 62 49 62z" />
    <glyph glyph-name="Scedilla" unicode="&#x15e;" horiz-adv-x="1050" 
d="M719 -275q0 -61 -47 -99t-140 -38t-182 41l15 35q83 -37 159 -37t112 28t36 71q0 92 -154 94q-18 0 -31 -2l-12 10l37 154q-170 2 -282 85t-111 177q0 35 16 54q17 19 39 19t38 -16t17 -39q0 -47 -47 -63q29 -70 122 -121q92 -51 238 -51t243 85t97 218t-111 215
q-90 66 -206 112q-117 47 -169 73t-111 69q-117 85 -117 232q0 146 108 241q110 94 264 94t263 -77t108 -169q0 -31 -16 -49q-15 -18 -37 -18t-39 15q-16 15 -16 47t41 54q-25 63 -111 107q-85 44 -207 45q-122 0 -216 -81t-93 -206q0 -125 114 -205q60 -41 104 -61t164 -70
t227 -130q108 -80 108 -233t-108 -249t-279 -104l-19 -123q90 -2 140 -37t51 -97z" />
    <glyph glyph-name="scedilla" unicode="&#x15f;" horiz-adv-x="813" 
d="M137 225q49 0 49 -57q0 -29 -32 -39q24 -39 96 -70t178 -31t176 53q68 52 68 129t-48 117t-109 58q-61 17 -123 33q-203 51 -250 131q-22 37 -21 88q0 95 82 157t205 62q172 0 254 -86q34 -35 34 -67q-1 -62 -49 -62q-20 0 -34 14q-13 14 -13 41t29 43q-6 10 -21 21
q-74 55 -192 55t-184 -50q-64 -50 -64 -130t74 -114t163 -57q89 -22 132 -38q122 -44 159 -113q23 -41 23 -98q0 -101 -81 -163t-218 -64l-19 -127q91 -2 141 -37t50 -97q0 -61 -47 -99t-140 -38t-182 41l15 35q84 -37 160 -37t111 28q36 28 36 71q0 92 -154 94
q-18 0 -31 -2l-12 10l37 158q-180 10 -266 108q-31 35 -31 67q0 62 49 62z" />
    <glyph glyph-name="Scaron" unicode="&#x160;" horiz-adv-x="1050" 
d="M525 -18q-177 0 -292 83t-114 179q0 35 16 54q17 19 39 19t38 -16t17 -39q0 -47 -47 -63q29 -70 122 -121q92 -51 238 -51t243 85t97 218t-111 215q-90 66 -206 112q-117 47 -169 73t-111 69q-117 85 -117 232q0 146 108 241q110 94 264 94t263 -77t108 -169
q0 -31 -16 -49q-15 -18 -37 -18t-39 15q-16 15 -16 47t41 54q-25 63 -111 107q-85 44 -207 45q-122 0 -216 -81t-93 -206q0 -125 114 -205q60 -41 104 -61t164 -70t227 -130q108 -80 108 -235t-116 -253t-293 -98zM805 1726l18 -20l-260 -244l-260 244l19 20l241 -180z" />
    <glyph glyph-name="scaron" unicode="&#x161;" horiz-adv-x="813" 
d="M657 1272l19 -21l-260 -243l-260 243l18 21l242 -180zM137 225q49 0 49 -57q0 -29 -32 -39q24 -39 96 -70t178 -31t176 53q68 52 68 129t-48 117t-109 58q-61 17 -123 33q-203 51 -250 131q-22 37 -21 88q0 95 82 157t205 62q172 0 254 -86q34 -35 34 -67q0 -62 -49 -62
q-20 0 -34 14q-13 14 -13 41t29 43q-6 10 -21 21q-74 55 -192 55t-184 -50q-64 -50 -64 -130t74 -114t163 -57q89 -22 132 -38q122 -44 159 -113q23 -41 23 -98q0 -103 -85 -165t-226 -62q-190 0 -289 108q-31 35 -31 67q0 62 49 62z" />
    <glyph glyph-name="Tcommaaccent" unicode="&#x162;" horiz-adv-x="1261" 
d="M395 0v45h209v1258h-465v-261h-51v306h1086v-306h-52v261h-465v-1258h209v-45h-471zM632 -125q60 -1 60 -103q0 -58 -42 -124q-42 -68 -111 -109l-13 21q111 96 115 200q-66 4 -66 62q-1 23 15 38t42 15z" />
    <glyph glyph-name="tcommaaccent" unicode="&#x163;" horiz-adv-x="577" 
d="M233 190q0 -160 127 -159q68 0 152 51l-8 -49q-70 -45 -146 -45q-171 0 -174 198v617h-155v41h155v233l49 15v-248h279v-41h-279v-613zM258 -178q0 23 15 38t41 15q26 -1 43 -23t17 -80t-42 -124q-43 -68 -111 -109l-12 21q111 96 115 200q-66 4 -66 62z" />
    <glyph glyph-name="Tcaron" unicode="&#x164;" horiz-adv-x="1261" 
d="M395 0v45h209v1258h-465v-261h-51v306h1086v-306h-52v261h-465v-1258h209v-45h-471zM872 1726l19 -20l-260 -244l-260 244l18 20l242 -180z" />
    <glyph glyph-name="tcaron" unicode="&#x165;" horiz-adv-x="577" 
d="M233 190q0 -160 127 -159q68 0 152 51l-8 -49q-70 -45 -146 -45q-171 0 -174 198v617h-155v41h155v233l49 15v-248h279v-41h-279v-613zM403 1204l-6 94q0 49 39 50q39 0 39 -54q1 -156 -108 -301l-21 15q57 102 57 196z" />
    <glyph glyph-name="Umacron" unicode="&#x16a;" horiz-adv-x="1402" 
d="M420 1536v49h561v-49h-561zM1149 465q0 -233 -116 -359t-332 -126q-215 0 -331 126t-116 359v838h-195v45h447v-45h-199v-834q1 -217 101 -331t294 -113q395 0 396 444v834h-201v45h446v-45h-194v-838z" />
    <glyph glyph-name="umacron" unicode="&#x16b;" horiz-adv-x="1071" 
d="M248 1081v49h561v-49h-561zM465 -12q-254 0 -254 293v522h-154v41h203v-559q0 -100 29 -158q47 -96 182 -96q170 0 334 209v563h-152v41h201v-803h154v-41h-201v190q-158 -202 -342 -202z" />
    <glyph glyph-name="Ubreve" unicode="&#x16c;" horiz-adv-x="1402" 
d="M700 1473q-88 0 -158 55t-102 143l35 17q71 -154 225 -154t226 154l35 -17q-33 -88 -103 -143t-158 -55zM1149 465q0 -233 -116 -359t-332 -126q-215 0 -331 126t-116 359v838h-195v45h447v-45h-199v-834q1 -217 101 -331t294 -113q395 0 396 444v834h-201v45h446v-45
h-194v-838z" />
    <glyph glyph-name="ubreve" unicode="&#x16d;" horiz-adv-x="1071" 
d="M528 1018q-88 0 -158 55t-102 144l35 16q71 -154 225 -154t226 154l34 -16q-33 -88 -102 -144q-70 -55 -158 -55zM465 -12q-254 0 -254 293v522h-154v41h203v-559q0 -100 29 -158q47 -96 182 -96q170 0 334 209v563h-152v41h201v-803h154v-41h-201v190
q-158 -202 -342 -202z" />
    <glyph glyph-name="Uring" unicode="&#x16e;" horiz-adv-x="1402" 
d="M1149 465q0 -233 -116 -359t-332 -126q-215 0 -331 126t-116 359v838h-195v45h447v-45h-199v-834q1 -217 101 -331t294 -113q395 0 396 444v834h-201v45h446v-45h-194v-838zM700 1499q55 0 90 38q34 38 33 93q0 55 -35 94t-88 39t-88 -39q-34 -39 -34 -94t34 -93t88 -38z
M700 1458q-74 0 -122 50t-50 122q0 72 50 123t122 51q74 0 123 -51t49 -123t-49 -122t-123 -50z" />
    <glyph glyph-name="uring" unicode="&#x16f;" horiz-adv-x="1071" 
d="M465 -12q-254 0 -254 293v522h-154v41h203v-559q0 -100 29 -158q47 -96 182 -96q170 0 334 209v563h-152v41h201v-803h154v-41h-201v190q-158 -202 -342 -202zM528 1044q55 0 89 38t34 94t-35 94q-35 39 -88 39t-88 -39q-34 -39 -34 -94t33 -94q34 -38 89 -38zM528 1004
q-74 0 -122 50t-50 122q0 72 50 122t122 52q74 0 123 -52t49 -122q0 -72 -49 -122t-123 -50z" />
    <glyph glyph-name="Uhungarumlaut" unicode="&#x170;" horiz-adv-x="1402" 
d="M1161 1657q0 -29 -51 -51l-276 -127l-15 18l252 176q52 36 79 9q11 -11 11 -25zM785 1702q17 0 29 -11t13 -26q0 -27 -47 -51l-270 -144l-14 19l241 188q31 25 48 25zM1149 465q0 -233 -116 -359t-332 -126q-215 0 -331 126t-116 359v838h-195v45h447v-45h-199v-834
q1 -217 101 -331t294 -113q395 0 396 444v834h-201v45h446v-45h-194v-838z" />
    <glyph glyph-name="uhungarumlaut" unicode="&#x171;" horiz-adv-x="1071" 
d="M947 1239q19 0 31 -11t11 -26q0 -29 -51 -51l-276 -127l-15 18l252 177q29 20 48 20zM655 1210q0 -27 -47 -51l-270 -143l-14 18l241 189q48 39 78 13q12 -11 12 -26zM465 -12q-254 0 -254 293v522h-154v41h203v-559q0 -100 29 -158q47 -96 182 -96q170 0 334 209v563
h-152v41h201v-803h154v-41h-201v190q-158 -202 -342 -202z" />
    <glyph glyph-name="Uogonek" unicode="&#x172;" horiz-adv-x="1402" 
d="M747 -412q-85 0 -134 46q-48 46 -48 120q0 131 133 226q-216 2 -330 126t-114 359v838h-195v45h447v-45h-199v-834q1 -217 101 -331t294 -113q395 0 396 444v834h-201v45h446v-45h-194v-838q0 -213 -97 -337t-282 -144q-160 -92 -160 -226q0 -57 38 -93t107 -36t140 45
l-4 -36q-59 -50 -144 -50z" />
    <glyph glyph-name="uogonek" unicode="&#x173;" horiz-adv-x="1071" 
d="M465 -12q-254 0 -254 293v522h-154v41h203v-559q0 -100 29 -158q47 -96 182 -96q170 0 334 209v563h-152v41h201v-803h154v-41h-136q-92 -46 -140 -110t-48 -126t38 -99q38 -36 106 -36t141 45l-4 -36q-59 -50 -145 -50t-133 46q-48 46 -48 120q0 150 168 248v188
q-158 -202 -342 -202z" />
    <glyph glyph-name="Wcircumflex" unicode="&#x174;" horiz-adv-x="1947" 
d="M12 1303v45h428v-45h-194l358 -1248l354 1098h33l357 -1098l358 1248h-201v45h430v-45h-178l-393 -1332h-35l-356 1088l-355 -1088h-34l-394 1332h-178zM731 1456l-18 21l260 243l260 -243l-19 -21l-241 180z" />
    <glyph glyph-name="wcircumflex" unicode="&#x175;" horiz-adv-x="1323" 
d="M-4 803v41h346v-41h-164l201 -740l272 676h23l272 -676l201 740h-166v41h346v-41h-133l-233 -838h-23l-276 692l-277 -692h-23l-233 838h-133zM420 1001l-19 21l261 244l260 -244l-19 -21l-241 181z" />
    <glyph glyph-name="Ycircumflex" unicode="&#x176;" horiz-adv-x="1286" 
d="M399 1460l-18 21l260 243l260 -243l-18 -21l-242 180zM399 0v45h217v528l-430 730h-159v45h409v-45h-188l397 -689l395 689h-188v45h408v-45h-162l-428 -730v-528h215v-45h-486z" />
    <glyph glyph-name="ycircumflex" unicode="&#x177;" horiz-adv-x="954" 
d="M238 1006l-19 20l260 244l260 -244l-18 -20l-242 180zM51 -344q1 24 15 38t40 15q26 -1 39 -25q14 -24 5 -55q96 0 169 117q37 55 82 160l52 121l-326 776h-131v41h346v-41h-162l295 -729l307 729h-166v41h345v-41h-132l-393 -918q-35 -83 -80 -157q-86 -137 -209 -138
q-45 0 -71 20q-26 22 -25 46z" />
    <glyph glyph-name="Ydieresis" unicode="&#x178;" horiz-adv-x="1286" 
d="M524 1507q-23 -1 -38 15t-15 39t15 39t38 16t38 -16q16 -16 16 -40q0 -22 -16 -38t-38 -15zM758 1507q-23 -1 -38 15t-15 39t15 39t38 16t38 -16t15 -40q0 -22 -15 -38t-38 -15zM399 0v45h217v528l-430 730h-159v45h409v-45h-188l397 -689l395 689h-188v45h408v-45h-162
l-428 -730v-528h215v-45h-486z" />
    <glyph glyph-name="Zacute" unicode="&#x179;" horiz-adv-x="1165" 
d="M82 0v25l903 1278h-805v-250h-51v295h930v-25l-903 -1278h872v250h51v-295h-997zM809 1690q15 0 27 -12t12 -29q0 -27 -47 -50l-279 -126l-14 22l252 172q33 23 49 23z" />
    <glyph glyph-name="zacute" unicode="&#x17a;" horiz-adv-x="784" 
d="M59 0v23l590 780h-506v-178h-49v219h621v-23l-592 -780h553v176h47v-217h-664zM622 1235q16 0 28 -12q11 -12 12 -29q0 -27 -48 -49l-278 -127l-14 22l251 172q33 23 49 23z" />
    <glyph glyph-name="Zdotaccent" unicode="&#x17b;" horiz-adv-x="1165" 
d="M582 1503q-25 -1 -41 17q-17 18 -17 42t16 42t42 18q25 0 41 -18t16 -42t-16 -42t-41 -17zM82 0v25l903 1278h-805v-250h-51v295h930v-25l-903 -1278h872v250h51v-295h-997z" />
    <glyph glyph-name="zdotaccent" unicode="&#x17c;" horiz-adv-x="784" 
d="M393 1049q-25 0 -41 17t-16 41t16 42t41 18t41 -18t16 -42t-16 -41t-41 -17zM59 0v23l590 780h-506v-178h-49v219h621v-23l-592 -780h553v176h47v-217h-664z" />
    <glyph glyph-name="Zcaron" unicode="&#x17d;" horiz-adv-x="1165" 
d="M82 0v25l903 1278h-805v-250h-51v295h930v-25l-903 -1278h872v250h51v-295h-997zM823 1726l19 -20l-260 -244l-260 244l18 20l242 -180z" />
    <glyph glyph-name="zcaron" unicode="&#x17e;" horiz-adv-x="784" 
d="M59 0v23l590 780h-506v-178h-49v219h621v-23l-592 -780h553v176h47v-217h-664zM635 1272l18 -21l-260 -243l-260 243l19 21l241 -180z" />
    <glyph glyph-name="Aringacute" unicode="&#x1fa;" horiz-adv-x="1423" 
d="M590 1476q0 -56 34 -94t88 -39q54 0 89 39q35 38 35 94t-35 95t-88 39t-88 -39t-35 -95zM434 559h555l-276 750zM885 1471q0 -78 -70 -123h135v-45h-182l467 -1258h162v-45h-412v45h193l-172 469h-588l-174 -469h196v-45h-411v45h159l469 1258h-184v45h135
q-68 45 -68 124q0 80 50 128q49 48 123 48t123 -49q49 -50 49 -128zM936 1956q16 0 28 -12t11 -29q0 -27 -47 -49l-279 -127l-14 22l252 172q33 23 49 23z" />
    <glyph glyph-name="aringacute" unicode="&#x1fb;" horiz-adv-x="940" 
d="M465 1044q55 0 89 38t34 94t-35 94q-35 39 -88 39t-88 -39t-35 -94q0 -56 34 -94t89 -38zM465 1004q-74 0 -123 50t-49 122t49 122t123 52q74 0 123 -52t49 -122q0 -72 -49 -122t-123 -50zM690 1688q16 0 28 -12t11 -29q0 -25 -47 -50l-279 -127l-14 23l252 172
q33 23 49 23zM369 29q174 0 311 155v209q-134 45 -270 45t-204 -61t-69 -145q1 -84 59 -144q58 -59 173 -59zM371 -12q-133 0 -208 68t-75 176t86 178t230 70t276 -50v164q0 90 -45 143q-63 80 -210 80t-212 -82q25 -17 25 -45t-14 -42t-34 -15q-49 0 -49 57q0 58 80 112
q79 54 229 54t224 -90q55 -66 55 -168v-557h152v-41h-199v139q-135 -151 -311 -151z" />
    <glyph glyph-name="AEacute" unicode="&#x1fc;" horiz-adv-x="1708" 
d="M829 561v742h-20l-385 -742h405zM-63 0v45h163l656 1258h-185v45h994v-295h-52v250h-630v-590h495v-47h-495v-621h630v250h52v-295h-932v45h196v471h-430l-243 -471h168v-45h-387zM1157 1690q15 0 27 -12t12 -29q0 -27 -47 -50l-279 -126l-14 22l252 172q33 23 49 23z
" />
    <glyph glyph-name="aeacute" unicode="&#x1fd;" horiz-adv-x="1525" 
d="M962 1235q16 0 28 -12q11 -12 11 -29q0 -27 -47 -49l-278 -127l-14 22l251 172q33 23 49 23zM1070 815q-142 0 -240 -98t-109 -248h663q-2 147 -86 247q-86 100 -228 99zM369 29q207 0 354 178q-41 86 -43 186q-142 45 -274 45t-200 -61t-69 -145q1 -84 59 -144
q58 -59 173 -59zM424 817q-146 0 -211 -82q25 -17 25 -45t-14 -42t-34 -15q-49 0 -49 57q0 58 80 112q81 54 227 54t220 -88q45 -53 51 -141q47 105 138 167t204 62q174 0 273 -115t100 -280q0 -25 -2 -33h-711q0 -190 101 -294q100 -104 268 -105q168 0 303 98l-4 -49
q-131 -90 -297 -90q-244 0 -353 184q-154 -184 -368 -184q-133 0 -208 68t-75 176t86 178t230 70t276 -50v164q0 90 -45 143q-65 80 -211 80z" />
    <glyph glyph-name="Oslashacute" unicode="&#x1fe;" horiz-adv-x="1572" 
d="M1014 1690q16 0 27 -12t12 -29q0 -27 -47 -50l-279 -126l-14 22l252 172q33 23 49 23zM786 1323q-264 1 -439 -187t-175 -463t174 -460l832 969q-168 141 -392 141zM798 25q252 0 428 187q175 187 175 468t-191 471l-833 -969q169 -157 421 -157zM800 -20
q-270 0 -454 163l-176 -202l-33 28l176 207q-197 201 -197 495q0 293 194 495q192 202 476 202q242 0 422 -151l166 192l33 -29l-166 -192q215 -203 215 -504t-192 -503q-194 -201 -464 -201z" />
    <glyph glyph-name="oslashacute" unicode="&#x1ff;" horiz-adv-x="1032" 
d="M741 1235q15 0 27 -12t12 -29q0 -27 -47 -49l-278 -127l-15 22l252 172q33 23 49 23zM141 422q0 -168 105 -279l508 586q-102 86 -251 86q-149 -1 -255 -113t-107 -280zM526 29q152 1 257 113t106 280q0 168 -107 280l-506 -587q98 -86 250 -86zM528 -12q-168 0 -282 92
l-105 -121l-30 29l104 118q-123 124 -123 312t122 313t289 125t281 -92l109 129l31 -29l-111 -127q127 -123 127 -311t-122 -313t-290 -125z" />
    <glyph glyph-name="Scommaaccent" unicode="&#x218;" horiz-adv-x="1050" 
d="M525 -18q-177 0 -292 83t-114 179q0 35 16 54q17 19 39 19t38 -16t17 -39q0 -47 -47 -63q29 -70 122 -121q92 -51 238 -51t243 85t97 218t-111 215q-90 66 -206 112q-117 47 -169 73t-111 69q-117 85 -117 232q0 146 108 241q110 94 264 94t263 -77t108 -169
q0 -31 -16 -49q-15 -18 -37 -18t-39 15q-16 15 -16 47t41 54q-25 63 -111 107q-85 44 -207 45q-122 0 -216 -81t-93 -206q0 -125 114 -205q60 -41 104 -61t164 -70t227 -130q108 -80 108 -235t-116 -253t-293 -98zM556 -125q60 -1 60 -103q0 -58 -42 -124q-42 -68 -111 -109
l-12 21q111 96 114 200q-66 4 -65 62q0 23 15 38t41 15z" />
    <glyph glyph-name="scommaaccent" unicode="&#x219;" horiz-adv-x="813" 
d="M417 -125q60 -1 60 -103q-1 -58 -43 -124q-42 -68 -110 -109l-13 21q111 96 115 200q-66 4 -66 62q0 23 16 38t41 15zM137 225q49 0 49 -57q0 -29 -32 -39q24 -39 96 -70t178 -31t176 53q68 52 68 129t-48 117t-109 58q-61 17 -123 33q-203 51 -250 131q-22 37 -21 88
q0 95 82 157t205 62q172 0 254 -86q34 -35 34 -67q0 -62 -49 -62q-20 0 -34 14q-13 14 -13 41t29 43q-6 10 -21 21q-74 55 -192 55t-184 -50q-64 -50 -64 -130t74 -114t163 -57q89 -22 132 -38q122 -44 159 -113q23 -41 23 -98q0 -103 -85 -165t-226 -62q-190 0 -289 108
q-31 35 -31 67q0 62 49 62z" />
    <glyph glyph-name="schwa" unicode="&#x259;" horiz-adv-x="950" 
d="M456 29q144 0 241 97t110 249h-666q2 -147 87 -247q84 -100 228 -99zM860 426q0 -192 -116 -315t-284 -123q-167 0 -267 114t-101 281q0 25 2 33h715q-2 188 -104 294q-103 106 -271 105q-168 0 -301 -100l4 51q131 90 308 90t296 -119t119 -311z" />
    <glyph glyph-name="circumflex" unicode="&#x2c6;" horiz-adv-x="1036" 
d="M276 1006l-18 20l260 244l260 -244l-18 -20l-242 180z" />
    <glyph glyph-name="caron" unicode="&#x2c7;" horiz-adv-x="1036" 
d="M760 1272l18 -21l-260 -243l-260 243l18 21l242 -180z" />
    <glyph glyph-name="breve" unicode="&#x2d8;" horiz-adv-x="1036" 
d="M518 1018q-88 0 -158 55t-102 144l35 16q71 -154 225 -154t225 154l35 -16q-33 -88 -102 -144q-70 -55 -158 -55z" />
    <glyph glyph-name="dotaccent" unicode="&#x2d9;" horiz-adv-x="1036" 
d="M518 1049q-25 0 -41 17t-16 41t16 42t41 18t41 -18t16 -42t-16 -41t-41 -17z" />
    <glyph glyph-name="ring" unicode="&#x2da;" horiz-adv-x="1036" 
d="M518 1044q55 0 89 38t34 94t-35 94q-35 39 -88 39t-88 -39t-35 -94q0 -56 34 -94t89 -38zM518 1004q-74 0 -123 50t-49 122t49 122t123 52q74 0 123 -52t49 -122q0 -72 -49 -122t-123 -50z" />
    <glyph glyph-name="ogonek" unicode="&#x2db;" horiz-adv-x="1036" 
d="M491 -412q-85 0 -134 46q-48 46 -48 125q-1 79 61 154t169 120l61 -8q-121 -45 -183 -117q-63 -72 -63 -140t38 -103q38 -36 107 -36t140 45l-4 -36q-59 -50 -144 -50z" />
    <glyph glyph-name="tilde" unicode="&#x2dc;" horiz-adv-x="1036" 
d="M662 1022q-66 0 -156 70q-84 61 -129 61t-72 -29t-49 -94l-35 8q37 168 154 168q69 0 151 -65q139 -110 205 -38q27 28 49 93l35 -8q-36 -166 -153 -166z" />
    <glyph glyph-name="hungarumlaut" unicode="&#x2dd;" horiz-adv-x="1036" 
d="M888 1239q18 0 30 -11t12 -26q0 -29 -51 -51l-277 -127l-14 18l252 177q29 20 48 20zM596 1210q0 -27 -47 -51l-270 -143l-15 18l242 189q48 39 78 13q12 -11 12 -26z" />
    <glyph glyph-name="commaaccent" unicode="&#x326;" horiz-adv-x="448" 
d="M202 -125q60 -1 60 -103q0 -58 -42 -124q-42 -68 -111 -109l-13 21q111 96 115 200q-66 4 -66 62q-1 23 15 38t42 15z" />
    <glyph glyph-name="Wgrave" unicode="&#x1e80;" horiz-adv-x="1947" 
d="M707 1645q0 16 11 28q24 26 77 -10l252 -172l-15 -23l-278 127q-47 23 -47 50zM12 1303v45h428v-45h-194l358 -1248l354 1098h33l357 -1098l358 1248h-201v45h430v-45h-178l-393 -1332h-35l-356 1088l-355 -1088h-34l-394 1332h-178z" />
    <glyph glyph-name="wgrave" unicode="&#x1e81;" horiz-adv-x="1323" 
d="M393 1190q0 16 11 28q12 12 28 13q16 0 49 -23l252 -172l-14 -22l-279 127q-47 23 -47 49zM-4 803v41h346v-41h-164l201 -740l272 676h23l272 -676l201 740h-166v41h346v-41h-133l-233 -838h-23l-276 692l-277 -692h-23l-233 838h-133z" />
    <glyph glyph-name="Wacute" unicode="&#x1e82;" horiz-adv-x="1947" 
d="M12 1303v45h428v-45h-194l358 -1248l354 1098h33l357 -1098l358 1248h-201v45h430v-45h-178l-393 -1332h-35l-356 1088l-355 -1088h-34l-394 1332h-178zM1200 1686q16 0 28 -12t11 -29q0 -27 -47 -50l-279 -127l-14 23l252 172q33 23 49 23z" />
    <glyph glyph-name="wacute" unicode="&#x1e83;" horiz-adv-x="1323" 
d="M-4 803v41h346v-41h-164l201 -740l272 676h23l272 -676l201 740h-166v41h346v-41h-133l-233 -838h-23l-276 692l-277 -692h-23l-233 838h-133zM889 1231q16 0 27 -12t12 -29q0 -27 -47 -49l-279 -127l-14 22l252 172q33 23 49 23z" />
    <glyph glyph-name="Wdieresis" unicode="&#x1e84;" horiz-adv-x="1947" 
d="M12 1303v45h428v-45h-194l358 -1248l354 1098h33l357 -1098l358 1248h-201v45h430v-45h-178l-393 -1332h-35l-356 1088l-355 -1088h-34l-394 1332h-178zM856 1503q-23 -1 -38 15t-15 38t15 39t38 17t38 -16t15 -40q0 -23 -15 -38t-38 -15zM1090 1503q-23 -1 -38 15
q-16 16 -16 38t16 39t38 17q24 0 38 -16t14 -40q0 -23 -14 -38q-15 -15 -38 -15z" />
    <glyph glyph-name="wdieresis" unicode="&#x1e85;" horiz-adv-x="1323" 
d="M-4 803v41h346v-41h-164l201 -740l272 676h23l272 -676l201 740h-166v41h346v-41h-133l-233 -838h-23l-276 692l-277 -692h-23l-233 838h-133zM545 1049q-23 0 -38 15t-15 38t15 39t38 16t38 -16t15 -39t-15 -38t-38 -15zM778 1049q-23 0 -38 15t-15 38t15 39t38 16
t38 -16t15 -39t-15 -38t-38 -15z" />
    <glyph glyph-name="Ygrave" unicode="&#x1ef2;" horiz-adv-x="1286" 
d="M375 1649q0 16 11 28q24 27 77 -10l252 -172l-15 -22l-278 126q-47 23 -47 50zM399 0v45h217v528l-430 730h-159v45h409v-45h-188l397 -689l395 689h-188v45h408v-45h-162l-428 -730v-528h215v-45h-486z" />
    <glyph glyph-name="ygrave" unicode="&#x1ef3;" horiz-adv-x="954" 
d="M213 1194q0 16 11 28q12 12 28 13q16 0 49 -23l252 -172l-14 -22l-279 127q-47 23 -47 49zM51 -344q1 24 15 38t40 15q26 -1 39 -25q14 -24 5 -55q96 0 169 117q37 55 82 160l52 121l-326 776h-131v41h346v-41h-162l295 -729l307 729h-166v41h345v-41h-132l-393 -918
q-35 -83 -80 -157q-86 -137 -209 -138q-45 0 -71 20q-26 22 -25 46z" />
    <glyph glyph-name="enspace" unicode="&#x2002;" horiz-adv-x="1024" 
 />
    <glyph glyph-name="emspace" unicode="&#x2003;" horiz-adv-x="2048" 
 />
    <glyph glyph-name="threeperemspace" unicode="&#x2004;" horiz-adv-x="681" 
 />
    <glyph glyph-name="fourperemspace" unicode="&#x2005;" horiz-adv-x="512" 
 />
    <glyph glyph-name="figurespace" unicode="&#x2007;" horiz-adv-x="1085" 
 />
    <glyph glyph-name="thinspace" unicode="&#x2009;" horiz-adv-x="272" 
 />
    <glyph glyph-name="hairspace" unicode="&#x200a;" horiz-adv-x="153" 
 />
    <glyph glyph-name="endash" unicode="&#x2013;" horiz-adv-x="806" 
d="M39 528v50h729v-50h-729z" />
    <glyph glyph-name="emdash" unicode="&#x2014;" horiz-adv-x="1341" 
d="M39 528v50h1261v-50h-1261z" />
    <glyph glyph-name="quoteleft" unicode="&#x2018;" horiz-adv-x="317" 
d="M156 1022q-27 0 -45 24t-19 62q0 170 160 281l14 -23q-119 -111 -119 -227q68 -4 68 -62q0 -23 -16 -39t-43 -16z" />
    <glyph glyph-name="quoteright" unicode="&#x2019;" horiz-adv-x="317" 
d="M104 1323q0 23 16 39t44 16q27 0 45 -24t18 -62q1 -165 -159 -280l-15 22q117 109 119 228q-68 4 -68 61z" />
    <glyph glyph-name="quotesinglbase" unicode="&#x201a;" horiz-adv-x="309" 
d="M153 106q62 0 62 -102q0 -56 -43 -124t-111 -109l-12 20q109 96 115 201q-31 2 -49 18q-19 16 -19 40t16 40t41 16z" />
    <glyph glyph-name="quotedblleft" unicode="&#x201c;" horiz-adv-x="571" 
d="M156 1022q-27 0 -45 24t-19 62q0 170 160 281l14 -23q-119 -111 -119 -227q68 -4 68 -62q0 -23 -16 -39t-43 -16zM408 1022q-27 0 -46 24q-18 24 -18 62q0 166 160 281l14 -23q-117 -113 -117 -227q66 -4 66 -62q0 -23 -16 -39t-43 -16z" />
    <glyph glyph-name="quotedblright" unicode="&#x201d;" horiz-adv-x="571" 
d="M104 1323q0 23 16 39t44 16q27 0 45 -24t18 -62q1 -165 -159 -280l-15 22q117 109 119 228q-68 4 -68 61zM358 1323q0 23 16 39t44 16q27 0 45 -24t18 -62q1 -165 -159 -280l-15 22q117 113 119 228q-68 4 -68 61z" />
    <glyph glyph-name="quotedblbase" unicode="&#x201e;" horiz-adv-x="557" 
d="M153 106q62 0 62 -102q0 -56 -43 -124t-111 -109l-12 20q109 96 115 201q-31 2 -49 18q-19 16 -19 40t16 40t41 16zM344 51q0 23 15 39t41 16t43 -22t17 -80q0 -56 -42 -124q-43 -68 -111 -109l-12 20q111 94 117 201q-68 4 -68 59z" />
    <glyph glyph-name="dagger" unicode="&#x2020;" horiz-adv-x="806" 
d="M92 778q-25 0 -39 16t-14 37q0 66 67 66q10 0 44 -4l237 -45l-20 358q-4 46 3 66q8 20 34 20t33 -19t3 -67l-22 -358l239 45q33 4 43 4q68 0 68 -66q0 -20 -15 -36t-40 -17q-53 0 -54 66l-231 -21l-12 -827h-27l-10 827l-234 21q0 -66 -53 -66z" />
    <glyph glyph-name="daggerdbl" unicode="&#x2021;" horiz-adv-x="806" 
d="M403 -256q-27 0 -33 19t-3 69l20 297l-219 -43q-25 -6 -43 -6q-68 0 -68 67q1 21 15 37t39 17q53 0 53 -68l215 21l10 364l-10 367l-215 20q0 -68 -53 -67q-25 0 -39 16t-15 37q0 66 68 65q27 0 43 -4l219 -43l-20 297q-4 46 3 66q8 20 34 20t32 -19t2 -67l-20 -297
l221 43q16 4 43 4q68 0 68 -65q0 -21 -16 -37t-40 -16q-25 0 -39 19t-14 48l-213 -20l-12 -367l12 -364l213 -21q0 29 14 48t39 19t40 -16t16 -37q0 -68 -68 -67q-18 0 -43 6l-221 43l20 -297q4 -48 -2 -68t-33 -20z" />
    <glyph glyph-name="bullet" unicode="&#x2022;" horiz-adv-x="483" 
d="M241 395q-62 0 -108 45q-45 45 -45 111t45 111t107 45t108 -44q45 -44 45 -112t-45 -112t-107 -44z" />
    <glyph glyph-name="ellipsis" unicode="&#x2026;" horiz-adv-x="950" 
d="M171 -16q-26 0 -43 17t-17 44t17 44t43 17t43 -17t17 -44t-17 -44t-43 -17zM475 -16q-25 0 -42 17t-17 44t17 44t42 17t42 -17t17 -44t-16 -44q-18 -17 -43 -17zM779 -16q-26 0 -42 17t-16 44t16 44t42 17t43 -17q18 -17 18 -44t-18 -44t-43 -17z" />
    <glyph glyph-name="perthousand" unicode="&#x2030;" horiz-adv-x="1722" 
d="M1389 29q73 0 119 54t46 134t-46 134q-46 55 -120 55t-119 -54q-46 -54 -46 -135q0 -80 46 -134t120 -54zM1389 -12q-92 0 -155 67q-62 68 -63 162q1 94 63 162q62 67 154 67t155 -68t63 -161t-62 -161t-155 -68zM881 29q73 0 119 54t47 134q-1 80 -47 134
q-46 55 -120 55t-119 -54q-46 -54 -46 -135q0 -80 46 -134t120 -54zM881 -12q-92 0 -155 67q-62 68 -62 162t62 162q62 67 154 67t155 -68t63 -161t-62 -161t-155 -68zM334 612q74 0 120 56t46 134q0 79 -46 134t-120 55t-121 -56t-47 -134q0 -77 47 -133t121 -56zM221 -35
l-37 25l396 514l393 518l37 -27l-396 -514zM334 573q-92 0 -155 67q-62 67 -62 162t62 162q63 66 155 66t154 -66t62 -162q0 -95 -62 -162t-154 -67z" />
    <glyph glyph-name="guilsinglleft" unicode="&#x2039;" horiz-adv-x="509" 
d="M403 227l-342 318l342 317l27 -31l-305 -286l305 -287z" />
    <glyph glyph-name="guilsinglright" unicode="&#x203a;" horiz-adv-x="509" 
d="M109 227l-29 31l305 287l-305 286l29 31l342 -317z" />
    <glyph glyph-name="fraction" unicode="&#x2044;" horiz-adv-x="974" 
d="M106 -20l-34 18q328 535 403 659l404 666l32 -18q-6 -12 -167 -275t-238 -395z" />
    <glyph glyph-name="zero.sup" unicode="&#x2070;" 
d="M360 909q100 -1 166 95t66 250t-65 248q-65 95 -165 95t-166 -95t-65 -249t65 -249t164 -95zM637 1254q0 -172 -78 -278t-198 -106q-119 0 -197 106t-78 277t78 277t198 106t197 -105q78 -105 78 -277z" />
    <glyph glyph-name="four.sup" unicode="&#x2074;" 
d="M319 883v37h144v188h-377l-8 16l405 510l33 -24l-377 -467h324v213l41 16v-229h139v-35h-139v-188h117v-37h-302z" />
    <glyph glyph-name="five.sup" unicode="&#x2075;" 
d="M356 868q-106 0 -176 41t-69 95q0 18 12 30t29 13q37 0 36 -37q0 -23 -20 -31q36 -71 197 -71q81 0 145 56t63 143q0 87 -58 137q-59 50 -159 50t-182 -43l-22 13l41 360h378v-41h-344l-30 -283q82 33 180 33t169 -59q70 -58 70 -164t-76 -174q-78 -68 -184 -68z" />
    <glyph glyph-name="six.sup" unicode="&#x2076;" 
d="M376 1300q-94 0 -156 -56t-62 -139t58 -141t152 -57q95 -1 156 57t62 142q0 84 -58 139t-152 55zM143 1204v-22q16 47 52 82q73 74 185 74t180 -66t69 -165q0 -99 -74 -169q-73 -70 -187 -70t-190 77t-76 273t88 308q88 113 216 112q100 0 155 -55q29 -28 29 -61
q0 -43 -39 -43t-39 37q0 18 18 32q-35 53 -135 53q-100 1 -176 -103t-76 -294z" />
    <glyph glyph-name="seven.sup" unicode="&#x2077;" 
d="M162 1587v-133h-41v170h502l8 -18l-342 -723h-45l336 704h-418z" />
    <glyph glyph-name="eight.sup" unicode="&#x2078;" 
d="M361 909q95 0 157 46t62 121t-64 124t-154 49q-92 0 -154 -49t-62 -124t60 -121t155 -46zM360 1284q82 0 142 44q59 44 59 114t-57 112q-58 42 -144 43q-86 0 -142 -43q-56 -42 -56 -112t58 -114t140 -44zM361 870q-113 0 -187 56t-74 138q0 81 54 135t137 69
q-76 16 -124 65t-48 124t69 126q70 51 172 51t174 -51t72 -125t-49 -124t-127 -66q84 -14 138 -68t54 -137q0 -81 -73 -137q-74 -56 -188 -56z" />
    <glyph glyph-name="nine.sup" unicode="&#x2079;" 
d="M565 1402q1 83 -57 140t-153 57t-156 -57t-61 -141t58 -139q58 -56 151 -56t155 56t63 140zM211 989q0 -18 -21 -33l7 -6q37 -45 120 -45q111 1 187 105t76 293v20q-14 -43 -52 -80q-74 -74 -186 -74t-180 66t-68 165t74 169q74 69 188 69t189 -76q76 -76 76 -272
q-1 -196 -89 -309t-215 -113q-100 0 -155 56q-29 29 -29 54q0 50 39 50q16 0 28 -10q11 -11 11 -29z" />
    <glyph glyph-name="zero.inf" unicode="&#x2080;" 
d="M360 -258q100 0 166 95t66 249t-65 249t-165 95t-166 -95t-65 -249t65 -249t164 -95zM637 88q0 -172 -78 -278t-198 -107q-119 -1 -197 105t-78 278t78 278t198 105q120 0 197 -105q78 -104 78 -276z" />
    <glyph glyph-name="one.inf" unicode="&#x2081;" 
d="M147 -285v39h211v660l-206 -54l-11 39l238 62h22v-707h207v-39h-461z" />
    <glyph glyph-name="two.inf" unicode="&#x2082;" 
d="M176 242q-45 0 -45 59t68 115t171 55q103 0 170 -55q66 -54 66 -136t-50 -137t-161 -125q-188 -117 -233 -266h413v139h41v-176h-491l-14 21q53 182 260 311q98 63 144 113t46 118q0 66 -53 111t-133 45t-134 -35t-63 -75q35 -10 35 -41q0 -17 -11 -29t-26 -12z" />
    <glyph glyph-name="three.inf" unicode="&#x2083;" 
d="M209 309q0 -37 -37 -39q-41 0 -41 52t68 100t170 47q102 0 168 -51q65 -51 65 -125t-56 -126t-138 -65q98 -12 156 -64t58 -134t-73 -142t-179 -59q-106 0 -184 45q-78 46 -78 102t40 56q39 0 38 -37q1 -29 -26 -39q14 -34 72 -62t141 -28t145 49t62 124t-68 121t-186 48
h-39v37h41q98 0 165 48t67 116q0 69 -55 109q-54 40 -130 40t-127 -26t-66 -60q27 -12 27 -37z" />
    <glyph glyph-name="four.inf" unicode="&#x2084;" 
d="M319 -285v37h144v189h-377l-8 16l405 510l33 -25l-377 -467h324v213l41 17v-230h139v-34h-139v-189h117v-37h-302z" />
    <glyph glyph-name="five.inf" unicode="&#x2085;" 
d="M377 166q98 0 169 -60q70 -60 70 -164q0 -105 -76 -173t-184 -68q-106 0 -176 41t-69 94q0 18 12 30t29 13q37 0 36 -37q0 -23 -20 -30q16 -32 66 -52t110 -20q102 0 166 56q63 56 63 144t-58 137q-59 50 -159 50t-182 -43l-22 12l41 361h378v-41h-344l-30 -283
q82 33 180 33z" />
    <glyph glyph-name="six.inf" unicode="&#x2086;" 
d="M376 133q-94 0 -156 -56t-62 -139q0 -82 58 -140t152 -58q95 0 156 57q62 57 62 141t-58 140q-58 55 -152 55zM395 434q-100 0 -176 -104t-76 -293v-23q16 47 52 82q73 74 185 74t180 -66t69 -164q0 -98 -74 -169q-73 -70 -187 -70t-190 77q-76 76 -76 272t88 308
t216 113q100 0 155 -55q29 -29 29 -62q0 -43 -39 -43q-15 1 -27 11t-12 27t18 32q-35 53 -135 53z" />
    <glyph glyph-name="seven.inf" unicode="&#x2087;" 
d="M162 420v-133h-41v170h502l8 -19l-342 -723h-45l336 705h-418z" />
    <glyph glyph-name="eight.inf" unicode="&#x2088;" 
d="M361 -258q95 0 157 46t62 121t-64 124t-154 49q-92 0 -154 -49t-62 -124t60 -121t155 -46zM360 117q82 0 142 44q59 43 59 113t-57 113q-58 43 -144 43t-142 -43t-56 -113t58 -114t140 -43zM361 -297q-113 0 -187 56q-74 55 -74 137t54 136t137 68q-76 16 -124 66
t-48 124q0 75 69 126q70 51 172 51t174 -51q72 -52 72 -126t-49 -124t-127 -66q84 -14 138 -68t54 -136t-73 -138q-74 -56 -188 -55z" />
    <glyph glyph-name="nine.inf" unicode="&#x2089;" 
d="M565 234q1 82 -57 140t-153 58t-156 -57t-61 -141t58 -140q58 -55 151 -55t156 56q62 56 62 139zM211 -180q0 -20 -21 -29l7 -8q37 -45 120 -45q111 0 187 104t76 293v21q-14 -43 -52 -80q-74 -74 -186 -74t-180 66t-68 164t74 169q74 70 188 70t189 -77q76 -76 76 -272
q-1 -196 -89 -308t-202 -113q-114 0 -168 55q-29 28 -29 54t11 38q12 12 28 12t28 -10t11 -30z" />
    <glyph glyph-name="Euro" unicode="&#x20ac;" horiz-adv-x="1114" 
d="M61 610v43h138q45 169 173 273t282 104t259 -79q106 -79 107 -175q0 -31 -15 -49t-37 -18q-48 0 -48 43t45 57q-11 66 -97 123t-218 56t-246 -92q-112 -91 -154 -243h446v-43h-456q-24 -107 -2 -209h458v-43h-450q36 -147 150 -239t283 -92t312 125l27 -33
q-154 -137 -340 -137t-313 104t-168 272h-136v43h125q-6 45 -6 97t10 112h-129z" />
    <glyph glyph-name="published" unicode="&#x2117;" horiz-adv-x="1187" 
d="M788 608q0 64 -44 100t-111 35h-90v-270l92 -2q69 0 111 37t42 100zM543 268h80v-32h-195v32h78v475h-78v33h203q86 0 141 -46t55 -122t-53 -123t-141 -47l-90 2v-172zM111 513q0 -207 138 -353t344 -146t344 146t138 354q0 207 -137 352q-137 146 -344 146t-345 -146
t-138 -353zM593 -18q-222 0 -370 153q-147 154 -147 377t147 378q147 154 369 154t371 -154q147 -155 147 -377t-147 -377q-148 -154 -370 -154z" />
    <glyph glyph-name="servicemark" unicode="&#x2120;" horiz-adv-x="1089" 
d="M201 834q-70 0 -115 32t-45 69q0 38 31 38t30 -31q0 -16 -16 -33q36 -45 104 -45t102 30t34 74t-30 68t-94 50q-64 24 -103 57q-38 33 -38 87t42 90q41 36 101 36t103 -29t43 -65t-32 -37q-32 0 -31 32q0 12 16 29q-27 41 -85 41t-90 -28t-32 -66q0 -70 123 -119
q70 -26 106 -56q35 -30 35 -88t-44 -97t-115 -39zM426 846v31h80l16 440h-78v31h121l172 -381l174 381h117v-31h-78l19 -440h80v-31h-187v31h74l-16 415l-175 -381h-16l-176 381l-12 -415h71v-31h-186z" />
    <glyph glyph-name="trademark" unicode="&#x2122;" horiz-adv-x="1179" 
d="M139 846v31h82v442h-158v-98h-32v127h418v-127h-33v98h-158v-442h80v-31h-199zM516 846v31h78l18 440h-77v31h120l172 -381l174 381h117v-31h-78l19 -440h80v-31h-187v31h74l-16 415l-174 -381h-17l-178 381l-12 -415h71v-31h-184z" />
    <glyph glyph-name="onethird" unicode="&#x2153;" horiz-adv-x="1628" 
d="M131 575v39h211v660l-207 -53l-10 39l237 61h23v-707h207v-39h-461zM444 -20l-34 18q328 535 403 659l404 666l32 -18q-6 -12 -167 -275t-238 -395zM1077 553q-39 0 -39 52q0 51 68 99t170 48t168 -52t66 -125t-57 -125q-56 -52 -138 -65q98 -12 156 -64q59 -52 59 -134
q0 -81 -74 -141t-179 -60t-183 45t-78 101t39 56t39 -36q0 -29 -27 -39q13 -35 73 -63t142 -28t143 50q61 49 61 124q0 74 -67 120q-68 46 -186 49h-39v36h41q98 1 165 49q66 48 66 116t-54 108q-54 41 -130 41t-127 -26t-65 -60q27 -12 26 -37q0 -39 -39 -39z" />
    <glyph glyph-name="twothirds" unicode="&#x2154;" horiz-adv-x="1628" 
d="M473 -20l-35 18q328 535 404 659l403 666l33 -18q-6 -13 -195 -322q-188 -309 -211 -348zM1085 553q-39 0 -39 52t68 100q68 47 170 47t168 -52t66 -125t-56 -125t-139 -65q99 -12 157 -64t58 -134q0 -81 -74 -141t-179 -60t-183 45t-78 101t39 56t39 -36q0 -29 -27 -39
q13 -35 73 -63t142 -28t144 50q61 49 61 124q0 74 -68 120t-186 49h-39v36h41q98 1 165 49t67 116q-1 68 -55 108q-54 41 -130 41t-127 -26t-65 -60q27 -12 26 -37q0 -39 -39 -39zM176 1102q-45 0 -45 59t68 115t171 55q103 0 170 -55q66 -55 66 -136t-50 -136t-161 -125
q-188 -117 -233 -267h413v140h41v-177h-491l-14 21q53 182 260 311q98 63 144 113t46 118t-53 112t-133 44t-134 -34t-63 -76q35 -10 35 -41q0 -17 -11 -29t-26 -12z" />
    <glyph glyph-name="onefifth" unicode="&#x2155;" horiz-adv-x="1628" 
d="M127 575v39h211v660l-207 -53l-10 39l237 61h23v-707h207v-39h-461zM444 -20l-34 18q328 535 403 659l404 666l32 -18q-6 -12 -167 -275t-238 -395zM1298 449q98 1 170 -59q70 -60 70 -166t-76 -172q-76 -68 -184 -68q-106 0 -176 41t-70 94q0 19 12 31t29 12
q37 0 37 -37q0 -23 -20 -31q16 -31 66 -51t110 -20q102 0 166 56q63 56 63 143t-58 137q-59 51 -159 51t-182 -43l-23 12l41 360h379v-41h-344l-31 -282q82 33 180 33z" />
    <glyph glyph-name="twofifths" unicode="&#x2156;" horiz-adv-x="1628" 
d="M477 -20l-35 18q328 535 404 659l403 666l33 -18q-6 -13 -195 -322q-188 -309 -210 -348zM1294 -16q-106 0 -176 41t-69 94q0 19 12 31t29 12q37 0 36 -37q0 -23 -20 -31q16 -31 66 -51t110 -20q102 0 166 56q63 56 63 143t-58 137q-59 51 -159 51t-182 -43l-22 12
l40 360h379v-41h-344l-30 -282q82 33 180 33q98 1 169 -59q70 -60 70 -166t-76 -173q-78 -67 -184 -67zM182 1102q-45 0 -45 59t68 115t171 55q103 0 170 -55q66 -55 66 -136t-50 -136t-161 -125q-188 -117 -233 -267h414v140h41v-177h-492l-14 21q53 182 260 311
q98 63 144 113t46 118t-53 112t-133 44t-134 -34t-63 -76q35 -10 35 -41q0 -17 -11 -29t-26 -12z" />
    <glyph glyph-name="threefifths" unicode="&#x2157;" horiz-adv-x="1628" 
d="M438 -20l-35 18q328 535 404 659l403 666l33 -18q-6 -12 -167 -275t-238 -395zM1298 449q98 1 170 -59q70 -60 70 -166t-76 -172q-76 -68 -184 -68q-106 0 -176 41t-70 94q0 19 12 31t29 12q37 0 37 -37q0 -23 -20 -31q16 -31 66 -51t110 -20q102 0 166 56q63 56 63 143
t-58 137q-59 51 -159 51t-182 -43l-23 12l41 360h379v-41h-344l-31 -282q82 33 180 33zM215 1169q0 -37 -37 -39q-41 0 -41 52t68 100q68 47 170 47t168 -51q65 -51 65 -125t-56 -126t-138 -64q98 -13 156 -65t58 -134t-73 -141q-74 -59 -179 -59t-183 44q-78 46 -78 102
t39 56t39 -37q0 -29 -27 -39q14 -34 74 -62t141 -28q82 0 143 49q62 49 62 124t-68 121t-186 48h-39v37h41q98 0 165 48t67 116q0 69 -55 109q-54 40 -130 40t-127 -26t-66 -60q27 -12 27 -37z" />
    <glyph glyph-name="fourfifths" unicode="&#x2158;" horiz-adv-x="1628" 
d="M477 -20l-35 18q328 535 404 659l403 666l33 -18q-6 -13 -195 -322q-188 -309 -210 -348zM326 575v37h143v189h-377l-8 16l405 510l33 -24l-377 -467h324v213l41 16v-229h139v-35h-139v-189h117v-37h-301zM1302 449q98 1 170 -59q70 -60 70 -166t-76 -172
q-76 -68 -184 -68q-106 0 -176 41t-70 94q0 19 12 31t29 12q37 0 37 -37q0 -23 -20 -31q16 -31 66 -51t110 -20q102 0 166 56q63 56 63 143t-58 137q-59 51 -159 51t-182 -43l-23 12l41 360h379v-41h-344l-31 -282q82 33 180 33z" />
    <glyph glyph-name="onesixth" unicode="&#x2159;" horiz-adv-x="1628" 
d="M121 575v39h211v660l-207 -53l-10 39l237 61h23v-707h207v-39h-461zM436 -20l-35 18q328 535 404 659l403 666l33 -18q-6 -13 -195 -322q-188 -309 -210 -348zM1059 220q-1 -83 57 -140t153 -57t156 57t62 141q-1 84 -59 139q-58 56 -151 56t-155 -56t-63 -140zM1044 319
v-22q16 47 52 82q74 74 186 74t180 -66t68 -165t-74 -169q-74 -69 -188 -69t-189 76t-75 272t88 309t215 113q100 0 155 -56q29 -28 29 -61q0 -43 -39 -43t-39 37q0 18 19 33q-44 53 -125 53q-111 -1 -187 -105t-76 -293z" />
    <glyph glyph-name="fivesixths" unicode="&#x215a;" horiz-adv-x="1628" 
d="M440 -20l-34 18q328 535 403 659l403 666l33 -18q-6 -12 -167 -275t-238 -395zM360 561q-106 0 -176 41t-69 94q0 18 12 30t29 13q37 0 37 -37q0 -23 -21 -30q36 -70 198 -72q80 0 144 56t64 144t-58 137q-58 50 -160 50q-100 0 -182 -43l-22 12l41 361h378v-41h-344
l-30 -283q82 33 180 33t169 -59t71 -165t-77 -173q-78 -68 -184 -68zM1057 220q-1 -83 57 -140t153 -57t156 57t62 141q-1 84 -59 139q-58 56 -151 56t-155 -56t-63 -140zM1042 319v-22q14 47 52 82q74 74 186 74t180 -66t68 -165t-74 -169q-74 -69 -188 -69t-189 76
q-76 76 -76 272q1 196 89 309t215 113q100 0 155 -56q29 -28 29 -61q0 -43 -39 -43t-39 37q0 18 19 33q-44 53 -125 53q-111 -1 -187 -105t-76 -293z" />
    <glyph glyph-name="oneeighth" unicode="&#x215b;" horiz-adv-x="1628" 
d="M133 575v39h211v660l-207 -53l-10 39l238 61h22v-707h207v-39h-461zM436 -20l-35 18q328 535 404 659l403 666l33 -18q-6 -13 -195 -322q-188 -309 -210 -348zM1278 399q82 0 141 44t59 114t-56 113q-58 43 -144 43t-142 -43t-56 -113t58 -114t140 -44zM1497 192
q0 76 -63 124q-62 48 -154 48t-154 -48q-62 -50 -63 -124q1 -74 61 -121q60 -46 155 -46t157 46q61 46 61 121zM1540 178q0 -82 -74 -137t-187 -55t-187 56t-74 137t53 135t137 69q-76 15 -124 65t-48 124t70 126t172 52t174 -52t72 -126t-49 -123t-127 -66q84 -15 138 -69
t54 -136z" />
    <glyph glyph-name="threeeighths" unicode="&#x215c;" horiz-adv-x="1628" 
d="M434 -20l-35 18q328 535 404 659l403 666l33 -18q-6 -13 -195 -322q-188 -309 -210 -348zM211 1169q0 -37 -37 -39q-41 0 -41 52t68 100q68 47 170 47t168 -51q65 -51 65 -125t-56 -126t-138 -64q98 -13 156 -65t58 -134t-73 -141t-179 -59t-184 44q-78 46 -78 102t40 56
q39 0 38 -37q1 -29 -26 -39q14 -34 74 -62t140 -28q82 0 144 49t62 124t-68 121t-186 48h-39v37h41q98 0 165 48t67 116q0 69 -55 109q-54 40 -130 40t-127 -26t-66 -60q27 -12 27 -37zM1284 399q82 0 141 44t59 114t-56 113q-58 43 -144 43t-142 -43t-56 -113t58 -114
t140 -44zM1503 192q0 76 -63 124q-62 48 -154 48t-154 -48q-62 -50 -62 -124t60 -121q60 -46 155 -46t157 46q61 46 61 121zM1546 178q0 -82 -74 -137t-187 -55t-187 56t-74 137t53 135t137 69q-76 15 -124 65t-48 124t70 126t172 52t174 -52t72 -126t-49 -123t-127 -66
q84 -15 138 -69t54 -136z" />
    <glyph glyph-name="fiveeighths" unicode="&#x215d;" horiz-adv-x="1628" 
d="M422 -20l-35 18q328 535 404 659l403 666l33 -18q-6 -13 -195 -322q-188 -309 -211 -348zM358 561q-106 0 -176 41t-69 94q0 18 12 30t29 13q37 0 36 -37q0 -23 -20 -30q36 -70 198 -72q80 0 144 56q63 56 63 144t-58 137q-59 50 -159 50t-182 -43l-22 12l41 361h378v-41
h-344l-30 -283q82 33 180 33t169 -59q70 -59 70 -165t-76 -173q-78 -68 -184 -68zM1270 399q82 0 141 44t59 114t-57 113t-143 43t-142 -43t-57 -113q1 -70 59 -114t140 -44zM1055 192q1 -74 61 -121q60 -46 155 -46t156 46t61 121q0 76 -62 124q-64 48 -155 48t-153 -48
q-62 -50 -63 -124zM1532 178q0 -82 -74 -137t-187 -55q-114 0 -188 56q-73 56 -73 137t53 135t137 69q-76 15 -124 65t-48 124t70 126t172 52t174 -52t72 -126t-50 -123t-127 -66q85 -15 139 -69t54 -136z" />
    <glyph glyph-name="seveneighths" unicode="&#x215e;" horiz-adv-x="1628" 
d="M188 1280v-133h-41v170h502l8 -19l-342 -723h-45l336 705h-418zM344 -20l-35 18q328 535 404 659l403 666l33 -18q-6 -13 -195 -322q-188 -309 -211 -348zM1233 399q82 0 141 44q60 44 60 114t-58 113t-143 43q-86 0 -142 -43q-57 -43 -57 -113t58 -114t141 -44z
M1452 192q0 76 -63 124t-155 48t-154 -48q-62 -50 -62 -124t60 -121q60 -46 156 -46q95 0 157 46q61 46 61 121zM1495 178q1 -82 -73 -137t-188 -55t-188 56t-73 137q0 81 53 135t137 69q-76 15 -124 65t-48 124t70 126t172 52t174 -52t72 -126t-49 -123t-127 -66
q84 -15 138 -69t54 -136z" />
    <glyph glyph-name="minus" unicode="&#x2212;" horiz-adv-x="790" 
d="M96 514v45h598v-45h-598z" />
    <glyph glyph-name="Q.alt" horiz-adv-x="1572" 
d="M786 25q131 0 250 51l-186 293l39 22l186 -295q150 82 238 235t88 343q0 274 -175 462q-176 188 -440 187q-264 0 -439 -187q-175 -188 -175 -462t175 -462t439 -187zM786 -20q-286 0 -478 200t-192 493q0 291 194 493q192 202 476 202t478 -201q193 -201 192 -493
q0 -201 -96 -365t-260 -252l145 -231l-37 -21l-147 232q-131 -57 -275 -57z" />
    <glyph glyph-name="a.sc" horiz-adv-x="1183" 
d="M590 981l-213 -559h426zM350 1018h484v-41h-193l360 -936h170v-41h-430v41h209l-131 338h-459l-129 -338h211v-41h-430v41h170l361 936h-193v41z" />
    <glyph glyph-name="b.sc" horiz-adv-x="1032" 
d="M575 0h-509v41h202v936h-202v41h507q160 0 241 -73t81 -173t-60 -166t-167 -84q118 -16 186 -81t68 -181t-92 -188t-255 -72zM317 543h252q135 0 206 61q71 62 71 156t-71 155t-204 62h-254v-434zM317 41h261q135 0 215 63q79 63 79 172t-81 166q-82 57 -226 58h-248
v-459z" />
    <glyph glyph-name="c.sc" horiz-adv-x="1116" 
d="M934 702q-18 0 -32 14t-13 34q0 43 49 59q-14 70 -106 126t-218 56q-200 0 -332 -139t-132 -343t132 -343q132 -140 336 -140t351 154l28 -35q-152 -161 -379 -161t-372 150q-146 150 -146 374q0 223 146 375t368 151q156 0 267 -79t111 -166t-58 -87z" />
    <glyph glyph-name="d.sc" horiz-adv-x="1202" 
d="M516 0h-442v41h202v936h-202v41h442q266 0 425 -135t159 -367t-156 -374t-428 -142zM326 41h194q250 0 390 132t140 344t-146 336t-388 124h-190v-936z" />
    <glyph glyph-name="e.sc" horiz-adv-x="987" 
d="M864 0h-798v41h202v936h-202v41h798v-256h-45v215h-502v-438h390v-43h-390v-455h502v213h45v-254z" />
    <glyph glyph-name="f.sc" horiz-adv-x="944" 
d="M530 0h-464v41h202v936h-202v41h792v-256h-45v215h-496v-449h373v-41h-373v-446h213v-41z" />
    <glyph glyph-name="g.sc" horiz-adv-x="1175" 
d="M618 991q-204 0 -336 -140t-132 -346t131 -342t333 -136t359 141v260h-320v41h367v-469h-47v121q-150 -137 -365 -137t-361 146q-147 146 -147 374t151 379q151 152 370 151q165 0 277 -76t112 -157q0 -37 -16 -60t-40 -23q-47 1 -49 48q0 43 49 59q-20 61 -113 114
q-94 52 -223 52z" />
    <glyph glyph-name="h.sc" horiz-adv-x="1316" 
d="M66 0v41h202v936h-202v41h456v-41h-205v-440h682v440h-204v41h456v-41h-202v-936h202v-41h-456v41h204v451h-682v-451h205v-41h-456z" />
    <glyph glyph-name="i.sc" horiz-adv-x="598" 
d="M532 0h-466v41h208v936h-208v41h466v-41h-208v-936h208v-41z" />
    <glyph glyph-name="j.sc" horiz-adv-x="888" 
d="M362 29q100 0 170 69q82 88 82 271v608h-208v41h442v-41h-184v-608q0 -207 -90 -296t-213 -89t-207 72t-84 165q0 92 57 92q17 0 31 -13t14 -34q0 -43 -49 -59q7 -70 73 -124t166 -54z" />
    <glyph glyph-name="k.sc" horiz-adv-x="1120" 
d="M1108 41v-41h-225l-377 535l-189 -191v-303h205v-41h-456v41h202v936h-202v41h450v-41h-199v-574l566 574h-207v41h414v-41h-148l-403 -410l372 -526h197z" />
    <glyph glyph-name="l.sc" horiz-adv-x="919" 
d="M799 41v217h47v-258h-780v41h202v936h-202v41h462v-41h-211v-936h482z" />
    <glyph glyph-name="m.sc" horiz-adv-x="1449" 
d="M1354 1018v-41h-189l41 -936h178v-41h-426v41h197l-33 895l-387 -793h-20l-387 793l-35 -895h199v-41h-426v41h180l39 936h-189v41h240l389 -799l389 799h240z" />
    <glyph glyph-name="n.sc" horiz-adv-x="1298" 
d="M1001 977h-206v41h456v-41h-202v-983h-29l-705 940v-893h207v-41h-456v41h202v936h-202v41h245l690 -922v881z" />
    <glyph glyph-name="o.sc" horiz-adv-x="1228" 
d="M614 27q203 0 334 138t131 345t-131 344t-334 137q-204 0 -334 -137t-130 -344t130 -345t334 -138zM614 1034q225 0 370 -150q144 -151 144 -375t-144 -375q-144 -150 -370 -150t-369 150q-145 150 -145 375t144 375t370 150z" />
    <glyph glyph-name="p.sc" horiz-adv-x="948" 
d="M508 440q152 0 232 74t81 195q0 121 -87 195t-228 73h-189v-533q128 -4 191 -4zM66 1018h440q164 0 264 -85t100 -225t-96 -224t-270 -85q-123 0 -187 4v-362h207v-41h-458v41h202v936h-202v41z" />
    <glyph glyph-name="q.sc" horiz-adv-x="1228" 
d="M624 27q194 0 324 138q131 138 131 345t-131 344t-334 137q-204 0 -334 -137t-130 -352t151 -357q129 -118 323 -118zM1060 -211q-68 0 -120 22q-52 21 -122 67q-68 46 -110 68t-159 42q-174 29 -283 127q-166 145 -166 381t144 388q144 150 370 150q225 0 370 -150
q144 -151 144 -366t-128 -360t-328 -162q48 -8 92 -32t99 -60q55 -35 103 -53q48 -17 95 -17t110 39l23 -39q-66 -45 -134 -45z" />
    <glyph glyph-name="q.sc_alt" horiz-adv-x="1228" 
d="M1079 510q0 207 -131 344t-334 137q-204 0 -334 -137t-130 -344t131 -345t333 -138q96 0 168 28l-137 219l37 27l141 -227q119 57 188 174q68 117 68 262zM1128 510q0 -160 -76 -286t-206 -189l112 -178l-36 -25l-117 184q-92 -33 -191 -32q-225 0 -369 150
q-145 150 -145 375q0 224 144 375q144 150 370 150q225 0 370 -150q144 -151 144 -374z" />
    <glyph glyph-name="r.sc" horiz-adv-x="1040" 
d="M317 41h207v-41h-458v41h202v936h-202v41h448q164 0 260 -77t96 -197t-70 -194t-188 -95l254 -414h168v-41h-200l-271 442q-21 -2 -109 -2t-137 2v-401zM512 977h-195v-490q106 -4 183 -4q145 0 234 67q89 66 89 180t-85 180t-226 67z" />
    <glyph glyph-name="s.sc" horiz-adv-x="884" 
d="M760 850q0 -31 -14 -49q-14 -19 -36 -19q-20 0 -34 14t-14 40q0 28 34 47q-14 45 -83 78t-172 33t-179 -60q-76 -59 -76 -155t92 -151q63 -39 162 -76q99 -36 143 -56t96 -56q105 -72 104 -190q-1 -119 -98 -193q-97 -73 -245 -73t-243 58q-94 58 -95 126q0 31 14 49
q14 19 36 19t35 -14t13 -42q0 -29 -34 -45q26 -43 96 -76t188 -33t201 62q82 61 82 162q0 62 -45 114t-96 76t-132 55q-146 54 -219 100q-104 65 -104 181q0 115 89 187q90 71 224 71t222 -55t88 -129z" />
    <glyph glyph-name="t.sc" horiz-adv-x="1019" 
d="M276 0v41h209v936h-352v-215h-47v256h848v-256h-47v215h-352v-936h208v-41h-467z" />
    <glyph glyph-name="u.sc" horiz-adv-x="1224" 
d="M289 977v-612q0 -162 85 -250q84 -88 238 -88t239 88t85 250v612h-207v41h453v-41h-197v-612q0 -185 -97 -283q-98 -98 -276 -98t-275 98t-97 283v612h-197v41h453v-41h-207z" />
    <glyph glyph-name="v.sc" horiz-adv-x="1155" 
d="M8 977v41h432v-41h-211l351 -922l350 922h-211v41h428v-41h-168l-385 -997h-33l-383 997h-170z" />
    <glyph glyph-name="w.sc" horiz-adv-x="1622" 
d="M8 977v41h443v-41h-213l278 -911l285 808h22l287 -808l279 911h-213v41h438v-41h-178l-308 -1002h-32l-285 811l-285 -811h-30l-310 1002h-178z" />
    <glyph glyph-name="x.sc" horiz-adv-x="1122" 
d="M1096 41v-41h-396v41h174l-321 451l-324 -451h183v-41h-400v41h164l348 479l-329 457h-158v41h401v-41h-186l301 -424l305 424h-186v41h399v-41h-160l-329 -455l348 -481h166z" />
    <glyph glyph-name="y.sc" horiz-adv-x="1097" 
d="M1092 1018v-41h-170l-349 -590v-346h207v-41h-463v41h207v346l-346 590h-172v41h428v-41h-201l316 -547l319 547h-202v41h426z" />
    <glyph glyph-name="z.sc" horiz-adv-x="944" 
d="M88 0v27l705 950h-635v-211h-47v252h749v-27l-704 -950h663v211h47v-252h-778z" />
    <glyph glyph-name="aacute.sc" horiz-adv-x="1183" 
d="M862 1341q0 -27 -47 -49l-278 -127l-15 23l252 172q51 36 77 10q11 -12 11 -29zM590 981l-213 -559h426zM350 1018h484v-41h-193l360 -936h170v-41h-430v41h209l-131 338h-459l-129 -338h211v-41h-430v41h170l361 936h-193v41z" />
    <glyph glyph-name="abreve.sc" horiz-adv-x="1183" 
d="M604 1165q-88 -1 -158 55t-102 144l35 16q71 -154 225 -154t225 154l35 -16q-32 -88 -102 -144t-158 -55zM590 981l-213 -559h426zM350 1018h484v-41h-193l360 -936h170v-41h-430v41h209l-131 338h-459l-129 -338h211v-41h-430v41h170l361 936h-193v41z" />
    <glyph glyph-name="acircumflex.sc" horiz-adv-x="1183" 
d="M362 1153l-18 21l260 243l260 -243l-18 -21l-242 180zM590 981l-213 -559h426zM350 1018h484v-41h-193l360 -936h170v-41h-430v41h209l-131 338h-459l-129 -338h211v-41h-430v41h170l361 936h-193v41z" />
    <glyph glyph-name="adieresis.sc" horiz-adv-x="1183" 
d="M721 1200q-23 0 -38 15t-15 38t15 39t38 16t38 -16t15 -39t-15 -38t-38 -15zM487 1200q-23 0 -37 15t-16 38q0 23 16 39t38 16t37 -16t15 -39t-14 -38q-16 -15 -39 -15zM590 981l-213 -559h426zM350 1018h484v-41h-193l360 -936h170v-41h-430v41h209l-131 338h-459
l-129 -338h211v-41h-430v41h170l361 936h-193v41z" />
    <glyph glyph-name="ae.sc" horiz-adv-x="1398" 
d="M680 428v549h-10l-305 -549h315zM477 0v41h203v344h-338l-190 -344h182v-41h-383v41h149l523 936h-189v41h842v-256h-45v215h-502v-438h389v-43h-389v-455h502v213h45v-254h-799z" />
    <glyph glyph-name="aeacute.sc" horiz-adv-x="1398" 
d="M721 1165l-14 23l251 172q53 37 77 10q11 -12 12 -29q0 -27 -48 -49zM680 428v549h-10l-305 -549h315zM477 0v41h203v344h-338l-190 -344h182v-41h-383v41h149l523 936h-189v41h842v-256h-45v215h-502v-438h389v-43h-389v-455h502v213h45v-254h-799z" />
    <glyph glyph-name="agrave.sc" horiz-adv-x="1183" 
d="M346 1341q0 17 11 29t27 12t50 -22l252 -172l-14 -23l-279 127q-47 23 -47 49zM590 981l-213 -559h426zM350 1018h484v-41h-193l360 -936h170v-41h-430v41h209l-131 338h-459l-129 -338h211v-41h-430v41h170l361 936h-193v41z" />
    <glyph glyph-name="amacron.sc" horiz-adv-x="1183" 
d="M324 1229v49h561v-49h-561zM590 981l-213 -559h426zM350 1018h484v-41h-193l360 -936h170v-41h-430v41h209l-131 338h-459l-129 -338h211v-41h-430v41h170l361 936h-193v41z" />
    <glyph glyph-name="aogonek.sc" horiz-adv-x="1183" 
d="M590 981l-213 -559h426zM968 -412q-85 0 -133 46t-49 120q0 147 164 246h-209v41h209l-131 338h-459l-129 -338h211v-41h-430v41h170l361 936h-193v41h484v-41h-193l360 -936h170v-41h-151q-92 -46 -140 -110t-48 -126t37 -99q38 -36 107 -36t140 45l-4 -36
q-59 -50 -144 -50z" />
    <glyph glyph-name="aring.sc" horiz-adv-x="1183" 
d="M591 1020q52 0 86 36t34 89t-34 89t-86 36t-86 -36t-34 -89t34 -89t86 -36zM590 981l-213 -559h426zM350 1018h148q-70 43 -70 119t47 125t116 49t116 -49t47 -127t-72 -117h152v-41h-193l360 -936h170v-41h-430v41h209l-131 338h-459l-129 -338h211v-41h-430v41h170
l361 936h-193v41z" />
    <glyph glyph-name="aringacute.sc" horiz-adv-x="1183" 
d="M516 1419l-14 23l252 172q52 36 76 10q11 -12 12 -29q0 -27 -47 -49zM591 1020q52 0 86 36t34 89t-34 89t-86 36t-86 -36t-34 -89t34 -89t86 -36zM590 981l-213 -559h426zM350 1018h148q-70 43 -70 119t47 125t116 49t116 -49t47 -127t-72 -117h152v-41h-193l360 -936
h170v-41h-430v41h209l-131 338h-459l-129 -338h211v-41h-430v41h170l361 936h-193v41z" />
    <glyph glyph-name="atilde.sc" horiz-adv-x="1183" 
d="M752 1169q-66 0 -156 70q-84 61 -129 61t-72 -28t-49 -94l-35 8q37 168 154 168q68 0 151 -66t131 -65q49 -1 75 27t48 93l35 -8q-36 -166 -153 -166zM590 981l-213 -559h426zM350 1018h484v-41h-193l360 -936h170v-41h-430v41h209l-131 338h-459l-129 -338h211v-41h-430
v41h170l361 936h-193v41z" />
    <glyph glyph-name="cacute.sc" horiz-adv-x="1116" 
d="M934 702q-18 0 -32 14t-13 34q0 43 49 59q-14 70 -106 126t-218 56q-200 0 -332 -139t-132 -343t132 -343q132 -140 336 -140t351 154l28 -35q-152 -161 -379 -161t-372 150q-146 150 -146 374q0 223 146 375t368 151q156 0 267 -79t111 -166t-58 -87zM864 1341
q0 -27 -47 -49l-278 -127l-15 23l252 172q51 36 77 10q11 -12 11 -29z" />
    <glyph glyph-name="ccaron.sc" horiz-adv-x="1116" 
d="M934 702q-18 0 -32 14t-13 34q0 43 49 59q-14 70 -106 126t-218 56q-200 0 -332 -139t-132 -343t132 -343q132 -140 336 -140t351 154l28 -35q-152 -161 -379 -161t-372 150q-146 150 -146 374q0 223 146 375t368 151q156 0 267 -79t111 -166t-58 -87zM848 1419l18 -20
l-260 -244l-260 244l19 20l241 -180z" />
    <glyph glyph-name="ccedilla.sc" horiz-adv-x="1116" 
d="M764 -273q0 -61 -47 -99t-140 -38t-182 41l15 35q84 -37 160 -37t111 28q36 28 36 71q0 92 -154 94q-18 0 -31 -2l-12 10l37 158q-203 18 -330 164t-127 363q0 216 146 368t368 151q156 0 267 -79t111 -166t-58 -87q-18 0 -32 14t-13 34q0 43 49 59q-14 70 -106 126
t-218 56q-200 0 -332 -139t-132 -343t132 -343t336 -139t351 153l28 -35q-152 -162 -383 -161h-22l-19 -123q91 -2 141 -37t50 -97z" />
    <glyph glyph-name="cdotaccent.sc" horiz-adv-x="1116" 
d="M606 1196q-25 0 -41 17t-16 41t16 42t41 18t41 -18q17 -18 17 -42t-16 -41t-42 -17zM934 702q-18 0 -32 14t-13 34q0 43 49 59q-14 70 -106 126t-218 56q-200 0 -332 -139t-132 -343t132 -343q132 -140 336 -140t351 154l28 -35q-152 -161 -379 -161t-372 150
q-146 150 -146 374q0 223 146 375t368 151q156 0 267 -79t111 -166t-58 -87z" />
    <glyph glyph-name="dcaron.sc" horiz-adv-x="1202" 
d="M811 1419l18 -20l-260 -244l-260 244l19 20l241 -180zM516 0h-442v41h202v936h-202v41h442q266 0 425 -135t159 -367t-156 -374t-428 -142zM326 41h194q250 0 390 132t140 344t-146 336t-388 124h-190v-936z" />
    <glyph glyph-name="dcroat.sc" horiz-adv-x="1202" 
d="M326 41h194q250 0 390 132t140 344t-146 336t-388 124h-190v-436h245v-41h-245v-459zM516 0h-442v41h202v459h-163v41h163v436h-202v41h442q266 0 425 -135t159 -367t-156 -374t-428 -142z" />
    <glyph glyph-name="eacute.sc" horiz-adv-x="991" 
d="M866 0h-798v41h202v936h-202v41h798v-256h-45v215h-502v-438h390v-43h-390v-455h502v213h45v-254zM760 1341q0 -27 -47 -49l-279 -127l-14 23l252 172q51 36 77 10q11 -12 11 -29z" />
    <glyph glyph-name="ebreve.sc" horiz-adv-x="991" 
d="M502 1165q-88 -1 -158 55t-102 144l34 16q72 -154 226 -154t225 154l35 -16q-32 -88 -102 -144t-158 -55zM866 0h-798v41h202v936h-202v41h798v-256h-45v215h-502v-438h390v-43h-390v-455h502v213h45v-254z" />
    <glyph glyph-name="ecaron.sc" horiz-adv-x="991" 
d="M866 0h-798v41h202v936h-202v41h798v-256h-45v215h-502v-438h390v-43h-390v-455h502v213h45v-254zM743 1419l19 -20l-260 -244l-260 244l18 20l242 -180z" />
    <glyph glyph-name="ecircumflex.sc" horiz-adv-x="991" 
d="M866 0h-798v41h202v936h-202v41h798v-256h-45v215h-502v-438h390v-43h-390v-455h502v213h45v-254zM260 1153l-18 21l260 243l260 -243l-19 -21l-241 180z" />
    <glyph glyph-name="edieresis.sc" horiz-adv-x="991" 
d="M866 0h-798v41h202v936h-202v41h798v-256h-45v215h-502v-438h390v-43h-390v-455h502v213h45v-254zM385 1200q-23 0 -38 15t-15 38t15 39t38 16t38 -16t15 -39t-15 -38t-38 -15zM618 1200q-24 0 -38 15t-15 38t15 39t38 16t38 -16t16 -39t-16 -38t-38 -15z" />
    <glyph glyph-name="edotaccent.sc" horiz-adv-x="991" 
d="M866 0h-798v41h202v936h-202v41h798v-256h-45v215h-502v-438h390v-43h-390v-455h502v213h45v-254zM502 1196q-25 0 -41 17q-17 17 -17 41t16 42t42 18q25 0 41 -18t16 -42t-16 -41t-41 -17z" />
    <glyph glyph-name="egrave.sc" horiz-adv-x="991" 
d="M866 0h-798v41h202v936h-202v41h798v-256h-45v215h-502v-438h390v-43h-390v-455h502v213h45v-254zM242 1341q0 17 11 29t27 12t50 -22l252 -172l-15 -23l-278 127q-47 23 -47 49z" />
    <glyph glyph-name="emacron.sc" horiz-adv-x="991" 
d="M866 0h-798v41h202v936h-202v41h798v-256h-45v215h-502v-438h390v-43h-390v-455h502v213h45v-254zM221 1229v49h561v-49h-561z" />
    <glyph glyph-name="eogonek.sc" horiz-adv-x="987" 
d="M864 0h-106q-92 -46 -140 -110t-49 -126q0 -62 38 -99q38 -36 107 -36t140 45l-4 -36q-59 -50 -144 -50t-134 46q-48 46 -48 120q0 147 164 246h-622v41h202v936h-202v41h798v-256h-45v215h-502v-438h390v-43h-390v-455h502v213h45v-254z" />
    <glyph glyph-name="eth.sc" horiz-adv-x="1202" 
d="M326 41h194q250 0 390 132t140 344t-146 336t-388 124h-190v-436h245v-41h-245v-459zM516 0h-442v41h202v459h-163v41h163v436h-202v41h442q266 0 425 -135t159 -367t-156 -374t-428 -142z" />
    <glyph glyph-name="gbreve.sc" horiz-adv-x="1175" 
d="M612 1165q-88 -1 -158 55t-102 144l35 16q71 -154 225 -154t226 154l34 -16q-32 -88 -102 -144t-158 -55zM618 991q-204 0 -336 -140t-132 -346t131 -342t333 -136t359 141v260h-320v41h367v-469h-47v121q-150 -137 -365 -137t-361 146q-147 146 -147 374t151 379
q151 152 370 151q165 0 277 -76t112 -157q0 -37 -16 -60t-40 -23q-47 1 -49 48q0 43 49 59q-20 61 -113 114q-94 52 -223 52z" />
    <glyph glyph-name="gcommaaccent.sc" horiz-adv-x="1175" 
d="M618 991q-204 0 -336 -140t-132 -346t131 -342t333 -136t359 141v260h-320v41h367v-469h-47v121q-150 -137 -365 -137t-361 146q-147 146 -147 374t151 379q151 152 370 151q165 0 277 -76t112 -157q0 -37 -16 -60t-40 -23q-47 1 -49 48q0 43 49 59q-20 61 -113 114
q-94 52 -223 52zM591 -125q60 -1 60 -103q-1 -58 -43 -124q-42 -68 -110 -109l-13 21q111 96 115 200q-66 4 -65 62q0 23 15 38t41 15z" />
    <glyph glyph-name="gdotaccent.sc" horiz-adv-x="1175" 
d="M612 1196q-25 0 -41 17t-16 41t16 42t41 18t41 -18q17 -18 17 -42t-16 -41t-42 -17zM618 991q-204 0 -336 -140t-132 -346t131 -342t333 -136t359 141v260h-320v41h367v-469h-47v121q-150 -137 -365 -137t-361 146q-147 146 -147 374t151 379q151 152 370 151
q165 0 277 -76t112 -157q0 -37 -16 -60t-40 -23q-47 1 -49 48q0 43 49 59q-20 61 -113 114q-94 52 -223 52z" />
    <glyph glyph-name="hbar.sc" horiz-adv-x="1316" 
d="M317 537h682v198h-682v-198zM66 0v41h202v694h-162v41h162v201h-202v41h456v-41h-205v-201h682v201h-204v41h456v-41h-202v-201h161v-41h-161v-694h202v-41h-456v41h204v451h-682v-451h205v-41h-456z" />
    <glyph glyph-name="iacute.sc" horiz-adv-x="598" 
d="M532 0h-466v41h208v936h-208v41h466v-41h-208v-936h208v-41zM567 1341q0 -27 -47 -49l-278 -127l-15 23l252 172q51 36 77 10q11 -12 11 -29z" />
    <glyph glyph-name="ibreve.sc" horiz-adv-x="598" 
d="M307 1165q-87 -1 -157 55t-103 144l35 16q72 -154 226 -154t224 154l35 -16q-33 -88 -103 -144t-157 -55zM532 0h-466v41h208v936h-208v41h466v-41h-208v-936h208v-41z" />
    <glyph glyph-name="icircumflex.sc" horiz-adv-x="598" 
d="M532 0h-466v41h208v936h-208v41h466v-41h-208v-936h208v-41zM66 1153l-19 21l260 243l260 -243l-18 -21l-242 180z" />
    <glyph glyph-name="idieresis.sc" horiz-adv-x="598" 
d="M532 0h-466v41h208v936h-208v41h466v-41h-208v-936h208v-41zM190 1200q-24 0 -38 15t-15 38t15 39t38 16t38 -16t16 -39t-16 -38t-38 -15zM424 1200q-23 0 -38 15t-15 38t15 39t38 16t38 -16t15 -39t-15 -38t-38 -15z" />
    <glyph glyph-name="idotaccent.sc" horiz-adv-x="604" 
d="M309 1196q-25 0 -41 17t-16 41t16 42t41 18t41 -18t16 -42t-16 -41t-41 -17zM535 0h-467v41h208v936h-208v41h467v-41h-209v-936h209v-41z" />
    <glyph glyph-name="dotlessi.sc" horiz-adv-x="598" 
d="M532 0h-466v41h208v936h-208v41h466v-41h-208v-936h208v-41z" />
    <glyph glyph-name="igrave.sc" horiz-adv-x="598" 
d="M49 1341q0 17 11 29q12 12 28 12t49 -22l252 -172l-14 -23l-279 127q-47 23 -47 49zM532 0h-466v41h208v936h-208v41h466v-41h-208v-936h208v-41z" />
    <glyph glyph-name="imacron.sc" horiz-adv-x="598" 
d="M27 1229v49h561v-49h-561zM532 0h-466v41h208v936h-208v41h466v-41h-208v-936h208v-41z" />
    <glyph glyph-name="iogonek.sc" horiz-adv-x="598" 
d="M290 -412q-85 0 -133 46t-48 120q0 147 163 246h-206v41h208v936h-208v41h466v-41h-208v-936h208v-41h-190q-92 -46 -140 -110t-48 -126t38 -99q38 -36 106 -36q69 0 140 45l-4 -36q-59 -50 -144 -50z" />
    <glyph glyph-name="kcommaaccent.sc" horiz-adv-x="1120" 
d="M1108 41v-41h-225l-377 535l-189 -191v-303h205v-41h-456v41h202v936h-202v41h450v-41h-199v-574l566 574h-207v41h414v-41h-148l-403 -410l372 -526h197zM576 -125q60 -1 61 -103q0 -58 -43 -124q-43 -68 -111 -109l-12 21q111 96 115 200q-66 4 -66 62q0 23 16 38
q14 15 40 15z" />
    <glyph glyph-name="lacute.sc" horiz-adv-x="919" 
d="M588 1341q0 -27 -47 -49l-279 -127l-14 23l252 172q51 36 77 10q11 -12 11 -29zM799 41v217h47v-258h-780v41h202v936h-202v41h462v-41h-211v-936h482z" />
    <glyph glyph-name="lcaron.sc" horiz-adv-x="919" 
d="M680 1020q39 0 39 -53q0 -156 -109 -301l-20 14q57 102 57 197l-6 94q0 49 39 49zM799 41v217h47v-258h-780v41h202v936h-202v41h462v-41h-211v-936h482z" />
    <glyph glyph-name="lcommaaccent.sc" horiz-adv-x="919" 
d="M391 -178q-1 23 15 38t42 15q26 -1 42 -23q18 -22 18 -80t-43 -124q-43 -68 -111 -109l-12 21q111 96 115 200q-66 4 -66 62zM799 41v217h47v-258h-780v41h202v936h-202v41h462v-41h-211v-936h482z" />
    <glyph glyph-name="ldot.sc" horiz-adv-x="919" 
d="M762 487q-25 -1 -41 17t-16 42t16 42t41 18t41 -18t16 -42t-16 -42t-41 -17zM799 41v217h47v-258h-780v41h202v936h-202v41h462v-41h-211v-936h482z" />
    <glyph glyph-name="lslash.sc" horiz-adv-x="931" 
d="M811 41v217h47v-258h-780v41h203v408l-203 -113l-23 37l226 125v479h-203v41h463v-41h-211v-453l323 181l21 -37l-344 -193v-434h481z" />
    <glyph glyph-name="nacute.sc" horiz-adv-x="1300" 
d="M1001 977h-206v41h456v-41h-202v-983h-29l-705 940v-893h207v-41h-456v41h202v936h-202v41h245l690 -922v881zM913 1341q0 -27 -47 -49l-278 -127l-15 23l252 172q53 37 77 10q11 -12 11 -29z" />
    <glyph glyph-name="ncaron.sc" horiz-adv-x="1300" 
d="M1001 977h-206v41h456v-41h-202v-983h-29l-705 940v-893h207v-41h-456v41h202v936h-202v41h245l690 -922v881zM897 1419l18 -20l-260 -244l-260 244l19 20l241 -180z" />
    <glyph glyph-name="ncommaaccent.sc" horiz-adv-x="1300" 
d="M1001 977h-206v41h456v-41h-202v-983h-29l-705 940v-893h207v-41h-456v41h202v936h-202v41h245l690 -922v881zM632 -125q60 -1 60 -103q0 -58 -42 -124q-42 -68 -111 -109l-13 21q111 96 115 200q-66 4 -66 62q-1 23 15 38t42 15z" />
    <glyph glyph-name="ntilde.sc" horiz-adv-x="1300" 
d="M803 1169q-66 0 -156 70q-84 61 -129 61t-72 -28t-49 -94l-35 8q37 168 154 168q68 0 151 -66t131 -65q48 -1 74 27t50 93l34 -8q-36 -166 -153 -166zM1001 977h-206v41h456v-41h-202v-983h-29l-705 940v-893h207v-41h-456v41h202v936h-202v41h245l690 -922v881z" />
    <glyph glyph-name="oacute.sc" horiz-adv-x="1228" 
d="M551 1165l-14 23l251 172q53 37 77 10q11 -12 12 -29q0 -27 -48 -49zM614 27q203 0 334 138t131 345t-131 344t-334 137q-204 0 -334 -137t-130 -344t130 -345t334 -138zM614 1034q225 0 370 -150q144 -151 144 -375t-144 -375q-144 -150 -370 -150t-369 150
q-145 150 -145 375t144 375t370 150z" />
    <glyph glyph-name="obreve.sc" horiz-adv-x="1228" 
d="M618 1165q-88 -1 -158 55t-102 144l35 16q71 -154 225 -154t226 154l35 -16q-33 -88 -103 -144t-158 -55zM614 27q203 0 334 138t131 345t-131 344t-334 137q-204 0 -334 -137t-130 -344t130 -345t334 -138zM614 1034q225 0 370 -150q144 -151 144 -375t-144 -375
q-144 -150 -370 -150t-369 150q-145 150 -145 375t144 375t370 150z" />
    <glyph glyph-name="ocircumflex.sc" horiz-adv-x="1228" 
d="M614 27q203 0 334 138t131 345t-131 344t-334 137q-204 0 -334 -137t-130 -344t130 -345t334 -138zM614 1034q225 0 370 -150q144 -151 144 -375t-144 -375q-144 -150 -370 -150t-369 150q-145 150 -145 375t144 375t370 150zM377 1153l-19 21l260 243l261 -243l-19 -21
l-242 180z" />
    <glyph glyph-name="odieresis.sc" horiz-adv-x="1228" 
d="M614 27q203 0 334 138t131 345t-131 344t-334 137q-204 0 -334 -137t-130 -344t130 -345t334 -138zM614 1034q225 0 370 -150q144 -151 144 -375t-144 -375q-144 -150 -370 -150t-369 150q-145 150 -145 375t144 375t370 150zM502 1200q-23 0 -38 15t-15 38t15 39t38 16
t38 -16t15 -39t-15 -38t-38 -15zM735 1200q-23 0 -38 15t-15 38t15 39t38 16t38 -16t15 -39t-15 -38t-38 -15z" />
    <glyph glyph-name="oe.sc" horiz-adv-x="1562" 
d="M745 1018h695v-256h-47v211h-498v-432h387v-45h-387v-453h498v211h47v-254h-695q-265 0 -421 139t-156 369t156 370t421 140zM844 43v930h-99q-242 0 -384 -126t-142 -338t140 -339t382 -127h103z" />
    <glyph glyph-name="ograve.sc" horiz-adv-x="1228" 
d="M399 1382q16 0 50 -22l251 -172l-14 -23l-278 127q-47 23 -48 49q0 17 12 29t27 12zM614 27q203 0 334 138t131 345t-131 344t-334 137q-204 0 -334 -137t-130 -344t130 -345t334 -138zM614 1034q225 0 370 -150q144 -151 144 -375t-144 -375q-144 -150 -370 -150
t-369 150q-145 150 -145 375t144 375t370 150z" />
    <glyph glyph-name="ohungarumlaut.sc" horiz-adv-x="1228" 
d="M1066 1386q18 0 30 -11t12 -25q0 -29 -51 -52l-277 -127l-14 19l252 176q29 20 48 20zM732 1395q18 1 30 -11t12 -26q0 -27 -47 -51l-270 -144l-15 19l242 188q31 25 48 25zM614 27q203 0 334 138t131 345t-131 344t-334 137q-204 0 -334 -137t-130 -344t130 -345
t334 -138zM614 1034q225 0 370 -150q144 -151 144 -375t-144 -375q-144 -150 -370 -150t-369 150q-145 150 -145 375t144 375t370 150z" />
    <glyph glyph-name="omacron.sc" horiz-adv-x="1228" 
d="M338 1229v49h561v-49h-561zM614 27q203 0 334 138t131 345t-131 344t-334 137q-204 0 -334 -137t-130 -344t130 -345t334 -138zM614 1034q225 0 370 -150q144 -151 144 -375t-144 -375q-144 -150 -370 -150t-369 150q-145 150 -145 375t144 375t370 150z" />
    <glyph glyph-name="oslash.sc" horiz-adv-x="1232" 
d="M600 991q-186 0 -318 -137q-130 -137 -130 -345t133 -347l626 725q-125 104 -311 104zM630 27q190 0 320 138q131 138 131 347t-141 350l-629 -727q129 -108 319 -108zM616 1034q188 0 326 -110l123 143l33 -29l-125 -143q157 -147 157 -379t-144 -382t-356 -150
t-347 116l-125 -143l-33 29l125 143q-148 152 -148 378q0 227 144 377t370 150z" />
    <glyph glyph-name="oslashacute.sc" horiz-adv-x="1232" 
d="M555 1165l-14 23l252 172q52 36 76 10q11 -12 12 -29q0 -27 -47 -49zM600 991q-186 0 -318 -137q-130 -137 -130 -345t133 -347l626 725q-125 104 -311 104zM630 27q190 0 320 138q131 138 131 347t-141 350l-629 -727q129 -108 319 -108zM616 1034q188 0 326 -110
l123 143l33 -29l-125 -143q157 -147 157 -379t-144 -382t-356 -150t-347 116l-125 -143l-33 29l125 143q-148 152 -148 378q0 227 144 377t370 150z" />
    <glyph glyph-name="otilde.sc" horiz-adv-x="1228" 
d="M766 1169q-66 -1 -152 65t-132 66t-72 -28t-50 -94l-34 8q37 168 153 168q68 0 151 -66t131 -65q48 -1 75 27t49 93l35 -8q-37 -166 -154 -166zM614 27q203 0 334 138t131 345t-131 344t-334 137q-204 0 -334 -137t-130 -344t130 -345t334 -138zM614 1034q225 0 370 -150
q144 -151 144 -375t-144 -375q-144 -150 -370 -150t-369 150q-145 150 -145 375t144 375t370 150z" />
    <glyph glyph-name="racute.sc" horiz-adv-x="1040" 
d="M317 41h207v-41h-458v41h202v936h-202v41h448q164 0 260 -77t96 -197t-70 -194t-188 -95l254 -414h168v-41h-200l-271 442q-21 -2 -109 -2t-137 2v-401zM512 977h-195v-490q106 -4 183 -4q145 0 234 67q89 66 89 180t-85 180t-226 67zM772 1341q0 -27 -47 -49l-279 -127
l-14 23l252 172q51 36 77 10q11 -12 11 -29z" />
    <glyph glyph-name="rcaron.sc" horiz-adv-x="1040" 
d="M317 41h207v-41h-458v41h202v936h-202v41h448q164 0 260 -77t96 -197t-70 -194t-188 -95l254 -414h168v-41h-200l-271 442q-21 -2 -109 -2t-137 2v-401zM512 977h-195v-490q106 -4 183 -4q145 0 234 67q89 66 89 180t-85 180t-226 67zM758 1419l18 -20l-260 -244
l-260 244l18 20l242 -180z" />
    <glyph glyph-name="rcommaaccent.sc" horiz-adv-x="1040" 
d="M317 41h207v-41h-458v41h202v936h-202v41h448q164 0 260 -77t96 -197t-70 -194t-188 -95l254 -414h168v-41h-200l-271 442q-21 -2 -109 -2t-137 2v-401zM512 977h-195v-490q106 -4 183 -4q145 0 234 67q89 66 89 180t-85 180t-226 67zM523 -125q26 -1 43 -23
q18 -22 18 -80t-43 -124q-43 -68 -111 -109l-12 21q111 96 114 200q-66 4 -65 62q0 23 15 38t41 15z" />
    <glyph glyph-name="sacute.sc" horiz-adv-x="884" 
d="M760 850q0 -31 -14 -49q-14 -19 -36 -19q-20 0 -34 14t-14 40q0 28 34 47q-14 45 -83 78t-172 33t-179 -60q-76 -59 -76 -155t92 -151q63 -39 162 -76q99 -36 143 -56t96 -56q105 -72 104 -190q-1 -119 -98 -193q-97 -73 -245 -73t-243 58q-94 58 -95 126q0 31 14 49
q14 19 36 19t35 -14t13 -42q0 -29 -34 -45q26 -43 96 -76t188 -33t201 62q82 61 82 162q0 62 -45 114t-96 76t-132 55q-146 54 -219 100q-104 65 -104 181q0 115 89 187q90 71 224 71t222 -55t88 -129zM729 1341q0 -27 -47 -49l-279 -127l-14 23l252 172q51 36 77 10
q11 -12 11 -29z" />
    <glyph glyph-name="scaron.sc" horiz-adv-x="884" 
d="M760 850q0 -31 -14 -49q-14 -19 -36 -19q-20 0 -34 14t-14 40q0 28 34 47q-14 45 -83 78t-172 33t-179 -60q-76 -59 -76 -155t92 -151q63 -39 162 -76q99 -36 143 -56t96 -56q105 -72 104 -190q-1 -119 -98 -193q-97 -73 -245 -73t-243 58q-94 58 -95 126q0 31 14 49
q14 19 36 19t35 -14t13 -42q0 -29 -34 -45q26 -43 96 -76t188 -33t201 62q82 61 82 162q0 62 -45 114t-96 76t-132 55q-146 54 -219 100q-104 65 -104 181q0 115 89 187q90 71 224 71t222 -55t88 -129zM713 1419l18 -20l-260 -244l-260 244l18 20l242 -180z" />
    <glyph glyph-name="scedilla.sc" horiz-adv-x="884" 
d="M592 -273q0 -61 -47 -99t-140 -38t-182 41l15 35q84 -37 160 -37t111 28q36 28 36 71q0 92 -154 94q-18 0 -31 -2l-12 10l37 156q-125 10 -204 65t-79 117q0 31 14 49q14 19 36 19t35 -14t13 -42q0 -29 -34 -45q26 -43 96 -76t188 -33t201 62q82 61 82 162q0 62 -45 114
t-96 76t-132 55q-146 54 -219 100q-104 65 -104 181q0 115 89 187q90 71 224 71t222 -55t88 -129q0 -31 -14 -49q-14 -19 -36 -19q-20 0 -34 14t-14 40q0 28 34 47q-14 45 -83 78t-172 33t-179 -60q-76 -59 -76 -155t92 -151q63 -39 162 -76q99 -36 143 -56t96 -56
q105 -72 104 -190q-1 -119 -98 -193t-249 -73h-16l-19 -123q91 -2 141 -37t50 -97z" />
    <glyph glyph-name="scommaaccent.sc" horiz-adv-x="884" 
d="M760 850q0 -31 -14 -49q-14 -19 -36 -19q-20 0 -34 14t-14 40q0 28 34 47q-14 45 -83 78t-172 33t-179 -60q-76 -59 -76 -155t92 -151q63 -39 162 -76q99 -36 143 -56t96 -56q105 -72 104 -190q-1 -119 -98 -193q-97 -73 -245 -73t-243 58q-94 58 -95 126q0 31 14 49
q14 19 36 19t35 -14t13 -42q0 -29 -34 -45q26 -43 96 -76t188 -33t201 62q82 61 82 162q0 62 -45 114t-96 76t-132 55q-146 54 -219 100q-104 65 -104 181q0 115 89 187q90 71 224 71t222 -55t88 -129zM389 -178q0 23 15 38t41 15q26 -1 43 -23q18 -22 18 -80t-43 -124
q-43 -68 -111 -109l-12 21q111 96 115 200q-66 4 -66 62z" />
    <glyph glyph-name="tcaron.sc" horiz-adv-x="1019" 
d="M760 1419l18 -20l-260 -244l-260 244l18 20l242 -180zM276 0v41h209v936h-352v-215h-47v256h848v-256h-47v215h-352v-936h208v-41h-467z" />
    <glyph glyph-name="tcommaaccent.sc" horiz-adv-x="1019" 
d="M492 -125q60 -1 61 -103q0 -58 -43 -124q-43 -68 -111 -109l-12 21q111 96 115 200q-66 4 -66 62q0 23 16 38q14 15 40 15zM276 0v41h209v936h-352v-215h-47v256h848v-256h-47v215h-352v-936h208v-41h-467z" />
    <glyph glyph-name="thorn.sc" horiz-adv-x="950" 
d="M317 977v-158q76 4 191 4q166 0 265 -83t99 -219t-96 -218t-252 -82t-207 4v-184h205v-41h-456v41h202v936h-202v41h456v-41h-205zM510 264q150 0 230 71t81 187q0 116 -85 187q-85 72 -226 71q-41 0 -193 -4v-508q102 -4 193 -4z" />
    <glyph glyph-name="uacute.sc" horiz-adv-x="1224" 
d="M289 977v-612q0 -162 85 -250q84 -88 238 -88t239 88t85 250v612h-207v41h453v-41h-197v-612q0 -185 -97 -283q-98 -98 -276 -98t-275 98t-97 283v612h-197v41h453v-41h-207zM551 1165l-14 23l251 172q53 37 77 10q11 -12 12 -29q0 -27 -48 -49z" />
    <glyph glyph-name="ubreve.sc" horiz-adv-x="1224" 
d="M618 1165q-88 -1 -158 55t-102 144l35 16q71 -154 225 -154t226 154l35 -16q-33 -88 -103 -144t-158 -55zM289 977v-612q0 -162 85 -250q84 -88 238 -88t239 88t85 250v612h-207v41h453v-41h-197v-612q0 -185 -97 -283q-98 -98 -276 -98t-275 98t-97 283v612h-197v41h453
v-41h-207z" />
    <glyph glyph-name="ucircumflex.sc" horiz-adv-x="1224" 
d="M289 977v-612q0 -162 85 -250q84 -88 238 -88t239 88t85 250v612h-207v41h453v-41h-197v-612q0 -185 -97 -283q-98 -98 -276 -98t-275 98t-97 283v612h-197v41h453v-41h-207zM377 1153l-19 21l260 243l261 -243l-19 -21l-242 180z" />
    <glyph glyph-name="udieresis.sc" horiz-adv-x="1224" 
d="M289 977v-612q0 -162 85 -250q84 -88 238 -88t239 88t85 250v612h-207v41h453v-41h-197v-612q0 -185 -97 -283q-98 -98 -276 -98t-275 98t-97 283v612h-197v41h453v-41h-207zM502 1200q-23 0 -38 15t-15 38t15 39t38 16t38 -16t15 -39t-15 -38t-38 -15zM735 1200
q-23 0 -38 15t-15 38t15 39t38 16t38 -16t15 -39t-15 -38t-38 -15z" />
    <glyph glyph-name="ugrave.sc" horiz-adv-x="1224" 
d="M289 977v-612q0 -162 85 -250q84 -88 238 -88t239 88t85 250v612h-207v41h453v-41h-197v-612q0 -185 -97 -283q-98 -98 -276 -98t-275 98t-97 283v612h-197v41h453v-41h-207zM397 1382q16 0 49 -22l252 -172l-14 -23l-278 127q-47 23 -48 49q0 17 12 29t27 12z" />
    <glyph glyph-name="uhungarumlaut.sc" horiz-adv-x="1224" 
d="M289 977v-612q0 -162 85 -250q84 -88 238 -88t239 88t85 250v612h-207v41h453v-41h-197v-612q0 -185 -97 -283q-98 -98 -276 -98t-275 98t-97 283v612h-197v41h453v-41h-207zM1064 1386q18 0 30 -11t12 -25q0 -29 -51 -52l-277 -127l-14 19l252 176q29 20 48 20z
M730 1395q18 1 30 -11t12 -26q0 -27 -47 -51l-270 -144l-15 19l242 188q31 25 48 25z" />
    <glyph glyph-name="umacron.sc" horiz-adv-x="1224" 
d="M289 977v-612q0 -162 85 -250q84 -88 238 -88t239 88t85 250v612h-207v41h453v-41h-197v-612q0 -185 -97 -283q-98 -98 -276 -98t-275 98t-97 283v612h-197v41h453v-41h-207zM338 1229v49h561v-49h-561z" />
    <glyph glyph-name="uogonek.sc" horiz-adv-x="1224" 
d="M289 977v-612q0 -162 85 -250q84 -88 238 -88t239 88t85 250v612h-207v41h453v-41h-197v-612q0 -171 -85 -269t-241 -110q-152 -88 -151 -217q0 -61 38 -99t112 -39q74 0 139 45l-2 -43q-59 -45 -149 -45t-138 47q-49 47 -49 125q0 129 135 224q-170 4 -262 102t-92 279
v612h-197v41h453v-41h-207z" />
    <glyph glyph-name="uring.sc" horiz-adv-x="1224" 
d="M289 977v-612q0 -162 85 -250q84 -88 238 -88t239 88t85 250v612h-207v41h453v-41h-197v-612q0 -185 -97 -283q-98 -98 -276 -98t-275 98t-97 283v612h-197v41h453v-41h-207zM618 1192q55 0 90 38q34 38 33 93q0 55 -34 94q-35 39 -89 39t-88 -39t-34 -94t34 -93t88 -38z
M618 1151q-74 0 -122 50t-50 122q0 72 50 123t122 51q74 0 123 -51t49 -123t-48 -122q-50 -50 -124 -50z" />
    <glyph glyph-name="wacute.sc" horiz-adv-x="1622" 
d="M1075 1341q0 -27 -47 -49l-278 -127l-15 23l252 172q51 36 77 10q11 -12 11 -29zM8 977v41h443v-41h-213l278 -911l285 808h22l287 -808l279 911h-213v41h438v-41h-178l-308 -1002h-32l-285 811l-285 -811h-30l-310 1002h-178z" />
    <glyph glyph-name="wcircumflex.sc" horiz-adv-x="1622" 
d="M8 977v41h443v-41h-213l278 -911l285 808h22l287 -808l279 911h-213v41h438v-41h-178l-308 -1002h-32l-285 811l-285 -811h-30l-310 1002h-178zM575 1153l-18 21l260 243l260 -243l-18 -21l-242 180z" />
    <glyph glyph-name="wdieresis.sc" horiz-adv-x="1622" 
d="M8 977v41h443v-41h-213l278 -911l285 808h22l287 -808l279 911h-213v41h438v-41h-178l-308 -1002h-32l-285 811l-285 -811h-30l-310 1002h-178zM700 1200q-24 0 -38 15t-15 38t15 39t38 16t38 -16t16 -39t-16 -38t-38 -15zM934 1200q-23 0 -38 15t-15 38t15 39t38 16
t38 -16t15 -39t-15 -38t-38 -15z" />
    <glyph glyph-name="wgrave.sc" horiz-adv-x="1622" 
d="M559 1341q0 17 11 29q12 12 28 12t49 -22l252 -172l-14 -23l-279 127q-47 23 -47 49zM8 977v41h443v-41h-213l278 -911l285 808h22l287 -808l279 911h-213v41h438v-41h-178l-308 -1002h-32l-285 811l-285 -811h-30l-310 1002h-178z" />
    <glyph glyph-name="yacute.sc" horiz-adv-x="1097" 
d="M1092 1018v-41h-170l-349 -590v-346h207v-41h-463v41h207v346l-346 590h-172v41h428v-41h-201l316 -547l319 547h-202v41h426zM813 1341q0 -27 -47 -49l-279 -127l-14 23l252 172q51 36 77 10q11 -12 11 -29z" />
    <glyph glyph-name="ycircumflex.sc" horiz-adv-x="1097" 
d="M1092 1018v-41h-170l-349 -590v-346h207v-41h-463v41h207v346l-346 590h-172v41h428v-41h-201l316 -547l319 547h-202v41h426zM313 1153l-18 21l260 243l260 -243l-18 -21l-242 180z" />
    <glyph glyph-name="ydieresis.sc" horiz-adv-x="1097" 
d="M1092 1018v-41h-170l-349 -590v-346h207v-41h-463v41h207v346l-346 590h-172v41h428v-41h-201l316 -547l319 547h-202v41h426zM438 1200q-23 0 -38 15t-15 38t15 39t38 16t38 -16q16 -16 16 -39t-16 -38t-38 -15zM672 1200q-23 0 -38 15t-16 38q0 23 16 39t38 16
q23 0 38 -16t15 -39t-15 -38t-38 -15z" />
    <glyph glyph-name="ygrave.sc" horiz-adv-x="1097" 
d="M297 1341q0 17 11 29q12 12 28 12t49 -22l252 -172l-14 -23l-279 127q-47 23 -47 49zM1092 1018v-41h-170l-349 -590v-346h207v-41h-463v41h207v346l-346 590h-172v41h428v-41h-201l316 -547l319 547h-202v41h426z" />
    <glyph glyph-name="zacute.sc" horiz-adv-x="944" 
d="M88 0v27l705 950h-635v-211h-47v252h749v-27l-704 -950h663v211h47v-252h-778zM741 1341q0 -27 -47 -49l-278 -127l-15 23l252 172q53 37 77 10q11 -12 11 -29z" />
    <glyph glyph-name="zcaron.sc" horiz-adv-x="944" 
d="M88 0v27l705 950h-635v-211h-47v252h749v-27l-704 -950h663v211h47v-252h-778zM725 1419l18 -20l-260 -244l-260 244l19 20l241 -180z" />
    <glyph glyph-name="zdotaccent.sc" horiz-adv-x="944" 
d="M483 1196q-25 0 -41 17t-16 41t16 42t41 18t41 -18t16 -42t-16 -41t-41 -17zM88 0v27l705 950h-635v-211h-47v252h749v-27l-704 -950h663v211h47v-252h-778z" />
    <glyph glyph-name="zero.lin" horiz-adv-x="1210" 
d="M605 25q189 0 311 182t122 467t-122 467t-312 182t-312 -182q-120 -182 -120 -467t122 -467t311 -182zM603 -20q-210 0 -347 192t-137 501q0 308 139 502q139 193 349 193t348 -192q139 -192 139 -502t-140 -502t-351 -192z" />
    <glyph glyph-name="one.lin" horiz-adv-x="765" 
d="M90 0v45h285v1258l-281 -74l-10 45l324 86h20v-1315h281v-45h-619z" />
    <glyph glyph-name="two.lin" horiz-adv-x="1056" 
d="M197 969q-60 0 -60 90q0 45 23 96q41 93 134 153t218 60q174 0 283 -101t109 -239t-79 -240q-78 -100 -215 -202q-138 -102 -204 -160q-66 -60 -140 -162t-106 -219h717v285h51v-330h-815l-13 20q55 207 185 349q68 75 123 121t178 138q124 92 194 182q70 89 70 214
t-93 212t-245 87q-106 0 -186 -49q-111 -68 -138 -189q63 -12 64 -63q0 -25 -15 -39t-40 -14z" />
    <glyph glyph-name="three.lin" horiz-adv-x="1007" 
d="M475 25q170 0 265 93t96 230q0 207 -207 291q-104 39 -236 39h-33v45h35q141 0 250 65q158 92 158 254q0 121 -86 201t-238 80q-96 0 -174 -38t-115 -101q-16 -33 -20 -49q23 -3 38 -19t15 -36t-15 -36t-37 -16t-39 20t-17 60q0 39 26 86q43 78 135 126t205 48
q173 0 275 -96t102 -230q0 -188 -186 -290q-66 -33 -131 -47q76 -12 127 -35q221 -88 221 -320q0 -164 -115 -267t-301 -103q-109 0 -206 42t-141 102t-44 124t57 63q23 0 37 -14t14 -37q0 -43 -51 -55q26 -96 159 -148q85 -32 177 -32z" />
    <glyph glyph-name="four.lin" horiz-adv-x="1081" 
d="M410 0v45h264v379h-619l-8 16l672 932l39 -29l-635 -876h551v436l53 23v-459h252v-43h-252v-379h215v-45h-532z" />
    <glyph glyph-name="five.lin" horiz-adv-x="976" 
d="M431 25q175 0 283 104t108 273q0 168 -100 266q-99 98 -260 98t-296 -64l-25 19l68 627h592v-54h-551l-57 -532q117 51 253 51q195 1 312 -107q116 -108 116 -298t-124 -309q-124 -120 -304 -119q-215 0 -315 118q-45 51 -45 111q0 27 15 47t40 20t39 -15t15 -36
q0 -45 -50 -59q10 -25 25 -41q86 -100 261 -100z" />
    <glyph glyph-name="six.lin" horiz-adv-x="1091" 
d="M559 25q160 1 264 109q105 108 105 266t-100 262t-259 104q-157 0 -269 -106t-112 -260t106 -264t265 -111zM913 1167q0 -68 -53 -67q-23 0 -39 15t-16 46t41 49q-16 35 -43 54q-74 59 -189 59q-204 0 -324 -200t-122 -593v-26q16 94 92 176q119 131 305 131t301 -116
t115 -293t-120 -300q-120 -122 -298 -122t-310 126t-132 445q0 413 136 615t357 202q141 0 232 -76q67 -57 67 -125z" />
    <glyph glyph-name="seven.lin" horiz-adv-x="937" 
d="M139 1303v-254h-49v299h772l12 -21l-552 -1327h-52l545 1303h-676z" />
    <glyph glyph-name="eight.lin" horiz-adv-x="1085" 
d="M913 345q0 139 -106 237t-265 98q-160 0 -266 -96t-106 -236t108 -232q108 -91 266 -91q157 0 263 90t106 230zM544 723q151 0 247 82t96 211q-1 129 -101 218t-243 89t-243 -89t-101 -216q0 -127 97 -211t248 -84zM543 -20q-184 0 -305 103t-121 269q0 123 84 219
t217 129q-123 31 -199 115t-76 217q0 132 116 234t285 102q168 0 282 -101t114 -235t-75 -217q-75 -84 -197 -115q133 -33 216 -129t83 -219q0 -166 -120 -269t-304 -103z" />
    <glyph glyph-name="nine.lin" horiz-adv-x="1091" 
d="M164 942q0 -162 99 -266t258 -103q159 -1 271 105t112 267t-105 265q-105 113 -267 113t-265 -110q-103 -109 -103 -271zM166 182q0 66 57 66q23 0 37 -14t14 -37q0 -41 -43 -56q23 -37 60 -59q94 -57 194 -57q197 0 320 184t121 584q0 18 -2 26q-12 -61 -41 -104
q-55 -86 -149 -137t-206 -52q-192 0 -306 115t-114 298t120 306t301 123t311 -130t131 -445q0 -433 -132 -623t-354 -190q-143 0 -231 68t-88 134z" />
    <glyph glyph-name="bullet.alt" horiz-adv-x="1241" 
d="M621 -98q-215 0 -369 154t-154 369q0 216 154 369q154 152 369 152t369 -152t153 -369q1 -215 -153 -369t-369 -154z" />
    <glyph glyph-name="hyphen.lin" horiz-adv-x="512" 
d="M76 651v49h360v-49h-360z" />
    <glyph glyph-name="endash.lin" horiz-adv-x="806" 
d="M39 651v49h729v-49h-729z" />
    <glyph glyph-name="emdash.lin" horiz-adv-x="1341" 
d="M39 651v49h1261v-49h-1261z" />
    <glyph glyph-name="parenleft.lin" horiz-adv-x="638" 
d="M141 655q0 271 126 541t370 453l31 -37q-242 -182 -358 -438q-234 -516 0 -1037q116 -256 358 -438l-31 -37q-244 182 -370 452t-126 541z" />
    <glyph glyph-name="parenright.lin" horiz-adv-x="638" 
d="M496 656q0 -270 -126 -542q-126 -270 -370 -452l-29 37q240 182 357 438q235 514 0 1035q-117 257 -357 440l29 37q244 -183 370 -453t126 -540z" />
    <glyph glyph-name="bracketleft.lin" horiz-adv-x="641" 
d="M219 -287v1909h389v-45h-338v-1819h338v-45h-389z" />
    <glyph glyph-name="bracketright.lin" horiz-adv-x="641" 
d="M31 -287v45h338v1819h-338v45h391v-1909h-391z" />
    <glyph glyph-name="braceleft.lin" horiz-adv-x="614" 
d="M129 -37q0 109 130 257t130 228t-64 137q-65 56 -163 56h-66v47h66q98 0 163 55t65 137t-124 218q-137 158 -137 266t108 196q108 87 273 89v-41q-154 -6 -242 -80t-88 -166t130 -238t130 -235q0 -87 -61 -149t-162 -76q99 -12 161 -74t62 -151q0 -90 -129 -232
q-131 -152 -131 -243t88 -164t242 -81v-41q-166 2 -274 90t-107 195z" />
    <glyph glyph-name="braceright.lin" horiz-adv-x="614" 
d="M432 -35q0 92 -129 242q-131 143 -131 233t62 150q62 61 161 74q-100 14 -162 75q-61 61 -61 149t130 233t130 239t-88 168t-240 80v41q166 -2 274 -89q108 -86 108 -196t-131 -254q-130 -144 -130 -228q-1 -82 63 -138t165 -56h63v-47h-63q-99 0 -163 -56t-64 -137
t129 -228q130 -146 130 -256q1 -110 -107 -197t-274 -89v41q154 8 241 81t87 165z" />
    <glyph glyph-name="registered.alt" horiz-adv-x="1187" 
d="M575 760h-83v-244h75q70 0 114 33t44 90t-41 89t-109 32zM567 254h-192v33h80v473h-80v33h203q84 0 135 -42q51 -43 51 -105q0 -122 -125 -152l129 -207h70v-33h-97l-141 229h-108v-196h75v-33zM111 513q0 -207 138 -353t344 -146t344 146t138 354q0 207 -137 352
q-137 146 -344 146t-345 -146t-138 -353zM593 -18q-222 0 -370 153q-147 154 -147 377t147 378q147 154 369 154t371 -154q147 -155 147 -377t-147 -377q-148 -154 -370 -154z" />
    <glyph glyph-name="copyright.lin" horiz-adv-x="1581" 
d="M813 995q-125 0 -208 -92t-83 -219t83 -218t210 -91t223 90l21 -29q-103 -98 -247 -98t-238 101q-93 101 -93 246q-1 145 97 246t235 101q100 0 173 -52t73 -108t-43 -57q-16 0 -27 10q-10 10 -10 27q0 31 35 39q-12 39 -68 71t-133 33zM162 674q0 -280 180 -468
t450 -188q269 0 448 188t179 468q0 279 -180 467t-449 188q-268 0 -448 -188t-180 -467zM1460 674q0 -290 -192 -490t-478 -200t-478 199q-191 200 -191 491q1 290 193 490t478 200t477 -200t191 -490z" />
    <glyph glyph-name="published.lin" horiz-adv-x="1581" 
d="M834 633q91 0 145 47q53 47 53 125t-57 125t-148 47h-110v-342q26 -2 117 -2zM717 373h98v-35h-231v35h94v604h-94v35h241q109 0 177 -56t69 -151q0 -94 -65 -152q-66 -57 -175 -57l-114 2v-225zM162 674q0 -280 180 -468t450 -188q269 0 448 188t179 468q0 279 -180 467
t-449 188q-268 0 -448 -188t-180 -467zM1460 674q0 -290 -192 -490t-478 -200t-478 199q-191 200 -191 491q1 290 193 490t478 200t477 -200t191 -490z" />
    <glyph glyph-name="registered.lin" horiz-adv-x="1581" 
d="M676 676h110q86 0 141 41q54 41 54 116t-52 115t-141 41h-112v-313zM676 639v-254h94v-35h-227v35h94v604h-94v35h250q102 0 165 -53q64 -53 64 -131t-46 -127t-120 -64l172 -264h84v-35h-111l-186 289h-139zM162 674q0 -280 180 -468t450 -188q269 0 448 188t179 468
q0 279 -180 467t-449 188q-268 0 -448 -188t-180 -467zM1460 674q0 -290 -192 -490t-478 -200t-478 199q-191 200 -191 491q1 290 193 490t478 200t477 -200t191 -490z" />
    <glyph glyph-name="dollar.lin" horiz-adv-x="1085" 
d="M238 1031q0 -121 76 -185t227 -119l49 576q-160 6 -256 -73t-96 -199zM926 334q0 133 -84 201t-262 131l-54 -623q178 -8 289 75t111 216zM111 255q0 79 55 79t55 -55q0 -41 -37 -64q25 -59 105 -107t192 -61l56 633q-160 58 -229 110q-68 52 -95 108t-27 128
q0 146 112 236t296 84l16 182l43 -6l-16 -179q137 -14 227 -87q90 -72 90 -146t-53 -74q-23 0 -39 14t-16 48q0 33 37 59q-18 51 -85 90t-165 51l-49 -587q96 -35 151 -60q160 -73 210 -172q30 -59 30 -137q0 -164 -129 -258t-324 -84l-16 -197l-45 7l16 194
q-164 18 -265 95t-101 156z" />
    <glyph glyph-name="sterling.lin" horiz-adv-x="1071" 
d="M1014 164q-52 -182 -240 -182q-96 0 -249 49t-253 49h-10q-54 -92 -108 -92t-54 43q0 33 38 59t112 27q125 143 125 327q0 51 -13 107h-219v47h209q-16 61 -30 111q-64 181 -64 315t95 236t241 102t235 -70t89 -144t-56 -75q-49 0 -49 53q0 43 41 62q-18 55 -88 92
t-182 37t-193 -90q-80 -89 -80 -209t60 -291q31 -106 35 -129h354v-47h-344q8 -70 8 -107q0 -195 -127 -325h2q102 0 249 -46t232 -46q145 0 193 155z" />
    <glyph glyph-name="Euro.lin" horiz-adv-x="1390" 
d="M45 795v47h211q47 236 201 379t364 143q180 2 304 -101t124 -225q0 -36 -18 -60t-43 -24t-42 18t-18 42q0 51 66 65q-16 88 -118 164t-255 76q-193 0 -332 -130t-184 -347h557v-47h-565q-8 -57 -8 -135t8 -136h565v-45h-557q43 -211 176 -332t324 -120q242 0 403 161
l29 -34q-184 -172 -432 -172q-211 0 -358 133q-146 133 -191 364h-211v45h203q-8 58 -8 136t8 135h-203z" />
    <glyph glyph-name="yen.lin" horiz-adv-x="1288" 
d="M399 0v43h217v283h-356v43h356v194h-356v41h338l-412 699h-159v45h409v-45h-188l397 -689l395 689h-188v45h408v-45h-162l-410 -699h338v-41h-358v-194h358v-43h-358v-283h217v-43h-486z" />
    <glyph glyph-name="cent.lin" horiz-adv-x="917" 
d="M131 700q0 -160 82 -258t215 -127l68 777q-156 -4 -260 -118t-105 -274zM80 700q0 178 123 304t297 129l22 239l43 -4l-22 -238q125 -12 206 -80t81 -142q0 -75 -58 -74q-18 0 -33 13q-14 13 -14 34q0 49 53 61q-18 59 -84 100t-155 48l-68 -783q18 -2 55 -2
q162 0 285 88l-2 -49q-123 -80 -285 -80q-39 0 -57 2l-27 -303l-43 4l27 305q-156 29 -250 139q-94 111 -94 289z" />
    <glyph glyph-name="numbersign.lin" horiz-adv-x="1089" 
d="M418 889l-68 -445h320l67 445h-319zM117 889v43h260l65 416h47l-63 -416h319l64 416h47l-65 -416h262v-43h-269l-69 -445h256v-43h-262l-62 -401h-47l64 401h-320l-63 -401h-48l62 401h-260v43h266l70 445h-254z" />
    <glyph glyph-name="paragraph.lin" horiz-adv-x="1247" 
d="M770 45h154v1258h-154v-1258zM528 0v45h189v461q-37 -2 -142 -2q-221 0 -353 116t-132 307t140 306t354 115h571v-45h-176v-1258h176v-45h-627z" />
    <glyph glyph-name="section.lin" horiz-adv-x="1054" 
d="M545 874l-88 25q-152 -33 -214 -86q-63 -53 -63 -135t94 -127q72 -35 232 -78l86 -24q279 59 278 219q0 95 -133 147q-87 32 -192 59zM221 231q51 0 51 -51q0 -35 -28 -53q24 -41 96 -70t186 -29t197 52q82 51 82 135t-71 126q-71 43 -196 75t-203 56t-121 58
q-85 69 -85 148q0 182 268 240q-100 34 -150 82t-50 128q0 106 98 172t245 66t246 -61q98 -53 99 -127q-1 -25 -17 -42q-16 -18 -39 -18t-37 14t-14 44t29 47q-20 31 -51 47q-80 49 -212 49t-215 -52q-83 -53 -83 -137t70 -124t203 -74q132 -34 181 -50q50 -16 108 -47
q114 -59 114 -165q0 -184 -273 -240q103 -37 155 -85t52 -140t-98 -157t-244 -64q-197 0 -297 96q-49 39 -49 94q0 23 15 40t38 17z" />
    <glyph glyph-name="ordfeminine.lin" horiz-adv-x="622" 
d="M242 1022q104 0 182 92v109q-74 29 -155 29t-119 -34t-39 -82q0 -48 34 -81t97 -33zM76 813v35h479v-35h-479zM424 1337q0 144 -145 144q-82 0 -119 -41q12 -10 12 -31q0 -35 -36 -35t-36 39t50 72t131 33q80 0 132 -42t52 -133v-313h90v-35h-129v80q-78 -90 -171 -90
t-139 42t-46 108q0 67 54 109t143 42t157 -29v80z" />
    <glyph glyph-name="ordmasculine.lin" horiz-adv-x="663" 
d="M332 1022q94 0 155 67t61 165t-60 163q-62 66 -156 66t-156 -66t-61 -164q-1 -99 61 -165t156 -66zM590 1253q0 -115 -74 -191t-185 -75q-112 0 -185 76q-72 75 -72 189t73 191q74 77 185 77q110 0 184 -76t74 -191zM102 813v35h457v-35h-457z" />
    <glyph glyph-name="degree.lin" horiz-adv-x="548" 
d="M274 1061q84 0 137 58q52 59 52 145t-52 144q-53 58 -137 58t-137 -58t-53 -144t53 -144t137 -59zM274 1020q-100 0 -169 71t-68 173q0 102 68 173q69 71 169 71t169 -72q69 -70 69 -172t-69 -173t-169 -71z" />
    <glyph glyph-name="percent.lin" horiz-adv-x="1269" 
d="M711 273q0 -103 62 -175q63 -72 161 -72t160 71q61 71 61 175t-61 176q-62 72 -160 72t-161 -71q-62 -73 -62 -176zM659 272q0 123 78 207t196 84q119 0 197 -84t78 -207q0 -122 -79 -206t-197 -84t-195 84q-78 84 -78 206zM195 -8l-37 24l919 1342l37 -25zM113 1075
q0 -104 62 -176q63 -72 161 -72t160 72q61 72 61 175t-61 175q-62 72 -160 72t-160 -71t-63 -175zM61 1075q0 123 78 207t196 84q119 0 197 -84t78 -207t-79 -207t-197 -84t-195 84q-78 84 -78 207z" />
    <glyph glyph-name="perthousand.lin" horiz-adv-x="1916" 
d="M1358 273q0 -103 62 -175t160 -72t161 71q61 71 61 175t-61 176t-159 72t-162 -71q-62 -73 -62 -176zM1307 272q0 123 77 207q78 84 196 84t197 -84t79 -207q0 -122 -80 -206q-78 -84 -196 -84t-196 84t-77 206zM711 273q0 -103 62 -175q63 -72 161 -72t160 71
q61 71 61 175t-61 176q-62 72 -160 72t-161 -71q-62 -73 -62 -176zM659 272q0 123 78 207t196 84q119 0 197 -84t78 -207q0 -122 -79 -206t-197 -84t-195 84q-78 84 -78 206zM195 -8l-37 24l919 1342l37 -25zM113 1075q0 -104 62 -176q63 -72 161 -72t160 72q61 72 61 175
t-61 175q-62 72 -160 72t-160 -71t-63 -175zM61 1075q0 123 78 207t196 84q119 0 197 -84t78 -207t-79 -207t-197 -84t-195 84q-78 84 -78 207z" />
    <glyph glyph-name="quotedbl.lin" horiz-adv-x="487" 
d="M117 1153l-29 289q-6 72 39 71q49 0 39 -71l-27 -289h-22zM348 1153l-29 289q-6 72 39 71q49 0 39 -71l-26 -289h-23z" />
    <glyph glyph-name="quotesingle.lin" horiz-adv-x="258" 
d="M117 1153l-29 289q-6 72 39 71q49 0 39 -71l-27 -289h-22z" />
    <glyph glyph-name="plus.lin" horiz-adv-x="790" 
d="M371 379v283h-275v45h275v282h47v-282h276v-45h-276v-283h-47z" />
    <glyph glyph-name="minus.lin" horiz-adv-x="790" 
d="M96 662v45h598v-45h-598z" />
    <glyph glyph-name="divide.lin" horiz-adv-x="790" 
d="M395 385q-23 0 -38 16t-15 39t15 39q15 17 38 17t38 -16t15 -40q0 -23 -14 -39q-16 -16 -39 -16zM395 872q-23 0 -38 16t-15 40q0 23 15 39t38 16t38 -16t15 -39q0 -24 -14 -40q-16 -16 -39 -16zM694 662h-598v45h598v-45z" />
    <glyph glyph-name="equal.lin" horiz-adv-x="790" 
d="M96 500v45h598v-45h-598zM96 778v45h598v-45h-598z" />
    <glyph glyph-name="multiply.lin" horiz-adv-x="790" 
d="M641 406l-246 245l-245 -245l-33 32l245 246l-245 246l33 35l245 -248l246 248l33 -35l-246 -244l246 -248z" />
    <glyph glyph-name="less.lin" horiz-adv-x="749" 
d="M578 342l-474 311v17l474 311l26 -37l-432 -282l432 -283z" />
    <glyph glyph-name="greater.lin" horiz-adv-x="749" 
d="M172 342l-27 37l430 283l-430 282l27 37l473 -311v-17z" />
    <glyph glyph-name="plusminus.lin" horiz-adv-x="790" 
d="M96 295v45h598v-45h-598zM371 469v285h-275v45h275v282h47v-282h276v-45h-276v-285h-47z" />
    <glyph glyph-name="zero.tab" horiz-adv-x="1085" 
d="M543 1325q-172 0 -285 -179t-113 -468t112 -469t286 -180q173 0 285 180t112 469t-112 468t-285 179zM543 -20q-195 0 -323 192t-128 504q0 311 128 505q128 193 323 193t323 -194t127 -504q1 -312 -127 -504t-323 -192z" />
    <glyph glyph-name="one.tab" horiz-adv-x="1085" 
d="M184 0v47h353v1253l-342 -102l-11 49l375 111h31v-1311h350v-47h-756z" />
    <glyph glyph-name="two.tab" horiz-adv-x="1085" 
d="M539 1370q173 0 281 -96t108 -242t-80 -244t-252 -227q-354 -264 -424 -514h733v258h51v-305h-835l-12 25q33 125 113 239t156 182q75 68 211 172t210 195q73 90 73 216t-94 210t-223 84t-215 -49q-114 -65 -145 -193q63 -8 63 -61q0 -23 -15 -39t-40 -16q-59 0 -60 82
q0 57 29 114q45 93 142 151t225 58z" />
    <glyph glyph-name="three.tab" horiz-adv-x="1085" 
d="M186 1018q-55 0 -55 82q0 46 41 106q119 166 352 166q180 0 291 -92t111 -233q0 -203 -232 -297q-76 -33 -145 -41q224 -28 335 -156q71 -82 70 -197q0 -162 -124 -268t-320 -106q-121 0 -218 43t-153 114q-41 57 -41 103q0 82 58 84q20 0 35 -16t15 -36t-13 -36
q-14 -16 -39 -19q12 -41 34 -63q45 -55 131 -90t191 -35q174 0 283 94t108 229q0 207 -242 291q-102 37 -243 37h-39v47h43q133 0 244 49q209 86 208 269q0 119 -95 197t-257 79q-197 0 -299 -129q-23 -29 -35 -68q53 -12 54 -57q0 -19 -16 -35t-38 -16z" />
    <glyph glyph-name="four.tab" horiz-adv-x="1085" 
d="M453 0v47h254v369h-650l-10 20l703 936l43 -29l-664 -882h578v438l53 23v-461h246v-45h-246v-369h215v-47h-522z" />
    <glyph glyph-name="five.tab" horiz-adv-x="1085" 
d="M520 760q-168 0 -327 -68l-21 8l76 648h631v-54h-586l-64 -536q121 53 275 53q205 0 335 -106t130 -298q0 -191 -133 -309t-342 -118t-328 118q-53 56 -53 98q0 80 57 80q20 0 36 -14t15 -35q0 -45 -49 -59q85 -137 334 -137q180 0 295 105q115 104 115 268t-114 260
t-282 96z" />
    <glyph glyph-name="six.tab" horiz-adv-x="1085" 
d="M558 29q159 -1 263 109q105 110 105 268t-104 261t-262 103t-266 -108t-108 -265q0 -156 106 -262t266 -106zM915 1166q0 -66 -54 -66t-54 62q0 32 41 46q-58 115 -242 115t-313 -200t-129 -556v-63q14 82 76 160q125 156 315 156t308 -118q118 -116 118 -294t-121 -304
t-306 -124q-185 0 -302 122q-139 143 -139 467q0 477 221 685q130 122 281 121t241 -87q59 -56 59 -122z" />
    <glyph glyph-name="seven.tab" horiz-adv-x="1085" 
d="M176 1300v-253h-53v301h874l9 -17l-611 -1331h-57l594 1300h-756z" />
    <glyph glyph-name="eight.tab" horiz-adv-x="1085" 
d="M543 725q147 0 248 86q100 86 100 213t-99 214t-249 87t-249 -87t-99 -214q1 -127 101 -213t247 -86zM543 1372q173 0 287 -95t114 -249q0 -121 -83 -210t-210 -116q131 -20 227 -118t95 -245q0 -147 -124 -252t-306 -105t-306 105t-124 267q0 132 95 230t226 118
q-127 27 -210 116t-83 210q0 154 115 249t287 95zM543 29q161 0 269 93t108 230q0 138 -112 232t-266 94t-264 -94q-112 -94 -112 -232t108 -230q108 -93 269 -93z" />
    <glyph glyph-name="nine.tab" horiz-adv-x="1085" 
d="M528 1325q-158 0 -262 -111q-104 -110 -104 -270t103 -264t261 -104t267 109t109 267t-108 266t-266 107zM975 784q0 -204 -43 -364t-117 -253q-149 -187 -340 -187q-145 0 -244 88q-63 57 -63 116q0 29 15 47q15 19 39 19t39 -14t15 -46t-43 -47q14 -27 41 -49
q76 -66 207 -65q186 0 315 200q128 201 128 557q0 37 -2 56q-18 -88 -76 -158q-120 -158 -312 -158t-310 118t-118 298t121 306t306 126t303 -123q139 -143 139 -467z" />
    <glyph glyph-name="period.tab" horiz-adv-x="542" 
d="M272 -18q-27 0 -44 18t-17 45t17 44t44 17t44 -17q18 -17 18 -44t-18 -45t-44 -18z" />
    <glyph glyph-name="comma.tab" horiz-adv-x="542" 
d="M209 46q0 26 17 42t40 16q66 0 66 -90q0 -143 -162 -252l-14 23q115 98 118 203q-25 -4 -45 14t-20 44z" />
    <glyph glyph-name="colon.tab" horiz-adv-x="542" 
d="M272 578q-27 0 -44 17t-17 44t17 45t44 18t44 -18q18 -18 18 -45t-18 -44t-44 -17zM272 -18q-27 0 -44 18t-17 45t17 44t44 17t44 -17q18 -17 18 -44t-18 -45t-44 -18z" />
    <glyph glyph-name="semicolon.tab" horiz-adv-x="542" 
d="M272 578q-27 0 -44 17t-17 44t17 45t44 18t44 -18q18 -18 18 -45t-18 -44t-44 -17zM211 46q0 26 17 42t40 16q66 0 66 -90q0 -143 -160 -252l-16 23q115 98 118 203q-25 -4 -45 14t-20 44z" />
    <glyph glyph-name="twodotleader.tab" horiz-adv-x="1085" 
d="M815 -18q-27 0 -44 18t-17 45t17 44t44 17t44 -17t17 -44t-16 -45q-18 -18 -45 -18zM272 -18q-27 0 -44 18t-17 45t17 44t44 17t44 -17q18 -17 18 -44t-18 -45t-44 -18z" />
    <glyph glyph-name="periodcentered.tab" horiz-adv-x="542" 
d="M272 428q-27 0 -44 17t-17 44t17 45t44 19q27 0 44 -18q18 -17 18 -45t-18 -45t-44 -17z" />
    <glyph glyph-name="slash.tab" horiz-adv-x="1085" 
d="M8 -414l-43 23l998 1896l43 -22z" />
    <glyph glyph-name="bar.tab" horiz-adv-x="542" 
d="M250 -410v1909h45v-1909h-45z" />
    <glyph glyph-name="underscore.tab" horiz-adv-x="1085" 
d="M-10 -258v49h1106v-49h-1106z" />
    <glyph glyph-name="dollar.tab" horiz-adv-x="1085" 
d="M561 1303q-147 0 -241 -78t-93 -189q0 -110 76 -182t227 -131l50 580h-19zM913 326q0 120 -84 194t-258 135l-51 -612h23q166 0 268 81t102 202zM176 1034q0 131 106 221t281 91h19l16 182l45 -4l-16 -183q141 -14 232 -85q91 -72 91 -148t-53 -76q-23 0 -39 14t-16 46
q0 30 39 59q-25 51 -96 93t-162 54l-48 -591q197 -70 294 -154q97 -85 97 -227t-119 -235q-120 -93 -306 -93h-25l-16 -195l-45 4l16 193q-162 16 -262 100t-100 164t55 80t55 -55q0 -41 -41 -64q27 -63 105 -114t192 -64l51 625q-172 66 -261 148t-89 214z" />
    <glyph glyph-name="sterling.tab" horiz-adv-x="1085" 
d="M100 31q0 29 33 51t103 27q150 141 149 331q0 49 -10 111h-230v43h220q-8 37 -49 164q-42 126 -42 264t102 236t246 100q142 0 229 -67t87 -145t-55 -77q-49 0 -49 53q0 35 34 58q-18 55 -83 93t-175 38t-198 -85t-88 -220q0 -94 55 -285q25 -76 37 -127h362v-43h-354
q10 -61 10 -113q0 -205 -135 -323q29 4 43 4q74 0 222 -44t224 -44q78 0 121 38t74 109l43 -18q-66 -178 -240 -178q-78 0 -238 47t-210 47q-52 0 -76 -6q-58 -82 -110 -82t-52 43z" />
    <glyph glyph-name="Euro.tab" horiz-adv-x="1085" 
d="M879 1040q0 47 55 60q-14 80 -92 148t-193 69q-154 -2 -260 -131t-139 -348h463v-45h-469q-6 -61 -6 -130t6 -135h469v-45h-461q33 -205 135 -329t263 -125q161 0 300 166l35 -33q-150 -182 -350 -182q-170 0 -287 138t-153 365h-152v45h145q-6 66 -6 134t6 131h-145v45
h152q37 238 161 381t282 145t256 -95t97 -206q0 -80 -57 -80q-23 0 -39 16t-16 41z" />
    <glyph glyph-name="yen.tab" horiz-adv-x="1085" 
d="M317 0v47h197v281h-311v45h311v194h-311v45h299l-352 688h-150v48h399v-48h-192l336 -665l336 665h-195v48h399v-48h-149l-352 -688h299v-45h-314v-194h314v-45h-314v-281h199v-47h-449z" />
    <glyph glyph-name="cent.tab" horiz-adv-x="1085" 
d="M199 704q0 -160 84 -260q84 -98 223 -129l67 775q-158 -6 -266 -116t-108 -270zM614 260q-23 0 -67 4l-27 -301l-45 4l27 303q-160 33 -259 146q-99 114 -99 288t125 300q126 126 309 131l22 237l47 -4l-22 -235q129 -10 217 -83t88 -153t-60 -80q-18 0 -32 13t-15 34
q0 47 51 62q-16 61 -88 107t-165 54l-70 -778q23 -4 67 -4q164 0 291 96l-4 -53q-117 -88 -291 -88z" />
    <glyph glyph-name="numbersign.tab" horiz-adv-x="1085" 
d="M418 887l-70 -445h318l69 445h-317zM113 887v43h264l65 416h45l-63 -416h315l66 416h45l-66 -416h269v-43h-275l-67 -445h262v-41h-268l-62 -401h-45l61 401h-317l-61 -401h-45l61 401h-264v41h270l68 445h-258z" />
    <glyph glyph-name="paragraph.tab" horiz-adv-x="1085" 
d="M535 504q-203 0 -328 116t-125 306q0 192 131 307t334 115h475v-48h-182v-1253h182v-47h-594v47h182v461q-41 -4 -75 -4zM659 45h132v1258h-132v-1258z" />
    <glyph glyph-name="section.tab" horiz-adv-x="1085" 
d="M186 683q0 -73 82 -120t260 -92q8 -2 39 -10t47 -12q137 31 208 88t71 130t-82 120t-260 92l-90 22q-135 -31 -205 -88t-70 -130zM857 1106q-52 0 -52 56q0 28 33 46q-4 16 -31 39q-87 74 -233 74t-233 -55q-87 -54 -87 -134t73 -122t254 -89q181 -45 275 -101t94 -143
q0 -174 -280 -247q110 -37 160 -85t50 -136t-100 -157q-100 -68 -278 -68t-283 104q-49 49 -49 83q0 33 15 51t38 18q51 0 51 -52q0 -33 -28 -51q28 -41 104 -75t190 -34t200 54q85 53 85 130t-69 122q-70 45 -207 82t-195 56q-226 75 -225 200q0 172 283 246
q-109 34 -161 82t-52 122q0 102 103 173t267 71t273 -84q70 -57 69 -111q0 -27 -15 -46t-39 -19z" />
    <glyph glyph-name="degree.tab" horiz-adv-x="1085" 
d="M539 1475q-135 1 -221 -93t-87 -227q0 -133 86 -226q85 -93 221 -93t222 93t86 226t-86 227t-221 93zM539 797q-156 0 -254 104t-99 254q0 150 98 254t255 104q156 0 254 -104t98 -254t-98 -254t-254 -104z" />
    <glyph glyph-name="percent.tab" horiz-adv-x="1085" 
d="M156 -8l-37 20l405 668q45 76 225 371q179 295 187 307l35 -23q-93 -139 -265 -429t-273 -457t-188 -311t-89 -146zM606 272q0 -104 53 -177t137 -73t136 74q53 72 53 176t-53 178t-136 72q-83 0 -137 -72q-53 -74 -53 -178zM96 1075q0 -104 54 -178t139 -74q84 0 138 74
t54 178t-54 178t-138 74q-85 0 -139 -74t-54 -178zM53 1075q0 123 67 207t169 84t169 -84q66 -84 66 -207t-66 -207t-169 -84q-102 0 -169 84t-67 207zM797 -18q-102 0 -170 84t-68 207q0 122 68 206t170 84t169 -84q66 -84 66 -206q0 -123 -66 -207t-169 -84z" />
    <glyph glyph-name="quotedbl.tab" horiz-adv-x="1085" 
d="M717 1513q47 0 41 -57l-31 -416h-18l-31 416q-8 57 39 57zM369 1513q20 0 31 -15t8 -42l-31 -416h-19l-30 416q-6 57 41 57z" />
    <glyph glyph-name="quotesingle.tab" horiz-adv-x="542" 
d="M272 1513q20 0 32 -15t7 -42l-30 -416h-19l-31 416q-6 57 41 57z" />
    <glyph glyph-name="plus.tab" horiz-adv-x="1085" 
d="M518 340v324h-317v45h317v323h49v-323h318v-45h-318v-324h-49z" />
    <glyph glyph-name="minus.tab" horiz-adv-x="1085" 
d="M201 664v45h684v-45h-684z" />
    <glyph glyph-name="divide.tab" horiz-adv-x="1085" 
d="M592 400q0 -20 -14 -36t-36 -16t-36 14t-14 37t14 37t36 14t36 -14q14 -16 14 -36zM542 924q-22 0 -36 15t-14 35t14 36t36 16t36 -15t14 -35t-14 -37q-14 -15 -36 -15zM885 664h-684v45h684v-45z" />
    <glyph glyph-name="equal.tab" horiz-adv-x="1085" 
d="M201 479v45h684v-45h-684zM201 811v45h684v-45h-684z" />
    <glyph glyph-name="multiply.tab" horiz-adv-x="1085" 
d="M829 369l-286 286l-285 -286l-33 32l287 287l-289 287l35 33l287 -287l284 287l33 -33l-287 -287l287 -287z" />
    <glyph glyph-name="less.tab" horiz-adv-x="1085" 
d="M788 309l-555 355v12l555 354l25 -37l-510 -323l510 -324z" />
    <glyph glyph-name="greater.tab" horiz-adv-x="1085" 
d="M297 1030l555 -354v-12l-555 -355l-25 37l510 324l-510 323z" />
    <glyph glyph-name="plusminus.tab" horiz-adv-x="1085" 
d="M201 252v47h684v-47h-684zM518 446v324h-317v45h317v324h49v-324h318v-45h-318v-324h-49z" />
    <glyph glyph-name="zero.idx_P2D" horiz-adv-x="2203" 
d="M1100 178q133 0 218 125t85 325t-85 326t-219 125q-134 0 -218 -125q-84 -124 -84 -324t85 -326t218 -126zM1098 135q-152 0 -251 137q-99 138 -99 358t101 356t252 136t252 -137t101 -356t-102 -357t-254 -137zM1102 1581q-262 0 -478 -129t-339 -351
q-123 -223 -123 -487t123 -486t339 -351t478 -129t478 129t339 351t123 486t-123 486t-339 352q-216 129 -478 129zM1102 1622q414 0 700 -294t285 -714q0 -420 -286 -714q-285 -294 -699 -293q-414 0 -700 294q-286 293 -286 713t286 714t700 294z" />
    <glyph glyph-name="one.idx_P2D" horiz-adv-x="2203" 
d="M1362 150h-498v43h228v868l-224 -53l-8 43l258 63h23v-921h221v-43zM1102 1581q-262 0 -478 -129t-339 -351q-123 -223 -123 -487t123 -486t339 -351t478 -129t478 129t339 351t123 486t-123 486t-339 352q-216 129 -478 129zM1102 1622q414 0 700 -294t285 -714
q0 -420 -286 -714q-285 -294 -699 -293q-414 0 -700 294q-286 293 -286 713t286 714t700 294z" />
    <glyph glyph-name="two.idx_P2D" horiz-adv-x="2203" 
d="M821 899q0 35 24 86t93 94q70 43 180 43t190 -72q81 -72 81 -172q1 -100 -57 -170t-181 -161q-123 -90 -196 -169t-105 -185h510v184h47v-227h-600l-14 20q37 135 119 228q83 94 202 178t172 148t53 152q0 86 -66 145q-67 58 -171 58q-162 0 -219 -116q-8 -14 -13 -33
q45 -10 45 -49q0 -21 -12 -33t-31 -12q-51 0 -51 63zM1102 1581q-262 0 -478 -129t-339 -351q-123 -223 -123 -487t123 -486t339 -351t478 -129t478 129t339 351t123 486t-123 486t-339 352q-216 129 -478 129zM1102 1622q414 0 700 -294t285 -714q0 -420 -286 -714
q-285 -294 -699 -293q-414 0 -700 294q-286 293 -286 713t286 714t700 294z" />
    <glyph glyph-name="three.idx_P2D" horiz-adv-x="2203" 
d="M803 327q0 56 47 56q18 0 32 -13t13 -32q0 -35 -39 -45q6 -27 35 -51q74 -64 198 -64q125 0 193 64t68 157q0 133 -131 191q-76 35 -185 35h-24v43h28q113 0 191 55q96 61 96 155t-61 146q-61 53 -183 53t-184 -80q-12 -18 -18 -36q39 -6 39 -46q0 -18 -14 -30
q-14 -13 -32 -13t-31 16t-13 51q0 36 30 77q80 104 240 104q124 0 200 -66t76 -165q0 -129 -125 -199q-45 -27 -102 -39q49 -8 100 -28q152 -68 152 -224q0 -115 -85 -189q-84 -74 -236 -73q-152 0 -236 94q-39 40 -39 96zM1102 1581q-262 0 -478 -129t-339 -351
q-123 -223 -123 -487t123 -486t339 -351t478 -129t478 129t339 351t123 486t-123 486t-339 352q-216 129 -478 129zM1102 1622q414 0 700 -294t285 -714q0 -420 -286 -714q-285 -294 -699 -293q-414 0 -700 294q-286 293 -286 713t286 714t700 294z" />
    <glyph glyph-name="four.idx_P2D" horiz-adv-x="2203" 
d="M946 150v43h215v253h-465l-10 19l502 661l37 -24l-467 -613h403v283l49 23v-306h197v-43h-197v-253h170v-43h-434zM1102 1581q-262 0 -478 -129t-339 -351q-123 -223 -123 -487t123 -486t339 -351t478 -129t478 129t339 351t123 486t-123 486t-339 352q-216 129 -478 129
zM1102 1622q414 0 700 -294t285 -714q0 -420 -286 -714q-285 -294 -699 -293q-414 0 -700 294q-286 293 -286 713t286 714t700 294z" />
    <glyph glyph-name="five.idx_P2D" horiz-adv-x="2203" 
d="M846 350q44 0 45 -49q0 -25 -29 -35q16 -40 74 -64t154 -24q98 0 175 73t77 189t-71 183t-192 67t-215 -47l-22 14l47 451h450v-49h-411l-39 -361q79 35 203 35t212 -77t87 -214t-93 -222t-216 -85t-202 48t-77 114q0 21 12 37q11 16 31 16zM1102 1581q-262 0 -478 -129
t-339 -351q-123 -223 -123 -487t123 -486t339 -351t478 -129t478 129t339 351t123 486t-123 486t-339 352q-216 129 -478 129zM1102 1622q414 0 700 -294t285 -714q0 -420 -286 -714q-285 -294 -699 -293q-414 0 -700 294q-286 293 -286 713t286 714t700 294z" />
    <glyph glyph-name="six.idx_P2D" horiz-adv-x="2203" 
d="M1105 176q111 0 185 74t74 184t-72 182q-72 70 -186 70t-194 -73q-78 -73 -78 -175t77 -184q82 -78 194 -78zM1364 979q0 -55 -45 -55q-18 0 -32 12q-13 12 -13 35t24 37q-6 16 -44 42t-115 27q-139 0 -227 -132t-91 -400v-8q29 86 105 138t196 52t206 -83
q85 -83 85 -210t-88 -213t-222 -86t-230 96t-97 314q0 291 102 434t263 143q94 0 159 -47q64 -41 64 -96zM1102 1581q-262 0 -478 -129t-339 -351q-123 -223 -123 -487t123 -486t339 -351t478 -129t478 129t339 351t123 486t-123 486t-339 352q-216 129 -478 129zM1102 1622
q414 0 700 -294t285 -714q0 -420 -286 -714q-285 -294 -699 -293q-414 0 -700 294q-286 293 -286 713t286 714t700 294z" />
    <glyph glyph-name="seven.idx_P2D" horiz-adv-x="2203" 
d="M877 1044v-172h-48v213h615l8 -14l-414 -942h-49l404 915h-516zM1102 1581q-262 0 -478 -129t-339 -351q-123 -223 -123 -487t123 -486t339 -351t478 -129t478 129t339 351t123 486t-123 486t-339 352q-216 129 -478 129zM1102 1622q414 0 700 -294t285 -714
q0 -420 -286 -714q-285 -294 -699 -293q-414 0 -700 294q-286 293 -286 713t286 714t700 294z" />
    <glyph glyph-name="eight.idx_P2D" horiz-adv-x="2203" 
d="M1103 178q113 0 187 62t74 157q0 96 -76 162t-186 66t-187 -66q-75 -66 -75 -161q0 -96 74 -158t189 -62zM1103 668q105 0 173 57t68 144t-70 148q-70 60 -173 60t-173 -59q-70 -58 -70 -146t70 -146t175 -58zM1102 137q-135 0 -223 74t-88 176t62 171t153 89
q-88 25 -143 84q-54 59 -54 153t84 166q84 70 209 70t208 -70t83 -166q-1 -94 -55 -154t-142 -83q94 -20 156 -89q62 -70 61 -172q0 -102 -88 -176t-223 -73zM1102 1581q-262 0 -478 -129t-339 -351q-123 -223 -123 -487t123 -486t339 -351t478 -129t478 129t339 351
t123 486t-123 486t-339 352q-216 129 -478 129zM1102 1622q414 0 700 -294t285 -714q0 -420 -286 -714q-285 -294 -699 -293q-414 0 -700 294q-286 293 -286 713t286 714t700 294z" />
    <glyph glyph-name="nine.idx_P2D" horiz-adv-x="2203" 
d="M846 817q0 -113 70 -183t186 -71q116 0 194 71q78 72 78 182t-78 186t-190 76t-186 -74t-74 -187zM838 283q0 51 43 51q18 0 31 -12q14 -12 14 -35t-25 -37q10 -20 51 -47t123 -27q137 0 225 129t89 395v7q-27 -81 -103 -135t-198 -54t-207 83q-84 83 -84 214t88 219
t220 88t222 -90q106 -104 107 -325q0 -303 -100 -437t-261 -135q-104 0 -178 53q-57 44 -57 95zM1102 1581q-262 0 -478 -129t-339 -351q-123 -223 -123 -487t123 -486t339 -351t478 -129t478 129t339 351t123 486t-123 486t-339 352q-216 129 -478 129zM1102 1622
q414 0 700 -294t285 -714q0 -420 -286 -714q-285 -294 -699 -293q-414 0 -700 294q-286 293 -286 713t286 714t700 294z" />
    <glyph glyph-name="space.tab" horiz-adv-x="542" 
 />
    <glyph glyph-name="NUL" horiz-adv-x="0" 
 />
    <glyph glyph-name="hfjslug" horiz-adv-x="1433" 
d="M879 580q-33 0 -33 34q0 12 9 24t23 11q14 0 24 -11q9 -11 9 -24q1 -34 -32 -34zM1004 612h-23v35h23q20 1 20 -17t-20 -18zM666 823q-33 0 -33 45t33 78l41 -80q-16 -43 -41 -43zM651 1056q0 30 29 29q27 -1 27 -35t-31 -69q-25 45 -25 75zM500 662l28 -97h17l22 70h2
l23 -70h16l29 97h-16l-21 -72h-2l-23 72h-14l-22 -72h-2l-21 72h-16zM276 662v-95h17v66l51 -66h14v95h-16v-66l-51 66h-15zM401 662v-95h70v15h-53v26h47v15h-47v24h53v15h-70zM756 567h16v35l37 60h-18l-27 -46l-27 46h-18l37 -60v-35zM879 565q20 1 34 15q33 34 0 68
q-14 16 -34 16q-21 0 -35 -16t-14 -34q0 -20 14 -34q15 -14 35 -15zM1040 631q0 31 -34 31h-41v-95h16v31h25l20 -31h18l-24 35q20 8 20 29zM1077 662v-95h17v25l16 16l31 -41h20l-41 54l37 41h-20l-41 -50h-2v50h-17zM735 1038q0 72 -55 72q-25 0 -41 -19t-16 -45t28 -79
q-47 -37 -47 -83q0 -91 60 -89q39 0 59 49h2l25 -49l24 12l-35 65q13 29 27 80l-27 6q-8 -37 -16 -61h-2l-33 64q47 43 47 77zM991 799q63 0 64 73v281h-33v-281q0 -45 -33 -45q-14 0 -41 11v-31q20 -8 43 -8zM383 1153v-352h31v162h96v-162h31v352h-31v-162h-96v162h-31z
M825 1153v-352h31v160h78v28h-78v135h88v29h-119zM1325 -410h-426l-16 29h-334l-17 -29h-423v621q27 0 46 19t19 46q0 26 -19 46t-46 20v1135h204l62 161h684l59 -161h207v-1887z" />
    <glyph glyph-name="A.sc" horiz-adv-x="1183" 
d="M590 981l-213 -559h426zM350 1018h484v-41h-193l360 -936h170v-41h-430v41h209l-131 338h-459l-129 -338h211v-41h-430v41h170l361 936h-193v41z" />
    <glyph glyph-name="B.sc" horiz-adv-x="1032" 
d="M575 0h-509v41h202v936h-202v41h507q160 0 241 -73t81 -173t-60 -166t-167 -84q118 -16 186 -81t68 -181t-92 -188t-255 -72zM317 543h252q135 0 206 61q71 62 71 156t-71 155t-204 62h-254v-434zM317 41h261q135 0 215 63q79 63 79 172t-81 166q-82 57 -226 58h-248
v-459z" />
    <glyph glyph-name="C.sc" horiz-adv-x="1116" 
d="M934 702q-18 0 -32 14t-13 34q0 43 49 59q-14 70 -106 126t-218 56q-200 0 -332 -139t-132 -343t132 -343q132 -140 336 -140t351 154l28 -35q-152 -161 -379 -161t-372 150q-146 150 -146 374q0 223 146 375t368 151q156 0 267 -79t111 -166t-58 -87z" />
    <glyph glyph-name="D.sc" horiz-adv-x="1202" 
d="M516 0h-442v41h202v936h-202v41h442q266 0 425 -135t159 -367t-156 -374t-428 -142zM326 41h194q250 0 390 132t140 344t-146 336t-388 124h-190v-936z" />
    <glyph glyph-name="E.sc" horiz-adv-x="987" 
d="M864 0h-798v41h202v936h-202v41h798v-256h-45v215h-502v-438h390v-43h-390v-455h502v213h45v-254z" />
    <glyph glyph-name="F.sc" horiz-adv-x="944" 
d="M530 0h-464v41h202v936h-202v41h792v-256h-45v215h-496v-449h373v-41h-373v-446h213v-41z" />
    <glyph glyph-name="G.sc" horiz-adv-x="1175" 
d="M618 991q-204 0 -336 -140t-132 -346t131 -342t333 -136t359 141v260h-320v41h367v-469h-47v121q-150 -137 -365 -137t-361 146q-147 146 -147 374t151 379q151 152 370 151q165 0 277 -76t112 -157q0 -37 -16 -60t-40 -23q-47 1 -49 48q0 43 49 59q-20 61 -113 114
q-94 52 -223 52z" />
    <glyph glyph-name="H.sc" horiz-adv-x="1316" 
d="M66 0v41h202v936h-202v41h456v-41h-205v-440h682v440h-204v41h456v-41h-202v-936h202v-41h-456v41h204v451h-682v-451h205v-41h-456z" />
    <glyph glyph-name="I.sc" horiz-adv-x="598" 
d="M532 0h-466v41h208v936h-208v41h466v-41h-208v-936h208v-41z" />
    <glyph glyph-name="J.sc" horiz-adv-x="888" 
d="M362 29q100 0 170 69q82 88 82 271v608h-208v41h442v-41h-184v-608q0 -207 -90 -296t-213 -89t-207 72t-84 165q0 92 57 92q17 0 31 -13t14 -34q0 -43 -49 -59q7 -70 73 -124t166 -54z" />
    <glyph glyph-name="K.sc" horiz-adv-x="1120" 
d="M1108 41v-41h-225l-377 535l-189 -191v-303h205v-41h-456v41h202v936h-202v41h450v-41h-199v-574l566 574h-207v41h414v-41h-148l-403 -410l372 -526h197z" />
    <glyph glyph-name="L.sc" horiz-adv-x="919" 
d="M799 41v217h47v-258h-780v41h202v936h-202v41h462v-41h-211v-936h482z" />
    <glyph glyph-name="M.sc" horiz-adv-x="1449" 
d="M1354 1018v-41h-189l41 -936h178v-41h-426v41h197l-33 895l-387 -793h-20l-387 793l-35 -895h199v-41h-426v41h180l39 936h-189v41h240l389 -799l389 799h240z" />
    <glyph glyph-name="N.sc" horiz-adv-x="1298" 
d="M1001 977h-206v41h456v-41h-202v-983h-29l-705 940v-893h207v-41h-456v41h202v936h-202v41h245l690 -922v881z" />
    <glyph glyph-name="O.sc" horiz-adv-x="1228" 
d="M614 27q203 0 334 138t131 345t-131 344t-334 137q-204 0 -334 -137t-130 -344t130 -345t334 -138zM614 1034q225 0 370 -150q144 -151 144 -375t-144 -375q-144 -150 -370 -150t-369 150q-145 150 -145 375t144 375t370 150z" />
    <glyph glyph-name="P.sc" horiz-adv-x="948" 
d="M508 440q152 0 232 74t81 195q0 121 -87 195t-228 73h-189v-533q128 -4 191 -4zM66 1018h440q164 0 264 -85t100 -225t-96 -224t-270 -85q-123 0 -187 4v-362h207v-41h-458v41h202v936h-202v41z" />
    <glyph glyph-name="Q.sc" horiz-adv-x="1228" 
d="M624 27q194 0 324 138q131 138 131 345t-131 344t-334 137q-204 0 -334 -137t-130 -352t151 -357q129 -118 323 -118zM1060 -211q-68 0 -120 22q-52 21 -122 67q-68 46 -110 68t-159 42q-174 29 -283 127q-166 145 -166 381t144 388q144 150 370 150q225 0 370 -150
q144 -151 144 -366t-128 -360t-328 -162q48 -8 92 -32t99 -60q55 -35 103 -53q48 -17 95 -17t110 39l23 -39q-66 -45 -134 -45z" />
    <glyph glyph-name="Q.sc_alt" horiz-adv-x="1228" 
d="M1079 510q0 207 -131 344t-334 137q-204 0 -334 -137t-130 -344t131 -345t333 -138q96 0 168 28l-137 219l37 27l141 -227q119 57 188 174q68 117 68 262zM1128 510q0 -160 -76 -286t-206 -189l112 -178l-36 -25l-117 184q-92 -33 -191 -32q-225 0 -369 150
q-145 150 -145 375q0 224 144 375q144 150 370 150q225 0 370 -150q144 -151 144 -374z" />
    <glyph glyph-name="R.sc" horiz-adv-x="1040" 
d="M317 41h207v-41h-458v41h202v936h-202v41h448q164 0 260 -77t96 -197t-70 -194t-188 -95l254 -414h168v-41h-200l-271 442q-21 -2 -109 -2t-137 2v-401zM512 977h-195v-490q106 -4 183 -4q145 0 234 67q89 66 89 180t-85 180t-226 67z" />
    <glyph glyph-name="S.sc" horiz-adv-x="884" 
d="M760 850q0 -31 -14 -49q-14 -19 -36 -19q-20 0 -34 14t-14 40q0 28 34 47q-14 45 -83 78t-172 33t-179 -60q-76 -59 -76 -155t92 -151q63 -39 162 -76q99 -36 143 -56t96 -56q105 -72 104 -190q-1 -119 -98 -193q-97 -73 -245 -73t-243 58q-94 58 -95 126q0 31 14 49
q14 19 36 19t35 -14t13 -42q0 -29 -34 -45q26 -43 96 -76t188 -33t201 62q82 61 82 162q0 62 -45 114t-96 76t-132 55q-146 54 -219 100q-104 65 -104 181q0 115 89 187q90 71 224 71t222 -55t88 -129z" />
    <glyph glyph-name="T.sc" horiz-adv-x="1019" 
d="M276 0v41h209v936h-352v-215h-47v256h848v-256h-47v215h-352v-936h208v-41h-467z" />
    <glyph glyph-name="U.sc" horiz-adv-x="1224" 
d="M289 977v-612q0 -162 85 -250q84 -88 238 -88t239 88t85 250v612h-207v41h453v-41h-197v-612q0 -185 -97 -283q-98 -98 -276 -98t-275 98t-97 283v612h-197v41h453v-41h-207z" />
    <glyph glyph-name="V.sc" horiz-adv-x="1155" 
d="M8 977v41h432v-41h-211l351 -922l350 922h-211v41h428v-41h-168l-385 -997h-33l-383 997h-170z" />
    <glyph glyph-name="W.sc" horiz-adv-x="1622" 
d="M8 977v41h443v-41h-213l278 -911l285 808h22l287 -808l279 911h-213v41h438v-41h-178l-308 -1002h-32l-285 811l-285 -811h-30l-310 1002h-178z" />
    <glyph glyph-name="X.sc" horiz-adv-x="1122" 
d="M1096 41v-41h-396v41h174l-321 451l-324 -451h183v-41h-400v41h164l348 479l-329 457h-158v41h401v-41h-186l301 -424l305 424h-186v41h399v-41h-160l-329 -455l348 -481h166z" />
    <glyph glyph-name="Y.sc" horiz-adv-x="1097" 
d="M1092 1018v-41h-170l-349 -590v-346h207v-41h-463v41h207v346l-346 590h-172v41h428v-41h-201l316 -547l319 547h-202v41h426z" />
    <glyph glyph-name="Z.sc" horiz-adv-x="944" 
d="M88 0v27l705 950h-635v-211h-47v252h749v-27l-704 -950h663v211h47v-252h-778z" />
    <glyph glyph-name="Aacute.sc" horiz-adv-x="1183" 
d="M862 1341q0 -27 -47 -49l-278 -127l-15 23l252 172q51 36 77 10q11 -12 11 -29zM590 981l-213 -559h426zM350 1018h484v-41h-193l360 -936h170v-41h-430v41h209l-131 338h-459l-129 -338h211v-41h-430v41h170l361 936h-193v41z" />
    <glyph glyph-name="Abreve.sc" horiz-adv-x="1183" 
d="M604 1165q-88 -1 -158 55t-102 144l35 16q71 -154 225 -154t225 154l35 -16q-32 -88 -102 -144t-158 -55zM590 981l-213 -559h426zM350 1018h484v-41h-193l360 -936h170v-41h-430v41h209l-131 338h-459l-129 -338h211v-41h-430v41h170l361 936h-193v41z" />
    <glyph glyph-name="Acircumflex.sc" horiz-adv-x="1183" 
d="M362 1153l-18 21l260 243l260 -243l-18 -21l-242 180zM590 981l-213 -559h426zM350 1018h484v-41h-193l360 -936h170v-41h-430v41h209l-131 338h-459l-129 -338h211v-41h-430v41h170l361 936h-193v41z" />
    <glyph glyph-name="Adieresis.sc" horiz-adv-x="1183" 
d="M721 1200q-23 0 -38 15t-15 38t15 39t38 16t38 -16t15 -39t-15 -38t-38 -15zM487 1200q-23 0 -37 15t-16 38q0 23 16 39t38 16t37 -16t15 -39t-14 -38q-16 -15 -39 -15zM590 981l-213 -559h426zM350 1018h484v-41h-193l360 -936h170v-41h-430v41h209l-131 338h-459
l-129 -338h211v-41h-430v41h170l361 936h-193v41z" />
    <glyph glyph-name="AE.sc" horiz-adv-x="1398" 
d="M680 428v549h-10l-305 -549h315zM477 0v41h203v344h-338l-190 -344h182v-41h-383v41h149l523 936h-189v41h842v-256h-45v215h-502v-438h389v-43h-389v-455h502v213h45v-254h-799z" />
    <glyph glyph-name="AEacute.sc" horiz-adv-x="1398" 
d="M721 1165l-14 23l251 172q53 37 77 10q11 -12 12 -29q0 -27 -48 -49zM680 428v549h-10l-305 -549h315zM477 0v41h203v344h-338l-190 -344h182v-41h-383v41h149l523 936h-189v41h842v-256h-45v215h-502v-438h389v-43h-389v-455h502v213h45v-254h-799z" />
    <glyph glyph-name="Agrave.sc" horiz-adv-x="1183" 
d="M346 1341q0 17 11 29t27 12t50 -22l252 -172l-14 -23l-279 127q-47 23 -47 49zM590 981l-213 -559h426zM350 1018h484v-41h-193l360 -936h170v-41h-430v41h209l-131 338h-459l-129 -338h211v-41h-430v41h170l361 936h-193v41z" />
    <glyph glyph-name="Amacron.sc" horiz-adv-x="1183" 
d="M324 1229v49h561v-49h-561zM590 981l-213 -559h426zM350 1018h484v-41h-193l360 -936h170v-41h-430v41h209l-131 338h-459l-129 -338h211v-41h-430v41h170l361 936h-193v41z" />
    <glyph glyph-name="Aogonek.sc" horiz-adv-x="1183" 
d="M590 981l-213 -559h426zM968 -412q-85 0 -133 46t-49 120q0 147 164 246h-209v41h209l-131 338h-459l-129 -338h211v-41h-430v41h170l361 936h-193v41h484v-41h-193l360 -936h170v-41h-151q-92 -46 -140 -110t-48 -126t37 -99q38 -36 107 -36t140 45l-4 -36
q-59 -50 -144 -50z" />
    <glyph glyph-name="Aring.sc" horiz-adv-x="1183" 
d="M591 1020q52 0 86 36t34 89t-34 89t-86 36t-86 -36t-34 -89t34 -89t86 -36zM590 981l-213 -559h426zM350 1018h148q-70 43 -70 119t47 125t116 49t116 -49t47 -127t-72 -117h152v-41h-193l360 -936h170v-41h-430v41h209l-131 338h-459l-129 -338h211v-41h-430v41h170
l361 936h-193v41z" />
    <glyph glyph-name="Aringacute.sc" horiz-adv-x="1183" 
d="M516 1419l-14 23l252 172q52 36 76 10q11 -12 12 -29q0 -27 -47 -49zM591 1020q52 0 86 36t34 89t-34 89t-86 36t-86 -36t-34 -89t34 -89t86 -36zM590 981l-213 -559h426zM350 1018h148q-70 43 -70 119t47 125t116 49t116 -49t47 -127t-72 -117h152v-41h-193l360 -936
h170v-41h-430v41h209l-131 338h-459l-129 -338h211v-41h-430v41h170l361 936h-193v41z" />
    <glyph glyph-name="Atilde.sc" horiz-adv-x="1183" 
d="M752 1169q-66 0 -156 70q-84 61 -129 61t-72 -28t-49 -94l-35 8q37 168 154 168q68 0 151 -66t131 -65q49 -1 75 27t48 93l35 -8q-36 -166 -153 -166zM590 981l-213 -559h426zM350 1018h484v-41h-193l360 -936h170v-41h-430v41h209l-131 338h-459l-129 -338h211v-41h-430
v41h170l361 936h-193v41z" />
    </font>
</defs>
</svg>
