<?xml version="1.0" standalone="no"?>
<!DOCTYPE svg PUBLIC "-//W3C//DTD SVG 1.1//EN" "http://www.w3.org/Graphics/SVG/1.1/DTD/svg11.dtd" >
<svg xmlns="http://www.w3.org/2000/svg">
<metadata>
Created by FontPrep 20130207 at Sun Apr  5 22:22:28 2015
 By Tina Kumar
Copyright (C) 2000, 2007 Hoefler &#38; Frere-Jones. http://www.typography.com
</metadata>
<defs>
<font id="2d75f99f8b529441f3810d552f3fb4a1" horiz-adv-x='1024' >
  <font-face 
    font-family="Archer-ExtraLightItalic"
    font-weight="285"
    font-style="italic"
    font-stretch="normal"
    units-per-em="2048"
    panose-1="0 0 0 0 0 0 0 0 0 0"
    ascent="1638"
    descent="-410"
    x-height="844"
    cap-height="1348"
    bbox="-213 -455 2087 2010.2"
    underline-thickness="102"
    underline-position="-102"
    slope="-12"
    unicode-range="U+0020-FB04"
  />
<missing-glyph horiz-adv-x="1036" 
d="M518 492l-366 -799h733zM928 1384l-353 -770l353 -770v1540zM109 -156l352 770l-352 770v-1540zM152 1536l366 -799l367 799h-733zM6 -410v2048h1024v-2048h-1024z" />
    <glyph glyph-name="f_f" unicode="ff" horiz-adv-x="1058" 
d="M727 1343q-57 0 -57 68v6h-4q-72 1 -136 -63t-104 -240l-64 -270h437l75 323q43 187 121 265t185 77q50 1 78 -21t28 -47t-13 -39t-34 -13q-59 0 -59 67v8h-6q-82 0 -149 -68t-103 -237l-74 -315h231l-8 -41h-231l-187 -803h-49l187 803h-437l-186 -803h-49l186 803h-162
l9 41h161l66 278q43 190 120 266t177 76q45 0 72 -22q26 -22 26 -46q0 -25 -14 -39t-33 -14z" />
    <glyph glyph-name="fi" unicode="fi" horiz-adv-x="1007" 
d="M645 110q-1 -80 81 -81q38 -1 69 31t61 114l35 -10q-35 -96 -74 -136t-96 -40t-90 32t-33 84q0 54 27 140l159 559h-430l-186 -803h-49l184 803h-160l9 41h161l74 315q87 350 326 350q82 -1 133 -37t51 -85t-47 -50q-57 0 -57 66q0 20 8 35q-39 27 -88 26
q-139 0 -215 -137q-39 -72 -64 -176l-72 -307h484l-176 -608q-25 -86 -25 -126z" />
    <glyph glyph-name="fl" unicode="fl" horiz-adv-x="997" 
d="M836 1279q0 40 34 54q-37 131 -176 131q-109 0 -174 -82q-41 -49 -61 -135l-94 -403h423l82 354l7 33q-41 8 -41 48zM751 -12q-56 0 -91 30q-34 31 -34 76t23 150l129 559h-424l-186 -803h-49l186 803h-162l9 41h161l97 407q18 86 63 146q82 113 223 112q76 0 133 -39
t80 -108l52 133h28l-291 -1262q-23 -90 -22 -129q0 -76 78 -75q40 -1 70 31t63 114l33 -10q-35 -96 -74 -136t-95 -40z" />
    <glyph glyph-name="f_f_i" unicode="ffi" horiz-adv-x="1492" 
d="M688 1464q61 0 107 -22q45 -23 45 -69t-45 -46q-59 0 -60 68v18q-18 6 -49 6q-86 0 -149 -59t-93 -174l-79 -342h434l73 315q29 121 74 197q88 154 252 153q82 -1 133 -37t51 -85t-47 -50q-57 0 -57 66q0 20 8 35q-33 27 -88 26q-133 0 -211 -129q-45 -76 -67 -184
l-72 -307h483l-176 -608q-25 -86 -25 -126q0 -80 78 -81q41 -1 72 31t61 114l35 -10q-36 -96 -74 -136t-96 -40t-90 32q-33 32 -33 84q0 54 27 140l160 559h-430l-187 -803h-49l184 803h-434l-186 -803h-49l186 803h-162l9 41h161l82 346q35 142 113 208t180 66z" />
    <glyph glyph-name="f_f_l" unicode="ffl" horiz-adv-x="1482" 
d="M1321 1279q0 40 35 54q-37 131 -176 131q-106 0 -172 -78q-48 -55 -66 -139l-94 -403h426l82 354l6 33q-41 8 -41 48zM848 1366q0 -20 -12 -34t-33 -13q-57 0 -58 67q0 14 3 21q-33 12 -66 12q-106 0 -172 -82q-39 -45 -59 -129l-86 -364h434l96 407q18 94 72 160
q84 98 215 98q76 0 133 -39t80 -108l51 133h29l-291 -1262q-23 -90 -23 -129q0 -76 78 -75q39 1 70 33t63 112l33 -10q-35 -96 -74 -136t-95 -40t-90 30t-34 76q0 45 23 150l129 559h-424l-187 -803h-49l187 803h-435l-188 -803h-49l186 803h-162l9 41h161l88 370
q18 78 62 140q80 111 223 110q63 0 113 -24q49 -25 49 -74z" />
    <glyph glyph-name="f_b" unicode="fb" horiz-adv-x="1540" 
d="M836 1279q0 40 34 54q-37 131 -176 131q-109 0 -174 -82q-41 -49 -61 -135l-94 -403h423l82 354l7 33q-41 8 -41 48zM1004 29q172 0 282 144t109 310q0 166 -72 249t-199 83q-168 0 -284 -155t-117 -309q0 -154 78 -238t203 -84zM1128 856q142 0 230 -93t88 -279
t-122 -342q-122 -155 -316 -154q-123 0 -206 70t-104 188l-55 -246h-49l184 803h-424l-186 -803h-49l186 803h-162l9 41h161l97 407q18 86 63 146q82 113 223 112q76 0 133 -39t80 -108l52 133h28l-194 -842q127 203 333 203z" />
    <glyph glyph-name="f_h" unicode="fh" horiz-adv-x="1538" 
d="M836 1279q0 40 34 54q-37 131 -176 131q-109 0 -174 -82q-41 -49 -61 -135l-94 -403h423l82 354l7 33q-41 8 -41 48zM1128 856q98 0 160 -54t62 -140t-31 -191l-70 -235q-47 -144 -5 -186q22 -22 58 -22t68 32q31 32 64 114l34 -10q-38 -96 -76 -136t-94 -40t-91 32
q-33 32 -33 81q0 50 28 143l68 235q30 109 30 181t-46 113q-46 42 -130 42q-130 0 -240 -127t-157 -326l-84 -362h-49l184 803h-424l-186 -803h-49l186 803h-162l9 41h161l97 407q18 86 63 146q82 113 223 112q76 0 133 -39t80 -108l52 133h28l-209 -899q139 260 348 260z
" />
    <glyph glyph-name="f_j" unicode="fj" horiz-adv-x="923" 
d="M256 -352q0 50 49 51q23 1 38 -19t17 -47q70 8 125 74q72 96 119 309l180 787h-430l-186 -803h-49l184 803h-160l9 41h161l74 315q87 350 326 350q82 -1 133 -37t51 -85t-47 -50q-57 0 -57 66q0 20 8 35q-39 27 -88 26q-139 0 -215 -137q-39 -72 -64 -176l-72 -307h480
l-191 -838q-55 -238 -139 -334q-76 -82 -168 -82q-40 0 -64 18q-24 16 -24 40z" />
    <glyph glyph-name="f_k" unicode="fk" horiz-adv-x="1413" 
d="M836 1279q0 40 34 54q-37 131 -176 131q-109 0 -174 -82q-41 -49 -61 -135l-94 -403h423l82 354l7 33q-41 8 -41 48zM1223 794q0 62 51 62q23 0 38 -18t15 -47q0 -133 -383 -340l107 -256q39 -94 69 -136q27 -31 64 -30q70 0 116 170l35 -11q-49 -201 -155 -200
q-64 0 -100 46t-74 144l-103 252q-90 -45 -182 -82l-78 -348h-49l184 803h-424l-186 -803h-49l186 803h-162l9 41h161l97 407q18 86 63 146q82 113 223 112q76 0 133 -39t80 -108l52 133h28l-258 -1102q203 87 353 187t178 163q-39 17 -39 51z" />
    <glyph glyph-name="f_f_b" unicode="ffb" horiz-adv-x="2025" 
d="M1321 1279q0 40 35 54q-37 131 -176 131q-106 0 -172 -78q-47 -55 -66 -139l-94 -403h426l82 354l6 33q-41 8 -41 48zM1489 29q171 0 281 144t110 310t-72 249t-198 83q-168 0 -285 -155t-117 -309t78 -238t203 -84zM848 1366q0 -20 -12 -34t-33 -13q-57 0 -58 67
q0 14 3 21q-33 12 -66 12q-106 0 -172 -82q-39 -45 -59 -129l-86 -364h434l96 407q18 94 72 160q84 98 215 98q76 0 133 -39t80 -108l51 133h29l-195 -842q127 203 334 203q143 0 230 -93t87 -279t-122 -342q-122 -155 -316 -154q-121 0 -205 70t-104 186l-56 -244h-49
l185 803h-424l-187 -803h-49l187 803h-435l-188 -803h-49l186 803h-162l9 41h161l88 370q18 78 62 140q80 111 223 110q63 0 113 -24q49 -25 49 -74z" />
    <glyph glyph-name="f_f_h" unicode="ffh" horiz-adv-x="2023" 
d="M1321 1279q0 40 35 54q-37 131 -176 131q-106 0 -172 -78q-47 -55 -66 -139l-94 -403h426l82 354l6 33q-41 8 -41 48zM848 1366q0 -20 -12 -34t-33 -13q-57 0 -58 67q0 14 3 21q-33 12 -66 12q-106 0 -172 -82q-39 -45 -59 -129l-86 -364h434l96 407q18 94 72 160
q84 98 215 98q76 0 133 -39t80 -108l51 133h29l-209 -899q139 260 348 260q98 0 160 -54t61 -140q0 -86 -31 -191l-69 -235q-27 -82 -27 -124t22 -62q22 -22 58 -22t68 32q30 32 63 114l35 -10q-37 -96 -76 -136t-95 -40t-90 32t-34 79q0 48 27 145l69 235q31 109 31 181
t-46 113q-46 42 -130 42q-129 0 -240 -127t-158 -326l-84 -362h-49l185 803h-424l-187 -803h-49l187 803h-435l-188 -803h-49l186 803h-162l9 41h161l88 370q18 78 62 140q80 111 223 110q63 0 113 -24q49 -25 49 -74z" />
    <glyph glyph-name="f_f_j" unicode="ffj" horiz-adv-x="1409" 
d="M688 1464q61 0 107 -22q45 -23 45 -69t-45 -46q-59 0 -60 68v18q-18 6 -49 6q-86 0 -149 -59t-93 -174l-79 -342h434l73 315q29 121 74 197q88 154 252 153q82 -1 133 -37t51 -85t-47 -50q-57 0 -57 66q0 20 8 35q-33 27 -88 26q-133 0 -211 -129q-45 -76 -67 -184
l-72 -307h479l-190 -838q-55 -238 -140 -334q-76 -82 -168 -82q-39 0 -63 18t-25 40q-1 24 13 38t36 13q22 1 38 -19q15 -20 18 -47q70 8 125 74q68 90 119 309l180 787h-430l-187 -803h-49l184 803h-434l-186 -803h-49l186 803h-162l9 41h161l82 346q35 142 113 208t180 66
z" />
    <glyph glyph-name="f_f_k" unicode="ffk" horiz-adv-x="1898" 
d="M1321 1279q0 40 35 54q-37 131 -176 131q-106 0 -172 -78q-47 -55 -66 -139l-94 -403h426l82 354l6 33q-41 8 -41 48zM848 1366q0 -20 -12 -34t-33 -13q-57 0 -58 67q0 14 3 21q-33 12 -66 12q-106 0 -172 -82q-39 -45 -59 -129l-86 -364h434l96 407q18 94 72 160
q84 98 215 98q76 0 133 -39t80 -108l51 133h29l-258 -1102q203 87 353 187t177 163q-39 17 -39 51q0 62 51 62q23 0 38 -18t15 -47q0 -133 -382 -340l106 -256q39 -95 67 -131t64 -35q70 0 119 170l35 -11q-49 -201 -156 -200q-63 0 -98 46t-76 144l-102 252
q-90 -45 -183 -82l-78 -348h-49l185 803h-424l-187 -803h-49l187 803h-435l-188 -803h-49l186 803h-162l9 41h161l88 370q18 78 62 140q80 111 223 110q63 0 113 -24q49 -25 49 -74z" />
    <glyph glyph-name=".notdef" horiz-adv-x="1036" 
d="M518 492l-366 -799h733zM928 1384l-353 -770l353 -770v1540zM109 -156l352 770l-352 770v-1540zM152 1536l366 -799l367 799h-733zM6 -410v2048h1024v-2048h-1024z" />
    <glyph glyph-name=".null" 
 />
    <glyph glyph-name="nonmarkingreturn" horiz-adv-x="681" 
 />
    <glyph glyph-name="space" unicode=" " horiz-adv-x="395" 
 />
    <glyph glyph-name="exclam" unicode="!" horiz-adv-x="432" 
d="M148 106q26 0 44 -17q16 -17 16 -44t-16 -44q-17 -17 -43 -17t-43 17q-16 17 -16 44t16 44t42 17zM193 311l208 1037h68l-242 -1037h-34z" />
    <glyph glyph-name="quotedbl" unicode="&#x22;" horiz-adv-x="487" 
d="M279 1366q43 0 43 -37q0 -18 -13 -45l-112 -278h-21l60 299q10 61 43 61zM510 1366q43 0 43 -37q0 -18 -12 -45l-113 -278h-20l59 299q10 61 43 61z" />
    <glyph glyph-name="numbersign" unicode="#" horiz-adv-x="1038" 
d="M410 696l-99 -356h322l98 356h-321zM145 696l11 43h221l78 281h45l-78 -281h321l78 281h45l-78 -281h197l-10 -43h-199l-96 -356h217l-10 -43h-219l-82 -297h-45l80 297h-320l-82 -297h-45l82 297h-199l11 43h200l97 356h-220z" />
    <glyph glyph-name="dollar" unicode="$" horiz-adv-x="858" 
d="M250 776q0 -119 192 -223l125 418q-37 4 -55 4q-106 -1 -184 -57t-78 -142zM403 43q121 -1 202 61t81 142t-53 134t-164 114l-131 -447q20 -4 65 -4zM47 219q0 29 15 47q16 18 36 18t34 -14t15 -32q0 -47 -38 -60q16 -39 66 -73t122 -50l135 457q-113 62 -170 122
t-57 138q0 106 91 175t218 69q23 0 64 -4l47 155l41 -12l-45 -154q92 -20 151 -72t59 -108q0 -29 -14 -46q-15 -17 -35 -17t-34 14t-14 42t34 50q-37 70 -158 99l-129 -428q123 -63 187 -127t63 -148q0 -116 -93 -186t-239 -70q-27 0 -71 4l-66 -219l-41 12l64 215
q-102 25 -170 83t-68 120z" />
    <glyph glyph-name="percent" unicode="%" horiz-adv-x="1189" 
d="M881 457q94 -1 145 -57t51 -150t-72 -178q-72 -82 -166 -82t-145 56t-51 152t72 177q72 82 166 82zM349 563q-95 1 -145 57t-50 150t72 178q72 82 166 82q92 0 144 -56t52 -152t-72 -177q-72 -82 -167 -82zM354 602q72 0 127 71t55 151t-37 122q-38 42 -110 43
q-72 -1 -128 -71t-56 -150t38 -123q39 -43 111 -43zM102 -41l-28 29l510 516l510 522l28 -29zM842 31q72 1 128 71t56 148t-38 122t-110 44t-128 -70t-56 -150t38 -122q38 -43 110 -43z" />
    <glyph glyph-name="ampersand" unicode="&#x26;" horiz-adv-x="1183" 
d="M632 1210q-91 0 -160 -80t-69 -195q0 -116 68 -233q217 90 288 164q70 74 69 162t-53 135t-143 47zM98 264q0 -102 68 -170t187 -67q118 -1 206 65t182 189l-163 196q-76 88 -129 170q-167 -74 -259 -157t-92 -226zM45 264q0 170 121 268q101 84 260 150q-74 125 -74 256
t86 223t194 92t178 -59q69 -59 69 -161t-78 -192q-62 -68 -309 -175q45 -72 120 -160l156 -191q104 141 166 197t143 57q31 0 53 -17t23 -40q0 -45 -44 -45t-56 55q-55 -6 -103 -52t-155 -187l223 -269l-33 -26l-219 260q-92 -121 -190 -192q-98 -70 -230 -70
q-131 0 -216 78t-85 200z" />
    <glyph glyph-name="quotesingle" unicode="'" horiz-adv-x="258" 
d="M279 1366q43 0 43 -37q0 -18 -13 -45l-112 -278h-21l60 299q10 61 43 61z" />
    <glyph glyph-name="parenleft" unicode="(" horiz-adv-x="622" 
d="M139 379q0 363 196 673t523 482l25 -37q-319 -168 -505 -467t-188 -651q0 -477 371 -797l-29 -33q-393 334 -393 830z" />
    <glyph glyph-name="parenright" unicode=")" horiz-adv-x="622" 
d="M479 707q0 479 -368 794l28 35q393 -334 393 -829q0 -362 -195 -673t-523 -483l-27 37q319 168 506 467q186 299 186 652z" />
    <glyph glyph-name="asterisk" unicode="*" horiz-adv-x="716" 
d="M649 942q0 -33 -31 -33t-47 47l-63 187l-125 -150q-27 -31 -51 -30q-25 0 -29 30q0 23 35 47l158 117l-181 74q-47 18 -47 45q0 33 33 33q16 0 43 -21l160 -117l16 199q2 57 37 57q47 0 25 -69l-60 -189l193 48q18 8 37 8q30 0 30 -35t-61 -35l-197 -2l105 -166
q20 -31 20 -45z" />
    <glyph glyph-name="plus" unicode="+" horiz-adv-x="788" 
d="M516 842l-65 -281h274l-10 -47h-277l-69 -303h-47l69 303h-274l10 47h276l66 281h47z" />
    <glyph glyph-name="comma" unicode="," horiz-adv-x="305" 
d="M41 51q0 23 15 39t41 16t43 -22t18 -53q0 -69 -62 -143t-147 -111l-12 22q139 82 165 193q-61 6 -61 59z" />
    <glyph glyph-name="hyphen" unicode="-" horiz-adv-x="458" 
d="M86 528l10 50h307l-10 -50h-307z" />
    <glyph glyph-name="period" unicode="." horiz-adv-x="307" 
d="M101 -16q-26 0 -43 17t-17 44t17 44t43 17t43 -17q18 -17 18 -44t-18 -44t-43 -17z" />
    <glyph glyph-name="slash" unicode="/" horiz-adv-x="735" 
d="M-141 -414l-41 25l1042 1892l41 -22z" />
    <glyph glyph-name="zero" unicode="0" horiz-adv-x="1058" 
d="M485 27q197 0 325 174q128 173 128 375t-91 308t-229 105q-138 0 -242 -85q-106 -85 -160 -214q-54 -128 -54 -290t91 -268t232 -105zM485 -16q-166 0 -271 118t-105 340q0 220 142 404t363 184q164 0 270 -118t105 -338t-143 -405t-361 -185z" />
    <glyph glyph-name="one" unicode="1" horiz-adv-x="704" 
d="M2 0l10 43h244l213 928l-252 -68v47l301 80l14 -10l-227 -977h242l-8 -43h-537z" />
    <glyph glyph-name="two" unicode="2" horiz-adv-x="911" 
d="M291 785q0 -60 -49 -60q-23 0 -37 16t-15 43q0 92 98 169t240 77q140 0 227 -68t87 -174q0 -108 -72 -181t-262 -173t-294 -182q-103 -80 -155 -209h600q43 190 52 217h45l-60 -260h-682l-10 27q55 163 194 267q75 56 132 91q58 35 196 107t200 136q62 62 62 153t-70 150
q-70 58 -184 58t-190 -48t-94 -112q41 -12 41 -44z" />
    <glyph glyph-name="three" unicode="3" horiz-adv-x="931" 
d="M352 -256q-145 0 -257 74t-111 174q0 74 57 74q21 0 33 -14t12 -34q0 -47 -53 -53q8 -66 103 -122q96 -56 236 -56t237 90t97 222t-98 212t-254 80h-37l11 43h34q209 0 328 87t119 220q0 102 -74 175q-75 73 -191 73t-187 -39t-99 -100q45 -10 45 -55q0 -19 -13 -33
t-35 -14t-37 16t-15 45q0 86 100 154q101 67 239 67t228 -82t90 -213t-105 -219t-274 -108q131 -27 204 -109t73 -214q0 -133 -109 -237t-297 -104z" />
    <glyph glyph-name="four" unicode="4" horiz-adv-x="972" 
d="M729 612l-98 -415h246l-11 -43h-245l-93 -400h-45l92 400h-577l-2 14l797 862l32 -29l-747 -804h508l92 397z" />
    <glyph glyph-name="five" unicode="5" horiz-adv-x="915" 
d="M-16 -59q0 71 51 71q21 0 35 -13t14 -34q0 -41 -41 -53q18 -49 95 -88t175 -39q156 0 275 115t119 282q0 133 -78 205q-77 72 -211 72t-258 -51l-21 12l201 598h543l-11 -47h-501q-127 -365 -170 -506q111 39 213 39q160 0 252 -87t92 -231q0 -184 -134 -313t-315 -129
q-131 0 -228 63t-97 134z" />
    <glyph glyph-name="six" unicode="6" horiz-adv-x="1024" 
d="M550 731q-150 0 -264 -121q-112 -121 -112 -260t87 -231t237 -92t260 125t108 290q0 129 -83 209t-233 80zM121 379q0 182 80 402q79 220 223 364t338 143q114 0 184 -59t70 -127q0 -29 -16 -46t-37 -18q-45 0 -45 45q0 35 38 58q-14 43 -70 75t-130 31q-168 0 -314 -141
q-104 -104 -173 -270t-93 -328q44 112 148 188t252 76t243 -94q96 -94 96 -258q-1 -164 -125 -300t-290 -136t-273 102q-106 111 -106 293z" />
    <glyph glyph-name="seven" unicode="7" horiz-adv-x="880" 
d="M92 -248l-37 23l795 1202h-621l-55 -238h-45l66 279h704l12 -25z" />
    <glyph glyph-name="eight" unicode="8" horiz-adv-x="946" 
d="M125 312q0 -130 86 -206q87 -76 227 -77q140 0 245 96t105 227t-86 211t-230 80t-246 -100q-101 -101 -101 -231zM543 682q141 0 243 88t102 207t-75 193q-77 74 -203 75q-126 0 -220 -91q-94 -92 -95 -210q0 -118 73 -190t175 -72zM418 -14q-139 0 -242 89
q-102 89 -102 229t98 244t250 124q-82 36 -130 108t-48 154q0 147 110 251q112 103 258 103t237 -87t91 -212t-92 -218t-232 -118q102 -29 163 -110q60 -82 61 -183q0 -156 -121 -265t-301 -109z" />
    <glyph glyph-name="nine" unicode="9" horiz-adv-x="1024" 
d="M509 285q151 -1 263 119t113 266q0 146 -91 233q-91 86 -236 86q-144 0 -254 -124t-109 -290q-1 -129 81 -209t233 -81zM303 -256q-113 0 -183 58t-71 125q0 67 51 67q45 0 45 -45q0 -35 -39 -55q14 -47 70 -79t133 -32q170 0 314 143q100 100 169 261t93 319
q-45 -113 -149 -188q-104 -74 -250 -74q-148 0 -245 95t-98 241q0 180 125 315t294 135q170 0 274 -104t104 -287q0 -182 -78 -397q-78 -214 -219 -356t-340 -142z" />
    <glyph glyph-name="colon" unicode=":" horiz-adv-x="344" 
d="M122 -16q-26 0 -43 17t-18 44t17 44t44 17t42 -17t16 -44t-16 -44t-42 -17zM257 580q-26 0 -43 17t-17 44t17 44t43 17t43 -17t17 -44t-17 -44t-43 -17z" />
    <glyph glyph-name="semicolon" unicode=";" horiz-adv-x="342" 
d="M118 106q26 0 44 -22t18 -53q0 -70 -62 -143q-63 -72 -149 -111l-10 22q137 84 164 193q-61 6 -62 59q-1 23 15 39t42 16zM257 580q-26 0 -43 17t-17 44t17 44t43 17t43 -17t17 -44t-17 -44t-43 -17z" />
    <glyph glyph-name="less" unicode="&#x3c;" horiz-adv-x="749" 
d="M516 190l-401 316l4 18l545 307l24 -38l-502 -283l359 -283z" />
    <glyph glyph-name="equal" unicode="=" horiz-adv-x="788" 
d="M76 348l10 47h598l-10 -47h-598zM141 631l11 45h598l-11 -45h-598z" />
    <glyph glyph-name="greater" unicode="&#x3e;" horiz-adv-x="749" 
d="M127 193l-25 38l502 283l-358 283l28 37l402 -316l-4 -18z" />
    <glyph glyph-name="question" unicode="?" horiz-adv-x="854" 
d="M203 -16q-25 0 -42 17t-18 44t17 44t43 17t42 -17t17 -44t-17 -44t-42 -17zM866 1055q0 121 -78 193t-196 71q-118 0 -201 -54q-82 -54 -102 -135q57 -8 57 -61t-53 -53q-27 0 -44 20t-18 51q1 105 105 191t250 86t239 -86q92 -86 93 -221q0 -168 -138 -286t-415 -146
l-86 -312h-31l76 349q274 18 408 128t134 265z" />
    <glyph glyph-name="at" unicode="@" horiz-adv-x="1585" 
d="M721 115q139 0 225 127t86 280q0 104 -55 166t-146 62q-131 0 -224 -115t-93 -279q0 -113 54 -177t153 -64zM643 -352q-249 0 -399 165t-150 431t117 493t313 360q198 132 438 132t388 -154t147 -397q0 -242 -104 -418t-242 -176q-90 0 -130 50t-28 132
q-31 -74 -109 -132t-182 -58q-102 0 -170 72t-67 208q0 180 109 307q110 126 257 125q101 0 159 -61t69 -162l55 219h47l-114 -456q-29 -94 -3 -150q27 -55 107 -55q123 0 215 166q92 165 92 391t-135 369t-377 143q-334 0 -572 -280t-239 -668q0 -250 136 -405t372 -154
q195 0 350 86l19 -33q-164 -90 -369 -90z" />
    <glyph glyph-name="A" unicode="A" horiz-adv-x="1409" 
d="M459 557h559l-107 752zM-37 0l10 45h119l762 1258h-188l10 45h473l-8 -45h-180l180 -1258h141l-8 -45h-387l10 45h193l-66 467h-592l-280 -467h206l-10 -45h-385z" />
    <glyph glyph-name="B" unicode="B" horiz-adv-x="1181" 
d="M512 45q92 0 206 26t191 103q90 84 90 213t-94 208t-278 79h-232l-145 -629h262zM645 719q217 0 334 88q117 87 117 235t-125 213q-86 47 -232 48h-200l-133 -584h239zM748 1348q160 0 258 -56q143 -80 143 -252q0 -139 -103 -236t-282 -112q139 -26 214 -102t75 -195
q0 -160 -113 -262q-90 -85 -206 -109t-228 -24h-504l10 45h185l288 1258h-202l10 45h455z" />
    <glyph glyph-name="C" unicode="C" horiz-adv-x="1337" 
d="M707 -20q-258 0 -403 158q-144 159 -144 419q0 195 91 379t265 307t377 123t319 -98t115 -213q0 -33 -18 -56t-43 -22q-53 0 -54 53q0 51 56 68q-12 84 -112 154t-278 69q-180 0 -340 -119t-243 -292q-82 -173 -82 -353q0 -231 132 -382t366 -150q115 0 235 52t219 146
l31 -35q-102 -96 -232 -152t-257 -56z" />
    <glyph glyph-name="D" unicode="D" horiz-adv-x="1392" 
d="M440 45q416 0 647 231q209 213 209 515q0 221 -129 350q-166 162 -479 162h-149l-289 -1258h190zM694 1348q334 0 510 -177q145 -145 146 -378q0 -326 -224 -549q-240 -244 -692 -244h-432l10 45h185l288 1258h-202l10 45h401z" />
    <glyph glyph-name="E" unicode="E" horiz-adv-x="1146" 
d="M2 0l10 45h185l288 1258h-202l10 45h924l-68 -287h-51l55 242h-614l-133 -590h481l-10 -47h-484l-143 -621h614l56 242h51l-66 -287h-903z" />
    <glyph glyph-name="F" unicode="F" horiz-adv-x="1091" 
d="M2 0l10 45h185l288 1258h-202l10 45h903l-68 -287h-51l56 242h-594l-140 -615h478l-11 -47h-479l-137 -596h211l-10 -45h-449z" />
    <glyph glyph-name="G" unicode="G" horiz-adv-x="1404" 
d="M156 501q0 223 94 415t274 321t406 129t356 -135q72 -74 72 -162q0 -33 -20 -55t-44 -23q-25 -1 -40 15t-15 40t17 42q17 20 44 26q-10 45 -55 92q-119 115 -325 115t-373 -125q-168 -125 -253 -306t-85 -383t126 -342t355 -140t443 163l92 369h-432l8 45h485l-149 -602
h-52l33 129q-194 -149 -440 -149t-384 150t-138 371z" />
    <glyph glyph-name="H" unicode="H" horiz-adv-x="1509" 
d="M2 0l10 45h185l288 1258h-202l10 45h446l-10 -45h-190l-133 -586h835l133 586h-209l11 45h446l-10 -45h-182l-291 -1258h202l-10 -45h-442l10 45h186l146 627h-836l-145 -627h207l-11 -45h-444z" />
    <glyph glyph-name="I" unicode="I" horiz-adv-x="638" 
d="M-4 0l10 45h201l289 1258h-201l10 45h455l-8 -45h-203l-289 -1258h201l-10 -45h-455z" />
    <glyph glyph-name="J" unicode="J" horiz-adv-x="1062" 
d="M132 391q56 0 56 -55q0 -25 -22 -42t-57 -18q-3 -104 73 -177t205 -72q176 0 270 145q76 111 125 340l183 791h-230l10 45h463l-8 -45h-182l-184 -797q-53 -240 -134 -359q-112 -165 -317 -165q-137 0 -230 83t-94 214q0 51 22 81q23 30 51 31z" />
    <glyph glyph-name="K" unicode="K" horiz-adv-x="1282" 
d="M1274 1303l-633 -545l354 -713h189l-10 -45h-213l-357 727l-246 -211l-108 -471h207l-11 -45h-444l10 45h185l288 1258h-202l10 45h446l-10 -45h-190l-166 -719l831 719h-213l10 45h439l-10 -45h-156z" />
    <glyph glyph-name="L" unicode="L" horiz-adv-x="1046" 
d="M2 0l10 45h185l288 1258h-202l10 45h446l-10 -45h-190l-289 -1258h561l57 254h52l-68 -299h-850z" />
    <glyph glyph-name="M" unicode="M" horiz-adv-x="1685" 
d="M-18 0l8 45h196l334 1258h-207l11 45h266l217 -1069l713 1069h247l-10 -45h-186l-244 -1258h211l-10 -45h-434l10 45h172l235 1210l-714 -1073h-19l-219 1078l-323 -1215h190l-10 -45h-434z" />
    <glyph glyph-name="N" unicode="N" horiz-adv-x="1495" 
d="M1110 -6l-586 1259l-276 -1208h209l-11 -45h-444l10 45h185l288 1258h-200l8 45h239l584 -1254l277 1209h-211l10 45h446l-10 -45h-184l-301 -1309h-33z" />
    <glyph glyph-name="O" unicode="O" horiz-adv-x="1472" 
d="M702 27q186 0 344 111q157 112 244 290q88 178 88 386t-129 358t-362 149q-279 0 -477 -237t-199 -537q0 -221 129 -371t362 -149zM698 -18q-248 0 -394 162t-146 382t91 407t263 310t379 123q248 0 394 -162q147 -162 147 -382t-92 -407t-263 -310q-172 -123 -379 -123z
" />
    <glyph glyph-name="P" unicode="P" horiz-adv-x="1091" 
d="M584 578q233 0 365 114t132 291q0 106 -57 186q-95 134 -328 134h-157l-164 -719q76 -6 209 -6zM705 1348q96 0 165 -21q125 -33 195 -124t70 -216q0 -205 -153 -331t-402 -126q-121 0 -215 9l-115 -494h207l-11 -45h-444l10 45h185l288 1258h-211l9 45h422z" />
    <glyph glyph-name="Q" unicode="Q" horiz-adv-x="1474" 
d="M702 27q186 0 344 111q157 112 244 290q88 178 88 386t-129 358t-362 149q-279 0 -477 -237t-199 -537q0 -221 129 -371t362 -149zM1432 803q0 -195 -86 -377t-249 -307t-362 -135q61 -100 159 -165t202 -65t184 41l16 -43q-94 -45 -184 -45q-139 0 -252 79t-182 196
q-240 8 -380 168t-140 378t91 405t263 310t379 123q249 0 395 -162t146 -401z" />
    <glyph glyph-name="R" unicode="R" horiz-adv-x="1183" 
d="M600 641q231 0 365 99q133 99 133 264q0 123 -72 192q-102 106 -348 107h-139l-150 -658q49 -4 211 -4zM686 1348q258 0 379 -121q84 -80 84 -232q0 -151 -119 -261t-328 -132l254 -557h158l-10 -45h-184l-267 596h-51q-166 0 -223 4l-129 -555h207l-11 -45h-444l10 45
h185l288 1258h-202l10 45h393z" />
    <glyph glyph-name="S" unicode="S" horiz-adv-x="1032" 
d="M492 -18q-179 0 -303 88t-123 180q0 29 15 48t42 19t41 -15t14 -38q0 -45 -43 -61q29 -68 129 -122t241 -54t239 82t98 198q0 115 -64 189t-210 173t-213 180t-66 195q0 141 111 232q112 90 264 90t261 -75q108 -75 107 -169q0 -70 -57 -69q-23 0 -38 16t-15 39
q0 43 45 61q-25 63 -106 107t-207 45q-126 0 -220 -76t-94 -187q0 -110 62 -184t209 -172t215 -178q68 -82 67 -200q0 -152 -111 -247t-290 -95z" />
    <glyph glyph-name="T" unicode="T" horiz-adv-x="1220" 
d="M293 0l10 45h193l288 1258h-444l-59 -256h-52l72 301h1047l-72 -301h-51l59 256h-444l-291 -1258h213l-8 -45h-461z" />
    <glyph glyph-name="U" unicode="U" horiz-adv-x="1392" 
d="M660 -18q-192 0 -300 92q-109 92 -108 262q0 84 29 209l174 758h-203l10 45h447l-11 -45h-192l-176 -764q-25 -109 -25 -197q0 -156 93 -236t262 -80q340 1 442 468l186 809h-211l10 45h447l-10 -45h-185l-188 -814q-59 -255 -179 -381t-312 -126z" />
    <glyph glyph-name="V" unicode="V" horiz-adv-x="1372" 
d="M543 -29l-185 1332h-147l10 45h389l-10 -45h-188l168 -1248l735 1248h-199l10 45h390l-11 -45h-133l-792 -1332h-37z" />
    <glyph glyph-name="W" unicode="W" horiz-adv-x="1933" 
d="M449 -31l-62 1334h-168l10 45h408l-10 -45h-187l49 -1235l580 1083h33l108 -1083l639 1235h-186l10 45h408l-10 -45h-164l-703 -1334h-35l-104 1080l-580 -1080h-36z" />
    <glyph glyph-name="X" unicode="X" horiz-adv-x="1425" 
d="M-31 0l11 45h165l607 651l-279 607h-176l10 45h418l-10 -45h-187l256 -576l531 576h-185l11 45h418l-11 -45h-172l-571 -615l297 -643h180l-10 -45h-418l10 45h183l-275 612l-565 -612h190l-10 -45h-418z" />
    <glyph glyph-name="Y" unicode="Y" horiz-adv-x="1284" 
d="M285 0l10 45h211l129 528l-268 730h-140l11 45h385l-11 -45h-190l248 -687l579 687h-186l10 45h385l-10 -45h-135l-627 -736l-127 -522h215l-10 -45h-479z" />
    <glyph glyph-name="Z" unicode="Z" horiz-adv-x="1187" 
d="M6 0v25l1194 1278h-815l-55 -244h-51l65 289h940v-25l-1194 -1278h856l58 244h51l-68 -289h-981z" />
    <glyph glyph-name="bracketleft" unicode="[" horiz-adv-x="641" 
d="M41 -410l444 1909h389l-10 -45h-340l-418 -1819h338l-10 -45h-393z" />
    <glyph glyph-name="backslash" unicode="\" horiz-adv-x="854" 
d="M526 -401l-129 1896l49 4l129 -1896z" />
    <glyph glyph-name="bracketright" unicode="]" horiz-adv-x="641" 
d="M-176 -410l10 45h338l420 1819h-338l10 45h391l-442 -1909h-389z" />
    <glyph glyph-name="asciicircum" unicode="^" horiz-adv-x="843" 
d="M250 799l-17 22l322 242l197 -242l-21 -18l-186 176z" />
    <glyph glyph-name="underscore" unicode="_" horiz-adv-x="1017" 
d="M-160 -258l10 49h1024l-10 -49h-1024z" />
    <glyph glyph-name="grave" unicode="`" horiz-adv-x="1036" 
d="M573 1214q1 42 43 43q22 0 48 -28l198 -193l-16 -18l-234 151q-39 25 -39 45z" />
    <glyph glyph-name="a" unicode="a" horiz-adv-x="1089" 
d="M399 29q170 1 286 157t116 334q0 129 -75 212t-194 83q-166 1 -278 -149t-111 -340q-1 -141 69 -219t187 -78zM395 -12q-133 0 -217 88t-84 246q0 210 125 372t313 162q115 0 196 -71t99 -189l62 248h49l-154 -619q-20 -88 -20 -121q0 -32 20 -54t58 -22t68 32t63 114
l35 -10q-37 -98 -75 -137t-93 -39t-87 32t-32 82q0 49 14 101q-131 -215 -340 -215z" />
    <glyph glyph-name="b" unicode="b" horiz-adv-x="1036" 
d="M498 29q172 0 282 144t109 310q0 166 -71 249t-197 83q-168 0 -286 -155t-118 -309t78 -238t203 -84zM623 856q143 0 230 -93t87 -279t-122 -342q-122 -155 -314 -154q-123 0 -207 70t-104 192l-56 -250h-49l338 1458h-172l8 41h223l-196 -846q133 203 334 203z" />
    <glyph glyph-name="c" unicode="c" horiz-adv-x="899" 
d="M440 -12q-148 0 -249 97q-99 97 -99 261q0 207 134 359t319 151q131 0 211 -66t80 -141q0 -76 -50 -76q-45 0 -45 43t45 60q-14 57 -78 98q-65 41 -165 41q-164 0 -283 -139t-119 -330q0 -145 85 -231t221 -86t274 106l-4 -51q-129 -96 -277 -96z" />
    <glyph glyph-name="d" unicode="d" horiz-adv-x="1107" 
d="M416 29q168 1 284 155t117 308q0 154 -78 239q-78 84 -202 84q-172 0 -282 -144t-110 -310t72 -249t199 -83zM96 338q0 210 122 364t314 154q119 0 204 -69t106 -185l198 856h-174l8 41h226l-291 -1259q-23 -92 -23 -130t20 -60t59 -22q38 0 67 32t61 114l35 -10
q-35 -98 -73 -137t-93 -39t-88 32t-33 82q0 49 15 105q-129 -219 -344 -219q-143 0 -230 93q-86 93 -86 257z" />
    <glyph glyph-name="e" unicode="e" horiz-adv-x="931" 
d="M539 815q-125 0 -235 -97t-148 -247h626q10 55 11 90q-1 121 -65 187t-189 67zM139 334q0 -143 86 -224q87 -81 229 -81t269 73l-12 -49q-119 -65 -271 -65t-252 94t-100 256q0 210 136 364t333 154q129 0 207 -78t78 -223q-1 -53 -21 -125h-674q-8 -41 -8 -96z" />
    <glyph glyph-name="f" unicode="f" horiz-adv-x="573" 
d="M801 1441q1 -25 -13 -39t-34 -13q-59 0 -60 67v8h-6q-186 0 -252 -305l-74 -315h232l-8 -41h-232l-186 -803h-49l186 803h-162l9 41h161l76 323q80 344 305 342q49 1 78 -21t29 -47z" />
    <glyph glyph-name="g" unicode="g" horiz-adv-x="1019" 
d="M420 39q166 0 282 157t117 326q0 125 -79 209t-205 84q-166 0 -277 -144t-111 -303t74 -244t199 -85zM340 -410q-180 0 -264 91q-33 33 -33 73q0 59 49 60q23 0 38 -16t15 -44q0 -29 -28 -45q21 -33 83 -55t130 -23q164 0 260 99q72 72 115 260q23 94 51 223
q-133 -215 -340 -215q-141 0 -231 95q-89 95 -89 273t123 334t313 156q127 0 210 -73t104 -187q38 175 57 242h49l-198 -854q-45 -202 -139 -298q-95 -96 -275 -96z" />
    <glyph glyph-name="h" unicode="h" horiz-adv-x="1034" 
d="M623 856q100 0 161 -54q106 -94 29 -331l-70 -235q-27 -94 -27 -130t22 -56q22 -22 60 -22t68 32t62 114l35 -10q-35 -96 -74 -136t-96 -40t-92 31q-33 32 -33 82t28 143l68 235q31 98 31 175t-45 119t-129 42q-131 0 -241 -127t-157 -326l-86 -362h-49l340 1458h-174
l8 41h225l-213 -903q139 260 349 260z" />
    <glyph glyph-name="i" unicode="i" horiz-adv-x="550" 
d="M266 -12q-57 0 -91 32t-34 80t27 144l162 559h-185l9 41h235l-174 -608q-25 -86 -25 -126q0 -80 78 -81q41 -1 71 31t62 114l35 -10q-37 -98 -75 -137t-95 -39zM395 1075q-19 -1 -33 15t-14 36t13 34t33 16q20 0 36 -14q14 -14 14 -36q0 -20 -14 -36t-35 -15z" />
    <glyph glyph-name="j" unicode="j" horiz-adv-x="456" 
d="M367 1075q-19 -1 -33 15t-15 36t13 34t34 16q20 0 35 -14t15 -36q0 -20 -14 -36t-35 -15zM-211 -352q0 50 50 51q24 1 39 -19t16 -47q74 8 133 86t110 297l180 787h-188l8 41h238l-191 -838q-55 -238 -139 -334q-76 -82 -168 -82q-39 0 -63 18q-24 16 -25 40z" />
    <glyph glyph-name="k" unicode="k" horiz-adv-x="907" 
d="M719 794q0 62 51 62q20 0 36 -18t15 -47q0 -135 -383 -340l107 -256q41 -95 67 -131t66 -35q70 0 117 170l36 -11q-27 -104 -63 -152t-96 -48t-94 43t-76 147l-105 252q-115 -55 -178 -82l-82 -348h-49l338 1458h-172l8 41h223l-256 -1104q203 85 351 185t178 163
q-39 17 -39 51z" />
    <glyph glyph-name="l" unicode="l" horiz-adv-x="493" 
d="M249 -12q-54 0 -90 32t-36 80q0 46 24 150l279 1208h-170l8 41h221l-290 -1259q-23 -92 -23 -129q0 -82 76 -82q42 -1 72 31t61 114l33 -10q-33 -96 -72 -136t-93 -40z" />
    <glyph glyph-name="m" unicode="m" horiz-adv-x="1564" 
d="M637 856q92 0 144 -52t53 -147q0 -33 -7 -69q141 268 355 268q92 0 148 -53t56 -135t-36 -197l-74 -235q-27 -82 -27 -124t22 -62q23 -22 59 -22q76 1 130 146l35 -10q-37 -98 -75 -137t-95 -39t-91 32t-34 85q0 54 29 139l71 235q35 98 35 183q0 154 -157 153
q-128 0 -234 -121t-160 -323l-98 -371h-49l125 479q27 102 26 168q0 168 -153 168q-119 0 -229 -127t-158 -319l-92 -369h-50l201 803h-172l8 41h224l-68 -262q145 274 338 274z" />
    <glyph glyph-name="n" unicode="n" horiz-adv-x="1048" 
d="M809 -12q-57 0 -90 32t-33 84q0 53 27 140l73 235q33 102 33 174q0 162 -172 162q-127 0 -239 -126t-160 -320l-92 -369h-50l201 803h-172l8 41h222l-66 -262q145 274 354 274q99 0 157 -53t58 -139t-34 -193l-74 -235q-27 -94 -27 -130t22 -56q21 -22 59 -22t69 32
t63 114l33 -10q-35 -96 -74 -136t-96 -40z" />
    <glyph glyph-name="o" unicode="o" horiz-adv-x="995" 
d="M453 29q165 0 281 138t116 304t-86 255t-223 89q-166 0 -282 -138q-116 -139 -116 -305q-1 -166 87 -254t223 -89zM451 -12q-154 0 -255 99q-102 99 -102 283t129 335q129 152 320 151q154 0 255 -99t101 -284t-129 -335t-319 -150z" />
    <glyph glyph-name="p" unicode="p" horiz-adv-x="1067" 
d="M535 29q169 0 277 144t108 310t-72 249t-191 83t-214 -78q-95 -77 -145 -187t-50 -232t78 -205q78 -84 209 -84zM653 856q143 0 231 -93t87 -279q0 -186 -122 -342q-122 -155 -314 -154q-123 0 -207 68t-105 186l-139 -602h180l-8 -41h-350l8 41h121l270 1163h-172l8 41
h221l-49 -205q133 217 340 217z" />
    <glyph glyph-name="q" unicode="q" horiz-adv-x="1034" 
d="M416 29q168 1 286 155t117 308q0 154 -78 239q-78 84 -202 84q-172 0 -282 -144q-110 -143 -110 -311t71 -250t198 -81zM414 -12q-143 0 -231 93q-87 93 -87 257q0 210 122 364t314 154q121 0 206 -70t106 -188l55 246h49l-280 -1204h174l-8 -41h-224l135 591
q-126 -202 -331 -202z" />
    <glyph glyph-name="r" unicode="r" horiz-adv-x="630" 
d="M578 856q30 0 52 -19t22 -43t-15 -36q-14 -14 -37 -14t-37 16t-16 41q-74 -9 -166 -145t-133 -302l-88 -354h-49l198 803h-172l8 41h222l-70 -281q66 141 142 217q77 76 139 76z" />
    <glyph glyph-name="s" unicode="s" horiz-adv-x="786" 
d="M723 674q0 -51 -46 -51t-46 54q0 28 28 48q-12 20 -30 35q-73 55 -179 55t-168 -50q-62 -49 -62 -117t44 -106q46 -38 136 -81t130 -69t74 -73q35 -47 35 -104q0 -103 -80 -165t-203 -62q-170 0 -262 100q-45 49 -45 88q0 72 51 74q16 0 28 -14t13 -31q0 -41 -35 -58
q6 -18 31 -43q76 -76 221 -75q104 0 169 52t65 125t-49 116t-155 94t-162 99q-54 48 -54 132q0 85 78 147t188 62q160 0 246 -90q39 -41 39 -92z" />
    <glyph glyph-name="t" unicode="t" horiz-adv-x="606" 
d="M164 125q0 -94 96 -94q70 0 193 92l20 -31q-127 -104 -204 -104t-115 36t-39 85q0 49 16 118l143 576h-159l8 41h162l55 219l51 12l-57 -231h268l-8 -41h-270l-146 -582q-14 -61 -14 -96z" />
    <glyph glyph-name="u" unicode="u" horiz-adv-x="1052" 
d="M725 110q1 -84 79 -82q38 0 68 32t62 114l35 -10q-37 -98 -75 -137t-92 -39t-88 32t-34 76q0 43 22 146l3 4v10q-141 -268 -347 -268q-94 0 -151 54t-57 144q0 43 32 183l109 434h-172l10 41h219l-119 -482q-29 -116 -29 -182t44 -108q43 -42 121 -43q125 0 235 126
t158 318l92 371h49l-154 -619q-20 -76 -20 -115z" />
    <glyph glyph-name="v" unicode="v" horiz-adv-x="903" 
d="M782 856q25 0 43 -22t19 -60q0 -131 -139 -363t-336 -446h-21l-127 838h-166l8 41h201l119 -807q170 197 282 384t134 324q-29 -1 -48 17t-19 42t12 38q13 14 38 14z" />
    <glyph glyph-name="w" unicode="w" horiz-adv-x="1300" 
d="M1092 804q0 24 13 38t32 14q70 0 69 -92q0 -131 -94 -345t-260 -454h-25l-139 676l-383 -676h-24l-54 838h-164l9 41h198l47 -785l371 666h25l143 -686q137 203 218 393t87 311q-29 1 -49 19t-20 42z" />
    <glyph glyph-name="x" unicode="x" horiz-adv-x="927" 
d="M82 -12q-34 0 -58 18t-24 42q0 54 45 54q55 0 64 -71q74 10 206 196l142 203l-146 373h-159l8 41h186l139 -375q90 143 107 164q80 121 136 172t104 51t74 -18q24 -18 24 -42q0 -52 -45 -55q-59 0 -64 70q-65 -11 -161 -151q-38 -56 -92 -137q-56 -81 -60 -91l92 -239
q37 -101 62 -133t55 -31q66 0 104 145l35 -10q-26 -98 -58 -137t-82 -39t-83 37t-74 143l-82 223q-6 -10 -65 -96t-64 -92q-153 -215 -266 -215z" />
    <glyph glyph-name="y" unicode="y" horiz-adv-x="944" 
d="M-57 -408q-35 0 -60 20t-25 44q1 51 48 51q27 0 43 -18t16 -49v-2q141 29 412 352l-154 813h-166l9 41h200l148 -809q156 197 274 395t135 315q-29 -1 -49 17t-20 42t14 38t38 14t43 -22t19 -58q0 -117 -129 -343t-309 -443q-333 -398 -487 -398z" />
    <glyph glyph-name="z" unicode="z" horiz-adv-x="851" 
d="M528 -16q-39 0 -140 24t-161 23q-127 0 -209 -45l-20 26l770 791h-528l-45 -176h-43l53 217h622l15 -25l-750 -768q114 42 306 -3q103 -24 132 -23q63 0 107 47q43 47 76 157l35 -8q-33 -119 -83 -178t-137 -59z" />
    <glyph glyph-name="braceleft" unicode="{" horiz-adv-x="575" 
d="M178 524h-72l15 54h78q123 0 187 51t65 133q0 82 -62 209q-63 139 -63 231q0 137 118 229q119 91 324 95l-10 -41q-178 -4 -280 -84q-102 -81 -103 -187q0 -106 62 -235q123 -256 -2 -366q-65 -56 -173 -66q74 -13 118 -57t44 -107q0 -111 -154 -252t-153 -262
q0 -90 57 -159t166 -101l-10 -41q-121 32 -192 112t-70 189q0 141 153 281t154 233q0 57 -48 99t-149 42z" />
    <glyph glyph-name="bar" unicode="|" horiz-adv-x="485" 
d="M217 -410v1909h49v-1909h-49z" />
    <glyph glyph-name="braceright" unicode="}" horiz-adv-x="575" 
d="M258 -109q0 89 -63 221t-63 222t64 146q65 56 173 67q-72 12 -116 56t-44 108q-1 113 153 254t154 260q0 91 -58 159t-167 101l10 41q121 -31 192 -112t70 -189q0 -141 -162 -287q-71 -66 -107 -118t-36 -109t47 -99t148 -43h71l-12 -53h-78q-126 0 -190 -51t-64 -133
t62 -213t63 -228q-1 -137 -119 -228t-321 -95l8 41q178 4 282 84q103 80 103 198z" />
    <glyph glyph-name="asciitilde" unicode="~" horiz-adv-x="954" 
d="M635 422q-68 0 -147 70t-126 70q-46 0 -76 -31q-30 -30 -59 -97l-32 10q53 170 170 170q71 0 147 -70t124 -69q48 0 79 30t59 97l33 -10q-53 -170 -172 -170z" />
    <glyph glyph-name="uni00A0" unicode="&#xa0;" horiz-adv-x="395" 
 />
    <glyph glyph-name="exclamdown" unicode="&#xa1;" horiz-adv-x="432" 
d="M80 0l242 1036h34l-209 -1036h-67zM399 1241q-25 0 -42 17q-17 16 -17 44t17 45t42 17t42 -17t17 -44t-16 -45q-18 -18 -43 -17z" />
    <glyph glyph-name="cent" unicode="&#xa2;" horiz-adv-x="921" 
d="M162 434q0 -112 48 -188t130 -109l227 770q-161 4 -283 -136t-122 -337zM451 80q-47 0 -80 8l-88 -299l-41 12l86 297q-98 33 -158 120q-59 87 -59 216q0 215 140 366t329 146l67 221l41 -12l-63 -213q107 -14 169 -76t62 -137q0 -31 -14 -49t-34 -18t-34 13
q-12 13 -12 34q0 41 45 57q-11 49 -63 87t-132 50l-231 -778q37 -6 74 -6q145 0 282 110l-4 -51q-128 -98 -282 -98z" />
    <glyph glyph-name="sterling" unicode="&#xa3;" horiz-adv-x="956" 
d="M864 764q-48 0 -47 55q0 29 39 47q-12 49 -68 85t-141 36q-159 0 -239 -114t-80 -275q0 -51 9 -142t11 -128h344l-10 -41h-332q0 -229 -207 -404q74 -4 207 -49q134 -45 230 -45t208 90l25 -33q-119 -98 -231 -98t-251 49q-138 49 -225 47q-30 -37 -64 -57t-56 -20
q-43 1 -43 35t44 60t109 25q203 176 203 400h-205l10 41h193l-21 270q0 176 96 304t277 128q117 0 191 -61t75 -135q0 -34 -15 -52q-16 -18 -36 -18z" />
    <glyph glyph-name="yen" unicode="&#xa5;" horiz-adv-x="989" 
d="M170 455l10 41h273l-179 481h-129l11 43h346l-10 -43h-164l172 -494l405 494h-160l11 43h346l-10 -43h-131l-404 -481h277l-11 -41h-303l-37 -158h305l-10 -41h-303l-49 -213h180l-10 -43h-406l11 43h178l49 213h-303l10 41h301l37 158h-303z" />
    <glyph glyph-name="section" unicode="&#xa7;" horiz-adv-x="827" 
d="M682 498q0 49 -51 86t-150 78l-45 16q-122 -16 -190 -57t-68 -93t50 -90q51 -36 145 -73l49 -23q260 41 260 156zM501 993q-81 0 -136 -37t-55 -91t50 -92q51 -38 156 -80t160 -86q55 -43 55 -109q1 -66 -69 -114t-191 -65q129 -66 129 -159q0 -74 -69 -125t-179 -51
t-186 50q-74 50 -74 106t45 57q19 -1 31 -13t12 -36t-26 -39q12 -31 68 -57t137 -26t137 40q55 39 55 85q0 77 -95 129q-34 17 -126 54t-147 80q-54 43 -54 110q0 133 256 176q-125 66 -125 164q0 74 71 123t181 49t182 -50t72 -105t-45 -56q-21 -1 -33 13t-12 38t26 37
q-10 29 -65 55t-136 25z" />
    <glyph glyph-name="dieresis" unicode="&#xa8;" horiz-adv-x="1036" 
d="M553 1053q-23 0 -38 15t-15 38t15 39t38 16t38 -16t15 -39t-15 -38t-38 -15zM786 1053q-24 0 -38 15t-15 38t15 39t38 16t38 -16t16 -39t-16 -38t-38 -15z" />
    <glyph glyph-name="copyright" unicode="&#xa9;" horiz-adv-x="1216" 
d="M646 250q-114 0 -188 80t-75 194q0 114 79 193q79 78 171 78t150 -41t59 -90q0 -18 -10 -30t-27 -13q-33 1 -33 31t27 34q-13 26 -55 50t-97 24q-96 0 -161 -71q-64 -71 -64 -168t64 -167t160 -70q95 0 175 68l21 -26q-82 -76 -196 -76zM629 14q207 0 345 146t138 353
q0 206 -138 352q-138 147 -344 147t-344 -146t-138 -354q0 -206 136 -352q138 -146 345 -146zM630 -18q-222 0 -370 153q-147 154 -147 377t147 378q148 154 370 154t369 -154t147 -376q0 -224 -146 -378q-148 -154 -370 -154z" />
    <glyph glyph-name="ordfeminine" unicode="&#xaa;" horiz-adv-x="665" 
d="M109 666l8 34h506l-9 -34h-505zM578 1151q0 182 -170 182q-84 0 -151 -87t-67 -197q0 -175 166 -175q84 0 153 94t69 183zM338 838q-84 0 -136 55t-52 169t78 211q79 97 192 97q72 0 119 -42t57 -111l35 147h41l-97 -383q-8 -35 -8 -66q0 -43 44 -43t81 89l25 -11
q-43 -111 -111 -110q-78 0 -78 75q0 25 4 39q-79 -116 -194 -116z" />
    <glyph glyph-name="guillemotleft" unicode="&#xab;" horiz-adv-x="813" 
d="M354 231l-268 320l422 317l27 -30l-385 -293l237 -289zM637 231l-268 320l422 317l26 -30l-385 -293l238 -289z" />
    <glyph glyph-name="registered" unicode="&#xae;" horiz-adv-x="774" 
d="M479 1059h47q45 -1 75 21t30 57q0 78 -103 77h-49v-155zM532 1247q134 -1 134 -119q0 -62 -80 -92l76 -129h49v-33h-74l-88 154h-70v-121h53v-33h-143v33h55v307h-55v33h143zM535 1384q-135 0 -225 -96t-91 -234q0 -138 90 -234q89 -96 225 -97q136 0 225 96
q89 95 89 235t-89 235t-224 95zM535 688q-154 0 -253 106t-100 259q0 154 100 260t253 106q155 0 253 -106t98 -260q0 -153 -98 -259q-99 -106 -253 -106z" />
    <glyph glyph-name="macron" unicode="&#xaf;" horiz-adv-x="1036" 
d="M381 1081l10 49h559l-10 -49h-559z" />
    <glyph glyph-name="degree" unicode="&#xb0;" horiz-adv-x="641" 
d="M398 909q83 0 148 74q64 74 64 165t-45 137t-127 46t-148 -74q-65 -74 -65 -165t45 -137t128 -46zM657 1148q-1 -104 -79 -192t-182 -88t-162 60t-58 164t80 192t184 88t161 -60q56 -60 56 -164z" />
    <glyph glyph-name="plusminus" unicode="&#xb1;" horiz-adv-x="788" 
d="M33 147l8 48h598l-10 -48h-596zM537 934l-66 -281h274l-10 -47h-276l-66 -287h-47l66 287h-273l11 47h274l65 281h48z" />
    <glyph glyph-name="two.sup" unicode="&#xb2;" horiz-adv-x="722" 
d="M449 1448q0 -39 -38 -39t-38 56t72 113q73 56 173 56t160 -48t60 -125t-60 -132t-156 -109q-98 -54 -148 -86t-105 -90t-82 -126h399l37 153h39l-43 -190h-479l-9 20q45 117 131 193t204 138t172 112t54 113t-46 101q-48 38 -126 38t-134 -35t-66 -78q29 -6 29 -35z" />
    <glyph glyph-name="three.sup" unicode="&#xb3;" horiz-adv-x="722" 
d="M514 909q86 1 148 53t63 123q0 71 -55 117t-138 45h-40l8 37h37q106 0 176 51q69 51 69 117t-50 106q-50 38 -124 38t-120 -26q-46 -24 -56 -59q31 -6 31 -34q0 -35 -39 -35t-39 53t62 96q61 43 159 43t160 -50t61 -125q0 -75 -61 -129t-156 -66q72 -14 116 -62t44 -112
q0 -94 -78 -156t-183 -62t-174 48t-69 108q0 59 43 59q37 -1 37 -35t-37 -40q11 -41 65 -72t140 -31z" />
    <glyph glyph-name="acute" unicode="&#xb4;" horiz-adv-x="1036" 
d="M866 1214q0 -31 -49 -51l-289 -145l-12 20l254 189q57 42 85 14q11 -12 11 -27z" />
    <glyph glyph-name="paragraph" unicode="&#xb6;" horiz-adv-x="1019" 
d="M512 43h119l252 934h-119zM127 659q0 161 117 261t307 100h539l-11 -43h-145l-252 -934h145l-10 -43h-520l10 43h154l92 340q-262 0 -354 92q-72 72 -72 184z" />
    <glyph glyph-name="periodcentered" unicode="&#xb7;" horiz-adv-x="471" 
d="M313 496q0 -26 -17 -44t-43 -18t-43 18t-17 44q0 27 17 44t43 17t43 -17t17 -44z" />
    <glyph glyph-name="cedilla" unicode="&#xb8;" horiz-adv-x="1036" 
d="M549 -269q0 -57 -47 -99q-48 -42 -150 -42t-194 64l22 33q96 -55 174 -55t112 29q34 30 34 75q0 44 -42 70t-120 20l-10 10l90 191l31 -11l-62 -153q82 -4 122 -39t40 -93z" />
    <glyph glyph-name="one.sup" unicode="&#xb9;" horiz-adv-x="722" 
d="M266 881l8 39h211l156 663l-227 -63v39l258 73l20 -10l-164 -702h205l-8 -39h-459z" />
    <glyph glyph-name="ordmasculine" unicode="&#xba;" horiz-adv-x="663" 
d="M430 872q88 0 158 83t70 181t-51 150q-50 53 -139 53t-159 -84q-69 -84 -69 -181q0 -98 51 -150t139 -52zM135 666l8 34h461l-8 -34h-461zM470 1374q106 0 168 -63t62 -175t-82 -206t-190 -94t-169 63q-60 63 -60 175t82 206t189 94z" />
    <glyph glyph-name="guillemotright" unicode="&#xbb;" horiz-adv-x="813" 
d="M80 231l-29 31l387 291l-237 289l32 26l269 -319zM362 231l-28 31l387 291l-238 289l33 26l268 -319z" />
    <glyph glyph-name="onequarter" unicode="&#xbc;" horiz-adv-x="1628" 
d="M334 -14l-27 22l549 656q211 248 547 653l27 -23l-549 -653q-414 -491 -547 -655zM174 573l8 39h211l156 664l-227 -64v39l258 74l20 -10l-164 -703h205l-8 -39h-459zM1231 35l47 196h-363l-6 21l504 504l27 -25l-467 -465h313l49 205l45 18l-53 -221h141l-8 -37h-141
l-45 -196h115l-9 -35h-295l9 35h137z" />
    <glyph glyph-name="onehalf" unicode="&#xbd;" horiz-adv-x="1628" 
d="M307 -14l-26 22l548 656q211 248 547 653l27 -23l-549 -653q-414 -491 -547 -655zM152 573l8 39h211l155 664l-227 -64v39l258 74l21 -10l-164 -703h204l-8 -39h-458zM1458 576q0 62 -47 101q-47 38 -125 38t-134 -35t-67 -78q29 -6 29 -35q0 -39 -38 -39t-38 56t73 113
t173 57t160 -48t59 -125q0 -77 -59 -132q-58 -55 -156 -109t-148 -86q-50 -33 -106 -91t-82 -126h400l37 153h38l-43 -190h-479l-8 20q45 117 131 193t204 138q118 63 172 113t54 112z" />
    <glyph glyph-name="threequarters" unicode="&#xbe;" horiz-adv-x="1628" 
d="M350 -14l-26 22l548 656q211 248 547 653l27 -23l-549 -653q-414 -491 -547 -655zM1225 35l47 196h-363l-6 21l504 504l27 -25l-467 -465h313l49 205l45 18l-53 -221h141l-8 -37h-141l-45 -196h114l-8 -35h-295l8 35h138zM458 602q86 0 149 52t63 123t-56 117t-137 46
h-41l8 37h37q106 0 176 51q70 52 70 118t-50 104t-124 38t-120 -24t-56 -60q31 -6 31 -35q0 -35 -37 -34q-41 0 -41 53t62 96t160 43t158 -50q62 -50 62 -125t-61 -129t-156 -67q72 -14 116 -61t44 -113q0 -94 -78 -155q-77 -61 -183 -61t-174 47t-69 107q0 60 43 60
q37 0 37 -34t-37 -41q12 -41 65 -72t139 -31z" />
    <glyph glyph-name="questiondown" unicode="&#xbf;" horiz-adv-x="854" 
d="M384 -14q-146 0 -240 86q-93 86 -93 221q0 168 138 286t417 146l86 311h31l-78 -348q-274 -20 -408 -130t-135 -265q0 -119 78 -191t197 -72t201 55q82 54 102 134q-57 8 -57 62q0 23 15 37t40 16q25 0 42 -20t17 -52q0 -106 -103 -191q-104 -85 -250 -85zM825 1305
q0 -27 -16 -45t-42 -17q-26 -1 -43 17t-17 45t17 44t43 17t42 -17t16 -44z" />
    <glyph glyph-name="Agrave" unicode="&#xc0;" horiz-adv-x="1409" 
d="M752 1669q0 43 42 43q22 0 48 -29l198 -192l-16 -18l-233 151q-39 25 -39 45zM459 557h559l-107 752zM-37 0l10 45h119l762 1258h-188l10 45h473l-8 -45h-180l180 -1258h141l-8 -45h-387l10 45h193l-66 467h-592l-280 -467h206l-10 -45h-385z" />
    <glyph glyph-name="Aacute" unicode="&#xc1;" horiz-adv-x="1409" 
d="M1153 1708q17 0 29 -12t12 -27q0 -31 -49 -51l-289 -145l-12 20l254 188q37 27 55 27zM459 557h559l-107 752zM-37 0l10 45h119l762 1258h-188l10 45h473l-8 -45h-180l180 -1258h141l-8 -45h-387l10 45h193l-66 467h-592l-280 -467h206l-10 -45h-385z" />
    <glyph glyph-name="Acircumflex" unicode="&#xc2;" horiz-adv-x="1409" 
d="M692 1458l-16 23l319 243l199 -243l-20 -19l-187 178zM459 557h559l-107 752zM-37 0l10 45h119l762 1258h-188l10 45h473l-8 -45h-180l180 -1258h141l-8 -45h-387l10 45h193l-66 467h-592l-280 -467h206l-10 -45h-385z" />
    <glyph glyph-name="Atilde" unicode="&#xc3;" horiz-adv-x="1409" 
d="M1100 1477q-64 0 -146 68q-82 69 -129 69t-77 -30t-56 -95l-35 10q53 168 170 168q59 0 152 -72q78 -65 124 -65t76 30t58 97l35 -10q-53 -170 -172 -170zM459 557h559l-107 752zM-37 0l10 45h119l762 1258h-188l10 45h473l-8 -45h-180l180 -1258h141l-8 -45h-387l10 45
h193l-66 467h-592l-280 -467h206l-10 -45h-385z" />
    <glyph glyph-name="Adieresis" unicode="&#xc4;" horiz-adv-x="1409" 
d="M844 1507q-23 -1 -38 15t-15 39t15 39t38 16t38 -16t15 -40q0 -22 -15 -38t-38 -15zM1077 1507q-23 -1 -38 15t-15 39t15 39t38 16t38 -16t15 -40q0 -22 -15 -38t-38 -15zM459 557h559l-107 752zM-37 0l10 45h119l762 1258h-188l10 45h473l-8 -45h-180l180 -1258h141
l-8 -45h-387l10 45h193l-66 467h-592l-280 -467h206l-10 -45h-385z" />
    <glyph glyph-name="Aring" unicode="&#xc5;" horiz-adv-x="1409" 
d="M459 557h559l-107 752zM954 1616q-50 0 -90 -50t-39 -106q0 -56 28 -84q28 -30 79 -30t90 50t39 105t-28 85q-29 30 -79 30zM1110 1511q0 -111 -94 -163h133l-8 -45h-180l180 -1258h141l-8 -45h-387l10 45h193l-66 467h-592l-280 -467h206l-10 -45h-385l10 45h119
l762 1258h-188l10 45h158q-58 34 -58 110t54 136t128 60t112 -41q40 -42 40 -102z" />
    <glyph glyph-name="AE" unicode="&#xc6;" horiz-adv-x="1767" 
d="M516 559h436l172 748h-22zM-94 0l8 45h141l987 1258h-225l10 45h1010l-68 -287h-49l54 242h-598l-134 -590h465l-8 -47h-469l-143 -621h598l57 242h49l-65 -287h-887l10 45h185l108 469h-461l-368 -469h188l-10 -45h-385z" />
    <glyph glyph-name="Ccedilla" unicode="&#xc7;" horiz-adv-x="1337" 
d="M556 -410q-102 0 -194 64l23 33q95 -55 173 -55t113 29q34 30 34 75q0 44 -42 70t-120 20l-11 10l72 152q-211 32 -328 184q-116 152 -116 366t91 398t265 307t377 123t319 -98t115 -213q0 -33 -18 -56t-43 -22q-53 0 -54 53q0 51 56 68q-12 84 -112 154t-278 69
q-180 0 -340 -119t-243 -292q-82 -173 -82 -353q0 -231 132 -382t366 -150q115 0 235 52t219 146l31 -35q-102 -96 -232 -152t-257 -56q-23 0 -68 4l-47 -121q82 -4 122 -39t40 -93t-47 -100q-49 -41 -151 -41z" />
    <glyph glyph-name="Egrave" unicode="&#xc8;" horiz-adv-x="1146" 
d="M608 1669q0 43 42 43q22 0 48 -29l199 -192l-16 -18l-234 151q-39 25 -39 45zM2 0l10 45h185l288 1258h-202l10 45h924l-68 -287h-51l55 242h-614l-133 -590h481l-10 -47h-484l-143 -621h614l56 242h51l-66 -287h-903z" />
    <glyph glyph-name="Eacute" unicode="&#xc9;" horiz-adv-x="1146" 
d="M2 0l10 45h185l288 1258h-202l10 45h924l-68 -287h-51l55 242h-614l-133 -590h481l-10 -47h-484l-143 -621h614l56 242h51l-66 -287h-903zM1012 1708q18 0 29 -12t12 -27q0 -31 -49 -51l-289 -145l-13 20l254 188q38 27 56 27z" />
    <glyph glyph-name="Ecircumflex" unicode="&#xca;" horiz-adv-x="1146" 
d="M2 0l10 45h185l288 1258h-202l10 45h924l-68 -287h-51l55 242h-614l-133 -590h481l-10 -47h-484l-143 -621h614l56 242h51l-66 -287h-903zM549 1458l-17 23l320 243l199 -243l-21 -19l-186 178z" />
    <glyph glyph-name="Edieresis" unicode="&#xcb;" horiz-adv-x="1146" 
d="M2 0l10 45h185l288 1258h-202l10 45h924l-68 -287h-51l55 242h-614l-133 -590h481l-10 -47h-484l-143 -621h614l56 242h51l-66 -287h-903zM700 1507q-24 -1 -38 15t-15 39t15 39t38 16t38 -16t16 -40q0 -22 -16 -38t-38 -15zM934 1507q-23 -1 -38 15t-15 39t15 39t38 16
t38 -16t15 -40q0 -22 -15 -38t-38 -15z" />
    <glyph glyph-name="Igrave" unicode="&#xcc;" horiz-adv-x="638" 
d="M375 1669q0 43 42 43q22 0 48 -29l199 -192l-17 -18l-233 151q-39 25 -39 45zM-4 0l10 45h201l289 1258h-201l10 45h455l-8 -45h-203l-289 -1258h201l-10 -45h-455z" />
    <glyph glyph-name="Iacute" unicode="&#xcd;" horiz-adv-x="638" 
d="M776 1708q18 0 30 -12t11 -27q0 -31 -49 -51l-289 -145l-12 20l254 188q37 27 55 27zM-4 0l10 45h201l289 1258h-201l10 45h455l-8 -45h-203l-289 -1258h201l-10 -45h-455z" />
    <glyph glyph-name="Icircumflex" unicode="&#xce;" horiz-adv-x="638" 
d="M315 1458l-16 23l319 243l199 -243l-20 -19l-187 178zM-4 0l10 45h201l289 1258h-201l10 45h455l-8 -45h-203l-289 -1258h201l-10 -45h-455z" />
    <glyph glyph-name="Idieresis" unicode="&#xcf;" horiz-adv-x="638" 
d="M467 1507q-23 -1 -38 15t-15 39t15 39t38 16t38 -16t15 -40q0 -22 -15 -38t-38 -15zM700 1507q-24 -1 -38 15t-15 39t15 39t38 16t38 -16t16 -40q0 -22 -16 -38t-38 -15zM-4 0l10 45h201l289 1258h-201l10 45h455l-8 -45h-203l-289 -1258h201l-10 -45h-455z" />
    <glyph glyph-name="Eth" unicode="&#xd0;" horiz-adv-x="1396" 
d="M440 45q416 0 647 231q209 213 209 515q0 221 -129 350q-166 162 -479 162h-149l-136 -590h322l-10 -45h-322l-143 -623h190zM694 1348q334 0 510 -177q145 -145 146 -378q0 -326 -224 -549q-240 -244 -692 -244h-432l10 45h185l143 623h-162l10 45h162l135 590h-202
l10 45h401z" />
    <glyph glyph-name="Ntilde" unicode="&#xd1;" horiz-adv-x="1495" 
d="M1155 1477q-63 0 -145 68q-82 69 -129 69t-77 -30t-56 -95l-35 10q53 168 170 168q59 0 151 -72q78 -65 124 -65t76 30t58 97l35 -10q-53 -170 -172 -170zM1110 -6l-586 1259l-276 -1208h209l-11 -45h-444l10 45h185l288 1258h-200l8 45h239l584 -1254l277 1209h-211
l10 45h446l-10 -45h-184l-301 -1309h-33z" />
    <glyph glyph-name="Ograve" unicode="&#xd2;" horiz-adv-x="1472" 
d="M788 1669q0 43 42 43q22 0 49 -29l198 -192l-16 -18l-234 151q-39 25 -39 45zM702 27q186 0 344 111q157 112 244 290q88 178 88 386t-129 358t-362 149q-279 0 -477 -237t-199 -537q0 -221 129 -371t362 -149zM698 -18q-248 0 -394 162t-146 382t91 407t263 310t379 123
q248 0 394 -162q147 -162 147 -382t-92 -407t-263 -310q-172 -123 -379 -123z" />
    <glyph glyph-name="Oacute" unicode="&#xd3;" horiz-adv-x="1472" 
d="M702 27q186 0 344 111q157 112 244 290q88 178 88 386t-129 358t-362 149q-279 0 -477 -237t-199 -537q0 -221 129 -371t362 -149zM698 -18q-248 0 -394 162t-146 382t91 407t263 310t379 123q248 0 394 -162q147 -162 147 -382t-92 -407t-263 -310q-172 -123 -379 -123z
M1192 1708q18 0 30 -12t11 -27q0 -31 -49 -51l-289 -145l-12 20l254 188q37 27 55 27z" />
    <glyph glyph-name="Ocircumflex" unicode="&#xd4;" horiz-adv-x="1472" 
d="M702 27q186 0 344 111q157 112 244 290q88 178 88 386t-129 358t-362 149q-279 0 -477 -237t-199 -537q0 -221 129 -371t362 -149zM698 -18q-248 0 -394 162t-146 382t91 407t263 310t379 123q248 0 394 -162q147 -162 147 -382t-92 -407t-263 -310q-172 -123 -379 -123z
M729 1458l-16 23l319 243l199 -243l-21 -19l-186 178z" />
    <glyph glyph-name="Otilde" unicode="&#xd5;" horiz-adv-x="1472" 
d="M1137 1477q-63 0 -145 68q-82 69 -130 69q-47 0 -77 -30t-56 -95l-35 10q53 168 170 168q59 0 152 -72q78 -65 124 -65t76 30t58 97l35 -10q-53 -170 -172 -170zM702 27q186 0 344 111q157 112 244 290q88 178 88 386t-129 358t-362 149q-279 0 -477 -237t-199 -537
q0 -221 129 -371t362 -149zM698 -18q-248 0 -394 162t-146 382t91 407t263 310t379 123q248 0 394 -162q147 -162 147 -382t-92 -407t-263 -310q-172 -123 -379 -123z" />
    <glyph glyph-name="Odieresis" unicode="&#xd6;" horiz-adv-x="1472" 
d="M702 27q186 0 344 111q157 112 244 290q88 178 88 386t-129 358t-362 149q-279 0 -477 -237t-199 -537q0 -221 129 -371t362 -149zM698 -18q-248 0 -394 162t-146 382t91 407t263 310t379 123q248 0 394 -162q147 -162 147 -382t-92 -407t-263 -310q-172 -123 -379 -123z
M881 1507q-23 -1 -38 15t-16 39t15 39t39 16t38 -16t15 -40q0 -22 -15 -38t-38 -15zM1114 1507q-23 -1 -38 15t-15 39t15 39t38 16t38 -16t15 -40q0 -22 -15 -38t-38 -15z" />
    <glyph glyph-name="multiply" unicode="&#xd7;" horiz-adv-x="788" 
d="M231 823l195 -252l297 240l29 -37l-297 -242l194 -251l-37 -31l-196 252l-295 -238l-29 37l295 240l-192 252z" />
    <glyph glyph-name="Oslash" unicode="&#xd8;" horiz-adv-x="1472" 
d="M211 547q0 -158 63 -277l1006 860q-136 190 -404 190t-466 -236t-199 -537zM702 27q186 0 344 111q157 112 244 290q88 178 88 358t-75 310l-1008 -863q133 -206 407 -206zM698 -18q-293 0 -440 219l-254 -217l-27 32l256 222q-75 136 -75 322t91 373t263 310t379 123
q274 0 426 -203l239 207l29 -33l-244 -209q91 -138 91 -332t-92 -381t-263 -310q-172 -123 -379 -123z" />
    <glyph glyph-name="Ugrave" unicode="&#xd9;" horiz-adv-x="1392" 
d="M739 1669q1 43 43 43q22 0 47 -29l199 -192l-16 -18l-234 151q-39 25 -39 45zM660 -18q-192 0 -300 92q-109 92 -108 262q0 84 29 209l174 758h-203l10 45h447l-11 -45h-192l-176 -764q-25 -109 -25 -197q0 -156 93 -236t262 -80q340 1 442 468l186 809h-211l10 45h447
l-10 -45h-185l-188 -814q-59 -255 -179 -381t-312 -126z" />
    <glyph glyph-name="Uacute" unicode="&#xda;" horiz-adv-x="1392" 
d="M660 -18q-192 0 -300 92q-109 92 -108 262q0 84 29 209l174 758h-203l10 45h447l-11 -45h-192l-176 -764q-25 -109 -25 -197q0 -156 93 -236t262 -80q340 1 442 468l186 809h-211l10 45h447l-10 -45h-185l-188 -814q-59 -255 -179 -381t-312 -126zM1142 1708q18 0 30 -12
q11 -12 12 -27q0 -31 -49 -51l-289 -145l-12 20l253 188q37 27 55 27z" />
    <glyph glyph-name="Ucircumflex" unicode="&#xdb;" horiz-adv-x="1392" 
d="M660 -18q-192 0 -300 92q-109 92 -108 262q0 84 29 209l174 758h-203l10 45h447l-11 -45h-192l-176 -764q-25 -109 -25 -197q0 -156 93 -236t262 -80q340 1 442 468l186 809h-211l10 45h447l-10 -45h-185l-188 -814q-59 -255 -179 -381t-312 -126zM680 1458l-16 23
l319 243l199 -243l-21 -19l-186 178z" />
    <glyph glyph-name="Udieresis" unicode="&#xdc;" horiz-adv-x="1392" 
d="M660 -18q-192 0 -300 92q-109 92 -108 262q0 84 29 209l174 758h-203l10 45h447l-11 -45h-192l-176 -764q-25 -109 -25 -197q0 -156 93 -236t262 -80q340 1 442 468l186 809h-211l10 45h447l-10 -45h-185l-188 -814q-59 -255 -179 -381t-312 -126zM831 1507
q-23 -1 -37 15t-16 39q0 23 16 39t38 16t37 -16t15 -40q0 -22 -14 -38q-16 -16 -39 -15zM1065 1507q-23 -1 -38 15t-15 39t15 39t38 16t38 -16t15 -40q0 -22 -15 -38t-38 -15z" />
    <glyph glyph-name="Yacute" unicode="&#xdd;" horiz-adv-x="1284" 
d="M1081 1708q17 0 29 -12t12 -27q0 -31 -49 -51l-289 -145l-12 20l254 188q37 27 55 27zM285 0l10 45h211l129 528l-268 730h-140l11 45h385l-11 -45h-190l248 -687l579 687h-186l10 45h385l-10 -45h-135l-627 -736l-127 -522h215l-10 -45h-479z" />
    <glyph glyph-name="Thorn" unicode="&#xde;" horiz-adv-x="1105" 
d="M532 340q233 0 363 111q129 111 129 276q0 115 -76 195q-102 106 -309 106h-162l-158 -682q76 -6 213 -6zM647 1075q225 0 340 -119q90 -94 90 -227q0 -190 -148 -313t-401 -123q-127 0 -217 8l-61 -256h205l-11 -45h-442l10 45h185l288 1258h-198l10 45h442l-10 -45
h-190l-52 -228h160z" />
    <glyph glyph-name="germandbls" unicode="&#xdf;" horiz-adv-x="991" 
d="M436 233q46 0 45 -56q0 -30 -35 -46q16 -43 64 -72t128 -29q81 0 142 60q62 59 62 167t-146 253q-133 133 -133 219q0 65 42 121t125 128t131 142t48 151t-52 138t-136 57q-215 0 -295 -344l-260 -1122h-49l186 803h-162l9 41h163l66 286q88 381 344 381q104 -1 169 -71
q64 -70 64 -164t-50 -169t-120 -137t-98 -90q-78 -79 -78 -138q0 -58 31 -101t94 -106q154 -150 154 -279q1 -128 -75 -196t-180 -68t-175 53q-72 53 -72 127q0 27 14 44q15 17 35 17z" />
    <glyph glyph-name="agrave" unicode="&#xe0;" horiz-adv-x="1089" 
d="M440 1214q0 42 42 43q22 0 48 -28l199 -193l-16 -18l-234 151q-39 25 -39 45zM399 29q170 1 286 157t116 334q0 129 -75 212t-194 83q-166 1 -278 -149t-111 -340q-1 -141 69 -219t187 -78zM395 -12q-133 0 -217 88t-84 246q0 210 125 372t313 162q115 0 196 -71t99 -189
l62 248h49l-154 -619q-20 -88 -20 -121q0 -32 20 -54t58 -22t68 32t63 114l35 -10q-37 -98 -75 -137t-93 -39t-87 32t-32 82q0 49 14 101q-131 -215 -340 -215z" />
    <glyph glyph-name="aacute" unicode="&#xe1;" horiz-adv-x="1089" 
d="M545 1018l-13 20l254 189q59 43 85 14q11 -12 12 -27q0 -31 -49 -51zM399 29q170 1 286 157t116 334q0 129 -75 212t-194 83q-166 1 -278 -149t-111 -340q-1 -141 69 -219t187 -78zM395 -12q-133 0 -217 88t-84 246q0 210 125 372t313 162q115 0 196 -71t99 -189l62 248
h49l-154 -619q-20 -88 -20 -121q0 -32 20 -54t58 -22t68 32t63 114l35 -10q-37 -98 -75 -137t-93 -39t-87 32t-32 82q0 49 14 101q-131 -215 -340 -215z" />
    <glyph glyph-name="acircumflex" unicode="&#xe2;" horiz-adv-x="1089" 
d="M379 1004l-17 22l320 244l199 -244l-21 -18l-186 178zM399 29q170 1 286 157t116 334q0 129 -75 212t-194 83q-166 1 -278 -149t-111 -340q-1 -141 69 -219t187 -78zM395 -12q-133 0 -217 88t-84 246q0 210 125 372t313 162q115 0 196 -71t99 -189l62 248h49l-154 -619
q-20 -88 -20 -121q0 -32 20 -54t58 -22t68 32t63 114l35 -10q-37 -98 -75 -137t-93 -39t-87 32t-32 82q0 49 14 101q-131 -215 -340 -215z" />
    <glyph glyph-name="atilde" unicode="&#xe3;" horiz-adv-x="1089" 
d="M788 1022q-63 0 -145 68t-129 69q-47 0 -77 -30t-56 -95l-35 10q53 168 170 168q59 0 152 -71q78 -66 124 -66t76 30t58 97l35 -10q-54 -170 -173 -170zM399 29q170 1 286 157t116 334q0 129 -75 212t-194 83q-166 1 -278 -149t-111 -340q-1 -141 69 -219t187 -78z
M395 -12q-133 0 -217 88t-84 246q0 210 125 372t313 162q115 0 196 -71t99 -189l62 248h49l-154 -619q-20 -88 -20 -121q0 -32 20 -54t58 -22t68 32t63 114l35 -10q-37 -98 -75 -137t-93 -39t-87 32t-32 82q0 49 14 101q-131 -215 -340 -215z" />
    <glyph glyph-name="adieresis" unicode="&#xe4;" horiz-adv-x="1089" 
d="M532 1053q-24 0 -38 15t-15 38t15 39t38 16t38 -16t16 -39t-16 -38t-38 -15zM766 1053q-23 0 -38 15t-15 38t15 39t38 16t38 -16t15 -39t-15 -38t-38 -15zM399 29q170 1 286 157t116 334q0 129 -75 212t-194 83q-166 1 -278 -149t-111 -340q-1 -141 69 -219t187 -78z
M395 -12q-133 0 -217 88t-84 246q0 210 125 372t313 162q115 0 196 -71t99 -189l62 248h49l-154 -619q-20 -88 -20 -121q0 -32 20 -54t58 -22t68 32t63 114l35 -10q-37 -98 -75 -137t-93 -39t-87 32t-32 82q0 49 14 101q-131 -215 -340 -215z" />
    <glyph glyph-name="aring" unicode="&#xe5;" horiz-adv-x="1089" 
d="M549 1156q-1 -56 27 -86t78 -30t89 50t39 105q0 54 -27 84q-28 30 -78 30t-89 -49q-39 -48 -39 -104zM651 999q-71 0 -111 43t-40 113t53 132q53 63 125 63t113 -43t41 -113t-55 -132q-54 -62 -126 -63zM399 29q170 1 286 157t116 334q0 129 -75 212t-194 83
q-166 1 -278 -149t-111 -340q-1 -141 69 -219t187 -78zM395 -12q-133 0 -217 88t-84 246q0 210 125 372t313 162q115 0 196 -71t99 -189l62 248h49l-154 -619q-20 -88 -20 -121q0 -32 20 -54t58 -22t68 32t63 114l35 -10q-37 -98 -75 -137t-93 -39t-87 32t-32 82
q0 49 14 101q-131 -215 -340 -215z" />
    <glyph glyph-name="ae" unicode="&#xe6;" horiz-adv-x="1525" 
d="M1134 815q-126 0 -235 -97t-147 -247h624q12 49 13 90q-1 121 -65 187t-190 67zM297 29q137 1 264 115t137 286h-233q-172 0 -270 -60t-99 -169q0 -76 52 -124t149 -48zM248 664q-51 0 -51 60t82 99q61 33 143 33q268 0 313 -309q51 139 163 224t247 85t213 -78t78 -223
q-1 -53 -21 -125h-672q-8 -41 -8 -96q0 -145 85 -225q86 -80 228 -80t269 73l-12 -49q-115 -65 -261 -65t-238 77q-93 77 -110 216q-50 -133 -162 -213t-238 -80t-188 61t-63 152q0 125 112 197t300 73h243q-4 154 -69 249q-66 95 -191 95t-166 -51q20 -16 20 -40t-12 -42
q-13 -18 -34 -18z" />
    <glyph glyph-name="ccedilla" unicode="&#xe7;" horiz-adv-x="899" 
d="M302 -410q-102 0 -193 64l22 33q95 -55 173 -55t113 29q34 30 34 75q0 44 -42 70t-120 20l-10 10l75 162q-114 25 -188 117t-74 231q0 207 134 359t319 151q131 0 211 -66t80 -141q0 -76 -50 -76q-45 0 -45 43t45 60q-14 57 -78 98q-65 41 -165 41q-164 0 -283 -139
t-119 -330q0 -145 85 -231t221 -86t274 106l-4 -51q-129 -96 -281 -96q-18 0 -47 4l-51 -129q82 -4 122 -39t40 -93t-47 -100q-49 -41 -151 -41z" />
    <glyph glyph-name="egrave" unicode="&#xe8;" horiz-adv-x="931" 
d="M414 1214q0 42 35 43q29 0 55 -28l198 -193l-16 -18l-233 151q-39 25 -39 45zM539 815q-125 0 -235 -97t-148 -247h626q10 55 11 90q-1 121 -65 187t-189 67zM139 334q0 -143 86 -224q87 -81 229 -81t269 73l-12 -49q-119 -65 -271 -65t-252 94t-100 256q0 210 136 364
t333 154q129 0 207 -78t78 -223q-1 -53 -21 -125h-674q-8 -41 -8 -96z" />
    <glyph glyph-name="eacute" unicode="&#xe9;" horiz-adv-x="931" 
d="M856 1214q0 -31 -49 -51l-289 -145l-12 20l254 189q57 42 85 14q11 -12 11 -27zM539 815q-125 0 -235 -97t-148 -247h626q10 55 11 90q-1 121 -65 187t-189 67zM139 334q0 -143 86 -224q87 -81 229 -81t269 73l-12 -49q-119 -65 -271 -65t-252 94t-100 256q0 210 136 364
t333 154q129 0 207 -78t78 -223q-1 -53 -21 -125h-674q-8 -41 -8 -96z" />
    <glyph glyph-name="ecircumflex" unicode="&#xea;" horiz-adv-x="931" 
d="M352 1004l-16 22l319 244l199 -244l-20 -18l-187 178zM539 815q-125 0 -235 -97t-148 -247h626q10 55 11 90q-1 121 -65 187t-189 67zM139 334q0 -143 86 -224q87 -81 229 -81t269 73l-12 -49q-119 -65 -271 -65t-252 94t-100 256q0 210 136 364t333 154q129 0 207 -78
t78 -223q-1 -53 -21 -125h-674q-8 -41 -8 -96z" />
    <glyph glyph-name="edieresis" unicode="&#xeb;" horiz-adv-x="931" 
d="M737 1053q-23 0 -38 15t-15 38t15 39t38 16t38 -16t15 -39t-14 -38q-16 -15 -39 -15zM504 1053q-23 0 -38 15t-15 38t15 39t38 16t38 -16t15 -39t-15 -38t-38 -15zM539 815q-125 0 -235 -97t-148 -247h626q10 55 11 90q-1 121 -65 187t-189 67zM139 334q0 -143 86 -224
q87 -81 229 -81t269 73l-12 -49q-119 -65 -271 -65t-252 94t-100 256q0 210 136 364t333 154q129 0 207 -78t78 -223q-1 -53 -21 -125h-674q-8 -41 -8 -96z" />
    <glyph glyph-name="igrave" unicode="&#xec;" horiz-adv-x="550" 
d="M186 1214q0 42 42 43q22 0 48 -28l199 -193l-16 -18l-234 151q-39 25 -39 45zM266 -12q-57 0 -91 32t-34 80t27 144l162 559h-185l9 41h235l-174 -608q-25 -86 -25 -126q0 -80 78 -81q41 -1 71 31t62 114l35 -10q-37 -98 -75 -137t-95 -39z" />
    <glyph glyph-name="iacute" unicode="&#xed;" horiz-adv-x="550" 
d="M266 -12q-57 0 -91 32t-34 80t27 144l162 559h-185l9 41h235l-174 -608q-25 -86 -25 -126q0 -80 78 -81q41 -1 71 31t62 114l35 -10q-37 -98 -75 -137t-95 -39zM324 1018l-13 20l254 189q59 43 85 14q11 -12 12 -27q0 -31 -50 -51z" />
    <glyph glyph-name="icircumflex" unicode="&#xee;" horiz-adv-x="550" 
d="M266 -12q-57 0 -91 32t-34 80t27 144l162 559h-185l9 41h235l-174 -608q-25 -86 -25 -126q0 -80 78 -81q41 -1 71 31t62 114l35 -10q-37 -98 -75 -137t-95 -39zM160 1004l-17 22l320 244l199 -244l-21 -18l-186 178z" />
    <glyph glyph-name="idieresis" unicode="&#xef;" horiz-adv-x="550" 
d="M266 -12q-57 0 -91 32t-34 80t27 144l162 559h-185l9 41h235l-174 -608q-25 -86 -25 -126q0 -80 78 -81q41 -1 71 31t62 114l35 -10q-37 -98 -75 -137t-95 -39zM311 1053q-23 0 -38 15t-15 38t15 39t38 16t38 -16t15 -39t-14 -38q-16 -15 -39 -15zM545 1053q-23 0 -38 15
t-15 38t15 39t38 16t38 -16t15 -39t-15 -38t-38 -15z" />
    <glyph glyph-name="eth" unicode="&#xf0;" horiz-adv-x="989" 
d="M447 29q136 0 255 118q137 141 138 332q0 139 -88 220t-236 81t-260 -131t-111 -291q0 -160 83 -244q83 -85 219 -85zM372 1401q-50 0 -50 50q0 24 19 42t54 18q78 0 167 -57t163 -158l215 195l27 -31l-219 -198q160 -236 159 -572q0 -397 -176 -575q-123 -127 -299 -127
q-141 0 -239 95q-99 95 -99 273t127 322t314 143q111 0 199 -57t120 -168q4 57 4 90q0 319 -141 547l-275 -248l-28 31l280 252q-123 172 -264 194q-4 -27 -20 -44t-38 -17z" />
    <glyph glyph-name="ntilde" unicode="&#xf1;" horiz-adv-x="1048" 
d="M817 1022q-63 0 -145 68t-129 69q-47 0 -77 -30t-56 -95l-35 10q53 168 170 168q59 0 151 -71q78 -66 124 -66t76 30t58 97l35 -10q-53 -170 -172 -170zM809 -12q-57 0 -90 32t-33 84q0 53 27 140l73 235q33 102 33 174q0 162 -172 162q-127 0 -239 -126t-160 -320
l-92 -369h-50l201 803h-172l8 41h222l-66 -262q145 274 354 274q99 0 157 -53t58 -139t-34 -193l-74 -235q-27 -94 -27 -130t22 -56q21 -22 59 -22t69 32t63 114l33 -10q-35 -96 -74 -136t-96 -40z" />
    <glyph glyph-name="ograve" unicode="&#xf2;" horiz-adv-x="995" 
d="M444 1214q0 42 42 43q22 0 49 -28l198 -193l-16 -18l-234 151q-39 25 -39 45zM453 29q165 0 281 138t116 304t-86 255t-223 89q-166 0 -282 -138q-116 -139 -116 -305q-1 -166 87 -254t223 -89zM451 -12q-154 0 -255 99q-102 99 -102 283t129 335q129 152 320 151
q154 0 255 -99t101 -284t-129 -335t-319 -150z" />
    <glyph glyph-name="oacute" unicode="&#xf3;" horiz-adv-x="995" 
d="M453 29q165 0 281 138t116 304t-86 255t-223 89q-166 0 -282 -138q-116 -139 -116 -305q-1 -166 87 -254t223 -89zM451 -12q-154 0 -255 99q-102 99 -102 283t129 335q129 152 320 151q154 0 255 -99t101 -284t-129 -335t-319 -150zM887 1214q0 -31 -49 -51l-289 -145
l-12 20l254 189q57 42 85 14q11 -12 11 -27z" />
    <glyph glyph-name="ocircumflex" unicode="&#xf4;" horiz-adv-x="995" 
d="M453 29q165 0 281 138t116 304t-86 255t-223 89q-166 0 -282 -138q-116 -139 -116 -305q-1 -166 87 -254t223 -89zM451 -12q-154 0 -255 99q-102 99 -102 283t129 335q129 152 320 151q154 0 255 -99t101 -284t-129 -335t-319 -150zM385 1004l-16 22l319 244l199 -244
l-21 -18l-186 178z" />
    <glyph glyph-name="otilde" unicode="&#xf5;" horiz-adv-x="995" 
d="M793 1022q-63 0 -145 68t-130 69q-47 0 -77 -30t-56 -95l-35 10q53 168 170 168q59 0 152 -71q78 -66 124 -66t76 30t58 97l35 -10q-53 -170 -172 -170zM453 29q165 0 281 138t116 304t-86 255t-223 89q-166 0 -282 -138q-116 -139 -116 -305q-1 -166 87 -254t223 -89z
M451 -12q-154 0 -255 99q-102 99 -102 283t129 335q129 152 320 151q154 0 255 -99t101 -284t-129 -335t-319 -150z" />
    <glyph glyph-name="odieresis" unicode="&#xf6;" horiz-adv-x="995" 
d="M453 29q165 0 281 138t116 304t-86 255t-223 89q-166 0 -282 -138q-116 -139 -116 -305q-1 -166 87 -254t223 -89zM451 -12q-154 0 -255 99q-102 99 -102 283t129 335q129 152 320 151q154 0 255 -99t101 -284t-129 -335t-319 -150zM537 1053q-23 0 -38 15t-16 38t15 39
t39 16t37 -16t16 -39q0 -23 -15 -38t-38 -15zM770 1053q-23 0 -38 15t-15 38t15 39t38 16t38 -16t15 -39t-15 -38t-38 -15z" />
    <glyph glyph-name="divide" unicode="&#xf7;" horiz-adv-x="788" 
d="M365 238q-23 0 -38 16t-16 39t15 39t39 16t37 -16t16 -39q0 -23 -15 -39t-38 -16zM477 725q-23 0 -38 16t-15 39t15 39q15 17 38 17t38 -16t15 -40q0 -23 -15 -39t-38 -16zM117 514l10 47h598l-10 -47h-598z" />
    <glyph glyph-name="oslash" unicode="&#xf8;" horiz-adv-x="995" 
d="M457 29q161 0 277 138t116 320q0 100 -41 177l-600 -525q86 -110 248 -110zM143 356q0 -104 45 -182l600 522q-86 119 -250 119q-164 -1 -279 -139q-116 -138 -116 -320zM458 -12q-183 0 -284 123l-139 -125l-27 30l144 125q-57 90 -58 215q0 197 129 349
q129 151 313 151t285 -129l144 125l28 -31l-149 -127q55 -88 55 -207q0 -199 -129 -349t-312 -150z" />
    <glyph glyph-name="ugrave" unicode="&#xf9;" horiz-adv-x="1052" 
d="M438 1214q0 42 42 43q22 0 48 -28l199 -193l-16 -18l-234 151q-39 25 -39 45zM725 110q1 -84 79 -82q38 0 68 32t62 114l35 -10q-37 -98 -75 -137t-92 -39t-88 32t-34 76q0 43 22 146l3 4v10q-141 -268 -347 -268q-94 0 -151 54t-57 144q0 43 32 183l109 434h-172l10 41
h219l-119 -482q-29 -116 -29 -182t44 -108q43 -42 121 -43q125 0 235 126t158 318l92 371h49l-154 -619q-20 -76 -20 -115z" />
    <glyph glyph-name="uacute" unicode="&#xfa;" horiz-adv-x="1052" 
d="M543 1018l-13 20l254 189q59 43 85 14q11 -12 12 -27q0 -31 -50 -51zM725 110q1 -84 79 -82q38 0 68 32t62 114l35 -10q-37 -98 -75 -137t-92 -39t-88 32t-34 76q0 43 22 146l3 4v10q-141 -268 -347 -268q-94 0 -151 54t-57 144q0 43 32 183l109 434h-172l10 41h219
l-119 -482q-29 -116 -29 -182t44 -108q43 -42 121 -43q125 0 235 126t158 318l92 371h49l-154 -619q-20 -76 -20 -115z" />
    <glyph glyph-name="ucircumflex" unicode="&#xfb;" horiz-adv-x="1052" 
d="M379 1004l-17 22l320 244l199 -244l-21 -18l-186 178zM725 110q1 -84 79 -82q38 0 68 32t62 114l35 -10q-37 -98 -75 -137t-92 -39t-88 32t-34 76q0 43 22 146l3 4v10q-141 -268 -347 -268q-94 0 -151 54t-57 144q0 43 32 183l109 434h-172l10 41h219l-119 -482
q-29 -116 -29 -182t44 -108q43 -42 121 -43q125 0 235 126t158 318l92 371h49l-154 -619q-20 -76 -20 -115z" />
    <glyph glyph-name="udieresis" unicode="&#xfc;" horiz-adv-x="1052" 
d="M764 1053q-23 0 -38 15t-15 38t15 39t38 16t38 -16t15 -39t-15 -38t-38 -15zM530 1053q-24 0 -38 15t-15 38t15 39t38 16t38 -16t16 -39t-16 -38t-38 -15zM725 110q1 -84 79 -82q38 0 68 32t62 114l35 -10q-37 -98 -75 -137t-92 -39t-88 32t-34 76q0 43 22 146l3 4v10
q-141 -268 -347 -268q-94 0 -151 54t-57 144q0 43 32 183l109 434h-172l10 41h219l-119 -482q-29 -116 -29 -182t44 -108q43 -42 121 -43q125 0 235 126t158 318l92 371h49l-154 -619q-20 -76 -20 -115z" />
    <glyph glyph-name="yacute" unicode="&#xfd;" horiz-adv-x="944" 
d="M856 1214q0 -31 -49 -51l-289 -145l-12 20l254 189q57 42 85 14q11 -12 11 -27zM-57 -408q-35 0 -60 20t-25 44q1 51 48 51q27 0 43 -18t16 -49v-2q141 29 412 352l-154 813h-166l9 41h200l148 -809q156 197 274 395t135 315q-29 -1 -49 17t-20 42t14 38t38 14t43 -22
t19 -58q0 -117 -129 -343t-309 -443q-333 -398 -487 -398z" />
    <glyph glyph-name="thorn" unicode="&#xfe;" horiz-adv-x="1036" 
d="M504 29q168 0 276 144t109 310q0 166 -71 249q-72 83 -190 83t-213 -78q-95 -77 -147 -187t-51 -232q0 -122 79 -205q79 -84 208 -84zM627 856q143 0 228 -93t85 -279t-122 -342q-122 -155 -314 -154q-121 0 -206 68t-105 188l-140 -604h180l-8 -41h-350l10 41h119
l422 1818h-172l8 41h223l-198 -856q129 213 340 213z" />
    <glyph glyph-name="ydieresis" unicode="&#xff;" horiz-adv-x="944" 
d="M737 1053q-23 0 -38 15t-15 38t15 39t38 16t38 -16t15 -39t-14 -38q-16 -15 -39 -15zM504 1053q-23 0 -38 15t-15 38t15 39t38 16t38 -16t15 -39t-15 -38t-38 -15zM-57 -408q-35 0 -60 20t-25 44q1 51 48 51q27 0 43 -18t16 -49v-2q141 29 412 352l-154 813h-166l9 41
h200l148 -809q156 197 274 395t135 315q-29 -1 -49 17t-20 42t14 38t38 14t43 -22t19 -58q0 -117 -129 -343t-309 -443q-333 -398 -487 -398z" />
    <glyph glyph-name="Amacron" unicode="&#x100;" horiz-adv-x="1409" 
d="M676 1536l10 49h559l-10 -49h-559zM459 557h559l-107 752zM-37 0l10 45h119l762 1258h-188l10 45h473l-8 -45h-180l180 -1258h141l-8 -45h-387l10 45h193l-66 467h-592l-280 -467h206l-10 -45h-385z" />
    <glyph glyph-name="amacron" unicode="&#x101;" horiz-adv-x="1089" 
d="M365 1081l10 49h559l-10 -49h-559zM399 29q170 1 286 157t116 334q0 129 -75 212t-194 83q-166 1 -278 -149t-111 -340q-1 -141 69 -219t187 -78zM395 -12q-133 0 -217 88t-84 246q0 210 125 372t313 162q115 0 196 -71t99 -189l62 248h49l-154 -619q-20 -88 -20 -121
q0 -32 20 -54t58 -22t68 32t63 114l35 -10q-37 -98 -75 -137t-93 -39t-87 32t-32 82q0 49 14 101q-131 -215 -340 -215z" />
    <glyph glyph-name="Abreve" unicode="&#x102;" horiz-adv-x="1409" 
d="M946 1470q-94 0 -152 56t-77 151l41 13q42 -160 200 -160t254 160l33 -19q-41 -89 -123 -145t-176 -56zM459 557h559l-107 752zM-37 0l10 45h119l762 1258h-188l10 45h473l-8 -45h-180l180 -1258h141l-8 -45h-387l10 45h193l-66 467h-592l-280 -467h206l-10 -45h-385z
" />
    <glyph glyph-name="abreve" unicode="&#x103;" horiz-adv-x="1089" 
d="M635 1016q-94 0 -153 56q-58 56 -76 151l40 12q43 -160 201 -160t254 160l33 -18q-41 -89 -123 -145t-176 -56zM399 29q170 1 286 157t116 334q0 129 -75 212t-194 83q-166 1 -278 -149t-111 -340q-1 -141 69 -219t187 -78zM395 -12q-133 0 -217 88t-84 246
q0 210 125 372t313 162q115 0 196 -71t99 -189l62 248h49l-154 -619q-20 -88 -20 -121q0 -32 20 -54t58 -22t68 32t63 114l35 -10q-37 -98 -75 -137t-93 -39t-87 32t-32 82q0 49 14 101q-131 -215 -340 -215z" />
    <glyph glyph-name="Aogonek" unicode="&#x104;" horiz-adv-x="1409" 
d="M459 557h559l-107 752zM1065 -371q53 0 98 17l-12 -41q-140 -46 -208 19q-40 38 -40 106q0 135 187 270h-203l10 45h193l-66 467h-592l-280 -467h206l-10 -45h-385l10 45h119l762 1258h-188l10 45h473l-8 -45h-180l180 -1258h141l-8 -45h-137q-184 -143 -185 -262
q0 -49 30 -79t83 -30z" />
    <glyph glyph-name="aogonek" unicode="&#x105;" horiz-adv-x="1089" 
d="M399 29q170 1 286 157t116 334q0 129 -75 212t-194 83q-166 1 -278 -149t-111 -340q-1 -141 69 -219t187 -78zM838 -12q-51 0 -84 32t-33 81q0 50 14 102q-131 -215 -340 -215q-133 0 -217 88t-84 246q0 210 125 372t313 162q115 0 195 -70t100 -188l62 246h49l-154 -619
q-20 -88 -20 -121q0 -32 19 -54t57 -22t68 34q32 32 65 112l35 -10q-39 -102 -107 -162q-84 -70 -103 -89t-56 -62t-39 -102q-1 -60 28 -90t82 -30t98 17l-10 -41q-61 -19 -115 -19t-93 38q-40 38 -40 106q0 133 189 258h-4z" />
    <glyph glyph-name="Cacute" unicode="&#x106;" horiz-adv-x="1337" 
d="M707 -20q-258 0 -403 158q-144 159 -144 419q0 195 91 379t265 307t377 123t319 -98t115 -213q0 -33 -18 -56t-43 -22q-53 0 -54 53q0 51 56 68q-12 84 -112 154t-278 69q-180 0 -340 -119t-243 -292q-82 -173 -82 -353q0 -231 132 -382t366 -150q115 0 235 52t219 146
l31 -35q-102 -96 -232 -152t-257 -56zM1159 1708q17 0 29 -12t12 -27q0 -31 -49 -51l-289 -145l-12 20l254 188q37 27 55 27z" />
    <glyph glyph-name="cacute" unicode="&#x107;" horiz-adv-x="899" 
d="M440 -12q-148 0 -249 97q-99 97 -99 261q0 207 134 359t319 151q131 0 211 -66t80 -141q0 -76 -50 -76q-45 0 -45 43t45 60q-14 57 -78 98q-65 41 -165 41q-164 0 -283 -139t-119 -330q0 -145 85 -231t221 -86t274 106l-4 -51q-129 -96 -277 -96zM868 1214q0 -31 -49 -51
l-289 -145l-12 20l254 189q57 42 85 14q11 -12 11 -27z" />
    <glyph glyph-name="Cdotaccent" unicode="&#x10a;" horiz-adv-x="1337" 
d="M967 1516q-25 0 -41 16t-17 41q1 25 17 42t41 17t41 -17t16 -42t-16 -41t-41 -16zM707 -20q-258 0 -403 158q-144 159 -144 419q0 195 91 379t265 307t377 123t319 -98t115 -213q0 -33 -18 -56t-43 -22q-53 0 -54 53q0 51 56 68q-12 84 -112 154t-278 69
q-180 0 -340 -119t-243 -292q-82 -173 -82 -353q0 -231 132 -382t366 -150q115 0 235 52t219 146l31 -35q-102 -96 -232 -152t-257 -56z" />
    <glyph glyph-name="cdotaccent" unicode="&#x10b;" horiz-adv-x="899" 
d="M637 1061q-25 0 -41 16t-16 41t16 42q16 18 41 18t41 -18t16 -42q0 -25 -16 -41t-41 -16zM440 -12q-148 0 -249 97q-99 97 -99 261q0 207 134 359t319 151q131 0 211 -66t80 -141q0 -76 -50 -76q-45 0 -45 43t45 60q-14 57 -78 98q-65 41 -165 41q-164 0 -283 -139
t-119 -330q0 -145 85 -231t221 -86t274 106l-4 -51q-129 -96 -277 -96z" />
    <glyph glyph-name="Ccaron" unicode="&#x10c;" horiz-adv-x="1337" 
d="M707 -20q-258 0 -403 158q-144 159 -144 419q0 195 91 379t265 307t377 123t319 -98t115 -213q0 -33 -18 -56t-43 -22q-53 0 -54 53q0 51 56 68q-12 84 -112 154t-278 69q-180 0 -340 -119t-243 -292q-82 -173 -82 -353q0 -231 132 -382t366 -150q115 0 235 52t219 146
l31 -35q-102 -96 -232 -152t-257 -56zM934 1462l-199 244l21 18l186 -178l295 183l16 -23z" />
    <glyph glyph-name="ccaron" unicode="&#x10d;" horiz-adv-x="899" 
d="M440 -12q-148 0 -249 97q-99 97 -99 261q0 207 134 359t319 151q131 0 211 -66t80 -141q0 -76 -50 -76q-45 0 -45 43t45 60q-14 57 -78 98q-65 41 -165 41q-164 0 -283 -139t-119 -330q0 -145 85 -231t221 -86t274 106l-4 -51q-129 -96 -277 -96zM604 1008l-198 243
l20 19l186 -178l295 182l17 -23z" />
    <glyph glyph-name="Dcaron" unicode="&#x10e;" horiz-adv-x="1392" 
d="M440 45q416 0 647 231q209 213 209 515q0 221 -129 350q-166 162 -479 162h-149l-289 -1258h190zM694 1348q334 0 510 -177q145 -145 146 -378q0 -326 -224 -549q-240 -244 -692 -244h-432l10 45h185l288 1258h-202l10 45h401zM846 1462l-199 244l21 18l186 -178l295 183
l16 -23z" />
    <glyph glyph-name="dcaron" unicode="&#x10f;" horiz-adv-x="1107" 
d="M1259 1497q35 0 35 -46t-45 -133t-125 -169l-18 16q74 91 87 141t17 95t7 53q6 43 42 43zM416 29q168 1 284 155t117 308q0 154 -78 239q-78 84 -202 84q-172 0 -282 -144t-110 -310t72 -249t199 -83zM96 338q0 210 122 364t314 154q119 0 204 -69t106 -185l198 856h-174
l8 41h226l-291 -1259q-23 -92 -23 -130t20 -60t59 -22q38 0 67 32t61 114l35 -10q-35 -98 -73 -137t-93 -39t-88 32t-33 82q0 49 15 105q-129 -219 -344 -219q-143 0 -230 93q-86 93 -86 257z" />
    <glyph glyph-name="Dcroat" unicode="&#x110;" horiz-adv-x="1404" 
d="M440 45q416 0 647 231q209 213 209 515q0 221 -129 350q-166 162 -479 162h-149l-136 -590h322l-10 -45h-322l-143 -623h190zM694 1348q334 0 510 -177q145 -145 146 -378q0 -326 -224 -549q-240 -244 -692 -244h-432l10 45h185l143 623h-162l10 45h162l135 590h-202
l10 45h401z" />
    <glyph glyph-name="dcroat" unicode="&#x111;" horiz-adv-x="1107" 
d="M416 29q168 1 284 155t117 308q0 154 -78 239q-78 84 -202 84q-172 0 -282 -144t-110 -310t72 -249t199 -83zM786 110q0 -38 20 -60t59 -22q38 0 67 32t61 114l35 -10q-35 -98 -73 -137t-93 -39t-88 32t-33 82q0 49 15 105q-129 -219 -344 -219q-143 0 -230 93
q-86 93 -86 257q0 210 122 364t314 154q119 0 204 -69t106 -185l125 537h-340l10 41h338l65 278h-174l8 41h226l-74 -319h154l-11 -41h-153l-207 -899q-23 -92 -23 -130z" />
    <glyph glyph-name="Emacron" unicode="&#x112;" horiz-adv-x="1146" 
d="M532 1536l11 49h559l-10 -49h-560zM2 0l10 45h185l288 1258h-202l10 45h924l-68 -287h-51l55 242h-614l-133 -590h481l-10 -47h-484l-143 -621h614l56 242h51l-66 -287h-903z" />
    <glyph glyph-name="emacron" unicode="&#x113;" horiz-adv-x="931" 
d="M338 1081l10 49h559l-10 -49h-559zM539 815q-125 0 -235 -97t-148 -247h626q10 55 11 90q-1 121 -65 187t-189 67zM139 334q0 -143 86 -224q87 -81 229 -81t269 73l-12 -49q-119 -65 -271 -65t-252 94t-100 256q0 210 136 364t333 154q129 0 207 -78t78 -223
q-1 -53 -21 -125h-674q-8 -41 -8 -96z" />
    <glyph glyph-name="Ebreve" unicode="&#x114;" horiz-adv-x="1146" 
d="M805 1470q-95 0 -153 56t-77 151l41 13q43 -160 201 -160t254 160l33 -19q-41 -89 -123 -145t-176 -56zM2 0l10 45h185l288 1258h-202l10 45h924l-68 -287h-51l55 242h-614l-133 -590h481l-10 -47h-484l-143 -621h614l56 242h51l-66 -287h-903z" />
    <glyph glyph-name="ebreve" unicode="&#x115;" horiz-adv-x="931" 
d="M606 1016q-94 0 -152 56t-77 151l41 12q42 -160 200 -160t254 160l33 -18q-41 -89 -123 -145t-176 -56zM539 815q-125 0 -235 -97t-148 -247h626q10 55 11 90q-1 121 -65 187t-189 67zM139 334q0 -143 86 -224q87 -81 229 -81t269 73l-12 -49q-119 -65 -271 -65t-252 94
t-100 256q0 210 136 364t333 154q129 0 207 -78t78 -223q-1 -53 -21 -125h-674q-8 -41 -8 -96z" />
    <glyph glyph-name="Edotaccent" unicode="&#x116;" horiz-adv-x="1146" 
d="M821 1516q-25 0 -41 16t-16 41t16 42t41 17t41 -17t16 -42t-16 -41t-41 -16zM2 0l10 45h185l288 1258h-202l10 45h924l-68 -287h-51l55 242h-614l-133 -590h481l-10 -47h-484l-143 -621h614l56 242h51l-66 -287h-903z" />
    <glyph glyph-name="edotaccent" unicode="&#x117;" horiz-adv-x="931" 
d="M625 1061q-25 0 -41 16t-17 41q1 25 17 42q16 18 41 18t41 -18t16 -42q0 -25 -16 -41t-41 -16zM539 815q-125 0 -235 -97t-148 -247h626q10 55 11 90q-1 121 -65 187t-189 67zM139 334q0 -143 86 -224q87 -81 229 -81t269 73l-12 -49q-119 -65 -271 -65t-252 94t-100 256
q0 210 136 364t333 154q129 0 207 -78t78 -223q-1 -53 -21 -125h-674q-8 -41 -8 -96z" />
    <glyph glyph-name="Eogonek" unicode="&#x118;" horiz-adv-x="1146" 
d="M641 -262q0 -49 30 -79t83 -30t98 17l-12 -41q-141 -46 -208 19q-40 38 -40 106q0 135 186 270h-776l10 45h185l288 1258h-202l10 45h924l-68 -287h-51l55 242h-614l-133 -590h481l-10 -47h-484l-143 -621h614l56 242h51l-66 -287h-80q-184 -143 -184 -262z" />
    <glyph glyph-name="eogonek" unicode="&#x119;" horiz-adv-x="931" 
d="M539 815q-125 0 -235 -97t-148 -247h626q10 55 11 90q-1 121 -65 187t-189 67zM530 -414q-54 0 -93 38q-40 38 -40 106q0 141 197 276q-68 -18 -152 -18q-154 0 -254 94t-100 256q0 210 136 364t333 154q129 0 207 -78t78 -223q0 -53 -21 -125h-674q-8 -41 -8 -96
q0 -141 85 -223q84 -82 228 -82t271 73l-12 -49q-264 -174 -265 -315q0 -49 30 -79t84 -30t95 17l-10 -41q-61 -19 -115 -19z" />
    <glyph glyph-name="Ecaron" unicode="&#x11a;" horiz-adv-x="1146" 
d="M2 0l10 45h185l288 1258h-202l10 45h924l-68 -287h-51l55 242h-614l-133 -590h481l-10 -47h-484l-143 -621h614l56 242h51l-66 -287h-903zM788 1462l-198 244l20 18l187 -178l295 183l16 -23z" />
    <glyph glyph-name="ecaron" unicode="&#x11b;" horiz-adv-x="931" 
d="M590 1008l-199 243l21 19l186 -178l295 182l16 -23zM539 815q-125 0 -235 -97t-148 -247h626q10 55 11 90q-1 121 -65 187t-189 67zM139 334q0 -143 86 -224q87 -81 229 -81t269 73l-12 -49q-119 -65 -271 -65t-252 94t-100 256q0 210 136 364t333 154q129 0 207 -78
t78 -223q-1 -53 -21 -125h-674q-8 -41 -8 -96z" />
    <glyph glyph-name="Gbreve" unicode="&#x11e;" horiz-adv-x="1404" 
d="M958 1470q-94 0 -152 56t-77 151l41 13q43 -160 201 -160t254 160l32 -19q-41 -89 -123 -145t-176 -56zM156 501q0 223 94 415t274 321t406 129t356 -135q72 -74 72 -162q0 -33 -20 -55t-44 -23q-25 -1 -40 15t-15 40t17 42q17 20 44 26q-10 45 -55 92q-119 115 -325 115
t-373 -125q-168 -125 -253 -306t-85 -383t126 -342t355 -140t443 163l92 369h-432l8 45h485l-149 -602h-52l33 129q-194 -149 -440 -149t-384 150t-138 371z" />
    <glyph glyph-name="gbreve" unicode="&#x11f;" horiz-adv-x="1019" 
d="M651 1016q-94 0 -152 56t-77 151l41 12q43 -160 201 -160t254 160l32 -18q-41 -89 -123 -145t-176 -56zM420 39q166 0 282 157t117 326q0 125 -79 209t-205 84q-166 0 -277 -144t-111 -303t74 -244t199 -85zM340 -410q-180 0 -264 91q-33 33 -33 73q0 59 49 60
q23 0 38 -16t15 -44q0 -29 -28 -45q21 -33 83 -55t130 -23q164 0 260 99q72 72 115 260q23 94 51 223q-133 -215 -340 -215q-141 0 -231 95q-89 95 -89 273t123 334t313 156q127 0 210 -73t104 -187q38 175 57 242h49l-198 -854q-45 -202 -139 -298q-95 -96 -275 -96z" />
    <glyph glyph-name="Gdotaccent" unicode="&#x120;" horiz-adv-x="1404" 
d="M975 1516q-25 0 -41 16t-16 41t16 42t41 17t41 -17t16 -42t-16 -41t-41 -16zM156 501q0 223 94 415t274 321t406 129t356 -135q72 -74 72 -162q0 -33 -20 -55t-44 -23q-25 -1 -40 15t-15 40t17 42q17 20 44 26q-10 45 -55 92q-119 115 -325 115t-373 -125
q-168 -125 -253 -306t-85 -383t126 -342t355 -140t443 163l92 369h-432l8 45h485l-149 -602h-52l33 129q-194 -149 -440 -149t-384 150t-138 371z" />
    <glyph glyph-name="gdotaccent" unicode="&#x121;" horiz-adv-x="1019" 
d="M668 1061q-25 0 -41 16t-17 41q0 25 16 42q16 18 42 18q25 0 41 -18t16 -42q0 -25 -16 -41t-41 -16zM420 39q166 0 282 157t117 326q0 125 -79 209t-205 84q-166 0 -277 -144t-111 -303t74 -244t199 -85zM340 -410q-180 0 -264 91q-33 33 -33 73q0 59 49 60q23 0 38 -16
t15 -44q0 -29 -28 -45q21 -33 83 -55t130 -23q164 0 260 99q72 72 115 260q23 94 51 223q-133 -215 -340 -215q-141 0 -231 95q-89 95 -89 273t123 334t313 156q127 0 210 -73t104 -187q38 175 57 242h49l-198 -854q-45 -202 -139 -298q-95 -96 -275 -96z" />
    <glyph glyph-name="Gcommaaccent" unicode="&#x122;" horiz-adv-x="1404" 
d="M539 -179q0 24 15 39t41 15q26 1 43 -21t17 -55q-1 -69 -63 -143t-146 -111l-12 23q139 82 166 192q-27 2 -44 20t-17 41zM156 501q0 223 94 415t274 321t406 129t356 -135q72 -74 72 -162q0 -33 -20 -55t-44 -23q-25 -1 -40 15t-15 40t17 42q17 20 44 26q-10 45 -55 92
q-119 115 -325 115t-373 -125q-168 -125 -253 -306t-85 -383t126 -342t355 -140t443 163l92 369h-432l8 45h485l-149 -602h-52l33 129q-194 -149 -440 -149t-384 150t-138 371z" />
    <glyph glyph-name="gcommaaccent" unicode="&#x123;" horiz-adv-x="1026" 
d="M594 1155q0 69 62 143t147 111l12 -23q-139 -82 -166 -192q29 -2 45 -19t16 -41t-14 -39q-16 -15 -42 -15t-43 21q-17 22 -17 54zM420 39q166 0 282 157t117 326q0 125 -79 209t-205 84q-166 0 -277 -144t-111 -303t74 -244t199 -85zM340 -410q-180 0 -264 91
q-33 33 -33 73q0 59 49 60q23 0 38 -16t15 -44q0 -29 -28 -45q21 -33 83 -55t130 -23q164 0 260 99q72 72 115 260q23 94 51 223q-133 -215 -340 -215q-141 0 -231 95q-89 95 -89 273t123 334t313 156q127 0 210 -73t104 -187q38 175 57 242h49l-198 -854
q-45 -202 -139 -298q-95 -96 -275 -96z" />
    <glyph glyph-name="Hbar" unicode="&#x126;" horiz-adv-x="1509" 
d="M406 717h835l62 270h-836zM1526 1032l-10 -45h-160l-217 -942h202l-10 -45h-442l10 45h186l146 627h-836l-145 -627h207l-11 -45h-444l10 45h185l215 942h-160l10 45h160l63 271h-202l10 45h446l-10 -45h-190l-62 -271h836l61 271h-209l11 45h446l-10 -45h-182l-64 -271
h160z" />
    <glyph glyph-name="hbar" unicode="&#x127;" horiz-adv-x="1034" 
d="M623 856q100 0 161 -54q106 -94 29 -331l-70 -235q-27 -94 -27 -130t22 -56q22 -22 60 -22t68 32t62 114l35 -10q-35 -96 -74 -136t-96 -40t-92 31q-33 32 -33 82t28 143l68 235q31 98 31 175t-45 119t-129 42q-131 0 -241 -127t-157 -326l-86 -362h-49l264 1139h-153
l10 41h153l66 278h-174l8 41h225l-75 -319h340l-11 -41h-338l-129 -543q139 260 349 260z" />
    <glyph glyph-name="Imacron" unicode="&#x12a;" horiz-adv-x="638" 
d="M299 1536l10 49h559l-10 -49h-559zM-4 0l10 45h201l289 1258h-201l10 45h455l-8 -45h-203l-289 -1258h201l-10 -45h-455z" />
    <glyph glyph-name="imacron" unicode="&#x12b;" horiz-adv-x="550" 
d="M143 1081l11 49h559l-11 -49h-559zM266 -12q-57 0 -91 32t-34 80t27 144l162 559h-185l9 41h235l-174 -608q-25 -86 -25 -126q0 -80 78 -81q41 -1 71 31t62 114l35 -10q-37 -98 -75 -137t-95 -39z" />
    <glyph glyph-name="Ibreve" unicode="&#x12c;" horiz-adv-x="638" 
d="M569 1470q-94 0 -152 56t-77 151l41 13q43 -160 201 -160t254 160l32 -19q-41 -89 -123 -145t-176 -56zM-4 0l10 45h201l289 1258h-201l10 45h455l-8 -45h-203l-289 -1258h201l-10 -45h-455z" />
    <glyph glyph-name="ibreve" unicode="&#x12d;" horiz-adv-x="550" 
d="M416 1016q-94 0 -153 56q-58 56 -77 151l41 12q43 -160 201 -160t254 160l33 -18q-41 -89 -123 -145t-176 -56zM266 -12q-57 0 -91 32t-34 80t27 144l162 559h-185l9 41h235l-174 -608q-25 -86 -25 -126q0 -80 78 -81q41 -1 71 31t62 114l35 -10q-37 -98 -75 -137
t-95 -39z" />
    <glyph glyph-name="Iogonek" unicode="&#x12e;" horiz-adv-x="638" 
d="M66 -262q0 -49 30 -79t82 -30q53 0 98 17l-12 -41q-140 -46 -208 19q-40 38 -40 106q0 135 187 270h-207l10 45h201l289 1258h-201l10 45h455l-8 -45h-203l-289 -1258h201l-10 -45h-201q-184 -143 -184 -262z" />
    <glyph glyph-name="iogonek" unicode="&#x12f;" horiz-adv-x="550" 
d="M395 1075q-19 -1 -33 15t-14 36t13 34t33 16q20 0 36 -14q14 -14 14 -36q0 -20 -14 -36t-35 -15zM131 -270q0 -40 30 -71q30 -30 84 -30t95 17l-10 -41q-61 -19 -115 -19q-53 0 -93 38t-40 106q0 133 188 258h-4q-55 0 -90 30t-35 80t27 146l162 559h-185l9 41h235
l-174 -608q-25 -86 -25 -132q0 -76 76 -75q39 0 71 32q31 33 64 113l35 -10q-43 -106 -106 -162q-83 -69 -103 -89q-20 -19 -47 -50t-38 -62t-11 -71z" />
    <glyph glyph-name="Idotaccent" unicode="&#x130;" horiz-adv-x="638" 
d="M588 1516q-25 0 -41 16t-17 41q0 25 16 42t42 17q25 0 41 -17t16 -42t-16 -41t-41 -16zM-4 0l10 45h201l289 1258h-201l10 45h455l-8 -45h-203l-289 -1258h201l-10 -45h-455z" />
    <glyph glyph-name="dotlessi" unicode="&#x131;" horiz-adv-x="550" 
d="M266 -12q-57 0 -91 32t-34 80t27 144l162 559h-185l9 41h235l-174 -608q-25 -86 -25 -126q0 -80 78 -81q41 -1 71 31t62 114l35 -10q-37 -98 -75 -137t-95 -39z" />
    <glyph glyph-name="Kcommaaccent" unicode="&#x136;" horiz-adv-x="1282" 
d="M534 -125q26 0 43 -21q17 -22 17 -55q0 -69 -62 -143t-147 -111l-12 23q139 82 166 192q-27 2 -44 20t-17 41q0 24 14 39q16 15 42 15zM1274 1303l-633 -545l354 -713h189l-10 -45h-213l-357 727l-246 -211l-108 -471h207l-11 -45h-444l10 45h185l288 1258h-202l10 45
h446l-10 -45h-190l-166 -719l831 719h-213l10 45h439l-10 -45h-156z" />
    <glyph glyph-name="kcommaaccent" unicode="&#x137;" horiz-adv-x="907" 
d="M256 -179q0 24 15 39t41 15q26 1 43 -21t18 -55q-1 -69 -63 -143t-146 -111l-12 23q139 82 165 192q-27 2 -44 20t-17 41zM719 794q0 62 51 62q20 0 36 -18t15 -47q0 -135 -383 -340l107 -256q41 -95 67 -131t66 -35q70 0 117 170l36 -11q-27 -104 -63 -152t-96 -48
t-94 43t-76 147l-105 252q-115 -55 -178 -82l-82 -348h-49l338 1458h-172l8 41h223l-256 -1104q203 85 351 185t178 163q-39 17 -39 51z" />
    <glyph glyph-name="Lacute" unicode="&#x139;" horiz-adv-x="1046" 
d="M2 0l10 45h185l288 1258h-202l10 45h446l-10 -45h-190l-289 -1258h561l57 254h52l-68 -299h-850zM821 1710q17 0 29 -12t12 -27q0 -29 -49 -51l-289 -145l-12 20l254 188q37 27 55 27z" />
    <glyph glyph-name="lacute" unicode="&#x13a;" horiz-adv-x="493" 
d="M249 -12q-54 0 -90 32t-36 80q0 46 24 150l279 1208h-170l8 41h221l-290 -1259q-23 -92 -23 -129q0 -82 76 -82q42 -1 72 31t61 114l33 -10q-33 -96 -72 -136t-93 -40zM727 1827q17 0 29 -12t12 -27q0 -31 -49 -51l-289 -146l-12 21l254 188q37 27 55 27z" />
    <glyph glyph-name="Lcommaaccent" unicode="&#x13b;" horiz-adv-x="1046" 
d="M2 0l10 45h185l288 1258h-202l10 45h446l-10 -45h-190l-289 -1258h561l57 254h52l-68 -299h-850zM377 -179q0 24 15 39t41 15q26 1 43 -21t18 -55q0 -69 -62 -143t-147 -111l-13 23q139 82 166 192q-27 2 -44 20t-17 41z" />
    <glyph glyph-name="lcommaaccent" unicode="&#x13c;" horiz-adv-x="495" 
d="M251 -12q-54 0 -90 32t-36 80q0 46 25 150l278 1208h-170l8 41h221l-290 -1259q-23 -92 -23 -129q0 -82 76 -82q41 -1 72 31t61 114l33 -10q-33 -96 -72 -136t-93 -40zM202 -125q26 1 43 -21t17 -55q0 -69 -62 -143t-147 -111l-12 23q139 82 166 192q-27 2 -44 20t-17 41
q0 24 14 39q16 15 42 15z" />
    <glyph glyph-name="Lcaron" unicode="&#x13d;" horiz-adv-x="1046" 
d="M2 0l10 45h185l288 1258h-202l10 45h446l-10 -45h-190l-289 -1258h561l57 254h52l-68 -299h-850zM947 1348q36 0 36 -46t-45 -134t-125 -169l-18 17q74 92 87 142t17 94t6 53q6 43 42 43z" />
    <glyph glyph-name="lcaron" unicode="&#x13e;" horiz-adv-x="495" 
d="M251 -12q-54 0 -90 32t-36 80q0 46 25 150l278 1208h-170l8 41h221l-290 -1259q-23 -92 -23 -129q0 -82 76 -82q41 -1 72 31t61 114l33 -10q-33 -96 -72 -136t-93 -40zM646 1497q36 0 36 -46t-45 -133t-125 -169l-18 16q74 91 87 141t17 95t6 53q6 43 42 43z" />
    <glyph glyph-name="Ldot" unicode="&#x13f;" horiz-adv-x="1046" 
d="M897 659q-25 1 -41 17t-16 41t16 42t41 17t41 -17t16 -42t-16 -41t-41 -17zM2 0l10 45h185l288 1258h-202l10 45h446l-10 -45h-190l-289 -1258h561l57 254h52l-68 -299h-850z" />
    <glyph glyph-name="ldot" unicode="&#x140;" horiz-adv-x="548" 
d="M553 664q-25 0 -41 16t-16 41t16 42t41 17t41 -17t16 -42t-16 -41t-41 -16zM251 -12q-54 0 -90 32t-36 80q0 46 25 150l278 1208h-170l8 41h221l-290 -1259q-23 -92 -23 -129q0 -82 76 -82q41 -1 72 31t61 114l33 -10q-33 -96 -72 -136t-93 -40z" />
    <glyph glyph-name="Lslash" unicode="&#x141;" horiz-adv-x="1060" 
d="M2 0l10 45h185l131 576l-230 -82l-14 43l256 90l145 631h-202l10 45h446l-10 -45h-190l-142 -611l314 111l12 -41l-336 -121l-137 -596h561l57 254h52l-68 -299h-850z" />
    <glyph glyph-name="lslash" unicode="&#x142;" horiz-adv-x="534" 
d="M259 -12q-54 0 -90 32t-36 80q0 46 25 150l129 561l-240 -100l-16 37l266 112l139 598h-170l8 41h222l-144 -616l252 104l19 -37l-281 -116l-137 -594q-23 -92 -23 -129q0 -82 76 -82q41 -1 72 31t61 114l33 -10q-33 -96 -72 -136t-93 -40z" />
    <glyph glyph-name="Nacute" unicode="&#x143;" horiz-adv-x="1495" 
d="M1110 -6l-586 1259l-276 -1208h209l-11 -45h-444l10 45h185l288 1258h-200l8 45h239l584 -1254l277 1209h-211l10 45h446l-10 -45h-184l-301 -1309h-33zM1210 1708q18 0 30 -12t11 -27q0 -31 -49 -51l-289 -145l-12 20l254 188q37 27 55 27z" />
    <glyph glyph-name="nacute" unicode="&#x144;" horiz-adv-x="1048" 
d="M809 -12q-57 0 -90 32t-33 84q0 53 27 140l73 235q33 102 33 174q0 162 -172 162q-127 0 -239 -126t-160 -320l-92 -369h-50l201 803h-172l8 41h222l-66 -262q145 274 354 274q99 0 157 -53t58 -139t-34 -193l-74 -235q-27 -94 -27 -130t22 -56q21 -22 59 -22t69 32
t63 114l33 -10q-35 -96 -74 -136t-96 -40zM913 1214q0 -31 -49 -51l-289 -145l-12 20l254 189q59 43 85 14q11 -12 11 -27z" />
    <glyph glyph-name="Ncommaaccent" unicode="&#x145;" horiz-adv-x="1495" 
d="M1110 -6l-586 1259l-276 -1208h209l-11 -45h-444l10 45h185l288 1258h-200l8 45h239l584 -1254l277 1209h-211l10 45h446l-10 -45h-184l-301 -1309h-33zM628 -125q26 1 43 -21t17 -55q0 -69 -62 -143t-147 -111l-12 23q139 82 166 192q-27 2 -44 20t-17 41q0 24 14 39
q16 15 42 15z" />
    <glyph glyph-name="ncommaaccent" unicode="&#x146;" horiz-adv-x="1048" 
d="M809 -12q-57 0 -90 32t-33 84q0 53 27 140l73 235q33 102 33 174q0 162 -172 162q-127 0 -239 -126t-160 -320l-92 -369h-50l201 803h-172l8 41h222l-66 -262q145 274 354 274q99 0 157 -53t58 -139t-34 -193l-74 -235q-27 -94 -27 -130t22 -56q21 -22 59 -22t69 32
t63 114l33 -10q-35 -96 -74 -136t-96 -40zM338 -179q0 24 15 39t41 15q26 1 43 -21t18 -55q-1 -69 -63 -143t-146 -111l-13 23q139 82 166 192q-27 2 -44 20t-17 41z" />
    <glyph glyph-name="Ncaron" unicode="&#x147;" horiz-adv-x="1495" 
d="M1110 -6l-586 1259l-276 -1208h209l-11 -45h-444l10 45h185l288 1258h-200l8 45h239l584 -1254l277 1209h-211l10 45h446l-10 -45h-184l-301 -1309h-33zM987 1462l-199 244l21 18l186 -178l295 183l17 -23z" />
    <glyph glyph-name="ncaron" unicode="&#x148;" horiz-adv-x="1048" 
d="M809 -12q-57 0 -90 32t-33 84q0 53 27 140l73 235q33 102 33 174q0 162 -172 162q-127 0 -239 -126t-160 -320l-92 -369h-50l201 803h-172l8 41h222l-66 -262q145 274 354 274q99 0 157 -53t58 -139t-34 -193l-74 -235q-27 -94 -27 -130t22 -56q21 -22 59 -22t69 32
t63 114l33 -10q-35 -96 -74 -136t-96 -40zM649 1008l-198 243l20 19l186 -178l295 182l17 -23z" />
    <glyph glyph-name="Omacron" unicode="&#x14c;" horiz-adv-x="1472" 
d="M702 27q186 0 344 111q157 112 244 290q88 178 88 386t-129 358t-362 149q-279 0 -477 -237t-199 -537q0 -221 129 -371t362 -149zM698 -18q-248 0 -394 162t-146 382t91 407t263 310t379 123q248 0 394 -162q147 -162 147 -382t-92 -407t-263 -310q-172 -123 -379 -123z
M713 1536l10 49h559l-10 -49h-559z" />
    <glyph glyph-name="omacron" unicode="&#x14d;" horiz-adv-x="995" 
d="M453 29q165 0 281 138t116 304t-86 255t-223 89q-166 0 -282 -138q-116 -139 -116 -305q-1 -166 87 -254t223 -89zM451 -12q-154 0 -255 99q-102 99 -102 283t129 335q129 152 320 151q154 0 255 -99t101 -284t-129 -335t-319 -150zM369 1081l10 49h559l-10 -49h-559z
" />
    <glyph glyph-name="Obreve" unicode="&#x14e;" horiz-adv-x="1472" 
d="M985 1470q-94 0 -152 56t-77 151l41 13q43 -160 201 -160t253 160l33 -19q-41 -89 -123 -145t-176 -56zM702 27q186 0 344 111q157 112 244 290q88 178 88 386t-129 358t-362 149q-279 0 -477 -237t-199 -537q0 -221 129 -371t362 -149zM698 -18q-248 0 -394 162
t-146 382t91 407t263 310t379 123q248 0 394 -162q147 -162 147 -382t-92 -407t-263 -310q-172 -123 -379 -123z" />
    <glyph glyph-name="obreve" unicode="&#x14f;" horiz-adv-x="995" 
d="M639 1016q-94 0 -153 56q-58 56 -76 151l41 12q43 -160 201 -160t253 160l33 -18q-41 -89 -123 -145t-176 -56zM453 29q165 0 281 138t116 304t-86 255t-223 89q-166 0 -282 -138q-116 -139 -116 -305q-1 -166 87 -254t223 -89zM451 -12q-154 0 -255 99q-102 99 -102 283
t129 335q129 152 320 151q154 0 255 -99t101 -284t-129 -335t-319 -150z" />
    <glyph glyph-name="Ohungarumlaut" unicode="&#x150;" horiz-adv-x="1472" 
d="M702 27q186 0 344 111q157 112 244 290q88 178 88 386t-129 358t-362 149q-279 0 -477 -237t-199 -537q0 -221 129 -371t362 -149zM698 -18q-248 0 -394 162t-146 382t91 407t263 310t379 123q248 0 394 -162q147 -162 147 -382t-92 -407t-263 -310q-172 -123 -379 -123z
M1382 1683q35 1 35 -33t-51 -53l-279 -120l-12 20l254 168q27 18 53 18zM1046 1692q20 0 29 -12q10 -12 10 -27q0 -27 -49 -49l-272 -134l-12 21l243 178q31 23 51 23z" />
    <glyph glyph-name="ohungarumlaut" unicode="&#x151;" horiz-adv-x="995" 
d="M453 29q165 0 281 138t116 304t-86 255t-223 89q-166 0 -282 -138q-116 -139 -116 -305q-1 -166 87 -254t223 -89zM451 -12q-154 0 -255 99q-102 99 -102 283t129 335q129 152 320 151q154 0 255 -99t101 -284t-129 -335t-319 -150zM1069 1192q0 -31 -51 -49l-279 -121
l-12 20l254 168q27 18 53 19q35 0 35 -37zM698 1237q40 0 39 -39q0 -27 -49 -49l-272 -133l-13 20l244 178q31 23 51 23z" />
    <glyph glyph-name="OE" unicode="&#x152;" horiz-adv-x="1890" 
d="M838 45h102l291 1258h-160q-414 0 -645 -232q-211 -211 -211 -526q0 -213 129 -342q158 -158 494 -158zM831 0q-356 0 -526 170q-143 147 -143 373q0 338 223 561q240 244 692 244h883l-68 -287h-49l55 242h-614l-135 -590h483l-10 -47h-485l-142 -621h613l57 242h51
l-67 -287h-818z" />
    <glyph glyph-name="oe" unicode="&#x153;" horiz-adv-x="1673" 
d="M1534 561q0 121 -64 187t-191 67q-126 0 -235 -97t-147 -247h627q10 55 10 90zM453 29q165 0 281 138t116 304t-86 255t-223 89q-166 0 -282 -138q-116 -139 -116 -305q-1 -166 87 -254t223 -89zM440 -12q-144 0 -244 99q-102 99 -102 283t129 335q129 152 320 151
q135 0 228 -79t114 -216q55 131 165 213t244 82t210 -78q77 -78 77 -223q0 -59 -18 -125h-674q-8 -41 -8 -96q0 -141 85 -223q85 -83 227 -83t271 74l-12 -49q-119 -65 -261 -65t-234 73q-91 74 -111 207q-54 -124 -158 -202t-248 -78z" />
    <glyph glyph-name="Racute" unicode="&#x154;" horiz-adv-x="1183" 
d="M1022 1708q18 0 30 -12t11 -27q0 -31 -49 -51l-289 -145l-12 20l254 188q37 27 55 27zM600 641q231 0 365 99q133 99 133 264q0 123 -72 192q-102 106 -348 107h-139l-150 -658q49 -4 211 -4zM686 1348q258 0 379 -121q84 -80 84 -232q0 -151 -119 -261t-328 -132
l254 -557h158l-10 -45h-184l-267 596h-51q-166 0 -223 4l-129 -555h207l-11 -45h-444l10 45h185l288 1258h-202l10 45h393z" />
    <glyph glyph-name="racute" unicode="&#x155;" horiz-adv-x="630" 
d="M418 1018l-12 20l253 189q59 43 85 14q11 -12 12 -27q0 -31 -49 -51zM578 856q30 0 52 -19t22 -43t-15 -36q-14 -14 -37 -14t-37 16t-16 41q-74 -9 -166 -145t-133 -302l-88 -354h-49l198 803h-172l8 41h222l-70 -281q66 141 142 217q77 76 139 76z" />
    <glyph glyph-name="Rcommaaccent" unicode="&#x156;" horiz-adv-x="1183" 
d="M490 -125q26 0 44 -21q17 -22 17 -55q-1 -69 -63 -143t-146 -111l-12 23q139 82 166 192q-27 2 -44 20q-18 18 -18 41q0 24 16 39q14 15 40 15zM600 641q231 0 365 99q133 99 133 264q0 123 -72 192q-102 106 -348 107h-139l-150 -658q49 -4 211 -4zM686 1348
q258 0 379 -121q84 -80 84 -232q0 -151 -119 -261t-328 -132l254 -557h158l-10 -45h-184l-267 596h-51q-166 0 -223 4l-129 -555h207l-11 -45h-444l10 45h185l288 1258h-202l10 45h393z" />
    <glyph glyph-name="rcommaaccent" unicode="&#x157;" horiz-adv-x="626" 
d="M110 -125q26 0 43 -21q17 -22 17 -55q0 -69 -62 -143t-147 -111l-12 23q139 82 166 192q-29 2 -45 20t-16 41q0 24 14 39q16 15 42 15zM575 856q31 0 53 -19t22 -43t-15 -36q-14 -14 -37 -14t-37 16t-16 41q-74 -9 -166 -145t-133 -302l-88 -354h-49l198 803h-172l8 41
h222l-70 -281q66 141 142 217q77 76 138 76z" />
    <glyph glyph-name="Rcaron" unicode="&#x158;" horiz-adv-x="1183" 
d="M799 1462l-199 244l21 18l186 -178l295 183l16 -23zM600 641q231 0 365 99q133 99 133 264q0 123 -72 192q-102 106 -348 107h-139l-150 -658q49 -4 211 -4zM686 1348q258 0 379 -121q84 -80 84 -232q0 -151 -119 -261t-328 -132l254 -557h158l-10 -45h-184l-267 596h-51
q-166 0 -223 4l-129 -555h207l-11 -45h-444l10 45h185l288 1258h-202l10 45h393z" />
    <glyph glyph-name="rcaron" unicode="&#x159;" horiz-adv-x="630" 
d="M489 1008l-198 243l20 19l187 -178l295 182l16 -23zM578 856q30 0 52 -19t22 -43t-15 -36q-14 -14 -37 -14t-37 16t-16 41q-74 -9 -166 -145t-133 -302l-88 -354h-49l198 803h-172l8 41h222l-70 -281q66 141 142 217q77 76 139 76z" />
    <glyph glyph-name="Sacute" unicode="&#x15a;" horiz-adv-x="1032" 
d="M492 -18q-179 0 -303 88t-123 180q0 29 15 48t42 19t41 -15t14 -38q0 -45 -43 -61q29 -68 129 -122t241 -54t239 82t98 198q0 115 -64 189t-210 173t-213 180t-66 195q0 141 111 232q112 90 264 90t261 -75q108 -75 107 -169q0 -70 -57 -69q-23 0 -38 16t-15 39
q0 43 45 61q-25 63 -106 107t-207 45q-126 0 -220 -76t-94 -187q0 -110 62 -184t209 -172t215 -178q68 -82 67 -200q0 -152 -111 -247t-290 -95zM981 1708q17 0 29 -12t12 -27q0 -31 -49 -51l-289 -145l-12 20l254 188q37 27 55 27z" />
    <glyph glyph-name="sacute" unicode="&#x15b;" horiz-adv-x="786" 
d="M723 674q0 -51 -46 -51t-46 54q0 28 28 48q-12 20 -30 35q-73 55 -179 55t-168 -50q-62 -49 -62 -117t44 -106q46 -38 136 -81t130 -69t74 -73q35 -47 35 -104q0 -103 -80 -165t-203 -62q-170 0 -262 100q-45 49 -45 88q0 72 51 74q16 0 28 -14t13 -31q0 -41 -35 -58
q6 -18 31 -43q76 -76 221 -75q104 0 169 52t65 125t-49 116t-155 94t-162 99q-54 48 -54 132q0 85 78 147t188 62q160 0 246 -90q39 -41 39 -92zM461 1018l-12 20l253 189q59 43 85 14q11 -12 12 -27q0 -31 -49 -51z" />
    <glyph glyph-name="Scedilla" unicode="&#x15e;" horiz-adv-x="1032" 
d="M487 -18q-35 0 -53 2l-47 -121q82 -4 122 -39t40 -93q0 -57 -47 -99q-48 -42 -150 -42t-194 64l22 33q96 -55 174 -55t112 29q34 30 34 75q0 44 -42 70t-120 20l-10 10l71 154q-141 20 -237 101t-96 159q0 29 15 48t42 19t41 -15t14 -38q0 -45 -43 -61q29 -68 129 -122
t241 -54t239 82t98 198q0 115 -64 189t-210 173t-213 180t-66 195q0 141 111 232q112 90 264 90t261 -75q108 -75 107 -169q0 -70 -57 -69q-23 0 -38 16t-15 39q0 43 45 61q-25 63 -106 107t-207 45q-126 0 -220 -76t-94 -187q0 -110 62 -184t209 -172t215 -178
q68 -82 67 -200q0 -152 -111 -247t-295 -95z" />
    <glyph glyph-name="scedilla" unicode="&#x15f;" horiz-adv-x="786" 
d="M723 674q0 -51 -46 -51t-46 54q0 28 28 48q-12 20 -30 35q-73 55 -179 55t-168 -50q-62 -49 -62 -117t44 -106q46 -38 136 -81t130 -69t74 -73q35 -47 35 -104q0 -103 -80 -165t-203 -62h-4l-49 -125q82 -4 122 -39t40 -93q0 -57 -47 -99q-48 -42 -150 -42t-194 64l22 33
q96 -55 174 -55t112 29q34 30 34 75q0 44 -42 70t-120 20l-10 10l71 154q-145 16 -221 98q-45 49 -45 88q0 72 51 74q16 0 28 -14t13 -31q0 -41 -35 -58q6 -18 31 -43q76 -76 221 -75q104 0 169 52t65 125t-49 116t-155 94t-162 99q-54 48 -54 132q0 85 78 147t188 62
q160 0 246 -90q39 -41 39 -92z" />
    <glyph glyph-name="Scaron" unicode="&#x160;" horiz-adv-x="1032" 
d="M492 -18q-179 0 -303 88t-123 180q0 29 15 48t42 19t41 -15t14 -38q0 -45 -43 -61q29 -68 129 -122t241 -54t239 82t98 198q0 115 -64 189t-210 173t-213 180t-66 195q0 141 111 232q112 90 264 90t261 -75q108 -75 107 -169q0 -70 -57 -69q-23 0 -38 16t-15 39
q0 43 45 61q-25 63 -106 107t-207 45q-126 0 -220 -76t-94 -187q0 -110 62 -184t209 -172t215 -178q68 -82 67 -200q0 -152 -111 -247t-290 -95zM760 1462l-199 244l21 18l186 -178l295 183l16 -23z" />
    <glyph glyph-name="scaron" unicode="&#x161;" horiz-adv-x="786" 
d="M723 674q0 -51 -46 -51t-46 54q0 28 28 48q-12 20 -30 35q-73 55 -179 55t-168 -50q-62 -49 -62 -117t44 -106q46 -38 136 -81t130 -69t74 -73q35 -47 35 -104q0 -103 -80 -165t-203 -62q-170 0 -262 100q-45 49 -45 88q0 72 51 74q16 0 28 -14t13 -31q0 -41 -35 -58
q6 -18 31 -43q76 -76 221 -75q104 0 169 52t65 125t-49 116t-155 94t-162 99q-54 48 -54 132q0 85 78 147t188 62q160 0 246 -90q39 -41 39 -92zM535 1008l-199 243l20 19l187 -178l295 182l16 -23z" />
    <glyph glyph-name="Tcommaaccent" unicode="&#x162;" horiz-adv-x="1220" 
d="M293 0l10 45h193l288 1258h-444l-59 -256h-52l72 301h1047l-72 -301h-51l59 256h-444l-291 -1258h213l-8 -45h-461zM422 -179q0 24 15 39t41 15q26 1 43 -21t18 -55q-1 -69 -63 -143t-146 -111l-13 23q139 82 166 192q-29 2 -45 20t-16 41z" />
    <glyph glyph-name="tcommaaccent" unicode="&#x163;" horiz-adv-x="606" 
d="M204 -125q26 1 43 -21t17 -55q0 -69 -62 -143t-147 -111l-12 23q139 82 166 192q-27 2 -44 20t-17 41q0 24 14 39q16 15 42 15zM164 125q0 -94 96 -94q70 0 193 92l20 -31q-127 -104 -204 -104t-115 36t-39 85q0 49 16 118l143 576h-159l8 41h162l55 219l51 12l-57 -231
h268l-8 -41h-270l-146 -582q-14 -61 -14 -96z" />
    <glyph glyph-name="Tcaron" unicode="&#x164;" horiz-adv-x="1220" 
d="M293 0l10 45h193l288 1258h-444l-59 -256h-52l72 301h1047l-72 -301h-51l59 256h-444l-291 -1258h213l-8 -45h-461zM840 1462l-199 244l21 18l186 -178l295 183l16 -23z" />
    <glyph glyph-name="tcaron" unicode="&#x165;" horiz-adv-x="606" 
d="M607 1325q36 0 36 -46t-45 -133t-125 -169l-18 16q74 91 87 141t17 95t6 53q6 43 42 43zM164 125q0 -94 96 -94q70 0 193 92l20 -31q-127 -104 -204 -104t-115 36t-39 85q0 49 16 118l143 576h-159l8 41h162l55 219l51 12l-57 -231h268l-8 -41h-270l-146 -582
q-14 -61 -14 -96z" />
    <glyph glyph-name="Umacron" unicode="&#x16a;" horiz-adv-x="1392" 
d="M664 1536l10 49h559l-10 -49h-559zM660 -18q-192 0 -300 92q-109 92 -108 262q0 84 29 209l174 758h-203l10 45h447l-11 -45h-192l-176 -764q-25 -109 -25 -197q0 -156 93 -236t262 -80q340 1 442 468l186 809h-211l10 45h447l-10 -45h-185l-188 -814q-59 -255 -179 -381
t-312 -126z" />
    <glyph glyph-name="umacron" unicode="&#x16b;" horiz-adv-x="1052" 
d="M362 1081l11 49h559l-10 -49h-560zM725 110q1 -84 79 -82q38 0 68 32t62 114l35 -10q-37 -98 -75 -137t-92 -39t-88 32t-34 76q0 43 22 146l3 4v10q-141 -268 -347 -268q-94 0 -151 54t-57 144q0 43 32 183l109 434h-172l10 41h219l-119 -482q-29 -116 -29 -182t44 -108
q43 -42 121 -43q125 0 235 126t158 318l92 371h49l-154 -619q-20 -76 -20 -115z" />
    <glyph glyph-name="Ubreve" unicode="&#x16c;" horiz-adv-x="1392" 
d="M934 1470q-94 0 -152 56t-77 151l40 13q43 -160 201 -160t254 160l33 -19q-41 -89 -123 -145t-176 -56zM660 -18q-192 0 -300 92q-109 92 -108 262q0 84 29 209l174 758h-203l10 45h447l-11 -45h-192l-176 -764q-25 -109 -25 -197q0 -156 93 -236t262 -80q340 1 442 468
l186 809h-211l10 45h447l-10 -45h-185l-188 -814q-59 -255 -179 -381t-312 -126z" />
    <glyph glyph-name="ubreve" unicode="&#x16d;" horiz-adv-x="1052" 
d="M635 1016q-94 0 -153 56q-58 56 -76 151l40 12q43 -160 201 -160t254 160l33 -18q-41 -89 -123 -145t-176 -56zM725 110q1 -84 79 -82q38 0 68 32t62 114l35 -10q-37 -98 -75 -137t-92 -39t-88 32t-34 76q0 43 22 146l3 4v10q-141 -268 -347 -268q-94 0 -151 54t-57 144
q0 43 32 183l109 434h-172l10 41h219l-119 -482q-29 -116 -29 -182t44 -108q43 -42 121 -43q125 0 235 126t158 318l92 371h49l-154 -619q-20 -76 -20 -115z" />
    <glyph glyph-name="Uring" unicode="&#x16e;" horiz-adv-x="1392" 
d="M660 -18q-192 0 -300 92q-109 92 -108 262q0 84 29 209l174 758h-203l10 45h447l-11 -45h-192l-176 -764q-25 -109 -25 -197q0 -156 93 -236t262 -80q340 1 442 468l186 809h-211l10 45h447l-10 -45h-185l-188 -814q-59 -255 -179 -381t-312 -126zM848 1610q0 -56 28 -86
t77 -29q50 0 89 50q39 51 39 105t-27 84q-28 30 -78 30t-89 -50q-39 -48 -39 -104zM950 1454q-72 0 -112 43t-39 113q0 70 53 132t125 62t113 -43q40 -43 40 -113t-54 -132t-126 -62z" />
    <glyph glyph-name="uring" unicode="&#x16f;" horiz-adv-x="1052" 
d="M547 1156q-1 -56 27 -86t78 -30t89 50t39 105q0 54 -27 84q-28 30 -78 30t-89 -49q-39 -48 -39 -104zM829 1194q0 -70 -54 -132t-126 -63q-71 0 -111 43t-40 113t53 132q53 63 125 63t112 -43t41 -113zM725 110q1 -84 79 -82q38 0 68 32t62 114l35 -10q-37 -98 -75 -137
t-92 -39t-88 32t-34 76q0 43 22 146l3 4v10q-141 -268 -347 -268q-94 0 -151 54t-57 144q0 43 32 183l109 434h-172l10 41h219l-119 -482q-29 -116 -29 -182t44 -108q43 -42 121 -43q125 0 235 126t158 318l92 371h49l-154 -619q-20 -76 -20 -115z" />
    <glyph glyph-name="Uhungarumlaut" unicode="&#x170;" horiz-adv-x="1392" 
d="M1331 1683q35 1 35 -33t-51 -53l-279 -120l-12 20l254 168q27 18 53 18zM994 1692q20 0 30 -12t10 -27q0 -27 -49 -49l-272 -134l-13 21l244 178q31 23 50 23zM660 -18q-192 0 -300 92q-109 92 -108 262q0 84 29 209l174 758h-203l10 45h447l-11 -45h-192l-176 -764
q-25 -109 -25 -197q0 -156 93 -236t262 -80q340 1 442 468l186 809h-211l10 45h447l-10 -45h-185l-188 -814q-59 -255 -179 -381t-312 -126z" />
    <glyph glyph-name="uhungarumlaut" unicode="&#x171;" horiz-adv-x="1052" 
d="M1065 1192q0 -31 -51 -49l-279 -121l-12 20l254 168q27 18 53 19q35 0 35 -37zM693 1237q19 0 29 -11t11 -28q0 -27 -49 -49l-272 -133l-13 20l244 178q31 23 50 23zM725 110q1 -84 79 -82q38 0 68 32t62 114l35 -10q-37 -98 -75 -137t-92 -39t-88 32t-34 76q0 43 22 146
l3 4v10q-141 -268 -347 -268q-94 0 -151 54t-57 144q0 43 32 183l109 434h-172l10 41h219l-119 -482q-29 -116 -29 -182t44 -108q43 -42 121 -43q125 0 235 126t158 318l92 371h49l-154 -619q-20 -76 -20 -115z" />
    <glyph glyph-name="Uogonek" unicode="&#x172;" horiz-adv-x="1392" 
d="M481 -270q0 135 152 252q-170 4 -276 95q-105 91 -105 259q0 84 29 209l174 758h-203l10 45h447l-11 -45h-192l-176 -764q-25 -109 -25 -197q0 -156 93 -236t262 -80q340 1 442 468l186 809h-211l10 45h447l-10 -45h-185l-188 -814q-55 -245 -166 -369t-299 -136
q-160 -127 -160 -246q0 -49 30 -80t80 -31t99 21l-10 -43q-61 -19 -113 -19t-92 40q-39 40 -39 104z" />
    <glyph glyph-name="uogonek" unicode="&#x173;" horiz-adv-x="1052" 
d="M725 110q-1 -84 75 -82q38 0 70 34q32 32 64 112l35 -10q-45 -109 -109 -162q-8 -6 -59 -51t-72 -67q-67 -75 -67 -150q0 -45 30 -75t82 -30q53 0 98 17l-12 -41q-138 -45 -206 19q-40 38 -40 106q0 135 187 258h-2q-51 0 -85 32t-34 76q0 43 22 146l3 4v10
q-141 -268 -347 -268q-94 0 -151 54t-57 144q0 43 32 183l109 434h-172l10 41h219l-119 -482q-29 -116 -29 -182t44 -108q43 -42 121 -43q125 0 235 126t158 318l92 371h49l-154 -619q-20 -76 -20 -115z" />
    <glyph glyph-name="Wcircumflex" unicode="&#x174;" horiz-adv-x="1933" 
d="M449 -31l-62 1334h-168l10 45h408l-10 -45h-187l49 -1235l580 1083h33l108 -1083l639 1235h-186l10 45h408l-10 -45h-164l-703 -1334h-35l-104 1080l-580 -1080h-36zM952 1458l-16 23l319 243l199 -243l-20 -19l-187 178z" />
    <glyph glyph-name="wcircumflex" unicode="&#x175;" horiz-adv-x="1300" 
d="M520 1004l-16 22l319 244l199 -244l-21 -18l-186 178zM1092 804q0 24 13 38t32 14q70 0 69 -92q0 -131 -94 -345t-260 -454h-25l-139 676l-383 -676h-24l-54 838h-164l9 41h198l47 -785l371 666h25l143 -686q137 203 218 393t87 311q-29 1 -49 19t-20 42z" />
    <glyph glyph-name="Ycircumflex" unicode="&#x176;" horiz-adv-x="1284" 
d="M618 1458l-16 23l320 243l198 -243l-20 -19l-187 178zM285 0l10 45h211l129 528l-268 730h-140l11 45h385l-11 -45h-190l248 -687l579 687h-186l10 45h385l-10 -45h-135l-627 -736l-127 -522h215l-10 -45h-479z" />
    <glyph glyph-name="ycircumflex" unicode="&#x177;" horiz-adv-x="944" 
d="M352 1004l-16 22l319 244l199 -244l-20 -18l-187 178zM-57 -408q-35 0 -60 20t-25 44q1 51 48 51q27 0 43 -18t16 -49v-2q141 29 412 352l-154 813h-166l9 41h200l148 -809q156 197 274 395t135 315q-29 -1 -49 17t-20 42t14 38t38 14t43 -22t19 -58q0 -117 -129 -343
t-309 -443q-333 -398 -487 -398z" />
    <glyph glyph-name="Ydieresis" unicode="&#x178;" horiz-adv-x="1284" 
d="M770 1507q-23 -1 -38 15t-15 39t15 39t38 16t38 -16t15 -40q0 -22 -15 -38t-38 -15zM1004 1507q-23 -1 -38 15t-16 39q0 23 16 39t38 16q24 0 38 -16t14 -40q0 -22 -14 -38q-15 -16 -38 -15zM285 0l10 45h211l129 528l-268 730h-140l11 45h385l-11 -45h-190l248 -687
l579 687h-186l10 45h385l-10 -45h-135l-627 -736l-127 -522h215l-10 -45h-479z" />
    <glyph glyph-name="Zacute" unicode="&#x179;" horiz-adv-x="1187" 
d="M6 0v25l1194 1278h-815l-55 -244h-51l65 289h940v-25l-1194 -1278h856l58 244h51l-68 -289h-981zM1042 1708q18 0 30 -12q11 -12 11 -27q0 -31 -49 -51l-289 -145l-12 20l254 188q37 27 55 27z" />
    <glyph glyph-name="zacute" unicode="&#x17a;" horiz-adv-x="851" 
d="M528 -16q-39 0 -140 24t-161 23q-127 0 -209 -45l-20 26l770 791h-528l-45 -176h-43l53 217h622l15 -25l-750 -768q114 42 306 -3q103 -24 132 -23q63 0 107 47q43 47 76 157l35 -8q-33 -119 -83 -178t-137 -59zM815 1214q0 -31 -49 -51l-289 -145l-12 20l254 189
q57 42 85 14q11 -12 11 -27z" />
    <glyph glyph-name="Zdotaccent" unicode="&#x17b;" horiz-adv-x="1187" 
d="M852 1516q-25 0 -41 16t-16 41t16 42t41 17t41 -17t16 -42t-16 -41t-41 -16zM6 0v25l1194 1278h-815l-55 -244h-51l65 289h940v-25l-1194 -1278h856l58 244h51l-68 -289h-981z" />
    <glyph glyph-name="zdotaccent" unicode="&#x17c;" horiz-adv-x="851" 
d="M582 1061q-25 0 -41 16t-17 41q0 25 16 42q16 18 42 18q25 0 41 -18t16 -42q0 -25 -16 -41t-41 -16zM528 -16q-39 0 -140 24t-161 23q-127 0 -209 -45l-20 26l770 791h-528l-45 -176h-43l53 217h622l15 -25l-750 -768q114 42 306 -3q103 -24 132 -23q63 0 107 47
q43 47 76 157l35 -8q-33 -119 -83 -178t-137 -59z" />
    <glyph glyph-name="Zcaron" unicode="&#x17d;" horiz-adv-x="1187" 
d="M6 0v25l1194 1278h-815l-55 -244h-51l65 289h940v-25l-1194 -1278h856l58 244h51l-68 -289h-981zM819 1462l-198 244l20 18l186 -178l295 183l17 -23z" />
    <glyph glyph-name="zcaron" unicode="&#x17e;" horiz-adv-x="851" 
d="M528 -16q-39 0 -140 24t-161 23q-127 0 -209 -45l-20 26l770 791h-528l-45 -176h-43l53 217h622l15 -25l-750 -768q114 42 306 -3q103 -24 132 -23q63 0 107 47q43 47 76 157l35 -8q-33 -119 -83 -178t-137 -59zM549 1008l-199 243l21 19l186 -178l295 182l16 -23z" />
    <glyph glyph-name="Aringacute" unicode="&#x1fa;" horiz-adv-x="1409" 
d="M459 557h559l-107 752zM954 1616q-50 0 -90 -50t-39 -106q0 -56 28 -84q28 -30 79 -30t90 50t39 105t-28 85q-29 30 -79 30zM1110 1511q0 -111 -94 -163h133l-8 -45h-180l180 -1258h141l-8 -45h-387l10 45h193l-66 467h-592l-280 -467h206l-10 -45h-385l10 45h119
l762 1258h-188l10 45h158q-58 34 -58 110t54 136t128 60t112 -41q40 -42 40 -102zM1294 1972q0 -31 -49 -51l-289 -145l-12 20l254 189q57 42 85 14q11 -12 11 -27z" />
    <glyph glyph-name="aringacute" unicode="&#x1fb;" horiz-adv-x="1089" 
d="M995 1739q17 -1 29 -13t12 -26q0 -29 -49 -51l-289 -146l-12 21l254 188q37 27 55 27zM549 1156q-1 -56 27 -86t78 -30t89 50t39 105q0 54 -27 84q-28 30 -78 30t-89 -49q-39 -48 -39 -104zM651 999q-71 0 -111 43t-40 113t53 132q53 63 125 63t113 -43t41 -113t-55 -132
q-54 -62 -126 -63zM399 29q170 1 286 157t116 334q0 129 -75 212t-194 83q-166 1 -278 -149t-111 -340q-1 -141 69 -219t187 -78zM395 -12q-133 0 -217 88t-84 246q0 210 125 372t313 162q115 0 196 -71t99 -189l62 248h49l-154 -619q-20 -88 -20 -121q0 -32 20 -54t58 -22
t68 32t63 114l35 -10q-37 -98 -75 -137t-93 -39t-87 32t-32 82q0 49 14 101q-131 -215 -340 -215z" />
    <glyph glyph-name="AEacute" unicode="&#x1fc;" horiz-adv-x="1767" 
d="M516 559h436l172 748h-22zM-94 0l8 45h141l987 1258h-225l10 45h1010l-68 -287h-49l54 242h-598l-134 -590h465l-8 -47h-469l-143 -621h598l57 242h49l-65 -287h-887l10 45h185l108 469h-461l-368 -469h188l-10 -45h-385zM1495 1708q17 0 29 -12t12 -27q0 -31 -49 -51
l-289 -145l-12 20l254 188q37 27 55 27z" />
    <glyph glyph-name="aeacute" unicode="&#x1fd;" horiz-adv-x="1525" 
d="M795 1018l-13 20l254 189q59 43 85 14q11 -12 12 -27q0 -31 -50 -51zM1134 815q-126 0 -235 -97t-147 -247h624q12 49 13 90q-1 121 -65 187t-190 67zM297 29q137 1 264 115t137 286h-233q-172 0 -270 -60t-99 -169q0 -76 52 -124t149 -48zM248 664q-51 0 -51 60t82 99
q61 33 143 33q268 0 313 -309q51 139 163 224t247 85t213 -78t78 -223q-1 -53 -21 -125h-672q-8 -41 -8 -96q0 -145 85 -225q86 -80 228 -80t269 73l-12 -49q-115 -65 -261 -65t-238 77q-93 77 -110 216q-50 -133 -162 -213t-238 -80t-188 61t-63 152q0 125 112 197t300 73
h243q-4 154 -69 249q-66 95 -191 95t-166 -51q20 -16 20 -40t-12 -42q-13 -18 -34 -18z" />
    <glyph glyph-name="Oslashacute" unicode="&#x1fe;" horiz-adv-x="1472" 
d="M1176 1708q18 0 29 -12t12 -27q0 -31 -50 -51l-288 -145l-13 20l254 188q38 27 56 27zM211 547q0 -158 63 -277l1006 860q-136 190 -404 190t-466 -236t-199 -537zM702 27q186 0 344 111q157 112 244 290q88 178 88 358t-75 310l-1008 -863q133 -206 407 -206zM698 -18
q-293 0 -440 219l-254 -217l-27 32l256 222q-75 136 -75 322t91 373t263 310t379 123q274 0 426 -203l239 207l29 -33l-244 -209q91 -138 91 -332t-92 -381t-263 -310q-172 -123 -379 -123z" />
    <glyph glyph-name="oslashacute" unicode="&#x1ff;" horiz-adv-x="995" 
d="M891 1214q0 -31 -49 -51l-289 -145l-12 20l254 189q57 42 85 14q11 -12 11 -27zM457 29q161 0 277 138t116 320q0 100 -41 177l-600 -525q86 -110 248 -110zM143 356q0 -104 45 -182l600 522q-86 119 -250 119q-164 -1 -279 -139q-116 -138 -116 -320zM458 -12
q-183 0 -284 123l-139 -125l-27 30l144 125q-57 90 -58 215q0 197 129 349q129 151 313 151t285 -129l144 125l28 -31l-149 -127q55 -88 55 -207q0 -199 -129 -349t-312 -150z" />
    <glyph glyph-name="Scommaaccent" unicode="&#x218;" horiz-adv-x="1032" 
d="M492 -18q-179 0 -303 88t-123 180q0 29 15 48t42 19t41 -15t14 -38q0 -45 -43 -61q29 -68 129 -122t241 -54t239 82t98 198q0 115 -64 189t-210 173t-213 180t-66 195q0 141 111 232q112 90 264 90t261 -75q108 -75 107 -169q0 -70 -57 -69q-23 0 -38 16t-15 39
q0 43 45 61q-25 63 -106 107t-207 45q-126 0 -220 -76t-94 -187q0 -110 62 -184t209 -172t215 -178q68 -82 67 -200q0 -152 -111 -247t-290 -95zM340 -179q0 24 15 39t41 15q26 1 43 -21t18 -55q-1 -69 -63 -143t-146 -111l-12 23q139 82 165 192q-27 2 -44 20t-17 41z" />
    <glyph glyph-name="scommaaccent" unicode="&#x219;" horiz-adv-x="786" 
d="M723 674q0 -51 -46 -51t-46 54q0 28 28 48q-12 20 -30 35q-73 55 -179 55t-168 -50q-62 -49 -62 -117t44 -106q46 -38 136 -81t130 -69t74 -73q35 -47 35 -104q0 -103 -80 -165t-203 -62q-170 0 -262 100q-45 49 -45 88q0 72 51 74q16 0 28 -14t13 -31q0 -41 -35 -58
q6 -18 31 -43q76 -76 221 -75q104 0 169 52t65 125t-49 116t-155 94t-162 99q-54 48 -54 132q0 85 78 147t188 62q160 0 246 -90q39 -41 39 -92zM275 -125q26 1 43 -21t18 -55q0 -69 -62 -143t-147 -111l-12 23q139 82 166 192q-27 2 -44 20t-17 41q0 24 14 39q15 15 41 15z
" />
    <glyph glyph-name="schwa" unicode="&#x259;" horiz-adv-x="925" 
d="M137 287q1 -121 63 -187t188 -67q126 0 235 96t145 248h-621q-10 -55 -10 -90zM90 293q0 59 19 125h669q8 61 8 96q0 145 -85 225t-225 80t-267 -74l10 50q119 65 269 65t249 -93q100 -93 101 -255q0 -211 -136 -366t-331 -154q-131 0 -206 78t-75 223z" />
    <glyph glyph-name="circumflex" unicode="&#x2c6;" horiz-adv-x="1036" 
d="M412 1004l-17 22l320 244l198 -244l-20 -18l-186 178z" />
    <glyph glyph-name="caron" unicode="&#x2c7;" horiz-adv-x="1036" 
d="M645 1008l-199 243l21 19l186 -178l295 182l17 -23z" />
    <glyph glyph-name="breve" unicode="&#x2d8;" horiz-adv-x="1036" 
d="M655 1016q-94 0 -152 56t-77 151l41 12q43 -160 201 -160t254 160l32 -18q-41 -89 -123 -145t-176 -56z" />
    <glyph glyph-name="dotaccent" unicode="&#x2d9;" horiz-adv-x="1036" 
d="M678 1061q-25 0 -41 16t-16 41t16 42q16 18 41 18t41 -18t16 -42q0 -25 -16 -41t-41 -16z" />
    <glyph glyph-name="ring" unicode="&#x2da;" horiz-adv-x="1036" 
d="M708 1309q-50 0 -90 -49q-40 -48 -38 -104q0 -56 28 -86t77 -30q50 0 89 50t39 105q0 54 -28 84q-27 30 -77 30zM530 1155q0 70 54 132q54 63 125 63q73 0 113 -43t40 -113t-54 -132t-126 -63q-72 0 -112 43t-40 113z" />
    <glyph glyph-name="ogonek" unicode="&#x2db;" horiz-adv-x="1036" 
d="M442 -371q53 0 99 17l-13 -41q-140 -46 -207 19q-40 38 -40 106q-1 155 249 313l39 -2q-240 -174 -239 -303q0 -49 30 -79t82 -30z" />
    <glyph glyph-name="tilde" unicode="&#x2dc;" horiz-adv-x="1036" 
d="M813 1022q-63 0 -145 68t-129 69q-47 0 -77 -30t-56 -95l-35 10q53 168 170 168q59 0 151 -71q78 -66 124 -66t76 30t58 97l35 -10q-53 -170 -172 -170z" />
    <glyph glyph-name="hungarumlaut" unicode="&#x2dd;" horiz-adv-x="1036" 
d="M987 1192q0 -31 -51 -49l-279 -121l-12 20l254 168q27 18 53 19q35 0 35 -37zM616 1237q40 0 39 -39q0 -27 -49 -49l-272 -133l-12 20l243 178q31 23 51 23z" />
    <glyph glyph-name="commaaccent" unicode="&#x326;" horiz-adv-x="407" 
d="M204 -125q26 1 43 -21t17 -55q0 -69 -62 -143t-147 -111l-12 23q139 82 166 192q-27 2 -44 20t-17 41q0 24 14 39q16 15 42 15z" />
    <glyph glyph-name="Wgrave" unicode="&#x1e80;" horiz-adv-x="1933" 
d="M1012 1669q0 43 42 43q22 0 48 -29l198 -192l-16 -18l-233 151q-39 25 -39 45zM449 -31l-62 1334h-168l10 45h408l-10 -45h-187l49 -1235l580 1083h33l108 -1083l639 1235h-186l10 45h408l-10 -45h-164l-703 -1334h-35l-104 1080l-580 -1080h-36z" />
    <glyph glyph-name="wgrave" unicode="&#x1e81;" horiz-adv-x="1300" 
d="M582 1214q0 42 42 43q22 0 48 -28l198 -193l-16 -18l-233 151q-39 25 -39 45zM1092 804q0 24 13 38t32 14q70 0 69 -92q0 -131 -94 -345t-260 -454h-25l-139 676l-383 -676h-24l-54 838h-164l9 41h198l47 -785l371 666h25l143 -686q137 203 218 393t87 311q-29 1 -49 19
t-20 42z" />
    <glyph glyph-name="Wacute" unicode="&#x1e82;" horiz-adv-x="1933" 
d="M449 -31l-62 1334h-168l10 45h408l-10 -45h-187l49 -1235l580 1083h33l108 -1083l639 1235h-186l10 45h408l-10 -45h-164l-703 -1334h-35l-104 1080l-580 -1080h-36zM1413 1708q17 0 29 -12t12 -27q0 -31 -49 -51l-289 -145l-12 20l254 188q37 27 55 27z" />
    <glyph glyph-name="wacute" unicode="&#x1e83;" horiz-adv-x="1300" 
d="M1024 1214q0 -31 -49 -51l-289 -145l-12 20l254 189q57 42 85 14q11 -12 11 -27zM1092 804q0 24 13 38t32 14q70 0 69 -92q0 -131 -94 -345t-260 -454h-25l-139 676l-383 -676h-24l-54 838h-164l9 41h198l47 -785l371 666h25l143 -686q137 203 218 393t87 311
q-29 1 -49 19t-20 42z" />
    <glyph glyph-name="Wdieresis" unicode="&#x1e84;" horiz-adv-x="1933" 
d="M449 -31l-62 1334h-168l10 45h408l-10 -45h-187l49 -1235l580 1083h33l108 -1083l639 1235h-186l10 45h408l-10 -45h-164l-703 -1334h-35l-104 1080l-580 -1080h-36zM1104 1507q-23 -1 -38 15t-15 39t15 39t38 16t38 -16t15 -40q0 -22 -15 -38t-38 -15zM1337 1507
q-23 -1 -38 15t-15 39t15 39t38 16t38 -16t15 -40q0 -22 -14 -38q-16 -16 -39 -15z" />
    <glyph glyph-name="wdieresis" unicode="&#x1e85;" horiz-adv-x="1300" 
d="M907 1053q-23 0 -38 15t-15 38t15 39t38 16t38 -16t15 -39t-14 -38q-16 -15 -39 -15zM674 1053q-23 0 -38 15t-15 38t15 39t38 16t38 -16t15 -39t-15 -38t-38 -15zM1092 804q0 24 13 38t32 14q70 0 69 -92q0 -131 -94 -345t-260 -454h-25l-139 676l-383 -676h-24l-54 838
h-164l9 41h198l47 -785l371 666h25l143 -686q137 203 218 393t87 311q-29 1 -49 19t-20 42z" />
    <glyph glyph-name="Ygrave" unicode="&#x1ef2;" horiz-adv-x="1284" 
d="M678 1669q0 43 42 43q22 0 48 -29l199 -192l-17 -18l-233 151q-39 25 -39 45zM285 0l10 45h211l129 528l-268 730h-140l11 45h385l-11 -45h-190l248 -687l579 687h-186l10 45h385l-10 -45h-135l-627 -736l-127 -522h215l-10 -45h-479z" />
    <glyph glyph-name="ygrave" unicode="&#x1ef3;" horiz-adv-x="944" 
d="M412 1214q0 42 42 43q22 0 48 -28l198 -193l-16 -18l-233 151q-39 25 -39 45zM-57 -408q-35 0 -60 20t-25 44q1 51 48 51q27 0 43 -18t16 -49v-2q141 29 412 352l-154 813h-166l9 41h200l148 -809q156 197 274 395t135 315q-29 -1 -49 17t-20 42t14 38t38 14t43 -22
t19 -58q0 -117 -129 -343t-309 -443q-333 -398 -487 -398z" />
    <glyph glyph-name="enspace" unicode="&#x2002;" horiz-adv-x="1024" 
 />
    <glyph glyph-name="emspace" unicode="&#x2003;" horiz-adv-x="2048" 
 />
    <glyph glyph-name="threeperemspace" unicode="&#x2004;" horiz-adv-x="681" 
 />
    <glyph glyph-name="fourperemspace" unicode="&#x2005;" horiz-adv-x="512" 
 />
    <glyph glyph-name="figurespace" unicode="&#x2007;" horiz-adv-x="1085" 
 />
    <glyph glyph-name="thinspace" unicode="&#x2009;" horiz-adv-x="272" 
 />
    <glyph glyph-name="hairspace" unicode="&#x200a;" horiz-adv-x="153" 
 />
    <glyph glyph-name="endash" unicode="&#x2013;" horiz-adv-x="755" 
d="M51 528l8 50h678l-10 -50h-676z" />
    <glyph glyph-name="emdash" unicode="&#x2014;" horiz-adv-x="1193" 
d="M51 528l8 50h1117l-11 -50h-1114z" />
    <glyph glyph-name="quoteleft" unicode="&#x2018;" horiz-adv-x="317" 
d="M373 1079q-1 -25 -17 -41t-43 -16t-45 22t-18 58q0 82 60 158t153 120l12 -24q-76 -46 -121 -104t-49 -111q68 -4 68 -62z" />
    <glyph glyph-name="quoteright" unicode="&#x2019;" horiz-adv-x="317" 
d="M337 1378q26 0 45 -22t19 -58q-1 -82 -61 -158t-154 -120l-12 24q76 46 122 104t50 112q-68 4 -67 61q0 25 16 41t42 16z" />
    <glyph glyph-name="quotesinglbase" unicode="&#x201a;" horiz-adv-x="305" 
d="M41 51q0 23 15 39t41 16t43 -22t18 -53q0 -69 -62 -143t-147 -111l-12 22q139 82 165 193q-61 6 -61 59z" />
    <glyph glyph-name="quotedblleft" unicode="&#x201c;" horiz-adv-x="571" 
d="M373 1079q-1 -25 -17 -41t-43 -16t-45 22t-18 58q0 82 60 158t153 120l12 -24q-76 -46 -121 -104t-49 -111q68 -4 68 -62zM625 1079q1 -25 -15 -41t-43 -16t-45 22t-18 58q0 82 60 158t153 120l12 -24q-76 -46 -121 -104t-49 -111q66 -4 66 -62z" />
    <glyph glyph-name="quotedblright" unicode="&#x201d;" horiz-adv-x="571" 
d="M337 1378q26 0 45 -22t19 -58q-1 -82 -61 -158t-154 -120l-12 24q76 46 122 104t50 112q-68 4 -67 61q0 25 16 41t42 16zM532 1321q0 25 16 41t43 16q26 0 45 -22t19 -58q1 -82 -61 -158t-154 -120l-12 24q76 44 121 102t51 114q-68 4 -68 61z" />
    <glyph glyph-name="quotedblbase" unicode="&#x201e;" horiz-adv-x="552" 
d="M41 51q0 23 15 39t41 16t43 -22t18 -53q0 -69 -62 -143t-147 -111l-12 22q139 82 165 193q-61 6 -61 59zM287 51q0 23 16 39t41 16t43 -22t19 -53q0 -69 -62 -143t-147 -111l-13 22q139 84 166 193q-63 6 -63 59z" />
    <glyph glyph-name="dagger" unicode="&#x2020;" horiz-adv-x="901" 
d="M172 831q0 66 70 66q10 0 43 -4l243 -45l58 366q10 78 47 78q55 0 29 -90l-103 -358l232 47q25 6 43 6q68 0 67 -66q0 -20 -15 -36q-15 -17 -40 -17t-39 18t-12 48l-234 -27l-203 -821h-26l182 827l-233 21q-1 -29 -15 -47q-14 -19 -39 -19t-40 16t-15 37z" />
    <glyph glyph-name="daggerdbl" unicode="&#x2021;" horiz-adv-x="901" 
d="M319 905q0 -63 -53 -63q-25 0 -39 15t-14 36q0 66 68 65q18 0 41 -6l219 -43l47 305q10 78 45 78q51 0 31 -80l-89 -307l207 47q29 4 41 4q68 0 68 -63q0 -21 -15 -37t-40 -16q-51 0 -52 65l-209 -26l-90 -365l-67 -360l211 -23q0 63 51 64q25 1 40 -15t15 -37
q0 -63 -69 -63q-25 0 -41 4l-217 45l-50 -307q-10 -76 -45 -76q-51 0 -28 78l88 307l-207 -45q-25 -6 -41 -6q-68 0 -68 63q-1 21 15 37t40 16t38 -18t14 -47l207 27l90 362l67 365z" />
    <glyph glyph-name="bullet" unicode="&#x2022;" horiz-adv-x="481" 
d="M422 551q0 -68 -46 -112t-107 -44q-62 0 -107 45t-45 111t45 111t107 45q61 0 107 -44t46 -112z" />
    <glyph glyph-name="ellipsis" unicode="&#x2026;" horiz-adv-x="935" 
d="M118 -16q-26 0 -43 17t-18 44t17 44t44 17t42 -17t16 -44t-16 -44t-42 -17zM415 -16q-26 0 -43 17t-18 44q0 27 18 44t43 17q26 0 43 -17t17 -44t-17 -44t-43 -17zM712 -16q-26 0 -43 17t-18 44t17 44t44 17t43 -17t17 -44t-17 -44t-43 -17z" />
    <glyph glyph-name="perthousand" unicode="&#x2030;" horiz-adv-x="1642" 
d="M1378 457q94 -1 146 -57t51 -150q0 -94 -72 -178q-72 -82 -166 -82t-145 56t-51 150t71 178q72 83 166 83zM1340 31q72 -1 128 69t56 150t-38 122q-38 44 -110 44t-128 -71t-56 -149t38 -122q38 -43 110 -43zM881 457q94 -1 145 -57t51 -150t-72 -178q-72 -82 -166 -82
t-145 56t-51 152t72 177q72 82 166 82zM842 31q72 1 128 71t56 148t-38 122t-110 44t-128 -70t-56 -150t38 -122q38 -43 110 -43zM349 563q-95 1 -145 57t-50 150t72 178q72 82 166 82q92 0 144 -56t52 -152t-72 -177q-72 -82 -167 -82zM354 602q72 0 127 71t55 151t-37 122
q-38 42 -110 43q-72 -1 -128 -71t-56 -150t38 -123q39 -43 111 -43zM102 -41l-28 29l510 516l510 522l28 -29z" />
    <glyph glyph-name="guilsinglleft" unicode="&#x2039;" horiz-adv-x="534" 
d="M354 231l-268 320l422 317l27 -30l-385 -293l237 -289z" />
    <glyph glyph-name="guilsinglright" unicode="&#x203a;" horiz-adv-x="530" 
d="M80 231l-29 31l387 291l-237 289l32 26l269 -319z" />
    <glyph glyph-name="fraction" unicode="&#x2044;" horiz-adv-x="974" 
d="M-47 -14l-27 22l549 656q211 248 547 653l27 -23l-549 -653q-414 -491 -547 -655z" />
    <glyph glyph-name="zero.sup" unicode="&#x2070;" horiz-adv-x="722" 
d="M500 909q118 -1 198 137t80 312q0 108 -45 174t-129 65q-120 0 -198 -136t-78 -310q0 -111 44 -177t128 -65zM498 872q-100 0 -158 75q-57 75 -57 200q0 197 91 343t234 146q100 0 158 -75q57 -76 57 -201q0 -196 -93 -342t-232 -146z" />
    <glyph glyph-name="four.sup" unicode="&#x2074;" horiz-adv-x="722" 
d="M567 915l47 197h-362l-6 21l504 503l26 -24l-467 -465h314l49 205l45 18l-53 -221h141l-8 -37h-142l-45 -197h115l-8 -34h-295l8 34h137z" />
    <glyph glyph-name="five.sup" unicode="&#x2075;" horiz-adv-x="722" 
d="M731 1127q0 167 -185 167q-91 0 -173 -37l-23 17l115 346h379l-8 -41h-344l-95 -279q84 31 173 31q88 0 146 -52q58 -53 58 -151t-90 -179t-223 -81q-82 0 -144 41q-61 41 -61 90t39 50q14 -1 24 -11q11 -10 11 -28t-23 -29q13 -31 57 -53t101 -23q113 0 189 70t77 152z
" />
    <glyph glyph-name="six.sup" unicode="&#x2076;" horiz-adv-x="722" 
d="M521 909q85 0 153 69t68 150q0 82 -48 126q-47 44 -131 44q-85 0 -155 -68t-70 -146q0 -77 49 -126t134 -49zM671 1597q-95 0 -182 -81q-59 -58 -100 -152t-53 -184q32 70 98 112t151 41q85 0 143 -54t58 -150t-81 -178q-83 -81 -185 -81t-166 62t-64 176t47 236
q46 122 134 206t197 84q76 0 123 -37t47 -71q0 -61 -41 -64q-35 0 -35 35q-1 27 24 41q-20 59 -115 59z" />
    <glyph glyph-name="seven.sup" unicode="&#x2077;" horiz-adv-x="722" 
d="M362 881l480 704h-402l-30 -135h-41l39 172h481l10 -20l-487 -721h-50z" />
    <glyph glyph-name="eight.sup" unicode="&#x2078;" horiz-adv-x="722" 
d="M313 1074q1 -73 57 -119t145 -46q89 -1 157 51t68 126t-58 119q-57 46 -147 46t-156 -52t-66 -125zM412 1437q0 -65 54 -109t133 -44t141 49t62 113t-50 108q-52 43 -136 43t-144 -47t-60 -113zM782 1087q0 -91 -78 -153t-186 -62q-110 0 -180 56t-70 140q0 83 69 143
t159 65q-55 20 -93 63q-37 43 -36 99q0 80 73 138q74 58 176 58t168 -52q64 -52 64 -128t-58 -127t-147 -65q61 -20 100 -66t39 -109z" />
    <glyph glyph-name="nine.sup" unicode="&#x2079;" horiz-adv-x="722" 
d="M605 1595q-85 -1 -153 -69t-67 -149q0 -81 47 -126t131 -45t155 69q70 69 70 146t-49 125t-134 49zM542 1171q-84 1 -144 55q-58 54 -58 149t82 177t184 82t166 -62t64 -176t-46 -236t-134 -206t-180 -84t-140 37q-47 37 -47 72q0 63 41 63q35 0 35 -34q0 -27 -25 -41
q20 -59 116 -59t181 81q59 59 100 153t54 183q-33 -70 -99 -112t-150 -42z" />
    <glyph glyph-name="zero.inf" unicode="&#x2080;" horiz-adv-x="722" 
d="M231 -258q119 0 199 137t80 311q0 109 -45 175t-129 65q-119 0 -198 -136t-79 -310q0 -110 44 -176t128 -66zM229 -295q-100 0 -157 75t-58 200q0 197 91 343t235 146q100 0 158 -76t57 -200q1 -195 -93 -341t-233 -147z" />
    <glyph glyph-name="one.inf" unicode="&#x2081;" horiz-adv-x="722" 
d="M-2 -287l8 39h211l156 664l-228 -64v39l258 74l21 -10l-164 -703h205l-8 -39h-459z" />
    <glyph glyph-name="two.inf" unicode="&#x2082;" horiz-adv-x="722" 
d="M524 290q0 62 -47 100t-125 38t-134 -35t-66 -78q29 -6 28 -34q0 -39 -38 -39t-38 56t73 112t173 57q100 0 160 -48t59 -125q0 -77 -59 -132q-58 -54 -156 -108t-148 -87t-106 -91t-82 -126h400l37 154h39l-43 -191h-480l-8 21q45 116 131 192t221 150q100 51 155 101
q54 51 54 113z" />
    <glyph glyph-name="three.inf" unicode="&#x2083;" horiz-adv-x="722" 
d="M245 -258q86 0 149 52q62 52 62 123t-54 117q-56 46 -138 46h-41l8 37h37q106 0 176 51q70 52 70 118t-50 104t-124 38t-120 -25t-56 -59q31 -6 31 -35q0 -35 -39 -35t-39 54t62 96q61 43 159 43t160 -50t61 -125q0 -75 -61 -129t-156 -67q72 -14 116 -61t44 -113
q0 -94 -78 -155t-184 -61t-174 47t-68 107t43 60q37 0 37 -35t-37 -41q12 -42 65 -72t139 -30z" />
    <glyph glyph-name="four.inf" unicode="&#x2084;" horiz-adv-x="722" 
d="M299 -252l47 197h-362l-7 20l504 504l27 -25l-467 -464h313l49 204l46 19l-54 -221h142l-9 -37h-141l-45 -197h115l-8 -35h-295l8 35h137z" />
    <glyph glyph-name="five.inf" unicode="&#x2085;" horiz-adv-x="722" 
d="M463 -41q0 168 -185 168q-91 0 -174 -37l-22 16l115 347h378l-8 -41h-344l-94 -279q84 31 173 31q88 0 146 -52t58 -151t-90 -179t-223 -81q-82 0 -144 41q-61 41 -61 90t39 49q14 0 24 -10q11 -11 11 -29t-23 -28q14 -31 57 -54t101 -22q113 0 189 70t77 151z" />
    <glyph glyph-name="six.inf" unicode="&#x2086;" horiz-adv-x="722" 
d="M253 -258q85 0 153 69t68 149t-48 126q-47 45 -131 45t-155 -69q-70 -70 -70 -146t49 -125t134 -49zM402 430q-96 0 -181 -82q-59 -59 -100 -152t-53 -184q33 70 98 112q66 42 150 42t144 -54q58 -54 58 -150t-81 -178q-81 -81 -184 -81t-167 62t-64 176t47 236
q46 122 134 206t196 84q76 0 123 -37t47 -72q0 -63 -41 -63q-35 0 -34 35q-1 27 24 41q-20 59 -116 59z" />
    <glyph glyph-name="seven.inf" unicode="&#x2087;" horiz-adv-x="722" 
d="M94 -287l479 705h-401l-31 -135h-41l39 172h482l10 -21l-488 -721h-49z" />
    <glyph glyph-name="eight.inf" unicode="&#x2088;" horiz-adv-x="722" 
d="M266 84q-90 0 -156 -52t-65 -125t57 -119t145 -46t157 51t67 125q0 74 -57 120q-58 46 -148 46zM331 117q79 0 141 49q62 50 62 114t-50 107q-52 43 -136 43t-144 -47t-60 -113t54 -110q54 -43 133 -43zM514 -80q0 -92 -78 -154t-186 -61q-110 0 -180 56q-70 55 -70 139
t69 144t158 65q-55 20 -92 63q-37 42 -37 110t74 126t176 59q102 0 167 -52t65 -128t-58 -127t-147 -66q61 -20 100 -66t39 -108z" />
    <glyph glyph-name="nine.inf" unicode="&#x2089;" horiz-adv-x="722" 
d="M337 428q-85 0 -153 -69t-68 -149t48 -126q47 -45 131 -45t155 69q70 70 70 146t-49 125t-134 49zM187 -260q95 0 182 82q59 59 100 152t53 184q-32 -70 -98 -112t-150 -42t-144 54q-58 54 -58 150t81 177q81 82 184 82t167 -62t64 -176t-47 -236q-46 -122 -134 -206
t-197 -84q-76 0 -122 37t-48 72q0 35 12 49t29 14q35 0 35 -35q1 -27 -24 -41q20 -59 115 -59z" />
    <glyph glyph-name="Euro" unicode="&#x20ac;" horiz-adv-x="1097" 
d="M188 401v13q0 102 31 196h-139l8 41h148q66 164 199 271q133 106 291 106t254 -79t97 -179q0 -33 -16 -51t-39 -19q-47 0 -47 48t47 61q-12 72 -92 125t-211 53t-253 -94t-181 -242h434l-10 -41h-441q-31 -94 -30 -194v-15h438l-10 -43h-424q16 -150 115 -238t262 -87
q163 0 311 123l24 -33q-162 -131 -342 -131t-293 99t-129 267h-155l10 43h143z" />
    <glyph glyph-name="published" unicode="&#x2117;" horiz-adv-x="1216" 
d="M825 608q0 64 -45 100t-112 35h-90v-270l92 -2q72 0 114 37t41 100zM578 268h79v-32h-194v32h78v475h-78v33h203q86 0 141 -46t55 -122t-53 -123t-141 -47l-90 2v-172zM629 14q207 0 345 146t138 353q0 206 -138 352q-138 147 -344 147t-344 -146t-138 -354
q0 -206 136 -352q138 -146 345 -146zM630 -18q-222 0 -370 153q-147 154 -147 377t147 378q148 154 370 154t369 -154t147 -376q0 -224 -146 -378q-148 -154 -370 -154z" />
    <glyph glyph-name="servicemark" unicode="&#x2120;" horiz-adv-x="1105" 
d="M530 846l9 31h75l123 440h-82l7 31h118l86 -377l256 377h123l-6 -31h-80l-84 -440h80l-6 -31h-186l6 31h73l78 413l-258 -375h-14l-88 373l-111 -411h74l-8 -31h-185zM492 979q0 -65 -46 -104t-117 -39t-116 34t-45 74q0 41 33 41t32 -29q0 -23 -22 -34q33 -55 125 -56
q49 0 85 30t36 79t-92 108q-57 37 -86 68t-29 80t43 87t105 38t104 -28t41 -68q1 -18 -11 -28t-24 -11q-29 -1 -29 25t23 34q-34 47 -92 47t-91 -28q-33 -29 -33 -67t22 -62t73 -54q111 -72 111 -137z" />
    <glyph glyph-name="trademark" unicode="&#x2122;" horiz-adv-x="1177" 
d="M221 846l8 31h80l103 442h-156l-23 -96h-34l30 125h414l-29 -125h-32l20 96h-153l-103 -442h80l-6 -31h-199zM602 846l6 31h78l121 440h-80l6 31h117l88 -377l256 377h123l-8 -31h-78l-84 -440h80l-6 -31h-187l6 31h74l78 413l-258 -375h-14l-91 373l-108 -411h72l-7 -31
h-184z" />
    <glyph glyph-name="onethird" unicode="&#x2153;" horiz-adv-x="1628" 
d="M313 -14l-26 22l549 656q211 248 546 653l27 -23l-549 -653q-414 -491 -547 -655zM178 573l8 39h211l156 664l-227 -64v39l258 74l20 -10l-164 -703h205l-8 -39h-459zM1206 367h-41l9 36h36q106 -1 176 51t70 118t-50 104t-124 39q-74 0 -120 -25t-56 -59q31 -6 31 -35
q0 -35 -39 -35t-39 53q0 52 62 96q61 44 159 44t160 -50t61 -126q0 -74 -61 -128t-156 -67q72 -14 116 -61t44 -127q0 -79 -78 -141t-183 -62t-174 48t-69 108t43 59q37 0 37 -35t-37 -41q11 -41 65 -72t140 -31t148 53q62 52 62 123t-54 117q-56 46 -138 46z" />
    <glyph glyph-name="twothirds" unicode="&#x2154;" horiz-adv-x="1628" 
d="M338 -14l-27 22l549 656q211 248 547 653l27 -23l-549 -653q-414 -491 -547 -655zM1409 204q0 71 -55 117t-137 46h-41l8 36h37q106 -1 176 51q69 52 69 118t-50 104t-124 39q-74 0 -120 -25t-56 -59q31 -6 31 -35q0 -35 -39 -35t-39 53q1 52 63 96t159 44t159 -50
t61 -126q0 -74 -61 -128t-156 -67q72 -14 116 -61t44 -127q0 -79 -78 -141t-183 -62t-174 48t-69 108t43 59q37 0 37 -35t-37 -41q11 -41 65 -72t140 -31t149 53q62 52 62 123zM721 1150q0 62 -47 100t-125 38t-134 -35t-67 -77q29 -6 29 -35q0 -39 -38 -39t-38 56t73 112
t173 57q99 0 159 -48t60 -125t-59 -132q-59 -54 -157 -108t-148 -87t-105 -91t-82 -126h399l37 154h39l-43 -191h-479l-8 21q45 116 131 192t221 150q100 51 155 101q54 51 54 113z" />
    <glyph glyph-name="onefifth" unicode="&#x2155;" horiz-adv-x="1628" 
d="M309 -14l-26 22l548 656q211 248 547 653l27 -23l-549 -653q-414 -491 -547 -655zM166 573l8 39h211l156 664l-228 -64v39l258 74l21 -10l-164 -703h205l-8 -39h-459zM1395 246q0 168 -185 168q-91 0 -174 -37l-22 16l114 346h379l-8 -41h-344l-94 -278q84 31 173 31
q89 -1 146 -53q58 -52 58 -150t-90 -180q-90 -80 -224 -80q-82 0 -143 41t-61 90t38 49q14 0 24 -10t12 -29q0 -19 -23 -29q14 -32 57 -54t100 -21q113 -1 190 69t77 152z" />
    <glyph glyph-name="twofifths" unicode="&#x2156;" horiz-adv-x="1628" 
d="M354 -14l-26 22l549 656q211 248 546 653l27 -23l-549 -653q-414 -491 -547 -655zM1415 246q0 168 -185 168q-91 0 -173 -37l-23 16l115 346h379l-8 -41h-344l-95 -278q84 31 173 31q88 -1 146 -53t58 -150t-90 -180q-90 -80 -223 -80q-82 0 -144 41q-61 41 -61 90t39 49
q15 0 25 -10t10 -29t-23 -29q13 -32 57 -54t101 -21q113 -1 189 69t77 152zM576 1288q-78 0 -134 -35t-67 -77q29 -6 28 -35q1 -39 -37 -39t-38 56t72 113q74 56 174 56t159 -48t59 -125t-58 -132q-60 -54 -158 -108t-147 -87q-50 -33 -105 -91t-82 -126h399l37 154h39
l-43 -191h-479l-9 21q45 116 131 192t204 138t172 113q55 51 55 113t-48 100q-46 38 -124 38z" />
    <glyph glyph-name="threefifths" unicode="&#x2157;" horiz-adv-x="1628" 
d="M322 -14l-27 22l549 656q211 248 547 653l26 -23l-549 -653q-413 -491 -546 -655zM1409 246q0 168 -185 168q-91 0 -173 -37l-23 16l115 346h379l-9 -41h-344l-94 -278q84 31 173 31q88 -1 146 -53t58 -150t-90 -180q-90 -80 -223 -80q-82 0 -144 41q-61 41 -61 90t39 49
q33 0 35 -39q0 -19 -23 -29q14 -32 57 -54t101 -21q113 -1 189 69t77 152zM454 602q86 0 149 52t63 123t-56 117t-137 46h-41l8 37h37q106 0 176 51q70 52 70 118t-50 104t-124 38t-120 -24t-56 -60q31 -6 30 -35q0 -35 -36 -34q-41 0 -41 53t62 96t160 43t158 -50
q62 -50 62 -125t-61 -129t-156 -67q72 -14 116 -61t44 -113q0 -94 -78 -155q-77 -61 -183 -61t-175 47t-69 107t44 60q37 0 37 -34t-37 -41q12 -41 65 -72t139 -31z" />
    <glyph glyph-name="fourfifths" unicode="&#x2158;" horiz-adv-x="1628" 
d="M340 -14l-27 22l549 656q211 248 547 653l27 -23l-549 -653q-414 -491 -547 -655zM506 608l47 197h-363l-6 20l504 504l27 -24l-467 -465h313l49 204l45 19l-53 -221h141l-8 -37h-141l-45 -197h115l-9 -35h-295l9 35h137zM1430 246q0 82 -48 125t-138 43q-91 0 -173 -37
l-22 16l114 346h379l-8 -41h-344l-94 -278q84 31 173 31q89 -1 146 -53t57 -150t-90 -180q-90 -80 -223 -80q-82 0 -143 41q-62 41 -62 90t39 49q15 0 25 -10t10 -29t-22 -29q14 -32 57 -54t100 -21q113 -1 190 69t77 152z" />
    <glyph glyph-name="onesixth" unicode="&#x2159;" horiz-adv-x="1628" 
d="M305 -14l-26 22l548 656q211 248 547 653l27 -23l-549 -653q-414 -491 -547 -655zM166 573l8 39h211l156 664l-228 -64v39l258 74l21 -10l-164 -703h205l-8 -39h-459zM1164 29q85 1 153 69q67 68 67 149t-47 126t-131 45t-154 -69t-71 -145q0 -76 49 -126q49 -49 134 -49
zM1228 453q85 -1 143 -55q59 -54 59 -150t-82 -177t-184 -81t-167 62q-63 62 -63 176t46 236t134 206t197 84q76 0 123 -37t47 -72q0 -63 -41 -63q-35 0 -35 34q0 27 25 41q-20 59 -116 59t-181 -81q-59 -59 -101 -153t-53 -183q33 70 98 112q66 42 151 42z" />
    <glyph glyph-name="fivesixths" unicode="&#x215a;" horiz-adv-x="1628" 
d="M324 -14l-27 22l549 656q211 248 547 653l26 -23l-549 -653q-413 -491 -546 -655zM406 598q114 0 190 70t76 152t-47 124q-47 43 -138 43t-174 -37l-22 17l115 346h378l-8 -41h-344l-94 -279q84 31 173 31t146 -52t57 -150t-89 -180q-90 -81 -224 -81q-82 0 -143 41
t-61 90t39 49q14 0 24 -10q10 -11 10 -29t-22 -28q14 -32 57 -54t101 -22zM997 204q-1 -76 49 -126q50 -49 135 -49q85 1 153 69t67 149q0 81 -47 126t-131 45t-155 -69t-71 -145zM1244 453q84 -1 144 -55q58 -54 58 -150t-82 -177t-184 -81t-166 62t-64 176t46 236t134 206
t197 84q76 0 123 -37t47 -72q0 -63 -41 -63q-35 0 -35 34q0 27 25 41q-20 59 -116 59t-181 -81q-59 -59 -100 -153t-54 -183q33 70 99 112t150 42z" />
    <glyph glyph-name="oneeighth" unicode="&#x215b;" horiz-adv-x="1628" 
d="M315 -14l-26 22l549 656q211 248 546 653l27 -23l-549 -653q-414 -491 -547 -655zM182 573l8 39h211l156 664l-227 -64v39l258 74l20 -10l-164 -703h205l-8 -39h-459zM1262 403q80 -1 142 49t62 114t-51 108t-135 43q-84 0 -144 -47q-60 -48 -60 -114t53 -110
q54 -44 133 -43zM1198 371q-90 -1 -156 -53t-66 -124t58 -119q56 -46 145 -46t157 51t67 125q0 74 -57 120q-58 46 -148 46zM1446 207q0 -91 -78 -153t-186 -62q-110 0 -181 56q-69 56 -69 139t68 144q69 60 159 64q-55 19 -92 63t-37 112t74 125q74 59 176 59t167 -52
t65 -129q0 -76 -59 -127q-58 -51 -146 -65q61 -21 100 -67t39 -107z" />
    <glyph glyph-name="threeeighths" unicode="&#x215c;" horiz-adv-x="1628" 
d="M315 -14l-26 22l549 656q211 248 546 653l27 -23l-549 -653q-414 -491 -547 -655zM440 602q86 0 149 52q62 52 62 123t-55 117t-137 46h-41l8 37h37q106 0 176 51q70 52 70 118q-1 66 -51 104t-124 38t-120 -24t-56 -60q31 -6 31 -35q0 -35 -37 -34q-41 0 -41 53
q1 53 63 96t159 43t159 -50t62 -125t-62 -129t-155 -67q71 -14 115 -61t44 -113q0 -94 -78 -155t-183 -61t-174 47t-69 107t44 60q37 0 36 -37q1 -32 -36 -38q12 -41 65 -72t139 -31zM1275 403q79 -1 141 49t62 114t-50 108q-52 44 -136 43q-84 0 -144 -47q-60 -48 -60 -114
t54 -110t133 -43zM1210 371q-90 -1 -156 -53t-65 -124t57 -119q56 -46 145 -46t157 51t68 125t-58 120t-148 46zM1458 207q0 -91 -78 -153t-186 -62q-110 0 -180 56t-70 139t69 143t158 65q-55 19 -92 63t-37 112t74 125q74 59 176 59t167 -52t65 -129q0 -76 -58 -127
t-147 -65q61 -21 100 -67t39 -107z" />
    <glyph glyph-name="fiveeighths" unicode="&#x215d;" horiz-adv-x="1628" 
d="M301 -14l-27 22l549 656q211 248 547 653l27 -23l-549 -653q-414 -491 -547 -655zM391 598q113 0 190 70t77 152t-48 124q-47 43 -138 43t-173 -37l-23 17l115 346h379l-8 -41h-344l-94 -279q84 31 172 31t146 -52t58 -150t-90 -180q-90 -81 -223 -81q-82 0 -143 41
q-62 41 -62 90t39 49q15 0 25 -10q10 -11 10 -29t-23 -28q13 -32 57 -54t101 -22zM1260 403q80 -1 142 49t62 114t-51 108t-135 43q-84 0 -144 -47q-60 -48 -60 -114t53 -110q54 -44 133 -43zM1177 29q89 0 157 51t67 125q1 74 -57 120t-148 46q-90 -1 -156 -53t-66 -124
t58 -119q56 -46 145 -46zM1444 207q0 -91 -78 -153t-186 -62q-110 0 -181 56q-69 56 -69 139t68 144q69 60 159 64q-55 19 -92 63t-37 112t74 125q74 59 176 59t167 -52t65 -129q0 -76 -59 -127q-58 -51 -146 -65q61 -21 100 -67t39 -107z" />
    <glyph glyph-name="seveneighths" unicode="&#x215e;" horiz-adv-x="1628" 
d="M242 -14l-27 22l549 656q211 248 547 653l26 -23l-549 -653q-413 -491 -546 -655zM313 573l480 705h-402l-31 -135h-41l39 172h482l10 -21l-488 -721h-49zM1258 403q80 -1 142 49t62 114t-51 108t-135 43q-84 0 -144 -47q-60 -48 -60 -114t53 -110q54 -44 133 -43z
M1174 29q89 0 157 51t68 125q1 74 -57 120t-148 46q-90 -1 -156 -53t-66 -124t57 -119q56 -46 145 -46zM1442 207q0 -91 -78 -153t-186 -62q-110 0 -181 56q-69 56 -69 139t68 144q69 60 159 64q-55 19 -92 63t-37 112t74 125q74 59 176 59t167 -52t65 -129q0 -76 -59 -127
q-58 -51 -146 -65q61 -21 100 -67t39 -107z" />
    <glyph glyph-name="minus" unicode="&#x2212;" horiz-adv-x="788" 
d="M117 514l10 47h598l-10 -47h-598z" />
    <glyph glyph-name="Q.alt" horiz-adv-x="1472" 
d="M702 27q121 0 236 51l-115 319l45 17l113 -316q178 96 288 291q109 195 109 414t-129 369t-362 149q-279 0 -477 -237t-199 -537q0 -221 129 -371t362 -149zM698 -18q-248 0 -394 162t-146 382t91 407t263 310t379 123q248 0 394 -162q147 -162 147 -395t-120 -442
t-317 -312l97 -262l-45 -16l-93 258q-119 -53 -256 -53z" />
    <glyph glyph-name="zero.lin" horiz-adv-x="1212" 
d="M554 29q165 0 296 121q131 122 202 314q70 192 70 402t-93 333q-93 122 -258 122t-296 -121q-131 -122 -201 -314t-70 -403t93 -333q92 -122 257 -121zM549 -16q-182 0 -291 133t-108 360q0 357 179 623t441 266q190 0 298 -133t108 -363t-79 -433q-79 -205 -223 -329
t-325 -124z" />
    <glyph glyph-name="one.lin" horiz-adv-x="780" 
d="M18 0l11 45h270l289 1253l-318 -96v51l369 115l14 -12l-301 -1311h271l-11 -45h-594z" />
    <glyph glyph-name="two.lin" horiz-adv-x="1036" 
d="M330 987q-58 0 -60 72q0 107 129 207t295 100t262 -88t96 -222t-96 -236q-98 -102 -248 -186q-150 -86 -216 -130q-210 -136 -311 -273q-60 -84 -97 -186h717l67 295h50l-78 -340h-805l-10 27q112 313 473 537q58 36 162 96t172 111q68 50 117 125q50 76 50 176
q1 100 -81 174t-216 75q-134 0 -240 -68t-132 -151q23 -4 38 -22t15 -40q0 -23 -15 -38t-38 -15z" />
    <glyph glyph-name="three.lin" horiz-adv-x="1009" 
d="M432 -18q-150 0 -266 78t-117 186q0 80 60 80q20 0 34 -14q15 -14 15 -37q0 -21 -16 -37t-40 -19q6 -72 106 -131t226 -59q182 0 295 100q113 99 113 239t-104 225t-273 85h-45l10 45h45q221 0 349 93t128 237q0 109 -82 189t-212 79q-130 0 -208 -42t-108 -108
q49 -12 49 -59q0 -20 -14 -34t-38 -15q-24 0 -40 17t-16 48q0 92 110 165q111 73 265 73t250 -89q98 -89 98 -229t-114 -236t-294 -118q137 -26 217 -112t80 -213q0 -159 -129 -273t-334 -114z" />
    <glyph glyph-name="four.lin" horiz-adv-x="1091" 
d="M868 891l-100 -418h254l-10 -45h-256l-92 -383h210l-10 -45h-514l10 45h252l90 383h-634l-7 18l914 922l33 -33l-863 -862h568l96 397z" />
    <glyph glyph-name="five.lin" horiz-adv-x="1032" 
d="M408 -18q-137 0 -240 67q-102 68 -102 154q0 29 14 48t38 19t39 -14t15 -35q0 -45 -43 -57q18 -53 98 -94t185 -41q190 0 314 135q124 134 124 294q0 310 -320 310q-135 0 -268 -57l-20 18l200 619h596l-12 -54h-551l-172 -522q106 41 255 41t248 -89t99 -263
q0 -175 -139 -327t-358 -152z" />
    <glyph glyph-name="six.lin" horiz-adv-x="1081" 
d="M603 762q-161 0 -281 -124t-121 -274q1 -150 97 -243q96 -92 252 -92t272 129q118 129 118 305q0 135 -88 217t-249 82zM801 1323q-170 0 -328 -158q-111 -111 -181 -281t-91 -356q53 123 164 202t265 79t259 -99q104 -99 104 -251q0 -189 -134 -333t-311 -144t-290 108
q-113 116 -113 320t79 428t216 362q166 166 361 166q119 0 201 -63t83 -142q0 -33 -17 -53q-18 -20 -40 -20t-36 14t-15 35q0 42 47 65q-10 43 -77 82t-146 39z" />
    <glyph glyph-name="seven.lin" horiz-adv-x="995" 
d="M168 0l881 1303h-701l-57 -248h-49l67 293h789l14 -27l-887 -1321h-57z" />
    <glyph glyph-name="eight.lin" horiz-adv-x="1067" 
d="M531 27q153 0 265 98q112 99 112 243t-98 228q-97 84 -262 84t-275 -106q-109 -106 -109 -245q0 -140 107 -221t260 -81zM324 1006q0 -128 88 -206t238 -79q150 0 256 92t106 224t-91 209t-241 77t-253 -94q-103 -95 -103 -223zM530 -18q-178 0 -299 93t-121 245t105 263
q104 110 270 128q-98 35 -156 111t-59 177q0 157 120 263t291 106t279 -90t107 -229q0 -139 -96 -237t-258 -120q119 -37 183 -120t65 -193q0 -172 -126 -285q-127 -112 -305 -112z" />
    <glyph glyph-name="nine.lin" horiz-adv-x="1081" 
d="M597 586q161 0 281 124t119 274q0 150 -95 244q-94 94 -250 93q-156 0 -275 -130t-119 -306q0 -135 89 -217t250 -82zM397 27q172 0 328 155q219 223 272 633q-55 -121 -165 -198t-264 -77t-259 99q-104 98 -104 252q0 191 134 333q133 142 315 142t290 -113t109 -317
q0 -204 -78 -426q-78 -221 -215 -360q-168 -168 -363 -168q-117 0 -199 63t-83 141q0 34 17 54q18 20 40 20t36 -14t15 -35q0 -43 -49 -66q12 -43 78 -81t145 -37z" />
    <glyph glyph-name="bullet.alt" horiz-adv-x="1241" 
d="M623 -98q-217 0 -371 154t-154 370q0 217 154 371q154 153 371 153t371 -154t153 -370q1 -216 -153 -370t-371 -154z" />
    <glyph glyph-name="hyphen.lin" horiz-adv-x="458" 
d="M115 651l10 49h307l-10 -49h-307z" />
    <glyph glyph-name="endash.lin" horiz-adv-x="755" 
d="M78 651l10 49h678l-10 -49h-678z" />
    <glyph glyph-name="emdash.lin" horiz-adv-x="1193" 
d="M78 651l10 49h1114l-8 -49h-1116z" />
    <glyph glyph-name="parenleft.lin" horiz-adv-x="622" 
d="M168 502q0 362 196 672t523 483l24 -37q-319 -168 -505 -467t-187 -651q0 -477 371 -797l-29 -33q-393 334 -393 830z" />
    <glyph glyph-name="parenright.lin" horiz-adv-x="622" 
d="M508 829q0 479 -369 795l29 35q393 -334 393 -830q1 -363 -195 -673t-524 -482l-26 37q319 168 506 467q186 299 186 651z" />
    <glyph glyph-name="bracketleft.lin" horiz-adv-x="641" 
d="M70 -287l444 1909h389l-10 -45h-340l-418 -1819h338l-10 -45h-393z" />
    <glyph glyph-name="bracketright.lin" horiz-adv-x="641" 
d="M-147 -287l10 45h338l420 1819h-338l10 45h391l-442 -1909h-389z" />
    <glyph glyph-name="braceleft.lin" horiz-adv-x="575" 
d="M96 -8q0 140 154 280t153 234q0 57 -48 99t-148 42h-72l15 53h77q123 0 188 52t65 133q0 82 -63 215q-62 133 -63 225q0 137 119 228t324 96l-11 -41q-178 -4 -280 -84t-102 -186t62 -236q62 -129 62 -219t-64 -147q-65 -56 -173 -66q74 -12 118 -56t44 -108
q0 -111 -154 -252t-154 -262q-1 -90 57 -159t167 -101l-11 -41q-122 31 -192 111t-70 190z" />
    <glyph glyph-name="braceright.lin" horiz-adv-x="575" 
d="M160 457q0 90 64 146q65 56 173 67q-71 12 -115 56t-44 108q0 114 154 254t153 260q-1 90 -59 158t-167 102l11 41q122 -31 192 -112t70 -189q0 -141 -162 -287q-70 -66 -106 -118t-37 -109q0 -58 47 -100t147 -42h72l-12 -53h-78q-125 0 -190 -51t-65 -133t63 -213
q62 -131 63 -228q0 -137 -118 -228t-322 -95l8 41q178 4 281 84t103 184t-62 236q-64 132 -64 221z" />
    <glyph glyph-name="registered.alt" horiz-adv-x="1216" 
d="M528 516h76q70 0 114 33t44 90t-42 89t-110 32h-82v-244zM412 254v33h77v473h-77v33h202q84 0 134 -42t51 -110q0 -117 -125 -147l129 -207h69v-33h-94l-141 229h-109v-196h76v-33h-192zM629 14q207 0 345 146t138 353q0 206 -138 352q-138 147 -344 147t-344 -146
t-138 -354q0 -206 136 -352q138 -146 345 -146zM630 -18q-222 0 -370 153q-147 154 -147 377t147 378q148 154 370 154t369 -154t147 -376q0 -224 -146 -378q-148 -154 -370 -154z" />
    <glyph glyph-name="copyright.lin" horiz-adv-x="1619" 
d="M890 338q-144 0 -238 101q-93 101 -93 246t97 246t235 101q100 0 173 -52t73 -108t-43 -57q-16 0 -27 10q-10 10 -10 27q0 31 35 39q-12 39 -68 72t-133 32q-125 0 -208 -92t-83 -219t83 -218t210 -91t223 90l21 -29q-103 -98 -247 -98zM240 674q0 -280 180 -468
t449 -188t449 188t179 468q0 279 -180 467q-179 188 -449 188t-449 -188t-179 -467zM867 -16q-286 0 -477 200t-191 490q1 290 193 490t478 200t476 -200q192 -200 192 -490t-192 -491q-193 -199 -479 -199z" />
    <glyph glyph-name="published.lin" horiz-adv-x="1619" 
d="M912 633q91 0 145 47q53 47 53 125t-57 125t-148 47h-110v-342q26 -2 117 -2zM795 373h98v-35h-231v35h94v604h-94v35h241q109 0 177 -56t69 -151q0 -93 -66 -151t-174 -58l-114 2v-225zM240 674q0 -280 180 -468t449 -188t449 188t179 468q0 279 -180 467
q-179 188 -449 188t-449 -188t-179 -467zM867 -16q-286 0 -477 200t-191 490q1 290 193 490t478 200t476 -200q192 -200 192 -490t-192 -491q-193 -199 -479 -199z" />
    <glyph glyph-name="registered.lin" horiz-adv-x="1619" 
d="M754 676h110q86 0 141 41q54 41 54 116t-52 115t-141 41h-112v-313zM621 350v35h94v604h-94v35h249q102 0 166 -53t64 -131t-46 -127t-120 -64l172 -264h84v-35h-111l-186 289h-139v-254h94v-35h-227zM240 674q0 -280 180 -468t449 -188t449 188t179 468q0 279 -180 467
q-179 188 -449 188t-449 -188t-179 -467zM867 -16q-286 0 -477 200t-191 490q1 290 193 490t478 200t476 -200q192 -200 192 -490t-192 -491q-193 -199 -479 -199z" />
    <glyph glyph-name="dollar.lin" horiz-adv-x="1044" 
d="M313 1026q0 -100 67 -168t191 -135l177 569q-35 8 -86 8q-143 0 -246 -72t-103 -202zM498 47q164 0 268 79t104 201t-80 193t-196 135l-186 -602q43 -6 90 -6zM53 268q-1 31 15 50q16 20 42 20t40 -15t14 -48t-43 -54q18 -47 86 -91t160 -67l190 615q-222 118 -270 230
q-23 52 -23 114q0 150 117 236t283 88q45 0 96 -11l61 193l39 -15l-57 -186q106 -31 177 -95t71 -132t-58 -68q-23 0 -39 16t-16 39q0 41 47 62q-43 94 -197 135l-180 -582q234 -123 287 -238q25 -54 25 -122q0 -156 -116 -248t-308 -92q-37 0 -103 8l-65 -215l-41 12
l65 211q-129 33 -214 107t-85 143z" />
    <glyph glyph-name="sterling.lin" horiz-adv-x="1071" 
d="M682 27q127 0 242 94l26 -35q-128 -104 -250 -104t-270 52t-242 50q-66 -82 -121 -82t-55 39q0 33 49 61t119 27q211 188 219 422h-219l10 45h209q-2 48 -13 154t-11 165q0 185 103 317t298 132q123 0 204 -67t81 -143t-57 -75q-23 -1 -39 15q-17 16 -17 50t49 52
q-16 49 -75 86t-150 37q-168 0 -256 -117t-88 -287q0 -57 11 -165t14 -154h364l-8 -45h-356q-8 -242 -226 -424q103 -10 235 -55t220 -45z" />
    <glyph glyph-name="Euro.lin" horiz-adv-x="1327" 
d="M754 29q229 0 409 186l33 -35q-201 -197 -444 -196q-211 0 -338 135t-131 362h-207l10 45h197q2 133 41 269h-174l10 45h178q76 229 233 375q158 146 371 147q160 0 272 -99t113 -212q0 -33 -18 -55t-43 -21q-53 0 -54 53q0 53 56 68q-12 82 -108 152t-222 69
q-195 0 -336 -133t-211 -344h580l-10 -45h-584q-39 -135 -41 -269h561l-8 -45h-553q4 -203 117 -327t301 -125z" />
    <glyph glyph-name="yen.lin" horiz-adv-x="1288" 
d="M268 561l11 41h344l-258 701h-142l10 45h388l-11 -45h-190l244 -689l581 689h-188l10 45h387l-10 -45h-137l-605 -701h340l-8 -41h-358l-49 -192h360l-8 -43h-363l-69 -281h219l-8 -45h-486l11 45h217l69 281h-356l8 43h359l47 192h-359z" />
    <glyph glyph-name="cent.lin" horiz-adv-x="921" 
d="M215 621q0 -231 180 -299l226 768q-160 6 -283 -134t-123 -335zM506 262q-47 0 -82 8l-90 -307l-41 12l90 308q-100 33 -160 119q-59 87 -59 219q0 213 141 365t328 144l74 242l41 -12l-70 -234q106 -16 168 -77t61 -135q0 -74 -51 -72q-47 0 -47 47t45 61q-12 49 -61 86
t-127 49l-230 -776q33 -6 72 -6q143 0 283 111l-3 -52q-132 -100 -282 -100z" />
    <glyph glyph-name="numbersign.lin" horiz-adv-x="1071" 
d="M492 889l-123 -445h319l123 445h-319zM987 1348l-117 -416h258l-10 -43h-260l-123 -445h269l-11 -43h-270l-111 -401h-47l111 401h-320l-110 -401h-47l110 401h-256l10 43h259l124 445h-268l10 43h271l114 416h48l-117 -416h321l115 416h47z" />
    <glyph glyph-name="paragraph.lin" horiz-adv-x="1236" 
d="M662 45h149l289 1258h-150zM618 504q-204 0 -322 100t-118 287t153 321t392 136h598l-10 -45h-156l-291 -1258h174l-10 -45h-600l10 45h170l107 461q-27 -2 -97 -2z" />
    <glyph glyph-name="section.lin" horiz-adv-x="983" 
d="M215 696q-1 -74 63 -121t201 -104l53 -25q354 47 355 205q0 79 -82 132q-61 41 -193 98l-45 18q-352 -49 -352 -203zM117 180q0 72 50 72t50 -58q0 -32 -33 -47q6 -20 35 -47q85 -72 219 -72t208 53q74 52 75 126q0 74 -66 122t-209 108q-142 61 -212 115t-70 142t92 148
t256 84q-88 43 -135 93t-47 134t91 149t230 64q186 0 285 -102q51 -46 51 -90q0 -78 -51 -78q-20 0 -35 14q-14 14 -14 44t33 48q-14 31 -46 53q-84 66 -213 66t-205 -52t-75 -127t65 -123t195 -104t194 -97q63 -42 83 -80t20 -85q0 -84 -89 -146t-261 -87q184 -90 184 -215
q0 -90 -90 -157t-231 -66q-184 0 -289 108q-45 51 -45 90z" />
    <glyph glyph-name="ordfeminine.lin" horiz-adv-x="665" 
d="M141 813l9 35h505l-8 -35h-506zM223 1196q0 -174 166 -174q84 0 153 94q68 94 68 182t-43 136q-43 47 -127 47t-150 -87q-67 -87 -67 -198zM371 985q-84 0 -137 55q-52 55 -52 169t79 211t192 98q73 0 119 -42t57 -112l35 147h41l-97 -383q-8 -35 -8 -65q0 -43 44 -43
t81 88l25 -10q-43 -111 -111 -111q-78 0 -78 76q0 25 4 39q-79 -117 -194 -117z" />
    <glyph glyph-name="ordmasculine.lin" horiz-adv-x="663" 
d="M272 1222q0 -98 52 -150t139 -52q88 0 158 83q69 83 69 180t-50 151t-139 53q-89 0 -159 -84q-70 -83 -70 -181zM168 813l8 35h461l-8 -35h-461zM733 1283q-1 -112 -83 -206t-190 -94q-108 -1 -168 63t-60 176t81 205q81 95 189 95t170 -64t61 -175z" />
    <glyph glyph-name="degree.lin" horiz-adv-x="641" 
d="M431 1057q83 -1 148 73t65 166t-46 137q-45 46 -128 46q-84 0 -148 -74t-64 -165t45 -137t128 -46zM473 1520q105 0 161 -60t56 -164t-78 -192t-184 -88q-104 0 -162 60q-57 60 -57 164t80 192t184 88z" />
    <glyph glyph-name="percent.lin" horiz-adv-x="1361" 
d="M774 240q0 -102 54 -158q54 -55 147 -55q94 0 168 87t74 189q1 101 -53 157t-148 56t-168 -87t-74 -189zM260 1044q0 -102 52 -158t146 -55t170 87t74 189q0 103 -53 159t-147 55q-94 0 -168 -87q-74 -88 -74 -190zM970 -18q-118 0 -184 68t-66 188t91 222t209 101
t184 -69t66 -188t-90 -221q-92 -101 -210 -101zM115 -10l-33 30l1282 1338l33 -29zM754 1108q0 -120 -90 -220q-90 -102 -208 -102t-184 69t-66 189t91 220q91 102 209 102t183 -69t65 -189z" />
    <glyph glyph-name="perthousand.lin" horiz-adv-x="2007" 
d="M1616 -18q-118 0 -183 68t-65 188t89 222t207 101t185 -69q66 -68 66 -188t-90 -221q-91 -101 -209 -101zM1419 240q-1 -104 53 -158q54 -55 148 -55t168 87t74 189q0 101 -52 157t-147 56q-94 0 -169 -86t-75 -190zM970 -18q-118 0 -184 68t-66 188t91 222t209 101
t184 -69t66 -188t-90 -221q-92 -101 -210 -101zM774 240q0 -102 54 -158q54 -55 147 -55q94 0 168 87t74 189q1 101 -53 157t-148 56t-168 -87t-74 -189zM754 1108q0 -120 -90 -220q-90 -102 -208 -102t-184 69t-66 189t91 220q91 102 209 102t183 -69t65 -189zM260 1044
q0 -102 52 -158t146 -55t170 87t74 189q0 103 -53 159t-147 55q-94 0 -168 -87q-74 -88 -74 -190zM115 -10l-33 30l1282 1338l33 -29z" />
    <glyph glyph-name="quotedbl.lin" horiz-adv-x="505" 
d="M311 1513q43 0 43 -36q0 -18 -12 -45l-113 -279h-20l59 299q10 61 43 61zM543 1513q43 0 43 -36q0 -18 -13 -45l-112 -279h-21l60 299q10 61 43 61z" />
    <glyph glyph-name="quotesingle.lin" horiz-adv-x="256" 
d="M311 1513q43 0 43 -36q0 -18 -12 -45l-113 -279h-20l59 299q10 61 43 61z" />
    <glyph glyph-name="plus.lin" horiz-adv-x="788" 
d="M549 989l-66 -280h275l-10 -47h-277l-70 -304h-47l70 304h-274l10 47h276l66 280h47z" />
    <glyph glyph-name="minus.lin" horiz-adv-x="788" 
d="M150 662l10 47h598l-10 -47h-598z" />
    <glyph glyph-name="divide.lin" horiz-adv-x="788" 
d="M397 385q-23 0 -38 16t-15 39t15 39q15 17 38 17t38 -16t15 -40q0 -23 -14 -39q-16 -16 -39 -16zM510 872q-23 0 -38 16t-15 40q0 23 15 39t38 16t38 -16t15 -39q0 -24 -15 -40t-38 -16zM150 662l10 47h598l-10 -47h-598z" />
    <glyph glyph-name="equal.lin" horiz-adv-x="788" 
d="M88 496l10 47h598l-10 -47h-598zM154 778l10 45h598l-10 -45h-598z" />
    <glyph glyph-name="multiply.lin" horiz-adv-x="788" 
d="M238 971l194 -252l297 239l29 -36l-297 -242l194 -252l-37 -31l-196 252l-295 -237l-29 37l295 239l-192 252z" />
    <glyph glyph-name="less.lin" horiz-adv-x="749" 
d="M549 338l-402 315l5 19l544 307l25 -39l-502 -283l359 -282z" />
    <glyph glyph-name="greater.lin" horiz-adv-x="749" 
d="M162 340l-25 39l502 283l-358 282l28 37l402 -315l-4 -19z" />
    <glyph glyph-name="plusminus.lin" horiz-adv-x="788" 
d="M39 295l8 47h598l-10 -47h-596zM543 1081l-66 -280h275l-11 -47h-276l-66 -287h-47l66 287h-273l11 47h274l66 280h47z" />
    <glyph glyph-name="zero.tab" horiz-adv-x="1085" 
d="M199 462q-1 -202 73 -316t212 -114t260 132q122 131 191 328q69 196 69 398t-74 316t-212 113q-138 0 -260 -131q-122 -132 -190 -328t-69 -398zM475 -16q-158 0 -247 126t-87 349q0 223 78 432t214 343t294 134t247 -126t88 -349t-79 -432t-214 -343t-294 -134z" />
    <glyph glyph-name="one.tab" horiz-adv-x="1085" 
d="M84 0l10 47h352l293 1256l-395 -111v49l436 123l25 -12l-305 -1305h350l-10 -47h-756z" />
    <glyph glyph-name="two.tab" horiz-adv-x="1085" 
d="M338 975q-59 0 -59 72q0 115 122 219q123 104 301 104t274 -88q97 -88 97 -225t-98 -237t-310 -221q-211 -122 -351 -245t-210 -307h721l64 283h53l-74 -330h-821l-10 25q78 211 226 349t359 258q210 120 302 210q92 92 92 212t-83 194t-227 73q-144 0 -244 -73
q-102 -73 -120 -161q49 -14 49 -59q0 -23 -15 -38t-38 -15z" />
    <glyph glyph-name="three.tab" horiz-adv-x="1085" 
d="M391 1100q0 -23 -14 -37t-38 -14t-40 17t-16 48q0 100 113 177q114 77 278 77t267 -89t103 -226t-114 -235q-115 -97 -297 -120q143 -26 227 -112t84 -211q0 -164 -129 -277t-336 -112q-163 0 -283 86t-120 192q0 80 59 80q21 0 35 -14t14 -34t-15 -36t-38 -20
q17 -78 117 -143t233 -64q186 0 296 99q110 98 110 238q1 140 -103 224t-284 84h-60l11 47h65q217 0 344 94q127 93 127 223t-89 204t-221 75q-132 0 -221 -49t-112 -115q47 -16 47 -57z" />
    <glyph glyph-name="four.tab" horiz-adv-x="1085" 
d="M885 889l-97 -416h246l-10 -45h-246l-88 -381h213l-10 -47h-522l10 47h256l88 381h-641l-6 23l917 919l37 -33l-866 -864h569l90 389z" />
    <glyph glyph-name="five.tab" horiz-adv-x="1085" 
d="M444 29q211 0 343 133q133 134 133 290t-96 234t-253 78q-158 0 -301 -55l-22 20l205 619h651l-10 -52h-609l-176 -530q131 47 260 47q186 0 296 -92t110 -267q-1 -176 -149 -324t-386 -148q-147 0 -257 72t-109 163q0 29 14 48t38 19t39 -14t15 -34q0 -40 -39 -54
q25 -63 108 -108t195 -45z" />
    <glyph glyph-name="six.tab" horiz-adv-x="1085" 
d="M213 362q1 -154 95 -243q94 -90 248 -90t272 131q120 130 120 286t-87 241t-228 85q-176 0 -298 -128t-122 -282zM809 1323q-180 0 -322 -145q-111 -113 -187 -297t-93 -357q47 121 162 208t275 87t261 -99q103 -99 103 -271q0 -171 -138 -319t-317 -148q-180 0 -292 110
q-111 110 -111 316t80 432t232 378q151 150 349 150q129 0 206 -66t77 -143q0 -33 -18 -53t-40 -20t-36 14t-15 44q0 30 43 54q-14 49 -70 87t-149 38z" />
    <glyph glyph-name="seven.tab" horiz-adv-x="1085" 
d="M233 0l887 1300h-755l-56 -239h-51l66 287h862l12 -21l-901 -1327h-64z" />
    <glyph glyph-name="eight.tab" horiz-adv-x="1085" 
d="M529 31q159 -1 277 97t118 239t-100 228t-267 87q-168 0 -281 -103q-112 -103 -112 -241t103 -222q103 -85 262 -85zM977 375q0 -168 -132 -280q-131 -111 -313 -111t-302 97t-119 251q-1 154 115 264t284 119q-102 29 -169 111t-67 184q0 148 121 254t294 106t283 -92
t110 -233t-103 -237q-102 -96 -266 -114q119 -30 191 -116t73 -203zM1026 1036q0 127 -90 206t-243 79t-259 -91t-106 -216t93 -207t243 -82t257 92q105 92 105 219z" />
    <glyph glyph-name="nine.tab" horiz-adv-x="1085" 
d="M1008 987q0 153 -92 243t-248 91q-156 0 -277 -131q-121 -130 -121 -286t89 -241t247 -85t280 128t122 281zM412 29q178 0 321 143q115 115 190 301t91 361q-43 -123 -160 -213q-116 -91 -276 -91t-262 100t-103 271q0 171 137 319q138 148 318 148t290 -110t111 -316
q0 -208 -80 -434q-81 -226 -231 -376q-150 -151 -348 -150q-131 0 -208 66t-77 142q0 34 17 54q18 20 40 20t36 -14t16 -42q0 -28 -41 -54q14 -49 69 -87t150 -38z" />
    <glyph glyph-name="period.tab" horiz-adv-x="542" 
d="M215 -18q-27 0 -44 18t-17 45t17 44t44 17t44 -17t17 -44t-17 -45t-44 -18z" />
    <glyph glyph-name="comma.tab" horiz-adv-x="542" 
d="M154 49q0 25 16 41t43 16t44 -22t17 -53q0 -70 -55 -142q-56 -71 -160 -118l-10 22q74 41 117 97t45 102q-25 -2 -41 15t-16 42z" />
    <glyph glyph-name="colon.tab" horiz-adv-x="542" 
d="M356 575q-27 1 -44 19t-17 45t17 45t44 18t44 -18q18 -18 18 -45t-18 -45t-44 -19zM219 -18q-27 0 -44 18t-17 45t17 44t44 17t44 -17t17 -44t-16 -45q-18 -18 -45 -18z" />
    <glyph glyph-name="semicolon.tab" horiz-adv-x="542" 
d="M160 49q0 25 16 41t44 16t45 -22t18 -53q1 -69 -55 -141t-160 -119l-13 22q74 41 118 97t46 102q-25 -2 -42 15t-17 42zM356 575q-27 1 -43 19t-16 45t16 45t43 18t44 -18q18 -18 18 -45t-18 -45t-44 -19z" />
    <glyph glyph-name="twodotleader.tab" horiz-adv-x="1085" 
d="M758 -18q-27 0 -44 18t-18 45q0 27 18 44t44 17q27 0 44 -17t17 -44t-17 -45t-44 -18zM215 -18q-27 0 -44 18t-17 45t17 44t44 17t44 -17t17 -44t-17 -45t-44 -18z" />
    <glyph glyph-name="periodcentered.tab" horiz-adv-x="542" 
d="M291 446q-27 0 -43 18t-17 46q1 27 17 44t43 17t44 -17t17 -44q0 -28 -17 -46t-44 -18z" />
    <glyph glyph-name="slash.tab" horiz-adv-x="1085" 
d="M-82 -414l-39 29l1280 1890l39 -28z" />
    <glyph glyph-name="bar.tab" horiz-adv-x="542" 
d="M250 -410v1909h45v-1909h-45z" />
    <glyph glyph-name="underscore.tab" horiz-adv-x="1085" 
d="M-125 -258l12 49h1112l-10 -49h-1114z" />
    <glyph glyph-name="dollar.tab" horiz-adv-x="1085" 
d="M694 1296q-150 0 -252 -72t-102 -186q0 -112 68 -179t194 -134l172 565q-37 6 -80 6zM516 51q172 0 279 79q106 79 106 199t-81 192t-197 134l-183 -600q45 -4 76 -4zM514 4q-45 0 -88 6l-64 -215l-43 12l62 211q-131 31 -214 108t-83 150q0 30 15 50t41 20t40 -15
t14 -48t-42 -54q18 -51 85 -98t160 -68l189 611q-226 119 -278 232q-24 52 -23 116q0 145 118 233q119 88 297 88q51 0 91 -8l55 193l45 -12l-57 -189q112 -29 180 -95t68 -134t-58 -68q-23 0 -39 16t-16 39q0 42 43 62q-57 98 -197 133l-174 -575q140 -77 202 -131
q113 -98 112 -242t-121 -236t-320 -92z" />
    <glyph glyph-name="sterling.tab" horiz-adv-x="1085" 
d="M801 1313q-176 0 -266 -116t-91 -279q0 -66 14 -176t15 -148h375l-10 -43h-363v-2q0 -262 -242 -428q113 4 251 -45t241 -49t233 92l27 -37q-129 -104 -276 -105q-98 -1 -249 55t-270 44q-66 -82 -120 -82t-54 39q0 33 47 59t115 29q246 176 246 424v6h-219l10 43h207
q-2 34 -15 144t-14 177q-1 187 105 317t305 130q123 0 208 -66t85 -144t-58 -77q-23 -1 -39 15t-16 40q0 44 49 62q-18 47 -80 84t-151 37z" />
    <glyph glyph-name="Euro.tab" horiz-adv-x="1085" 
d="M276 483v-18q0 -203 82 -315t224 -113q190 0 338 194l38 -30q-166 -213 -383 -213q-164 0 -260 124t-96 349v22h-162l11 45h153q6 135 41 267h-135l10 45h139q74 229 216 373t315 145q133 0 212 -87t79 -202q0 -37 -18 -59t-44 -23q-53 -1 -53 53t55 68q-10 82 -70 142
t-165 61q-152 0 -277 -131t-192 -340h434l-10 -45h-436q-37 -129 -43 -267h417l-12 -45h-408z" />
    <glyph glyph-name="yen.tab" horiz-adv-x="1085" 
d="M209 561l10 47h293l-178 692h-139l12 48h393l-10 -48h-201l174 -686l510 686h-203l11 48h395l-10 -48h-131l-521 -692h287l-10 -47h-316l-45 -190h316l-10 -47h-318l-65 -277h204l-10 -47h-465l11 47h204l68 277h-311l10 47h311l47 190h-313z" />
    <glyph glyph-name="cent.tab" horiz-adv-x="1085" 
d="M260 623q0 -115 56 -193t153 -108l225 761q-176 2 -305 -137t-129 -323zM578 305q168 0 303 111l-2 -54q-139 -100 -310 -100q-39 0 -75 6l-88 -301l-39 13l88 299q-111 33 -179 121t-67 221q0 207 147 361t351 146l71 244l39 -12l-69 -234q116 -14 184 -78t68 -136
q0 -71 -52 -70q-47 0 -47 47t45 61q-49 115 -213 131l-227 -770q35 -6 72 -6z" />
    <glyph glyph-name="numbersign.tab" horiz-adv-x="1085" 
d="M498 887l-125 -441h321l123 441h-319zM995 1348l-116 -416h256l-11 -45h-258l-121 -441h265l-11 -43h-266l-112 -403h-50l113 403h-324l-110 -403h-49l112 403h-256l11 43h258l120 441h-264l11 45h266l116 416h50l-117 -416h321l117 416h49z" />
    <glyph glyph-name="paragraph.tab" horiz-adv-x="1085" 
d="M563 45h131l291 1258h-129zM584 502q-184 0 -298 101t-114 271q0 207 159 340t406 134h455l-10 -48h-148l-291 -1253h160l-10 -47h-563l10 47h176l107 457q-14 -2 -39 -2z" />
    <glyph glyph-name="section.tab" horiz-adv-x="1085" 
d="M254 692q0 -74 70 -120t202 -95l70 -26q174 23 271 79t97 131q0 76 -93 130q-65 38 -148 69q-82 31 -94 37q-175 -19 -275 -75t-100 -130zM154 188q0 72 50 72t50 -58q0 -32 -33 -46q75 -132 307 -130q108 0 189 54q82 53 82 128t-73 125q-72 50 -224 105
q-152 54 -228 108t-75 142q0 172 366 234q-197 88 -196 217q0 102 101 167t251 64q215 0 309 -117q41 -51 41 -98q0 -72 -51 -72q-20 1 -34 15t-13 44q0 30 33 48q-8 20 -35 49q-78 86 -252 86q-127 0 -212 -52t-85 -129t68 -125t170 -87q100 -39 134 -52t87 -41
q136 -72 139 -180q0 -170 -363 -235q195 -88 195 -215q0 -96 -98 -162t-254 -65q-104 0 -186 34t-120 83q-40 49 -40 89z" />
    <glyph glyph-name="degree.tab" horiz-adv-x="1085" 
d="M621 836q156 0 260 114t104 245q0 130 -73 205t-189 75q-156 0 -261 -115t-106 -264q0 -112 73 -186t192 -74zM618 797q-139 0 -222 86t-83 213q0 166 117 292t293 125q141 0 224 -86t83 -213q0 -164 -118 -290t-294 -127z" />
    <glyph glyph-name="percent.tab" horiz-adv-x="1085" 
d="M748 27q94 0 162 97t67 222q0 80 -37 128t-104 48q-94 0 -163 -98t-69 -223q0 -78 38 -126t106 -48zM741 -14q-84 0 -133 57t-49 152q0 147 83 258t200 110q82 0 131 -57t49 -154q0 -146 -81 -256t-200 -110zM371 829q96 -1 164 97t67 223q0 80 -37 127t-104 47
q-96 0 -164 -97t-68 -222q0 -78 38 -126t104 -49zM367 786q-83 0 -133 58t-50 153q0 147 82 258t201 111q82 0 131 -57t49 -154q-1 -149 -81 -259t-199 -110zM92 -10l-33 26l1059 1346l33 -29z" />
    <glyph glyph-name="quotedbl.tab" horiz-adv-x="1085" 
d="M928 1479q0 -18 -6 -33l-136 -404h-18l76 422q6 51 47 52q37 0 37 -37zM580 1479q0 -12 -7 -33l-135 -404h-18l74 422q8 51 49 52q37 0 37 -37z" />
    <glyph glyph-name="quotesingle.tab" horiz-adv-x="542" 
d="M506 1479q0 -12 -6 -33l-135 -404h-19l76 422q6 51 47 52q37 0 37 -37z" />
    <glyph glyph-name="plus.tab" horiz-adv-x="1085" 
d="M711 1028l-76 -315h317l-10 -45h-317l-82 -349h-47l82 349h-318l10 45h318l74 315h49z" />
    <glyph glyph-name="minus.tab" horiz-adv-x="1085" 
d="M260 668l10 45h682l-10 -45h-682z" />
    <glyph glyph-name="divide.tab" horiz-adv-x="1085" 
d="M537 350q-21 0 -35 14t-15 35q1 21 15 35t34 14t35 -14t15 -34t-14 -36q-14 -14 -35 -14zM674 926q-20 0 -35 14q-14 14 -14 34t14 36q15 14 35 14t34 -14t13 -34q0 -20 -13 -36q-14 -14 -34 -14zM260 668l10 45h682l-10 -45h-682z" />
    <glyph glyph-name="equal.tab" horiz-adv-x="1085" 
d="M217 481l10 45h650l-11 -45h-649zM295 811l10 45h649l-10 -45h-649z" />
    <glyph glyph-name="multiply.tab" horiz-adv-x="1085" 
d="M356 1020l230 -295l338 274l30 -38l-338 -275l232 -297l-39 -33l-234 297l-339 -274l-31 39l340 276l-228 293z" />
    <glyph glyph-name="less.tab" horiz-adv-x="1085" 
d="M735 289l-463 375l2 14l635 348l23 -37l-582 -321l418 -344z" />
    <glyph glyph-name="greater.tab" horiz-adv-x="1085" 
d="M461 1047l463 -375l-2 -15l-635 -348l-21 37l582 322l-420 344z" />
    <glyph glyph-name="plusminus.tab" horiz-adv-x="1085" 
d="M145 250l11 45h682l-11 -45h-682zM717 1137l-76 -320h320l-11 -45h-319l-78 -336h-47l78 336h-316l11 45h315l76 320h47z" />
    <glyph glyph-name="zero.idx_P2D" horiz-adv-x="2203" 
d="M1100 178q133 0 218 125t85 325t-85 326t-219 125q-134 0 -218 -125q-84 -124 -84 -324t85 -326t218 -126zM1098 135q-152 0 -251 137q-99 138 -99 358t101 356t252 136t252 -137t101 -356t-102 -357t-254 -137zM1102 1581q-262 0 -478 -129t-339 -351
q-123 -223 -123 -487t123 -486t339 -351t478 -129t478 129t339 351t123 486t-123 486t-339 352q-216 129 -478 129zM1102 1622q414 0 700 -294t285 -714q0 -420 -286 -714q-285 -294 -699 -293q-414 0 -700 294q-286 293 -286 713t286 714t700 294z" />
    <glyph glyph-name="one.idx_P2D" horiz-adv-x="2203" 
d="M1362 150h-498v43h228v868l-224 -53l-8 43l258 63h23v-921h221v-43zM1102 1581q-262 0 -478 -129t-339 -351q-123 -223 -123 -487t123 -486t339 -351t478 -129t478 129t339 351t123 486t-123 486t-339 352q-216 129 -478 129zM1102 1622q414 0 700 -294t285 -714
q0 -420 -286 -714q-285 -294 -699 -293q-414 0 -700 294q-286 293 -286 713t286 714t700 294z" />
    <glyph glyph-name="two.idx_P2D" horiz-adv-x="2203" 
d="M821 899q0 35 24 86t93 94q70 43 180 43t190 -72q81 -72 81 -172q1 -100 -57 -170t-181 -161q-123 -90 -196 -169t-105 -185h510v184h47v-227h-600l-14 20q37 135 119 228q83 94 202 178t172 148t53 152q0 86 -66 145q-67 58 -171 58q-162 0 -219 -116q-8 -14 -13 -33
q45 -10 45 -49q0 -21 -12 -33t-31 -12q-51 0 -51 63zM1102 1581q-262 0 -478 -129t-339 -351q-123 -223 -123 -487t123 -486t339 -351t478 -129t478 129t339 351t123 486t-123 486t-339 352q-216 129 -478 129zM1102 1622q414 0 700 -294t285 -714q0 -420 -286 -714
q-285 -294 -699 -293q-414 0 -700 294q-286 293 -286 713t286 714t700 294z" />
    <glyph glyph-name="three.idx_P2D" horiz-adv-x="2203" 
d="M803 327q0 56 47 56q18 0 32 -13t13 -32q0 -35 -39 -45q6 -27 35 -51q74 -64 198 -64q125 0 193 64t68 157q0 133 -131 191q-76 35 -185 35h-24v43h28q113 0 191 55q96 61 96 155t-61 146q-61 53 -183 53t-184 -80q-12 -18 -18 -36q39 -6 39 -46q0 -18 -14 -30
q-14 -13 -32 -13t-31 16t-13 51q0 36 30 77q80 104 240 104q124 0 200 -66t76 -165q0 -129 -125 -199q-45 -27 -102 -39q49 -8 100 -28q152 -68 152 -224q0 -115 -85 -189q-84 -74 -236 -73q-152 0 -236 94q-39 40 -39 96zM1102 1581q-262 0 -478 -129t-339 -351
q-123 -223 -123 -487t123 -486t339 -351t478 -129t478 129t339 351t123 486t-123 486t-339 352q-216 129 -478 129zM1102 1622q414 0 700 -294t285 -714q0 -420 -286 -714q-285 -294 -699 -293q-414 0 -700 294q-286 293 -286 713t286 714t700 294z" />
    <glyph glyph-name="four.idx_P2D" horiz-adv-x="2203" 
d="M946 150v43h215v253h-465l-10 19l502 661l37 -24l-467 -613h403v283l49 23v-306h197v-43h-197v-253h170v-43h-434zM1102 1581q-262 0 -478 -129t-339 -351q-123 -223 -123 -487t123 -486t339 -351t478 -129t478 129t339 351t123 486t-123 486t-339 352q-216 129 -478 129
zM1102 1622q414 0 700 -294t285 -714q0 -420 -286 -714q-285 -294 -699 -293q-414 0 -700 294q-286 293 -286 713t286 714t700 294z" />
    <glyph glyph-name="five.idx_P2D" horiz-adv-x="2203" 
d="M846 350q44 0 45 -49q0 -25 -29 -35q16 -40 74 -64t154 -24q98 0 175 73t77 189t-71 183t-192 67t-215 -47l-22 14l47 451h450v-49h-411l-39 -361q79 35 203 35t212 -77t87 -214t-93 -222t-216 -85t-202 48t-77 114q0 21 12 37q11 16 31 16zM1102 1581q-262 0 -478 -129
t-339 -351q-123 -223 -123 -487t123 -486t339 -351t478 -129t478 129t339 351t123 486t-123 486t-339 352q-216 129 -478 129zM1102 1622q414 0 700 -294t285 -714q0 -420 -286 -714q-285 -294 -699 -293q-414 0 -700 294q-286 293 -286 713t286 714t700 294z" />
    <glyph glyph-name="six.idx_P2D" horiz-adv-x="2203" 
d="M1105 176q111 0 185 74t74 184t-72 182q-72 70 -186 70t-194 -73q-78 -73 -78 -175t77 -184q82 -78 194 -78zM1319 924q-18 0 -32 12q-13 12 -13 35t24 37q-6 16 -44 42t-115 27q-139 0 -227 -132t-91 -400v-8q29 86 105 138t196 52t206 -83q85 -83 85 -210t-88 -213
t-222 -86t-230 96t-97 314q0 291 102 434t263 143q94 0 159 -47q64 -41 64 -96t-45 -55zM1102 1581q-262 0 -478 -129t-339 -351q-123 -223 -123 -487t123 -486t339 -351t478 -129t478 129t339 351t123 486t-123 486t-339 352q-216 129 -478 129zM1102 1622q414 0 700 -294
t285 -714q0 -420 -286 -714q-285 -294 -699 -293q-414 0 -700 294q-286 293 -286 713t286 714t700 294z" />
    <glyph glyph-name="seven.idx_P2D" horiz-adv-x="2203" 
d="M877 1044v-172h-48v213h615l8 -14l-414 -942h-49l404 915h-516zM1102 1581q-262 0 -478 -129t-339 -351q-123 -223 -123 -487t123 -486t339 -351t478 -129t478 129t339 351t123 486t-123 486t-339 352q-216 129 -478 129zM1102 1622q414 0 700 -294t285 -714
q0 -420 -286 -714q-285 -294 -699 -293q-414 0 -700 294q-286 293 -286 713t286 714t700 294z" />
    <glyph glyph-name="eight.idx_P2D" horiz-adv-x="2203" 
d="M1103 178q113 0 187 62t74 157q0 96 -76 162t-186 66t-187 -66q-75 -66 -75 -161q0 -96 74 -158t189 -62zM1103 668q105 0 173 57t68 144t-70 148q-70 60 -173 60t-173 -59q-70 -58 -70 -146t70 -146t175 -58zM1102 137q-135 0 -223 74t-88 176t62 171t153 89
q-88 25 -143 84q-54 59 -54 153t84 166q84 70 209 70t208 -70t83 -166q-1 -94 -55 -154t-142 -83q94 -20 156 -89q62 -70 61 -172q0 -102 -88 -176t-223 -73zM1102 1581q-262 0 -478 -129t-339 -351q-123 -223 -123 -487t123 -486t339 -351t478 -129t478 129t339 351
t123 486t-123 486t-339 352q-216 129 -478 129zM1102 1622q414 0 700 -294t285 -714q0 -420 -286 -714q-285 -294 -699 -293q-414 0 -700 294q-286 293 -286 713t286 714t700 294z" />
    <glyph glyph-name="nine.idx_P2D" horiz-adv-x="2203" 
d="M846 817q0 -113 70 -183t186 -71q116 0 194 71q78 72 78 182t-78 186t-190 76t-186 -74t-74 -187zM838 283q0 51 43 51q18 0 31 -12q14 -12 14 -35t-25 -37q10 -20 51 -47t123 -27q137 0 225 129t89 395v7q-27 -81 -103 -135t-198 -54t-207 83q-84 83 -84 214t88 219
t220 88t222 -90q106 -104 107 -325q0 -303 -100 -437t-261 -135q-104 0 -178 53q-57 44 -57 95zM1102 1581q-262 0 -478 -129t-339 -351q-123 -223 -123 -487t123 -486t339 -351t478 -129t478 129t339 351t123 486t-123 486t-339 352q-216 129 -478 129zM1102 1622
q414 0 700 -294t285 -714q0 -420 -286 -714q-285 -294 -699 -293q-414 0 -700 294q-286 293 -286 713t286 714t700 294z" />
    <glyph glyph-name="space.tab" horiz-adv-x="542" 
 />
    <glyph glyph-name="NUL" 
 />
    <glyph glyph-name="hfjslug" horiz-adv-x="1433" 
d="M879 580q-33 0 -33 34q0 12 9 24t23 11q14 0 24 -11q9 -11 9 -24q1 -34 -32 -34zM1004 612h-23v35h23q20 1 20 -17t-20 -18zM666 823q-33 0 -33 45t33 78l41 -80q-16 -43 -41 -43zM651 1056q0 30 29 29q27 -1 27 -35t-31 -69q-25 45 -25 75zM500 662l28 -97h17l22 70h2
l23 -70h16l29 97h-16l-21 -72h-2l-23 72h-14l-22 -72h-2l-21 72h-16zM276 662v-95h17v66l51 -66h14v95h-16v-66l-51 66h-15zM401 662v-95h70v15h-53v26h47v15h-47v24h53v15h-70zM756 567h16v35l37 60h-18l-27 -46l-27 46h-18l37 -60v-35zM879 565q20 1 34 15q33 34 0 68
q-14 16 -34 16q-21 0 -35 -16t-14 -34q0 -20 14 -34q15 -14 35 -15zM1040 631q0 31 -34 31h-41v-95h16v31h25l20 -31h18l-24 35q20 8 20 29zM1077 662v-95h17v25l16 16l31 -41h20l-41 54l37 41h-20l-41 -50h-2v50h-17zM735 1038q0 72 -55 72q-25 0 -41 -19t-16 -45t28 -79
q-47 -37 -47 -83q0 -91 60 -89q39 0 59 49h2l25 -49l24 12l-35 65q13 29 27 80l-27 6q-8 -37 -16 -61h-2l-33 64q47 43 47 77zM991 799q63 0 64 73v281h-33v-281q0 -45 -33 -45q-14 0 -41 11v-31q20 -8 43 -8zM383 1153v-352h31v162h96v-162h31v352h-31v-162h-96v162h-31z
M825 1153v-352h31v160h78v28h-78v135h88v29h-119zM1325 -410h-426l-16 29h-334l-17 -29h-423v621q27 0 46 19t19 46q0 26 -19 46t-46 20v1135h204l62 161h684l59 -161h207v-1887z" />
    <glyph glyph-name="i.dot" horiz-adv-x="550" 
d="M266 -12q-57 0 -91 32t-34 80t27 144l162 559h-185l9 41h235l-174 -608q-25 -86 -25 -126q0 -80 78 -81q41 -1 71 31t62 114l35 -10q-37 -98 -75 -137t-95 -39zM395 1075q-19 -1 -33 15t-14 36t13 34t33 16q20 0 36 -14q14 -14 14 -36q0 -20 -14 -36t-35 -15z" />
    <glyph glyph-name="zero.num" horiz-adv-x="722" 
d="M371 602q119 0 199 137t79 312q0 109 -45 175t-129 64q-119 0 -197 -136t-79 -310q0 -110 44 -176t128 -66zM369 565q-100 0 -158 75q-57 75 -57 200q0 197 91 343t234 146q99 0 157 -76t58 -200q0 -195 -93 -341t-232 -147z" />
    <glyph glyph-name="one.num" horiz-adv-x="722" 
d="M137 573l8 39h211l156 664l-227 -64v39l258 74l20 -10l-164 -703h205l-8 -39h-459z" />
    <glyph glyph-name="two.num" horiz-adv-x="722" 
d="M492 1288q-78 0 -134 -35t-67 -77q29 -6 28 -35q1 -39 -37 -39t-38 56t72 113q74 56 174 56t159 -48t59 -125t-58 -132q-60 -54 -158 -108t-147 -87q-50 -33 -105 -91t-82 -126h399l37 154h39l-43 -191h-479l-9 21q45 116 131 192t204 138t172 113q55 51 55 113t-48 100
q-46 38 -124 38z" />
    <glyph glyph-name="three.num" horiz-adv-x="722" 
d="M385 602q86 0 149 52q62 52 62 123t-55 117t-138 46h-41l9 37h37q106 0 176 51q70 52 70 118t-51 104q-50 38 -124 38t-120 -24t-56 -60q31 -6 31 -35q0 -35 -37 -34q-41 0 -41 53t62 96t160 43t158 -50q62 -50 62 -125t-61 -129t-156 -67q72 -14 116 -61t44 -113
q0 -94 -78 -155t-183 -61t-174 47t-69 107t43 60q37 0 37 -34t-37 -41q12 -41 66 -72t139 -31z" />
    <glyph glyph-name="four.num" horiz-adv-x="722" 
d="M438 608l47 197h-362l-6 20l504 504l26 -24l-467 -465h314l49 204l45 19l-53 -221h141l-8 -37h-142l-45 -197h115l-8 -35h-295l8 35h137z" />
    <glyph glyph-name="five.num" horiz-adv-x="722" 
d="M336 598q114 0 190 70t76 152t-47 124q-47 43 -138 43t-173 -37l-23 17l115 346h379l-8 -41h-345l-94 -279q84 31 173 31t147 -52t57 -150q0 -98 -90 -180q-90 -81 -223 -81q-82 0 -144 41q-61 41 -61 90t39 49q14 0 24 -10q10 -11 10 -29t-22 -28q14 -32 58 -54t100 -22
z" />
    <glyph glyph-name="six.num" horiz-adv-x="722" 
d="M392 602q85 0 153 69q67 69 67 149t-47 126q-47 45 -131 45q-84 -1 -154 -69t-71 -145q0 -77 49 -126t134 -49zM542 1290q-95 0 -182 -82q-59 -59 -100 -152t-53 -184q33 70 98 112q66 42 151 42t143 -54t58 -150q-1 -96 -81 -178q-80 -81 -184 -81q-104 1 -167 63
t-63 176t46 235q46 122 134 206t197 84q76 0 123 -37t47 -72q0 -63 -41 -63q-35 0 -35 35q-1 27 24 41q-20 59 -115 59z" />
    <glyph glyph-name="seven.num" horiz-adv-x="722" 
d="M233 573l480 705h-402l-30 -135h-41l39 172h481l10 -21l-487 -721h-50z" />
    <glyph glyph-name="eight.num" horiz-adv-x="722" 
d="M184 767q0 -73 56 -119t146 -46q89 0 157 51q67 51 67 125t-57 120t-147 46t-156 -52t-66 -125zM470 977q79 0 141 49q63 50 63 114t-51 107t-135 43t-145 -47q-60 -47 -60 -113t54 -110q54 -43 133 -43zM653 780q1 -92 -77 -154t-188 -61t-179 57q-70 56 -70 139t69 143
t159 65q-55 20 -93 63q-37 43 -36 98q0 80 73 139q75 58 177 58t166 -52t65 -128q-1 -76 -59 -127t-146 -66q61 -20 100 -66t39 -108z" />
    <glyph glyph-name="nine.num" horiz-adv-x="722" 
d="M476 1288q-84 0 -152 -68t-68 -150q0 -81 47 -126t131 -45t155 69q71 70 71 146t-50 125q-49 49 -134 49zM326 600q96 0 182 82q59 58 100 152t54 184q-33 -70 -99 -112q-67 -42 -151 -42t-142 54t-59 150q0 95 81 177t184 82t167 -62t64 -176q-1 -114 -47 -236
t-123 -198q-98 -92 -207 -92q-76 0 -123 37t-47 72q0 63 41 63q35 0 35 -35q0 -27 -25 -41q19 -59 115 -59z" />
    <glyph glyph-name="zero.den" horiz-adv-x="722" 
d="M238 29q118 0 198 137t80 311q0 109 -45 175t-129 65q-119 0 -198 -136t-78 -311q0 -111 44 -176t128 -65zM236 -8q-100 0 -158 75q-57 75 -58 199q0 197 92 343t234 147q100 0 158 -76t57 -201q0 -195 -93 -341t-232 -146z" />
    <glyph glyph-name="one.den" horiz-adv-x="722" 
d="M4 0l8 39h211l156 663l-227 -63v39l258 74l20 -11l-164 -702h205l-8 -39h-459z" />
    <glyph glyph-name="two.den" horiz-adv-x="722" 
d="M530 576q0 62 -47 101q-47 38 -125 38t-134 -35t-66 -78q29 -6 28 -35q0 -39 -38 -39t-37 56q0 56 72 113q73 57 173 57t160 -48t59 -125q0 -77 -59 -132q-58 -55 -156 -109t-148 -86q-50 -33 -106 -91t-81 -126h399l37 153h39l-43 -190h-480l-8 20q45 117 131 193
t204 138q118 63 172 113t54 112z" />
    <glyph glyph-name="three.den" horiz-adv-x="722" 
d="M270 367h-41l9 36h36q106 -1 176 51t70 118t-50 104t-124 39q-74 0 -120 -25t-56 -59q31 -6 31 -35q0 -35 -39 -35t-39 53q0 52 62 96q61 44 159 44t160 -50t61 -126q0 -74 -61 -128t-156 -67q72 -14 116 -61t44 -127q0 -79 -78 -141t-183 -62t-174 48t-69 108t43 59
q37 0 37 -35t-37 -41q11 -41 65 -72t140 -31t148 53q62 52 62 123t-54 117q-55 46 -138 46z" />
    <glyph glyph-name="four.den" horiz-adv-x="722" 
d="M305 35l47 196h-362l-6 21l503 504l27 -25l-467 -465h313l50 205l45 18l-54 -221h142l-8 -37h-142l-45 -196h115l-8 -35h-295l8 35h137z" />
    <glyph glyph-name="five.den" horiz-adv-x="722" 
d="M469 246q0 168 -185 168q-91 0 -173 -37l-23 16l115 346h379l-9 -41h-344l-94 -278q84 31 173 31q88 -1 146 -53t58 -150t-90 -180q-90 -80 -223 -80q-82 0 -144 41q-61 41 -61 90t39 49q33 0 35 -39q0 -19 -23 -29q14 -32 57 -54t101 -21q113 -1 189 69t77 152z" />
    <glyph glyph-name="six.den" horiz-adv-x="722" 
d="M259 29q85 1 153 69t68 149t-48 126q-47 45 -131 45t-155 -69q-70 -69 -70 -145t49 -126q49 -49 134 -49zM322 453q84 -1 144 -55q58 -54 58 -150t-82 -177t-184 -81t-166 62t-64 176t47 236q46 122 134 206t197 84q76 0 122 -37t47 -72q0 -63 -40 -63q-35 0 -35 34
q-1 27 24 41q-20 59 -115 59t-182 -81q-59 -59 -100 -153t-53 -183q33 70 98 112q66 42 150 42z" />
    <glyph glyph-name="seven.den" horiz-adv-x="722" 
d="M100 0l480 705h-402l-31 -136h-41l39 172h482l10 -20l-487 -721h-50z" />
    <glyph glyph-name="eight.den" horiz-adv-x="722" 
d="M272 371q-90 -1 -156 -53t-65 -124t57 -119q56 -46 145 -46t157 51t68 125t-58 120t-148 46zM150 556q0 -66 54 -110t133 -43q79 -1 141 49t62 114t-50 108q-52 44 -136 43q-84 0 -144 -47q-60 -48 -60 -114zM520 207q0 -91 -78 -153t-186 -62q-110 0 -180 56t-70 139
t69 143t158 65q-55 19 -92 63t-37 112t74 125q74 59 176 59t167 -52t65 -129q0 -76 -58 -127t-147 -65q61 -21 100 -67t39 -107z" />
    <glyph glyph-name="nine.den" horiz-adv-x="722" 
d="M343 715q-85 0 -153 -69t-68 -150q0 -82 48 -126q47 -44 131 -44t155 68q70 68 70 146q0 77 -49 126t-134 49zM194 27q96 0 181 82q59 59 100 152t53 183q-32 -70 -98 -112t-150 -41q-84 0 -144 54q-58 54 -58 149q0 96 82 178t184 82t166 -62t64 -176t-47 -236
q-46 -122 -134 -206t-196 -84q-76 0 -123 37t-47 72q0 61 41 63q35 0 34 -35q1 -27 -24 -41q20 -59 116 -59z" />
    <glyph glyph-name="caron.alt" horiz-adv-x="1036" 
d="M570 1489q36 0 36 -46t-45 -133t-125 -169l-18 16q74 91 87 141t17 95t6 53q6 43 42 43z" />
    <glyph glyph-name="g.sc" 
 />
    <glyph glyph-name="gbreve.sc" 
 />
    <glyph glyph-name="i.sc" 
 />
    <glyph glyph-name="iacute.sc" 
 />
    <glyph glyph-name="ibreve.sc" 
 />
    <glyph glyph-name="icircumflex.sc" 
 />
    <glyph glyph-name="idieresis.sc" 
 />
    <glyph glyph-name="igrave.sc" 
 />
    <glyph glyph-name="imacron.sc" 
 />
    <glyph glyph-name="iogonek.sc" 
 />
    <glyph glyph-name="S.sc" 
 />
    <glyph glyph-name="Sacute.sc" 
 />
    <glyph glyph-name="Aring.sc" 
 />
    <glyph glyph-name="Aringacute.sc" 
 />
    <glyph glyph-name="E.sc" 
 />
    <glyph glyph-name="Eacute.sc" 
 />
    <glyph glyph-name="Ebreve.sc" 
 />
    <glyph glyph-name="Ecircumflex.sc" 
 />
    <glyph glyph-name="Edieresis.sc" 
 />
    <glyph glyph-name="Egrave.sc" 
 />
    <glyph glyph-name="Emacron.sc" 
 />
    <glyph glyph-name="Eogonek.sc" 
 />
    <glyph glyph-name="N.sc" 
 />
    <glyph glyph-name="Nacute.sc" 
 />
    <glyph glyph-name="Ntilde.sc" 
 />
    <glyph glyph-name="a.sc" 
 />
    <glyph glyph-name="aogonek.sc" 
 />
    <glyph glyph-name="L.sc" 
 />
    <glyph glyph-name="Lacute.sc" 
 />
    <glyph glyph-name="s.sc" 
 />
    <glyph glyph-name="sacute.sc" 
 />
    <glyph glyph-name="aring.sc" 
 />
    <glyph glyph-name="aringacute.sc" 
 />
    <glyph glyph-name="C.sc" 
 />
    <glyph glyph-name="Cacute.sc" 
 />
    <glyph glyph-name="e.sc" 
 />
    <glyph glyph-name="eacute.sc" 
 />
    <glyph glyph-name="ebreve.sc" 
 />
    <glyph glyph-name="ecircumflex.sc" 
 />
    <glyph glyph-name="edieresis.sc" 
 />
    <glyph glyph-name="egrave.sc" 
 />
    <glyph glyph-name="emacron.sc" 
 />
    <glyph glyph-name="eogonek.sc" 
 />
    <glyph glyph-name="n.sc" 
 />
    <glyph glyph-name="nacute.sc" 
 />
    <glyph glyph-name="ntilde.sc" 
 />
    <glyph glyph-name="l.sc" 
 />
    <glyph glyph-name="lacute.sc" 
 />
    <glyph glyph-name="c.sc" 
 />
    <glyph glyph-name="cacute.sc" 
 />
    <glyph glyph-name="R.sc" 
 />
    <glyph glyph-name="Racute.sc" 
 />
    <glyph glyph-name="G.sc" 
 />
    <glyph glyph-name="Gbreve.sc" 
 />
    <glyph glyph-name="I.sc" 
 />
    <glyph glyph-name="Iacute.sc" 
 />
    <glyph glyph-name="Ibreve.sc" 
 />
    <glyph glyph-name="Icircumflex.sc" 
 />
    <glyph glyph-name="Idieresis.sc" 
 />
    <glyph glyph-name="Igrave.sc" 
 />
    <glyph glyph-name="Imacron.sc" 
 />
    <glyph glyph-name="Iogonek.sc" 
 />
    <glyph glyph-name="r.sc" 
 />
    <glyph glyph-name="racute.sc" 
 />
    <glyph glyph-name="A.sc" 
 />
    <glyph glyph-name="Aogonek.sc" 
 />
    </font>
</defs>
</svg>
