<?xml version="1.0" standalone="no"?>
<!DOCTYPE svg PUBLIC "-//W3C//DTD SVG 1.1//EN" "http://www.w3.org/Graphics/SVG/1.1/DTD/svg11.dtd" >
<svg xmlns="http://www.w3.org/2000/svg" xmlns:xlink="http://www.w3.org/1999/xlink" version="1.1">
<metadata>
Created by FontForge 20170104 at Wed Apr 11 04:30:29 2012
 By mytaste
Copyright (c) 2004 - 2007 Linotype GmbH, www.linotype.com. All rights reserved.
</metadata>
<defs>
<font id="AvenirNext-DemiBold" horiz-adv-x="610" >
  <font-face 
    font-family="Avenir Next Demi Bold"
    font-weight="600"
    font-stretch="normal"
    units-per-em="1000"
    panose-1="2 11 7 3 2 2 2 2 2 4"
    ascent="800"
    descent="-200"
    x-height="480"
    cap-height="708"
    bbox="-214 -250 1192 957"
    underline-thickness="50"
    underline-position="-100"
    unicode-range="U+000D-FB02"
  />
<missing-glyph horiz-adv-x="512" 
d="M222 117v67h56v-67h-56zM225 234l-2 17q0 56 13 81q7 13 18 27.5t28 31.5q16 15 26 26.5t15 21t7 18t2 17.5q0 36 -22.5 60.5t-53.5 24.5t-53.5 -22t-28.5 -73l-50 8q7 72 44 104.5t91 32.5t89 -35.5t35 -95.5q0 -32 -12.5 -58.5t-50.5 -61.5q-37 -33 -43 -52
q-6 -20 -6 -72h-46zM462 50v617h-412v-617h412zM512 718v-718h-512v718h512z" />
    <glyph glyph-name=".notdef" horiz-adv-x="512" 
d="M222 117v67h56v-67h-56zM225 234l-2 17q0 56 13 81q7 13 18 27.5t28 31.5q16 15 26 26.5t15 21t7 18t2 17.5q0 36 -22.5 60.5t-53.5 24.5t-53.5 -22t-28.5 -73l-50 8q7 72 44 104.5t91 32.5t89 -35.5t35 -95.5q0 -32 -12.5 -58.5t-50.5 -61.5q-37 -33 -43 -52
q-6 -20 -6 -72h-46zM462 50v617h-412v-617h412zM512 718v-718h-512v718h512z" />
    <glyph glyph-name=".null" horiz-adv-x="500" 
 />
    <glyph glyph-name=".null" horiz-adv-x="500" 
 />
    <glyph glyph-name="nonmarkingreturn" unicode="&#xd;" horiz-adv-x="0" 
 />
    <glyph glyph-name="space" unicode=" " horiz-adv-x="250" 
 />
    <glyph glyph-name="exclam" unicode="!" horiz-adv-x="340" 
d="M230 222h-120v486h120v-486zM90 70q0 32 23.5 55t56.5 23q32 0 56 -22t24 -54t-23.5 -55t-56.5 -23q-16 0 -30.5 6t-25.5 16t-17.5 24t-6.5 30z" />
    <glyph glyph-name="quotedbl" unicode="&#x22;" horiz-adv-x="459" 
d="M90 708h102v-264h-102v264zM267 708h102v-264h-102v264z" />
    <glyph glyph-name="numbersign" unicode="#" horiz-adv-x="592" 
d="M137 209h-90v84h101l18 122h-90v84h101l30 209h88l-30 -209h103l30 209h87l-30 -209h90v-84h-102l-17 -122h90v-84h-100l-31 -209h-87l30 209h-104l-30 -209h-87zM253 415l-17 -122h103l17 122h-103z" />
    <glyph glyph-name="dollar" unicode="$" 
d="M330 720q55 -1 111 -18.5t97 -52.5l-81 -84q-23 26 -57.5 39.5t-69.5 13.5v-202q38 -12 76 -28t68.5 -40.5t49.5 -59.5t19 -86q0 -52 -17.5 -91.5t-47 -66t-68 -40.5t-80.5 -15v-72h-54v72q-66 2 -126.5 24.5t-108.5 68.5l88 84q27 -32 68 -52.5t79 -21.5v222
q-44 12 -82 27.5t-66.5 39.5t-44.5 57.5t-16 81.5q0 45 17.5 80.5t47 60.5t67 39.5t77.5 17.5v68h54v-66zM276 618q-35 -4 -62 -26t-27 -66q0 -42 25.5 -63.5t63.5 -32.5v188zM330 92q42 2 67.5 30t25.5 73q0 44 -26.5 66.5t-66.5 36.5v-206z" />
    <glyph glyph-name="percent" unicode="%" horiz-adv-x="930" 
d="M518 174q0 39 14.5 72.5t40 59t59 40t72.5 14.5t72.5 -14.5t59 -40t40 -59t14.5 -72.5t-14.5 -72.5t-40 -59t-59 -40t-72.5 -14.5t-72.5 14.5t-59 40t-40 59t-14.5 72.5zM794 174q0 38 -26 64t-64 26t-64 -26t-26 -64t26 -64t64 -26t64 26t26 64zM40 534q0 39 14.5 72.5
t40 59t59 40t72.5 14.5t72.5 -14.5t59 -40t40 -59t14.5 -72.5t-14.5 -72.5t-40 -59t-59 -40t-72.5 -14.5t-72.5 14.5t-59 40t-40 59t-14.5 72.5zM316 534q0 38 -26 64t-64 26t-64 -26t-26 -64t26 -64t64 -26t64 26t26 64zM631 740l83 -38l-416 -734l-83 38z" />
    <glyph glyph-name="ampersand" unicode="&#x26;" horiz-adv-x="741" 
d="M570 169l165 -169h-160l-78 81q-35 -41 -85 -68t-127 -27q-47 0 -90 13t-75.5 39t-52 64.5t-19.5 89.5q0 39 13 70.5t34.5 56.5t49 43t57.5 31q-35 36 -55.5 74.5t-20.5 84.5q0 45 17.5 78t46 54.5t64 31.5t72.5 10q38 0 73.5 -10.5t62.5 -32t43.5 -54t16.5 -75.5
q0 -34 -11.5 -62.5t-31 -52t-46 -41.5t-56.5 -32l116 -121l82 129h137zM328 629q-35 0 -59 -22t-24 -57q0 -30 16.5 -58t46.5 -55q21 9 39.5 20t32.5 25t22 31t8 37q0 32 -23 55.5t-59 23.5zM270 316q-20 -7 -37.5 -17t-31 -24t-21.5 -33.5t-8 -44.5q0 -26 10.5 -47
t27.5 -35t38 -21.5t41 -7.5q44 0 75 19t57 54z" />
    <glyph glyph-name="quotesingle" unicode="'" horiz-adv-x="282" 
d="M90 708h102v-264h-102v264z" />
    <glyph glyph-name="parenleft" unicode="(" horiz-adv-x="330" 
d="M36 288q0 123 38.5 236t107.5 208l84 -55q-60 -84 -93.5 -184.5t-33.5 -204.5t33.5 -204.5t93.5 -184.5l-84 -55q-69 95 -107.5 208t-38.5 236z" />
    <glyph glyph-name="parenright" unicode=")" horiz-adv-x="330" 
d="M294 288q0 -123 -38.5 -236t-107.5 -208l-84 55q60 84 93.5 184.5t33.5 204.5t-33.5 204.5t-93.5 184.5l84 55q69 -95 107.5 -208t38.5 -236z" />
    <glyph glyph-name="asterisk" unicode="*" horiz-adv-x="463" 
d="M274 566l135 44l26 -80l-136 -44l86 -117l-69 -50l-86 118l-84 -115l-67 51l86 113l-137 47l26 80l136 -47v142h84v-142z" />
    <glyph glyph-name="plus" unicode="+" horiz-adv-x="666" 
d="M282 354v220h102v-220h220v-102h-220v-220h-102v220h-220v102h220z" />
    <glyph glyph-name="comma" unicode="," horiz-adv-x="260" 
d="M94 138h116l-85 -264h-101z" />
    <glyph glyph-name="hyphen" unicode="-" horiz-adv-x="320" 
d="M280 195h-240v102h240v-102z" />
    <glyph glyph-name="period" unicode="." horiz-adv-x="260" 
d="M50 70q0 32 23.5 55t56.5 23q32 0 56 -22t24 -54t-23.5 -55t-56.5 -23q-16 0 -30.5 6t-25.5 16t-17.5 24t-6.5 30z" />
    <glyph glyph-name="slash" unicode="/" horiz-adv-x="389" 
d="M74 -48l-83 30l312 776l83 -32z" />
    <glyph glyph-name="zero" unicode="0" 
d="M555 354q0 -86 -16.5 -155t-48 -117t-78 -74t-106.5 -26t-107 26t-79 74t-48.5 117t-16.5 155t16.5 155t48.5 117t79 74t107 26t106.5 -26t78 -74t48 -117t16.5 -155zM432 354q0 37 -4.5 84t-18 89t-38.5 70.5t-65 28.5q-41 0 -66 -28.5t-38.5 -70.5t-18.5 -89t-5 -84
t5 -84t18.5 -88t38.5 -69.5t66 -28.5q40 0 65 28.5t38.5 69.5t18 88t4.5 84z" />
    <glyph glyph-name="one" unicode="1" 
d="M279 562l-140 -115l-70 83l221 178h109v-708h-120v562z" />
    <glyph glyph-name="two" unicode="2" 
d="M69 110l273 268q33 32 52.5 64.5t19.5 74.5q0 50 -32.5 79.5t-80.5 29.5q-51 0 -82 -34.5t-38 -86.5l-117 18q5 44 25 81t51 64t72.5 42.5t90.5 15.5q46 0 88.5 -13t75.5 -39.5t52.5 -65t19.5 -89.5q0 -34 -9 -63.5t-24.5 -55.5t-36 -49.5t-44.5 -45.5l-204 -195h319
v-110h-471v110z" />
    <glyph glyph-name="three" unicode="3" 
d="M212 417h32q27 0 53.5 4.5t48.5 16.5t35.5 32.5t13.5 53.5q0 24 -9 43t-24.5 32t-36 20t-42.5 7q-44 0 -73 -25t-40 -66l-113 29q9 36 30.5 65.5t52 51t68.5 33.5t80 12q46 0 87.5 -12.5t73 -37t49.5 -60.5t18 -84q0 -57 -34.5 -101.5t-92.5 -58.5v-2q65 -13 105.5 -58.5
t40.5 -111.5q0 -55 -21.5 -96t-57 -68t-79.5 -40.5t-89 -13.5t-85 9.5t-73.5 29.5t-59 52t-39.5 76l112 35q13 -42 48.5 -71t92.5 -29q23 0 46.5 6.5t42 20.5t30 36t11.5 54q0 34 -16.5 57.5t-41.5 37t-55.5 19.5t-58.5 6h-30v96z" />
    <glyph glyph-name="four" unicode="4" 
d="M348 147h-327v106l301 455h144v-458h99v-103h-99v-147h-118v147zM348 567h-2l-201 -317h203v317z" />
    <glyph glyph-name="five" unicode="5" 
d="M505 600h-289l-7 -153q17 5 40.5 7t42.5 2q52 0 96.5 -15t77.5 -43.5t51.5 -70t18.5 -95.5q0 -59 -20.5 -105.5t-55.5 -78.5t-82 -49t-100 -17q-89 0 -150 41.5t-89 113.5l109 40q15 -42 50 -67.5t83 -25.5q27 0 51 9t42 26t28.5 42.5t10.5 57.5q0 41 -14 68t-36.5 43.5
t-50.5 23t-57 6.5q-20 0 -42.5 -3t-44 -8.5t-42 -12.5t-36.5 -15l12 387h403v-108z" />
    <glyph glyph-name="six" unicode="6" 
d="M441 708l-181 -262l1 -1q14 6 35.5 9t39.5 3q47 0 88 -17.5t72 -48t48.5 -72t17.5 -89.5q0 -56 -20 -102t-54.5 -78.5t-82 -50t-101.5 -17.5q-56 0 -103 18.5t-82 51.5t-54.5 77.5t-19.5 95.5q0 30 5 56.5t14.5 51t23 49.5t30.5 52l177 274h146zM167 222q0 -28 9.5 -53
t27.5 -44t43 -30t56 -11q61 0 98.5 38.5t37.5 101.5q0 30 -9.5 55.5t-27.5 43.5t-42.5 28.5t-54.5 10.5t-55.5 -10t-44 -28.5t-28.5 -44.5t-10 -57z" />
    <glyph glyph-name="seven" unicode="7" 
d="M51 708h481v-110l-283 -598h-141l298 600h-355v108z" />
    <glyph glyph-name="eight" unicode="8" 
d="M305 726q46 0 87 -13t71.5 -38t48 -60.5t17.5 -80.5q0 -62 -31 -103t-79 -57v-2q28 -7 52 -22.5t42 -38t28.5 -50.5t10.5 -61q0 -53 -19.5 -93.5t-53 -68.5t-78.5 -42t-96 -14t-96 14t-78.5 42t-53 68.5t-19.5 93.5q0 34 11 63t29.5 51t42.5 36.5t50 21.5v2
q-48 17 -79 55t-31 100q0 45 17.5 81.5t48 62t71 39.5t87.5 14zM305 627q-45 0 -73.5 -27t-28.5 -73q0 -43 27.5 -73t74.5 -30q21 0 40 8t33 22t22 33t8 40q0 23 -8.5 41.5t-23 31.5t-33 20t-38.5 7zM305 322q-26 0 -48.5 -9t-39 -24.5t-26 -38t-9.5 -49.5q0 -56 35 -87
t88 -31q52 0 87 31t35 87q0 26 -9.5 48.5t-26 38.5t-39 25t-47.5 9z" />
    <glyph glyph-name="nine" unicode="9" 
d="M168 0l182 263l-1 1q-15 -7 -36.5 -10t-39.5 -3q-47 0 -88 17.5t-72 48t-48.5 72t-17.5 89.5q0 56 20 102t54.5 78.5t82 50t101.5 17.5q55 0 102.5 -18.5t82.5 -51.5t54.5 -77.5t19.5 -95.5q0 -30 -5 -56.5t-14.5 -51t-23 -49.5t-30.5 -52l-177 -274h-146zM442 486
q0 28 -9.5 53t-27.5 44.5t-43 31t-56 11.5q-61 0 -98.5 -39.5t-37.5 -102.5q0 -30 9.5 -55.5t27.5 -43.5t42.5 -28.5t54.5 -10.5t55.5 10t44 28.5t28.5 44.5t10 57z" />
    <glyph glyph-name="colon" unicode=":" horiz-adv-x="300" 
d="M70 70q0 32 23.5 55t56.5 23q32 0 56 -22t24 -54t-23.5 -55t-56.5 -23q-16 0 -30.5 6t-25.5 16t-17.5 24t-6.5 30zM70 408q0 32 23.5 55t56.5 23q32 0 56 -22t24 -54t-23.5 -55t-56.5 -23q-16 0 -30.5 6t-25.5 16t-17.5 24t-6.5 30z" />
    <glyph glyph-name="semicolon" unicode=";" horiz-adv-x="300" 
d="M110 138h122l-85 -264h-107zM70 409q0 32 23.5 55t56.5 23q32 0 56 -22t24 -54t-23.5 -55t-56.5 -23q-16 0 -30.5 6t-25.5 16t-17.5 24t-6.5 30z" />
    <glyph glyph-name="less" unicode="&#x3c;" horiz-adv-x="666" 
d="M80 267v72l506 225v-110l-338 -151l338 -151v-110z" />
    <glyph glyph-name="equal" unicode="=" horiz-adv-x="666" 
d="M586 444v-102h-506v102h506zM586 264v-102h-506v102h506z" />
    <glyph glyph-name="greater" unicode="&#x3e;" horiz-adv-x="666" 
d="M586 339v-72l-506 -225v110l338 151l-338 151v110z" />
    <glyph glyph-name="question" unicode="?" horiz-adv-x="519" 
d="M210 209v38q0 24 3.5 43t11 36t20 33t31.5 34l45 43q19 17 32.5 38t13.5 51q0 39 -24.5 65.5t-69.5 26.5q-23 0 -41.5 -8.5t-32 -23t-20.5 -33.5t-8 -39l-123 11q6 48 25.5 85.5t50.5 63.5t71 39.5t86 13.5q43 0 81.5 -12.5t68 -37t46.5 -60.5t17 -83q0 -32 -7 -56
t-20 -44t-31.5 -38.5t-41.5 -38.5q-20 -17 -32.5 -30t-20 -26t-10.5 -28t-3 -37v-26h-118zM190 70q0 32 23.5 55t56.5 23q32 0 56 -22t24 -54t-23.5 -55t-56.5 -23q-16 0 -30.5 6t-25.5 16t-17.5 24t-6.5 30z" />
    <glyph glyph-name="at" unicode="@" horiz-adv-x="800" 
d="M412 467q-24 0 -42 -14t-30.5 -35.5t-19 -47.5t-6.5 -50q0 -12 2.5 -25.5t10 -25t19.5 -19t32 -7.5q27 0 46 13.5t31 34t17.5 44.5t5.5 44q0 16 -3 31.5t-10.5 28t-20.5 20.5t-32 8zM725 103q-59 -63 -140 -92t-171 -29q-86 0 -156.5 27.5t-120.5 76.5t-77.5 117.5
t-27.5 149.5q0 80 30 148t82 118t121.5 78.5t148.5 28.5q68 0 132 -20t113.5 -60t79 -100t29.5 -141q0 -60 -16.5 -106t-44 -77t-63 -46.5t-74.5 -15.5q-40 0 -64 19t-24 48h-5q-15 -24 -46 -45.5t-76 -21.5q-68 0 -105 45t-37 117q0 42 14 83t40 73t62 51.5t80 19.5
q38 0 64 -16t34 -39h1l8 40h89l-39 -189q-2 -14 -5.5 -31t-3.5 -32q0 -17 6.5 -28.5t25.5 -11.5q39 0 64.5 42t25.5 113q0 60 -20 106.5t-55.5 78t-84.5 47.5t-107 16q-63 0 -115.5 -22.5t-89.5 -62t-57.5 -93t-20.5 -115.5q0 -66 21.5 -119t60.5 -90.5t93 -57.5t119 -20
q81 0 139.5 26t107.5 72z" />
    <glyph glyph-name="A" unicode="A" horiz-adv-x="706" 
d="M300 708h109l305 -708h-144l-66 162h-307l-64 -162h-141zM460 270l-109 288l-111 -288h220z" />
    <glyph glyph-name="B" unicode="B" horiz-adv-x="647" 
d="M78 708h276q40 0 79 -9.5t69.5 -31t49.5 -55.5t19 -82q0 -60 -34 -99t-89 -56v-2q67 -9 110 -52t43 -115q0 -58 -23 -97.5t-60.5 -63.5t-86 -34.5t-98.5 -10.5h-255v708zM204 420h112q63 0 96 25t33 71q0 48 -34 68t-106 20h-101v-184zM204 106h113q24 0 52 3.5
t51.5 14.5t39 32t15.5 56q0 56 -38 78t-115 22h-118v-206z" />
    <glyph glyph-name="C" unicode="C" horiz-adv-x="696" 
d="M589 542q-28 38 -73 55.5t-88 17.5q-55 0 -100 -20t-77.5 -55t-50 -82t-17.5 -102q0 -58 17 -106t48.5 -82.5t75.5 -53.5t99 -19q57 0 101 22.5t71 59.5l101 -71q-47 -59 -115 -91.5t-159 -32.5q-83 0 -152.5 27.5t-119.5 77t-78 118t-28 151.5q0 85 29.5 153.5t81 116.5
t121.5 74t152 26q34 0 71 -6.5t71 -20t64 -33.5t51 -48z" />
    <glyph glyph-name="D" unicode="D" horiz-adv-x="764" 
d="M78 708h251q69 0 139 -18t126 -59.5t91 -109t35 -167.5q0 -93 -35 -160t-91 -110t-126 -63.5t-139 -20.5h-251v708zM309 110q49 0 98 11.5t88.5 39t64.5 74.5t25 119q0 76 -25 124t-64.5 75t-88.5 37t-98 10h-105v-490h105z" />
    <glyph glyph-name="E" unicode="E" 
d="M78 708h469v-110h-343v-180h325v-106h-325v-200h361v-112h-487v708z" />
    <glyph glyph-name="F" unicode="F" horiz-adv-x="573" 
d="M78 708h457v-110h-331v-194h312v-106h-312v-298h-126v708z" />
    <glyph glyph-name="G" unicode="G" horiz-adv-x="773" 
d="M698 37q-54 -26 -118.5 -40.5t-148.5 -14.5q-86 0 -157 27.5t-122 77t-79.5 118t-28.5 151.5q0 85 29.5 153.5t81 116.5t121.5 74t152 26q85 0 155.5 -24.5t113.5 -64.5l-87 -94q-27 30 -75.5 51t-105.5 21q-56 0 -101.5 -20t-77.5 -55t-49.5 -82t-17.5 -102
q0 -57 17.5 -104.5t50 -82.5t79 -54.5t105.5 -19.5q81 0 141 25v180h-149v104h271v-367z" />
    <glyph glyph-name="H" unicode="H" horiz-adv-x="739" 
d="M78 708h126v-286h331v286h126v-708h-126v314h-331v-314h-126v708z" />
    <glyph glyph-name="I" unicode="I" horiz-adv-x="282" 
d="M78 708h126v-708h-126v708z" />
    <glyph glyph-name="J" unicode="J" horiz-adv-x="498" 
d="M426 229q0 -39 -8.5 -82t-31.5 -80t-65 -61t-108 -24q-86 0 -137.5 43t-70.5 113l116 33q9 -35 33 -55.5t57 -20.5q27 0 44.5 10t27 28.5t13.5 44t4 55.5v475h126v-479z" />
    <glyph glyph-name="K" unicode="K" horiz-adv-x="689" 
d="M78 708h126v-306h3l296 306h170l-331 -327l353 -381h-177l-311 355h-3v-355h-126v708z" />
    <glyph glyph-name="L" unicode="L" horiz-adv-x="511" 
d="M78 708h126v-596h301v-112h-427v708z" />
    <glyph glyph-name="M" unicode="M" horiz-adv-x="920" 
d="M78 708h197l184 -503h3l182 503h198v-708h-125v569h-2l-215 -569h-88l-212 569h-2v-569h-120v708z" />
    <glyph glyph-name="N" unicode="N" horiz-adv-x="780" 
d="M78 708h167l329 -530h2v530h126v-708h-160l-336 547h-2v-547h-126v708z" />
    <glyph glyph-name="O" unicode="O" horiz-adv-x="849" 
d="M44 356q0 85 28.5 153.5t79 116.5t120 74t151.5 26q83 0 153 -26t121 -74t79.5 -116.5t28.5 -153.5q0 -83 -28.5 -151.5t-79.5 -118t-121 -77t-153 -27.5q-82 0 -151.5 27.5t-120 77t-79 118t-28.5 151.5zM181 356q0 -57 17.5 -104.5t50 -82.5t77 -54.5t98.5 -19.5
t99 19.5t77.5 54.5t50 82.5t17.5 104.5q0 55 -17.5 102t-49.5 82t-77 55t-100 20t-99.5 -20t-76.5 -55t-49.5 -82t-17.5 -102z" />
    <glyph glyph-name="P" unicode="P" 
d="M78 708h231q61 0 110 -11t84 -36t54 -64t19 -94q0 -59 -22 -99t-59.5 -64.5t-87.5 -35.5t-106 -11h-97v-293h-126v708zM292 399q31 0 59 4.5t50 16t35 31.5t13 52q0 31 -13 50.5t-34.5 30.5t-49 14.5t-56.5 3.5h-92v-203h88z" />
    <glyph glyph-name="Q" unicode="Q" horiz-adv-x="852" 
d="M841 0h-427q-85 0 -154.5 24.5t-119 71t-76.5 114t-27 153.5q0 81 28.5 147.5t79.5 114.5t120.5 74.5t150.5 26.5t150 -26.5t119.5 -74.5t78.5 -114.5t28 -147.5q0 -48 -11 -88t-28.5 -72.5t-40 -57t-46.5 -41.5v-2h175v-102zM416 613q-51 0 -95.5 -19t-76.5 -52
t-50.5 -79t-18.5 -100q0 -57 17.5 -103.5t49 -79.5t75.5 -51.5t97 -18.5q52 0 96.5 18.5t76.5 51.5t50 79.5t18 103.5q0 54 -17 100t-48.5 79t-75.5 52t-98 19z" />
    <glyph glyph-name="R" unicode="R" horiz-adv-x="629" 
d="M78 708h246q50 0 97 -10.5t83.5 -34.5t58.5 -63t22 -95q0 -77 -43.5 -125.5t-118.5 -65.5l189 -314h-152l-164 300h-92v-300h-126v708zM307 403q27 0 54 4t48.5 15t35.5 31.5t14 52.5q0 29 -13 47.5t-33 29.5t-45.5 15t-49.5 4h-114v-199h103z" />
    <glyph glyph-name="S" unicode="S" horiz-adv-x="574" 
d="M439 560q-20 26 -56.5 43.5t-73.5 17.5q-22 0 -44 -5.5t-40 -17t-29.5 -30t-11.5 -44.5q0 -24 10 -41t27.5 -29t42.5 -21t55 -18q34 -11 70.5 -25t67 -37t50 -58t19.5 -87q0 -57 -21 -99.5t-56 -70.5t-82 -42t-99 -14q-69 0 -135 25.5t-108 75.5l90 84q26 -36 69.5 -57
t85.5 -21q22 0 45 5.5t41.5 18.5t30 32.5t11.5 48.5q0 28 -13 46.5t-35 32t-52 23.5l-63 21q-32 10 -64 24t-57.5 37t-41.5 56.5t-16 83.5q0 54 22.5 93t59 64.5t83 38t94.5 12.5q54 0 109.5 -19t96.5 -57z" />
    <glyph glyph-name="T" unicode="T" horiz-adv-x="568" 
d="M221 598h-217v110h560v-110h-217v-598h-126v598z" />
    <glyph glyph-name="U" unicode="U" horiz-adv-x="714" 
d="M642 260q0 -64 -22 -115.5t-60 -87.5t-90 -55.5t-113 -19.5t-113 19.5t-90.5 55.5t-60 87.5t-21.5 115.5v448h126v-443q0 -31 8 -61.5t26.5 -54.5t49 -39t75.5 -15t75.5 15t49 39t26.5 54.5t8 61.5v443h126v-448z" />
    <glyph glyph-name="V" unicode="V" horiz-adv-x="653" 
d="M-10 708h141l195 -545h4l197 545h136l-284 -708h-109z" />
    <glyph glyph-name="W" unicode="W" horiz-adv-x="1004" 
d="M6 708h138l137 -520h2l156 520h130l153 -520h2l140 520h134l-207 -708h-122l-166 531h-2l-166 -531h-122z" />
    <glyph glyph-name="X" unicode="X" horiz-adv-x="658" 
d="M249 378l-220 330h152l146 -242l144 242h145l-216 -333l254 -375h-159l-173 278l-166 -278h-152z" />
    <glyph glyph-name="Y" unicode="Y" horiz-adv-x="622" 
d="M249 307l-266 401h154l178 -298l180 298h146l-266 -401v-307h-126v307z" />
    <glyph glyph-name="Z" unicode="Z" horiz-adv-x="611" 
d="M35 114l385 484h-379v110h529v-114l-387 -482h393v-112h-541v114z" />
    <glyph glyph-name="bracketleft" unicode="[" horiz-adv-x="330" 
d="M252 654h-90v-732h90v-78h-192v888h192v-78z" />
    <glyph glyph-name="backslash" unicode="\" horiz-adv-x="389" 
d="M86 758l312 -776l-83 -30l-312 774z" />
    <glyph glyph-name="bracketright" unicode="]" horiz-adv-x="330" 
d="M78 -78h90v732h-90v78h192v-888h-192v78z" />
    <glyph glyph-name="asciicircum" unicode="^" horiz-adv-x="666" 
d="M69 343l223 365h82l223 -365h-118l-147 239l-145 -239h-118z" />
    <glyph glyph-name="underscore" unicode="_" horiz-adv-x="500" 
d="M500 -150h-500v75h500v-75z" />
    <glyph glyph-name="grave" unicode="`" horiz-adv-x="260" 
d="M177 564h-94l-141 144h136z" />
    <glyph glyph-name="a" unicode="a" horiz-adv-x="550" 
d="M370 61h-3q-18 -32 -58 -52.5t-91 -20.5q-29 0 -60.5 7.5t-58 25t-44 46t-17.5 70.5q0 54 30.5 86t78.5 49t106.5 22.5t114.5 5.5v12q0 45 -32.5 66.5t-77.5 21.5q-38 0 -73 -16t-58 -39l-62 73q41 38 94.5 57t108.5 19q64 0 105.5 -18t65.5 -47t33.5 -65t9.5 -72v-292
h-112v61zM368 219h-27q-29 0 -61 -2.5t-59 -11t-45 -24t-18 -42.5q0 -17 7.5 -28.5t19.5 -18.5t27 -10t30 -3q62 0 94 33t32 90v17z" />
    <glyph glyph-name="b" unicode="b" horiz-adv-x="635" 
d="M194 756v-337h3q9 12 23 25t33.5 24t45.5 18.5t59 7.5q51 0 94 -19.5t74 -53.5t48 -80t17 -99t-16.5 -99.5t-47 -81t-74 -55t-98.5 -20.5q-51 0 -95.5 22t-69.5 64h-2v-72h-114v756h120zM469 242q0 28 -8.5 55.5t-25.5 49.5t-43 35.5t-61 13.5q-33 0 -59 -14t-44.5 -36
t-28 -50t-9.5 -56t9.5 -55.5t28 -49.5t44.5 -35.5t59 -13.5q35 0 61 14t43 36t25.5 50t8.5 56z" />
    <glyph glyph-name="c" unicode="c" horiz-adv-x="488" 
d="M400 347q-14 20 -42 33.5t-57 13.5q-33 0 -58 -13.5t-41.5 -35.5t-24.5 -49.5t-8 -55.5t8.5 -55.5t25.5 -49.5t42.5 -35.5t59.5 -13.5q28 0 56 11t45 32l75 -76q-30 -32 -76.5 -49.5t-100.5 -17.5q-53 0 -100.5 17t-83 50t-56 80t-20.5 107q0 58 20.5 105t55.5 80
t81.5 51t99.5 18t102.5 -20t78.5 -55z" />
    <glyph glyph-name="d" unicode="d" horiz-adv-x="634" 
d="M560 0h-114v72h-2q-25 -42 -69.5 -64t-95.5 -22q-55 0 -98.5 20.5t-74 55t-47 81t-16.5 99.5t17 99t48 80t74 53.5t94 19.5q33 0 59 -7.5t45.5 -18.5t33.5 -24t23 -25h3v337h120v-756zM165 242q0 -28 8.5 -56t25.5 -50t43 -36t61 -14q33 0 59 13.5t44.5 35.5t28 49.5
t9.5 55.5t-9.5 56t-28 50t-44.5 36t-59 14q-35 0 -61 -13.5t-43 -35.5t-25.5 -49.5t-8.5 -55.5z" />
    <glyph glyph-name="e" unicode="e" horiz-adv-x="574" 
d="M410 288q0 23 -6.5 44t-20.5 37t-35.5 25.5t-50.5 9.5q-54 0 -91.5 -32.5t-41.5 -83.5h246zM530 234v-16t-1 -16h-365q2 -26 13.5 -47.5t30.5 -37t43 -24.5t50 -9q45 0 76 16.5t51 45.5l80 -64q-71 -96 -206 -96q-56 0 -103 17.5t-81.5 49.5t-54 78.5t-19.5 105.5
q0 58 19.5 105.5t53.5 81t80.5 52t100.5 18.5q50 0 92.5 -16.5t73.5 -49t48.5 -81t17.5 -113.5z" />
    <glyph glyph-name="f" unicode="f" horiz-adv-x="324" 
d="M91 384h-91v96h91v71q0 43 9.5 82.5t32 69.5t59.5 47.5t93 17.5q20 0 33.5 -1.5t27.5 -5.5l-8 -102q-10 3 -21.5 5t-24.5 2q-26 0 -42 -10t-24.5 -26t-11.5 -35t-3 -37v-78h111v-96h-111v-384h-120v384z" />
    <glyph glyph-name="g" unicode="g" horiz-adv-x="632" 
d="M560 480v-437q0 -65 -16 -117.5t-49.5 -89t-84.5 -56.5t-121 -20q-29 0 -61.5 5t-64 15t-60.5 25t-52 34l69 93q35 -33 79 -50.5t89 -17.5q43 0 72.5 12.5t47 34.5t25 52t7.5 66v35h-2q-26 -35 -66.5 -53.5t-90.5 -18.5q-54 0 -98 20t-74.5 54t-47.5 79.5t-17 96.5
q0 52 16.5 98t47 80t74 54t97.5 20q51 0 95 -21t70 -65h2v72h114zM304 396q-33 0 -58.5 -12t-43 -32.5t-27 -48.5t-9.5 -60q0 -29 9.5 -56t27 -48.5t43 -34.5t57.5 -13q33 0 59.5 12.5t45 33.5t28.5 48.5t10 57.5q0 31 -10 59t-28.5 49t-44.5 33t-59 12z" />
    <glyph glyph-name="h" unicode="h" horiz-adv-x="584" 
d="M339 494q47 0 80.5 -16.5t55 -43.5t31.5 -62t10 -72v-300h-120v264q0 21 -3 43.5t-12.5 41t-27 30.5t-46.5 12t-50 -11t-35 -29.5t-21 -41.5t-7 -47v-262h-120v756h120v-343h2q7 15 20.5 29.5t31.5 26t41 18.5t50 7z" />
    <glyph glyph-name="i" unicode="i" horiz-adv-x="268" 
d="M74 480h120v-480h-120v480zM57 643q0 29 21.5 50.5t54.5 21.5t55.5 -20.5t22.5 -51.5t-22.5 -51.5t-55.5 -20.5t-54.5 21.5t-21.5 50.5z" />
    <glyph glyph-name="j" unicode="j" horiz-adv-x="268" 
d="M194 480v-509q0 -43 -7 -81.5t-26.5 -67t-53 -45.5t-87.5 -17q-15 0 -30 2t-24 4l10 102q8 -2 17 -3t16 -1q21 0 34 8t20 22t9 32.5t2 39.5v514h120zM57 643q0 29 21.5 50.5t54.5 21.5t55.5 -20.5t22.5 -51.5t-22.5 -51.5t-55.5 -20.5t-54.5 21.5t-21.5 50.5z" />
    <glyph glyph-name="k" unicode="k" horiz-adv-x="543" 
d="M74 756h120v-478h3l182 202h154l-208 -217l221 -263h-159l-190 246h-3v-246h-120v756z" />
    <glyph glyph-name="l" unicode="l" horiz-adv-x="268" 
d="M74 756h120v-756h-120v756z" />
    <glyph glyph-name="m" unicode="m" horiz-adv-x="890" 
d="M645 494q47 0 80.5 -16.5t55 -43.5t31.5 -62t10 -72v-300h-120v266q0 21 -3 44t-13 41.5t-27.5 30.5t-46.5 12q-28 0 -48 -12t-33 -31t-19 -42.5t-6 -46.5v-262h-120v290q0 45 -21.5 74.5t-67.5 29.5q-27 0 -47 -11.5t-32.5 -29.5t-19 -41.5t-6.5 -47.5v-264h-120v480
h114v-77h2q8 18 21.5 34t32 29t42.5 20.5t53 7.5q56 0 93 -25t57 -66q24 44 64 67.5t94 23.5z" />
    <glyph glyph-name="n" unicode="n" horiz-adv-x="582" 
d="M72 480h114v-77h2q16 36 55.5 63.5t93.5 27.5q47 0 80.5 -16.5t55 -43.5t31.5 -62t10 -72v-300h-120v266q0 21 -3 44t-13 41.5t-27.5 30.5t-46.5 12t-50 -11.5t-34.5 -29.5t-20.5 -41.5t-7 -47.5v-264h-120v480z" />
    <glyph glyph-name="o" unicode="o" 
d="M44 242q0 57 20.5 103.5t55.5 79.5t83 51t102 18t102 -18t83 -51t55.5 -79.5t20.5 -103.5t-20.5 -104t-55.5 -80.5t-83 -52.5t-102 -19t-102 19t-83 52.5t-55.5 80.5t-20.5 104zM166 242q0 -28 8.5 -56t25.5 -50t43 -36t62 -14t62 14t43 36t25.5 50t8.5 56t-8.5 55.5
t-25.5 49.5t-43 35.5t-62 13.5t-62 -13.5t-43 -35.5t-25.5 -49.5t-8.5 -55.5z" />
    <glyph glyph-name="p" unicode="p" horiz-adv-x="633" 
d="M187 480v-67h3q9 14 23.5 28.5t35.5 26t47.5 19t59.5 7.5q51 0 94 -19.5t74 -53.5t48 -80t17 -99t-16.5 -99.5t-47 -81t-74 -55t-98.5 -20.5q-51 0 -93.5 21t-65.5 57h-2v-304h-120v720h115zM467 242q0 28 -8.5 55.5t-25.5 49.5t-43 35.5t-61 13.5q-33 0 -59 -14
t-44.5 -36t-28 -50t-9.5 -56t9.5 -55.5t28 -49.5t44.5 -35.5t59 -13.5q35 0 61 14t43 36t25.5 50t8.5 56z" />
    <glyph glyph-name="q" unicode="q" horiz-adv-x="632" 
d="M560 -240h-120v304h-2q-23 -36 -65.5 -57t-93.5 -21q-55 0 -98.5 20.5t-74 55t-47 81t-16.5 99.5t17 99t48 80t74 53.5t94 19.5q33 0 59.5 -7.5t47.5 -19t35.5 -26t23.5 -28.5h3v67h115v-720zM165 242q0 -28 8.5 -56t25.5 -50t43 -36t61 -14q33 0 59 13.5t44.5 35.5
t28 49.5t9.5 55.5t-9.5 56t-28 50t-44.5 36t-59 14q-35 0 -61 -13.5t-43 -35.5t-25.5 -49.5t-8.5 -55.5z" />
    <glyph glyph-name="r" unicode="r" horiz-adv-x="364" 
d="M72 480h115v-80h2q20 42 56 68t84 26q7 0 15 -0.5t14 -2.5v-110q-12 3 -20.5 4t-16.5 1q-41 0 -66 -15t-39 -36t-19 -43t-5 -35v-257h-120v480z" />
    <glyph glyph-name="s" unicode="s" horiz-adv-x="444" 
d="M335 352q-16 21 -44 36.5t-61 15.5q-29 0 -53 -12t-24 -40t26.5 -39.5t77.5 -23.5q27 -6 54.5 -16t50 -26.5t36.5 -41t14 -59.5q0 -44 -16.5 -74.5t-44 -49.5t-64 -27.5t-75.5 -8.5q-56 0 -109 20.5t-88 58.5l79 74q20 -26 52 -43t71 -17q13 0 26.5 3t25 9.5t18.5 17.5
t7 27q0 30 -27.5 43t-82.5 26q-27 6 -52.5 15.5t-45.5 25t-32 38.5t-12 57q0 40 16.5 69t43.5 47.5t61 27.5t70 9q52 0 101.5 -18t78.5 -55z" />
    <glyph glyph-name="t" unicode="t" horiz-adv-x="340" 
d="M3 384v96h84v139h118v-139h120v-96h-120v-223q0 -32 11.5 -53t51.5 -21q12 0 26 2.5t25 7.5l4 -94q-16 -6 -38 -9.5t-42 -3.5q-48 0 -78 13.5t-47.5 37t-24 54t-6.5 65.5v224h-84z" />
    <glyph glyph-name="u" unicode="u" horiz-adv-x="582" 
d="M510 0h-114v77h-2q-16 -36 -55.5 -63.5t-93.5 -27.5q-47 0 -80.5 16.5t-55 43.5t-31.5 62t-10 72v300h120v-266q0 -21 3 -44t13 -41.5t27.5 -30.5t46.5 -12q28 0 49.5 11.5t35 29.5t20.5 41.5t7 47.5v264h120v-480z" />
    <glyph glyph-name="v" unicode="v" horiz-adv-x="513" 
d="M0 480h131l126 -350h2l127 350h127l-191 -480h-128z" />
    <glyph glyph-name="w" unicode="w" horiz-adv-x="804" 
d="M4 480h130l100 -344h2l103 344h128l104 -344h2l102 344h125l-166 -480h-122l-109 336h-2l-108 -336h-122z" />
    <glyph glyph-name="x" unicode="x" horiz-adv-x="537" 
d="M194 255l-173 225h144l104 -149l107 149h138l-172 -225l196 -255h-146l-125 175l-126 -175h-142z" />
    <glyph glyph-name="y" unicode="y" horiz-adv-x="513" 
d="M0 480h133l134 -349h2l119 349h125l-227 -583q-13 -33 -28 -58.5t-36 -43t-49.5 -26.5t-68.5 -9q-15 0 -30.5 1.5t-31.5 5.5l10 104q12 -4 23.5 -5.5t21.5 -1.5q19 0 32 4.5t22 14t16 23.5t15 33l24 61z" />
    <glyph glyph-name="z" unicode="z" horiz-adv-x="482" 
d="M34 106l259 278h-247v96h390v-106l-260 -276h272v-98h-414v106z" />
    <glyph glyph-name="braceleft" unicode="{" horiz-adv-x="330" 
d="M10 332q10 0 22.5 3t22.5 10.5t17 21.5t7 35v198q0 34 10.5 58.5t28.5 41t41 24.5t48 8h73v-84h-55q-29 0 -36.5 -19t-7.5 -41v-188q0 -29 -11 -49.5t-26 -33.5t-32 -20t-29 -8v-2q12 -1 29 -6.5t32 -18.5t26 -35t11 -57v-182q0 -22 7.5 -41t36.5 -19h55v-84h-73
q-25 0 -48 8t-41 24.5t-28.5 41t-10.5 58.5v191q0 24 -7 39t-17 23.5t-22.5 11.5t-22.5 3v88z" />
    <glyph glyph-name="bar" unicode="|" horiz-adv-x="222" 
d="M162 750v-1000h-102v1000h102z" />
    <glyph glyph-name="braceright" unicode="}" horiz-adv-x="330" 
d="M320 244q-11 0 -23 -3t-22 -11.5t-17 -23.5t-7 -39v-191q0 -34 -10.5 -58.5t-28.5 -41t-41 -24.5t-48 -8h-73v84h55q29 0 36.5 19t7.5 41v182q0 35 11 57t26 35t32 18.5t29 6.5v2q-12 1 -29 8t-32 20t-26 33.5t-11 49.5v188q0 22 -7.5 41t-36.5 19h-55v84h73q25 0 48 -8
t41 -24.5t28.5 -41t10.5 -58.5v-198q0 -21 7 -35t17 -21.5t22 -10.5t23 -3v-88z" />
    <glyph glyph-name="asciitilde" unicode="~" horiz-adv-x="666" 
d="M345 354q21 -14 34.5 -21t23 -11t17.5 -4.5t19 -0.5q24 0 43 16.5t35 46.5l77 -65q-35 -58 -74 -80t-79 -22q-32 0 -60 9.5t-61 30.5q-20 12 -34 19.5t-24.5 11t-18.5 4.5t-16 1q-21 0 -40 -14t-38 -49l-77 65q37 61 75.5 82t77.5 21q37 0 63 -10t57 -30z" />
    <glyph glyph-name="uni00A0" unicode="&#xa0;" horiz-adv-x="250" 
 />
    <glyph glyph-name="exclamdown" unicode="&#xa1;" horiz-adv-x="340" 
d="M110 -214v486h120v-486h-120zM90 424q0 16 6.5 30t17.5 24t25.5 16t30.5 6q33 0 56.5 -23t23.5 -55t-24 -54t-56 -22q-33 0 -56.5 23t-23.5 55z" />
    <glyph glyph-name="cent" unicode="&#xa2;" 
d="M354 492q48 -2 93.5 -17t76.5 -52l-77 -78q-19 20 -42.5 31.5t-50.5 13.5v-300q28 0 53.5 13t43.5 33l73 -79q-32 -35 -77.5 -51t-92.5 -18v-72h-54v72q-51 4 -92.5 25.5t-70 55t-44 77.5t-15.5 95q0 105 59.5 171t162.5 80v67h54v-67zM300 389q-28 -6 -48 -19.5
t-33.5 -33t-20 -44.5t-6.5 -52q0 -53 27 -94.5t81 -55.5v299z" />
    <glyph glyph-name="sterling" unicode="&#xa3;" 
d="M66 107h98v208h-98v84h98v83q0 37 12 80t40.5 79.5t75.5 60.5t116 24q54 0 98.5 -15.5t77.5 -44.5l-71 -83q-19 20 -46 31.5t-59 11.5q-36 0 -59.5 -14.5t-37.5 -36.5t-19.5 -48t-5.5 -50v-78h164v-84h-164v-208h265v-107h-485v107z" />
    <glyph glyph-name="currency" unicode="&#xa4;" 
d="M508 420q39 -59 39 -136q0 -39 -11 -75t-30 -65l83 -84l-63 -64l-86 85q-56 -39 -134 -39q-37 0 -71.5 11t-62.5 29l-87 -86l-64 64l86 87q-17 28 -28.5 63.5t-11.5 73.5t10 71.5t27 62.5l-83 83l64 63l83 -81q29 18 64.5 29.5t73.5 11.5q39 0 74.5 -11t62.5 -30l82 81
l64 -63zM306 428q-32 0 -57.5 -11.5t-43.5 -31t-27.5 -45.5t-9.5 -56t9.5 -56.5t27.5 -46t43.5 -31t57.5 -11.5t58 11.5t44 31t27.5 46t9.5 56.5t-9.5 56t-27.5 45.5t-44 31t-58 11.5z" />
    <glyph glyph-name="yen" unicode="&#xa5;" 
d="M245 155h-176v78h176v77h-176v78h145l-198 320h140l155 -288l149 288h134l-193 -320h140v-78h-176v-77h176v-78h-176v-155h-120v155z" />
    <glyph glyph-name="brokenbar" unicode="&#xa6;" horiz-adv-x="222" 
d="M162 675v-350h-102v350h102zM162 175v-350h-102v350h102z" />
    <glyph glyph-name="section" unicode="&#xa7;" 
d="M447 567q-20 29 -51.5 46t-63.5 17q-15 0 -31 -4t-29 -12t-21.5 -20.5t-8.5 -29.5q0 -19 10 -33.5t27 -26.5t41 -23t52 -23q30 -13 60.5 -28.5t55 -36.5t39.5 -48.5t15 -64.5q0 -42 -23.5 -76.5t-57.5 -51.5q29 -22 40.5 -51t11.5 -65q0 -45 -19.5 -79t-50.5 -56.5
t-70 -33.5t-78 -11q-31 0 -63.5 7t-62.5 21t-56.5 35t-44.5 50l99 59q18 -35 54 -52.5t73 -17.5q15 0 32 4t31 13t23 22.5t9 31.5q0 22 -9.5 37.5t-28.5 27.5t-47 23.5t-65 25.5q-28 11 -55.5 24t-49 31.5t-35 43.5t-13.5 60q0 27 8 49.5t21.5 40.5t30.5 31.5t36 23.5
q-61 39 -61 114q0 42 18.5 73t48.5 51.5t67 30.5t74 10q59 0 112.5 -21.5t87.5 -64.5zM385 196q20 10 31.5 29t11.5 39q0 19 -7.5 32.5t-19 24t-26 18.5t-28.5 15l-89 40q-23 -10 -40.5 -25.5t-17.5 -44.5q0 -18 7.5 -31.5t19 -23t26 -17t28.5 -13.5z" />
    <glyph glyph-name="dieresis" unicode="&#xa8;" horiz-adv-x="260" 
d="M-40 644q0 28 20 49t51 21t52 -20t21 -50t-21 -50t-52 -20t-51 21t-20 49zM156 644q0 28 20 49t51 21t52 -20t21 -50t-21 -50t-52 -20t-51 21t-20 49z" />
    <glyph glyph-name="copyright" unicode="&#xa9;" horiz-adv-x="800" 
d="M514 443q-14 18 -40.5 30t-55.5 12q-30 0 -53.5 -11t-39 -29.5t-23.5 -42.5t-8 -49q0 -26 8.5 -50.5t25 -43t41 -30t56.5 -11.5q26 0 51.5 10t41.5 28l58 -68q-26 -29 -68 -44.5t-90 -15.5t-89.5 14.5t-73 43t-49.5 70t-18 95.5q0 52 18 94t49.5 70.5t73.5 44t89 15.5
q48 0 90.5 -18t68.5 -51zM20 353q0 79 30 147.5t81.5 119.5t121 80.5t148.5 29.5q78 0 147 -29.5t120.5 -80.5t81.5 -119.5t30 -147.5q0 -78 -30 -146.5t-81.5 -119.5t-120.5 -80t-147 -29q-79 0 -148.5 29t-121 80t-81.5 119.5t-30 146.5zM80 353q0 -66 25.5 -124
t69 -101.5t102 -68.5t124.5 -25t124 25t101.5 68.5t68.5 101.5t25 124t-25 124.5t-68.5 102t-101.5 69t-124 25.5t-124.5 -25.5t-102 -69t-69 -102t-25.5 -124.5z" />
    <glyph glyph-name="ordfeminine" unicode="&#xaa;" horiz-adv-x="380" 
d="M244 461h-1q-10 -17 -34 -27t-55 -10q-20 0 -39 5.5t-33.5 16t-23.5 27t-9 37.5q0 35 18 55t45.5 30t61 12.5t64.5 2.5v6q0 23 -17 32.5t-43 9.5q-20 0 -38.5 -8.5t-30.5 -22.5l-44 52q23 23 55 33.5t65 10.5q39 0 64.5 -9.5t40.5 -26t21 -38t6 -44.5v-174h-73v30z
M238 557h-14q-13 0 -29 -1.5t-30 -5.5t-23.5 -11.5t-9.5 -20.5q0 -17 13.5 -24.5t29.5 -7.5q31 0 47 16t16 42v13z" />
    <glyph glyph-name="guillemotleft" unicode="&#xab;" horiz-adv-x="519" 
d="M142 248l116 -175l-76 -51l-152 226l152 224l75 -51zM365 248l116 -175l-76 -51l-152 226l152 224l75 -51z" />
    <glyph glyph-name="logicalnot" unicode="&#xac;" horiz-adv-x="666" 
d="M502 342h-440v102h542v-297h-102v195z" />
    <glyph glyph-name="uni00AD" unicode="&#xad;" horiz-adv-x="320" 
d="M280 195h-240v102h240v-102z" />
    <glyph glyph-name="registered" unicode="&#xae;" horiz-adv-x="600" 
d="M528 493q0 -47 -18 -88t-48.5 -71t-72 -47.5t-88.5 -17.5t-89 17.5t-73 47.5t-49 71t-18 88t18 88.5t49 72t73 48.5t89 18t88.5 -18t72 -48.5t48.5 -72t18 -88.5zM492 493q0 40 -15 75t-41 61.5t-60.5 41.5t-74.5 15t-75 -15t-61.5 -41.5t-41.5 -61.5t-15 -75
q0 -39 15 -74t41.5 -61t61.5 -41t75 -15t74.5 15t60.5 41t41 61t15 74zM349 368l-50 96h-29v-96h-71v260h112q19 0 38 -4t34.5 -13.5t25 -25.5t9.5 -39q0 -26 -14.5 -44.5t-37.5 -26.5l66 -107h-83zM343 545q0 13 -11.5 19t-23.5 6h-38v-54h38q14 0 24.5 8t10.5 21z" />
    <glyph glyph-name="macron" unicode="&#xaf;" horiz-adv-x="260" 
d="M290 595h-320v78h320v-78z" />
    <glyph glyph-name="degree" unicode="&#xb0;" horiz-adv-x="400" 
d="M40 560q0 33 12.5 62t34.5 51t51 34.5t62 12.5t62 -12.5t51 -34.5t34.5 -51t12.5 -62t-12.5 -62t-34.5 -51t-51 -34.5t-62 -12.5t-62 12.5t-51 34.5t-34.5 51t-12.5 62zM118 560q0 -34 24 -58t58 -24t58 24t24 58t-24 58t-58 24t-58 -24t-24 -58z" />
    <glyph glyph-name="plusminus" unicode="&#xb1;" horiz-adv-x="666" 
d="M286 574h96v-143h204v-102h-204v-143h-96v143h-206v102h206v143zM80 134h506v-102h-506v102z" />
    <glyph glyph-name="twosuperior" unicode="&#xb2;" horiz-adv-x="400" 
d="M178 365h169v-82h-291v76l162 161q16 16 26 33t10 37q0 23 -15 36t-38 13q-26 0 -42.5 -19t-18.5 -48l-88 12q3 29 15.5 54t32 43t45.5 28t56 10q28 0 54.5 -8t47 -24t32.5 -40t12 -56q0 -42 -20.5 -72t-48.5 -57z" />
    <glyph glyph-name="threesuperior" unicode="&#xb3;" horiz-adv-x="400" 
d="M148 540h28q28 0 51.5 12.5t23.5 44.5q0 21 -15.5 33t-37.5 12q-21 0 -36 -15t-20 -38l-86 21q14 48 53.5 79t91.5 31q60 0 101 -29t41 -89q0 -29 -14.5 -54t-40.5 -39q32 -12 49 -38t17 -62q0 -34 -13.5 -59t-35.5 -41t-49 -24t-55 -8q-55 0 -98 26t-63 86l85 25
q8 -25 25.5 -41.5t46.5 -16.5q24 0 45 13t21 44q0 17 -8.5 28t-21 17t-28 8.5t-30.5 2.5h-27v71z" />
    <glyph glyph-name="acute" unicode="&#xb4;" horiz-adv-x="260" 
d="M182 708h136l-141 -144h-94z" />
    <glyph glyph-name="mu" unicode="&#xb5;" horiz-adv-x="574" 
d="M188 480v-243q0 -20 2 -44.5t10.5 -46t26 -36t49.5 -14.5q30 0 50.5 10t34 27t19.5 39t6 46v262h120v-480h-114v77h-2q-8 -18 -19.5 -34t-28 -28.5t-38.5 -19.5t-51 -7q-18 0 -36.5 6t-28.5 18v-240h-120v708h120z" />
    <glyph glyph-name="paragraph" unicode="&#xb6;" horiz-adv-x="600" 
d="M246 338q-49 0 -88.5 13.5t-67.5 38t-43.5 58t-15.5 72.5q0 50 17 86t47.5 58.5t73.5 33t95 10.5h269v-834h-90v762h-107v-762h-90v464z" />
    <glyph glyph-name="periodcentered" unicode="&#xb7;" horiz-adv-x="260" 
d="M50 291q0 32 23.5 55t56.5 23q32 0 56 -22t24 -54t-23.5 -55t-56.5 -23q-16 0 -30.5 6t-25.5 16t-17.5 24t-6.5 30z" />
    <glyph glyph-name="cedilla" unicode="&#xb8;" horiz-adv-x="260" 
d="M133 -64q6 1 10.5 1h8.5q19 0 37.5 -3.5t33.5 -12.5t24.5 -25t9.5 -42q0 -27 -13 -45.5t-32.5 -29t-44 -15t-46.5 -4.5q-30 0 -59.5 7.5t-50.5 18.5l23 48q38 -20 82 -20q8 0 18 1.5t18.5 6t14.5 12.5t6 21q0 11 -5.5 18t-13.5 11t-17 5.5t-17 1.5t-19 -1.5t-20 -4.5
l-23 25l62 90h58z" />
    <glyph glyph-name="onesuperior" unicode="&#xb9;" horiz-adv-x="400" 
d="M42 597l137 111h83v-429h-94v317l-73 -61z" />
    <glyph glyph-name="ordmasculine" unicode="&#xba;" horiz-adv-x="380" 
d="M342 574q0 -32 -11.5 -59.5t-31.5 -47t-48 -30.5t-61 -11t-61 11t-48 30.5t-31.5 47t-11.5 59.5q0 33 11.5 60t31.5 46.5t48 30.5t61 11t61 -11t48 -30.5t31.5 -46.5t11.5 -60zM260 574q0 30 -17.5 52.5t-52.5 22.5t-52 -22.5t-17 -52.5q0 -29 17 -52t52 -23t52.5 23
t17.5 52z" />
    <glyph glyph-name="guillemotright" unicode="&#xbb;" horiz-adv-x="519" 
d="M377 246l-116 175l76 51l152 -226l-152 -224l-75 51zM154 246l-116 175l76 51l152 -226l-152 -224l-75 51z" />
    <glyph glyph-name="onequarter" unicode="&#xbc;" horiz-adv-x="900" 
d="M682 85h-190v74l179 270h97v-265h58v-79h-58v-85h-86v85zM682 313h-1l-96 -149h97v149zM602 740l78 -38l-416 -734l-78 38zM42 597l137 111h83v-429h-94v317l-73 -61z" />
    <glyph glyph-name="onehalf" unicode="&#xbd;" horiz-adv-x="900" 
d="M602 740l78 -38l-416 -734l-78 38zM671 82h169v-82h-291v76l162 161q16 16 26 33t10 37q0 23 -15 36t-38 13q-26 0 -42.5 -19t-18.5 -48l-88 12q3 29 15.5 54t32 43t45.5 28t56 10q28 0 54.5 -8t47 -24t32.5 -40t12 -56q0 -42 -20.5 -72t-48.5 -57zM42 597l137 111h83
v-429h-94v317l-73 -61z" />
    <glyph glyph-name="threequarters" unicode="&#xbe;" horiz-adv-x="900" 
d="M682 85h-190v74l179 270h97v-265h58v-79h-58v-85h-86v85zM682 313h-1l-96 -149h97v149zM602 740l78 -38l-416 -734l-78 38zM148 540h28q28 0 51.5 12.5t23.5 44.5q0 21 -15.5 33t-37.5 12q-21 0 -36 -15t-20 -38l-86 21q14 48 53.5 79t91.5 31q60 0 101 -29t41 -89
q0 -29 -14.5 -54t-40.5 -39q32 -12 49 -38t17 -62q0 -34 -13.5 -59t-35.5 -41t-49 -24t-55 -8q-55 0 -98 26t-63 86l85 25q8 -25 25.5 -41.5t46.5 -16.5q24 0 45 13t21 44q0 17 -8.5 28t-21 17t-28 8.5t-30.5 2.5h-27v71z" />
    <glyph glyph-name="questiondown" unicode="&#xbf;" horiz-adv-x="519" 
d="M313 285v-38q0 -24 -3.5 -43t-11 -36t-20 -33t-31.5 -34l-45 -43q-19 -17 -32.5 -38t-13.5 -51q0 -39 24.5 -65.5t69.5 -26.5q23 0 41.5 8.5t32 23t20.5 33.5t8 39l123 -11q-6 -48 -25.5 -85.5t-50.5 -63.5t-71 -39.5t-86 -13.5q-43 0 -81.5 12.5t-68 37t-46.5 60.5
t-17 83q0 32 7 56t20 44t31.5 38.5t41.5 38.5q19 17 32 30t20.5 26t10.5 28t3 37v26h118zM333 424q0 -32 -23.5 -55t-56.5 -23q-32 0 -56 22t-24 54t23.5 55t56.5 23q16 0 30.5 -6t25.5 -16t17.5 -24t6.5 -30z" />
    <glyph glyph-name="Agrave" unicode="&#xc0;" horiz-adv-x="706" 
d="M300 708h109l305 -708h-144l-66 162h-307l-64 -162h-141zM460 270l-109 288l-111 -288h220zM403 764h-94l-141 144h136z" />
    <glyph glyph-name="Aacute" unicode="&#xc1;" horiz-adv-x="706" 
d="M300 708h109l305 -708h-144l-66 162h-307l-64 -162h-141zM460 270l-109 288l-111 -288h220zM400 908h136l-141 -144h-94z" />
    <glyph glyph-name="Acircumflex" unicode="&#xc2;" horiz-adv-x="706" 
d="M300 708h109l305 -708h-144l-66 162h-307l-64 -162h-141zM460 270l-109 288l-111 -288h220zM423 764l-69 90l-69 -90h-112l115 144h135l114 -144h-114z" />
    <glyph glyph-name="Atilde" unicode="&#xc3;" horiz-adv-x="706" 
d="M300 708h109l305 -708h-144l-66 162h-307l-64 -162h-141zM460 270l-109 288l-111 -288h220zM170 768q4 24 11.5 47t20.5 40.5t32.5 28.5t47.5 11q20 0 40.5 -5t38.5 -13q20 -8 36.5 -13.5t28.5 -5.5q20 0 30.5 12.5t15.5 29.5h66q-4 -24 -11.5 -47t-20.5 -40.5
t-32.5 -28.5t-47.5 -11q-21 0 -42 6t-40 14q-18 8 -34 13t-28 5q-20 0 -30.5 -13t-15.5 -30h-66z" />
    <glyph glyph-name="Adieresis" unicode="&#xc4;" horiz-adv-x="706" 
d="M300 708h109l305 -708h-144l-66 162h-307l-64 -162h-141zM460 270l-109 288l-111 -288h220zM186 844q0 28 20 49t51 21t52 -20t21 -50t-21 -50t-52 -20t-51 21t-20 49zM382 844q0 28 20 49t51 21t52 -20t21 -50t-21 -50t-52 -20t-51 21t-20 49z" />
    <glyph glyph-name="Aring" unicode="&#xc5;" horiz-adv-x="706" 
d="M300 708h109l305 -708h-144l-66 162h-307l-64 -162h-141zM460 270l-109 288l-111 -288h220zM458 855q0 -45 -30 -73.5t-75 -28.5t-75 28.5t-30 72.5q0 22 8 41t22 32.5t33 21.5t42 8q45 0 75 -28.5t30 -73.5zM412 855q0 25 -17 41t-42 16q-26 0 -42.5 -16.5t-16.5 -41.5
q0 -24 17 -40t42 -16t42 16t17 41z" />
    <glyph glyph-name="AE" unicode="&#xc6;" horiz-adv-x="1046" 
d="M529 186h-268l-114 -186h-153l453 708h536v-110h-328v-180h310v-106h-310v-200h346v-112h-472v186zM529 294v304h-15l-187 -304h202z" />
    <glyph glyph-name="Ccedilla" unicode="&#xc7;" horiz-adv-x="696" 
d="M589 542q-28 38 -73 55.5t-88 17.5q-55 0 -100 -20t-77.5 -55t-50 -82t-17.5 -102q0 -58 17 -106t48.5 -82.5t75.5 -53.5t99 -19q57 0 101 22.5t71 59.5l101 -71q-45 -57 -109 -88.5t-149 -34.5l-32 -47q6 1 10.5 1h8.5q19 0 37.5 -3.5t33.5 -12.5t24.5 -25t9.5 -42
q0 -27 -13 -45.5t-32.5 -29t-44 -15t-46.5 -4.5q-30 0 -59.5 7.5t-50.5 18.5l23 48q38 -20 82 -20q8 0 18 1.5t18.5 6t14.5 12.5t6 21q0 11 -5.5 18t-13.5 11t-17 5.5t-17 1.5t-19 -1.5t-20 -4.5l-23 25l51 74q-75 6 -137 36t-107 78.5t-69.5 114t-24.5 143.5
q0 85 29.5 153.5t81 116.5t121.5 74t152 26q34 0 71 -6.5t71 -20t64 -33.5t51 -48z" />
    <glyph glyph-name="Egrave" unicode="&#xc8;" 
d="M78 708h469v-110h-343v-180h325v-106h-325v-200h361v-112h-487v708zM395 764h-94l-141 144h136z" />
    <glyph glyph-name="Eacute" unicode="&#xc9;" 
d="M78 708h469v-110h-343v-180h325v-106h-325v-200h361v-112h-487v708zM352 908h136l-141 -144h-94z" />
    <glyph glyph-name="Ecircumflex" unicode="&#xca;" 
d="M78 708h469v-110h-343v-180h325v-106h-325v-200h361v-112h-487v708zM385 764l-69 90l-69 -90h-112l115 144h135l114 -144h-114z" />
    <glyph glyph-name="Edieresis" unicode="&#xcb;" 
d="M78 708h469v-110h-343v-180h325v-106h-325v-200h361v-112h-487v708zM148 844q0 28 20 49t51 21t52 -20t21 -50t-21 -50t-52 -20t-51 21t-20 49zM344 844q0 28 20 49t51 21t52 -20t21 -50t-21 -50t-52 -20t-51 21t-20 49z" />
    <glyph glyph-name="Igrave" unicode="&#xcc;" horiz-adv-x="282" 
d="M78 708h126v-708h-126v708zM203 764h-94l-141 144h136z" />
    <glyph glyph-name="Iacute" unicode="&#xcd;" horiz-adv-x="282" 
d="M78 708h126v-708h-126v708zM177 908h136l-141 -144h-94z" />
    <glyph glyph-name="Icircumflex" unicode="&#xce;" horiz-adv-x="282" 
d="M78 708h126v-708h-126v708zM208 764l-69 90l-69 -90h-112l115 144h135l114 -144h-114z" />
    <glyph glyph-name="Idieresis" unicode="&#xcf;" horiz-adv-x="282" 
d="M78 708h126v-708h-126v708zM-29 844q0 28 20 49t51 21t52 -20t21 -50t-21 -50t-52 -20t-51 21t-20 49zM167 844q0 28 20 49t51 21t52 -20t21 -50t-21 -50t-52 -20t-51 21t-20 49z" />
    <glyph glyph-name="Eth" unicode="&#xd0;" horiz-adv-x="764" 
d="M79 324h-66v84h66v300h279q70 0 135 -21.5t115 -65.5t80 -110.5t30 -156.5q0 -91 -34.5 -157.5t-89 -110t-121 -65t-130.5 -21.5h-264v324zM299 114q59 0 111.5 13.5t91.5 42t61.5 74t22.5 110.5q0 64 -20 110t-55.5 74.5t-84 42t-106.5 13.5h-115v-186h216v-84h-216
v-210h94z" />
    <glyph glyph-name="Ntilde" unicode="&#xd1;" horiz-adv-x="780" 
d="M78 708h167l329 -530h2v530h126v-708h-160l-336 547h-2v-547h-126v708zM205 768q4 24 11.5 47t20.5 40.5t32.5 28.5t47.5 11q20 0 40.5 -5t38.5 -13q20 -8 36.5 -13.5t28.5 -5.5q20 0 30.5 12.5t15.5 29.5h66q-4 -24 -11.5 -47t-20.5 -40.5t-32.5 -28.5t-47.5 -11
q-21 0 -42 6t-40 14q-18 8 -34 13t-28 5q-20 0 -30.5 -13t-15.5 -30h-66z" />
    <glyph glyph-name="Ograve" unicode="&#xd2;" horiz-adv-x="849" 
d="M44 356q0 85 28.5 153.5t79 116.5t120 74t151.5 26q83 0 153 -26t121 -74t79.5 -116.5t28.5 -153.5q0 -83 -28.5 -151.5t-79.5 -118t-121 -77t-153 -27.5q-82 0 -151.5 27.5t-120 77t-79 118t-28.5 151.5zM181 356q0 -57 17.5 -104.5t50 -82.5t77 -54.5t98.5 -19.5
t99 19.5t77.5 54.5t50 82.5t17.5 104.5q0 55 -17.5 102t-49.5 82t-77 55t-100 20t-99.5 -20t-76.5 -55t-49.5 -82t-17.5 -102zM494 764h-94l-141 144h136z" />
    <glyph glyph-name="Oacute" unicode="&#xd3;" horiz-adv-x="849" 
d="M44 356q0 85 28.5 153.5t79 116.5t120 74t151.5 26q83 0 153 -26t121 -74t79.5 -116.5t28.5 -153.5q0 -83 -28.5 -151.5t-79.5 -118t-121 -77t-153 -27.5q-82 0 -151.5 27.5t-120 77t-79 118t-28.5 151.5zM181 356q0 -57 17.5 -104.5t50 -82.5t77 -54.5t98.5 -19.5
t99 19.5t77.5 54.5t50 82.5t17.5 104.5q0 55 -17.5 102t-49.5 82t-77 55t-100 20t-99.5 -20t-76.5 -55t-49.5 -82t-17.5 -102zM460 908h136l-141 -144h-94z" />
    <glyph glyph-name="Ocircumflex" unicode="&#xd4;" horiz-adv-x="849" 
d="M44 356q0 85 28.5 153.5t79 116.5t120 74t151.5 26q83 0 153 -26t121 -74t79.5 -116.5t28.5 -153.5q0 -83 -28.5 -151.5t-79.5 -118t-121 -77t-153 -27.5q-82 0 -151.5 27.5t-120 77t-79 118t-28.5 151.5zM181 356q0 -57 17.5 -104.5t50 -82.5t77 -54.5t98.5 -19.5
t99 19.5t77.5 54.5t50 82.5t17.5 104.5q0 55 -17.5 102t-49.5 82t-77 55t-100 20t-99.5 -20t-76.5 -55t-49.5 -82t-17.5 -102zM497 764l-69 90l-69 -90h-112l115 144h135l114 -144h-114z" />
    <glyph glyph-name="Otilde" unicode="&#xd5;" horiz-adv-x="849" 
d="M44 356q0 85 28.5 153.5t79 116.5t120 74t151.5 26q83 0 153 -26t121 -74t79.5 -116.5t28.5 -153.5q0 -83 -28.5 -151.5t-79.5 -118t-121 -77t-153 -27.5q-82 0 -151.5 27.5t-120 77t-79 118t-28.5 151.5zM181 356q0 -57 17.5 -104.5t50 -82.5t77 -54.5t98.5 -19.5
t99 19.5t77.5 54.5t50 82.5t17.5 104.5q0 55 -17.5 102t-49.5 82t-77 55t-100 20t-99.5 -20t-76.5 -55t-49.5 -82t-17.5 -102zM244 768q4 24 11.5 47t20.5 40.5t32.5 28.5t47.5 11q20 0 40.5 -5t38.5 -13q20 -8 36.5 -13.5t28.5 -5.5q20 0 30.5 12.5t15.5 29.5h66
q-4 -24 -11.5 -47t-20.5 -40.5t-32.5 -28.5t-47.5 -11q-21 0 -42 6t-40 14q-18 8 -34 13t-28 5q-20 0 -30.5 -13t-15.5 -30h-66z" />
    <glyph glyph-name="Odieresis" unicode="&#xd6;" horiz-adv-x="849" 
d="M44 356q0 85 28.5 153.5t79 116.5t120 74t151.5 26q83 0 153 -26t121 -74t79.5 -116.5t28.5 -153.5q0 -83 -28.5 -151.5t-79.5 -118t-121 -77t-153 -27.5q-82 0 -151.5 27.5t-120 77t-79 118t-28.5 151.5zM181 356q0 -57 17.5 -104.5t50 -82.5t77 -54.5t98.5 -19.5
t99 19.5t77.5 54.5t50 82.5t17.5 104.5q0 55 -17.5 102t-49.5 82t-77 55t-100 20t-99.5 -20t-76.5 -55t-49.5 -82t-17.5 -102zM257 844q0 28 20 49t51 21t52 -20t21 -50t-21 -50t-52 -20t-51 21t-20 49zM453 844q0 28 20 49t51 21t52 -20t21 -50t-21 -50t-52 -20t-51 21
t-20 49z" />
    <glyph glyph-name="multiply" unicode="&#xd7;" horiz-adv-x="666" 
d="M333 374l182 182l70 -70l-181 -181l185 -186l-74 -74l-183 181l-181 -181l-74 73l185 182l-184 186l72 71z" />
    <glyph glyph-name="Oslash" unicode="&#xd8;" horiz-adv-x="849" 
d="M44 356q0 85 28.5 153.5t79 116.5t120 74t151.5 26q65 0 122 -16t103 -46l85 93l49 -43l-83 -91q51 -49 78.5 -116t27.5 -151q0 -83 -28.5 -151t-79.5 -117t-121 -77t-153 -29q-71 0 -131.5 19.5t-108.5 57.5l-85 -92l-50 43l87 94q-44 46 -67.5 111t-23.5 141zM674 356
q0 51 -14 95t-43 79l-352 -383q60 -55 159 -55q55 0 101 19.5t79 54.5t51.5 83.5t18.5 106.5zM175 356q0 -49 11 -88t34 -71l349 378q-26 20 -63 31.5t-82 11.5q-57 0 -103 -20t-78.5 -55t-50 -83t-17.5 -104z" />
    <glyph glyph-name="Ugrave" unicode="&#xd9;" horiz-adv-x="714" 
d="M642 260q0 -64 -22 -115.5t-60 -87.5t-90 -55.5t-113 -19.5t-113 19.5t-90.5 55.5t-60 87.5t-21.5 115.5v448h126v-443q0 -31 8 -61.5t26.5 -54.5t49 -39t75.5 -15t75.5 15t49 39t26.5 54.5t8 61.5v443h126v-448zM437 764h-94l-141 144h136z" />
    <glyph glyph-name="Uacute" unicode="&#xda;" horiz-adv-x="714" 
d="M642 260q0 -64 -22 -115.5t-60 -87.5t-90 -55.5t-113 -19.5t-113 19.5t-90.5 55.5t-60 87.5t-21.5 115.5v448h126v-443q0 -31 8 -61.5t26.5 -54.5t49 -39t75.5 -15t75.5 15t49 39t26.5 54.5t8 61.5v443h126v-448zM390 908h136l-141 -144h-94z" />
    <glyph glyph-name="Ucircumflex" unicode="&#xdb;" horiz-adv-x="714" 
d="M642 260q0 -64 -22 -115.5t-60 -87.5t-90 -55.5t-113 -19.5t-113 19.5t-90.5 55.5t-60 87.5t-21.5 115.5v448h126v-443q0 -31 8 -61.5t26.5 -54.5t49 -39t75.5 -15t75.5 15t49 39t26.5 54.5t8 61.5v443h126v-448zM427 764l-69 90l-69 -90h-112l115 144h135l114 -144h-114
z" />
    <glyph glyph-name="Udieresis" unicode="&#xdc;" horiz-adv-x="714" 
d="M642 260q0 -64 -22 -115.5t-60 -87.5t-90 -55.5t-113 -19.5t-113 19.5t-90.5 55.5t-60 87.5t-21.5 115.5v448h126v-443q0 -31 8 -61.5t26.5 -54.5t49 -39t75.5 -15t75.5 15t49 39t26.5 54.5t8 61.5v443h126v-448zM189 844q0 28 20 49t51 21t52 -20t21 -50t-21 -50
t-52 -20t-51 21t-20 49zM385 844q0 28 20 49t51 21t52 -20t21 -50t-21 -50t-52 -20t-51 21t-20 49z" />
    <glyph glyph-name="Yacute" unicode="&#xdd;" horiz-adv-x="622" 
d="M249 307l-266 401h154l178 -298l180 298h146l-266 -401v-307h-126v307zM365 908h136l-141 -144h-94z" />
    <glyph glyph-name="Thorn" unicode="&#xde;" 
d="M78 708h126v-134h105q61 0 110 -11t84 -36t54 -64t19 -94q0 -59 -22 -99t-59.5 -64.5t-87.5 -35.5t-106 -11h-97v-159h-126v708zM292 265q31 0 59 4.5t50 16t35 31.5t13 52q0 31 -13 50.5t-34.5 30.5t-49 14.5t-56.5 3.5h-92v-203h88z" />
    <glyph glyph-name="germandbls" unicode="&#xdf;" horiz-adv-x="627" 
d="M72 507q0 52 13.5 99t43 83t75.5 57.5t112 21.5q47 0 86.5 -15t68 -41.5t44 -62t15.5 -76.5q0 -26 -8 -50t-22.5 -44t-34 -34.5t-42.5 -20.5v-2q38 -6 68.5 -23.5t51.5 -44t32.5 -60t11.5 -72.5q0 -51 -17 -94t-49.5 -74t-78 -48.5t-102.5 -17.5q-21 0 -42.5 2.5
t-44.5 8.5v101q14 -5 34.5 -7.5t35.5 -2.5q63 0 102 37t39 101q0 35 -12.5 61t-33.5 42.5t-49 24.5t-59 8h-13v102h15q45 0 72 26t27 70q0 19 -6 37t-18 32t-31 23t-45 9q-36 0 -59 -15t-36.5 -39t-18.5 -52.5t-5 -55.5v-501h-120v507z" />
    <glyph glyph-name="agrave" unicode="&#xe0;" horiz-adv-x="550" 
d="M370 61h-3q-18 -32 -58 -52.5t-91 -20.5q-29 0 -60.5 7.5t-58 25t-44 46t-17.5 70.5q0 54 30.5 86t78.5 49t106.5 22.5t114.5 5.5v12q0 45 -32.5 66.5t-77.5 21.5q-38 0 -73 -16t-58 -39l-62 73q41 38 94.5 57t108.5 19q64 0 105.5 -18t65.5 -47t33.5 -65t9.5 -72v-292
h-112v61zM368 219h-27q-29 0 -61 -2.5t-59 -11t-45 -24t-18 -42.5q0 -17 7.5 -28.5t19.5 -18.5t27 -10t30 -3q62 0 94 33t32 90v17zM335 564h-94l-141 144h136z" />
    <glyph glyph-name="aacute" unicode="&#xe1;" horiz-adv-x="550" 
d="M370 61h-3q-18 -32 -58 -52.5t-91 -20.5q-29 0 -60.5 7.5t-58 25t-44 46t-17.5 70.5q0 54 30.5 86t78.5 49t106.5 22.5t114.5 5.5v12q0 45 -32.5 66.5t-77.5 21.5q-38 0 -73 -16t-58 -39l-62 73q41 38 94.5 57t108.5 19q64 0 105.5 -18t65.5 -47t33.5 -65t9.5 -72v-292
h-112v61zM368 219h-27q-29 0 -61 -2.5t-59 -11t-45 -24t-18 -42.5q0 -17 7.5 -28.5t19.5 -18.5t27 -10t30 -3q62 0 94 33t32 90v17zM294 708h136l-141 -144h-94z" />
    <glyph glyph-name="acircumflex" unicode="&#xe2;" horiz-adv-x="550" 
d="M370 61h-3q-18 -32 -58 -52.5t-91 -20.5q-29 0 -60.5 7.5t-58 25t-44 46t-17.5 70.5q0 54 30.5 86t78.5 49t106.5 22.5t114.5 5.5v12q0 45 -32.5 66.5t-77.5 21.5q-38 0 -73 -16t-58 -39l-62 73q41 38 94.5 57t108.5 19q64 0 105.5 -18t65.5 -47t33.5 -65t9.5 -72v-292
h-112v61zM368 219h-27q-29 0 -61 -2.5t-59 -11t-45 -24t-18 -42.5q0 -17 7.5 -28.5t19.5 -18.5t27 -10t30 -3q62 0 94 33t32 90v17zM342 564l-69 90l-69 -90h-112l115 144h135l114 -144h-114z" />
    <glyph glyph-name="atilde" unicode="&#xe3;" horiz-adv-x="550" 
d="M370 61h-3q-18 -32 -58 -52.5t-91 -20.5q-29 0 -60.5 7.5t-58 25t-44 46t-17.5 70.5q0 54 30.5 86t78.5 49t106.5 22.5t114.5 5.5v12q0 45 -32.5 66.5t-77.5 21.5q-38 0 -73 -16t-58 -39l-62 73q41 38 94.5 57t108.5 19q64 0 105.5 -18t65.5 -47t33.5 -65t9.5 -72v-292
h-112v61zM368 219h-27q-29 0 -61 -2.5t-59 -11t-45 -24t-18 -42.5q0 -17 7.5 -28.5t19.5 -18.5t27 -10t30 -3q62 0 94 33t32 90v17zM87 568q4 24 11.5 47t20.5 40.5t32.5 28.5t47.5 11q20 0 40.5 -5t38.5 -13q20 -8 36.5 -13.5t28.5 -5.5q20 0 30.5 12.5t15.5 29.5h66
q-4 -24 -11.5 -47t-20.5 -40.5t-32.5 -28.5t-47.5 -11q-21 0 -42 6t-40 14q-18 8 -34 13t-28 5q-20 0 -30.5 -13t-15.5 -30h-66z" />
    <glyph glyph-name="adieresis" unicode="&#xe4;" horiz-adv-x="550" 
d="M370 61h-3q-18 -32 -58 -52.5t-91 -20.5q-29 0 -60.5 7.5t-58 25t-44 46t-17.5 70.5q0 54 30.5 86t78.5 49t106.5 22.5t114.5 5.5v12q0 45 -32.5 66.5t-77.5 21.5q-38 0 -73 -16t-58 -39l-62 73q41 38 94.5 57t108.5 19q64 0 105.5 -18t65.5 -47t33.5 -65t9.5 -72v-292
h-112v61zM368 219h-27q-29 0 -61 -2.5t-59 -11t-45 -24t-18 -42.5q0 -17 7.5 -28.5t19.5 -18.5t27 -10t30 -3q62 0 94 33t32 90v17zM103 644q0 28 20 49t51 21t52 -20t21 -50t-21 -50t-52 -20t-51 21t-20 49zM299 644q0 28 20 49t51 21t52 -20t21 -50t-21 -50t-52 -20
t-51 21t-20 49z" />
    <glyph glyph-name="aring" unicode="&#xe5;" horiz-adv-x="550" 
d="M370 61h-3q-18 -32 -58 -52.5t-91 -20.5q-29 0 -60.5 7.5t-58 25t-44 46t-17.5 70.5q0 54 30.5 86t78.5 49t106.5 22.5t114.5 5.5v12q0 45 -32.5 66.5t-77.5 21.5q-38 0 -73 -16t-58 -39l-62 73q41 38 94.5 57t108.5 19q64 0 105.5 -18t65.5 -47t33.5 -65t9.5 -72v-292
h-112v61zM368 219h-27q-29 0 -61 -2.5t-59 -11t-45 -24t-18 -42.5q0 -17 7.5 -28.5t19.5 -18.5t27 -10t30 -3q62 0 94 33t32 90v17zM374 655q0 -45 -30 -73.5t-75 -28.5t-75 28.5t-30 72.5q0 22 8 41t22 32.5t33 21.5t42 8q45 0 75 -28.5t30 -73.5zM328 655q0 25 -17 41
t-42 16q-26 0 -42.5 -16.5t-16.5 -41.5q0 -24 17 -40t42 -16t42 16t17 41z" />
    <glyph glyph-name="ae" unicode="&#xe6;" horiz-adv-x="887" 
d="M611 494q50 0 92.5 -16.5t73.5 -49t48.5 -81t17.5 -113.5v-16t-1 -16h-365q3 -26 15 -48t30.5 -37.5t42 -24t49.5 -8.5q45 0 76 17t51 46l79 -65q-71 -96 -206 -96q-65 0 -113 25t-77 71q-21 -39 -68.5 -66.5t-132.5 -27.5q-30 0 -63 8t-60 26t-44.5 46.5t-17.5 68.5
q0 50 26.5 80t72 45.5t105.5 20.5t126 5v10q0 54 -29.5 78t-79.5 24q-36 0 -72.5 -16t-59.5 -39l-61 73q40 38 93.5 57t108.5 19q63 0 103 -25t60 -57q26 36 71.5 59t108.5 23zM368 202h-27q-85 0 -134 -11.5t-49 -51.5q0 -17 7.5 -28.5t19.5 -18.5t27 -10t30 -3q62 0 94 28
t32 79v16zM723 288q0 23 -6.5 44t-20.5 37t-35.5 25.5t-50.5 9.5q-54 0 -91.5 -32.5t-41.5 -83.5h246z" />
    <glyph glyph-name="ccedilla" unicode="&#xe7;" horiz-adv-x="488" 
d="M400 347q-14 20 -42 33.5t-57 13.5q-33 0 -58 -13.5t-41.5 -35.5t-24.5 -49.5t-8 -55.5t8.5 -55.5t25.5 -49.5t42.5 -35.5t59.5 -13.5q28 0 56 11t45 32l75 -76q-29 -31 -72 -48t-93 -19l-35 -50q6 1 10.5 1h8.5q19 0 37.5 -3.5t33.5 -12.5t24.5 -25t9.5 -42
q0 -27 -13 -45.5t-32.5 -29t-44 -15t-46.5 -4.5q-30 0 -59.5 7.5t-50.5 18.5l23 48q38 -20 82 -20q8 0 18 1.5t18.5 6t14.5 12.5t6 21q0 11 -5.5 18t-13.5 11t-17 5.5t-17 1.5t-19 -1.5t-20 -4.5l-23 25l54 79q-46 6 -85.5 26t-68.5 52t-45.5 75.5t-16.5 97.5q0 58 20.5 105
t55.5 80t81.5 51t99.5 18t102.5 -20t78.5 -55z" />
    <glyph glyph-name="egrave" unicode="&#xe8;" horiz-adv-x="574" 
d="M410 288q0 23 -6.5 44t-20.5 37t-35.5 25.5t-50.5 9.5q-54 0 -91.5 -32.5t-41.5 -83.5h246zM530 234v-16t-1 -16h-365q2 -26 13.5 -47.5t30.5 -37t43 -24.5t50 -9q45 0 76 16.5t51 45.5l80 -64q-71 -96 -206 -96q-56 0 -103 17.5t-81.5 49.5t-54 78.5t-19.5 105.5
q0 58 19.5 105.5t53.5 81t80.5 52t100.5 18.5q50 0 92.5 -16.5t73.5 -49t48.5 -81t17.5 -113.5zM359 564h-94l-141 144h136z" />
    <glyph glyph-name="eacute" unicode="&#xe9;" horiz-adv-x="574" 
d="M410 288q0 23 -6.5 44t-20.5 37t-35.5 25.5t-50.5 9.5q-54 0 -91.5 -32.5t-41.5 -83.5h246zM530 234v-16t-1 -16h-365q2 -26 13.5 -47.5t30.5 -37t43 -24.5t50 -9q45 0 76 16.5t51 45.5l80 -64q-71 -96 -206 -96q-56 0 -103 17.5t-81.5 49.5t-54 78.5t-19.5 105.5
q0 58 19.5 105.5t53.5 81t80.5 52t100.5 18.5q50 0 92.5 -16.5t73.5 -49t48.5 -81t17.5 -113.5zM330 708h136l-141 -144h-94z" />
    <glyph glyph-name="ecircumflex" unicode="&#xea;" horiz-adv-x="574" 
d="M410 288q0 23 -6.5 44t-20.5 37t-35.5 25.5t-50.5 9.5q-54 0 -91.5 -32.5t-41.5 -83.5h246zM530 234v-16t-1 -16h-365q2 -26 13.5 -47.5t30.5 -37t43 -24.5t50 -9q45 0 76 16.5t51 45.5l80 -64q-71 -96 -206 -96q-56 0 -103 17.5t-81.5 49.5t-54 78.5t-19.5 105.5
q0 58 19.5 105.5t53.5 81t80.5 52t100.5 18.5q50 0 92.5 -16.5t73.5 -49t48.5 -81t17.5 -113.5zM370 564l-69 90l-69 -90h-112l115 144h135l114 -144h-114z" />
    <glyph glyph-name="edieresis" unicode="&#xeb;" horiz-adv-x="574" 
d="M410 288q0 23 -6.5 44t-20.5 37t-35.5 25.5t-50.5 9.5q-54 0 -91.5 -32.5t-41.5 -83.5h246zM530 234v-16t-1 -16h-365q2 -26 13.5 -47.5t30.5 -37t43 -24.5t50 -9q45 0 76 16.5t51 45.5l80 -64q-71 -96 -206 -96q-56 0 -103 17.5t-81.5 49.5t-54 78.5t-19.5 105.5
q0 58 19.5 105.5t53.5 81t80.5 52t100.5 18.5q50 0 92.5 -16.5t73.5 -49t48.5 -81t17.5 -113.5zM130 644q0 28 20 49t51 21t52 -20t21 -50t-21 -50t-52 -20t-51 21t-20 49zM326 644q0 28 20 49t51 21t52 -20t21 -50t-21 -50t-52 -20t-51 21t-20 49z" />
    <glyph glyph-name="igrave" unicode="&#xec;" horiz-adv-x="268" 
d="M74 480h120v-480h-120v480zM193 564h-94l-141 144h136z" />
    <glyph glyph-name="iacute" unicode="&#xed;" horiz-adv-x="268" 
d="M74 480h120v-480h-120v480zM174 708h136l-141 -144h-94z" />
    <glyph glyph-name="icircumflex" unicode="&#xee;" horiz-adv-x="268" 
d="M74 480h120v-480h-120v480zM203 564l-69 90l-69 -90h-112l115 144h135l114 -144h-114z" />
    <glyph glyph-name="idieresis" unicode="&#xef;" horiz-adv-x="268" 
d="M74 480h120v-480h-120v480zM-35 644q0 28 20 49t51 21t52 -20t21 -50t-21 -50t-52 -20t-51 21t-20 49zM161 644q0 28 20 49t51 21t52 -20t21 -50t-21 -50t-52 -20t-51 21t-20 49z" />
    <glyph glyph-name="eth" unicode="&#xf0;" 
d="M506 712l-117 -54q36 -39 68.5 -83.5t56.5 -93t38.5 -101t14.5 -108.5q0 -61 -17 -113.5t-50 -90.5t-82 -60t-113 -22q-56 0 -103.5 18.5t-82.5 52t-55 80t-20 103.5t20 103.5t54.5 80t80.5 52t98 18.5q33 0 61.5 -9.5t50.5 -30.5l2 2q-26 42 -57 83t-70 73l-108 -50
l-60 57l110 50q-14 15 -35.5 32t-42.5 33l94 55q27 -21 51.5 -42t35.5 -32l113 53zM305 86q36 0 62.5 13.5t44 35.5t26 49.5t8.5 55.5t-8.5 55.5t-26 49.5t-44 35.5t-62.5 13.5t-62.5 -13.5t-44 -35.5t-26 -49.5t-8.5 -55.5t8.5 -55.5t26 -49.5t44 -35.5t62.5 -13.5z" />
    <glyph glyph-name="ntilde" unicode="&#xf1;" horiz-adv-x="582" 
d="M72 480h114v-77h2q16 36 55.5 63.5t93.5 27.5q47 0 80.5 -16.5t55 -43.5t31.5 -62t10 -72v-300h-120v266q0 21 -3 44t-13 41.5t-27.5 30.5t-46.5 12t-50 -11.5t-34.5 -29.5t-20.5 -41.5t-7 -47.5v-264h-120v480zM109 568q4 24 11.5 47t20.5 40.5t32.5 28.5t47.5 11
q20 0 40.5 -5t38.5 -13q20 -8 36.5 -13.5t28.5 -5.5q20 0 30.5 12.5t15.5 29.5h66q-4 -24 -11.5 -47t-20.5 -40.5t-32.5 -28.5t-47.5 -11q-21 0 -42 6t-40 14q-18 8 -34 13t-28 5q-20 0 -30.5 -13t-15.5 -30h-66z" />
    <glyph glyph-name="ograve" unicode="&#xf2;" 
d="M44 242q0 57 20.5 103.5t55.5 79.5t83 51t102 18t102 -18t83 -51t55.5 -79.5t20.5 -103.5t-20.5 -104t-55.5 -80.5t-83 -52.5t-102 -19t-102 19t-83 52.5t-55.5 80.5t-20.5 104zM166 242q0 -28 8.5 -56t25.5 -50t43 -36t62 -14t62 14t43 36t25.5 50t8.5 56t-8.5 55.5
t-25.5 49.5t-43 35.5t-62 13.5t-62 -13.5t-43 -35.5t-25.5 -49.5t-8.5 -55.5zM379 564h-94l-141 144h136z" />
    <glyph glyph-name="oacute" unicode="&#xf3;" 
d="M44 242q0 57 20.5 103.5t55.5 79.5t83 51t102 18t102 -18t83 -51t55.5 -79.5t20.5 -103.5t-20.5 -104t-55.5 -80.5t-83 -52.5t-102 -19t-102 19t-83 52.5t-55.5 80.5t-20.5 104zM166 242q0 -28 8.5 -56t25.5 -50t43 -36t62 -14t62 14t43 36t25.5 50t8.5 56t-8.5 55.5
t-25.5 49.5t-43 35.5t-62 13.5t-62 -13.5t-43 -35.5t-25.5 -49.5t-8.5 -55.5zM332 708h136l-141 -144h-94z" />
    <glyph glyph-name="ocircumflex" unicode="&#xf4;" 
d="M44 242q0 57 20.5 103.5t55.5 79.5t83 51t102 18t102 -18t83 -51t55.5 -79.5t20.5 -103.5t-20.5 -104t-55.5 -80.5t-83 -52.5t-102 -19t-102 19t-83 52.5t-55.5 80.5t-20.5 104zM166 242q0 -28 8.5 -56t25.5 -50t43 -36t62 -14t62 14t43 36t25.5 50t8.5 56t-8.5 55.5
t-25.5 49.5t-43 35.5t-62 13.5t-62 -13.5t-43 -35.5t-25.5 -49.5t-8.5 -55.5zM375 564l-69 90l-69 -90h-112l115 144h135l114 -144h-114z" />
    <glyph glyph-name="otilde" unicode="&#xf5;" 
d="M44 242q0 57 20.5 103.5t55.5 79.5t83 51t102 18t102 -18t83 -51t55.5 -79.5t20.5 -103.5t-20.5 -104t-55.5 -80.5t-83 -52.5t-102 -19t-102 19t-83 52.5t-55.5 80.5t-20.5 104zM166 242q0 -28 8.5 -56t25.5 -50t43 -36t62 -14t62 14t43 36t25.5 50t8.5 56t-8.5 55.5
t-25.5 49.5t-43 35.5t-62 13.5t-62 -13.5t-43 -35.5t-25.5 -49.5t-8.5 -55.5zM123 568q4 24 11.5 47t20.5 40.5t32.5 28.5t47.5 11q20 0 40.5 -5t38.5 -13q20 -8 36.5 -13.5t28.5 -5.5q20 0 30.5 12.5t15.5 29.5h66q-4 -24 -11.5 -47t-20.5 -40.5t-32.5 -28.5t-47.5 -11
q-21 0 -42 6t-40 14q-18 8 -34 13t-28 5q-20 0 -30.5 -13t-15.5 -30h-66z" />
    <glyph glyph-name="odieresis" unicode="&#xf6;" 
d="M44 242q0 57 20.5 103.5t55.5 79.5t83 51t102 18t102 -18t83 -51t55.5 -79.5t20.5 -103.5t-20.5 -104t-55.5 -80.5t-83 -52.5t-102 -19t-102 19t-83 52.5t-55.5 80.5t-20.5 104zM166 242q0 -28 8.5 -56t25.5 -50t43 -36t62 -14t62 14t43 36t25.5 50t8.5 56t-8.5 55.5
t-25.5 49.5t-43 35.5t-62 13.5t-62 -13.5t-43 -35.5t-25.5 -49.5t-8.5 -55.5zM137 644q0 28 20 49t51 21t52 -20t21 -50t-21 -50t-52 -20t-51 21t-20 49zM333 644q0 28 20 49t51 21t52 -20t21 -50t-21 -50t-52 -20t-51 21t-20 49z" />
    <glyph glyph-name="divide" unicode="&#xf7;" horiz-adv-x="666" 
d="M258 483q0 31 22 53t53 22t53 -22t22 -53t-22 -53t-53 -22t-53 22t-22 53zM258 123q0 31 22 53t53 22t53 -22t22 -53t-22 -53t-53 -22t-53 22t-22 53zM80 250v107h506v-107h-506z" />
    <glyph glyph-name="oslash" unicode="&#xf8;" 
d="M391 369q-16 14 -38.5 22.5t-47.5 8.5q-37 0 -64 -14.5t-44.5 -38t-26 -52t-8.5 -56.5q0 -22 5.5 -45t16.5 -38zM218 114q17 -16 39.5 -23.5t47.5 -7.5q38 0 65 14.5t44.5 37t25.5 51t8 56.5q0 23 -5 45t-16 39zM575 476l-69 -71q29 -33 44.5 -74.5t15.5 -90.5
q0 -57 -20.5 -103.5t-55.5 -80t-83 -52t-102 -18.5q-94 0 -159 51l-70 -71l-40 41l67 68q-28 32 -43.5 73.5t-15.5 91.5q0 57 20.5 103.5t55.5 80t83 52t102 18.5q46 0 86.5 -13t71.5 -37l70 72z" />
    <glyph glyph-name="ugrave" unicode="&#xf9;" horiz-adv-x="582" 
d="M510 0h-114v77h-2q-16 -36 -55.5 -63.5t-93.5 -27.5q-47 0 -80.5 16.5t-55 43.5t-31.5 62t-10 72v300h120v-266q0 -21 3 -44t13 -41.5t27.5 -30.5t46.5 -12q28 0 49.5 11.5t35 29.5t20.5 41.5t7 47.5v264h120v-480zM363 564h-94l-141 144h136z" />
    <glyph glyph-name="uacute" unicode="&#xfa;" horiz-adv-x="582" 
d="M510 0h-114v77h-2q-16 -36 -55.5 -63.5t-93.5 -27.5q-47 0 -80.5 16.5t-55 43.5t-31.5 62t-10 72v300h120v-266q0 -21 3 -44t13 -41.5t27.5 -30.5t46.5 -12q28 0 49.5 11.5t35 29.5t20.5 41.5t7 47.5v264h120v-480zM324 708h136l-141 -144h-94z" />
    <glyph glyph-name="ucircumflex" unicode="&#xfb;" horiz-adv-x="582" 
d="M510 0h-114v77h-2q-16 -36 -55.5 -63.5t-93.5 -27.5q-47 0 -80.5 16.5t-55 43.5t-31.5 62t-10 72v300h120v-266q0 -21 3 -44t13 -41.5t27.5 -30.5t46.5 -12q28 0 49.5 11.5t35 29.5t20.5 41.5t7 47.5v264h120v-480zM361 564l-69 90l-69 -90h-112l115 144h135l114 -144
h-114z" />
    <glyph glyph-name="udieresis" unicode="&#xfc;" horiz-adv-x="582" 
d="M510 0h-114v77h-2q-16 -36 -55.5 -63.5t-93.5 -27.5q-47 0 -80.5 16.5t-55 43.5t-31.5 62t-10 72v300h120v-266q0 -21 3 -44t13 -41.5t27.5 -30.5t46.5 -12q28 0 49.5 11.5t35 29.5t20.5 41.5t7 47.5v264h120v-480zM122 644q0 28 20 49t51 21t52 -20t21 -50t-21 -50
t-52 -20t-51 21t-20 49zM318 644q0 28 20 49t51 21t52 -20t21 -50t-21 -50t-52 -20t-51 21t-20 49z" />
    <glyph glyph-name="yacute" unicode="&#xfd;" horiz-adv-x="513" 
d="M0 480h133l134 -349h2l119 349h125l-227 -583q-13 -33 -28 -58.5t-36 -43t-49.5 -26.5t-68.5 -9q-15 0 -30.5 1.5t-31.5 5.5l10 104q12 -4 23.5 -5.5t21.5 -1.5q19 0 32 4.5t22 14t16 23.5t15 33l24 61zM304 708h136l-141 -144h-94z" />
    <glyph glyph-name="thorn" unicode="&#xfe;" horiz-adv-x="635" 
d="M194 756v-337h3q9 12 23 25t33.5 24t45.5 18.5t59 7.5q51 0 94 -19.5t74 -53.5t48 -80t17 -99t-16.5 -99.5t-47 -81t-74 -55t-98.5 -20.5q-50 0 -94.5 21.5t-64.5 58.5h-2v-294h-120v984h120zM469 242q0 28 -8.5 55.5t-25.5 49.5t-43 35.5t-61 13.5q-33 0 -59 -14
t-44.5 -36t-28 -50t-9.5 -56t9.5 -55.5t28 -49.5t44.5 -35.5t59 -13.5q35 0 61 14t43 36t25.5 50t8.5 56z" />
    <glyph glyph-name="ydieresis" unicode="&#xff;" horiz-adv-x="513" 
d="M0 480h133l134 -349h2l119 349h125l-227 -583q-13 -33 -28 -58.5t-36 -43t-49.5 -26.5t-68.5 -9q-15 0 -30.5 1.5t-31.5 5.5l10 104q12 -4 23.5 -5.5t21.5 -1.5q19 0 32 4.5t22 14t16 23.5t15 33l24 61zM98 644q0 28 20 49t51 21t52 -20t21 -50t-21 -50t-52 -20t-51 21
t-20 49zM294 644q0 28 20 49t51 21t52 -20t21 -50t-21 -50t-52 -20t-51 21t-20 49z" />
    <glyph glyph-name="Amacron" unicode="&#x100;" horiz-adv-x="706" 
d="M300 708h109l305 -708h-144l-66 162h-307l-64 -162h-141zM460 270l-109 288l-111 -288h220zM515 795h-320v78h320v-78z" />
    <glyph glyph-name="amacron" unicode="&#x101;" horiz-adv-x="550" 
d="M370 61h-3q-18 -32 -58 -52.5t-91 -20.5q-29 0 -60.5 7.5t-58 25t-44 46t-17.5 70.5q0 54 30.5 86t78.5 49t106.5 22.5t114.5 5.5v12q0 45 -32.5 66.5t-77.5 21.5q-38 0 -73 -16t-58 -39l-62 73q41 38 94.5 57t108.5 19q64 0 105.5 -18t65.5 -47t33.5 -65t9.5 -72v-292
h-112v61zM368 219h-27q-29 0 -61 -2.5t-59 -11t-45 -24t-18 -42.5q0 -17 7.5 -28.5t19.5 -18.5t27 -10t30 -3q62 0 94 33t32 90v17zM444 595h-320v78h320v-78z" />
    <glyph glyph-name="Abreve" unicode="&#x102;" horiz-adv-x="706" 
d="M300 708h109l305 -708h-144l-66 162h-307l-64 -162h-141zM460 270l-109 288l-111 -288h220zM251 908q7 -38 36 -52t67 -14q43 0 68 12t36 54h66q-8 -74 -53.5 -109t-117.5 -35t-118 34.5t-51 109.5h67z" />
    <glyph glyph-name="abreve" unicode="&#x103;" horiz-adv-x="550" 
d="M370 61h-3q-18 -32 -58 -52.5t-91 -20.5q-29 0 -60.5 7.5t-58 25t-44 46t-17.5 70.5q0 54 30.5 86t78.5 49t106.5 22.5t114.5 5.5v12q0 45 -32.5 66.5t-77.5 21.5q-38 0 -73 -16t-58 -39l-62 73q41 38 94.5 57t108.5 19q64 0 105.5 -18t65.5 -47t33.5 -65t9.5 -72v-292
h-112v61zM368 219h-27q-29 0 -61 -2.5t-59 -11t-45 -24t-18 -42.5q0 -17 7.5 -28.5t19.5 -18.5t27 -10t30 -3q62 0 94 33t32 90v17zM176 708q7 -38 36 -52t67 -14q43 0 68 12t36 54h66q-8 -74 -53.5 -109t-117.5 -35t-118 34.5t-51 109.5h67z" />
    <glyph glyph-name="Aogonek" unicode="&#x104;" horiz-adv-x="706" 
d="M678 -196q-21 -17 -46.5 -27.5t-53.5 -10.5q-20 0 -38.5 5.5t-33 17t-23 28t-8.5 38.5q0 21 9 41.5t22.5 39.5t30 36t32.5 29l-65 161h-307l-64 -162h-141l308 708h109l305 -708h-85q-12 -11 -25 -25.5t-24.5 -31t-19 -33.5t-7.5 -32q0 -19 13.5 -32.5t32.5 -13.5
q14 0 28.5 6t25.5 15zM460 270l-109 288l-111 -288h220z" />
    <glyph glyph-name="aogonek" unicode="&#x105;" horiz-adv-x="550" 
d="M472 -196q-21 -17 -46.5 -27.5t-53.5 -10.5q-20 0 -38.5 5.5t-33 17t-23 28t-8.5 38.5q0 21 9.5 43t24.5 41.5t32.5 37t33.5 29.5h1v55h-3q-18 -32 -58 -52.5t-91 -20.5q-29 0 -60.5 7.5t-58 25t-44 46t-17.5 70.5q0 54 30.5 86t78.5 49t106.5 22.5t114.5 5.5v12
q0 45 -32.5 66.5t-77.5 21.5q-38 0 -73 -16t-58 -39l-62 73q41 38 94.5 57t108.5 19q64 0 105.5 -18t65.5 -47t33.5 -65t9.5 -72v-292h-59q-12 -11 -25 -25.5t-24.5 -31t-19 -33.5t-7.5 -32q0 -19 13.5 -32.5t32.5 -13.5q14 0 28.5 6t25.5 15zM368 219h-27q-29 0 -61 -2.5
t-59 -11t-45 -24t-18 -42.5q0 -17 7.5 -28.5t19.5 -18.5t27 -10t30 -3q62 0 94 33t32 90v17z" />
    <glyph glyph-name="Cacute" unicode="&#x106;" horiz-adv-x="696" 
d="M589 542q-28 38 -73 55.5t-88 17.5q-55 0 -100 -20t-77.5 -55t-50 -82t-17.5 -102q0 -58 17 -106t48.5 -82.5t75.5 -53.5t99 -19q57 0 101 22.5t71 59.5l101 -71q-47 -59 -115 -91.5t-159 -32.5q-83 0 -152.5 27.5t-119.5 77t-78 118t-28 151.5q0 85 29.5 153.5t81 116.5
t121.5 74t152 26q34 0 71 -6.5t71 -20t64 -33.5t51 -48zM429 908h136l-141 -144h-94z" />
    <glyph glyph-name="cacute" unicode="&#x107;" horiz-adv-x="488" 
d="M400 347q-14 20 -42 33.5t-57 13.5q-33 0 -58 -13.5t-41.5 -35.5t-24.5 -49.5t-8 -55.5t8.5 -55.5t25.5 -49.5t42.5 -35.5t59.5 -13.5q28 0 56 11t45 32l75 -76q-30 -32 -76.5 -49.5t-100.5 -17.5q-53 0 -100.5 17t-83 50t-56 80t-20.5 107q0 58 20.5 105t55.5 80
t81.5 51t99.5 18t102.5 -20t78.5 -55zM328 708h136l-141 -144h-94z" />
    <glyph glyph-name="Ccircumflex" unicode="&#x108;" horiz-adv-x="696" 
d="M589 542q-28 38 -73 55.5t-88 17.5q-55 0 -100 -20t-77.5 -55t-50 -82t-17.5 -102q0 -58 17 -106t48.5 -82.5t75.5 -53.5t99 -19q57 0 101 22.5t71 59.5l101 -71q-47 -59 -115 -91.5t-159 -32.5q-83 0 -152.5 27.5t-119.5 77t-78 118t-28 151.5q0 85 29.5 153.5t81 116.5
t121.5 74t152 26q34 0 71 -6.5t71 -20t64 -33.5t51 -48zM497 764l-69 90l-69 -90h-112l115 144h135l114 -144h-114z" />
    <glyph glyph-name="ccircumflex" unicode="&#x109;" horiz-adv-x="488" 
d="M400 347q-14 20 -42 33.5t-57 13.5q-33 0 -58 -13.5t-41.5 -35.5t-24.5 -49.5t-8 -55.5t8.5 -55.5t25.5 -49.5t42.5 -35.5t59.5 -13.5q28 0 56 11t45 32l75 -76q-30 -32 -76.5 -49.5t-100.5 -17.5q-53 0 -100.5 17t-83 50t-56 80t-20.5 107q0 58 20.5 105t55.5 80
t81.5 51t99.5 18t102.5 -20t78.5 -55zM369 564l-69 90l-69 -90h-112l115 144h135l114 -144h-114z" />
    <glyph glyph-name="Cdotaccent" unicode="&#x10a;" horiz-adv-x="696" 
d="M589 542q-28 38 -73 55.5t-88 17.5q-55 0 -100 -20t-77.5 -55t-50 -82t-17.5 -102q0 -58 17 -106t48.5 -82.5t75.5 -53.5t99 -19q57 0 101 22.5t71 59.5l101 -71q-47 -59 -115 -91.5t-159 -32.5q-83 0 -152.5 27.5t-119.5 77t-78 118t-28 151.5q0 85 29.5 153.5t81 116.5
t121.5 74t152 26q34 0 71 -6.5t71 -20t64 -33.5t51 -48zM349 843q0 29 21.5 50.5t54.5 21.5t55.5 -20.5t22.5 -51.5t-22.5 -51.5t-55.5 -20.5t-54.5 21.5t-21.5 50.5z" />
    <glyph glyph-name="cdotaccent" unicode="&#x10b;" horiz-adv-x="488" 
d="M400 347q-14 20 -42 33.5t-57 13.5q-33 0 -58 -13.5t-41.5 -35.5t-24.5 -49.5t-8 -55.5t8.5 -55.5t25.5 -49.5t42.5 -35.5t59.5 -13.5q28 0 56 11t45 32l75 -76q-30 -32 -76.5 -49.5t-100.5 -17.5q-53 0 -100.5 17t-83 50t-56 80t-20.5 107q0 58 20.5 105t55.5 80
t81.5 51t99.5 18t102.5 -20t78.5 -55zM222 643q0 29 21.5 50.5t54.5 21.5t55.5 -20.5t22.5 -51.5t-22.5 -51.5t-55.5 -20.5t-54.5 21.5t-21.5 50.5z" />
    <glyph glyph-name="Ccaron" unicode="&#x10c;" horiz-adv-x="696" 
d="M589 542q-28 38 -73 55.5t-88 17.5q-55 0 -100 -20t-77.5 -55t-50 -82t-17.5 -102q0 -58 17 -106t48.5 -82.5t75.5 -53.5t99 -19q57 0 101 22.5t71 59.5l101 -71q-47 -59 -115 -91.5t-159 -32.5q-83 0 -152.5 27.5t-119.5 77t-78 118t-28 151.5q0 85 29.5 153.5t81 116.5
t121.5 74t152 26q34 0 71 -6.5t71 -20t64 -33.5t51 -48zM357 908l69 -90l69 90h110l-115 -144h-133l-114 144h114z" />
    <glyph glyph-name="ccaron" unicode="&#x10d;" horiz-adv-x="488" 
d="M400 347q-14 20 -42 33.5t-57 13.5q-33 0 -58 -13.5t-41.5 -35.5t-24.5 -49.5t-8 -55.5t8.5 -55.5t25.5 -49.5t42.5 -35.5t59.5 -13.5q28 0 56 11t45 32l75 -76q-30 -32 -76.5 -49.5t-100.5 -17.5q-53 0 -100.5 17t-83 50t-56 80t-20.5 107q0 58 20.5 105t55.5 80
t81.5 51t99.5 18t102.5 -20t78.5 -55zM235 708l69 -90l69 90h110l-115 -144h-133l-114 144h114z" />
    <glyph glyph-name="Dcaron" unicode="&#x10e;" horiz-adv-x="764" 
d="M78 708h251q69 0 139 -18t126 -59.5t91 -109t35 -167.5q0 -93 -35 -160t-91 -110t-126 -63.5t-139 -20.5h-251v708zM309 110q49 0 98 11.5t88.5 39t64.5 74.5t25 119q0 76 -25 124t-64.5 75t-88.5 37t-98 10h-105v-490h105zM277 908l69 -90l69 90h110l-115 -144h-133
l-114 144h114z" />
    <glyph glyph-name="dcaron" unicode="&#x10f;" horiz-adv-x="634" 
d="M560 0h-114v72h-2q-25 -42 -69.5 -64t-95.5 -22q-55 0 -98.5 20.5t-74 55t-47 81t-16.5 99.5t17 99t48 80t74 53.5t94 19.5q33 0 59 -7.5t45.5 -18.5t33.5 -24t23 -25h3v337h120v-756zM165 242q0 -28 8.5 -56t25.5 -50t43 -36t61 -14q33 0 59 13.5t44.5 35.5t28 49.5
t9.5 55.5t-9.5 56t-28 50t-44.5 36t-59 14q-35 0 -61 -13.5t-43 -35.5t-25.5 -49.5t-8.5 -55.5zM652 708h106l-80 -195h-91z" />
    <glyph glyph-name="Dcroat" unicode="&#x110;" horiz-adv-x="764" 
d="M79 324h-66v84h66v300h279q70 0 135 -21.5t115 -65.5t80 -110.5t30 -156.5q0 -91 -34.5 -157.5t-89 -110t-121 -65t-130.5 -21.5h-264v324zM299 114q59 0 111.5 13.5t91.5 42t61.5 74t22.5 110.5q0 64 -20 110t-55.5 74.5t-84 42t-106.5 13.5h-115v-186h216v-84h-216
v-210h94z" />
    <glyph glyph-name="dcroat" unicode="&#x111;" horiz-adv-x="634" 
d="M614 570h-54v-570h-114v72h-2q-25 -42 -69.5 -64t-95.5 -22q-55 0 -98.5 20.5t-74 55t-47 81t-16.5 99.5t17 99t48 80t74 53.5t94 19.5q33 0 59 -7.5t45.5 -18.5t33.5 -24t23 -25h3v151h-170v75h170v111h120v-111h54v-75zM165 242q0 -28 8.5 -56t25.5 -50t43 -36t61 -14
q33 0 59 13.5t44.5 35.5t28 49.5t9.5 55.5t-9.5 56t-28 50t-44.5 36t-59 14q-35 0 -61 -13.5t-43 -35.5t-25.5 -49.5t-8.5 -55.5z" />
    <glyph glyph-name="Emacron" unicode="&#x112;" 
d="M78 708h469v-110h-343v-180h325v-106h-325v-200h361v-112h-487v708zM477 795h-320v78h320v-78z" />
    <glyph glyph-name="emacron" unicode="&#x113;" horiz-adv-x="574" 
d="M410 288q0 23 -6.5 44t-20.5 37t-35.5 25.5t-50.5 9.5q-54 0 -91.5 -32.5t-41.5 -83.5h246zM530 234v-16t-1 -16h-365q2 -26 13.5 -47.5t30.5 -37t43 -24.5t50 -9q45 0 76 16.5t51 45.5l80 -64q-71 -96 -206 -96q-56 0 -103 17.5t-81.5 49.5t-54 78.5t-19.5 105.5
q0 58 19.5 105.5t53.5 81t80.5 52t100.5 18.5q50 0 92.5 -16.5t73.5 -49t48.5 -81t17.5 -113.5zM459 595h-320v78h320v-78z" />
    <glyph glyph-name="Ebreve" unicode="&#x114;" 
d="M78 708h469v-110h-343v-180h325v-106h-325v-200h361v-112h-487v708zM213 908q7 -38 36 -52t67 -14q43 0 68 12t36 54h66q-8 -74 -53.5 -109t-117.5 -35t-118 34.5t-51 109.5h67z" />
    <glyph glyph-name="ebreve" unicode="&#x115;" horiz-adv-x="574" 
d="M410 288q0 23 -6.5 44t-20.5 37t-35.5 25.5t-50.5 9.5q-54 0 -91.5 -32.5t-41.5 -83.5h246zM530 234v-16t-1 -16h-365q2 -26 13.5 -47.5t30.5 -37t43 -24.5t50 -9q45 0 76 16.5t51 45.5l80 -64q-71 -96 -206 -96q-56 0 -103 17.5t-81.5 49.5t-54 78.5t-19.5 105.5
q0 58 19.5 105.5t53.5 81t80.5 52t100.5 18.5q50 0 92.5 -16.5t73.5 -49t48.5 -81t17.5 -113.5zM198 708q7 -38 36 -52t67 -14q43 0 68 12t36 54h66q-8 -74 -53.5 -109t-117.5 -35t-118 34.5t-51 109.5h67z" />
    <glyph glyph-name="Edotaccent" unicode="&#x116;" 
d="M78 708h469v-110h-343v-180h325v-106h-325v-200h361v-112h-487v708zM244 843q0 29 21.5 50.5t54.5 21.5t55.5 -20.5t22.5 -51.5t-22.5 -51.5t-55.5 -20.5t-54.5 21.5t-21.5 50.5z" />
    <glyph glyph-name="edotaccent" unicode="&#x117;" horiz-adv-x="574" 
d="M410 288q0 23 -6.5 44t-20.5 37t-35.5 25.5t-50.5 9.5q-54 0 -91.5 -32.5t-41.5 -83.5h246zM530 234v-16t-1 -16h-365q2 -26 13.5 -47.5t30.5 -37t43 -24.5t50 -9q45 0 76 16.5t51 45.5l80 -64q-71 -96 -206 -96q-56 0 -103 17.5t-81.5 49.5t-54 78.5t-19.5 105.5
q0 58 19.5 105.5t53.5 81t80.5 52t100.5 18.5q50 0 92.5 -16.5t73.5 -49t48.5 -81t17.5 -113.5zM222 643q0 29 21.5 50.5t54.5 21.5t55.5 -20.5t22.5 -51.5t-22.5 -51.5t-55.5 -20.5t-54.5 21.5t-21.5 50.5z" />
    <glyph glyph-name="Eogonek" unicode="&#x118;" 
d="M78 708h469v-110h-343v-180h325v-106h-325v-200h361v-112h-26q-12 -11 -25 -25.5t-24.5 -31t-19 -33.5t-7.5 -32q0 -19 13.5 -32.5t32.5 -13.5q14 0 28.5 6t25.5 15l25 -49q-21 -17 -46.5 -27.5t-53.5 -10.5q-20 0 -38.5 5.5t-33 17t-23 28t-8.5 38.5q0 20 8.5 40.5
t22 39.5t29.5 35.5t32 29.5h-399v708z" />
    <glyph glyph-name="eogonek" unicode="&#x119;" horiz-adv-x="574" 
d="M420 -196q-21 -17 -46.5 -27.5t-53.5 -10.5q-20 0 -38.5 5.5t-33 17t-23 28t-8.5 38.5q0 18 6.5 35.5t17 34.5t24.5 32.5t28 28.5q-54 1 -99.5 19t-79 50.5t-52 78.5t-18.5 103q0 58 19.5 105.5t53.5 81t80.5 52t100.5 18.5q50 0 92.5 -16.5t73.5 -49t48.5 -81
t17.5 -113.5v-16t-1 -16h-365q2 -26 13.5 -47.5t30.5 -37t43 -24.5t50 -9q45 0 76 16.5t51 45.5l80 -64q-54 -73 -146 -90q-11 -11 -23 -25t-22 -29t-16 -30.5t-6 -29.5q0 -19 13.5 -32.5t32.5 -13.5q14 0 28.5 6t25.5 15zM410 288q0 23 -6.5 44t-20.5 37t-35.5 25.5
t-50.5 9.5q-54 0 -91.5 -32.5t-41.5 -83.5h246z" />
    <glyph glyph-name="Ecaron" unicode="&#x11a;" 
d="M78 708h469v-110h-343v-180h325v-106h-325v-200h361v-112h-487v708zM249 908l69 -90l69 90h110l-115 -144h-133l-114 144h114z" />
    <glyph glyph-name="ecaron" unicode="&#x11b;" horiz-adv-x="574" 
d="M410 288q0 23 -6.5 44t-20.5 37t-35.5 25.5t-50.5 9.5q-54 0 -91.5 -32.5t-41.5 -83.5h246zM530 234v-16t-1 -16h-365q2 -26 13.5 -47.5t30.5 -37t43 -24.5t50 -9q45 0 76 16.5t51 45.5l80 -64q-71 -96 -206 -96q-56 0 -103 17.5t-81.5 49.5t-54 78.5t-19.5 105.5
q0 58 19.5 105.5t53.5 81t80.5 52t100.5 18.5q50 0 92.5 -16.5t73.5 -49t48.5 -81t17.5 -113.5zM234 708l69 -90l69 90h110l-115 -144h-133l-114 144h114z" />
    <glyph glyph-name="Gcircumflex" unicode="&#x11c;" horiz-adv-x="773" 
d="M698 37q-54 -26 -118.5 -40.5t-148.5 -14.5q-86 0 -157 27.5t-122 77t-79.5 118t-28.5 151.5q0 85 29.5 153.5t81 116.5t121.5 74t152 26q85 0 155.5 -24.5t113.5 -64.5l-87 -94q-27 30 -75.5 51t-105.5 21q-56 0 -101.5 -20t-77.5 -55t-49.5 -82t-17.5 -102
q0 -57 17.5 -104.5t50 -82.5t79 -54.5t105.5 -19.5q81 0 141 25v180h-149v104h271v-367zM499 764l-69 90l-69 -90h-112l115 144h135l114 -144h-114z" />
    <glyph glyph-name="gcircumflex" unicode="&#x11d;" horiz-adv-x="632" 
d="M560 480v-437q0 -65 -16 -117.5t-49.5 -89t-84.5 -56.5t-121 -20q-29 0 -61.5 5t-64 15t-60.5 25t-52 34l69 93q35 -33 79 -50.5t89 -17.5q43 0 72.5 12.5t47 34.5t25 52t7.5 66v35h-2q-26 -35 -66.5 -53.5t-90.5 -18.5q-54 0 -98 20t-74.5 54t-47.5 79.5t-17 96.5
q0 52 16.5 98t47 80t74 54t97.5 20q51 0 95 -21t70 -65h2v72h114zM304 396q-33 0 -58.5 -12t-43 -32.5t-27 -48.5t-9.5 -60q0 -29 9.5 -56t27 -48.5t43 -34.5t57.5 -13q33 0 59.5 12.5t45 33.5t28.5 48.5t10 57.5q0 31 -10 59t-28.5 49t-44.5 33t-59 12zM393 564l-69 90
l-69 -90h-112l115 144h135l114 -144h-114z" />
    <glyph glyph-name="Gbreve" unicode="&#x11e;" horiz-adv-x="773" 
d="M698 37q-54 -26 -118.5 -40.5t-148.5 -14.5q-86 0 -157 27.5t-122 77t-79.5 118t-28.5 151.5q0 85 29.5 153.5t81 116.5t121.5 74t152 26q85 0 155.5 -24.5t113.5 -64.5l-87 -94q-27 30 -75.5 51t-105.5 21q-56 0 -101.5 -20t-77.5 -55t-49.5 -82t-17.5 -102
q0 -57 17.5 -104.5t50 -82.5t79 -54.5t105.5 -19.5q81 0 141 25v180h-149v104h271v-367zM327 908q7 -38 36 -52t67 -14q43 0 68 12t36 54h66q-8 -74 -53.5 -109t-117.5 -35t-118 34.5t-51 109.5h67z" />
    <glyph glyph-name="gbreve" unicode="&#x11f;" horiz-adv-x="632" 
d="M560 480v-437q0 -65 -16 -117.5t-49.5 -89t-84.5 -56.5t-121 -20q-29 0 -61.5 5t-64 15t-60.5 25t-52 34l69 93q35 -33 79 -50.5t89 -17.5q43 0 72.5 12.5t47 34.5t25 52t7.5 66v35h-2q-26 -35 -66.5 -53.5t-90.5 -18.5q-54 0 -98 20t-74.5 54t-47.5 79.5t-17 96.5
q0 52 16.5 98t47 80t74 54t97.5 20q51 0 95 -21t70 -65h2v72h114zM304 396q-33 0 -58.5 -12t-43 -32.5t-27 -48.5t-9.5 -60q0 -29 9.5 -56t27 -48.5t43 -34.5t57.5 -13q33 0 59.5 12.5t45 33.5t28.5 48.5t10 57.5q0 31 -10 59t-28.5 49t-44.5 33t-59 12zM210 708
q7 -38 36 -52t67 -14q43 0 68 12t36 54h66q-8 -74 -53.5 -109t-117.5 -35t-118 34.5t-51 109.5h67z" />
    <glyph glyph-name="Gdotaccent" unicode="&#x120;" horiz-adv-x="773" 
d="M698 37q-54 -26 -118.5 -40.5t-148.5 -14.5q-86 0 -157 27.5t-122 77t-79.5 118t-28.5 151.5q0 85 29.5 153.5t81 116.5t121.5 74t152 26q85 0 155.5 -24.5t113.5 -64.5l-87 -94q-27 30 -75.5 51t-105.5 21q-56 0 -101.5 -20t-77.5 -55t-49.5 -82t-17.5 -102
q0 -57 17.5 -104.5t50 -82.5t79 -54.5t105.5 -19.5q81 0 141 25v180h-149v104h271v-367zM354 843q0 29 21.5 50.5t54.5 21.5t55.5 -20.5t22.5 -51.5t-22.5 -51.5t-55.5 -20.5t-54.5 21.5t-21.5 50.5z" />
    <glyph glyph-name="gdotaccent" unicode="&#x121;" horiz-adv-x="632" 
d="M560 480v-437q0 -65 -16 -117.5t-49.5 -89t-84.5 -56.5t-121 -20q-29 0 -61.5 5t-64 15t-60.5 25t-52 34l69 93q35 -33 79 -50.5t89 -17.5q43 0 72.5 12.5t47 34.5t25 52t7.5 66v35h-2q-26 -35 -66.5 -53.5t-90.5 -18.5q-54 0 -98 20t-74.5 54t-47.5 79.5t-17 96.5
q0 52 16.5 98t47 80t74 54t97.5 20q51 0 95 -21t70 -65h2v72h114zM304 396q-33 0 -58.5 -12t-43 -32.5t-27 -48.5t-9.5 -60q0 -29 9.5 -56t27 -48.5t43 -34.5t57.5 -13q33 0 59.5 12.5t45 33.5t28.5 48.5t10 57.5q0 31 -10 59t-28.5 49t-44.5 33t-59 12zM239 643
q0 29 21.5 50.5t54.5 21.5t55.5 -20.5t22.5 -51.5t-22.5 -51.5t-55.5 -20.5t-54.5 21.5t-21.5 50.5z" />
    <glyph glyph-name="Gcommaaccent" unicode="&#x122;" horiz-adv-x="773" 
d="M698 37q-54 -26 -118.5 -40.5t-148.5 -14.5q-86 0 -157 27.5t-122 77t-79.5 118t-28.5 151.5q0 85 29.5 153.5t81 116.5t121.5 74t152 26q85 0 155.5 -24.5t113.5 -64.5l-87 -94q-27 30 -75.5 51t-105.5 21q-56 0 -101.5 -20t-77.5 -55t-49.5 -82t-17.5 -102
q0 -57 17.5 -104.5t50 -82.5t79 -54.5t105.5 -19.5q81 0 141 25v180h-149v104h271v-367zM386 -45h106l-80 -195h-91z" />
    <glyph glyph-name="gcommaaccent" unicode="&#x123;" horiz-adv-x="632" 
d="M560 480v-437q0 -65 -16 -117.5t-49.5 -89t-84.5 -56.5t-121 -20q-29 0 -61.5 5t-64 15t-60.5 25t-52 34l69 93q35 -33 79 -50.5t89 -17.5q43 0 72.5 12.5t47 34.5t25 52t7.5 66v35h-2q-26 -35 -66.5 -53.5t-90.5 -18.5q-54 0 -98 20t-74.5 54t-47.5 79.5t-17 96.5
q0 52 16.5 98t47 80t74 54t97.5 20q51 0 95 -21t70 -65h2v72h114zM304 396q-33 0 -58.5 -12t-43 -32.5t-27 -48.5t-9.5 -60q0 -29 9.5 -56t27 -48.5t43 -34.5t57.5 -13q33 0 59.5 12.5t45 33.5t28.5 48.5t10 57.5q0 31 -10 59t-28.5 49t-44.5 33t-59 12zM335 564h-106
l80 195h91z" />
    <glyph glyph-name="Hcircumflex" unicode="&#x124;" horiz-adv-x="739" 
d="M78 708h126v-286h331v286h126v-708h-126v314h-331v-314h-126v708zM439 764l-69 90l-69 -90h-112l115 144h135l114 -144h-114z" />
    <glyph glyph-name="hcircumflex" unicode="&#x125;" horiz-adv-x="584" 
d="M339 494q47 0 80.5 -16.5t55 -43.5t31.5 -62t10 -72v-300h-120v264q0 21 -3 43.5t-12.5 41t-27 30.5t-46.5 12t-50 -11t-35 -29.5t-21 -41.5t-7 -47v-262h-120v756h120v-343h2q7 15 20.5 29.5t31.5 26t41 18.5t50 7zM362 796l-69 90l-69 -90h-112l115 144h135l114 -144
h-114z" />
    <glyph glyph-name="Hbar" unicode="&#x126;" horiz-adv-x="739" 
d="M78 708h126v-133h331v133h126v-708h-126v314h-331v-314h-126v708zM535 422v78h-331v-78h331z" />
    <glyph glyph-name="hbar" unicode="&#x127;" horiz-adv-x="584" 
d="M364 570h-170v-157h2q7 15 20.5 29.5t31.5 26t41 18.5t50 7q47 0 80.5 -16.5t55 -43.5t31.5 -62t10 -72v-300h-120v264q0 21 -3 43.5t-12.5 41t-27 30.5t-46.5 12t-50 -11t-35 -29.5t-21 -41.5t-7 -47v-262h-120v570h-54v75h54v111h120v-111h170v-75z" />
    <glyph glyph-name="Itilde" unicode="&#x128;" horiz-adv-x="282" 
d="M78 708h126v-708h-126v708zM-43 768q4 24 11.5 47t20.5 40.5t32.5 28.5t47.5 11q20 0 40.5 -5t38.5 -13q20 -8 36.5 -13.5t28.5 -5.5q20 0 30.5 12.5t15.5 29.5h66q-4 -24 -11.5 -47t-20.5 -40.5t-32.5 -28.5t-47.5 -11q-21 0 -42 6t-40 14q-18 8 -34 13t-28 5
q-20 0 -30.5 -13t-15.5 -30h-66z" />
    <glyph glyph-name="itilde" unicode="&#x129;" horiz-adv-x="268" 
d="M74 480h120v-480h-120v480zM-48 568q4 24 11.5 47t20.5 40.5t32.5 28.5t47.5 11q20 0 40.5 -5t38.5 -13q20 -8 36.5 -13.5t28.5 -5.5q20 0 30.5 12.5t15.5 29.5h66q-4 -24 -11.5 -47t-20.5 -40.5t-32.5 -28.5t-47.5 -11q-21 0 -42 6t-40 14q-18 8 -34 13t-28 5
q-20 0 -30.5 -13t-15.5 -30h-66z" />
    <glyph glyph-name="Imacron" unicode="&#x12a;" horiz-adv-x="282" 
d="M78 708h126v-708h-126v708zM301 795h-320v78h320v-78z" />
    <glyph glyph-name="imacron" unicode="&#x12b;" horiz-adv-x="268" 
d="M74 480h120v-480h-120v480zM296 595h-320v78h320v-78z" />
    <glyph glyph-name="Iogonek" unicode="&#x12e;" horiz-adv-x="282" 
d="M78 708h126v-708h-13q-12 -11 -25 -25.5t-24.5 -31t-19 -33.5t-7.5 -32q0 -19 13.5 -32.5t32.5 -13.5q14 0 28.5 6t25.5 15l25 -49q-21 -17 -46.5 -27.5t-53.5 -10.5q-20 0 -38.5 5.5t-33 17t-23 28t-8.5 38.5q0 20 8.5 40.5t22 39.5t29.5 35.5t32 29.5h-51v708z" />
    <glyph glyph-name="iogonek" unicode="&#x12f;" horiz-adv-x="268" 
d="M74 480h120v-480h-19q-12 -11 -25 -25.5t-24.5 -31t-19 -33.5t-7.5 -32q0 -19 13.5 -32.5t32.5 -13.5q14 0 28.5 6t25.5 15l25 -49q-21 -17 -46.5 -27.5t-53.5 -10.5q-20 0 -38.5 5.5t-33 17t-23 28t-8.5 38.5q0 20 8.5 40.5t22 39.5t29.5 35.5t32 29.5h-39v480zM57 643
q0 29 21.5 50.5t54.5 21.5t55.5 -20.5t22.5 -51.5t-22.5 -51.5t-55.5 -20.5t-54.5 21.5t-21.5 50.5z" />
    <glyph glyph-name="Idotaccent" unicode="&#x130;" horiz-adv-x="282" 
d="M78 708h126v-708h-126v708zM63 843q0 29 21.5 50.5t54.5 21.5t55.5 -20.5t22.5 -51.5t-22.5 -51.5t-55.5 -20.5t-54.5 21.5t-21.5 50.5z" />
    <glyph glyph-name="dotlessi" unicode="&#x131;" horiz-adv-x="268" 
d="M74 480h120v-480h-120v480z" />
    <glyph glyph-name="IJ" unicode="&#x132;" horiz-adv-x="770" 
d="M78 708h126v-708h-126v708zM698 229q0 -39 -8.5 -82t-31.5 -80t-65 -61t-108 -24q-86 0 -137.5 43t-70.5 113l116 33q9 -35 33 -55.5t57 -20.5q27 0 44.5 10t27 28.5t13.5 44t4 55.5v475h126v-479z" />
    <glyph glyph-name="ij" unicode="&#x133;" horiz-adv-x="536" 
d="M74 480h120v-480h-120v480zM57 643q0 29 21.5 50.5t54.5 21.5t55.5 -20.5t22.5 -51.5t-22.5 -51.5t-55.5 -20.5t-54.5 21.5t-21.5 50.5zM462 480v-509q0 -43 -7 -81.5t-26.5 -67t-53 -45.5t-87.5 -17q-15 0 -30 2t-24 4l10 102q8 -2 17 -3t16 -1q21 0 34 8t20 22t9 32.5
t2 39.5v514h120zM325 643q0 29 21.5 50.5t54.5 21.5t55.5 -20.5t22.5 -51.5t-22.5 -51.5t-55.5 -20.5t-54.5 21.5t-21.5 50.5z" />
    <glyph glyph-name="Jcircumflex" unicode="&#x134;" horiz-adv-x="498" 
d="M426 229q0 -39 -8.5 -82t-31.5 -80t-65 -61t-108 -24q-86 0 -137.5 43t-70.5 113l116 33q9 -35 33 -55.5t57 -20.5q27 0 44.5 10t27 28.5t13.5 44t4 55.5v475h126v-479zM430 764l-69 90l-69 -90h-112l115 144h135l114 -144h-114z" />
    <glyph glyph-name="jcircumflex" unicode="&#x135;" horiz-adv-x="268" 
d="M194 480v-509q0 -43 -7 -81.5t-26.5 -67t-53 -45.5t-87.5 -17q-15 0 -30 2t-24 4l10 102q8 -2 17 -3t16 -1q21 0 34 8t20 22t9 32.5t2 39.5v514h120zM202 564l-69 90l-69 -90h-112l115 144h135l114 -144h-114z" />
    <glyph glyph-name="Kcommaaccent" unicode="&#x136;" horiz-adv-x="689" 
d="M78 708h126v-306h3l296 306h170l-331 -327l353 -381h-177l-311 355h-3v-355h-126v708zM314 -45h106l-80 -195h-91z" />
    <glyph glyph-name="kcommaaccent" unicode="&#x137;" horiz-adv-x="543" 
d="M74 756h120v-478h3l182 202h154l-208 -217l221 -263h-159l-190 246h-3v-246h-120v756zM246 -45h106l-80 -195h-91z" />
    <glyph glyph-name="Lacute" unicode="&#x139;" horiz-adv-x="511" 
d="M78 708h126v-596h301v-112h-427v708zM192 908h136l-141 -144h-94z" />
    <glyph glyph-name="lacute" unicode="&#x13a;" horiz-adv-x="268" 
d="M74 756h120v-756h-120v756zM173 936h136l-141 -144h-94z" />
    <glyph glyph-name="Lcommaaccent" unicode="&#x13b;" horiz-adv-x="511" 
d="M78 708h126v-596h301v-112h-427v708zM252 -45h106l-80 -195h-91z" />
    <glyph glyph-name="lcommaaccent" unicode="&#x13c;" horiz-adv-x="268" 
d="M74 756h120v-756h-120v756zM94 -45h106l-80 -195h-91z" />
    <glyph glyph-name="Lcaron" unicode="&#x13d;" horiz-adv-x="511" 
d="M78 708h126v-596h301v-112h-427v708zM331 708h106l-80 -195h-91z" />
    <glyph glyph-name="lcaron" unicode="&#x13e;" horiz-adv-x="268" 
d="M74 756h120v-756h-120v756zM284 708h106l-80 -195h-91z" />
    <glyph glyph-name="Ldot" unicode="&#x13f;" horiz-adv-x="511" 
d="M78 708h126v-596h301v-112h-427v708zM317 343q0 29 21.5 50.5t54.5 21.5t55.5 -20.5t22.5 -51.5t-22.5 -51.5t-55.5 -20.5t-54.5 21.5t-21.5 50.5z" />
    <glyph glyph-name="ldot" unicode="&#x140;" horiz-adv-x="391" 
d="M74 756h120v-756h-120v756zM251 343q0 29 21.5 50.5t54.5 21.5t55.5 -20.5t22.5 -51.5t-22.5 -51.5t-55.5 -20.5t-54.5 21.5t-21.5 50.5z" />
    <glyph glyph-name="Lslash" unicode="&#x141;" horiz-adv-x="511" 
d="M78 201l-70 -62v110l70 62v397h126v-300l206 181v-109l-206 -182v-186h301v-112h-427v201z" />
    <glyph glyph-name="lslash" unicode="&#x142;" horiz-adv-x="268" 
d="M74 298l-69 -69v109l69 69v349h120v-255l69 69v-107l-69 -68v-395h-120v298z" />
    <glyph glyph-name="Nacute" unicode="&#x143;" horiz-adv-x="780" 
d="M78 708h167l329 -530h2v530h126v-708h-160l-336 547h-2v-547h-126v708zM408 908h136l-141 -144h-94z" />
    <glyph glyph-name="nacute" unicode="&#x144;" horiz-adv-x="582" 
d="M72 480h114v-77h2q16 36 55.5 63.5t93.5 27.5q47 0 80.5 -16.5t55 -43.5t31.5 -62t10 -72v-300h-120v266q0 21 -3 44t-13 41.5t-27.5 30.5t-46.5 12t-50 -11.5t-34.5 -29.5t-20.5 -41.5t-7 -47.5v-264h-120v480zM316 708h136l-141 -144h-94z" />
    <glyph glyph-name="Ncommaaccent" unicode="&#x145;" horiz-adv-x="780" 
d="M78 708h167l329 -530h2v530h126v-708h-160l-336 547h-2v-547h-126v708zM354 -45h106l-80 -195h-91z" />
    <glyph glyph-name="ncommaaccent" unicode="&#x146;" horiz-adv-x="582" 
d="M72 480h114v-77h2q16 36 55.5 63.5t93.5 27.5q47 0 80.5 -16.5t55 -43.5t31.5 -62t10 -72v-300h-120v266q0 21 -3 44t-13 41.5t-27.5 30.5t-46.5 12t-50 -11.5t-34.5 -29.5t-20.5 -41.5t-7 -47.5v-264h-120v480zM254 -45h106l-80 -195h-91z" />
    <glyph glyph-name="Ncaron" unicode="&#x147;" horiz-adv-x="780" 
d="M78 708h167l329 -530h2v530h126v-708h-160l-336 547h-2v-547h-126v708zM322 908l69 -90l69 90h110l-115 -144h-133l-114 144h114z" />
    <glyph glyph-name="ncaron" unicode="&#x148;" horiz-adv-x="582" 
d="M72 480h114v-77h2q16 36 55.5 63.5t93.5 27.5q47 0 80.5 -16.5t55 -43.5t31.5 -62t10 -72v-300h-120v266q0 21 -3 44t-13 41.5t-27.5 30.5t-46.5 12t-50 -11.5t-34.5 -29.5t-20.5 -41.5t-7 -47.5v-264h-120v480zM221 708l69 -90l69 90h110l-115 -144h-133l-114 144h114z
" />
    <glyph glyph-name="napostrophe" unicode="&#x149;" horiz-adv-x="622" 
d="M112 480h114v-77h2q16 36 55.5 63.5t93.5 27.5q47 0 80.5 -16.5t55 -43.5t31.5 -62t10 -72v-300h-120v266q0 21 -3 44t-13 41.5t-27.5 30.5t-46.5 12t-50 -11.5t-34.5 -29.5t-20.5 -41.5t-7 -47.5v-264h-120v480zM42 708h106l-80 -195h-91z" />
    <glyph glyph-name="Omacron" unicode="&#x14c;" horiz-adv-x="849" 
d="M44 356q0 85 28.5 153.5t79 116.5t120 74t151.5 26q83 0 153 -26t121 -74t79.5 -116.5t28.5 -153.5q0 -83 -28.5 -151.5t-79.5 -118t-121 -77t-153 -27.5q-82 0 -151.5 27.5t-120 77t-79 118t-28.5 151.5zM181 356q0 -57 17.5 -104.5t50 -82.5t77 -54.5t98.5 -19.5
t99 19.5t77.5 54.5t50 82.5t17.5 104.5q0 55 -17.5 102t-49.5 82t-77 55t-100 20t-99.5 -20t-76.5 -55t-49.5 -82t-17.5 -102zM585 795h-320v78h320v-78z" />
    <glyph glyph-name="omacron" unicode="&#x14d;" 
d="M44 242q0 57 20.5 103.5t55.5 79.5t83 51t102 18t102 -18t83 -51t55.5 -79.5t20.5 -103.5t-20.5 -104t-55.5 -80.5t-83 -52.5t-102 -19t-102 19t-83 52.5t-55.5 80.5t-20.5 104zM166 242q0 -28 8.5 -56t25.5 -50t43 -36t62 -14t62 14t43 36t25.5 50t8.5 56t-8.5 55.5
t-25.5 49.5t-43 35.5t-62 13.5t-62 -13.5t-43 -35.5t-25.5 -49.5t-8.5 -55.5zM465 595h-320v78h320v-78z" />
    <glyph glyph-name="Obreve" unicode="&#x14e;" horiz-adv-x="849" 
d="M44 356q0 85 28.5 153.5t79 116.5t120 74t151.5 26q83 0 153 -26t121 -74t79.5 -116.5t28.5 -153.5q0 -83 -28.5 -151.5t-79.5 -118t-121 -77t-153 -27.5q-82 0 -151.5 27.5t-120 77t-79 118t-28.5 151.5zM181 356q0 -57 17.5 -104.5t50 -82.5t77 -54.5t98.5 -19.5
t99 19.5t77.5 54.5t50 82.5t17.5 104.5q0 55 -17.5 102t-49.5 82t-77 55t-100 20t-99.5 -20t-76.5 -55t-49.5 -82t-17.5 -102zM322 908q7 -38 36 -52t67 -14q43 0 68 12t36 54h66q-8 -74 -53.5 -109t-117.5 -35t-118 34.5t-51 109.5h67z" />
    <glyph glyph-name="obreve" unicode="&#x14f;" 
d="M44 242q0 57 20.5 103.5t55.5 79.5t83 51t102 18t102 -18t83 -51t55.5 -79.5t20.5 -103.5t-20.5 -104t-55.5 -80.5t-83 -52.5t-102 -19t-102 19t-83 52.5t-55.5 80.5t-20.5 104zM166 242q0 -28 8.5 -56t25.5 -50t43 -36t62 -14t62 14t43 36t25.5 50t8.5 56t-8.5 55.5
t-25.5 49.5t-43 35.5t-62 13.5t-62 -13.5t-43 -35.5t-25.5 -49.5t-8.5 -55.5zM202 708q7 -38 36 -52t67 -14q43 0 68 12t36 54h66q-8 -74 -53.5 -109t-117.5 -35t-118 34.5t-51 109.5h67z" />
    <glyph glyph-name="Ohungarumlaut" unicode="&#x150;" horiz-adv-x="849" 
d="M44 356q0 85 28.5 153.5t79 116.5t120 74t151.5 26q83 0 153 -26t121 -74t79.5 -116.5t28.5 -153.5q0 -83 -28.5 -151.5t-79.5 -118t-121 -77t-153 -27.5q-82 0 -151.5 27.5t-120 77t-79 118t-28.5 151.5zM181 356q0 -57 17.5 -104.5t50 -82.5t77 -54.5t98.5 -19.5
t99 19.5t77.5 54.5t50 82.5t17.5 104.5q0 55 -17.5 102t-49.5 82t-77 55t-100 20t-99.5 -20t-76.5 -55t-49.5 -82t-17.5 -102zM371 908h136l-141 -144h-94zM576 908h136l-141 -144h-94z" />
    <glyph glyph-name="ohungarumlaut" unicode="&#x151;" 
d="M44 242q0 57 20.5 103.5t55.5 79.5t83 51t102 18t102 -18t83 -51t55.5 -79.5t20.5 -103.5t-20.5 -104t-55.5 -80.5t-83 -52.5t-102 -19t-102 19t-83 52.5t-55.5 80.5t-20.5 104zM166 242q0 -28 8.5 -56t25.5 -50t43 -36t62 -14t62 14t43 36t25.5 50t8.5 56t-8.5 55.5
t-25.5 49.5t-43 35.5t-62 13.5t-62 -13.5t-43 -35.5t-25.5 -49.5t-8.5 -55.5zM258 708h136l-141 -144h-94zM463 708h136l-141 -144h-94z" />
    <glyph glyph-name="OE" unicode="&#x152;" horiz-adv-x="1027" 
d="M510 112v486h-55q-49 0 -98 -9.5t-88.5 -36.5t-64.5 -74.5t-25 -123.5q0 -72 25 -118.5t64.5 -74t88.5 -38.5t98 -11h55zM964 708v-110h-328v-180h310v-106h-310v-200h346v-112h-547q-69 0 -139 20.5t-126 63.5t-91 110t-35 160q0 100 35 167.5t91 109t126 59.5t139 18
h529z" />
    <glyph glyph-name="oe" unicode="&#x153;" horiz-adv-x="959" 
d="M683 494q50 0 92.5 -16.5t73.5 -49t48.5 -81t17.5 -113.5v-16t-1 -16h-365q3 -26 15 -48t30.5 -37.5t42 -24t49.5 -8.5q45 0 76 17t51 46l79 -65q-71 -96 -206 -96q-64 0 -114.5 24.5t-80.5 66.5q-30 -41 -79.5 -66t-110.5 -25q-54 0 -101 19t-81.5 52.5t-54.5 80.5
t-20 104t20 103.5t54.5 79.5t81.5 51t101 18q61 0 112 -25.5t81 -67.5q31 40 79 66.5t110 26.5zM166 242q0 -28 8.5 -56t25.5 -50t43 -36t62 -14t62 14t43 36t25.5 50t8.5 56t-8.5 55.5t-25.5 49.5t-43 35.5t-62 13.5t-62 -13.5t-43 -35.5t-25.5 -49.5t-8.5 -55.5zM795 288
q0 23 -6.5 44t-20.5 37t-35.5 25.5t-50.5 9.5q-54 0 -91.5 -32.5t-41.5 -83.5h246z" />
    <glyph glyph-name="Racute" unicode="&#x154;" horiz-adv-x="629" 
d="M78 708h246q50 0 97 -10.5t83.5 -34.5t58.5 -63t22 -95q0 -77 -43.5 -125.5t-118.5 -65.5l189 -314h-152l-164 300h-92v-300h-126v708zM307 403q27 0 54 4t48.5 15t35.5 31.5t14 52.5q0 29 -13 47.5t-33 29.5t-45.5 15t-49.5 4h-114v-199h103zM323 908h136l-141 -144h-94
z" />
    <glyph glyph-name="racute" unicode="&#x155;" horiz-adv-x="364" 
d="M72 480h115v-80h2q20 42 56 68t84 26q7 0 15 -0.5t14 -2.5v-110q-12 3 -20.5 4t-16.5 1q-41 0 -66 -15t-39 -36t-19 -43t-5 -35v-257h-120v480zM202 708h136l-141 -144h-94z" />
    <glyph glyph-name="Rcommaaccent" unicode="&#x156;" horiz-adv-x="629" 
d="M78 708h246q50 0 97 -10.5t83.5 -34.5t58.5 -63t22 -95q0 -77 -43.5 -125.5t-118.5 -65.5l189 -314h-152l-164 300h-92v-300h-126v708zM307 403q27 0 54 4t48.5 15t35.5 31.5t14 52.5q0 29 -13 47.5t-33 29.5t-45.5 15t-49.5 4h-114v-199h103zM277 -45h106l-80 -195h-91z
" />
    <glyph glyph-name="rcommaaccent" unicode="&#x157;" horiz-adv-x="364" 
d="M72 480h115v-80h2q20 42 56 68t84 26q7 0 15 -0.5t14 -2.5v-110q-12 3 -20.5 4t-16.5 1q-41 0 -66 -15t-39 -36t-19 -43t-5 -35v-257h-120v480zM93 -45h106l-80 -195h-91z" />
    <glyph glyph-name="Rcaron" unicode="&#x158;" horiz-adv-x="629" 
d="M78 708h246q50 0 97 -10.5t83.5 -34.5t58.5 -63t22 -95q0 -77 -43.5 -125.5t-118.5 -65.5l189 -314h-152l-164 300h-92v-300h-126v708zM307 403q27 0 54 4t48.5 15t35.5 31.5t14 52.5q0 29 -13 47.5t-33 29.5t-45.5 15t-49.5 4h-114v-199h103zM238 908l69 -90l69 90h110
l-115 -144h-133l-114 144h114z" />
    <glyph glyph-name="rcaron" unicode="&#x159;" horiz-adv-x="364" 
d="M72 480h115v-80h2q20 42 56 68t84 26q7 0 15 -0.5t14 -2.5v-110q-12 3 -20.5 4t-16.5 1q-41 0 -66 -15t-39 -36t-19 -43t-5 -35v-257h-120v480zM143 708l69 -90l69 90h110l-115 -144h-133l-114 144h114z" />
    <glyph glyph-name="Sacute" unicode="&#x15a;" horiz-adv-x="574" 
d="M439 560q-20 26 -56.5 43.5t-73.5 17.5q-22 0 -44 -5.5t-40 -17t-29.5 -30t-11.5 -44.5q0 -24 10 -41t27.5 -29t42.5 -21t55 -18q34 -11 70.5 -25t67 -37t50 -58t19.5 -87q0 -57 -21 -99.5t-56 -70.5t-82 -42t-99 -14q-69 0 -135 25.5t-108 75.5l90 84q26 -36 69.5 -57
t85.5 -21q22 0 45 5.5t41.5 18.5t30 32.5t11.5 48.5q0 28 -13 46.5t-35 32t-52 23.5l-63 21q-32 10 -64 24t-57.5 37t-41.5 56.5t-16 83.5q0 54 22.5 93t59 64.5t83 38t94.5 12.5q54 0 109.5 -19t96.5 -57zM332 908h136l-141 -144h-94z" />
    <glyph glyph-name="sacute" unicode="&#x15b;" horiz-adv-x="444" 
d="M335 352q-16 21 -44 36.5t-61 15.5q-29 0 -53 -12t-24 -40t26.5 -39.5t77.5 -23.5q27 -6 54.5 -16t50 -26.5t36.5 -41t14 -59.5q0 -44 -16.5 -74.5t-44 -49.5t-64 -27.5t-75.5 -8.5q-56 0 -109 20.5t-88 58.5l79 74q20 -26 52 -43t71 -17q13 0 26.5 3t25 9.5t18.5 17.5
t7 27q0 30 -27.5 43t-82.5 26q-27 6 -52.5 15.5t-45.5 25t-32 38.5t-12 57q0 40 16.5 69t43.5 47.5t61 27.5t70 9q52 0 101.5 -18t78.5 -55zM257 708h136l-141 -144h-94z" />
    <glyph glyph-name="Scircumflex" unicode="&#x15c;" horiz-adv-x="574" 
d="M439 560q-20 26 -56.5 43.5t-73.5 17.5q-22 0 -44 -5.5t-40 -17t-29.5 -30t-11.5 -44.5q0 -24 10 -41t27.5 -29t42.5 -21t55 -18q34 -11 70.5 -25t67 -37t50 -58t19.5 -87q0 -57 -21 -99.5t-56 -70.5t-82 -42t-99 -14q-69 0 -135 25.5t-108 75.5l90 84q26 -36 69.5 -57
t85.5 -21q22 0 45 5.5t41.5 18.5t30 32.5t11.5 48.5q0 28 -13 46.5t-35 32t-52 23.5l-63 21q-32 10 -64 24t-57.5 37t-41.5 56.5t-16 83.5q0 54 22.5 93t59 64.5t83 38t94.5 12.5q54 0 109.5 -19t96.5 -57zM380 764l-69 90l-69 -90h-112l115 144h135l114 -144h-114z" />
    <glyph glyph-name="scircumflex" unicode="&#x15d;" horiz-adv-x="444" 
d="M335 352q-16 21 -44 36.5t-61 15.5q-29 0 -53 -12t-24 -40t26.5 -39.5t77.5 -23.5q27 -6 54.5 -16t50 -26.5t36.5 -41t14 -59.5q0 -44 -16.5 -74.5t-44 -49.5t-64 -27.5t-75.5 -8.5q-56 0 -109 20.5t-88 58.5l79 74q20 -26 52 -43t71 -17q13 0 26.5 3t25 9.5t18.5 17.5
t7 27q0 30 -27.5 43t-82.5 26q-27 6 -52.5 15.5t-45.5 25t-32 38.5t-12 57q0 40 16.5 69t43.5 47.5t61 27.5t70 9q52 0 101.5 -18t78.5 -55zM304 564l-69 90l-69 -90h-112l115 144h135l114 -144h-114z" />
    <glyph glyph-name="Scedilla" unicode="&#x15e;" horiz-adv-x="574" 
d="M439 560q-20 26 -56.5 43.5t-73.5 17.5q-22 0 -44 -5.5t-40 -17t-29.5 -30t-11.5 -44.5q0 -24 10 -41t27.5 -29t42.5 -21t55 -18q34 -11 70.5 -25t67 -37t50 -58t19.5 -87q0 -53 -17.5 -93t-48.5 -67.5t-72 -43.5t-88 -20l-33 -48q6 1 10.5 1h8.5q19 0 37.5 -3.5
t33.5 -12.5t24.5 -25t9.5 -42q0 -27 -13 -45.5t-32.5 -29t-44 -15t-46.5 -4.5q-30 0 -59.5 7.5t-50.5 18.5l23 48q38 -20 82 -20q8 0 18 1.5t18.5 6t14.5 12.5t6 21q0 11 -5.5 18t-13.5 11t-17 5.5t-17 1.5t-19 -1.5t-20 -4.5l-23 25l50 73q-63 5 -121 30t-96 70l90 84
q26 -36 69.5 -57t85.5 -21q22 0 45 5.5t41.5 18.5t30 32.5t11.5 48.5q0 28 -13 46.5t-35 32t-52 23.5l-63 21q-32 10 -64 24t-57.5 37t-41.5 56.5t-16 83.5q0 54 22.5 93t59 64.5t83 38t94.5 12.5q54 0 109.5 -19t96.5 -57z" />
    <glyph glyph-name="scedilla" unicode="&#x15f;" horiz-adv-x="444" 
d="M335 352q-16 21 -44 36.5t-61 15.5q-29 0 -53 -12t-24 -40t26.5 -39.5t77.5 -23.5q27 -6 54.5 -16t50 -26.5t36.5 -41t14 -59.5q0 -40 -13.5 -68.5t-37 -47.5t-54.5 -29.5t-66 -13.5l-36 -51q6 1 10.5 1h8.5q19 0 37.5 -3.5t33.5 -12.5t24.5 -25t9.5 -42q0 -27 -13 -45.5
t-32.5 -29t-44 -15t-46.5 -4.5q-30 0 -59.5 7.5t-50.5 18.5l23 48q38 -20 82 -20q8 0 18 1.5t18.5 6t14.5 12.5t6 21q0 11 -5.5 18t-13.5 11t-17 5.5t-17 1.5t-19 -1.5t-20 -4.5l-23 25l53 78q-49 5 -93.5 24t-74.5 53l79 74q20 -26 52 -43t71 -17q13 0 26.5 3t25 9.5
t18.5 17.5t7 27q0 30 -27.5 43t-82.5 26q-27 6 -52.5 15.5t-45.5 25t-32 38.5t-12 57q0 40 16.5 69t43.5 47.5t61 27.5t70 9q52 0 101.5 -18t78.5 -55z" />
    <glyph glyph-name="Scaron" unicode="&#x160;" horiz-adv-x="574" 
d="M439 560q-20 26 -56.5 43.5t-73.5 17.5q-22 0 -44 -5.5t-40 -17t-29.5 -30t-11.5 -44.5q0 -24 10 -41t27.5 -29t42.5 -21t55 -18q34 -11 70.5 -25t67 -37t50 -58t19.5 -87q0 -57 -21 -99.5t-56 -70.5t-82 -42t-99 -14q-69 0 -135 25.5t-108 75.5l90 84q26 -36 69.5 -57
t85.5 -21q22 0 45 5.5t41.5 18.5t30 32.5t11.5 48.5q0 28 -13 46.5t-35 32t-52 23.5l-63 21q-32 10 -64 24t-57.5 37t-41.5 56.5t-16 83.5q0 54 22.5 93t59 64.5t83 38t94.5 12.5q54 0 109.5 -19t96.5 -57zM242 908l69 -90l69 90h110l-115 -144h-133l-114 144h114z" />
    <glyph glyph-name="scaron" unicode="&#x161;" horiz-adv-x="444" 
d="M335 352q-16 21 -44 36.5t-61 15.5q-29 0 -53 -12t-24 -40t26.5 -39.5t77.5 -23.5q27 -6 54.5 -16t50 -26.5t36.5 -41t14 -59.5q0 -44 -16.5 -74.5t-44 -49.5t-64 -27.5t-75.5 -8.5q-56 0 -109 20.5t-88 58.5l79 74q20 -26 52 -43t71 -17q13 0 26.5 3t25 9.5t18.5 17.5
t7 27q0 30 -27.5 43t-82.5 26q-27 6 -52.5 15.5t-45.5 25t-32 38.5t-12 57q0 40 16.5 69t43.5 47.5t61 27.5t70 9q52 0 101.5 -18t78.5 -55zM161 708l69 -90l69 90h110l-115 -144h-133l-114 144h114z" />
    <glyph glyph-name="Tcommaaccent" unicode="&#x162;" horiz-adv-x="568" 
d="M221 598h-217v110h560v-110h-217v-598h-126v598zM244 -45h106l-80 -195h-91z" />
    <glyph glyph-name="tcommaaccent" unicode="&#x163;" horiz-adv-x="340" 
d="M3 384v96h84v139h118v-139h120v-96h-120v-223q0 -32 11.5 -53t51.5 -21q12 0 26 2.5t25 7.5l4 -94q-16 -6 -38 -9.5t-42 -3.5q-48 0 -78 13.5t-47.5 37t-24 54t-6.5 65.5v224h-84zM163 -45h106l-80 -195h-91z" />
    <glyph glyph-name="Tcaron" unicode="&#x164;" horiz-adv-x="568" 
d="M221 598h-217v110h560v-110h-217v-598h-126v598zM219 908l69 -90l69 90h110l-115 -144h-133l-114 144h114z" />
    <glyph glyph-name="tcaron" unicode="&#x165;" horiz-adv-x="340" 
d="M3 384v96h84v139h118v-139h120v-96h-120v-223q0 -32 11.5 -53t51.5 -21q12 0 26 2.5t25 7.5l4 -94q-16 -6 -38 -9.5t-42 -3.5q-48 0 -78 13.5t-47.5 37t-24 54t-6.5 65.5v224h-84zM297 731h106l-80 -195h-91z" />
    <glyph glyph-name="Tbar" unicode="&#x166;" horiz-adv-x="568" 
d="M506 432h-159v-432h-126v432h-149v75h149v91h-217v110h560v-110h-217v-91h159v-75z" />
    <glyph glyph-name="tbar" unicode="&#x167;" horiz-adv-x="340" 
d="M305 219h-100v-58q0 -32 11.5 -53t51.5 -21q12 0 26 2.5t25 7.5l4 -94q-16 -6 -38 -9.5t-42 -3.5q-48 0 -78 13.5t-47.5 37t-24 54t-6.5 65.5v59h-75v75h75v90h-84v96h84v139h118v-139h120v-96h-120v-90h100v-75z" />
    <glyph glyph-name="Utilde" unicode="&#x168;" horiz-adv-x="714" 
d="M642 260q0 -64 -22 -115.5t-60 -87.5t-90 -55.5t-113 -19.5t-113 19.5t-90.5 55.5t-60 87.5t-21.5 115.5v448h126v-443q0 -31 8 -61.5t26.5 -54.5t49 -39t75.5 -15t75.5 15t49 39t26.5 54.5t8 61.5v443h126v-448zM177 768q4 24 11.5 47t20.5 40.5t32.5 28.5t47.5 11
q20 0 40.5 -5t38.5 -13q20 -8 36.5 -13.5t28.5 -5.5q20 0 30.5 12.5t15.5 29.5h66q-4 -24 -11.5 -47t-20.5 -40.5t-32.5 -28.5t-47.5 -11q-21 0 -42 6t-40 14q-18 8 -34 13t-28 5q-20 0 -30.5 -13t-15.5 -30h-66z" />
    <glyph glyph-name="utilde" unicode="&#x169;" horiz-adv-x="582" 
d="M510 0h-114v77h-2q-16 -36 -55.5 -63.5t-93.5 -27.5q-47 0 -80.5 16.5t-55 43.5t-31.5 62t-10 72v300h120v-266q0 -21 3 -44t13 -41.5t27.5 -30.5t46.5 -12q28 0 49.5 11.5t35 29.5t20.5 41.5t7 47.5v264h120v-480zM107 568q4 24 11.5 47t20.5 40.5t32.5 28.5t47.5 11
q20 0 40.5 -5t38.5 -13q20 -8 36.5 -13.5t28.5 -5.5q20 0 30.5 12.5t15.5 29.5h66q-4 -24 -11.5 -47t-20.5 -40.5t-32.5 -28.5t-47.5 -11q-21 0 -42 6t-40 14q-18 8 -34 13t-28 5q-20 0 -30.5 -13t-15.5 -30h-66z" />
    <glyph glyph-name="Umacron" unicode="&#x16a;" horiz-adv-x="714" 
d="M642 260q0 -64 -22 -115.5t-60 -87.5t-90 -55.5t-113 -19.5t-113 19.5t-90.5 55.5t-60 87.5t-21.5 115.5v448h126v-443q0 -31 8 -61.5t26.5 -54.5t49 -39t75.5 -15t75.5 15t49 39t26.5 54.5t8 61.5v443h126v-448zM521 795h-320v78h320v-78z" />
    <glyph glyph-name="umacron" unicode="&#x16b;" horiz-adv-x="582" 
d="M510 0h-114v77h-2q-16 -36 -55.5 -63.5t-93.5 -27.5q-47 0 -80.5 16.5t-55 43.5t-31.5 62t-10 72v300h120v-266q0 -21 3 -44t13 -41.5t27.5 -30.5t46.5 -12q28 0 49.5 11.5t35 29.5t20.5 41.5t7 47.5v264h120v-480zM450 595h-320v78h320v-78z" />
    <glyph glyph-name="Ubreve" unicode="&#x16c;" horiz-adv-x="714" 
d="M642 260q0 -64 -22 -115.5t-60 -87.5t-90 -55.5t-113 -19.5t-113 19.5t-90.5 55.5t-60 87.5t-21.5 115.5v448h126v-443q0 -31 8 -61.5t26.5 -54.5t49 -39t75.5 -15t75.5 15t49 39t26.5 54.5t8 61.5v443h126v-448zM253 908q7 -38 36 -52t67 -14q43 0 68 12t36 54h66
q-8 -74 -53.5 -109t-117.5 -35t-118 34.5t-51 109.5h67z" />
    <glyph glyph-name="ubreve" unicode="&#x16d;" horiz-adv-x="582" 
d="M510 0h-114v77h-2q-16 -36 -55.5 -63.5t-93.5 -27.5q-47 0 -80.5 16.5t-55 43.5t-31.5 62t-10 72v300h120v-266q0 -21 3 -44t13 -41.5t27.5 -30.5t46.5 -12q28 0 49.5 11.5t35 29.5t20.5 41.5t7 47.5v264h120v-480zM186 708q7 -38 36 -52t67 -14q43 0 68 12t36 54h66
q-8 -74 -53.5 -109t-117.5 -35t-118 34.5t-51 109.5h67z" />
    <glyph glyph-name="Uring" unicode="&#x16e;" horiz-adv-x="714" 
d="M642 260q0 -64 -22 -115.5t-60 -87.5t-90 -55.5t-113 -19.5t-113 19.5t-90.5 55.5t-60 87.5t-21.5 115.5v448h126v-443q0 -31 8 -61.5t26.5 -54.5t49 -39t75.5 -15t75.5 15t49 39t26.5 54.5t8 61.5v443h126v-448zM466 855q0 -45 -30 -73.5t-75 -28.5t-75 28.5t-30 72.5
q0 22 8 41t22 32.5t33 21.5t42 8q45 0 75 -28.5t30 -73.5zM420 855q0 25 -17 41t-42 16q-26 0 -42.5 -16.5t-16.5 -41.5q0 -24 17 -40t42 -16t42 16t17 41z" />
    <glyph glyph-name="uring" unicode="&#x16f;" horiz-adv-x="582" 
d="M510 0h-114v77h-2q-16 -36 -55.5 -63.5t-93.5 -27.5q-47 0 -80.5 16.5t-55 43.5t-31.5 62t-10 72v300h120v-266q0 -21 3 -44t13 -41.5t27.5 -30.5t46.5 -12q28 0 49.5 11.5t35 29.5t20.5 41.5t7 47.5v264h120v-480zM393 655q0 -45 -30 -73.5t-75 -28.5t-75 28.5t-30 72.5
q0 22 8 41t22 32.5t33 21.5t42 8q45 0 75 -28.5t30 -73.5zM347 655q0 25 -17 41t-42 16q-26 0 -42.5 -16.5t-16.5 -41.5q0 -24 17 -40t42 -16t42 16t17 41z" />
    <glyph glyph-name="Uhungarumlaut" unicode="&#x170;" horiz-adv-x="714" 
d="M642 260q0 -64 -22 -115.5t-60 -87.5t-90 -55.5t-113 -19.5t-113 19.5t-90.5 55.5t-60 87.5t-21.5 115.5v448h126v-443q0 -31 8 -61.5t26.5 -54.5t49 -39t75.5 -15t75.5 15t49 39t26.5 54.5t8 61.5v443h126v-448zM302 908h136l-141 -144h-94zM507 908h136l-141 -144h-94z
" />
    <glyph glyph-name="uhungarumlaut" unicode="&#x171;" horiz-adv-x="582" 
d="M510 0h-114v77h-2q-16 -36 -55.5 -63.5t-93.5 -27.5q-47 0 -80.5 16.5t-55 43.5t-31.5 62t-10 72v300h120v-266q0 -21 3 -44t13 -41.5t27.5 -30.5t46.5 -12q28 0 49.5 11.5t35 29.5t20.5 41.5t7 47.5v264h120v-480zM233 708h136l-141 -144h-94zM438 708h136l-141 -144
h-94z" />
    <glyph glyph-name="Uogonek" unicode="&#x172;" horiz-adv-x="714" 
d="M472 -196q-21 -17 -46.5 -27.5t-53.5 -10.5q-20 0 -38.5 5.5t-33 17t-23 28t-8.5 38.5q0 34 22 68t50 60q-58 3 -107 23t-85 56t-56.5 86t-20.5 112v448h126v-443q0 -31 8 -61.5t26.5 -54.5t49 -39t75.5 -15t75.5 15t49 39t26.5 54.5t8 61.5v443h126v-448
q0 -57 -17.5 -104.5t-48.5 -82.5t-74 -57.5t-94 -29.5q-11 -11 -22 -24.5t-19.5 -27.5t-14 -28.5t-5.5 -27.5q0 -19 13.5 -32.5t32.5 -13.5q14 0 28.5 6t25.5 15z" />
    <glyph glyph-name="uogonek" unicode="&#x173;" horiz-adv-x="582" 
d="M502 -196q-21 -17 -46.5 -27.5t-53.5 -10.5q-20 0 -38.5 5.5t-33 17t-23 28t-8.5 38.5q0 21 9 42.5t23.5 41t31.5 36.5t33 29v73h-2q-16 -36 -55.5 -63.5t-93.5 -27.5q-47 0 -80.5 16.5t-55 43.5t-31.5 62t-10 72v300h120v-266q0 -21 3 -44t13 -41.5t27.5 -30.5t46.5 -12
q28 0 49.5 11.5t35 29.5t20.5 41.5t7 47.5v264h120v-480h-57q-12 -11 -25 -25.5t-24.5 -31t-19 -33.5t-7.5 -32q0 -19 13.5 -32.5t32.5 -13.5q14 0 28.5 6t25.5 15z" />
    <glyph glyph-name="Wcircumflex" unicode="&#x174;" horiz-adv-x="1004" 
d="M6 708h138l137 -520h2l156 520h130l153 -520h2l140 520h134l-207 -708h-122l-166 531h-2l-166 -531h-122zM571 764l-69 90l-69 -90h-112l115 144h135l114 -144h-114z" />
    <glyph glyph-name="wcircumflex" unicode="&#x175;" horiz-adv-x="804" 
d="M4 480h130l100 -344h2l103 344h128l104 -344h2l102 344h125l-166 -480h-122l-109 336h-2l-108 -336h-122zM472 564l-69 90l-69 -90h-112l115 144h135l114 -144h-114z" />
    <glyph glyph-name="Ycircumflex" unicode="&#x176;" horiz-adv-x="622" 
d="M249 307l-266 401h154l178 -298l180 298h146l-266 -401v-307h-126v307zM383 764l-69 90l-69 -90h-112l115 144h135l114 -144h-114z" />
    <glyph glyph-name="ycircumflex" unicode="&#x177;" horiz-adv-x="513" 
d="M0 480h133l134 -349h2l119 349h125l-227 -583q-13 -33 -28 -58.5t-36 -43t-49.5 -26.5t-68.5 -9q-15 0 -30.5 1.5t-31.5 5.5l10 104q12 -4 23.5 -5.5t21.5 -1.5q19 0 32 4.5t22 14t16 23.5t15 33l24 61zM334 564l-69 90l-69 -90h-112l115 144h135l114 -144h-114z" />
    <glyph glyph-name="Ydieresis" unicode="&#x178;" horiz-adv-x="622" 
d="M249 307l-266 401h154l178 -298l180 298h146l-266 -401v-307h-126v307zM145 844q0 28 20 49t51 21t52 -20t21 -50t-21 -50t-52 -20t-51 21t-20 49zM341 844q0 28 20 49t51 21t52 -20t21 -50t-21 -50t-52 -20t-51 21t-20 49z" />
    <glyph glyph-name="Zacute" unicode="&#x179;" horiz-adv-x="611" 
d="M35 114l385 484h-379v110h529v-114l-387 -482h393v-112h-541v114zM333 908h136l-141 -144h-94z" />
    <glyph glyph-name="zacute" unicode="&#x17a;" horiz-adv-x="482" 
d="M34 106l259 278h-247v96h390v-106l-260 -276h272v-98h-414v106zM273 708h136l-141 -144h-94z" />
    <glyph glyph-name="Zdotaccent" unicode="&#x17b;" horiz-adv-x="611" 
d="M35 114l385 484h-379v110h529v-114l-387 -482h393v-112h-541v114zM232 843q0 29 21.5 50.5t54.5 21.5t55.5 -20.5t22.5 -51.5t-22.5 -51.5t-55.5 -20.5t-54.5 21.5t-21.5 50.5z" />
    <glyph glyph-name="zdotaccent" unicode="&#x17c;" horiz-adv-x="482" 
d="M34 106l259 278h-247v96h390v-106l-260 -276h272v-98h-414v106zM166 643q0 29 21.5 50.5t54.5 21.5t55.5 -20.5t22.5 -51.5t-22.5 -51.5t-55.5 -20.5t-54.5 21.5t-21.5 50.5z" />
    <glyph glyph-name="Zcaron" unicode="&#x17d;" horiz-adv-x="611" 
d="M35 114l385 484h-379v110h529v-114l-387 -482h393v-112h-541v114zM240 908l69 -90l69 90h110l-115 -144h-133l-114 144h114z" />
    <glyph glyph-name="zcaron" unicode="&#x17e;" horiz-adv-x="482" 
d="M34 106l259 278h-247v96h390v-106l-260 -276h272v-98h-414v106zM179 708l69 -90l69 90h110l-115 -144h-133l-114 144h114z" />
    <glyph glyph-name="florin" unicode="&#x192;" 
d="M480 336h-138l-57 -288q-19 -96 -64 -141.5t-123 -45.5q-26 0 -52.5 6t-49.5 18l45 92q10 -7 22.5 -10.5t24.5 -3.5q39 0 55 29.5t25 74.5l53 269h-113v90h131l22 111q7 37 20 70.5t34 58.5t51.5 39.5t74.5 14.5q32 0 60.5 -8t56.5 -23l-46 -93q-27 16 -55 16
q-22 0 -36 -9.5t-23 -24t-13.5 -32.5t-8.5 -36l-18 -84h122v-90z" />
    <glyph glyph-name="Scommaaccent" unicode="&#x218;" horiz-adv-x="574" 
d="M439 560q-20 26 -56.5 43.5t-73.5 17.5q-22 0 -44 -5.5t-40 -17t-29.5 -30t-11.5 -44.5q0 -24 10 -41t27.5 -29t42.5 -21t55 -18q34 -11 70.5 -25t67 -37t50 -58t19.5 -87q0 -57 -21 -99.5t-56 -70.5t-82 -42t-99 -14q-69 0 -135 25.5t-108 75.5l90 84q26 -36 69.5 -57
t85.5 -21q22 0 45 5.5t41.5 18.5t30 32.5t11.5 48.5q0 28 -13 46.5t-35 32t-52 23.5l-63 21q-32 10 -64 24t-57.5 37t-41.5 56.5t-16 83.5q0 54 22.5 93t59 64.5t83 38t94.5 12.5q54 0 109.5 -19t96.5 -57zM242 -45h106l-80 -195h-91z" />
    <glyph glyph-name="scommaaccent" unicode="&#x219;" horiz-adv-x="444" 
d="M335 352q-16 21 -44 36.5t-61 15.5q-29 0 -53 -12t-24 -40t26.5 -39.5t77.5 -23.5q27 -6 54.5 -16t50 -26.5t36.5 -41t14 -59.5q0 -44 -16.5 -74.5t-44 -49.5t-64 -27.5t-75.5 -8.5q-56 0 -109 20.5t-88 58.5l79 74q20 -26 52 -43t71 -17q13 0 26.5 3t25 9.5t18.5 17.5
t7 27q0 30 -27.5 43t-82.5 26q-27 6 -52.5 15.5t-45.5 25t-32 38.5t-12 57q0 40 16.5 69t43.5 47.5t61 27.5t70 9q52 0 101.5 -18t78.5 -55zM182 -45h106l-80 -195h-91z" />
    <glyph glyph-name="uni021A" unicode="&#x21a;" horiz-adv-x="568" 
d="M221 598h-217v110h560v-110h-217v-598h-126v598zM244 -45h106l-80 -195h-91z" />
    <glyph glyph-name="uni021B" unicode="&#x21b;" horiz-adv-x="340" 
d="M3 384v96h84v139h118v-139h120v-96h-120v-223q0 -32 11.5 -53t51.5 -21q12 0 26 2.5t25 7.5l4 -94q-16 -6 -38 -9.5t-42 -3.5q-48 0 -78 13.5t-47.5 37t-24 54t-6.5 65.5v224h-84zM163 -45h106l-80 -195h-91z" />
    <glyph glyph-name="circumflex" unicode="&#x2c6;" horiz-adv-x="260" 
d="M198 564l-69 90l-69 -90h-112l115 144h135l114 -144h-114z" />
    <glyph glyph-name="caron" unicode="&#x2c7;" horiz-adv-x="260" 
d="M63 708l69 -90l69 90h110l-115 -144h-133l-114 144h114z" />
    <glyph glyph-name="uni02C9" unicode="&#x2c9;" horiz-adv-x="260" 
d="M290 795h-320v78h320v-78z" />
    <glyph glyph-name="breve" unicode="&#x2d8;" horiz-adv-x="260" 
d="M27 708q7 -38 36 -52t67 -14q43 0 68 12t36 54h66q-8 -74 -53.5 -109t-117.5 -35t-118 34.5t-51 109.5h67z" />
    <glyph glyph-name="dotaccent" unicode="&#x2d9;" horiz-adv-x="260" 
d="M54 643q0 29 21.5 50.5t54.5 21.5t55.5 -20.5t22.5 -51.5t-22.5 -51.5t-55.5 -20.5t-54.5 21.5t-21.5 50.5z" />
    <glyph glyph-name="ring" unicode="&#x2da;" horiz-adv-x="260" 
d="M235 655q0 -45 -30 -73.5t-75 -28.5t-75 28.5t-30 72.5q0 22 8 41t22 32.5t33 21.5t42 8q45 0 75 -28.5t30 -73.5zM189 655q0 25 -17 41t-42 16q-26 0 -42.5 -16.5t-16.5 -41.5q0 -24 17 -40t42 -16t42 16t17 41z" />
    <glyph glyph-name="ogonek" unicode="&#x2db;" horiz-adv-x="260" 
d="M202 -196q-21 -17 -46.5 -27.5t-53.5 -10.5q-20 0 -38.5 5.5t-33 17t-23 28t-8.5 38.5q0 21 9.5 43t24.5 41.5t32.5 37t33.5 29.5h61q-12 -10 -26 -25t-27 -32.5t-21.5 -36t-8.5 -34.5q0 -19 13.5 -32.5t32.5 -13.5q14 0 28.5 6t25.5 15z" />
    <glyph glyph-name="tilde" unicode="&#x2dc;" horiz-adv-x="260" 
d="M-54 568q4 24 11.5 47t20.5 40.5t32.5 28.5t47.5 11q20 0 40.5 -5t38.5 -13q20 -8 36.5 -13.5t28.5 -5.5q20 0 30.5 12.5t15.5 29.5h66q-4 -24 -11.5 -47t-20.5 -40.5t-32.5 -28.5t-47.5 -11q-21 0 -42 6t-40 14q-18 8 -34 13t-28 5q-20 0 -30.5 -13t-15.5 -30h-66z" />
    <glyph glyph-name="hungarumlaut" unicode="&#x2dd;" horiz-adv-x="260" 
d="M79 708h136l-141 -144h-94zM284 708h136l-141 -144h-94z" />
    <glyph glyph-name="uni0394" unicode="&#x394;" horiz-adv-x="685" 
d="M8 0l270 712h115l284 -712h-669zM334 581l-173 -477h358z" />
    <glyph glyph-name="uni03A9" unicode="&#x3a9;" horiz-adv-x="759" 
d="M425 0v189q38 7 67.5 26.5t49.5 47.5t30 62t10 72q0 45 -15 84.5t-42.5 69.5t-65.5 47.5t-84 17.5q-47 0 -85.5 -17.5t-66 -47.5t-42.5 -70t-15 -85q0 -78 38.5 -132.5t115.5 -74.5v-189h-274v106h172v32q-45 14 -77.5 40t-53.5 61t-31 77t-10 88q0 69 25.5 127.5
t70 100.5t104 65.5t127.5 23.5t128 -23t104.5 -64t70 -99t25.5 -128q0 -47 -9.5 -89.5t-30.5 -78t-54 -61.5t-79 -40v-32h173v-106h-276z" />
    <glyph glyph-name="uni03BC" unicode="&#x3bc;" horiz-adv-x="574" 
d="M188 480v-243q0 -20 2 -44.5t10.5 -46t26 -36t49.5 -14.5q30 0 50.5 10t34 27t19.5 39t6 46v262h120v-480h-114v77h-2q-8 -18 -19.5 -34t-28 -28.5t-38.5 -19.5t-51 -7q-18 0 -36.5 6t-28.5 18v-240h-120v708h120z" />
    <glyph glyph-name="pi" unicode="&#x3c0;" horiz-adv-x="593" 
d="M580 13q-21 -10 -46.5 -15t-48.5 -5q-33 0 -53.5 10t-32 27.5t-15 41.5t-3.5 52v254h-183v-378h-117v378h-70v102h566v-102h-79v-237q0 -11 0.5 -21t4.5 -18.5t11.5 -13.5t21.5 -5q21 0 44 10v-80v0z" />
    <glyph glyph-name="endash" unicode="&#x2013;" horiz-adv-x="400" 
d="M370 200h-340v92h340v-92z" />
    <glyph glyph-name="emdash" unicode="&#x2014;" horiz-adv-x="600" 
d="M570 200h-540v92h540v-92z" />
    <glyph glyph-name="quoteleft" unicode="&#x2018;" horiz-adv-x="270" 
d="M158 444h-116l85 264h101z" />
    <glyph glyph-name="quoteright" unicode="&#x2019;" horiz-adv-x="270" 
d="M112 708h116l-85 -264h-101z" />
    <glyph glyph-name="quotesinglbase" unicode="&#x201a;" horiz-adv-x="270" 
d="M112 138h116l-85 -264h-101z" />
    <glyph glyph-name="quotedblleft" unicode="&#x201c;" horiz-adv-x="465" 
d="M158 444h-116l85 264h101zM353 444h-116l85 264h101z" />
    <glyph glyph-name="quotedblright" unicode="&#x201d;" horiz-adv-x="465" 
d="M307 708h116l-85 -264h-101zM112 708h116l-85 -264h-101z" />
    <glyph glyph-name="quotedblbase" unicode="&#x201e;" horiz-adv-x="465" 
d="M307 138h116l-85 -264h-101zM112 138h116l-85 -264h-101z" />
    <glyph glyph-name="dagger" unicode="&#x2020;" horiz-adv-x="593" 
d="M353 505h199v-96h-199v-535h-114v535h-198v96h198v203h114v-203z" />
    <glyph glyph-name="daggerdbl" unicode="&#x2021;" horiz-adv-x="593" 
d="M353 523h193v-96h-193v-271h193v-96h-193v-186h-114v186h-192v96h192v271h-192v96h192v185h114v-185z" />
    <glyph glyph-name="bullet" unicode="&#x2022;" horiz-adv-x="500" 
d="M73 354q0 37 14 69t38 56t56 38t69 14t69 -14t56 -38t38 -56t14 -69t-14 -69t-38 -56t-56 -38t-69 -14t-69 14t-56 38t-38 56t-14 69z" />
    <glyph glyph-name="ellipsis" unicode="&#x2026;" horiz-adv-x="1000" 
d="M87 70q0 32 23.5 55t56.5 23q32 0 56 -22t24 -54t-23.5 -55t-56.5 -23q-16 0 -30.5 6t-25.5 16t-17.5 24t-6.5 30zM420 70q0 32 23.5 55t56.5 23q32 0 56 -22t24 -54t-23.5 -55t-56.5 -23q-16 0 -30.5 6t-25.5 16t-17.5 24t-6.5 30zM753 70q0 32 23.5 55t56.5 23
q32 0 56 -22t24 -54t-23.5 -55t-56.5 -23q-16 0 -30.5 6t-25.5 16t-17.5 24t-6.5 30z" />
    <glyph glyph-name="perthousand" unicode="&#x2030;" horiz-adv-x="1230" 
d="M443 165q0 36 14 68t38 56t56 38t68 14t68.5 -14t56.5 -38t38 -56t14 -68t-14 -68.5t-38 -56.5t-56.5 -38t-68.5 -14t-68 14t-56 38t-38 56.5t-14 68.5zM533 165q0 -38 24 -62.5t62 -24.5t62.5 24.5t24.5 62.5t-24.5 62t-62.5 24t-62 -24t-24 -62zM839 165q0 36 14 68
t38 56t56 38t68 14t68.5 -14t56.5 -38t38 -56t14 -68t-14 -68.5t-38 -56.5t-56.5 -38t-68.5 -14t-68 14t-56 38t-38 56.5t-14 68.5zM929 165q0 -38 24 -62.5t62 -24.5t62.5 24.5t24.5 62.5t-24.5 62t-62.5 24t-62 -24t-24 -62zM39 544q0 36 14 68t38 56t56 38t68 14
t68.5 -14t56.5 -38t38 -56t14 -68t-14 -68.5t-38 -56.5t-56.5 -38t-68.5 -14t-68 14t-56 38t-38 56.5t-14 68.5zM129 544q0 -38 24 -62.5t62 -24.5t62.5 24.5t24.5 62.5t-24.5 62t-62.5 24t-62 -24t-24 -62zM582 740l83 -38l-416 -734l-83 38z" />
    <glyph glyph-name="guilsinglleft" unicode="&#x2039;" horiz-adv-x="296" 
d="M142 248l116 -175l-76 -51l-152 226l152 224l75 -51z" />
    <glyph glyph-name="guilsinglright" unicode="&#x203a;" horiz-adv-x="296" 
d="M154 246l-116 175l76 51l152 -226l-152 -224l-75 51z" />
    <glyph glyph-name="fraction" unicode="&#x2044;" horiz-adv-x="100" 
d="M202 740l78 -38l-416 -734l-78 38z" />
    <glyph glyph-name="Euro" unicode="&#x20ac;" 
d="M584 25q-29 -19 -75.5 -31t-100.5 -12q-68 0 -120.5 19t-90.5 52t-62 76.5t-36 92.5h-84l28 86h45q-1 11 -1 22v22q0 12 0.5 24.5t2.5 23.5h-72l30 86h55q15 55 44 99t69.5 75.5t92 48.5t111.5 17q48 0 90.5 -9.5t69.5 -23.5l-38 -100q-23 14 -57 21t-71 7q-30 0 -60 -9
t-55.5 -26t-45 -42t-29.5 -58h288l-28 -86h-279q-3 -21 -3 -49v-21t2 -22h256l-27 -86h-214q7 -28 24 -52.5t42 -42.5t57 -28.5t70 -10.5q76 0 131 33z" />
    <glyph glyph-name="afii61289" unicode="&#x2113;" horiz-adv-x="500" 
d="M443 49q-72 -63 -158 -63q-72 0 -112.5 38.5t-40.5 102.5v64l-56 -52h-2l-42 63l99 85v244q0 42 12.5 76.5t34.5 60t52 39.5t66 14q63 0 100 -38.5t37 -104.5q0 -76 -45.5 -151.5t-139.5 -158.5v-122q0 -21 6 -35.5t15 -23t20.5 -12t23.5 -3.5q41 0 88 38h2zM338 570
q0 31 -12 52t-31 21t-33 -23.5t-14 -66.5v-185q46 51 68 102.5t22 99.5z" />
    <glyph glyph-name="trademark" unicode="&#x2122;" horiz-adv-x="1000" 
d="M162 618h-122v90h346v-90h-122v-322h-102v322zM465 708h142l98 -268l98 268h142v-412h-102v268h-2l-101 -268h-70l-101 268h-2v-268h-102v412z" />
    <glyph glyph-name="Omega" unicode="&#x2126;" horiz-adv-x="759" 
d="M425 0v189q38 7 67.5 26.5t49.5 47.5t30 62t10 72q0 45 -15 84.5t-42.5 69.5t-65.5 47.5t-84 17.5q-47 0 -85.5 -17.5t-66 -47.5t-42.5 -70t-15 -85q0 -78 38.5 -132.5t115.5 -74.5v-189h-274v106h172v32q-45 14 -77.5 40t-53.5 61t-31 77t-10 88q0 69 25.5 127.5
t70 100.5t104 65.5t127.5 23.5t128 -23t104.5 -64t70 -99t25.5 -128q0 -47 -9.5 -89.5t-30.5 -78t-54 -61.5t-79 -40v-32h173v-106h-276z" />
    <glyph glyph-name="estimated" unicode="&#x212e;" horiz-adv-x="800" 
d="M595 402v193q-82 79 -194 79t-191 -79v-193h385zM210 355v-240q76 -78 192 -78q83 0 144 37.5t112 121.5l46 -28q-30 -48 -61.5 -82t-67.5 -55.5t-78.5 -32t-94.5 -10.5q-78 0 -141 28.5t-108 78.5t-69 116.5t-24 143.5t24 143.5t69 116t108 77.5t141 28q76 0 139.5 -27
t108.5 -75.5t70 -115.5t25 -147h-535z" />
    <glyph glyph-name="partialdiff" unicode="&#x2202;" horiz-adv-x="556" 
d="M514 358q0 -64 -10.5 -130t-38.5 -119.5t-77.5 -87.5t-128.5 -34q-50 0 -90 17.5t-69 48t-44.5 72t-15.5 90.5q0 48 15.5 88.5t44 70t68.5 46t88 16.5q42 0 76.5 -14.5t66.5 -40.5v28q1 36 -6 75.5t-24.5 72.5t-47 55t-73.5 22q-35 0 -65 -13.5t-57 -35.5l-59 70
q42 32 81.5 49t93.5 17q78 0 130 -32t83.5 -84t45 -116.5t13.5 -130.5zM397 289q-26 29 -55.5 46.5t-70.5 17.5q-31 0 -54 -12t-38 -31.5t-22.5 -46t-7.5 -54.5q0 -27 6.5 -52t20.5 -44t35.5 -30.5t51.5 -11.5q36 0 61.5 19t42 47.5t24.5 62.5t7 64z" />
    <glyph glyph-name="Delta" unicode="&#x2206;" horiz-adv-x="685" 
d="M8 0l270 712h115l284 -712h-669zM334 581l-173 -477h358z" />
    <glyph glyph-name="product" unicode="&#x220f;" horiz-adv-x="741" 
d="M565 -214v897h-389v-897h-114v1000h617v-1000h-114z" />
    <glyph glyph-name="summation" unicode="&#x2211;" horiz-adv-x="648" 
d="M25 -214v89l303 417l-290 405v89h573v-103h-422l275 -390l-293 -404h453v-103h-599z" />
    <glyph glyph-name="minus" unicode="&#x2212;" horiz-adv-x="666" 
d="M604 354v-102h-542v102h542z" />
    <glyph glyph-name="uni2215" unicode="&#x2215;" horiz-adv-x="100" 
d="M202 740l78 -38l-416 -734l-78 38z" />
    <glyph glyph-name="uni2219" unicode="&#x2219;" horiz-adv-x="260" 
d="M50 291q0 32 23.5 55t56.5 23q32 0 56 -22t24 -54t-23.5 -55t-56.5 -23q-16 0 -30.5 6t-25.5 16t-17.5 24t-6.5 30z" />
    <glyph glyph-name="radical" unicode="&#x221a;" horiz-adv-x="537" 
d="M338 -214h-106l-152 317l-51 -25l-41 90l148 68l129 -273l168 823h116z" />
    <glyph glyph-name="infinity" unicode="&#x221e;" horiz-adv-x="815" 
d="M770 263q0 -38 -11.5 -71t-33.5 -58t-53 -39t-71 -14q-31 0 -58 9.5t-50.5 25t-44.5 35.5t-40 42q-21 -22 -41.5 -42t-43 -35.5t-49 -24.5t-58.5 -9q-39 0 -71 14t-54 38t-34 57t-12 71q0 37 11.5 70t33 57t52.5 38t70 14q33 0 60 -10t51 -26.5t44.5 -38t40.5 -44.5
q19 23 39.5 44.5t44 38.5t51 27t59.5 10q39 0 70 -14t53 -38t33.5 -57t11.5 -70zM680 260q0 36 -21 61t-59 25q-20 0 -38.5 -8.5t-36 -21.5t-33 -28.5t-27.5 -28.5q13 -15 28.5 -29.5t32.5 -26t36.5 -19t40.5 -7.5q37 0 57 24t20 59zM350 259q-12 13 -28 28t-34 28
t-37.5 21.5t-38.5 8.5q-35 0 -56 -25.5t-21 -59.5q0 -37 21.5 -59.5t58.5 -22.5q19 0 38 7.5t36.5 19.5t33 26t27.5 28z" />
    <glyph glyph-name="integral" unicode="&#x222b;" horiz-adv-x="611" 
d="M486 709q0 -23 -14.5 -37.5t-37.5 -14.5q-24 0 -34.5 11.5t-16 25t-10 25t-15.5 11.5t-13.5 -9t-2.5 -17q0 -31 2 -61t2 -61v-589q0 -38 -5 -75t-20 -66.5t-43.5 -48t-75.5 -18.5q-18 0 -37.5 4t-36 13t-27 23.5t-10.5 35.5q0 23 15 38t38 15q24 0 34.5 -11.5t16 -25
t9.5 -25t14 -11.5q8 0 11.5 5.5t5 13t1 15t-0.5 12.5q0 26 -2 51t-2 51v506q0 28 -0.5 60.5t1.5 65t9.5 62.5t23.5 53t43 36.5t68 13.5q17 0 36.5 -4.5t36 -13.5t27 -23.5t10.5 -35.5z" />
    <glyph glyph-name="approxequal" unicode="&#x2248;" horiz-adv-x="666" 
d="M602 451q-3 -33 -12.5 -64t-27.5 -55t-44.5 -38.5t-64.5 -14.5q-30 0 -65.5 10.5t-70.5 24.5q-35 13 -66 23.5t-51 10.5q-28 0 -43.5 -22.5t-20.5 -46.5h-71q3 32 12.5 62.5t27.5 55.5q17 25 43.5 40t62.5 15q32 0 64.5 -10t65.5 -23q33 -12 65.5 -22.5t62.5 -10.5
q28 0 42.5 20t19.5 45h71zM600 243q-3 -33 -12.5 -64t-27 -55t-44 -38.5t-64.5 -14.5q-29 0 -65 10.5t-71 24.5q-35 13 -66 23.5t-52 10.5q-28 0 -43.5 -22t-20.5 -46h-71q3 31 12.5 62t27 55.5t44 39.5t62.5 15q32 0 64.5 -10t65.5 -23q33 -12 65.5 -22.5t62.5 -10.5
q28 0 42.5 20t19.5 45h71z" />
    <glyph glyph-name="notequal" unicode="&#x2260;" horiz-adv-x="666" 
d="M322 162l-74 -144l-88 45l50 99h-130v102h181l38 78h-219v102h270l72 143l90 -44l-51 -99h125v-102h-176l-38 -78h214v-102h-264z" />
    <glyph glyph-name="lessequal" unicode="&#x2264;" horiz-adv-x="666" 
d="M80 314v108l506 177v-113l-359 -118l359 -112v-112zM80 4v107h506v-107h-506z" />
    <glyph glyph-name="greaterequal" unicode="&#x2265;" horiz-adv-x="666" 
d="M80 256l359 112l-359 118v113l506 -177v-108l-506 -170v112zM80 111h506v-107h-506v107z" />
    <glyph glyph-name="lozenge" unicode="&#x25ca;" horiz-adv-x="593" 
d="M346 -35h-100l-177 391l177 391h100l178 -391zM296 641l-118 -285l118 -286l119 286z" />
    <glyph glyph-name="dotlessj" unicode="&#xf6be;" horiz-adv-x="268" 
d="M194 480v-509q0 -43 -7 -81.5t-26.5 -67t-53 -45.5t-87.5 -17q-15 0 -30 2t-24 4l10 102q8 -2 17 -3t16 -1q21 0 34 8t20 22t9 32.5t2 39.5v514h120z" />
    <glyph glyph-name="commaaccent" unicode="&#xf6c3;" horiz-adv-x="260" 
d="M108 -45h106l-80 -195h-91z" />
    <glyph glyph-name="uniF8FF" unicode="&#xf8ff;" horiz-adv-x="512" 
d="M222 117v67h56v-67h-56zM225 234l-2 17q0 56 13 81q7 13 18 27.5t28 31.5q16 15 26 26.5t15 21t7 18t2 17.5q0 36 -22.5 60.5t-53.5 24.5t-53.5 -22t-28.5 -73l-50 8q7 72 44 104.5t91 32.5t89 -35.5t35 -95.5q0 -32 -12.5 -58.5t-50.5 -61.5q-37 -33 -43 -52
q-6 -20 -6 -72h-46zM462 50v617h-412v-617h412zM512 718v-718h-512v718h512z" />
    <glyph glyph-name="fi" unicode="&#xfb01;" horiz-adv-x="593" 
d="M410 480h120v-480h-120v480zM393 643q0 29 21.5 50.5t54.5 21.5t55.5 -20.5t22.5 -51.5t-22.5 -51.5t-55.5 -20.5t-54.5 21.5t-21.5 50.5zM91 384h-91v96h91v71q0 43 9.5 82.5t32 69.5t59.5 47.5t93 17.5q20 0 33.5 -1.5t27.5 -5.5l-8 -102q-10 3 -21.5 5t-24.5 2
q-26 0 -42 -10t-24.5 -26t-11.5 -35t-3 -37v-78h111v-96h-111v-384h-120v384z" />
    <glyph glyph-name="fl" unicode="&#xfb02;" horiz-adv-x="593" 
d="M410 756h120v-756h-120v756zM91 384h-91v96h91v71q0 43 9.5 82.5t32 69.5t59.5 47.5t93 17.5q20 0 33.5 -1.5t27.5 -5.5l-8 -102q-10 3 -21.5 5t-24.5 2q-26 0 -42 -10t-24.5 -26t-11.5 -35t-3 -37v-78h111v-96h-111v-384h-120v384z" />
    </font>
</defs>
</svg>
