<?xml version="1.0" standalone="no"?>
<!DOCTYPE svg PUBLIC "-//W3C//DTD SVG 1.1//EN" "http://www.w3.org/Graphics/SVG/1.1/DTD/svg11.dtd" >
<svg xmlns="http://www.w3.org/2000/svg" xmlns:xlink="http://www.w3.org/1999/xlink" version="1.1">
<metadata>
Created by FontForge 20161116 at Wed Apr 11 04:30:35 2012
 By Jimmy Wärting
Copyright (c) 2004 - 2007 Linotype GmbH, www.linotype.com. All rights reserved.
</metadata>
<defs>
<font id="AvenirNext-Heavy" horiz-adv-x="360" >
  <font-face 
    font-family="Avenir Next Heavy"
    font-weight="900"
    font-stretch="normal"
    units-per-em="1000"
    panose-1="2 11 9 3 2 2 2 2 2 4"
    ascent="800"
    descent="-200"
    x-height="526"
    cap-height="708"
    bbox="-163 -250 1237 971"
    underline-thickness="50"
    underline-position="-100"
    unicode-range="U+000D-FB02"
  />
<missing-glyph horiz-adv-x="512" 
d="M222 117v67h56v-67h-56zM225 234l-2 17q0 56 13 81q7 13 18 27.5t28 31.5q16 15 26 26.5t15 21t7 18t2 17.5q0 36 -22.5 60.5t-53.5 24.5t-53.5 -22t-28.5 -73l-50 8q7 72 44 104.5t91 32.5t89 -35.5t35 -95.5q0 -32 -12.5 -58.5t-50.5 -61.5q-37 -33 -43 -52
q-6 -20 -6 -72h-46zM462 50v617h-412v-617h412zM512 718v-718h-512v718h512z" />
    <glyph glyph-name=".notdef" horiz-adv-x="512" 
d="M222 117v67h56v-67h-56zM225 234l-2 17q0 56 13 81q7 13 18 27.5t28 31.5q16 15 26 26.5t15 21t7 18t2 17.5q0 36 -22.5 60.5t-53.5 24.5t-53.5 -22t-28.5 -73l-50 8q7 72 44 104.5t91 32.5t89 -35.5t35 -95.5q0 -32 -12.5 -58.5t-50.5 -61.5q-37 -33 -43 -52
q-6 -20 -6 -72h-46zM462 50v617h-412v-617h412zM512 718v-718h-512v718h512z" />
    <glyph glyph-name=".null" horiz-adv-x="500" 
 />
    <glyph glyph-name=".null" horiz-adv-x="500" 
 />
    <glyph glyph-name="nonmarkingreturn" unicode="&#xd;" horiz-adv-x="0" 
 />
    <glyph glyph-name="space" unicode=" " horiz-adv-x="250" 
 />
    <glyph glyph-name="exclam" unicode="!" horiz-adv-x="448" 
d="M224 -16q-26 0 -48.5 9.5t-39.5 25.5t-26.5 38t-9.5 48q0 25 9.5 47t26.5 38.5t39.5 26t48.5 9.5t48.5 -9.5t39.5 -26t26.5 -38.5t9.5 -47q0 -26 -9.5 -48t-26.5 -38t-39.5 -25.5t-48.5 -9.5zM104 708h240v-448h-240v448z" />
    <glyph glyph-name="quotedbl" unicode="&#x22;" horiz-adv-x="556" 
d="M303 708h172v-282h-172v282zM81 708h173v-282h-173v282z" />
    <glyph glyph-name="numbersign" unicode="#" horiz-adv-x="620" 
d="M471 321h77v-134h-95l-27 -187h-145l26 187h-40l-27 -187h-145l26 187h-76v134h95l10 66h-77v134h95l26 187h146l-27 -187h41l27 187h145l-27 -187h76v-134h-95zM285 321h41l10 66h-42z" />
    <glyph glyph-name="dollar" unicode="$" horiz-adv-x="700" 
d="M401 714q66 -4 131.5 -29.5t116.5 -70.5l-148 -147q-24 29 -59 44t-63 15q-26 0 -42 -7t-16 -24q0 -16 16.5 -23.5t53.5 -19.5q38 -12 80 -27.5t77.5 -40t58.5 -61t23 -89.5q0 -56 -20 -99t-53 -73.5t-76.5 -47.5t-90.5 -21v-76h-102v75q-70 5 -135.5 32t-112.5 67
l145 154q12 -13 29.5 -25t37.5 -21.5t41.5 -15t43.5 -5.5q20 0 36.5 7t16.5 25q0 10 -5.5 17t-19.5 14t-38.5 15.5t-61.5 20.5q-36 12 -69 28t-58.5 39.5t-40.5 56.5t-15 78q0 53 18 93.5t48 69t69.5 46t81.5 24.5v74h102v-72v0z" />
    <glyph glyph-name="percent" unicode="%" horiz-adv-x="935" 
d="M224 333q-41 0 -76.5 15t-62.5 41.5t-42.5 61.5t-15.5 75q0 41 15.5 76.5t42.5 61.5t62.5 41t76.5 15q40 0 76 -15t62.5 -41t42 -61.5t15.5 -76.5q0 -40 -15.5 -75t-42 -61.5t-62.5 -41.5t-76 -15zM224 586q-24 0 -42 -17.5t-18 -42.5q0 -24 18 -41t42 -17q23 0 41 17
t18 41q0 25 -18 42.5t-41 17.5zM711 -12q-41 0 -76.5 15t-62.5 41.5t-42.5 61.5t-15.5 75q0 41 15.5 76.5t42.5 61.5t62.5 41t76.5 15q40 0 76 -15t62.5 -41t42 -61.5t15.5 -76.5q0 -40 -15.5 -75t-42 -61.5t-62.5 -41.5t-76 -15zM711 241q-24 0 -42 -17.5t-18 -42.5
q0 -24 18 -41t42 -17q23 0 41 17t18 41q0 25 -18 42.5t-41 17.5zM208 16l420 723l97 -55l-419 -721z" />
    <glyph glyph-name="ampersand" unicode="&#x26;" horiz-adv-x="840" 
d="M520 51q-32 -28 -81.5 -46.5t-118.5 -18.5q-51 0 -101 12t-89.5 38t-64.5 68t-25 101q0 34 11 63.5t29.5 53t44 42t54.5 30.5q-29 26 -49 62.5t-20 82.5q0 52 23.5 88t60.5 58.5t82 32.5t88 10q44 0 87.5 -10.5t78.5 -33.5t57 -59.5t22 -88.5q0 -33 -11 -59.5t-30 -48
t-43.5 -39t-52.5 -32.5l49 -46l55 79h249l-170 -207l192 -183h-278zM366 575q-23 0 -34.5 -14t-11.5 -32q0 -17 10 -32t27 -28q23 9 38 24.5t15 35.5t-11 33t-33 13zM304 273q-14 -5 -26.5 -18t-12.5 -37q0 -15 6 -25t16 -17t22 -10t23 -3q19 0 35.5 6t24.5 15z" />
    <glyph glyph-name="quotesingle" unicode="'" horiz-adv-x="334" 
d="M81 708h172v-282h-172v282z" />
    <glyph glyph-name="parenleft" unicode="(" 
d="M18 288q0 122 37 244.5t112 225.5l153 -56q-133 -184 -133 -414t133 -414l-153 -56q-75 103 -112 225.5t-37 244.5z" />
    <glyph glyph-name="parenright" unicode=")" 
d="M342 288q0 -122 -37 -244.5t-112 -225.5l-153 56q133 184 133 414t-133 414l153 56q75 -103 112 -225.5t37 -244.5z" />
    <glyph glyph-name="asterisk" unicode="*" horiz-adv-x="527" 
d="M457 374l-121 -83l-74 95l-71 -90l-120 83l74 89l-117 37l48 130l114 -38v111h149v-112l116 35l44 -130l-114 -34z" />
    <glyph glyph-name="plus" unicode="+" horiz-adv-x="666" 
d="M253 378v198h158v-198h206v-150h-204v-198h-158v198h-206v150h204z" />
    <glyph glyph-name="comma" unicode="," 
d="M14 -120l82 313h218l-114 -313h-186z" />
    <glyph glyph-name="hyphen" unicode="-" horiz-adv-x="336" 
d="M30 371h276v-172h-276v172z" />
    <glyph glyph-name="period" unicode="." 
d="M48 113q0 27 10.5 50.5t29 41t43 28t51.5 10.5q26 0 49.5 -10.5t41.5 -28t28.5 -41t10.5 -50.5t-10.5 -51t-28.5 -41t-41.5 -27t-49.5 -10q-27 0 -51.5 10t-43 27t-29 41t-10.5 51z" />
    <glyph glyph-name="slash" unicode="/" horiz-adv-x="455" 
d="M-3 -11l303 778l158 -48l-304 -778z" />
    <glyph glyph-name="zero" unicode="0" horiz-adv-x="700" 
d="M350 -20q-65 0 -114 17t-84 46t-58.5 67t-37 80t-19 85t-5.5 83q0 39 5.5 82t19 84t37 78t58.5 65t84 44.5t114 16.5q98 0 160 -35.5t97 -90t48 -120t13 -124.5q0 -39 -5.5 -82.5t-19 -85.5t-36.5 -80t-58.5 -67t-84.5 -46t-114 -17zM350 523q-22 0 -36 -15t-22 -39
t-11 -53.5t-3 -57.5q0 -29 3 -59.5t11 -55.5t22 -40.5t36 -15.5t36.5 15.5t22 40.5t10.5 55.5t3 59.5q0 28 -3 57.5t-10.5 53.5t-22 39t-36.5 15z" />
    <glyph glyph-name="one" unicode="1" horiz-adv-x="700" 
d="M288 456l-119 -82l-112 174l251 160h220v-708h-240v456z" />
    <glyph glyph-name="two" unicode="2" horiz-adv-x="700" 
d="M346 409q17 13 28 29t11 33q0 20 -12.5 35t-39.5 15q-29 0 -48 -23t-21 -62l-227 26q7 69 36 119t72.5 83t97 48.5t110.5 15.5q52 0 103.5 -13t91.5 -40.5t65 -71.5t25 -106q0 -44 -11.5 -77.5t-31 -59.5t-44 -47t-51.5 -40l-104 -74h244v-199h-574v185z" />
    <glyph glyph-name="three" unicode="3" horiz-adv-x="700" 
d="M533 371q27 -9 49.5 -25t38.5 -37t24.5 -45.5t8.5 -49.5q0 -62 -26 -106.5t-68 -73t-95 -41.5t-107 -13t-106.5 12.5t-96 39.5t-76 68t-46.5 98l222 52q6 -26 29.5 -48t60.5 -22q10 0 21 2.5t20 8t15 14.5t6 23q0 32 -28 42t-75 10h-68v164h76q38 0 61 10.5t23 40.5
q0 23 -18 32t-38 9q-25 0 -46 -15.5t-26 -45.5l-221 47q18 58 51 97.5t75.5 63.5t91 34.5t95.5 10.5t97 -11.5t91 -37t67 -65t26 -95.5q0 -60 -31.5 -95.5t-76.5 -48.5v-4z" />
    <glyph glyph-name="four" unicode="4" horiz-adv-x="700" 
d="M588 0h-216v125h-341v194l268 389h288v-397h96v-186h-95v-125zM371 490l-118 -179h122v179h-4z" />
    <glyph glyph-name="five" unicode="5" horiz-adv-x="700" 
d="M650 238q0 -74 -27 -123.5t-69.5 -79.5t-95 -42.5t-103.5 -12.5q-54 0 -106 14.5t-95 42.5t-73 68.5t-40 92.5l220 56q6 -29 29.5 -50.5t56.5 -21.5q26 0 46 12t20 42q0 18 -11.5 29.5t-29.5 18.5t-40.5 9.5t-44.5 2.5q-16 0 -38.5 -1.5t-47.5 -4.5t-50.5 -7t-48.5 -8
l25 433h481v-198h-280l-4 -51q14 2 28 3.5t25 1.5q55 0 104.5 -13t87 -40.5t59.5 -70.5t22 -102z" />
    <glyph glyph-name="six" unicode="6" horiz-adv-x="700" 
d="M418 486q46 0 89.5 -15.5t77.5 -45.5t54.5 -74t20.5 -101q0 -67 -25 -117.5t-68 -84.5t-99 -51t-118 -17t-118 16.5t-99 49.5t-68 83.5t-25 118.5q0 67 26.5 125.5t61.5 107.5l162 227h289l-163 -211l-9 -11h11zM350 320q-32 0 -52.5 -20.5t-20.5 -50.5q0 -31 20.5 -52
t52.5 -21q34 0 54.5 21t20.5 52q0 30 -20.5 50.5t-54.5 20.5z" />
    <glyph glyph-name="seven" unicode="7" horiz-adv-x="700" 
d="M116 0l269 510h-304v198h564v-169l-253 -539h-276z" />
    <glyph glyph-name="eight" unicode="8" horiz-adv-x="700" 
d="M350 551q-27 0 -42.5 -16.5t-15.5 -35.5q0 -20 15.5 -37t42.5 -17t42.5 17t15.5 37q0 19 -15.5 35.5t-42.5 16.5zM350 277q-31 0 -46.5 -18t-15.5 -41t15.5 -40.5t46.5 -17.5t46.5 17.5t15.5 40.5t-15.5 41t-46.5 18zM526 368q51 -19 84.5 -61.5t33.5 -102.5
t-25.5 -102.5t-67 -69.5t-94 -39.5t-107.5 -12.5t-108 12t-94 39t-66.5 69.5t-25.5 102.5q0 58 32.5 100t85.5 64v3q-44 17 -75 55.5t-31 93.5t24 95t63.5 65t90.5 37t104 12q52 0 103 -12t90.5 -37t64 -65t24.5 -95t-29 -93.5t-77 -54.5v-3z" />
    <glyph glyph-name="nine" unicode="9" horiz-adv-x="700" 
d="M282 222q-46 0 -89.5 15.5t-77.5 45.5t-54.5 74t-20.5 101q0 67 25 117.5t68 84.5t99 51t118 17t118 -16.5t99 -49.5t68 -83.5t25 -118.5q0 -67 -26.5 -125.5t-61.5 -107.5l-162 -227h-289l167 216l5 6h-11zM350 390q32 0 52.5 20.5t20.5 50.5q0 31 -20.5 52t-52.5 21
q-34 0 -54.5 -21t-20.5 -52q0 -30 20.5 -50.5t54.5 -20.5z" />
    <glyph glyph-name="colon" unicode=":" horiz-adv-x="380" 
d="M66 115q0 25 10 47.5t27 39t40 26t49 9.5q24 0 46.5 -9.5t39 -26t26.5 -39t10 -47.5q0 -26 -10 -48t-26.5 -38t-39 -25.5t-46.5 -9.5q-26 0 -49 9.5t-40 25.5t-27 38t-10 48zM66 409q0 25 10 47.5t27 39t40 26t49 9.5q24 0 46.5 -9.5t39 -26t26.5 -39t10 -47.5
q0 -26 -10 -48t-26.5 -38t-39 -25.5t-46.5 -9.5q-26 0 -49 9.5t-40 25.5t-27 38t-10 48z" />
    <glyph glyph-name="semicolon" unicode=";" horiz-adv-x="380" 
d="M13 -120l82 313h218l-114 -313h-186zM66 409q0 25 10 47.5t27 39t40 26t49 9.5q24 0 46.5 -9.5t39 -26t26.5 -39t10 -47.5q0 -26 -10 -48t-26.5 -38t-39 -25.5t-46.5 -9.5q-26 0 -49 9.5t-40 25.5t-27 38t-10 48z" />
    <glyph glyph-name="less" unicode="&#x3c;" horiz-adv-x="666" 
d="M588 32q-128 51 -255 101.5t-255 101.5v134q128 51 255 101.5t255 101.5v-162q-69 -29 -137 -55.5t-137 -55.5q69 -26 137 -51.5t137 -51.5v-164v0z" />
    <glyph glyph-name="equal" unicode="=" horiz-adv-x="666" 
d="M610 472v-144h-554v144h554zM610 282v-144h-554v144h554z" />
    <glyph glyph-name="greater" unicode="&#x3e;" horiz-adv-x="666" 
d="M78 572q128 -51 255 -101.5t255 -101.5v-134q-128 -51 -255 -101.5t-255 -101.5v164q69 26 137 51.5t137 51.5q-69 29 -137 55.5t-137 55.5v162v0z" />
    <glyph glyph-name="question" unicode="?" horiz-adv-x="587" 
d="M304 -16q-26 0 -48.5 9.5t-39.5 25.5t-26.5 38t-9.5 48q0 25 9.5 47t26.5 38.5t39.5 26t48.5 9.5t48.5 -9.5t39.5 -26t26.5 -38.5t9.5 -47q0 -26 -9.5 -48t-26.5 -38t-39.5 -25.5t-48.5 -9.5zM446 328q-21 -13 -28.5 -25t-7.5 -25v-26h-213v37q0 30 7.5 52.5t20.5 40.5
t31 33.5t39 30.5l17 12q16 11 24.5 21.5t8.5 22.5q0 21 -12.5 29.5t-29.5 8.5q-33 0 -47 -23.5t-14 -54.5l-215 28q6 64 31.5 109.5t64 74t86 41.5t98.5 13q46 0 94 -10.5t87 -35t64 -65t25 -99.5q0 -35 -9 -62t-26 -49.5t-41.5 -41.5t-54.5 -37z" />
    <glyph glyph-name="at" unicode="@" horiz-adv-x="800" 
d="M617 534l-19 -108q-8 -41 -13 -69.5t-5 -43.5q0 -11 5 -20.5t19 -9.5q9 0 19 5t18.5 17.5t14.5 34.5t6 56q0 56 -18 98t-50.5 70t-78 42t-100.5 14q-58 0 -106.5 -20t-83 -55.5t-53.5 -84.5t-19 -106q0 -60 20.5 -108.5t57.5 -82.5t88 -52.5t112 -18.5q57 0 111.5 18
t93.5 50l75 -85q-112 -93 -294 -93q-84 0 -156 27.5t-124.5 76.5t-82 117t-29.5 150q0 80 31 148t84 118t123.5 78.5t150.5 28.5q73 0 140 -21.5t117.5 -63.5t80.5 -104t30 -143q0 -53 -14.5 -96t-42 -73.5t-67.5 -47.5t-91 -17q-40 0 -67.5 15t-38.5 44h-2q-11 -21 -40 -40
t-73 -19q-34 0 -61.5 13.5t-47 37.5t-30 57t-10.5 71q0 43 13 83t37 71t58.5 50t77.5 19q39 0 62 -17t29 -35h2l5 24h136zM405 443q-12 0 -23 -8.5t-19 -22.5t-13 -32t-5 -37q0 -26 9.5 -43t31.5 -17q14 0 25.5 9t19 23t11.5 31t4 34q0 26 -8 44.5t-33 18.5z" />
    <glyph glyph-name="A" unicode="A" horiz-adv-x="776" 
d="M263 708h253l276 -708h-259l-37 104h-225l-35 -104h-252zM386 461l-58 -175h115z" />
    <glyph glyph-name="B" unicode="B" horiz-adv-x="693" 
d="M288 523v-87h64q25 0 41 11.5t16 35.5q0 20 -17 30t-45 10h-59zM288 283v-96h71q28 0 45.5 12.5t17.5 36.5q0 14 -7.5 23t-18.5 14.5t-23.5 7.5t-23.5 2h-61zM529 368q25 -6 49 -19.5t43 -34t30 -47.5t11 -60q0 -58 -23.5 -97.5t-62 -64t-88 -35t-101.5 -10.5h-321v708
h291q43 0 91.5 -6.5t89.5 -26t68 -57t27 -98.5q0 -57 -28.5 -94t-75.5 -55v-3z" />
    <glyph glyph-name="C" unicode="C" horiz-adv-x="696" 
d="M34 354q0 85 30 154t82 118t122.5 75.5t150.5 26.5q82 0 155 -26.5t122 -71.5l-146 -176q-20 26 -50 39.5t-67 13.5q-30 0 -56 -10.5t-45.5 -30.5t-30.5 -48.5t-11 -63.5t11.5 -62.5t31 -47.5t45.5 -30.5t55 -10.5q41 0 70.5 17t46.5 40l146 -175q-48 -48 -118 -76.5
t-159 -28.5q-80 0 -150.5 27t-122.5 76.5t-82 118t-30 152.5z" />
    <glyph glyph-name="D" unicode="D" horiz-adv-x="788" 
d="M66 0v708h264q84 0 160.5 -16.5t135 -57t93.5 -107.5t35 -169q0 -93 -33.5 -161t-89.5 -111.5t-129 -64.5t-152 -21h-284zM295 506v-302h44q84 0 129 36.5t45 119.5q0 69 -45 107.5t-120 38.5h-53z" />
    <glyph glyph-name="E" unicode="E" horiz-adv-x="603" 
d="M66 708h487v-198h-263v-61h247v-185h-247v-66h280v-198h-504v708z" />
    <glyph glyph-name="F" unicode="F" horiz-adv-x="581" 
d="M299 434h216v-194h-215v-240h-234v708h478v-199h-245v-75z" />
    <glyph glyph-name="G" unicode="G" horiz-adv-x="762" 
d="M426 -18q-84 0 -155.5 26t-124 74.5t-82.5 117.5t-30 154t30 154t82 118t122 75.5t150 26.5q83 0 157.5 -27t121.5 -74l-139 -167q-22 26 -52 41.5t-74 15.5q-29 0 -56.5 -11.5t-48.5 -33t-34 -51.5t-13 -67q0 -74 38.5 -120.5t123.5 -46.5q15 0 31 2.5t25 7.5v54h-114
v187h325v-387q-25 -15 -57.5 -27.5t-69 -21.5t-76.5 -14.5t-80 -5.5z" />
    <glyph glyph-name="H" unicode="H" horiz-adv-x="802" 
d="M498 269h-194v-269h-238v708h237v-240h194v240h239v-708h-238v269z" />
    <glyph glyph-name="I" unicode="I" horiz-adv-x="372" 
d="M66 708h240v-708h-240v708z" />
    <glyph glyph-name="J" unicode="J" horiz-adv-x="573" 
d="M248 -20q-48 0 -91 14t-77.5 38t-59.5 57t-35 71l204 78q4 -16 14.5 -28.5t28.5 -12.5q23 0 31 15.5t8 39.5v456h239v-446q0 -48 -10.5 -98t-39.5 -91t-80 -67t-132 -26z" />
    <glyph glyph-name="K" unicode="K" horiz-adv-x="763" 
d="M300 282h-2v-282h-232v708h231v-261h2l189 261h280l-266 -324l279 -384h-292z" />
    <glyph glyph-name="L" unicode="L" horiz-adv-x="549" 
d="M66 708h240v-504h235v-204h-475v708z" />
    <glyph glyph-name="M" unicode="M" horiz-adv-x="1008" 
d="M277 400l11 -400h-222v708h311l128 -381h5l111 381h321v-708h-231l7 398l-6 1l-132 -399h-168l-130 400h-5z" />
    <glyph glyph-name="N" unicode="N" horiz-adv-x="791" 
d="M66 708h237l202 -359h4l-10 359h226v-708h-243l-196 338h-4l10 -338h-226v708z" />
    <glyph glyph-name="O" unicode="O" horiz-adv-x="855" 
d="M34 358q0 85 30 153.5t82.5 116.5t124.5 74t156 26t156 -26t125 -74t83 -116.5t30 -153.5t-30 -155t-83 -119.5t-125 -76.5t-156 -27t-156 27t-124.5 76.5t-82.5 119.5t-30 155zM287 358q0 -35 10.5 -64t29 -50t44.5 -32.5t56 -11.5t55.5 11.5t44.5 32.5t29.5 50t10.5 64
q0 34 -10.5 62.5t-29.5 48t-44.5 30.5t-55.5 11t-56 -11t-44.5 -30.5t-29 -48t-10.5 -62.5z" />
    <glyph glyph-name="P" unicode="P" horiz-adv-x="684" 
d="M303 228v-228h-237v708h304q54 0 106 -11.5t93 -39t66 -73t25 -114.5q0 -66 -24.5 -112t-65 -75t-93 -42t-107.5 -13h-67zM303 523v-114h50q27 0 49.5 13.5t22.5 45.5q0 17 -6 27.5t-16.5 16.5t-23.5 8.5t-26 2.5h-50z" />
    <glyph glyph-name="Q" unicode="Q" horiz-adv-x="864" 
d="M740 180l112 7v-187h-438q-84 0 -154 23.5t-120 69.5t-78 113.5t-28 155.5q0 81 30 148.5t82.5 116t124.5 75t156 26.5t155 -26.5t122.5 -73.5t80.5 -113t29 -144q0 -30 -6.5 -59t-17 -53.5t-24 -44t-26.5 -30.5v-4zM287 358q0 -35 10.5 -64t29 -50t44.5 -32.5t56 -11.5
t55.5 11.5t44.5 32.5t29.5 50t10.5 64q0 34 -10.5 62.5t-29.5 48t-44.5 30.5t-55.5 11t-56 -11t-44.5 -30.5t-29 -48t-10.5 -62.5z" />
    <glyph glyph-name="R" unicode="R" horiz-adv-x="714" 
d="M66 708h305q52 0 103.5 -10.5t92 -37t65.5 -71t25 -111.5q0 -65 -32 -114.5t-92 -76.5l180 -287h-274l-136 253h-7v-253h-230v708zM294 409h47q12 0 26.5 2t27 8.5t21 18t8.5 30.5t-7 30t-18 16.5t-24 7t-24 1.5h-57v-114z" />
    <glyph glyph-name="S" unicode="S" horiz-adv-x="617" 
d="M298 -20q-43 0 -84.5 7.5t-80 22t-72.5 34t-61 43.5l145 158q25 -27 66.5 -48t85.5 -21q20 0 36.5 7t16.5 26q0 10 -5.5 17t-19.5 14.5t-38.5 16.5t-61.5 21q-36 12 -69 28.5t-58.5 40.5t-40.5 57.5t-15 80.5q0 66 27 112t69.5 75.5t95.5 42.5t105 13q70 0 142.5 -27
t127.5 -78l-148 -151q-24 30 -59 45.5t-63 15.5q-26 0 -42 -7.5t-16 -24.5q0 -16 16.5 -24t53.5 -20q38 -12 80 -28t77.5 -41.5t58.5 -62.5t23 -92q0 -64 -25.5 -111.5t-67 -79t-93.5 -47t-106 -15.5z" />
    <glyph glyph-name="T" unicode="T" horiz-adv-x="600" 
d="M419 0h-238v507h-174v201h586v-201h-174v-507z" />
    <glyph glyph-name="U" unicode="U" horiz-adv-x="775" 
d="M384 -20q-83 0 -144.5 23t-102.5 63t-61 94.5t-20 117.5v430h238v-404q0 -51 24.5 -79.5t69.5 -28.5t69.5 28.5t24.5 79.5v404h237v-430q0 -63 -21.5 -117.5t-63.5 -94.5t-104.5 -63t-145.5 -23z" />
    <glyph glyph-name="V" unicode="V" horiz-adv-x="739" 
d="M-16 708h269l117 -438h4l112 438h269l-256 -708h-264z" />
    <glyph glyph-name="W" unicode="W" horiz-adv-x="1077" 
d="M433 0h-240l-193 708h252l76 -398h4l82 398h249l89 -398h4l77 398h244l-197 -708h-240l-100 400h-4z" />
    <glyph glyph-name="X" unicode="X" horiz-adv-x="800" 
d="M393 207l-123 -207h-282l253 369l-240 339h287l112 -186l107 186h280l-236 -336l261 -372h-291z" />
    <glyph glyph-name="Y" unicode="Y" horiz-adv-x="738" 
d="M481 0h-238v290l-267 418h287l112 -208l107 208h280l-281 -418v-290z" />
    <glyph glyph-name="Z" unicode="Z" horiz-adv-x="672" 
d="M44 199l265 312h-254v197h565v-172l-282 -333h290v-203h-584v199z" />
    <glyph glyph-name="bracketleft" unicode="[" 
d="M42 732h252v-137h-87v-614h87v-137h-252v888z" />
    <glyph glyph-name="backslash" unicode="\" horiz-adv-x="455" 
d="M-3 719l158 48l303 -778l-157 -48z" />
    <glyph glyph-name="bracketright" unicode="]" 
d="M318 -156h-252v137h87v614h-87v137h252v-888z" />
    <glyph glyph-name="asciicircum" unicode="^" horiz-adv-x="714" 
d="M77 343q51 92 101.5 182.5t101.5 182.5h154q51 -92 100.5 -182.5t100.5 -182.5h-178q-25 47 -50.5 93.5t-50.5 93.5q-26 -47 -50.5 -93.5t-50.5 -93.5h-178z" />
    <glyph glyph-name="underscore" unicode="_" horiz-adv-x="500" 
d="M0 -75h500v-110h-500v110z" />
    <glyph glyph-name="grave" unicode="`" 
d="M-36 728h212l111 -144h-169z" />
    <glyph glyph-name="a" unicode="a" horiz-adv-x="591" 
d="M334 218q-51 0 -82 -11t-31 -41q0 -11 5 -18.5t13 -12.5t17.5 -7.5t17.5 -2.5q33 0 53 21t20 54v18h-13zM332 334q0 24 -16.5 35.5t-43.5 11.5q-32 0 -60.5 -13.5t-50.5 -31.5l-115 114q48 46 114 71t136 25q75 0 124 -21t77.5 -58t40 -86t11.5 -104v-277h-209v42h-2
q-20 -30 -57 -43t-72 -13q-31 0 -63.5 9t-59 29t-43.5 52t-17 79q0 55 28.5 89.5t72.5 54t98.5 26.5t106.5 7v2z" />
    <glyph glyph-name="b" unicode="b" horiz-adv-x="694" 
d="M662 265q0 -52 -15.5 -102t-45.5 -89.5t-75 -63.5t-104 -24q-49 0 -93 18.5t-67 50.5h-2v-55h-207v756h230v-272h2q23 27 61 41.5t76 14.5q59 0 104 -24t75 -63t45.5 -88t15.5 -100zM448 265q0 35 -22 61t-64 26q-41 0 -65.5 -26t-24.5 -61q0 -37 24.5 -63t65.5 -26
q42 0 64 25.5t22 63.5z" />
    <glyph glyph-name="c" unicode="c" horiz-adv-x="526" 
d="M339 -20q-67 0 -123 20t-97 57t-64 89t-23 117q0 64 23.5 116.5t65.5 89.5t98.5 57t122.5 20q27 0 54.5 -4.5t53 -12.5t47 -18t36.5 -22l-115 -166q-12 14 -31.5 21.5t-37.5 7.5q-17 0 -33 -5.5t-28.5 -17t-20.5 -28t-8 -38.5t8 -38.5t20.5 -27t28.5 -16t33 -5.5
q20 0 39 7.5t31 20.5l116 -162q-33 -26 -85.5 -44t-110.5 -18z" />
    <glyph glyph-name="d" unicode="d" horiz-adv-x="694" 
d="M32 265q0 51 15.5 100t45.5 88t75 63t104 24q38 0 76 -14.5t61 -41.5h2v272h230v-756h-207v55h-2q-23 -32 -67 -50.5t-93 -18.5q-59 0 -104 24t-75 63.5t-45.5 89.5t-15.5 102zM246 265q0 -38 22 -63.5t64 -25.5q41 0 65.5 26t24.5 63q0 35 -24.5 61t-65.5 26
q-42 0 -64 -26t-22 -61z" />
    <glyph glyph-name="e" unicode="e" horiz-adv-x="630" 
d="M403 333q0 28 -20.5 46t-55.5 18q-38 0 -59 -21t-24 -43h159zM602 258q0 -13 -0.5 -26.5t-1.5 -22.5h-354q1 -14 9.5 -25t21 -19t28 -12t31.5 -4q32 0 53.5 11.5t32.5 25.5l164 -83q-35 -57 -101.5 -90t-154.5 -33q-57 0 -111 18t-95.5 53.5t-66.5 88.5t-25 123
q0 65 23 117.5t62.5 89t93 56.5t114.5 20q62 0 113 -21.5t87.5 -60t56.5 -91.5t20 -115z" />
    <glyph glyph-name="f" unicode="f" horiz-adv-x="424" 
d="M426 598q-9 4 -21 6.5t-24 2.5q-34 0 -47.5 -21t-13.5 -53v-7h111v-165h-111v-361h-230v361h-90v165h90v12q0 49 11.5 94t39.5 79.5t75.5 54.5t119.5 20q23 0 53.5 -3.5t51.5 -11.5l-15 -173v0z" />
    <glyph glyph-name="g" unicode="g" horiz-adv-x="697" 
d="M32 265q0 51 15.5 100t45.5 88t75 63t104 24q42 0 82.5 -16t66.5 -51h3v53h217v-472q0 -86 -28 -143t-74.5 -90.5t-105.5 -47t-120 -13.5q-75 0 -150 19.5t-131 57.5l101 153q38 -29 80 -42.5t80 -13.5q25 0 47.5 6.5t39.5 19t27 31t10 42.5v23h-3q-19 -22 -56.5 -39
t-85.5 -17q-61 0 -106 21.5t-75 58t-44.5 84.5t-14.5 101zM246 265q0 -38 22 -63.5t64 -25.5q41 0 65.5 26t24.5 63q0 35 -24.5 61t-65.5 26q-42 0 -64 -26t-22 -61z" />
    <glyph glyph-name="h" unicode="h" horiz-adv-x="666" 
d="M430 540q55 0 91.5 -20t58 -51.5t30 -70.5t8.5 -78v-320h-232v280q0 40 -12.5 56t-37.5 16q-20 0 -36 -17.5t-16 -55.5v-279h-231v756h231v-288h2q20 29 57 50.5t87 21.5z" />
    <glyph glyph-name="i" unicode="i" horiz-adv-x="339" 
d="M54 526h231v-526h-231v526zM50 678q0 24 9.5 45.5t26 37.5t38.5 25.5t47 9.5q24 0 45 -9.5t37.5 -25.5t26 -37.5t9.5 -45.5q0 -25 -9.5 -46.5t-26 -37t-37.5 -24.5t-45 -9q-25 0 -47 9t-38.5 24.5t-26 37t-9.5 46.5z" />
    <glyph glyph-name="j" unicode="j" horiz-adv-x="346" 
d="M292 12q0 -51 -10.5 -96.5t-37.5 -80t-73 -55t-116 -20.5q-20 0 -48 3t-48 9l12 188q11 -3 20.5 -4t16.5 -1q26 0 39.5 14.5t13.5 49.5v507h231v-514zM57 678q0 24 9.5 45.5t26 37.5t38.5 25.5t46 9.5t45.5 -9.5t38 -25.5t26 -37.5t9.5 -45.5q0 -25 -9.5 -46.5t-26 -37
t-38 -24.5t-45.5 -9t-46 9t-38.5 24.5t-26 37t-9.5 46.5z" />
    <glyph glyph-name="k" unicode="k" horiz-adv-x="670" 
d="M284 229v-229h-231v756h231v-431h3l125 201h268l-170 -237l169 -289h-269l-123 229h-3z" />
    <glyph glyph-name="l" unicode="l" horiz-adv-x="342" 
d="M53 756h236v-756h-236v756z" />
    <glyph glyph-name="m" unicode="m" horiz-adv-x="976" 
d="M375 0v276q0 40 -10 58t-33 18q-17 0 -32.5 -16t-15.5 -57v-279h-231v526h225v-58h2q10 13 24.5 25.5t33 23t41.5 17t50 6.5q52 0 90 -18.5t60 -57.5q26 32 64 54t96 22q56 0 92.5 -22t58 -55t30 -71.5t8.5 -71.5v-320h-231v280q0 43 -10.5 57.5t-32.5 14.5
q-20 0 -34 -18.5t-14 -54.5v-279h-231z" />
    <glyph glyph-name="n" unicode="n" horiz-adv-x="666" 
d="M53 526h225v-58h2q20 29 59.5 50.5t90.5 21.5q55 0 91.5 -20t58 -51.5t30 -70.5t8.5 -78v-320h-232v280q0 40 -12.5 56t-37.5 16q-23 0 -37.5 -18.5t-14.5 -53.5v-280h-231v526z" />
    <glyph glyph-name="o" unicode="o" horiz-adv-x="664" 
d="M632 265q0 -68 -24.5 -121t-66 -89.5t-96 -55.5t-114.5 -19q-59 0 -113.5 19t-95.5 55.5t-65.5 89.5t-24.5 121q0 67 24.5 119.5t65.5 88.5t95.5 54.5t113.5 18.5q60 0 114.5 -18.5t96 -54.5t66 -88.5t24.5 -119.5zM331 352q-38 0 -61.5 -26t-23.5 -61q0 -37 24 -63
t62 -26t62 26t24 63q0 35 -24.5 61t-62.5 26z" />
    <glyph glyph-name="p" unicode="p" horiz-adv-x="694" 
d="M423 -14q-39 0 -77 14.5t-62 40.5h-2v-281h-229v766h217v-53h2q29 33 70 50t80 17q59 0 104 -24t75 -63t45.5 -88t15.5 -100q0 -52 -15.5 -102t-45.5 -89.5t-74.5 -63.5t-103.5 -24zM448 265q0 35 -22 61t-64 26q-41 0 -65.5 -26t-24.5 -61q0 -37 24.5 -63t65.5 -26
q42 0 64 25.5t22 63.5z" />
    <glyph glyph-name="q" unicode="q" horiz-adv-x="694" 
d="M271 -14q-59 0 -103.5 24t-74.5 63.5t-45.5 89.5t-15.5 102q0 51 15.5 100t45.5 88t75 63t104 24q39 0 80 -17t70 -50h2v53h217v-766h-229v281h-2q-24 -26 -62 -40.5t-77 -14.5zM246 265q0 -38 22 -63.5t64 -25.5q41 0 65.5 26t24.5 63q0 35 -24.5 61t-65.5 26
q-42 0 -64 -26t-22 -61z" />
    <glyph glyph-name="r" unicode="r" horiz-adv-x="445" 
d="M53 526h222v-60h2q17 32 50.5 53t78.5 21q27 0 44 -5l-18 -196q-11 3 -24.5 4.5t-24.5 1.5q-45 0 -72 -26t-27 -64v-255h-231v526z" />
    <glyph glyph-name="s" unicode="s" horiz-adv-x="513" 
d="M484 167q0 -53 -22.5 -89t-57 -57.5t-75.5 -31t-78 -9.5q-68 0 -133.5 19.5t-113.5 55.5l113 131q24 -22 56.5 -35.5t62.5 -13.5q12 0 22.5 4.5t10.5 16.5q0 13 -18.5 20.5t-64.5 18.5q-25 6 -51 17.5t-47.5 30.5t-35.5 46.5t-14 65.5q0 51 22.5 87t57 58.5t75 33
t76.5 10.5q61 0 121 -18t108 -50l-108 -129q-25 16 -51 25t-51 9q-17 0 -28 -4.5t-11 -17.5q0 -10 12.5 -15.5t57.5 -14.5q31 -6 60.5 -18.5t53 -32t37.5 -47.5t14 -66z" />
    <glyph glyph-name="t" unicode="t" horiz-adv-x="421" 
d="M282 -14q-106 0 -157 45.5t-51 141.5v188h-74v165h73v118h224v-118h114v-165h-114v-140q0 -38 16.5 -51.5t45.5 -13.5q11 0 23 2t19 4v-158q-18 -8 -50.5 -13t-68.5 -5z" />
    <glyph glyph-name="u" unicode="u" horiz-adv-x="663" 
d="M610 0h-225v58h-2q-20 -29 -59.5 -50.5t-90.5 -21.5q-56 0 -92 19.5t-57.5 51t-30 71t-8.5 78.5v320h232v-278q0 -40 12.5 -56t37.5 -16q23 0 37.5 18.5t14.5 53.5v278h231v-526z" />
    <glyph glyph-name="v" unicode="v" horiz-adv-x="638" 
d="M-8 526h256l75 -284h4l72 284h247l-203 -526h-251z" />
    <glyph glyph-name="w" unicode="w" horiz-adv-x="973" 
d="M404 0h-229l-180 526h247l66 -272h4l68 272h222l73 -272h3l64 272h236l-182 -526h-230l-81 270h-2z" />
    <glyph glyph-name="x" unicode="x" horiz-adv-x="675" 
d="M338 119l-86 -119h-260l203 270l-189 256h262l76 -110l75 110h254l-189 -256l199 -270h-264z" />
    <glyph glyph-name="y" unicode="y" horiz-adv-x="638" 
d="M205 20l-213 506h256l78 -277h4l69 277h247l-216 -558q-19 -49 -43 -87.5t-56 -65.5t-75.5 -41t-101.5 -14q-18 0 -37 1.5t-36.5 4t-32.5 5t-25 5.5l29 190q13 -5 31.5 -8.5t33.5 -3.5q38 0 56.5 15.5t27.5 39.5z" />
    <glyph glyph-name="z" unicode="z" horiz-adv-x="557" 
d="M33 161l197 194h-192v171h479v-150l-213 -205h219v-171h-490v161z" />
    <glyph glyph-name="braceleft" unicode="{" 
d="M0 359q30 0 47.5 13.5t17.5 56.5v132q0 34 8.5 65t26.5 54.5t46 37.5t68 14h96v-137h-34q-29 0 -39.5 -19t-10.5 -41v-135q0 -29 -9 -49.5t-21.5 -33.5t-27.5 -20t-27 -8v-2q12 -2 27 -8.5t27.5 -19.5t21.5 -33.5t9 -49.5v-135q0 -22 10.5 -41t39.5 -19h34v-137h-96
q-40 0 -68 14t-46 37.5t-26.5 54.5t-8.5 65v132q0 43 -17.5 56.5t-47.5 13.5v142z" />
    <glyph glyph-name="bar" unicode="|" horiz-adv-x="269" 
d="M49 750h172v-1000h-172v1000z" />
    <glyph glyph-name="braceright" unicode="}" 
d="M360 217q-30 0 -47.5 -13.5t-17.5 -56.5v-132q0 -34 -8.5 -65t-26.5 -54.5t-46 -37.5t-68 -14h-96v137h34q29 0 39.5 19t10.5 41v135q0 29 9 49.5t21.5 33.5t27.5 19.5t27 8.5v2q-12 1 -27 8t-27.5 20t-21.5 33.5t-9 49.5v135q0 22 -10.5 41t-39.5 19h-34v137h96
q40 0 68 -14t46 -37.5t26.5 -54.5t8.5 -65v-132q0 -43 17.5 -56.5t47.5 -13.5v-142z" />
    <glyph glyph-name="asciitilde" unicode="~" horiz-adv-x="666" 
d="M355 384q21 -14 34.5 -21t23 -10t17.5 -3.5t19 -0.5q24 0 46 18.5t38 48.5l74 -135q-35 -58 -77 -82t-82 -24q-32 0 -60 8.5t-61 29.5q-20 12 -34 19t-24.5 10.5t-18.5 4t-16 0.5q-11 0 -24.5 -3.5t-27.5 -11.5t-27 -20.5t-22 -30.5l-74 135q18 30 40.5 50.5t46 33
t46.5 17.5t43 5q37 0 63 -9t57 -29z" />
    <glyph glyph-name="uni00A0" unicode="&#xa0;" horiz-adv-x="250" 
 />
    <glyph glyph-name="exclamdown" unicode="&#xa1;" horiz-adv-x="448" 
d="M224 546q26 0 48.5 -9.5t39.5 -25.5t26.5 -38.5t9.5 -47.5t-9.5 -47t-26.5 -38.5t-39.5 -26t-48.5 -9.5t-48.5 9.5t-39.5 26t-26.5 38.5t-9.5 47t9.5 47.5t26.5 38.5t39.5 25.5t48.5 9.5zM344 270v-448h-240v448h240z" />
    <glyph glyph-name="cent" unicode="&#xa2;" horiz-adv-x="700" 
d="M341 -13q-54 8 -98.5 31t-77 58.5t-50 82.5t-17.5 104q0 55 18 102t50 82.5t76.5 58.5t98.5 32v64h109v-61q45 -4 85 -18.5t64 -33.5l-115 -166q-12 14 -31.5 21.5t-37.5 7.5q-17 0 -33 -5.5t-28.5 -17t-20.5 -28t-8 -38.5t8 -38.5t20.5 -27t28.5 -16t33 -5.5
q20 0 39 7.5t31 20.5l116 -162q-26 -21 -66 -36.5t-85 -20.5v-57h-109v59v0z" />
    <glyph glyph-name="sterling" unicode="&#xa3;" horiz-adv-x="700" 
d="M553 495q-12 14 -32 22.5t-40 8.5q-24 0 -39.5 -6t-24.5 -16.5t-12.5 -24t-3.5 -28.5v-9h145v-162h-145v-87h251v-193h-572v193h92v87h-92v162h92v28q0 46 17.5 92.5t52.5 83t88.5 59.5t124.5 23q81 0 139 -23.5t93 -57.5l-134 -152v0z" />
    <glyph glyph-name="currency" unicode="&#xa4;" horiz-adv-x="700" 
d="M575 424q15 -26 23.5 -57.5t8.5 -69.5q0 -75 -34 -132l81 -81l-94 -95l-85 85q-56 -28 -123 -28q-31 0 -60.5 6.5t-64.5 23.5l-87 -87l-94 95l83 83q-31 56 -31 130q0 70 30 124l-82 82l95 94l84 -83q58 29 127 29q70 0 125 -28l82 82l95 -94zM352 385q-18 0 -34 -7.5
t-27 -19.5t-17.5 -28t-6.5 -33q0 -38 24 -64.5t61 -26.5t60.5 26.5t23.5 64.5q0 17 -6.5 33t-17.5 28t-26.5 19.5t-33.5 7.5z" />
    <glyph glyph-name="yen" unicode="&#xa5;" horiz-adv-x="700" 
d="M644 458v-140h-184v-47h184v-140h-184v-131h-216v131h-181v140h181v47h-181v140h100l-158 250h253l98 -217l98 217h247l-157 -250h100z" />
    <glyph glyph-name="brokenbar" unicode="&#xa6;" horiz-adv-x="269" 
d="M221 718v-406h-172v406h172zM221 200v-406h-172v406h172z" />
    <glyph glyph-name="section" unicode="&#xa7;" horiz-adv-x="650" 
d="M539 158q23 -16 34 -44.5t11 -57.5q0 -61 -27 -101.5t-68.5 -64.5t-91.5 -34t-96 -10q-42 0 -84 9t-80.5 26t-71.5 41.5t-55 56.5l157 130q15 -22 33.5 -37t38 -24t39 -13t34.5 -4q14 0 26 5.5t12 15.5q0 8 -4 14t-15.5 11.5t-31 12t-50.5 15.5q-52 15 -91 31t-65.5 37.5
t-40 50t-13.5 68.5q0 45 19.5 76.5t51.5 51.5q-21 20 -31 48t-10 62q0 54 26 92t65 61t84.5 33.5t85.5 10.5q97 0 166.5 -33.5t104.5 -96.5l-166 -110q-15 26 -41.5 41t-49.5 15q-17 0 -30 -6t-13 -17q0 -6 4 -11t15 -10.5t30 -11.5t49 -15q49 -15 87 -32t64 -39.5t40 -52.5
t14 -70q0 -38 -16 -69t-49 -51zM250 345q-7 -4 -11.5 -12t-4.5 -16q0 -22 22 -32t56 -22l81 -28q13 8 13 26q0 19 -21 31.5t-53 23.5z" />
    <glyph glyph-name="dieresis" unicode="&#xa8;" 
d="M205 678q0 20 8 38t22 31.5t32 21.5t39 8q20 0 38 -8t31.5 -21.5t21.5 -31.5t8 -38q0 -21 -8 -38.5t-21.5 -31t-31.5 -21t-38 -7.5q-42 0 -71.5 28t-29.5 70zM-44 678q0 20 8 38t22 31.5t32 21.5t39 8q20 0 38 -8t31.5 -21.5t21.5 -31.5t8 -38q0 -21 -8 -38.5t-21.5 -31
t-31.5 -21t-38 -7.5q-42 0 -71.5 28t-29.5 70z" />
    <glyph glyph-name="copyright" unicode="&#xa9;" horiz-adv-x="800" 
d="M596 515q-29 36 -76 56t-99 20q-51 0 -96 -16.5t-78.5 -47.5t-53.5 -75t-20 -99q0 -57 19.5 -101.5t53.5 -75t79 -46.5t96 -16q52 0 97 17.5t77 49.5l-92 88q-14 -17 -35.5 -25t-44.5 -8q-26 0 -45.5 10.5t-32.5 27t-19.5 37.5t-6.5 43t6.5 43t19 37.5t30.5 26.5t42 10
q25 0 46 -8.5t35 -27.5zM20 353q0 79 30 147.5t81.5 119.5t121 80.5t148.5 29.5q78 0 147 -29.5t120.5 -80.5t81.5 -119.5t30 -147.5q0 -78 -30 -146.5t-81.5 -119.5t-120.5 -80t-147 -29q-79 0 -148.5 29t-121 80t-81.5 119.5t-30 146.5zM80 353q0 -66 24.5 -124
t67.5 -101.5t101 -68.5t124 -25t124.5 25t103 68.5t70 101.5t25.5 124t-25 124.5t-68.5 102t-101.5 69t-124 25.5t-124.5 -25.5t-102 -69t-69 -102t-25.5 -124.5z" />
    <glyph glyph-name="ordfeminine" unicode="&#xaa;" horiz-adv-x="390" 
d="M221 547q-29 0 -46.5 -5.5t-17.5 -21.5q0 -11 10.5 -15.5t19.5 -4.5q19 0 30.5 10.5t11.5 27.5v9h-8zM221 611q0 13 -9.5 19t-25.5 6q-20 0 -36.5 -7t-29.5 -17l-69 61q29 25 68 38.5t80 13.5q45 0 74 -11.5t46 -31t23.5 -46t6.5 -56.5v-149h-124v23h-1
q-11 -17 -33.5 -23.5t-42.5 -6.5q-18 0 -37.5 4.5t-35 15.5t-26 28t-10.5 43q0 29 17 47.5t43 29t58.5 14.5t63.5 4v1z" />
    <glyph glyph-name="guillemotleft" unicode="&#xab;" horiz-adv-x="580" 
d="M247 274l175 248l130 -83l-115 -165l115 -165l-130 -83zM17 274l176 248l129 -83l-115 -165l115 -165l-129 -83z" />
    <glyph glyph-name="logicalnot" unicode="&#xac;" horiz-adv-x="666" 
d="M447 314h-410v144h568v-315h-158v171z" />
    <glyph glyph-name="uni00AD" unicode="&#xad;" horiz-adv-x="336" 
d="M30 371h276v-172h-276v172z" />
    <glyph glyph-name="registered" unicode="&#xae;" horiz-adv-x="600" 
d="M305 521q12 0 20 6.5t8 16.5q0 8 -8.5 13t-19.5 5h-26v-41h26zM339 365l-44 94h-16v-94h-88v266h114q21 0 43 -4t39 -14t28 -26.5t11 -41.5q0 -55 -48 -74l61 -106h-100zM72 492q0 47 18 88.5t49 72t73 48.5t89 18t88.5 -18t72 -48.5t48.5 -72t18 -88.5t-18 -88
t-48.5 -71.5t-72 -48t-88.5 -17.5t-89 17.5t-73 48t-49 71.5t-18 88zM108 492q0 -39 15 -74t41.5 -61.5t61.5 -41.5t75 -15t74.5 15t60.5 41.5t41 61.5t15 74q0 40 -15 75t-41 61t-60.5 41t-74.5 15t-75 -15t-61.5 -41t-41.5 -61t-15 -75z" />
    <glyph glyph-name="macron" unicode="&#xaf;" 
d="M0 707h360v-96h-360v96z" />
    <glyph glyph-name="degree" unicode="&#xb0;" horiz-adv-x="440" 
d="M399 554q0 -39 -13.5 -71.5t-37.5 -56.5t-56.5 -37.5t-71.5 -13.5t-71.5 13.5t-56.5 37.5t-37.5 56.5t-13.5 71.5t13.5 71.5t37.5 56.5t56.5 37.5t71.5 13.5t71.5 -13.5t56.5 -37.5t37.5 -56.5t13.5 -71.5zM317 554q0 41 -28 69t-69 28t-69 -28t-28 -69t28 -69t69 -28
t69 28t28 69z" />
    <glyph glyph-name="plusminus" unicode="&#xb1;" horiz-adv-x="666" 
d="M251 606h164v-121h220v-152h-220v-121h-164v121h-220v152h220v121zM31 182h604v-152h-604v152z" />
    <glyph glyph-name="twosuperior" unicode="&#xb2;" horiz-adv-x="450" 
d="M235 526q8 7 13.5 14.5t5.5 18.5q0 12 -7.5 21t-24.5 9q-18 0 -30 -14t-14 -39l-143 16q4 44 22.5 75.5t45.5 52t61 30.5t70 10q33 0 65 -8t57.5 -25t41.5 -45t16 -67q0 -27 -7.5 -48t-19.5 -37.5t-27.5 -30t-32.5 -25.5l-66 -46h154v-126h-362v117z" />
    <glyph glyph-name="threesuperior" unicode="&#xb3;" horiz-adv-x="450" 
d="M349 496q33 -11 50 -38.5t17 -60.5q0 -39 -16 -66.5t-41.5 -45.5t-57.5 -26t-65 -8t-65 8t-59 24.5t-46.5 42.5t-28.5 62l136 33q4 -17 17.5 -31t33.5 -14q16 0 29 6.5t13 23.5q0 20 -17 26.5t-46 6.5h-42v103h47q26 0 38.5 7t12.5 24q0 11 -8.5 19t-26.5 8
q-14 0 -27.5 -10.5t-16.5 -29.5l-134 31q10 36 31 61t47 40t56 21.5t59 6.5t59 -7t54.5 -22t40 -38.5t15.5 -57.5q0 -41 -17 -64.5t-42 -34.5z" />
    <glyph glyph-name="acute" unicode="&#xb4;" 
d="M73 584l111 144h212l-154 -144h-169z" />
    <glyph glyph-name="mu" unicode="&#xb5;" horiz-adv-x="758" 
d="M314 526v-263q0 -14 3.5 -32.5t11 -35t20 -28t31.5 -11.5q41 0 56.5 29t15.5 71v270h234v-526h-226v37q-14 -17 -34 -28t-51 -11q-37 0 -61 16v-238h-234v750h234z" />
    <glyph glyph-name="paragraph" unicode="&#xb6;" horiz-adv-x="646" 
d="M432 566h-52v-699h-154v463q-100 5 -156.5 52.5t-56.5 132.5q0 60 22 97.5t58 59t83 29t97 7.5h314v-841h-155v699z" />
    <glyph glyph-name="periodcentered" unicode="&#xb7;" 
d="M48 289q0 27 10.5 50.5t29 41t43 28t51.5 10.5q26 0 49.5 -10.5t41.5 -28t28.5 -41t10.5 -50.5t-10.5 -51t-28.5 -41t-41.5 -27t-49.5 -10q-27 0 -51.5 10t-43 27t-29 41t-10.5 51z" />
    <glyph glyph-name="cedilla" unicode="&#xb8;" 
d="M159 -240q-16 0 -33.5 1.5t-35.5 4.5t-34.5 7.5t-29.5 9.5l34 78q17 -8 41.5 -12t43.5 -4q15 0 27.5 4.5t12.5 16.5q0 11 -11.5 14.5t-25.5 3.5q-23 0 -41 -6l-44 34l75 88h117l-50 -53q5 1 16 1q17 0 35 -3.5t33 -13.5t24.5 -26.5t9.5 -41.5q0 -31 -16.5 -51t-41 -31.5
t-53 -16t-53.5 -4.5z" />
    <glyph glyph-name="onesuperior" unicode="&#xb9;" horiz-adv-x="450" 
d="M198 550l-75 -52l-71 110l158 100h139v-446h-151v288z" />
    <glyph glyph-name="ordmasculine" unicode="&#xba;" horiz-adv-x="390" 
d="M357 576q0 -37 -13 -65.5t-35.5 -48t-52 -30t-61.5 -10.5t-60.5 10.5t-51 30t-35.5 48t-13 65.5q0 36 13 64t35.5 47t51 29t60.5 10t61.5 -10t52 -29t35.5 -47t13 -64zM195 622q-20 0 -32.5 -14t-12.5 -32q0 -20 13 -34t33 -14t33 14t13 34q0 18 -13.5 32t-33.5 14z" />
    <glyph glyph-name="guillemotright" unicode="&#xbb;" horiz-adv-x="580" 
d="M258 109l115 165l-115 165l130 83l175 -248l-175 -248zM28 109l115 165l-115 165l130 83l175 -248l-175 -248z" />
    <glyph glyph-name="onequarter" unicode="&#xbc;" horiz-adv-x="1000" 
d="M907 0h-136v79h-215v122l169 245h182v-250h60v-117h-60v-79zM771 309l-75 -113h77v113h-2zM198 550l-75 -52l-71 110l158 100h139v-446h-151v288zM287 13l346 726l99 -45l-346 -721z" />
    <glyph glyph-name="onehalf" unicode="&#xbd;" horiz-adv-x="1000" 
d="M198 550l-75 -52l-71 110l158 100h139v-446h-151v288zM796 264q8 7 13.5 14.5t5.5 18.5q0 12 -7.5 21t-24.5 9q-18 0 -30 -14t-14 -39l-143 16q4 44 22.5 75.5t45.5 52t61 30.5t70 10q33 0 65 -8t57.5 -25t41.5 -45t16 -67q0 -27 -7.5 -48t-19.5 -37.5t-27.5 -30
t-32.5 -25.5l-66 -46h154v-126h-362v117zM287 13l346 726l99 -45l-346 -721z" />
    <glyph glyph-name="threequarters" unicode="&#xbe;" horiz-adv-x="1000" 
d="M907 0h-136v79h-215v122l169 245h182v-250h60v-117h-60v-79zM771 309l-75 -113h77v113h-2zM349 496q33 -11 50 -38.5t17 -60.5q0 -39 -16 -66.5t-41.5 -45.5t-57.5 -26t-65 -8t-65 8t-59 24.5t-46.5 42.5t-28.5 62l136 33q4 -17 17.5 -31t33.5 -14q16 0 29 6.5t13 23.5
q0 20 -17 26.5t-46 6.5h-42v103h47q26 0 38.5 7t12.5 24q0 11 -8.5 19t-26.5 8q-14 0 -27.5 -10.5t-16.5 -29.5l-134 31q10 36 31 61t47 40t56 21.5t59 6.5t59 -7t54.5 -22t40 -38.5t15.5 -57.5q0 -41 -17 -64.5t-42 -34.5zM287 13l346 726l99 -45l-346 -721z" />
    <glyph glyph-name="questiondown" unicode="&#xbf;" horiz-adv-x="587" 
d="M278 546q26 0 48.5 -9.5t39.5 -25.5t26.5 -38.5t9.5 -47.5t-9.5 -47t-26.5 -38.5t-39.5 -26t-48.5 -9.5t-48.5 9.5t-39.5 26t-26.5 38.5t-9.5 47t9.5 47.5t26.5 38.5t39.5 25.5t48.5 9.5zM136 202q21 13 28.5 25t7.5 25v26h213v-37q0 -30 -7.5 -52.5t-20.5 -40.5
t-31 -33.5t-39 -30.5l-17 -12q-16 -11 -24.5 -21.5t-8.5 -22.5q0 -21 12.5 -29.5t29.5 -8.5q33 0 47 23.5t14 54.5l215 -28q-6 -65 -31.5 -110t-64 -73.5t-86 -41.5t-98.5 -13q-47 0 -95 10.5t-87 35t-63.5 65t-24.5 99.5q0 34 9 61.5t26 50t41.5 41.5t54.5 37z" />
    <glyph glyph-name="Agrave" unicode="&#xc0;" horiz-adv-x="776" 
d="M263 708h253l276 -708h-259l-37 104h-225l-35 -104h-252zM386 461l-58 -175h115zM177 908h212l111 -144h-169z" />
    <glyph glyph-name="Aacute" unicode="&#xc1;" horiz-adv-x="776" 
d="M263 708h253l276 -708h-259l-37 104h-225l-35 -104h-252zM386 461l-58 -175h115zM278 764l111 144h212l-154 -144h-169z" />
    <glyph glyph-name="Acircumflex" unicode="&#xc2;" horiz-adv-x="776" 
d="M263 708h253l276 -708h-259l-37 104h-225l-35 -104h-252zM386 461l-58 -175h115zM389 832l-67 -68h-152l137 144h169l134 -144h-154z" />
    <glyph glyph-name="Atilde" unicode="&#xc3;" horiz-adv-x="776" 
d="M263 708h253l276 -708h-259l-37 104h-225l-35 -104h-252zM386 461l-58 -175h115zM578 900q-2 -30 -10 -55t-22.5 -44t-35 -29.5t-46.5 -10.5q-21 0 -40.5 6t-40.5 17q-24 13 -36 17.5t-27 4.5q-16 0 -25 -10.5t-12 -25.5h-80q3 57 32 96.5t81 39.5q23 0 42 -6.5t41 -17.5
q23 -12 36 -17t29 -5t23.5 10t11.5 30h79z" />
    <glyph glyph-name="Adieresis" unicode="&#xc4;" horiz-adv-x="776" 
d="M263 708h253l276 -708h-259l-37 104h-225l-35 -104h-252zM386 461l-58 -175h115zM415 858q0 20 8 38t22 31.5t32 21.5t39 8q20 0 38 -8t31.5 -21.5t21.5 -31.5t8 -38q0 -21 -8 -38.5t-21.5 -31t-31.5 -21t-38 -7.5q-42 0 -71.5 28t-29.5 70zM166 858q0 20 8 38t22 31.5
t32 21.5t39 8q20 0 38 -8t31.5 -21.5t21.5 -31.5t8 -38q0 -21 -8 -38.5t-21.5 -31t-31.5 -21t-38 -7.5q-42 0 -71.5 28t-29.5 70z" />
    <glyph glyph-name="Aring" unicode="&#xc5;" horiz-adv-x="776" 
d="M263 708h253l276 -708h-259l-37 104h-225l-35 -104h-252zM386 461l-58 -175h115zM504 857q0 -24 -9.5 -45t-25 -36.5t-36.5 -24t-44 -8.5t-44 8.5t-37 24t-25 36.5t-9 45t9 45t25 36.5t37 24t44 8.5t44 -8.5t36.5 -24t25 -36.5t9.5 -45zM449 857q0 25 -17.5 42t-42.5 17
t-42.5 -17t-17.5 -42t17.5 -42t42.5 -17t42.5 17t17.5 42z" />
    <glyph glyph-name="AE" unicode="&#xc6;" horiz-adv-x="1014" 
d="M492 104h-177l-49 -104h-266l354 708h610v-198h-253v-61h237v-185h-237v-66h270v-198h-489v104zM386 286h106v224h-4z" />
    <glyph glyph-name="Ccedilla" unicode="&#xc7;" horiz-adv-x="696" 
d="M389 -240q-16 0 -33.5 1.5t-35.5 4.5t-34.5 7.5t-29.5 9.5l34 78q17 -8 41.5 -12t43.5 -4q15 0 27.5 4.5t12.5 16.5q0 11 -11.5 14.5t-25.5 3.5q-23 0 -41 -6l-44 34l62 73q-69 10 -127.5 40.5t-101.5 78.5t-67.5 111.5t-24.5 138.5q0 85 30 154t82 118t122.5 75.5
t150.5 26.5q82 0 155 -26.5t122 -71.5l-146 -176q-20 26 -50 39.5t-67 13.5q-30 0 -56 -10.5t-45.5 -30.5t-30.5 -48.5t-11 -63.5t11.5 -62.5t31 -47.5t45.5 -30.5t55 -10.5q41 0 70.5 17t46.5 40l146 -175q-41 -41 -98.5 -67.5t-129.5 -34.5l-33 -36q5 1 16 1q17 0 35 -3.5
t33 -13.5t24.5 -26.5t9.5 -41.5q0 -31 -16.5 -51t-41 -31.5t-53 -16t-53.5 -4.5z" />
    <glyph glyph-name="Egrave" unicode="&#xc8;" horiz-adv-x="603" 
d="M66 708h487v-198h-263v-61h247v-185h-247v-66h280v-198h-504v708zM108 908h212l111 -144h-169z" />
    <glyph glyph-name="Eacute" unicode="&#xc9;" horiz-adv-x="603" 
d="M66 708h487v-198h-263v-61h247v-185h-247v-66h280v-198h-504v708zM192 764l111 144h212l-154 -144h-169z" />
    <glyph glyph-name="Ecircumflex" unicode="&#xca;" horiz-adv-x="603" 
d="M66 708h487v-198h-263v-61h247v-185h-247v-66h280v-198h-504v708zM311 832l-67 -68h-152l137 144h169l134 -144h-154z" />
    <glyph glyph-name="Edieresis" unicode="&#xcb;" horiz-adv-x="603" 
d="M66 708h487v-198h-263v-61h247v-185h-247v-66h280v-198h-504v708zM336 858q0 20 8 38t22 31.5t32 21.5t39 8q20 0 38 -8t31.5 -21.5t21.5 -31.5t8 -38q0 -21 -8 -38.5t-21.5 -31t-31.5 -21t-38 -7.5q-42 0 -71.5 28t-29.5 70zM87 858q0 20 8 38t22 31.5t32 21.5t39 8
q20 0 38 -8t31.5 -21.5t21.5 -31.5t8 -38q0 -21 -8 -38.5t-21.5 -31t-31.5 -21t-38 -7.5q-42 0 -71.5 28t-29.5 70z" />
    <glyph glyph-name="Igrave" unicode="&#xcc;" horiz-adv-x="372" 
d="M66 708h240v-708h-240v708zM-18 908h212l111 -144h-169z" />
    <glyph glyph-name="Iacute" unicode="&#xcd;" horiz-adv-x="372" 
d="M66 708h240v-708h-240v708zM66 764l111 144h212l-154 -144h-169z" />
    <glyph glyph-name="Icircumflex" unicode="&#xce;" horiz-adv-x="372" 
d="M66 708h240v-708h-240v708zM187 832l-67 -68h-152l137 144h169l134 -144h-154z" />
    <glyph glyph-name="Idieresis" unicode="&#xcf;" horiz-adv-x="372" 
d="M66 708h240v-708h-240v708zM213 858q0 20 8 38t22 31.5t32 21.5t39 8q20 0 38 -8t31.5 -21.5t21.5 -31.5t8 -38q0 -21 -8 -38.5t-21.5 -31t-31.5 -21t-38 -7.5q-42 0 -71.5 28t-29.5 70zM-36 858q0 20 8 38t22 31.5t32 21.5t39 8q20 0 38 -8t31.5 -21.5t21.5 -31.5t8 -38
q0 -21 -8 -38.5t-21.5 -31t-31.5 -21t-38 -7.5q-42 0 -71.5 28t-29.5 70z" />
    <glyph glyph-name="Eth" unicode="&#xd0;" horiz-adv-x="788" 
d="M12 286v142h54v280h264q84 0 160.5 -16.5t135 -57t93.5 -107.5t35 -169q0 -93 -33.5 -161t-89.5 -111.5t-129 -64.5t-152 -21h-284v286h-54zM423 428v-142h-128v-82h44q84 0 129 36.5t45 119.5q0 69 -45 107.5t-120 38.5h-53v-78h128z" />
    <glyph glyph-name="Ntilde" unicode="&#xd1;" horiz-adv-x="791" 
d="M66 708h237l202 -359h4l-10 359h226v-708h-243l-196 338h-4l10 -338h-226v708zM587 900q-2 -30 -10 -55t-22.5 -44t-35 -29.5t-46.5 -10.5q-21 0 -40.5 6t-40.5 17q-24 13 -36 17.5t-27 4.5q-16 0 -25 -10.5t-12 -25.5h-80q3 57 32 96.5t81 39.5q23 0 42 -6.5t41 -17.5
q23 -12 36 -17t29 -5t23.5 10t11.5 30h79z" />
    <glyph glyph-name="Ograve" unicode="&#xd2;" horiz-adv-x="855" 
d="M34 358q0 85 30 153.5t82.5 116.5t124.5 74t156 26t156 -26t125 -74t83 -116.5t30 -153.5t-30 -155t-83 -119.5t-125 -76.5t-156 -27t-156 27t-124.5 76.5t-82.5 119.5t-30 155zM287 358q0 -35 10.5 -64t29 -50t44.5 -32.5t56 -11.5t55.5 11.5t44.5 32.5t29.5 50t10.5 64
q0 34 -10.5 62.5t-29.5 48t-44.5 30.5t-55.5 11t-56 -11t-44.5 -30.5t-29 -48t-10.5 -62.5zM215 908h212l111 -144h-169z" />
    <glyph glyph-name="Oacute" unicode="&#xd3;" horiz-adv-x="855" 
d="M34 358q0 85 30 153.5t82.5 116.5t124.5 74t156 26t156 -26t125 -74t83 -116.5t30 -153.5t-30 -155t-83 -119.5t-125 -76.5t-156 -27t-156 27t-124.5 76.5t-82.5 119.5t-30 155zM287 358q0 -35 10.5 -64t29 -50t44.5 -32.5t56 -11.5t55.5 11.5t44.5 32.5t29.5 50t10.5 64
q0 34 -10.5 62.5t-29.5 48t-44.5 30.5t-55.5 11t-56 -11t-44.5 -30.5t-29 -48t-10.5 -62.5zM319 764l111 144h212l-154 -144h-169z" />
    <glyph glyph-name="Ocircumflex" unicode="&#xd4;" horiz-adv-x="855" 
d="M34 358q0 85 30 153.5t82.5 116.5t124.5 74t156 26t156 -26t125 -74t83 -116.5t30 -153.5t-30 -155t-83 -119.5t-125 -76.5t-156 -27t-156 27t-124.5 76.5t-82.5 119.5t-30 155zM287 358q0 -35 10.5 -64t29 -50t44.5 -32.5t56 -11.5t55.5 11.5t44.5 32.5t29.5 50t10.5 64
q0 34 -10.5 62.5t-29.5 48t-44.5 30.5t-55.5 11t-56 -11t-44.5 -30.5t-29 -48t-10.5 -62.5zM426 832l-67 -68h-152l137 144h169l134 -144h-154z" />
    <glyph glyph-name="Otilde" unicode="&#xd5;" horiz-adv-x="855" 
d="M34 358q0 85 30 153.5t82.5 116.5t124.5 74t156 26t156 -26t125 -74t83 -116.5t30 -153.5t-30 -155t-83 -119.5t-125 -76.5t-156 -27t-156 27t-124.5 76.5t-82.5 119.5t-30 155zM287 358q0 -35 10.5 -64t29 -50t44.5 -32.5t56 -11.5t55.5 11.5t44.5 32.5t29.5 50t10.5 64
q0 34 -10.5 62.5t-29.5 48t-44.5 30.5t-55.5 11t-56 -11t-44.5 -30.5t-29 -48t-10.5 -62.5zM615 900q-2 -30 -10 -55t-22.5 -44t-35 -29.5t-46.5 -10.5q-21 0 -40.5 6t-40.5 17q-24 13 -36 17.5t-27 4.5q-16 0 -25 -10.5t-12 -25.5h-80q3 57 32 96.5t81 39.5q23 0 42 -6.5
t41 -17.5q23 -12 36 -17t29 -5t23.5 10t11.5 30h79z" />
    <glyph glyph-name="Odieresis" unicode="&#xd6;" horiz-adv-x="855" 
d="M34 358q0 85 30 153.5t82.5 116.5t124.5 74t156 26t156 -26t125 -74t83 -116.5t30 -153.5t-30 -155t-83 -119.5t-125 -76.5t-156 -27t-156 27t-124.5 76.5t-82.5 119.5t-30 155zM287 358q0 -35 10.5 -64t29 -50t44.5 -32.5t56 -11.5t55.5 11.5t44.5 32.5t29.5 50t10.5 64
q0 34 -10.5 62.5t-29.5 48t-44.5 30.5t-55.5 11t-56 -11t-44.5 -30.5t-29 -48t-10.5 -62.5zM452 858q0 20 8 38t22 31.5t32 21.5t39 8q20 0 38 -8t31.5 -21.5t21.5 -31.5t8 -38q0 -21 -8 -38.5t-21.5 -31t-31.5 -21t-38 -7.5q-42 0 -71.5 28t-29.5 70zM203 858q0 20 8 38
t22 31.5t32 21.5t39 8q20 0 38 -8t31.5 -21.5t21.5 -31.5t8 -38q0 -21 -8 -38.5t-21.5 -31t-31.5 -21t-38 -7.5q-42 0 -71.5 28t-29.5 70z" />
    <glyph glyph-name="multiply" unicode="&#xd7;" horiz-adv-x="666" 
d="M164 575q43 -42 85.5 -81.5t85.5 -81.5q42 40 83 81t83 81l56 -52l56 -52q-42 -42 -83.5 -82.5t-83.5 -82.5q44 -41 86.5 -82t86.5 -82q-28 -28 -57 -56t-57 -56q-43 42 -85.5 82.5t-85.5 82.5q-44 -42 -85.5 -82.5t-85.5 -82.5q-28 27 -56 52.5t-56 52.5q42 42 84.5 84
t84.5 84q-43 41 -86 81t-86 81q29 27 58 55.5t58 55.5z" />
    <glyph glyph-name="Oslash" unicode="&#xd8;" horiz-adv-x="855" 
d="M427 -20q-62 0 -118.5 15t-95.5 45l-93 -101l-94 80l92 100q-41 47 -62.5 107.5t-21.5 131.5q0 85 30 153.5t82.5 116.5t125 74t156.5 26q60 0 112.5 -13.5t97.5 -39.5l90 102l94 -81l-89 -96q88 -97 88 -242q0 -85 -30 -155t-83 -119.5t-125 -76.5t-156 -27zM427 522
q-38 0 -67 -14t-48 -37t-28.5 -53t-9.5 -63q0 -40 9 -62l201 220q-23 9 -57 9zM425 191q38 0 67 13.5t48 36.5t28.5 53t9.5 63q0 38 -10 63l-201 -220q11 -5 26.5 -7t31.5 -2z" />
    <glyph glyph-name="Ugrave" unicode="&#xd9;" horiz-adv-x="775" 
d="M384 -20q-83 0 -144.5 23t-102.5 63t-61 94.5t-20 117.5v430h238v-404q0 -51 24.5 -79.5t69.5 -28.5t69.5 28.5t24.5 79.5v404h237v-430q0 -63 -21.5 -117.5t-63.5 -94.5t-104.5 -63t-145.5 -23zM175 908h212l111 -144h-169z" />
    <glyph glyph-name="Uacute" unicode="&#xda;" horiz-adv-x="775" 
d="M384 -20q-83 0 -144.5 23t-102.5 63t-61 94.5t-20 117.5v430h238v-404q0 -51 24.5 -79.5t69.5 -28.5t69.5 28.5t24.5 79.5v404h237v-430q0 -63 -21.5 -117.5t-63.5 -94.5t-104.5 -63t-145.5 -23zM280 764l111 144h212l-154 -144h-169z" />
    <glyph glyph-name="Ucircumflex" unicode="&#xdb;" horiz-adv-x="775" 
d="M384 -20q-83 0 -144.5 23t-102.5 63t-61 94.5t-20 117.5v430h238v-404q0 -51 24.5 -79.5t69.5 -28.5t69.5 28.5t24.5 79.5v404h237v-430q0 -63 -21.5 -117.5t-63.5 -94.5t-104.5 -63t-145.5 -23zM388 832l-67 -68h-152l137 144h169l134 -144h-154z" />
    <glyph glyph-name="Udieresis" unicode="&#xdc;" horiz-adv-x="775" 
d="M384 -20q-83 0 -144.5 23t-102.5 63t-61 94.5t-20 117.5v430h238v-404q0 -51 24.5 -79.5t69.5 -28.5t69.5 28.5t24.5 79.5v404h237v-430q0 -63 -21.5 -117.5t-63.5 -94.5t-104.5 -63t-145.5 -23zM414 858q0 20 8 38t22 31.5t32 21.5t39 8q20 0 38 -8t31.5 -21.5
t21.5 -31.5t8 -38q0 -21 -8 -38.5t-21.5 -31t-31.5 -21t-38 -7.5q-42 0 -71.5 28t-29.5 70zM165 858q0 20 8 38t22 31.5t32 21.5t39 8q20 0 38 -8t31.5 -21.5t21.5 -31.5t8 -38q0 -21 -8 -38.5t-21.5 -31t-31.5 -21t-38 -7.5q-42 0 -71.5 28t-29.5 70z" />
    <glyph glyph-name="Yacute" unicode="&#xdd;" horiz-adv-x="738" 
d="M481 0h-238v290l-267 418h287l112 -208l107 208h280l-281 -418v-290zM286 764l111 144h212l-154 -144h-169z" />
    <glyph glyph-name="Thorn" unicode="&#xde;" horiz-adv-x="684" 
d="M303 127v-127h-237v708h237v-101h67q54 0 106 -11.5t93 -39t66 -73t25 -114.5q0 -66 -24.5 -112t-65 -75t-93 -42t-107.5 -13h-67zM303 422v-114h50q27 0 49.5 13.5t22.5 45.5q0 17 -6 27.5t-16.5 16.5t-23.5 8.5t-26 2.5h-50z" />
    <glyph glyph-name="germandbls" unicode="&#xdf;" horiz-adv-x="727" 
d="M557 410q59 -15 98 -61.5t39 -125.5q0 -61 -20.5 -106t-56.5 -74.5t-85.5 -44t-108.5 -14.5q-26 0 -54 4t-54 10v169q14 -5 30.5 -7.5t26.5 -2.5q38 0 64 17.5t26 59.5q0 45 -30 63t-75 18h-34v169h33q27 0 47 14.5t20 43.5q0 25 -17.5 38t-43.5 13q-42 0 -60 -27.5
t-18 -65.5v-500h-231v493q0 130 80.5 202.5t238.5 72.5q54 0 105 -12t91 -37t64 -64t24 -93q0 -62 -29.5 -99t-69.5 -53z" />
    <glyph glyph-name="agrave" unicode="&#xe0;" horiz-adv-x="591" 
d="M334 218q-51 0 -82 -11t-31 -41q0 -11 5 -18.5t13 -12.5t17.5 -7.5t17.5 -2.5q33 0 53 21t20 54v18h-13zM332 334q0 24 -16.5 35.5t-43.5 11.5q-32 0 -60.5 -13.5t-50.5 -31.5l-115 114q48 46 114 71t136 25q75 0 124 -21t77.5 -58t40 -86t11.5 -104v-277h-209v42h-2
q-20 -30 -57 -43t-72 -13q-31 0 -63.5 9t-59 29t-43.5 52t-17 79q0 55 28.5 89.5t72.5 54t98.5 26.5t106.5 7v2zM86 728h212l111 -144h-169z" />
    <glyph glyph-name="aacute" unicode="&#xe1;" horiz-adv-x="591" 
d="M334 218q-51 0 -82 -11t-31 -41q0 -11 5 -18.5t13 -12.5t17.5 -7.5t17.5 -2.5q33 0 53 21t20 54v18h-13zM332 334q0 24 -16.5 35.5t-43.5 11.5q-32 0 -60.5 -13.5t-50.5 -31.5l-115 114q48 46 114 71t136 25q75 0 124 -21t77.5 -58t40 -86t11.5 -104v-277h-209v42h-2
q-20 -30 -57 -43t-72 -13q-31 0 -63.5 9t-59 29t-43.5 52t-17 79q0 55 28.5 89.5t72.5 54t98.5 26.5t106.5 7v2zM191 584l111 144h212l-154 -144h-169z" />
    <glyph glyph-name="acircumflex" unicode="&#xe2;" horiz-adv-x="591" 
d="M334 218q-51 0 -82 -11t-31 -41q0 -11 5 -18.5t13 -12.5t17.5 -7.5t17.5 -2.5q33 0 53 21t20 54v18h-13zM332 334q0 24 -16.5 35.5t-43.5 11.5q-32 0 -60.5 -13.5t-50.5 -31.5l-115 114q48 46 114 71t136 25q75 0 124 -21t77.5 -58t40 -86t11.5 -104v-277h-209v42h-2
q-20 -30 -57 -43t-72 -13q-31 0 -63.5 9t-59 29t-43.5 52t-17 79q0 55 28.5 89.5t72.5 54t98.5 26.5t106.5 7v2zM300 652l-67 -68h-152l137 144h169l134 -144h-154z" />
    <glyph glyph-name="atilde" unicode="&#xe3;" horiz-adv-x="591" 
d="M334 218q-51 0 -82 -11t-31 -41q0 -11 5 -18.5t13 -12.5t17.5 -7.5t17.5 -2.5q33 0 53 21t20 54v18h-13zM332 334q0 24 -16.5 35.5t-43.5 11.5q-32 0 -60.5 -13.5t-50.5 -31.5l-115 114q48 46 114 71t136 25q75 0 124 -21t77.5 -58t40 -86t11.5 -104v-277h-209v42h-2
q-20 -30 -57 -43t-72 -13q-31 0 -63.5 9t-59 29t-43.5 52t-17 79q0 55 28.5 89.5t72.5 54t98.5 26.5t106.5 7v2zM489 720q-2 -30 -10 -55t-22.5 -44t-35 -29.5t-46.5 -10.5q-21 0 -40.5 6t-40.5 17q-24 13 -36 17.5t-27 4.5q-16 0 -25 -10.5t-12 -25.5h-80q3 57 32 96.5
t81 39.5q23 0 42 -6.5t41 -17.5q23 -12 36 -17t29 -5t23.5 10t11.5 30h79z" />
    <glyph glyph-name="adieresis" unicode="&#xe4;" horiz-adv-x="591" 
d="M334 218q-51 0 -82 -11t-31 -41q0 -11 5 -18.5t13 -12.5t17.5 -7.5t17.5 -2.5q33 0 53 21t20 54v18h-13zM332 334q0 24 -16.5 35.5t-43.5 11.5q-32 0 -60.5 -13.5t-50.5 -31.5l-115 114q48 46 114 71t136 25q75 0 124 -21t77.5 -58t40 -86t11.5 -104v-277h-209v42h-2
q-20 -30 -57 -43t-72 -13q-31 0 -63.5 9t-59 29t-43.5 52t-17 79q0 55 28.5 89.5t72.5 54t98.5 26.5t106.5 7v2zM326 678q0 20 8 38t22 31.5t32 21.5t39 8q20 0 38 -8t31.5 -21.5t21.5 -31.5t8 -38q0 -21 -8 -38.5t-21.5 -31t-31.5 -21t-38 -7.5q-42 0 -71.5 28t-29.5 70z
M77 678q0 20 8 38t22 31.5t32 21.5t39 8q20 0 38 -8t31.5 -21.5t21.5 -31.5t8 -38q0 -21 -8 -38.5t-21.5 -31t-31.5 -21t-38 -7.5q-42 0 -71.5 28t-29.5 70z" />
    <glyph glyph-name="aring" unicode="&#xe5;" horiz-adv-x="591" 
d="M334 218q-51 0 -82 -11t-31 -41q0 -11 5 -18.5t13 -12.5t17.5 -7.5t17.5 -2.5q33 0 53 21t20 54v18h-13zM332 334q0 24 -16.5 35.5t-43.5 11.5q-32 0 -60.5 -13.5t-50.5 -31.5l-115 114q48 46 114 71t136 25q75 0 124 -21t77.5 -58t40 -86t11.5 -104v-277h-209v42h-2
q-20 -30 -57 -43t-72 -13q-31 0 -63.5 9t-59 29t-43.5 52t-17 79q0 55 28.5 89.5t72.5 54t98.5 26.5t106.5 7v2zM416 677q0 -24 -9.5 -45t-25 -36.5t-36.5 -24t-44 -8.5t-44 8.5t-37 24t-25 36.5t-9 45t9 45t25 36.5t37 24t44 8.5t44 -8.5t36.5 -24t25 -36.5t9.5 -45z
M361 677q0 25 -17.5 42t-42.5 17t-42.5 -17t-17.5 -42t17.5 -42t42.5 -17t42.5 17t17.5 42z" />
    <glyph glyph-name="ae" unicode="&#xe6;" horiz-adv-x="916" 
d="M616 -20q-25 0 -51.5 5.5t-50.5 16t-45 26t-36 34.5q-27 -35 -74.5 -55.5t-129.5 -20.5q-35 0 -71 9t-65.5 29t-48 52t-18.5 79q0 55 28.5 89.5t72.5 54t98.5 26.5t106.5 7v2q0 24 -16.5 35.5t-43.5 11.5q-32 0 -61 -13.5t-50 -31.5l-115 114q48 46 114 71t136 25
q62 0 100 -18t58 -43q28 26 68.5 43.5t88.5 17.5q62 0 113 -21.5t87.5 -60t56.5 -91.5t20 -115q0 -13 -0.5 -26.5t-1.5 -22.5h-354q1 -14 9.5 -25t21 -19t28 -12t31.5 -4q32 0 53.5 11.5t32.5 25.5l164 -83q-35 -57 -101.5 -90t-154.5 -33zM333 216q-50 0 -79.5 -10.5
t-29.5 -39.5q0 -20 17.5 -29.5t33.5 -9.5q32 0 51 20t19 52v17h-12zM689 333q0 28 -20.5 46t-55.5 18q-38 0 -59 -21t-24 -43h159z" />
    <glyph glyph-name="ccedilla" unicode="&#xe7;" horiz-adv-x="526" 
d="M283 -240q-16 0 -33.5 1.5t-35.5 4.5t-34.5 7.5t-29.5 9.5l34 78q17 -8 41.5 -12t43.5 -4q15 0 27.5 4.5t12.5 16.5q0 11 -11.5 14.5t-25.5 3.5q-23 0 -41 -6l-44 34l66 78q-50 11 -90.5 35t-69.5 59t-45 80t-16 99q0 64 23.5 116.5t65.5 89.5t98.5 57t122.5 20
q27 0 54.5 -4.5t53 -12.5t47 -18t36.5 -22l-115 -166q-12 14 -31.5 21.5t-37.5 7.5q-17 0 -33 -5.5t-28.5 -17t-20.5 -28t-8 -38.5t8 -38.5t20.5 -27t28.5 -16t33 -5.5q20 0 39 7.5t31 20.5l116 -162q-30 -24 -76 -41t-98 -20l-32 -34q5 1 16 1q17 0 35 -3.5t33 -13.5
t24.5 -26.5t9.5 -41.5q0 -31 -16.5 -51t-41 -31.5t-53 -16t-53.5 -4.5z" />
    <glyph glyph-name="egrave" unicode="&#xe8;" horiz-adv-x="630" 
d="M403 333q0 28 -20.5 46t-55.5 18q-38 0 -59 -21t-24 -43h159zM602 258q0 -13 -0.5 -26.5t-1.5 -22.5h-354q1 -14 9.5 -25t21 -19t28 -12t31.5 -4q32 0 53.5 11.5t32.5 25.5l164 -83q-35 -57 -101.5 -90t-154.5 -33q-57 0 -111 18t-95.5 53.5t-66.5 88.5t-25 123
q0 65 23 117.5t62.5 89t93 56.5t114.5 20q62 0 113 -21.5t87.5 -60t56.5 -91.5t20 -115zM114 728h212l111 -144h-169z" />
    <glyph glyph-name="eacute" unicode="&#xe9;" horiz-adv-x="630" 
d="M403 333q0 28 -20.5 46t-55.5 18q-38 0 -59 -21t-24 -43h159zM602 258q0 -13 -0.5 -26.5t-1.5 -22.5h-354q1 -14 9.5 -25t21 -19t28 -12t31.5 -4q32 0 53.5 11.5t32.5 25.5l164 -83q-35 -57 -101.5 -90t-154.5 -33q-57 0 -111 18t-95.5 53.5t-66.5 88.5t-25 123
q0 65 23 117.5t62.5 89t93 56.5t114.5 20q62 0 113 -21.5t87.5 -60t56.5 -91.5t20 -115zM219 584l111 144h212l-154 -144h-169z" />
    <glyph glyph-name="ecircumflex" unicode="&#xea;" horiz-adv-x="630" 
d="M403 333q0 28 -20.5 46t-55.5 18q-38 0 -59 -21t-24 -43h159zM602 258q0 -13 -0.5 -26.5t-1.5 -22.5h-354q1 -14 9.5 -25t21 -19t28 -12t31.5 -4q32 0 53.5 11.5t32.5 25.5l164 -83q-35 -57 -101.5 -90t-154.5 -33q-57 0 -111 18t-95.5 53.5t-66.5 88.5t-25 123
q0 65 23 117.5t62.5 89t93 56.5t114.5 20q62 0 113 -21.5t87.5 -60t56.5 -91.5t20 -115zM332 652l-67 -68h-152l137 144h169l134 -144h-154z" />
    <glyph glyph-name="edieresis" unicode="&#xeb;" horiz-adv-x="630" 
d="M403 333q0 28 -20.5 46t-55.5 18q-38 0 -59 -21t-24 -43h159zM602 258q0 -13 -0.5 -26.5t-1.5 -22.5h-354q1 -14 9.5 -25t21 -19t28 -12t31.5 -4q32 0 53.5 11.5t32.5 25.5l164 -83q-35 -57 -101.5 -90t-154.5 -33q-57 0 -111 18t-95.5 53.5t-66.5 88.5t-25 123
q0 65 23 117.5t62.5 89t93 56.5t114.5 20q62 0 113 -21.5t87.5 -60t56.5 -91.5t20 -115zM355 678q0 20 8 38t22 31.5t32 21.5t39 8q20 0 38 -8t31.5 -21.5t21.5 -31.5t8 -38q0 -21 -8 -38.5t-21.5 -31t-31.5 -21t-38 -7.5q-42 0 -71.5 28t-29.5 70zM106 678q0 20 8 38
t22 31.5t32 21.5t39 8q20 0 38 -8t31.5 -21.5t21.5 -31.5t8 -38q0 -21 -8 -38.5t-21.5 -31t-31.5 -21t-38 -7.5q-42 0 -71.5 28t-29.5 70z" />
    <glyph glyph-name="igrave" unicode="&#xec;" horiz-adv-x="339" 
d="M54 526h231v-526h-231v526zM-40 728h212l111 -144h-169z" />
    <glyph glyph-name="iacute" unicode="&#xed;" horiz-adv-x="339" 
d="M54 526h231v-526h-231v526zM62 584l111 144h212l-154 -144h-169z" />
    <glyph glyph-name="icircumflex" unicode="&#xee;" horiz-adv-x="339" 
d="M54 526h231v-526h-231v526zM172 652l-67 -68h-152l137 144h169l134 -144h-154z" />
    <glyph glyph-name="idieresis" unicode="&#xef;" horiz-adv-x="339" 
d="M54 526h231v-526h-231v526zM197 678q0 20 8 38t22 31.5t32 21.5t39 8q20 0 38 -8t31.5 -21.5t21.5 -31.5t8 -38q0 -21 -8 -38.5t-21.5 -31t-31.5 -21t-38 -7.5q-42 0 -71.5 28t-29.5 70zM-52 678q0 20 8 38t22 31.5t32 21.5t39 8q20 0 38 -8t31.5 -21.5t21.5 -31.5t8 -38
q0 -21 -8 -38.5t-21.5 -31t-31.5 -21t-38 -7.5q-42 0 -71.5 28t-29.5 70z" />
    <glyph glyph-name="eth" unicode="&#xf0;" horiz-adv-x="664" 
d="M331 352q-38 0 -61.5 -26t-23.5 -61q0 -37 24 -63t62 -26t62 26t24 63q0 35 -24.5 61t-62.5 26zM351 532q-15 15 -29 27t-26 22l-107 -43l-110 89l107 43q-8 7 -29 21.5t-41 27.5l176 94q29 -20 48.5 -36.5t36.5 -31.5l112 45l121 -94l-127 -49q70 -74 109.5 -157.5
t39.5 -192.5q0 -81 -24.5 -140.5t-66 -99t-96 -58.5t-114.5 -19q-59 0 -113.5 19t-95.5 55.5t-65.5 89.5t-24.5 121q0 64 21.5 114.5t59.5 85t89.5 52.5t110.5 18q6 0 15 -1t21 -3z" />
    <glyph glyph-name="ntilde" unicode="&#xf1;" horiz-adv-x="666" 
d="M53 526h225v-58h2q20 29 59.5 50.5t90.5 21.5q55 0 91.5 -20t58 -51.5t30 -70.5t8.5 -78v-320h-232v280q0 40 -12.5 56t-37.5 16q-23 0 -37.5 -18.5t-14.5 -53.5v-280h-231v526zM519 720q-2 -30 -10 -55t-22.5 -44t-35 -29.5t-46.5 -10.5q-21 0 -40.5 6t-40.5 17
q-24 13 -36 17.5t-27 4.5q-16 0 -25 -10.5t-12 -25.5h-80q3 57 32 96.5t81 39.5q23 0 42 -6.5t41 -17.5q23 -12 36 -17t29 -5t23.5 10t11.5 30h79z" />
    <glyph glyph-name="ograve" unicode="&#xf2;" horiz-adv-x="664" 
d="M632 265q0 -68 -24.5 -121t-66 -89.5t-96 -55.5t-114.5 -19q-59 0 -113.5 19t-95.5 55.5t-65.5 89.5t-24.5 121q0 67 24.5 119.5t65.5 88.5t95.5 54.5t113.5 18.5q60 0 114.5 -18.5t96 -54.5t66 -88.5t24.5 -119.5zM331 352q-38 0 -61.5 -26t-23.5 -61q0 -37 24 -63
t62 -26t62 26t24 63q0 35 -24.5 61t-62.5 26zM118 728h212l111 -144h-169z" />
    <glyph glyph-name="oacute" unicode="&#xf3;" horiz-adv-x="664" 
d="M632 265q0 -68 -24.5 -121t-66 -89.5t-96 -55.5t-114.5 -19q-59 0 -113.5 19t-95.5 55.5t-65.5 89.5t-24.5 121q0 67 24.5 119.5t65.5 88.5t95.5 54.5t113.5 18.5q60 0 114.5 -18.5t96 -54.5t66 -88.5t24.5 -119.5zM331 352q-38 0 -61.5 -26t-23.5 -61q0 -37 24 -63
t62 -26t62 26t24 63q0 35 -24.5 61t-62.5 26zM224 584l111 144h212l-154 -144h-169z" />
    <glyph glyph-name="ocircumflex" unicode="&#xf4;" horiz-adv-x="664" 
d="M632 265q0 -68 -24.5 -121t-66 -89.5t-96 -55.5t-114.5 -19q-59 0 -113.5 19t-95.5 55.5t-65.5 89.5t-24.5 121q0 67 24.5 119.5t65.5 88.5t95.5 54.5t113.5 18.5q60 0 114.5 -18.5t96 -54.5t66 -88.5t24.5 -119.5zM331 352q-38 0 -61.5 -26t-23.5 -61q0 -37 24 -63
t62 -26t62 26t24 63q0 35 -24.5 61t-62.5 26zM332 652l-67 -68h-152l137 144h169l134 -144h-154z" />
    <glyph glyph-name="otilde" unicode="&#xf5;" horiz-adv-x="664" 
d="M632 265q0 -68 -24.5 -121t-66 -89.5t-96 -55.5t-114.5 -19q-59 0 -113.5 19t-95.5 55.5t-65.5 89.5t-24.5 121q0 67 24.5 119.5t65.5 88.5t95.5 54.5t113.5 18.5q60 0 114.5 -18.5t96 -54.5t66 -88.5t24.5 -119.5zM331 352q-38 0 -61.5 -26t-23.5 -61q0 -37 24 -63
t62 -26t62 26t24 63q0 35 -24.5 61t-62.5 26zM521 720q-2 -30 -10 -55t-22.5 -44t-35 -29.5t-46.5 -10.5q-21 0 -40.5 6t-40.5 17q-24 13 -36 17.5t-27 4.5q-16 0 -25 -10.5t-12 -25.5h-80q3 57 32 96.5t81 39.5q23 0 42 -6.5t41 -17.5q23 -12 36 -17t29 -5t23.5 10t11.5 30
h79z" />
    <glyph glyph-name="odieresis" unicode="&#xf6;" horiz-adv-x="664" 
d="M632 265q0 -68 -24.5 -121t-66 -89.5t-96 -55.5t-114.5 -19q-59 0 -113.5 19t-95.5 55.5t-65.5 89.5t-24.5 121q0 67 24.5 119.5t65.5 88.5t95.5 54.5t113.5 18.5q60 0 114.5 -18.5t96 -54.5t66 -88.5t24.5 -119.5zM331 352q-38 0 -61.5 -26t-23.5 -61q0 -37 24 -63
t62 -26t62 26t24 63q0 35 -24.5 61t-62.5 26zM357 678q0 20 8 38t22 31.5t32 21.5t39 8q20 0 38 -8t31.5 -21.5t21.5 -31.5t8 -38q0 -21 -8 -38.5t-21.5 -31t-31.5 -21t-38 -7.5q-42 0 -71.5 28t-29.5 70zM108 678q0 20 8 38t22 31.5t32 21.5t39 8q20 0 38 -8t31.5 -21.5
t21.5 -31.5t8 -38q0 -21 -8 -38.5t-21.5 -31t-31.5 -21t-38 -7.5q-42 0 -71.5 28t-29.5 70z" />
    <glyph glyph-name="divide" unicode="&#xf7;" horiz-adv-x="666" 
d="M235 495q0 19 8 36t21.5 29.5t31.5 20t38 7.5t37.5 -7.5t31 -20t21 -29.5t7.5 -36q0 -40 -28.5 -67.5t-68.5 -27.5q-20 0 -38 7.5t-31.5 20t-21.5 30t-8 37.5zM235 111q0 19 8 36t21.5 29.5t31.5 20t38 7.5t37.5 -7.5t31 -20t21 -29.5t7.5 -36t-7.5 -36.5t-21 -30.5
t-31 -20.5t-37.5 -7.5t-38 7.5t-31.5 20.5t-21.5 30.5t-8 36.5zM79 230v147h508v-147h-508z" />
    <glyph glyph-name="oslash" unicode="&#xf8;" horiz-adv-x="664" 
d="M580 422q27 -30 39.5 -70.5t12.5 -86.5q0 -65 -24 -117.5t-65 -90t-96 -57.5t-116 -20q-42 0 -82.5 10.5t-72.5 32.5l-80 -80l-86 84l76 75q-25 29 -39.5 71t-14.5 91q0 65 23.5 117.5t64.5 89t95 56t116 19.5q45 0 86 -11t72 -32l73 71l87 -84zM334 170q41 0 64.5 25
t23.5 64q0 13 -3 21l-107 -107q6 -3 22 -3zM324 366q-41 0 -64.5 -25.5t-23.5 -64.5q0 -12 2 -20l107 108q-6 2 -21 2z" />
    <glyph glyph-name="ugrave" unicode="&#xf9;" horiz-adv-x="663" 
d="M610 0h-225v58h-2q-20 -29 -59.5 -50.5t-90.5 -21.5q-56 0 -92 19.5t-57.5 51t-30 71t-8.5 78.5v320h232v-278q0 -40 12.5 -56t37.5 -16q23 0 37.5 18.5t14.5 53.5v278h231v-526zM109 728h212l111 -144h-169z" />
    <glyph glyph-name="uacute" unicode="&#xfa;" horiz-adv-x="663" 
d="M610 0h-225v58h-2q-20 -29 -59.5 -50.5t-90.5 -21.5q-56 0 -92 19.5t-57.5 51t-30 71t-8.5 78.5v320h232v-278q0 -40 12.5 -56t37.5 -16q23 0 37.5 18.5t14.5 53.5v278h231v-526zM232 584l111 144h212l-154 -144h-169z" />
    <glyph glyph-name="ucircumflex" unicode="&#xfb;" horiz-adv-x="663" 
d="M610 0h-225v58h-2q-20 -29 -59.5 -50.5t-90.5 -21.5q-56 0 -92 19.5t-57.5 51t-30 71t-8.5 78.5v320h232v-278q0 -40 12.5 -56t37.5 -16q23 0 37.5 18.5t14.5 53.5v278h231v-526zM327 652l-67 -68h-152l137 144h169l134 -144h-154z" />
    <glyph glyph-name="udieresis" unicode="&#xfc;" horiz-adv-x="663" 
d="M610 0h-225v58h-2q-20 -29 -59.5 -50.5t-90.5 -21.5q-56 0 -92 19.5t-57.5 51t-30 71t-8.5 78.5v320h232v-278q0 -40 12.5 -56t37.5 -16q23 0 37.5 18.5t14.5 53.5v278h231v-526zM353 678q0 20 8 38t22 31.5t32 21.5t39 8q20 0 38 -8t31.5 -21.5t21.5 -31.5t8 -38
q0 -21 -8 -38.5t-21.5 -31t-31.5 -21t-38 -7.5q-42 0 -71.5 28t-29.5 70zM104 678q0 20 8 38t22 31.5t32 21.5t39 8q20 0 38 -8t31.5 -21.5t21.5 -31.5t8 -38q0 -21 -8 -38.5t-21.5 -31t-31.5 -21t-38 -7.5q-42 0 -71.5 28t-29.5 70z" />
    <glyph glyph-name="yacute" unicode="&#xfd;" horiz-adv-x="638" 
d="M205 20l-213 506h256l78 -277h4l69 277h247l-216 -558q-19 -49 -43 -87.5t-56 -65.5t-75.5 -41t-101.5 -14q-18 0 -37 1.5t-36.5 4t-32.5 5t-25 5.5l29 190q13 -5 31.5 -8.5t33.5 -3.5q38 0 56.5 15.5t27.5 39.5zM238 584l111 144h212l-154 -144h-169z" />
    <glyph glyph-name="thorn" unicode="&#xfe;" horiz-adv-x="694" 
d="M422 540q59 0 104 -24t75 -63t45.5 -88t15.5 -100q0 -52 -15.5 -102t-45.5 -89.5t-74.5 -63.5t-103.5 -24q-39 0 -77 14.5t-62 40.5h-2v-281h-229v996h229v-271h2q24 26 62 40.5t76 14.5zM448 265q0 35 -22 61t-64 26q-41 0 -65.5 -26t-24.5 -61q0 -37 24.5 -63t65.5 -26
q42 0 64 25.5t22 63.5z" />
    <glyph glyph-name="ydieresis" unicode="&#xff;" horiz-adv-x="638" 
d="M205 20l-213 506h256l78 -277h4l69 277h247l-216 -558q-19 -49 -43 -87.5t-56 -65.5t-75.5 -41t-101.5 -14q-18 0 -37 1.5t-36.5 4t-32.5 5t-25 5.5l29 190q13 -5 31.5 -8.5t33.5 -3.5q38 0 56.5 15.5t27.5 39.5zM352 678q0 20 8 38t22 31.5t32 21.5t39 8q20 0 38 -8
t31.5 -21.5t21.5 -31.5t8 -38q0 -21 -8 -38.5t-21.5 -31t-31.5 -21t-38 -7.5q-42 0 -71.5 28t-29.5 70zM103 678q0 20 8 38t22 31.5t32 21.5t39 8q20 0 38 -8t31.5 -21.5t21.5 -31.5t8 -38q0 -21 -8 -38.5t-21.5 -31t-31.5 -21t-38 -7.5q-42 0 -71.5 28t-29.5 70z" />
    <glyph glyph-name="Amacron" unicode="&#x100;" horiz-adv-x="776" 
d="M263 708h253l276 -708h-259l-37 104h-225l-35 -104h-252zM386 461l-58 -175h115zM206 887h360v-96h-360v96z" />
    <glyph glyph-name="amacron" unicode="&#x101;" horiz-adv-x="591" 
d="M334 218q-51 0 -82 -11t-31 -41q0 -11 5 -18.5t13 -12.5t17.5 -7.5t17.5 -2.5q33 0 53 21t20 54v18h-13zM332 334q0 24 -16.5 35.5t-43.5 11.5q-32 0 -60.5 -13.5t-50.5 -31.5l-115 114q48 46 114 71t136 25q75 0 124 -21t77.5 -58t40 -86t11.5 -104v-277h-209v42h-2
q-20 -30 -57 -43t-72 -13q-31 0 -63.5 9t-59 29t-43.5 52t-17 79q0 55 28.5 89.5t72.5 54t98.5 26.5t106.5 7v2zM123 707h360v-96h-360v96z" />
    <glyph glyph-name="Abreve" unicode="&#x102;" horiz-adv-x="776" 
d="M263 708h253l276 -708h-259l-37 104h-225l-35 -104h-252zM386 461l-58 -175h115zM385 764q-33 0 -64 6.5t-55.5 23t-41 44.5t-19.5 70h110q1 -12 8.5 -20t17.5 -12t22 -5.5t22 -1.5t22 1.5t22.5 5.5t17.5 12t8 20h110q-3 -42 -19 -70t-41 -44.5t-56 -23t-64 -6.5z" />
    <glyph glyph-name="abreve" unicode="&#x103;" horiz-adv-x="591" 
d="M334 218q-51 0 -82 -11t-31 -41q0 -11 5 -18.5t13 -12.5t17.5 -7.5t17.5 -2.5q33 0 53 21t20 54v18h-13zM332 334q0 24 -16.5 35.5t-43.5 11.5q-32 0 -60.5 -13.5t-50.5 -31.5l-115 114q48 46 114 71t136 25q75 0 124 -21t77.5 -58t40 -86t11.5 -104v-277h-209v42h-2
q-20 -30 -57 -43t-72 -13q-31 0 -63.5 9t-59 29t-43.5 52t-17 79q0 55 28.5 89.5t72.5 54t98.5 26.5t106.5 7v2zM305 584q-33 0 -64 6.5t-55.5 23t-41 44.5t-19.5 70h110q1 -12 8.5 -20t17.5 -12t22 -5.5t22 -1.5t22 1.5t22.5 5.5t17.5 12t8 20h110q-3 -42 -19 -70
t-41 -44.5t-56 -23t-64 -6.5z" />
    <glyph glyph-name="Aogonek" unicode="&#x104;" horiz-adv-x="776" 
d="M541 -240q-20 0 -42.5 4t-41.5 14.5t-31 29t-12 46.5q0 24 11 45t28 39t38.5 33.5t41.5 28.5l-37 104h-225l-35 -104h-252l279 708h253l276 -708h-122q-64 -45 -88.5 -69.5t-24.5 -42.5q0 -20 23 -20q26 0 56 18l44 -83q-28 -18 -64.5 -30.5t-74.5 -12.5zM386 461
l-58 -175h115z" />
    <glyph glyph-name="aogonek" unicode="&#x105;" horiz-adv-x="591" 
d="M347 -240q-20 0 -42.5 4t-41.5 14.5t-31 29t-12 46.5q0 24 11 45t28 39t38.5 33.5t41.5 28.5h1v42h-2q-20 -30 -57 -43t-72 -13q-31 0 -63.5 9t-59 29t-43.5 52t-17 79q0 55 28.5 89.5t72.5 54t98.5 26.5t106.5 7v2q0 24 -16.5 35.5t-43.5 11.5q-32 0 -60.5 -13.5
t-50.5 -31.5l-115 114q48 46 114 71t136 25q75 0 124 -21t77.5 -58t40 -86t11.5 -104v-277h-73q-64 -45 -88.5 -69.5t-24.5 -42.5q0 -20 23 -20q26 0 56 18l44 -83q-28 -18 -64.5 -30.5t-74.5 -12.5zM334 218q-51 0 -82 -11t-31 -41q0 -11 5 -18.5t13 -12.5t17.5 -7.5
t17.5 -2.5q33 0 53 21t20 54v18h-13z" />
    <glyph glyph-name="Cacute" unicode="&#x106;" horiz-adv-x="696" 
d="M34 354q0 85 30 154t82 118t122.5 75.5t150.5 26.5q82 0 155 -26.5t122 -71.5l-146 -176q-20 26 -50 39.5t-67 13.5q-30 0 -56 -10.5t-45.5 -30.5t-30.5 -48.5t-11 -63.5t11.5 -62.5t31 -47.5t45.5 -30.5t55 -10.5q41 0 70.5 17t46.5 40l146 -175q-48 -48 -118 -76.5
t-159 -28.5q-80 0 -150.5 27t-122.5 76.5t-82 118t-30 152.5zM315 764l111 144h212l-154 -144h-169z" />
    <glyph glyph-name="cacute" unicode="&#x107;" horiz-adv-x="526" 
d="M339 -20q-67 0 -123 20t-97 57t-64 89t-23 117q0 64 23.5 116.5t65.5 89.5t98.5 57t122.5 20q27 0 54.5 -4.5t53 -12.5t47 -18t36.5 -22l-115 -166q-12 14 -31.5 21.5t-37.5 7.5q-17 0 -33 -5.5t-28.5 -17t-20.5 -28t-8 -38.5t8 -38.5t20.5 -27t28.5 -16t33 -5.5
q20 0 39 7.5t31 20.5l116 -162q-33 -26 -85.5 -44t-110.5 -18zM232 584l111 144h212l-154 -144h-169z" />
    <glyph glyph-name="Ccircumflex" unicode="&#x108;" horiz-adv-x="696" 
d="M34 354q0 85 30 154t82 118t122.5 75.5t150.5 26.5q82 0 155 -26.5t122 -71.5l-146 -176q-20 26 -50 39.5t-67 13.5q-30 0 -56 -10.5t-45.5 -30.5t-30.5 -48.5t-11 -63.5t11.5 -62.5t31 -47.5t45.5 -30.5t55 -10.5q41 0 70.5 17t46.5 40l146 -175q-48 -48 -118 -76.5
t-159 -28.5q-80 0 -150.5 27t-122.5 76.5t-82 118t-30 152.5zM432 832l-67 -68h-152l137 144h169l134 -144h-154z" />
    <glyph glyph-name="ccircumflex" unicode="&#x109;" horiz-adv-x="526" 
d="M339 -20q-67 0 -123 20t-97 57t-64 89t-23 117q0 64 23.5 116.5t65.5 89.5t98.5 57t122.5 20q27 0 54.5 -4.5t53 -12.5t47 -18t36.5 -22l-115 -166q-12 14 -31.5 21.5t-37.5 7.5q-17 0 -33 -5.5t-28.5 -17t-20.5 -28t-8 -38.5t8 -38.5t20.5 -27t28.5 -16t33 -5.5
q20 0 39 7.5t31 20.5l116 -162q-33 -26 -85.5 -44t-110.5 -18zM339 652l-67 -68h-152l137 144h169l134 -144h-154z" />
    <glyph glyph-name="Cdotaccent" unicode="&#x10a;" horiz-adv-x="696" 
d="M34 354q0 85 30 154t82 118t122.5 75.5t150.5 26.5q82 0 155 -26.5t122 -71.5l-146 -176q-20 26 -50 39.5t-67 13.5q-30 0 -56 -10.5t-45.5 -30.5t-30.5 -48.5t-11 -63.5t11.5 -62.5t31 -47.5t45.5 -30.5t55 -10.5q41 0 70.5 17t46.5 40l146 -175q-48 -48 -118 -76.5
t-159 -28.5q-80 0 -150.5 27t-122.5 76.5t-82 118t-30 152.5zM318 858q0 22 8.5 41t23.5 33.5t34.5 23t42.5 8.5q21 0 40.5 -8.5t34 -23t23 -33.5t8.5 -41t-8.5 -41t-23 -33.5t-34 -22.5t-40.5 -8q-23 0 -42.5 8t-34.5 22.5t-23.5 33.5t-8.5 41z" />
    <glyph glyph-name="cdotaccent" unicode="&#x10b;" horiz-adv-x="526" 
d="M339 -20q-67 0 -123 20t-97 57t-64 89t-23 117q0 64 23.5 116.5t65.5 89.5t98.5 57t122.5 20q27 0 54.5 -4.5t53 -12.5t47 -18t36.5 -22l-115 -166q-12 14 -31.5 21.5t-37.5 7.5q-17 0 -33 -5.5t-28.5 -17t-20.5 -28t-8 -38.5t8 -38.5t20.5 -27t28.5 -16t33 -5.5
q20 0 39 7.5t31 20.5l116 -162q-33 -26 -85.5 -44t-110.5 -18zM232 678q0 22 8.5 41t23.5 33.5t34.5 23t42.5 8.5q21 0 40.5 -8.5t34 -23t23 -33.5t8.5 -41t-8.5 -41t-23 -33.5t-34 -22.5t-40.5 -8q-23 0 -42.5 8t-34.5 22.5t-23.5 33.5t-8.5 41z" />
    <glyph glyph-name="Ccaron" unicode="&#x10c;" horiz-adv-x="696" 
d="M34 354q0 85 30 154t82 118t122.5 75.5t150.5 26.5q82 0 155 -26.5t122 -71.5l-146 -176q-20 26 -50 39.5t-67 13.5q-30 0 -56 -10.5t-45.5 -30.5t-30.5 -48.5t-11 -63.5t11.5 -62.5t31 -47.5t45.5 -30.5t55 -10.5q41 0 70.5 17t46.5 40l146 -175q-48 -48 -118 -76.5
t-159 -28.5q-80 0 -150.5 27t-122.5 76.5t-82 118t-30 152.5zM654 908l-134 -144h-169l-137 144h152l67 -68l67 68h154z" />
    <glyph glyph-name="ccaron" unicode="&#x10d;" horiz-adv-x="526" 
d="M339 -20q-67 0 -123 20t-97 57t-64 89t-23 117q0 64 23.5 116.5t65.5 89.5t98.5 57t122.5 20q27 0 54.5 -4.5t53 -12.5t47 -18t36.5 -22l-115 -166q-12 14 -31.5 21.5t-37.5 7.5q-17 0 -33 -5.5t-28.5 -17t-20.5 -28t-8 -38.5t8 -38.5t20.5 -27t28.5 -16t33 -5.5
q20 0 39 7.5t31 20.5l116 -162q-33 -26 -85.5 -44t-110.5 -18zM560 728l-134 -144h-169l-137 144h152l67 -68l67 68h154z" />
    <glyph glyph-name="Dcaron" unicode="&#x10e;" horiz-adv-x="788" 
d="M66 0v708h264q84 0 160.5 -16.5t135 -57t93.5 -107.5t35 -169q0 -93 -33.5 -161t-89.5 -111.5t-129 -64.5t-152 -21h-284zM295 506v-302h44q84 0 129 36.5t45 119.5q0 69 -45 107.5t-120 38.5h-53zM581 908l-134 -144h-169l-137 144h152l67 -68l67 68h154z" />
    <glyph glyph-name="dcaron" unicode="&#x10f;" horiz-adv-x="694" 
d="M32 265q0 51 15.5 100t45.5 88t75 63t104 24q38 0 76 -14.5t61 -41.5h2v272h230v-756h-207v55h-2q-23 -32 -67 -50.5t-93 -18.5q-59 0 -104 24t-75 63.5t-45.5 89.5t-15.5 102zM246 265q0 -38 22 -63.5t64 -25.5q41 0 65.5 26t24.5 63q0 35 -24.5 61t-65.5 26
q-42 0 -64 -26t-22 -61zM909 708l-87 -177h-164l62 177h189z" />
    <glyph glyph-name="Dcroat" unicode="&#x110;" horiz-adv-x="788" 
d="M12 286v142h54v280h264q84 0 160.5 -16.5t135 -57t93.5 -107.5t35 -169q0 -93 -33.5 -161t-89.5 -111.5t-129 -64.5t-152 -21h-284v286h-54zM423 428v-142h-128v-82h44q84 0 129 36.5t45 119.5q0 69 -45 107.5t-120 38.5h-53v-78h128z" />
    <glyph glyph-name="dcroat" unicode="&#x111;" horiz-adv-x="694" 
d="M293 680h118v76h230v-76h33v-110h-33v-570h-207v55h-2q-23 -32 -67 -50.5t-93 -18.5q-59 0 -104 24t-75 63.5t-45.5 89.5t-15.5 102q0 51 15.5 100t45.5 88t75 63t104 24q38 0 76 -14.5t61 -41.5h2v86h-118v110zM246 265q0 -38 22 -63.5t64 -25.5q41 0 65.5 26t24.5 63
q0 35 -24.5 61t-65.5 26q-42 0 -64 -26t-22 -61z" />
    <glyph glyph-name="Emacron" unicode="&#x112;" horiz-adv-x="603" 
d="M66 708h487v-198h-263v-61h247v-185h-247v-66h280v-198h-504v708zM126 887h360v-96h-360v96z" />
    <glyph glyph-name="emacron" unicode="&#x113;" horiz-adv-x="630" 
d="M403 333q0 28 -20.5 46t-55.5 18q-38 0 -59 -21t-24 -43h159zM602 258q0 -13 -0.5 -26.5t-1.5 -22.5h-354q1 -14 9.5 -25t21 -19t28 -12t31.5 -4q32 0 53.5 11.5t32.5 25.5l164 -83q-35 -57 -101.5 -90t-154.5 -33q-57 0 -111 18t-95.5 53.5t-66.5 88.5t-25 123
q0 65 23 117.5t62.5 89t93 56.5t114.5 20q62 0 113 -21.5t87.5 -60t56.5 -91.5t20 -115zM152 707h360v-96h-360v96z" />
    <glyph glyph-name="Ebreve" unicode="&#x114;" horiz-adv-x="603" 
d="M66 708h487v-198h-263v-61h247v-185h-247v-66h280v-198h-504v708zM313 764q-33 0 -64 6.5t-55.5 23t-41 44.5t-19.5 70h110q1 -12 8.5 -20t17.5 -12t22 -5.5t22 -1.5t22 1.5t22.5 5.5t17.5 12t8 20h110q-3 -42 -19 -70t-41 -44.5t-56 -23t-64 -6.5z" />
    <glyph glyph-name="ebreve" unicode="&#x115;" horiz-adv-x="630" 
d="M403 333q0 28 -20.5 46t-55.5 18q-38 0 -59 -21t-24 -43h159zM602 258q0 -13 -0.5 -26.5t-1.5 -22.5h-354q1 -14 9.5 -25t21 -19t28 -12t31.5 -4q32 0 53.5 11.5t32.5 25.5l164 -83q-35 -57 -101.5 -90t-154.5 -33q-57 0 -111 18t-95.5 53.5t-66.5 88.5t-25 123
q0 65 23 117.5t62.5 89t93 56.5t114.5 20q62 0 113 -21.5t87.5 -60t56.5 -91.5t20 -115zM330 584q-33 0 -64 6.5t-55.5 23t-41 44.5t-19.5 70h110q1 -12 8.5 -20t17.5 -12t22 -5.5t22 -1.5t22 1.5t22.5 5.5t17.5 12t8 20h110q-3 -42 -19 -70t-41 -44.5t-56 -23t-64 -6.5z
" />
    <glyph glyph-name="Edotaccent" unicode="&#x116;" horiz-adv-x="603" 
d="M66 708h487v-198h-263v-61h247v-185h-247v-66h280v-198h-504v708zM207 858q0 22 8.5 41t23.5 33.5t34.5 23t42.5 8.5q21 0 40.5 -8.5t34 -23t23 -33.5t8.5 -41t-8.5 -41t-23 -33.5t-34 -22.5t-40.5 -8q-23 0 -42.5 8t-34.5 22.5t-23.5 33.5t-8.5 41z" />
    <glyph glyph-name="edotaccent" unicode="&#x117;" horiz-adv-x="630" 
d="M403 333q0 28 -20.5 46t-55.5 18q-38 0 -59 -21t-24 -43h159zM602 258q0 -13 -0.5 -26.5t-1.5 -22.5h-354q1 -14 9.5 -25t21 -19t28 -12t31.5 -4q32 0 53.5 11.5t32.5 25.5l164 -83q-35 -57 -101.5 -90t-154.5 -33q-57 0 -111 18t-95.5 53.5t-66.5 88.5t-25 123
q0 65 23 117.5t62.5 89t93 56.5t114.5 20q62 0 113 -21.5t87.5 -60t56.5 -91.5t20 -115zM222 678q0 22 8.5 41t23.5 33.5t34.5 23t42.5 8.5q21 0 40.5 -8.5t34 -23t23 -33.5t8.5 -41t-8.5 -41t-23 -33.5t-34 -22.5t-40.5 -8q-23 0 -42.5 8t-34.5 22.5t-23.5 33.5t-8.5 41z
" />
    <glyph glyph-name="Eogonek" unicode="&#x118;" horiz-adv-x="603" 
d="M66 708h487v-198h-263v-61h247v-185h-247v-66h280v-198h-22q-64 -45 -88.5 -69.5t-24.5 -42.5q0 -20 23 -20q26 0 56 18l44 -83q-28 -18 -64.5 -30.5t-74.5 -12.5q-20 0 -42.5 4t-41.5 14.5t-31 29t-12 46.5q0 24 11 45t28 39t38.5 33.5t41.5 28.5h-345v708z" />
    <glyph glyph-name="eogonek" unicode="&#x119;" horiz-adv-x="630" 
d="M305 -240q-20 0 -42.5 4t-41.5 14.5t-31 29t-12 46.5q0 21 8 39t21.5 34.5t30.5 31t35 26.5q-49 7 -92.5 28.5t-76.5 56.5t-52.5 83.5t-19.5 109.5q0 65 23 117.5t62.5 89t93 56.5t114.5 20q62 0 113 -21.5t87.5 -60t56.5 -91.5t20 -115q0 -13 -0.5 -26.5t-1.5 -22.5
h-354q1 -14 9.5 -25t21 -19t28 -12t31.5 -4q32 0 53.5 11.5t32.5 25.5l164 -83q-26 -42 -68 -70.5t-98 -41.5q-28 -20 -47 -35.5t-30.5 -27.5t-16.5 -21.5t-5 -18.5q0 -20 23 -20q26 0 56 18l44 -83q-28 -18 -64.5 -30.5t-74.5 -12.5zM403 333q0 28 -20.5 46t-55.5 18
q-38 0 -59 -21t-24 -43h159z" />
    <glyph glyph-name="Ecaron" unicode="&#x11a;" horiz-adv-x="603" 
d="M66 708h487v-198h-263v-61h247v-185h-247v-66h280v-198h-504v708zM533 908l-134 -144h-169l-137 144h152l67 -68l67 68h154z" />
    <glyph glyph-name="ecaron" unicode="&#x11b;" horiz-adv-x="630" 
d="M403 333q0 28 -20.5 46t-55.5 18q-38 0 -59 -21t-24 -43h159zM602 258q0 -13 -0.5 -26.5t-1.5 -22.5h-354q1 -14 9.5 -25t21 -19t28 -12t31.5 -4q32 0 53.5 11.5t32.5 25.5l164 -83q-35 -57 -101.5 -90t-154.5 -33q-57 0 -111 18t-95.5 53.5t-66.5 88.5t-25 123
q0 65 23 117.5t62.5 89t93 56.5t114.5 20q62 0 113 -21.5t87.5 -60t56.5 -91.5t20 -115zM551 728l-134 -144h-169l-137 144h152l67 -68l67 68h154z" />
    <glyph glyph-name="Gcircumflex" unicode="&#x11c;" horiz-adv-x="762" 
d="M426 -18q-84 0 -155.5 26t-124 74.5t-82.5 117.5t-30 154t30 154t82 118t122 75.5t150 26.5q83 0 157.5 -27t121.5 -74l-139 -167q-22 26 -52 41.5t-74 15.5q-29 0 -56.5 -11.5t-48.5 -33t-34 -51.5t-13 -67q0 -74 38.5 -120.5t123.5 -46.5q15 0 31 2.5t25 7.5v54h-114
v187h325v-387q-25 -15 -57.5 -27.5t-69 -21.5t-76.5 -14.5t-80 -5.5zM430 832l-67 -68h-152l137 144h169l134 -144h-154z" />
    <glyph glyph-name="gcircumflex" unicode="&#x11d;" horiz-adv-x="697" 
d="M32 265q0 51 15.5 100t45.5 88t75 63t104 24q42 0 82.5 -16t66.5 -51h3v53h217v-472q0 -86 -28 -143t-74.5 -90.5t-105.5 -47t-120 -13.5q-75 0 -150 19.5t-131 57.5l101 153q38 -29 80 -42.5t80 -13.5q25 0 47.5 6.5t39.5 19t27 31t10 42.5v23h-3q-19 -22 -56.5 -39
t-85.5 -17q-61 0 -106 21.5t-75 58t-44.5 84.5t-14.5 101zM246 265q0 -38 22 -63.5t64 -25.5q41 0 65.5 26t24.5 63q0 35 -24.5 61t-65.5 26q-42 0 -64 -26t-22 -61zM360 652l-67 -68h-152l137 144h169l134 -144h-154z" />
    <glyph glyph-name="Gbreve" unicode="&#x11e;" horiz-adv-x="762" 
d="M426 -18q-84 0 -155.5 26t-124 74.5t-82.5 117.5t-30 154t30 154t82 118t122 75.5t150 26.5q83 0 157.5 -27t121.5 -74l-139 -167q-22 26 -52 41.5t-74 15.5q-29 0 -56.5 -11.5t-48.5 -33t-34 -51.5t-13 -67q0 -74 38.5 -120.5t123.5 -46.5q15 0 31 2.5t25 7.5v54h-114
v187h325v-387q-25 -15 -57.5 -27.5t-69 -21.5t-76.5 -14.5t-80 -5.5zM421 764q-33 0 -64 6.5t-55.5 23t-41 44.5t-19.5 70h110q1 -12 8.5 -20t17.5 -12t22 -5.5t22 -1.5t22 1.5t22.5 5.5t17.5 12t8 20h110q-3 -42 -19 -70t-41 -44.5t-56 -23t-64 -6.5z" />
    <glyph glyph-name="gbreve" unicode="&#x11f;" horiz-adv-x="697" 
d="M32 265q0 51 15.5 100t45.5 88t75 63t104 24q42 0 82.5 -16t66.5 -51h3v53h217v-472q0 -86 -28 -143t-74.5 -90.5t-105.5 -47t-120 -13.5q-75 0 -150 19.5t-131 57.5l101 153q38 -29 80 -42.5t80 -13.5q25 0 47.5 6.5t39.5 19t27 31t10 42.5v23h-3q-19 -22 -56.5 -39
t-85.5 -17q-61 0 -106 21.5t-75 58t-44.5 84.5t-14.5 101zM246 265q0 -38 22 -63.5t64 -25.5q41 0 65.5 26t24.5 63q0 35 -24.5 61t-65.5 26q-42 0 -64 -26t-22 -61zM353 584q-33 0 -64 6.5t-55.5 23t-41 44.5t-19.5 70h110q1 -12 8.5 -20t17.5 -12t22 -5.5t22 -1.5t22 1.5
t22.5 5.5t17.5 12t8 20h110q-3 -42 -19 -70t-41 -44.5t-56 -23t-64 -6.5z" />
    <glyph glyph-name="Gdotaccent" unicode="&#x120;" horiz-adv-x="762" 
d="M426 -18q-84 0 -155.5 26t-124 74.5t-82.5 117.5t-30 154t30 154t82 118t122 75.5t150 26.5q83 0 157.5 -27t121.5 -74l-139 -167q-22 26 -52 41.5t-74 15.5q-29 0 -56.5 -11.5t-48.5 -33t-34 -51.5t-13 -67q0 -74 38.5 -120.5t123.5 -46.5q15 0 31 2.5t25 7.5v54h-114
v187h325v-387q-25 -15 -57.5 -27.5t-69 -21.5t-76.5 -14.5t-80 -5.5zM309 858q0 22 8.5 41t23.5 33.5t34.5 23t42.5 8.5q21 0 40.5 -8.5t34 -23t23 -33.5t8.5 -41t-8.5 -41t-23 -33.5t-34 -22.5t-40.5 -8q-23 0 -42.5 8t-34.5 22.5t-23.5 33.5t-8.5 41z" />
    <glyph glyph-name="gdotaccent" unicode="&#x121;" horiz-adv-x="697" 
d="M32 265q0 51 15.5 100t45.5 88t75 63t104 24q42 0 82.5 -16t66.5 -51h3v53h217v-472q0 -86 -28 -143t-74.5 -90.5t-105.5 -47t-120 -13.5q-75 0 -150 19.5t-131 57.5l101 153q38 -29 80 -42.5t80 -13.5q25 0 47.5 6.5t39.5 19t27 31t10 42.5v23h-3q-19 -22 -56.5 -39
t-85.5 -17q-61 0 -106 21.5t-75 58t-44.5 84.5t-14.5 101zM246 265q0 -38 22 -63.5t64 -25.5q41 0 65.5 26t24.5 63q0 35 -24.5 61t-65.5 26q-42 0 -64 -26t-22 -61zM251 678q0 22 8.5 41t23.5 33.5t34.5 23t42.5 8.5q21 0 40.5 -8.5t34 -23t23 -33.5t8.5 -41t-8.5 -41
t-23 -33.5t-34 -22.5t-40.5 -8q-23 0 -42.5 8t-34.5 22.5t-23.5 33.5t-8.5 41z" />
    <glyph glyph-name="Gcommaaccent" unicode="&#x122;" horiz-adv-x="762" 
d="M426 -18q-84 0 -155.5 26t-124 74.5t-82.5 117.5t-30 154t30 154t82 118t122 75.5t150 26.5q83 0 157.5 -27t121.5 -74l-139 -167q-22 26 -52 41.5t-74 15.5q-29 0 -56.5 -11.5t-48.5 -33t-34 -51.5t-13 -67q0 -74 38.5 -120.5t123.5 -46.5q15 0 31 2.5t25 7.5v54h-114
v187h325v-387q-25 -15 -57.5 -27.5t-69 -21.5t-76.5 -14.5t-80 -5.5zM526 -45l-93 -195h-164l68 195h189z" />
    <glyph glyph-name="gcommaaccent" unicode="&#x123;" horiz-adv-x="697" 
d="M32 265q0 51 15.5 100t45.5 88t75 63t104 24q42 0 82.5 -16t66.5 -51h3v53h217v-472q0 -86 -28 -143t-74.5 -90.5t-105.5 -47t-120 -13.5q-75 0 -150 19.5t-131 57.5l101 153q38 -29 80 -42.5t80 -13.5q25 0 47.5 6.5t39.5 19t27 31t10 42.5v23h-3q-19 -22 -56.5 -39
t-85.5 -17q-61 0 -106 21.5t-75 58t-44.5 84.5t-14.5 101zM246 265q0 -38 22 -63.5t64 -25.5q41 0 65.5 26t24.5 63q0 35 -24.5 61t-65.5 26q-42 0 -64 -26t-22 -61zM236 584l93 195h164l-68 -195h-189z" />
    <glyph glyph-name="Hcircumflex" unicode="&#x124;" horiz-adv-x="802" 
d="M498 269h-194v-269h-238v708h237v-240h194v240h239v-708h-238v269zM401 832l-67 -68h-152l137 144h169l134 -144h-154z" />
    <glyph glyph-name="hcircumflex" unicode="&#x125;" horiz-adv-x="666" 
d="M430 540q55 0 91.5 -20t58 -51.5t30 -70.5t8.5 -78v-320h-232v280q0 40 -12.5 56t-37.5 16q-20 0 -36 -17.5t-16 -55.5v-279h-231v756h231v-288h2q20 29 57 50.5t87 21.5zM335 864l-67 -68h-152l137 144h169l134 -144h-154z" />
    <glyph glyph-name="Hbar" unicode="&#x126;" horiz-adv-x="802" 
d="M498 269h-194v-269h-238v708h237v-78h194v78h239v-708h-238v269zM497 468v52h-194v-52h194z" />
    <glyph glyph-name="hbar" unicode="&#x127;" horiz-adv-x="666" 
d="M20 680h33v76h231v-76h117v-110h-117v-102h2q20 29 57 50.5t87 21.5q55 0 91.5 -20t58 -51.5t30 -70.5t8.5 -78v-320h-232v280q0 40 -12.5 56t-37.5 16q-20 0 -36 -17.5t-16 -55.5v-279h-231v570h-33v110z" />
    <glyph glyph-name="Itilde" unicode="&#x128;" horiz-adv-x="372" 
d="M66 708h240v-708h-240v708zM374 900q-2 -30 -10 -55t-22.5 -44t-35 -29.5t-46.5 -10.5q-21 0 -40.5 6t-40.5 17q-24 13 -36 17.5t-27 4.5q-16 0 -25 -10.5t-12 -25.5h-80q3 57 32 96.5t81 39.5q23 0 42 -6.5t41 -17.5q23 -12 36 -17t29 -5t23.5 10t11.5 30h79z" />
    <glyph glyph-name="itilde" unicode="&#x129;" horiz-adv-x="339" 
d="M54 526h231v-526h-231v526zM358 720q-2 -30 -10 -55t-22.5 -44t-35 -29.5t-46.5 -10.5q-21 0 -40.5 6t-40.5 17q-24 13 -36 17.5t-27 4.5q-16 0 -25 -10.5t-12 -25.5h-80q3 57 32 96.5t81 39.5q23 0 42 -6.5t41 -17.5q23 -12 36 -17t29 -5t23.5 10t11.5 30h79z" />
    <glyph glyph-name="Imacron" unicode="&#x12a;" horiz-adv-x="372" 
d="M66 708h240v-708h-240v708zM6 887h360v-96h-360v96z" />
    <glyph glyph-name="imacron" unicode="&#x12b;" horiz-adv-x="339" 
d="M54 526h231v-526h-231v526zM-9 707h360v-96h-360v96z" />
    <glyph glyph-name="Iogonek" unicode="&#x12e;" horiz-adv-x="372" 
d="M66 708h240v-708h-18q-64 -45 -88.5 -69.5t-24.5 -42.5q0 -20 23 -20q26 0 56 18l44 -83q-28 -18 -64.5 -30.5t-74.5 -12.5q-20 0 -42.5 4t-41.5 14.5t-31 29t-12 46.5q0 24 11 45t28 39t38.5 33.5t41.5 28.5h-85v708z" />
    <glyph glyph-name="iogonek" unicode="&#x12f;" horiz-adv-x="339" 
d="M54 526h231v-526h-9q-64 -45 -88.5 -69.5t-24.5 -42.5q0 -20 23 -20q26 0 56 18l44 -83q-28 -18 -64.5 -30.5t-74.5 -12.5q-20 0 -42.5 4t-41.5 14.5t-31 29t-12 46.5q0 24 11 45t28 39t38.5 33.5t41.5 28.5h-85v526zM50 678q0 24 9.5 45.5t26 37.5t38.5 25.5t47 9.5
q24 0 45 -9.5t37.5 -25.5t26 -37.5t9.5 -45.5q0 -25 -9.5 -46.5t-26 -37t-37.5 -24.5t-45 -9q-25 0 -47 9t-38.5 24.5t-26 37t-9.5 46.5z" />
    <glyph glyph-name="Idotaccent" unicode="&#x130;" horiz-adv-x="372" 
d="M66 708h240v-708h-240v708zM78 858q0 22 8.5 41t23.5 33.5t34.5 23t42.5 8.5q21 0 40.5 -8.5t34 -23t23 -33.5t8.5 -41t-8.5 -41t-23 -33.5t-34 -22.5t-40.5 -8q-23 0 -42.5 8t-34.5 22.5t-23.5 33.5t-8.5 41z" />
    <glyph glyph-name="dotlessi" unicode="&#x131;" horiz-adv-x="339" 
d="M54 526h231v-526h-231v526z" />
    <glyph glyph-name="IJ" unicode="&#x132;" horiz-adv-x="938" 
d="M66 708h240v-708h-240v708zM613 -20q-48 0 -91 14t-77.5 38t-59.5 57t-35 71l204 78q4 -16 14.5 -28.5t28.5 -12.5q23 0 31 15.5t8 39.5v456h239v-446q0 -48 -10.5 -98t-39.5 -91t-80 -67t-132 -26z" />
    <glyph glyph-name="ij" unicode="&#x133;" horiz-adv-x="675" 
d="M54 526h231v-526h-231v526zM50 678q0 24 9.5 45.5t26 37.5t38.5 25.5t47 9.5q24 0 45 -9.5t37.5 -25.5t26 -37.5t9.5 -45.5q0 -25 -9.5 -46.5t-26 -37t-37.5 -24.5t-45 -9q-25 0 -47 9t-38.5 24.5t-26 37t-9.5 46.5zM621 12q0 -51 -10.5 -96.5t-37.5 -80t-73 -55
t-116 -20.5q-20 0 -48 3t-48 9l12 188q11 -3 20.5 -4t16.5 -1q26 0 39.5 14.5t13.5 49.5v507h231v-514zM386 678q0 24 9.5 45.5t26 37.5t38.5 25.5t46 9.5t45.5 -9.5t38 -25.5t26 -37.5t9.5 -45.5q0 -25 -9.5 -46.5t-26 -37t-38 -24.5t-45.5 -9t-46 9t-38.5 24.5t-26 37
t-9.5 46.5z" />
    <glyph glyph-name="Jcircumflex" unicode="&#x134;" horiz-adv-x="573" 
d="M248 -20q-48 0 -91 14t-77.5 38t-59.5 57t-35 71l204 78q4 -16 14.5 -28.5t28.5 -12.5q23 0 31 15.5t8 39.5v456h239v-446q0 -48 -10.5 -98t-39.5 -91t-80 -67t-132 -26zM390 832l-67 -68h-152l137 144h169l134 -144h-154z" />
    <glyph glyph-name="jcircumflex" unicode="&#x135;" horiz-adv-x="346" 
d="M292 12q0 -51 -10.5 -96.5t-37.5 -80t-73 -55t-116 -20.5q-20 0 -48 3t-48 9l12 188q11 -3 20.5 -4t16.5 -1q26 0 39.5 14.5t13.5 49.5v507h231v-514zM179 652l-67 -68h-152l137 144h169l134 -144h-154z" />
    <glyph glyph-name="Kcommaaccent" unicode="&#x136;" horiz-adv-x="763" 
d="M300 282h-2v-282h-232v708h231v-261h2l189 261h280l-266 -324l279 -384h-292zM506 -45l-93 -195h-164l68 195h189z" />
    <glyph glyph-name="kcommaaccent" unicode="&#x137;" horiz-adv-x="674" 
d="M284 229v-229h-231v756h231v-431h3l125 201h268l-170 -237l169 -289h-269l-123 229h-3zM453 -45l-93 -195h-164l68 195h189z" />
    <glyph glyph-name="Lacute" unicode="&#x139;" horiz-adv-x="549" 
d="M66 708h240v-504h235v-204h-475v708zM98 764l111 144h212l-154 -144h-169z" />
    <glyph glyph-name="lacute" unicode="&#x13a;" horiz-adv-x="342" 
d="M53 756h236v-756h-236v756zM53 792l111 144h212l-154 -144h-169z" />
    <glyph glyph-name="Lcommaaccent" unicode="&#x13b;" horiz-adv-x="549" 
d="M66 708h240v-504h235v-204h-475v708zM409 -45l-93 -195h-164l68 195h189z" />
    <glyph glyph-name="lcommaaccent" unicode="&#x13c;" horiz-adv-x="342" 
d="M53 756h236v-756h-236v756zM277 -46l-93 -195h-164l68 195h189z" />
    <glyph glyph-name="Lcaron" unicode="&#x13d;" horiz-adv-x="549" 
d="M66 708h240v-504h235v-204h-475v708zM585 708l-87 -177h-164l62 177h189z" />
    <glyph glyph-name="lcaron" unicode="&#x13e;" horiz-adv-x="342" 
d="M53 756h236v-756h-236v756zM557 708l-87 -177h-164l62 177h189z" />
    <glyph glyph-name="Ldot" unicode="&#x13f;" horiz-adv-x="549" 
d="M66 708h240v-504h235v-204h-475v708zM352 388q0 22 8.5 41t23.5 33.5t34.5 23t42.5 8.5q21 0 40.5 -8.5t34 -23t23 -33.5t8.5 -41t-8.5 -41t-23 -33.5t-34 -22.5t-40.5 -8q-23 0 -42.5 8t-34.5 22.5t-23.5 33.5t-8.5 41z" />
    <glyph glyph-name="ldot" unicode="&#x140;" horiz-adv-x="524" 
d="M53 756h236v-756h-236v756zM325 388q0 22 8.5 41t23.5 33.5t34.5 23t42.5 8.5q21 0 40.5 -8.5t34 -23t23 -33.5t8.5 -41t-8.5 -41t-23 -33.5t-34 -22.5t-40.5 -8q-23 0 -42.5 8t-34.5 22.5t-23.5 33.5t-8.5 41z" />
    <glyph glyph-name="Lslash" unicode="&#x141;" horiz-adv-x="549" 
d="M11 94v190l55 48v376h240v-204l170 146v-189l-170 -145v-112h235v-204h-475v142z" />
    <glyph glyph-name="lslash" unicode="&#x142;" horiz-adv-x="342" 
d="M289 0h-236v221l-41 -38v194l41 39v340h236v-159l41 38v-194l-41 -39v-402z" />
    <glyph glyph-name="Nacute" unicode="&#x143;" horiz-adv-x="791" 
d="M66 708h237l202 -359h4l-10 359h226v-708h-243l-196 338h-4l10 -338h-226v708zM288 764l111 144h212l-154 -144h-169z" />
    <glyph glyph-name="nacute" unicode="&#x144;" horiz-adv-x="666" 
d="M53 526h225v-58h2q20 29 59.5 50.5t90.5 21.5q55 0 91.5 -20t58 -51.5t30 -70.5t8.5 -78v-320h-232v280q0 40 -12.5 56t-37.5 16q-23 0 -37.5 -18.5t-14.5 -53.5v-280h-231v526zM223 584l111 144h212l-154 -144h-169z" />
    <glyph glyph-name="Ncommaaccent" unicode="&#x145;" horiz-adv-x="791" 
d="M66 708h237l202 -359h4l-10 359h226v-708h-243l-196 338h-4l10 -338h-226v708zM504 -45l-93 -195h-164l68 195h189z" />
    <glyph glyph-name="ncommaaccent" unicode="&#x146;" horiz-adv-x="666" 
d="M53 526h225v-58h2q20 29 59.5 50.5t90.5 21.5q55 0 91.5 -20t58 -51.5t30 -70.5t8.5 -78v-320h-232v280q0 40 -12.5 56t-37.5 16q-23 0 -37.5 -18.5t-14.5 -53.5v-280h-231v526zM437 -45l-93 -195h-164l68 195h189z" />
    <glyph glyph-name="Ncaron" unicode="&#x147;" horiz-adv-x="791" 
d="M66 708h237l202 -359h4l-10 359h226v-708h-243l-196 338h-4l10 -338h-226v708zM618 908l-134 -144h-169l-137 144h152l67 -68l67 68h154z" />
    <glyph glyph-name="ncaron" unicode="&#x148;" horiz-adv-x="666" 
d="M53 526h225v-58h2q20 29 59.5 50.5t90.5 21.5q55 0 91.5 -20t58 -51.5t30 -70.5t8.5 -78v-320h-232v280q0 40 -12.5 56t-37.5 16q-23 0 -37.5 -18.5t-14.5 -53.5v-280h-231v526zM554 728l-134 -144h-169l-137 144h152l67 -68l67 68h154z" />
    <glyph glyph-name="napostrophe" unicode="&#x149;" horiz-adv-x="831" 
d="M218 526h225v-58h2q20 29 59.5 50.5t90.5 21.5q55 0 91.5 -20t58 -51.5t30 -70.5t8.5 -78v-320h-232v280q0 40 -12.5 56t-37.5 16q-23 0 -37.5 -18.5t-14.5 -53.5v-280h-231v526zM248 708l-87 -177h-164l62 177h189z" />
    <glyph glyph-name="Omacron" unicode="&#x14c;" horiz-adv-x="855" 
d="M34 358q0 85 30 153.5t82.5 116.5t124.5 74t156 26t156 -26t125 -74t83 -116.5t30 -153.5t-30 -155t-83 -119.5t-125 -76.5t-156 -27t-156 27t-124.5 76.5t-82.5 119.5t-30 155zM287 358q0 -35 10.5 -64t29 -50t44.5 -32.5t56 -11.5t55.5 11.5t44.5 32.5t29.5 50t10.5 64
q0 34 -10.5 62.5t-29.5 48t-44.5 30.5t-55.5 11t-56 -11t-44.5 -30.5t-29 -48t-10.5 -62.5zM248 887h360v-96h-360v96z" />
    <glyph glyph-name="omacron" unicode="&#x14d;" horiz-adv-x="664" 
d="M632 265q0 -68 -24.5 -121t-66 -89.5t-96 -55.5t-114.5 -19q-59 0 -113.5 19t-95.5 55.5t-65.5 89.5t-24.5 121q0 67 24.5 119.5t65.5 88.5t95.5 54.5t113.5 18.5q60 0 114.5 -18.5t96 -54.5t66 -88.5t24.5 -119.5zM331 352q-38 0 -61.5 -26t-23.5 -61q0 -37 24 -63
t62 -26t62 26t24 63q0 35 -24.5 61t-62.5 26zM153 707h360v-96h-360v96z" />
    <glyph glyph-name="Obreve" unicode="&#x14e;" horiz-adv-x="855" 
d="M34 358q0 85 30 153.5t82.5 116.5t124.5 74t156 26t156 -26t125 -74t83 -116.5t30 -153.5t-30 -155t-83 -119.5t-125 -76.5t-156 -27t-156 27t-124.5 76.5t-82.5 119.5t-30 155zM287 358q0 -35 10.5 -64t29 -50t44.5 -32.5t56 -11.5t55.5 11.5t44.5 32.5t29.5 50t10.5 64
q0 34 -10.5 62.5t-29.5 48t-44.5 30.5t-55.5 11t-56 -11t-44.5 -30.5t-29 -48t-10.5 -62.5zM427 764q-33 0 -64 6.5t-55.5 23t-41 44.5t-19.5 70h110q1 -12 8.5 -20t17.5 -12t22 -5.5t22 -1.5t22 1.5t22.5 5.5t17.5 12t8 20h110q-3 -42 -19 -70t-41 -44.5t-56 -23t-64 -6.5z
" />
    <glyph glyph-name="obreve" unicode="&#x14f;" horiz-adv-x="664" 
d="M632 265q0 -68 -24.5 -121t-66 -89.5t-96 -55.5t-114.5 -19q-59 0 -113.5 19t-95.5 55.5t-65.5 89.5t-24.5 121q0 67 24.5 119.5t65.5 88.5t95.5 54.5t113.5 18.5q60 0 114.5 -18.5t96 -54.5t66 -88.5t24.5 -119.5zM331 352q-38 0 -61.5 -26t-23.5 -61q0 -37 24 -63
t62 -26t62 26t24 63q0 35 -24.5 61t-62.5 26zM333 584q-33 0 -64 6.5t-55.5 23t-41 44.5t-19.5 70h110q1 -12 8.5 -20t17.5 -12t22 -5.5t22 -1.5t22 1.5t22.5 5.5t17.5 12t8 20h110q-3 -42 -19 -70t-41 -44.5t-56 -23t-64 -6.5z" />
    <glyph glyph-name="Ohungarumlaut" unicode="&#x150;" horiz-adv-x="855" 
d="M34 358q0 85 30 153.5t82.5 116.5t124.5 74t156 26t156 -26t125 -74t83 -116.5t30 -153.5t-30 -155t-83 -119.5t-125 -76.5t-156 -27t-156 27t-124.5 76.5t-82.5 119.5t-30 155zM287 358q0 -35 10.5 -64t29 -50t44.5 -32.5t56 -11.5t55.5 11.5t44.5 32.5t29.5 50t10.5 64
q0 34 -10.5 62.5t-29.5 48t-44.5 30.5t-55.5 11t-56 -11t-44.5 -30.5t-29 -48t-10.5 -62.5zM226 764l111 144h212l-154 -144h-169zM469 764l111 144h212l-154 -144h-169z" />
    <glyph glyph-name="ohungarumlaut" unicode="&#x151;" horiz-adv-x="664" 
d="M632 265q0 -68 -24.5 -121t-66 -89.5t-96 -55.5t-114.5 -19q-59 0 -113.5 19t-95.5 55.5t-65.5 89.5t-24.5 121q0 67 24.5 119.5t65.5 88.5t95.5 54.5t113.5 18.5q60 0 114.5 -18.5t96 -54.5t66 -88.5t24.5 -119.5zM331 352q-38 0 -61.5 -26t-23.5 -61q0 -37 24 -63
t62 -26t62 26t24 63q0 35 -24.5 61t-62.5 26zM122 584l111 144h212l-154 -144h-169zM365 584l111 144h212l-154 -144h-169z" />
    <glyph glyph-name="OE" unicode="&#x152;" horiz-adv-x="1007" 
d="M957 708v-198h-253v-61h238v-185h-238v-66h270v-198h-522q-84 0 -159.5 17.5t-133 59t-91.5 109.5t-34 170q0 93 34 160t91.5 109.5t133 62.5t159.5 20h505zM487 198v312h-34q-78 0 -123 -39.5t-45 -122.5q0 -34 12 -62t33 -47.5t50 -30t64 -10.5h43z" />
    <glyph glyph-name="oe" unicode="&#x153;" horiz-adv-x="995" 
d="M693 546q61 0 111.5 -21.5t86.5 -60t56 -91.5t20 -115q0 -13 -0.5 -26.5t-1.5 -22.5h-354q1 -14 9.5 -25t21 -19t28 -12t31.5 -4q32 0 53.5 11.5t32.5 25.5l164 -83q-35 -57 -101 -90t-152 -33q-63 0 -112 21.5t-75 50.5q-27 -32 -72 -52t-108 -20q-59 0 -113.5 19
t-95.5 55.5t-65.5 89.5t-24.5 121q0 67 24.5 119.5t65.5 88.5t95.5 54.5t113.5 18.5q62 0 108 -23t72 -55q29 32 76 55t106 23zM331 352q-38 0 -61.5 -26t-23.5 -61q0 -37 24 -63t62 -26t62 26t24 63q0 35 -24.5 61t-62.5 26zM768 333q0 28 -20.5 46t-55.5 18q-38 0 -59 -21
t-24 -43h159z" />
    <glyph glyph-name="Racute" unicode="&#x154;" horiz-adv-x="714" 
d="M66 708h305q52 0 103.5 -10.5t92 -37t65.5 -71t25 -111.5q0 -65 -32 -114.5t-92 -76.5l180 -287h-274l-136 253h-7v-253h-230v708zM294 409h47q12 0 26.5 2t27 8.5t21 18t8.5 30.5t-7 30t-18 16.5t-24 7t-24 1.5h-57v-114zM231 764l111 144h212l-154 -144h-169z" />
    <glyph glyph-name="racute" unicode="&#x155;" horiz-adv-x="445" 
d="M53 526h222v-60h2q17 32 50.5 53t78.5 21q27 0 44 -5l-18 -196q-11 3 -24.5 4.5t-24.5 1.5q-45 0 -72 -26t-27 -64v-255h-231v526zM108 584l111 144h212l-154 -144h-169z" />
    <glyph glyph-name="Rcommaaccent" unicode="&#x156;" horiz-adv-x="714" 
d="M66 708h305q52 0 103.5 -10.5t92 -37t65.5 -71t25 -111.5q0 -65 -32 -114.5t-92 -76.5l180 -287h-274l-136 253h-7v-253h-230v708zM294 409h47q12 0 26.5 2t27 8.5t21 18t8.5 30.5t-7 30t-18 16.5t-24 7t-24 1.5h-57v-114zM471 -45l-93 -195h-164l68 195h189z" />
    <glyph glyph-name="rcommaaccent" unicode="&#x157;" horiz-adv-x="445" 
d="M53 526h222v-60h2q17 32 50.5 53t78.5 21q27 0 44 -5l-18 -196q-11 3 -24.5 4.5t-24.5 1.5q-45 0 -72 -26t-27 -64v-255h-231v526zM275 -46l-93 -195h-164l68 195h189z" />
    <glyph glyph-name="Rcaron" unicode="&#x158;" horiz-adv-x="714" 
d="M66 708h305q52 0 103.5 -10.5t92 -37t65.5 -71t25 -111.5q0 -65 -32 -114.5t-92 -76.5l180 -287h-274l-136 253h-7v-253h-230v708zM294 409h47q12 0 26.5 2t27 8.5t21 18t8.5 30.5t-7 30t-18 16.5t-24 7t-24 1.5h-57v-114zM560 908l-134 -144h-169l-137 144h152l67 -68
l67 68h154z" />
    <glyph glyph-name="rcaron" unicode="&#x159;" horiz-adv-x="445" 
d="M53 526h222v-60h2q17 32 50.5 53t78.5 21q27 0 44 -5l-18 -196q-11 3 -24.5 4.5t-24.5 1.5q-45 0 -72 -26t-27 -64v-255h-231v526zM470 728l-134 -144h-169l-137 144h152l67 -68l67 68h154z" />
    <glyph glyph-name="Sacute" unicode="&#x15a;" horiz-adv-x="617" 
d="M298 -20q-43 0 -84.5 7.5t-80 22t-72.5 34t-61 43.5l145 158q25 -27 66.5 -48t85.5 -21q20 0 36.5 7t16.5 26q0 10 -5.5 17t-19.5 14.5t-38.5 16.5t-61.5 21q-36 12 -69 28.5t-58.5 40.5t-40.5 57.5t-15 80.5q0 66 27 112t69.5 75.5t95.5 42.5t105 13q70 0 142.5 -27
t127.5 -78l-148 -151q-24 30 -59 45.5t-63 15.5q-26 0 -42 -7.5t-16 -24.5q0 -16 16.5 -24t53.5 -20q38 -12 80 -28t77.5 -41.5t58.5 -62.5t23 -92q0 -64 -25.5 -111.5t-67 -79t-93.5 -47t-106 -15.5zM227 764l111 144h212l-154 -144h-169z" />
    <glyph glyph-name="sacute" unicode="&#x15b;" horiz-adv-x="513" 
d="M484 167q0 -53 -22.5 -89t-57 -57.5t-75.5 -31t-78 -9.5q-68 0 -133.5 19.5t-113.5 55.5l113 131q24 -22 56.5 -35.5t62.5 -13.5q12 0 22.5 4.5t10.5 16.5q0 13 -18.5 20.5t-64.5 18.5q-25 6 -51 17.5t-47.5 30.5t-35.5 46.5t-14 65.5q0 51 22.5 87t57 58.5t75 33
t76.5 10.5q61 0 121 -18t108 -50l-108 -129q-25 16 -51 25t-51 9q-17 0 -28 -4.5t-11 -17.5q0 -10 12.5 -15.5t57.5 -14.5q31 -6 60.5 -18.5t53 -32t37.5 -47.5t14 -66zM164 584l111 144h212l-154 -144h-169z" />
    <glyph glyph-name="Scircumflex" unicode="&#x15c;" horiz-adv-x="617" 
d="M298 -20q-43 0 -84.5 7.5t-80 22t-72.5 34t-61 43.5l145 158q25 -27 66.5 -48t85.5 -21q20 0 36.5 7t16.5 26q0 10 -5.5 17t-19.5 14.5t-38.5 16.5t-61.5 21q-36 12 -69 28.5t-58.5 40.5t-40.5 57.5t-15 80.5q0 66 27 112t69.5 75.5t95.5 42.5t105 13q70 0 142.5 -27
t127.5 -78l-148 -151q-24 30 -59 45.5t-63 15.5q-26 0 -42 -7.5t-16 -24.5q0 -16 16.5 -24t53.5 -20q38 -12 80 -28t77.5 -41.5t58.5 -62.5t23 -92q0 -64 -25.5 -111.5t-67 -79t-93.5 -47t-106 -15.5zM337 832l-67 -68h-152l137 144h169l134 -144h-154z" />
    <glyph glyph-name="scircumflex" unicode="&#x15d;" horiz-adv-x="513" 
d="M484 167q0 -53 -22.5 -89t-57 -57.5t-75.5 -31t-78 -9.5q-68 0 -133.5 19.5t-113.5 55.5l113 131q24 -22 56.5 -35.5t62.5 -13.5q12 0 22.5 4.5t10.5 16.5q0 13 -18.5 20.5t-64.5 18.5q-25 6 -51 17.5t-47.5 30.5t-35.5 46.5t-14 65.5q0 51 22.5 87t57 58.5t75 33
t76.5 10.5q61 0 121 -18t108 -50l-108 -129q-25 16 -51 25t-51 9q-17 0 -28 -4.5t-11 -17.5q0 -10 12.5 -15.5t57.5 -14.5q31 -6 60.5 -18.5t53 -32t37.5 -47.5t14 -66zM283 652l-67 -68h-152l137 144h169l134 -144h-154z" />
    <glyph glyph-name="Scedilla" unicode="&#x15e;" horiz-adv-x="617" 
d="M273 -240q-16 0 -33.5 1.5t-35.5 4.5t-34.5 7.5t-29.5 9.5l34 78q17 -8 41.5 -12t43.5 -4q15 0 27.5 4.5t12.5 16.5q0 11 -11.5 14.5t-25.5 3.5q-23 0 -41 -6l-44 34l61 72q-69 9 -131 36t-107 67l145 158q25 -27 66.5 -48t85.5 -21q20 0 36.5 7t16.5 26q0 10 -5.5 17
t-19.5 14.5t-38.5 16.5t-61.5 21q-36 12 -69 28.5t-58.5 40.5t-40.5 57.5t-15 80.5q0 66 27 112t69.5 75.5t95.5 42.5t105 13q70 0 142.5 -27t127.5 -78l-148 -151q-24 30 -59 45.5t-63 15.5q-26 0 -42 -7.5t-16 -24.5q0 -16 16.5 -24t53.5 -20q38 -12 80 -28t77.5 -41.5
t58.5 -62.5t23 -92q0 -56 -19.5 -99t-52.5 -74t-75.5 -49.5t-88.5 -25.5l-35 -38q5 1 16 1q17 0 35 -3.5t33 -13.5t24.5 -26.5t9.5 -41.5q0 -31 -16.5 -51t-41 -31.5t-53 -16t-53.5 -4.5z" />
    <glyph glyph-name="scedilla" unicode="&#x15f;" horiz-adv-x="513" 
d="M227 -240q-16 0 -33.5 1.5t-35.5 4.5t-34.5 7.5t-29.5 9.5l34 78q17 -8 41.5 -12t43.5 -4q15 0 27.5 4.5t12.5 16.5q0 11 -11.5 14.5t-25.5 3.5q-23 0 -41 -6l-44 34l61 72q-54 7 -102.5 24.5t-85.5 46.5l113 131q24 -22 56.5 -35.5t62.5 -13.5q12 0 22.5 4.5t10.5 16.5
q0 13 -18.5 20.5t-64.5 18.5q-25 6 -51 17.5t-47.5 30.5t-35.5 46.5t-14 65.5q0 51 22.5 87t57 58.5t75 33t76.5 10.5q61 0 121 -18t108 -50l-108 -129q-25 16 -51 25t-51 9q-17 0 -28 -4.5t-11 -17.5q0 -10 12.5 -15.5t57.5 -14.5q31 -6 60.5 -18.5t53 -32t37.5 -47.5
t14 -66q0 -43 -15.5 -74.5t-40 -53.5t-56 -34.5t-63.5 -18.5l-36 -39q5 1 16 1q17 0 35 -3.5t33 -13.5t24.5 -26.5t9.5 -41.5q0 -31 -16.5 -51t-41 -31.5t-53 -16t-53.5 -4.5z" />
    <glyph glyph-name="Scaron" unicode="&#x160;" horiz-adv-x="617" 
d="M298 -20q-43 0 -84.5 7.5t-80 22t-72.5 34t-61 43.5l145 158q25 -27 66.5 -48t85.5 -21q20 0 36.5 7t16.5 26q0 10 -5.5 17t-19.5 14.5t-38.5 16.5t-61.5 21q-36 12 -69 28.5t-58.5 40.5t-40.5 57.5t-15 80.5q0 66 27 112t69.5 75.5t95.5 42.5t105 13q70 0 142.5 -27
t127.5 -78l-148 -151q-24 30 -59 45.5t-63 15.5q-26 0 -42 -7.5t-16 -24.5q0 -16 16.5 -24t53.5 -20q38 -12 80 -28t77.5 -41.5t58.5 -62.5t23 -92q0 -64 -25.5 -111.5t-67 -79t-93.5 -47t-106 -15.5zM558 908l-134 -144h-169l-137 144h152l67 -68l67 68h154z" />
    <glyph glyph-name="scaron" unicode="&#x161;" horiz-adv-x="513" 
d="M484 167q0 -53 -22.5 -89t-57 -57.5t-75.5 -31t-78 -9.5q-68 0 -133.5 19.5t-113.5 55.5l113 131q24 -22 56.5 -35.5t62.5 -13.5q12 0 22.5 4.5t10.5 16.5q0 13 -18.5 20.5t-64.5 18.5q-25 6 -51 17.5t-47.5 30.5t-35.5 46.5t-14 65.5q0 51 22.5 87t57 58.5t75 33
t76.5 10.5q61 0 121 -18t108 -50l-108 -129q-25 16 -51 25t-51 9q-17 0 -28 -4.5t-11 -17.5q0 -10 12.5 -15.5t57.5 -14.5q31 -6 60.5 -18.5t53 -32t37.5 -47.5t14 -66zM496 728l-134 -144h-169l-137 144h152l67 -68l67 68h154z" />
    <glyph glyph-name="Tcommaaccent" unicode="&#x162;" horiz-adv-x="600" 
d="M419 0h-238v507h-174v201h586v-201h-174v-507zM407 -45l-93 -195h-164l68 195h189z" />
    <glyph glyph-name="tcommaaccent" unicode="&#x163;" horiz-adv-x="421" 
d="M282 -14q-106 0 -157 45.5t-51 141.5v188h-74v165h73v118h224v-118h114v-165h-114v-140q0 -38 16.5 -51.5t45.5 -13.5q11 0 23 2t19 4v-158q-18 -8 -50.5 -13t-68.5 -5zM352 -45l-93 -195h-164l68 195h189z" />
    <glyph glyph-name="Tcaron" unicode="&#x164;" horiz-adv-x="600" 
d="M419 0h-238v507h-174v201h586v-201h-174v-507zM521 908l-134 -144h-169l-137 144h152l67 -68l67 68h154z" />
    <glyph glyph-name="tcaron" unicode="&#x165;" horiz-adv-x="421" 
d="M282 -14q-106 0 -157 45.5t-51 141.5v188h-74v165h73v118h224v-118h114v-165h-114v-140q0 -38 16.5 -51.5t45.5 -13.5q11 0 23 2t19 4v-158q-18 -8 -50.5 -13t-68.5 -5zM567 731l-87 -177h-164l62 177h189z" />
    <glyph glyph-name="Tbar" unicode="&#x166;" horiz-adv-x="600" 
d="M76 431h105v76h-174v201h586v-201h-174v-76h103v-110h-103v-321h-238v321h-105v110z" />
    <glyph glyph-name="tbar" unicode="&#x167;" horiz-adv-x="421" 
d="M10 319h64v42h-74v165h73v118h224v-118h114v-165h-114v-42h82v-110h-82q3 -31 19 -42t43 -11q11 0 23 2t19 4v-158q-18 -8 -50.5 -13t-68.5 -5q-106 0 -157 45.5t-51 141.5v36h-64v110z" />
    <glyph glyph-name="Utilde" unicode="&#x168;" horiz-adv-x="775" 
d="M384 -20q-83 0 -144.5 23t-102.5 63t-61 94.5t-20 117.5v430h238v-404q0 -51 24.5 -79.5t69.5 -28.5t69.5 28.5t24.5 79.5v404h237v-430q0 -63 -21.5 -117.5t-63.5 -94.5t-104.5 -63t-145.5 -23zM577 900q-2 -30 -10 -55t-22.5 -44t-35 -29.5t-46.5 -10.5q-21 0 -40.5 6
t-40.5 17q-24 13 -36 17.5t-27 4.5q-16 0 -25 -10.5t-12 -25.5h-80q3 57 32 96.5t81 39.5q23 0 42 -6.5t41 -17.5q23 -12 36 -17t29 -5t23.5 10t11.5 30h79z" />
    <glyph glyph-name="utilde" unicode="&#x169;" horiz-adv-x="663" 
d="M610 0h-225v58h-2q-20 -29 -59.5 -50.5t-90.5 -21.5q-56 0 -92 19.5t-57.5 51t-30 71t-8.5 78.5v320h232v-278q0 -40 12.5 -56t37.5 -16q23 0 37.5 18.5t14.5 53.5v278h231v-526zM516 720q-2 -30 -10 -55t-22.5 -44t-35 -29.5t-46.5 -10.5q-21 0 -40.5 6t-40.5 17
q-24 13 -36 17.5t-27 4.5q-16 0 -25 -10.5t-12 -25.5h-80q3 57 32 96.5t81 39.5q23 0 42 -6.5t41 -17.5q23 -12 36 -17t29 -5t23.5 10t11.5 30h79z" />
    <glyph glyph-name="Umacron" unicode="&#x16a;" horiz-adv-x="775" 
d="M384 -20q-83 0 -144.5 23t-102.5 63t-61 94.5t-20 117.5v430h238v-404q0 -51 24.5 -79.5t69.5 -28.5t69.5 28.5t24.5 79.5v404h237v-430q0 -63 -21.5 -117.5t-63.5 -94.5t-104.5 -63t-145.5 -23zM208 887h360v-96h-360v96z" />
    <glyph glyph-name="umacron" unicode="&#x16b;" horiz-adv-x="663" 
d="M610 0h-225v58h-2q-20 -29 -59.5 -50.5t-90.5 -21.5q-56 0 -92 19.5t-57.5 51t-30 71t-8.5 78.5v320h232v-278q0 -40 12.5 -56t37.5 -16q23 0 37.5 18.5t14.5 53.5v278h231v-526zM147 707h360v-96h-360v96z" />
    <glyph glyph-name="Ubreve" unicode="&#x16c;" horiz-adv-x="775" 
d="M384 -20q-83 0 -144.5 23t-102.5 63t-61 94.5t-20 117.5v430h238v-404q0 -51 24.5 -79.5t69.5 -28.5t69.5 28.5t24.5 79.5v404h237v-430q0 -63 -21.5 -117.5t-63.5 -94.5t-104.5 -63t-145.5 -23zM388 764q-33 0 -64 6.5t-55.5 23t-41 44.5t-19.5 70h110q1 -12 8.5 -20
t17.5 -12t22 -5.5t22 -1.5t22 1.5t22.5 5.5t17.5 12t8 20h110q-3 -42 -19 -70t-41 -44.5t-56 -23t-64 -6.5z" />
    <glyph glyph-name="ubreve" unicode="&#x16d;" horiz-adv-x="663" 
d="M610 0h-225v58h-2q-20 -29 -59.5 -50.5t-90.5 -21.5q-56 0 -92 19.5t-57.5 51t-30 71t-8.5 78.5v320h232v-278q0 -40 12.5 -56t37.5 -16q23 0 37.5 18.5t14.5 53.5v278h231v-526zM327 584q-33 0 -64 6.5t-55.5 23t-41 44.5t-19.5 70h110q1 -12 8.5 -20t17.5 -12t22 -5.5
t22 -1.5t22 1.5t22.5 5.5t17.5 12t8 20h110q-3 -42 -19 -70t-41 -44.5t-56 -23t-64 -6.5z" />
    <glyph glyph-name="Uring" unicode="&#x16e;" horiz-adv-x="775" 
d="M384 -20q-83 0 -144.5 23t-102.5 63t-61 94.5t-20 117.5v430h238v-404q0 -51 24.5 -79.5t69.5 -28.5t69.5 28.5t24.5 79.5v404h237v-430q0 -63 -21.5 -117.5t-63.5 -94.5t-104.5 -63t-145.5 -23zM504 857q0 -24 -9.5 -45t-25 -36.5t-36.5 -24t-44 -8.5t-44 8.5t-37 24
t-25 36.5t-9 45t9 45t25 36.5t37 24t44 8.5t44 -8.5t36.5 -24t25 -36.5t9.5 -45zM449 857q0 25 -17.5 42t-42.5 17t-42.5 -17t-17.5 -42t17.5 -42t42.5 -17t42.5 17t17.5 42z" />
    <glyph glyph-name="uring" unicode="&#x16f;" horiz-adv-x="663" 
d="M610 0h-225v58h-2q-20 -29 -59.5 -50.5t-90.5 -21.5q-56 0 -92 19.5t-57.5 51t-30 71t-8.5 78.5v320h232v-278q0 -40 12.5 -56t37.5 -16q23 0 37.5 18.5t14.5 53.5v278h231v-526zM440 677q0 -24 -9.5 -45t-25 -36.5t-36.5 -24t-44 -8.5t-44 8.5t-37 24t-25 36.5t-9 45
t9 45t25 36.5t37 24t44 8.5t44 -8.5t36.5 -24t25 -36.5t9.5 -45zM385 677q0 25 -17.5 42t-42.5 17t-42.5 -17t-17.5 -42t17.5 -42t42.5 -17t42.5 17t17.5 42z" />
    <glyph glyph-name="Uhungarumlaut" unicode="&#x170;" horiz-adv-x="775" 
d="M384 -20q-83 0 -144.5 23t-102.5 63t-61 94.5t-20 117.5v430h238v-404q0 -51 24.5 -79.5t69.5 -28.5t69.5 28.5t24.5 79.5v404h237v-430q0 -63 -21.5 -117.5t-63.5 -94.5t-104.5 -63t-145.5 -23zM180 764l111 144h212l-154 -144h-169zM423 764l111 144h212l-154 -144
h-169z" />
    <glyph glyph-name="uhungarumlaut" unicode="&#x171;" horiz-adv-x="663" 
d="M610 0h-225v58h-2q-20 -29 -59.5 -50.5t-90.5 -21.5q-56 0 -92 19.5t-57.5 51t-30 71t-8.5 78.5v320h232v-278q0 -40 12.5 -56t37.5 -16q23 0 37.5 18.5t14.5 53.5v278h231v-526zM119 584l111 144h212l-154 -144h-169zM362 584l111 144h212l-154 -144h-169z" />
    <glyph glyph-name="Uogonek" unicode="&#x172;" horiz-adv-x="775" 
d="M375 -240q-20 0 -42.5 4t-41.5 14.5t-31 29t-12 46.5q0 20 7.5 38t20.5 34t29.5 30t33.5 26q-72 6 -125 31t-88 64.5t-52.5 90.5t-17.5 110v430h238v-404q0 -51 24.5 -79.5t69.5 -28.5t69.5 28.5t24.5 79.5v404h237v-430q0 -52 -14.5 -98t-43 -83t-70.5 -64t-98 -40
q-58 -41 -80 -64.5t-22 -40.5q0 -20 23 -20q26 0 56 18l44 -83q-28 -18 -64.5 -30.5t-74.5 -12.5z" />
    <glyph glyph-name="uogonek" unicode="&#x173;" horiz-adv-x="663" 
d="M397 -240q-20 0 -42.5 4t-41.5 14.5t-31 29t-12 46.5q0 24 11 45t28 39t38.5 33.5t41.5 28.5h-4v58h-2q-20 -29 -59.5 -50.5t-90.5 -21.5q-56 0 -92 19.5t-57.5 51t-30 71t-8.5 78.5v320h232v-278q0 -40 12.5 -56t37.5 -16q23 0 37.5 18.5t14.5 53.5v278h231v-526h-84
q-64 -45 -88.5 -69.5t-24.5 -42.5q0 -20 23 -20q26 0 56 18l44 -83q-28 -18 -64.5 -30.5t-74.5 -12.5z" />
    <glyph glyph-name="Wcircumflex" unicode="&#x174;" horiz-adv-x="1077" 
d="M433 0h-240l-193 708h252l76 -398h4l82 398h249l89 -398h4l77 398h244l-197 -708h-240l-100 400h-4zM537 832l-67 -68h-152l137 144h169l134 -144h-154z" />
    <glyph glyph-name="wcircumflex" unicode="&#x175;" horiz-adv-x="973" 
d="M404 0h-229l-180 526h247l66 -272h4l68 272h222l73 -272h3l64 272h236l-182 -526h-230l-81 270h-2zM492 652l-67 -68h-152l137 144h169l134 -144h-154z" />
    <glyph glyph-name="Ycircumflex" unicode="&#x176;" horiz-adv-x="738" 
d="M481 0h-238v290l-267 418h287l112 -208l107 208h280l-281 -418v-290zM374 832l-67 -68h-152l137 144h169l134 -144h-154z" />
    <glyph glyph-name="ycircumflex" unicode="&#x177;" horiz-adv-x="638" 
d="M205 20l-213 506h256l78 -277h4l69 277h247l-216 -558q-19 -49 -43 -87.5t-56 -65.5t-75.5 -41t-101.5 -14q-18 0 -37 1.5t-36.5 4t-32.5 5t-25 5.5l29 190q13 -5 31.5 -8.5t33.5 -3.5q38 0 56.5 15.5t27.5 39.5zM327 652l-67 -68h-152l137 144h169l134 -144h-154z" />
    <glyph glyph-name="Ydieresis" unicode="&#x178;" horiz-adv-x="738" 
d="M481 0h-238v290l-267 418h287l112 -208l107 208h280l-281 -418v-290zM400 858q0 20 8 38t22 31.5t32 21.5t39 8q20 0 38 -8t31.5 -21.5t21.5 -31.5t8 -38q0 -21 -8 -38.5t-21.5 -31t-31.5 -21t-38 -7.5q-42 0 -71.5 28t-29.5 70zM151 858q0 20 8 38t22 31.5t32 21.5t39 8
q20 0 38 -8t31.5 -21.5t21.5 -31.5t8 -38q0 -21 -8 -38.5t-21.5 -31t-31.5 -21t-38 -7.5q-42 0 -71.5 28t-29.5 70z" />
    <glyph glyph-name="Zacute" unicode="&#x179;" horiz-adv-x="672" 
d="M44 199l265 312h-254v197h565v-172l-282 -333h290v-203h-584v199zM242 764l111 144h212l-154 -144h-169z" />
    <glyph glyph-name="zacute" unicode="&#x17a;" horiz-adv-x="557" 
d="M33 161l197 194h-192v171h479v-150l-213 -205h219v-171h-490v161zM175 584l111 144h212l-154 -144h-169z" />
    <glyph glyph-name="Zdotaccent" unicode="&#x17b;" horiz-adv-x="672" 
d="M44 199l265 312h-254v197h565v-172l-282 -333h290v-203h-584v199zM232 858q0 22 8.5 41t23.5 33.5t34.5 23t42.5 8.5q21 0 40.5 -8.5t34 -23t23 -33.5t8.5 -41t-8.5 -41t-23 -33.5t-34 -22.5t-40.5 -8q-23 0 -42.5 8t-34.5 22.5t-23.5 33.5t-8.5 41z" />
    <glyph glyph-name="zdotaccent" unicode="&#x17c;" horiz-adv-x="557" 
d="M33 161l197 194h-192v171h479v-150l-213 -205h219v-171h-490v161zM175 678q0 22 8.5 41t23.5 33.5t34.5 23t42.5 8.5q21 0 40.5 -8.5t34 -23t23 -33.5t8.5 -41t-8.5 -41t-23 -33.5t-34 -22.5t-40.5 -8q-23 0 -42.5 8t-34.5 22.5t-23.5 33.5t-8.5 41z" />
    <glyph glyph-name="Zcaron" unicode="&#x17d;" horiz-adv-x="672" 
d="M44 199l265 312h-254v197h565v-172l-282 -333h290v-203h-584v199zM564 908l-134 -144h-169l-137 144h152l67 -68l67 68h154z" />
    <glyph glyph-name="zcaron" unicode="&#x17e;" horiz-adv-x="557" 
d="M33 161l197 194h-192v171h479v-150l-213 -205h219v-171h-490v161zM504 728l-134 -144h-169l-137 144h152l67 -68l67 68h154z" />
    <glyph glyph-name="florin" unicode="&#x192;" horiz-adv-x="700" 
d="M597 526q-18 11 -33.5 16t-26.5 5q-23 0 -38 -11t-24 -49l-7 -36h132v-147h-162l-52 -254q-9 -42 -26 -76.5t-45 -59.5t-68 -39t-95 -14q-38 0 -79 9t-71 26l77 162q15 -11 29.5 -15.5t24.5 -4.5q24 0 36.5 17.5t19.5 49.5l41 199h-114v147h139q11 54 25.5 104t42 88.5
t72.5 61.5t116 23q54 0 97.5 -11.5t70.5 -28.5l-82 -162v0z" />
    <glyph glyph-name="Scommaaccent" unicode="&#x218;" horiz-adv-x="617" 
d="M298 -20q-43 0 -84.5 7.5t-80 22t-72.5 34t-61 43.5l145 158q25 -27 66.5 -48t85.5 -21q20 0 36.5 7t16.5 26q0 10 -5.5 17t-19.5 14.5t-38.5 16.5t-61.5 21q-36 12 -69 28.5t-58.5 40.5t-40.5 57.5t-15 80.5q0 66 27 112t69.5 75.5t95.5 42.5t105 13q70 0 142.5 -27
t127.5 -78l-148 -151q-24 30 -59 45.5t-63 15.5q-26 0 -42 -7.5t-16 -24.5q0 -16 16.5 -24t53.5 -20q38 -12 80 -28t77.5 -41.5t58.5 -62.5t23 -92q0 -64 -25.5 -111.5t-67 -79t-93.5 -47t-106 -15.5zM414 -45l-93 -195h-164l68 195h189z" />
    <glyph glyph-name="scommaaccent" unicode="&#x219;" horiz-adv-x="513" 
d="M484 167q0 -53 -22.5 -89t-57 -57.5t-75.5 -31t-78 -9.5q-68 0 -133.5 19.5t-113.5 55.5l113 131q24 -22 56.5 -35.5t62.5 -13.5q12 0 22.5 4.5t10.5 16.5q0 13 -18.5 20.5t-64.5 18.5q-25 6 -51 17.5t-47.5 30.5t-35.5 46.5t-14 65.5q0 51 22.5 87t57 58.5t75 33
t76.5 10.5q61 0 121 -18t108 -50l-108 -129q-25 16 -51 25t-51 9q-17 0 -28 -4.5t-11 -17.5q0 -10 12.5 -15.5t57.5 -14.5q31 -6 60.5 -18.5t53 -32t37.5 -47.5t14 -66zM356 -45l-93 -195h-164l68 195h189z" />
    <glyph glyph-name="uni021A" unicode="&#x21a;" horiz-adv-x="600" 
d="M419 0h-238v507h-174v201h586v-201h-174v-507zM407 -45l-93 -195h-164l68 195h189z" />
    <glyph glyph-name="uni021B" unicode="&#x21b;" horiz-adv-x="421" 
d="M282 -14q-106 0 -157 45.5t-51 141.5v188h-74v165h73v118h224v-118h114v-165h-114v-140q0 -38 16.5 -51.5t45.5 -13.5q11 0 23 2t19 4v-158q-18 -8 -50.5 -13t-68.5 -5zM352 -45l-93 -195h-164l68 195h189z" />
    <glyph glyph-name="circumflex" unicode="&#x2c6;" 
d="M179 652l-67 -68h-152l137 144h169l134 -144h-154z" />
    <glyph glyph-name="caron" unicode="&#x2c7;" 
d="M400 728l-134 -144h-169l-137 144h152l67 -68l67 68h154z" />
    <glyph glyph-name="uni02C9" unicode="&#x2c9;" 
d="M0 887h360v-96h-360v96z" />
    <glyph glyph-name="breve" unicode="&#x2d8;" 
d="M180 584q-33 0 -64 6.5t-55.5 23t-41 44.5t-19.5 70h110q1 -12 8.5 -20t17.5 -12t22 -5.5t22 -1.5t22 1.5t22.5 5.5t17.5 12t8 20h110q-3 -42 -19 -70t-41 -44.5t-56 -23t-64 -6.5z" />
    <glyph glyph-name="dotaccent" unicode="&#x2d9;" 
d="M72 678q0 22 8.5 41t23.5 33.5t34.5 23t42.5 8.5q21 0 40.5 -8.5t34 -23t23 -33.5t8.5 -41t-8.5 -41t-23 -33.5t-34 -22.5t-40.5 -8q-23 0 -42.5 8t-34.5 22.5t-23.5 33.5t-8.5 41z" />
    <glyph glyph-name="ring" unicode="&#x2da;" 
d="M295 677q0 -24 -9.5 -45t-25 -36.5t-36.5 -24t-44 -8.5t-44 8.5t-37 24t-25 36.5t-9 45t9 45t25 36.5t37 24t44 8.5t44 -8.5t36.5 -24t25 -36.5t9.5 -45zM240 677q0 25 -17.5 42t-42.5 17t-42.5 -17t-17.5 -42t17.5 -42t42.5 -17t42.5 17t17.5 42z" />
    <glyph glyph-name="ogonek" unicode="&#x2db;" 
d="M159 -240q-20 0 -42.5 4t-41.5 14.5t-31 29t-12 46.5q0 24 11 45t28 39t38.5 33.5t41.5 28.5h137q-64 -45 -88.5 -69.5t-24.5 -42.5q0 -20 23 -20q26 0 56 18l44 -83q-28 -18 -64.5 -30.5t-74.5 -12.5z" />
    <glyph glyph-name="tilde" unicode="&#x2dc;" 
d="M367 720q-2 -30 -10 -55t-22.5 -44t-35 -29.5t-46.5 -10.5q-21 0 -40.5 6t-40.5 17q-24 13 -36 17.5t-27 4.5q-16 0 -25 -10.5t-12 -25.5h-80q3 57 32 96.5t81 39.5q23 0 42 -6.5t41 -17.5q23 -12 36 -17t29 -5t23.5 10t11.5 30h79v0z" />
    <glyph glyph-name="hungarumlaut" unicode="&#x2dd;" 
d="M-55 584l111 144h212l-154 -144h-169zM188 584l111 144h212l-154 -144h-169z" />
    <glyph glyph-name="uni0394" unicode="&#x394;" horiz-adv-x="735" 
d="M10 0q66 179 133 354t133 354h165q72 -179 142 -354t142 -354h-715zM432 189q-19 58 -38 115t-39 115q-18 -58 -36 -115t-36 -115h149z" />
    <glyph glyph-name="uni03A9" unicode="&#x3a9;" horiz-adv-x="783" 
d="M419 0v279q51 12 72 48t21 86q0 52 -34 86t-87 34q-26 0 -48 -9t-39 -25.5t-26.5 -38.5t-9.5 -48q0 -49 21 -85t74 -48v-279h-313v181h142v11q-32 10 -58.5 31.5t-45 52t-28.5 68.5t-10 82q0 72 27.5 127.5t74 92.5t108.5 56t131 19q70 0 132 -19t108.5 -56t74 -92
t27.5 -127q0 -44 -10.5 -82.5t-29 -69t-44.5 -52t-57 -31.5v-11h141v-181h-314z" />
    <glyph glyph-name="uni03BC" unicode="&#x3bc;" horiz-adv-x="758" 
d="M314 526v-263q0 -14 3.5 -32.5t11 -35t20 -28t31.5 -11.5q41 0 56.5 29t15.5 71v270h234v-526h-226v37q-14 -17 -34 -28t-51 -11q-37 0 -61 16v-238h-234v750h234z" />
    <glyph glyph-name="pi" unicode="&#x3c0;" horiz-adv-x="739" 
d="M686 23q-23 -17 -55.5 -26t-61.5 -9q-81 0 -124.5 34.5t-43.5 115.5v202h-84v-340h-223v340h-53v186h644v-186h-67v-150q0 -11 7.5 -19.5t21.5 -8.5q10 0 17.5 3t21.5 11v-153v0z" />
    <glyph glyph-name="endash" unicode="&#x2013;" horiz-adv-x="400" 
d="M30 345h340v-120h-340v120z" />
    <glyph glyph-name="emdash" unicode="&#x2014;" horiz-adv-x="600" 
d="M30 345h540v-120h-540v120z" />
    <glyph glyph-name="quoteleft" unicode="&#x2018;" horiz-adv-x="342" 
d="M42 426l99 282h164l-74 -282h-189z" />
    <glyph glyph-name="quoteright" unicode="&#x2019;" horiz-adv-x="342" 
d="M300 708l-99 -282h-164l74 282h189z" />
    <glyph glyph-name="quotesinglbase" unicode="&#x201a;" horiz-adv-x="342" 
d="M300 156l-99 -282h-164l74 282h189z" />
    <glyph glyph-name="quotedblleft" unicode="&#x201c;" horiz-adv-x="568" 
d="M273 426l94 282h164l-74 -282h-184zM42 426l99 282h164l-79 -282h-184z" />
    <glyph glyph-name="quotedblright" unicode="&#x201d;" horiz-adv-x="568" 
d="M295 708l-94 -282h-164l74 282h184zM526 708l-99 -282h-164l79 282h184z" />
    <glyph glyph-name="quotedblbase" unicode="&#x201e;" horiz-adv-x="568" 
d="M295 156l-94 -282h-164l74 282h184zM526 156l-99 -282h-164l79 282h184z" />
    <glyph glyph-name="dagger" unicode="&#x2020;" horiz-adv-x="619" 
d="M399 -133h-184v474h-181v170h180v197h184v-197h187v-170h-186v-474z" />
    <glyph glyph-name="daggerdbl" unicode="&#x2021;" horiz-adv-x="619" 
d="M401 -133h-183v169h-184v164h184v175h-184v164h183v169h183v-169h185v-164h-185v-175h185v-164h-184v-169z" />
    <glyph glyph-name="bullet" unicode="&#x2022;" horiz-adv-x="500" 
d="M73 354q0 37 14 69t38 56t56 38t69 14t69 -14t56 -38t38 -56t14 -69t-14 -69t-38 -56t-56 -38t-69 -14t-69 14t-56 38t-38 56t-14 69z" />
    <glyph glyph-name="ellipsis" unicode="&#x2026;" horiz-adv-x="1000" 
d="M34 113q0 27 10.5 50.5t29 41t43 28t51.5 10.5q26 0 49.5 -10.5t41.5 -28t28.5 -41t10.5 -50.5t-10.5 -51t-28.5 -41t-41.5 -27t-49.5 -10q-27 0 -51.5 10t-43 27t-29 41t-10.5 51zM366 113q0 27 10.5 50.5t29 41t43 28t51.5 10.5q26 0 49.5 -10.5t41.5 -28t28.5 -41
t10.5 -50.5t-10.5 -51t-28.5 -41t-41.5 -27t-49.5 -10q-27 0 -51.5 10t-43 27t-29 41t-10.5 51zM699 113q0 27 10.5 50.5t29 41t43 28t51.5 10.5q26 0 49.5 -10.5t41.5 -28t28.5 -41t10.5 -50.5t-10.5 -51t-28.5 -41t-41.5 -27t-49.5 -10q-27 0 -51.5 10t-43 27t-29 41
t-10.5 51z" />
    <glyph glyph-name="perthousand" unicode="&#x2030;" horiz-adv-x="1264" 
d="M212 357q-38 0 -71.5 14t-59 39t-40 57.5t-14.5 70.5t14.5 71.5t40 58t59 38.5t71.5 14t71.5 -14t58.5 -38.5t39.5 -58t14.5 -71.5t-14.5 -70.5t-39.5 -57.5t-58.5 -39t-71.5 -14zM212 594q-23 0 -39.5 -16.5t-16.5 -39.5t16.5 -38.5t39.5 -15.5q22 0 38.5 15.5
t16.5 38.5t-16.5 39.5t-38.5 16.5zM651 -12q-38 0 -71.5 14t-59 39t-40 57.5t-14.5 70.5t14.5 71.5t40 58t59 38.5t71.5 14t71.5 -14t58.5 -38.5t39.5 -58t14.5 -71.5t-14.5 -70.5t-39.5 -57.5t-58.5 -39t-71.5 -14zM651 225q-23 0 -39.5 -16.5t-16.5 -39.5t16.5 -38.5
t39.5 -15.5q22 0 38.5 15.5t16.5 38.5t-16.5 39.5t-38.5 16.5zM1053 -12q-38 0 -71.5 14t-59 39t-40 57.5t-14.5 70.5t14.5 71.5t40 58t59 38.5t71.5 14t71.5 -14t58.5 -38.5t39.5 -58t14.5 -71.5t-14.5 -70.5t-39.5 -57.5t-58.5 -39t-71.5 -14zM1053 225q-23 0 -39.5 -16.5
t-16.5 -39.5t16.5 -38.5t39.5 -15.5q22 0 38.5 15.5t16.5 38.5t-16.5 39.5t-38.5 16.5zM208 13l346 726l99 -45l-346 -721z" />
    <glyph glyph-name="guilsinglleft" unicode="&#x2039;" horiz-adv-x="350" 
d="M17 274l176 248l129 -83l-115 -165l115 -165l-129 -83z" />
    <glyph glyph-name="guilsinglright" unicode="&#x203a;" horiz-adv-x="350" 
d="M28 109l115 165l-115 165l130 83l175 -248l-175 -248z" />
    <glyph glyph-name="fraction" unicode="&#x2044;" horiz-adv-x="100" 
d="M-163 13l346 726l99 -45l-346 -721z" />
    <glyph glyph-name="Euro" unicode="&#x20ac;" horiz-adv-x="700" 
d="M119 335q-1 7 -1 12v10v8t1 11h-87l47 131h58q19 55 53.5 96t81.5 69t104 42t120 14q18 0 40.5 -1.5t45.5 -4.5t44 -7.5t37 -10.5l-66 -167q-20 7 -50 12t-56 5q-18 0 -36 -3t-34.5 -9t-29.5 -14.5t-20 -20.5h232l-46 -131h-227q-1 -7 -1 -11v-8v-10t1 -12h217l-43 -129
h-145q13 -22 48.5 -34.5t73.5 -12.5q35 0 68.5 7.5t53.5 19.5l30 -173q-26 -14 -70.5 -23.5t-104.5 -9.5q-62 0 -114.5 16t-94 45t-70.5 71t-44 94h-105l42 129h47v0z" />
    <glyph glyph-name="afii61289" unicode="&#x2113;" horiz-adv-x="500" 
d="M465 56q-43 -35 -86.5 -52.5t-94.5 -17.5q-42 0 -74.5 12t-54.5 32t-33 47.5t-11 59.5v25l-54 -45h-2l-54 84l109 86v233q0 42 14 78.5t39.5 64t61 43t77.5 15.5q37 0 66.5 -11.5t50.5 -31.5t32 -49t11 -63q0 -77 -48 -149.5t-148 -153.5v-101q0 -35 18 -49t39 -14
q36 0 88 37h2zM336 557q0 25 -9 43.5t-26 18.5q-15 0 -25 -19.5t-10 -49.5v-157q39 40 54.5 81t15.5 83z" />
    <glyph glyph-name="trademark" unicode="&#x2122;" horiz-adv-x="1000" 
d="M152 605h-112v103h346v-103h-112v-309h-122v309zM446 708h164l89 -248l83 248h163v-412h-112v245h-2l-92 -245h-91l-89 245h-2v-245h-111v412z" />
    <glyph glyph-name="Omega" unicode="&#x2126;" horiz-adv-x="783" 
d="M419 0v279q51 12 72 48t21 86q0 52 -34 86t-87 34q-26 0 -48 -9t-39 -25.5t-26.5 -38.5t-9.5 -48q0 -49 21 -85t74 -48v-279h-313v181h142v11q-32 10 -58.5 31.5t-45 52t-28.5 68.5t-10 82q0 72 27.5 127.5t74 92.5t108.5 56t131 19q70 0 132 -19t108.5 -56t74 -92
t27.5 -127q0 -44 -10.5 -82.5t-29 -69t-44.5 -52t-57 -31.5v-11h141v-181h-314z" />
    <glyph glyph-name="estimated" unicode="&#x212e;" horiz-adv-x="800" 
d="M595 402v193q-82 79 -194 79t-191 -79v-193h385zM210 355v-240q76 -78 192 -78q83 0 144 37.5t112 121.5l46 -28q-30 -48 -61.5 -82t-67.5 -55.5t-78.5 -32t-94.5 -10.5q-78 0 -141 28.5t-108 78.5t-69 116.5t-24 143.5t24 143.5t69 116t108 77.5t141 28q76 0 139.5 -27
t108.5 -75.5t70 -115.5t25 -147h-535z" />
    <glyph glyph-name="partialdiff" unicode="&#x2202;" horiz-adv-x="776" 
d="M664 360q0 -36 -4.5 -78t-16 -83.5t-32 -79.5t-53 -67.5t-78 -47t-107.5 -17.5q-59 0 -109.5 17t-87.5 49.5t-57.5 78.5t-20.5 104q0 49 16.5 92t49 74.5t81.5 50t114 18.5q21 0 44.5 -4.5t42.5 -12.5q-4 32 -27 55.5t-76 23.5q-31 0 -71 -13.5t-84 -49.5
q-24 38 -47.5 77t-47.5 77q57 50 125.5 73.5t137.5 23.5q90 0 149 -34t94.5 -86.5t50 -116.5t14.5 -124zM456 305q-15 9 -33.5 12.5t-33.5 3.5q-35 0 -55 -19t-20 -56q0 -21 6.5 -35.5t16.5 -24t20.5 -13.5t19.5 -4q45 0 61 34t18 100v2z" />
    <glyph glyph-name="Delta" unicode="&#x2206;" horiz-adv-x="735" 
d="M10 0q66 179 133 354t133 354h165q72 -179 142 -354t142 -354h-715zM432 189q-19 58 -38 115t-39 115q-18 -58 -36 -115t-36 -115h149z" />
    <glyph glyph-name="product" unicode="&#x220f;" horiz-adv-x="765" 
d="M521 -214v837h-277v-837h-188v1000h655v-1000h-190z" />
    <glyph glyph-name="summation" unicode="&#x2211;" horiz-adv-x="684" 
d="M27 -214v133q70 94 140.5 186.5t140.5 186.5q-67 91 -135 180.5t-135 180.5v133h615v-163h-382q59 -83 118.5 -165t118.5 -165q-63 -87 -126.5 -172t-126.5 -172h409v-163h-637z" />
    <glyph glyph-name="minus" unicode="&#x2212;" horiz-adv-x="666" 
d="M592 376v-144h-518v144h518z" />
    <glyph glyph-name="uni2215" unicode="&#x2215;" horiz-adv-x="100" 
d="M-163 13l346 726l99 -45l-346 -721z" />
    <glyph glyph-name="uni2219" unicode="&#x2219;" 
d="M48 289q0 27 10.5 50.5t29 41t43 28t51.5 10.5q26 0 49.5 -10.5t41.5 -28t28.5 -41t10.5 -50.5t-10.5 -51t-28.5 -41t-41.5 -27t-49.5 -10q-27 0 -51.5 10t-43 27t-29 41t-10.5 51z" />
    <glyph glyph-name="radical" unicode="&#x221a;" horiz-adv-x="601" 
d="M609 786q-54 -251 -108.5 -500t-108.5 -500h-146q-34 71 -69 141.5t-69 141.5q-13 -6 -25.5 -11.5t-25.5 -11.5q-17 35 -33.5 69t-33.5 69q51 22 101 45t101 45q23 -52 47.5 -102.5t47.5 -102.5q38 181 74 358.5t74 358.5h174v0z" />
    <glyph glyph-name="infinity" unicode="&#x221e;" horiz-adv-x="859" 
d="M814 269q0 -41 -13 -77.5t-38 -63.5t-62 -43t-84 -16q-61 0 -106.5 28t-80.5 66q-18 -19 -37 -36t-41 -29.5t-48.5 -20t-57.5 -7.5q-46 0 -83 15t-63.5 42t-40.5 63t-14 78q0 40 13.5 76t38.5 62t61.5 41.5t83.5 15.5q33 0 60 -8t49.5 -22t42 -32t36.5 -37q17 20 36.5 38
t42.5 32t50 22t59 8q46 0 82.5 -15.5t62 -41.5t38.5 -62t13 -76zM668 266q0 26 -14.5 41t-39.5 15q-26 0 -50 -18.5t-43 -38.5q20 -22 44.5 -38t51.5 -16q23 0 37 15.5t14 39.5zM338 265q-22 20 -47.5 38t-48.5 18q-22 0 -36.5 -16t-14.5 -39q0 -25 14.5 -39.5t39.5 -14.5
t48.5 16t44.5 37z" />
    <glyph glyph-name="integral" unicode="&#x222b;" horiz-adv-x="655" 
d="M552 683q0 -33 -22 -57.5t-58 -24.5q-15 0 -26 5t-19 12.5t-13.5 15.5t-11.5 14q-4 -9 -5.5 -21.5t-1.5 -24.5q0 -10 0.5 -18.5t0.5 -15.5v20.5t-1 20.5v-17q0 -17 0.5 -34t0.5 -34v-409q0 -26 -0.5 -54t-3.5 -54q-3 -41 -12.5 -80.5t-30.5 -70.5t-56 -50t-89 -19
q-20 0 -44 6t-44.5 18.5t-34.5 33t-14 50.5q0 19 10 36q11 18 29.5 28.5t41.5 10.5q15 0 25 -5t17 -11.5t12.5 -14t11.5 -12.5q4 11 5.5 24t1.5 24q1 5 1 10v10q0 10 -0.5 19.5t-0.5 18.5v486q0 46 7.5 93t28.5 85.5t59 62.5t100 24q17 0 40.5 -5t44.5 -16.5t36 -31
t15 -48.5z" />
    <glyph glyph-name="approxequal" unicode="&#x2248;" horiz-adv-x="666" 
d="M619 485q-5 -59 -21 -99.5t-40 -65.5t-53 -36t-59 -11t-61.5 9t-62.5 20.5t-60.5 20.5t-54.5 9q-14 0 -23.5 -11.5t-14.5 -29.5h-121q3 37 14 71.5t32 61.5t53.5 43.5t78.5 16.5q30 0 59 -8t58 -18t57.5 -18t57.5 -8q16 0 25.5 11t12.5 42h123zM619 251q-4 -32 -14 -66.5
t-29.5 -63.5t-50.5 -47.5t-76 -18.5q-31 0 -64 9.5t-64.5 21t-60.5 21t-53 9.5q-14 0 -24.5 -13t-15.5 -43h-121q3 37 14 74.5t31 67.5t51 49t74 19q31 0 61.5 -9t60.5 -19.5t60.5 -19t61.5 -8.5q24 0 36 37h123z" />
    <glyph glyph-name="notequal" unicode="&#x2260;" horiz-adv-x="666" 
d="M315 58l-74 -148q-35 17 -71 33.5t-71 33.5q11 20 22 40.5t22 40.5h-74v152h153q11 23 24 45t24 45h-201v152h280q20 36 39 73.5t39 73.5q35 -16 70 -33t70 -33q-11 -20 -21.5 -40.5t-21.5 -40.5h73v-152h-152q-11 -23 -24 -45t-24 -45h200v-152h-282z" />
    <glyph glyph-name="lessequal" unicode="&#x2264;" horiz-adv-x="666" 
d="M78 7v139h510v-139h-510zM588 163q-128 51 -255 101.5t-255 101.5v134q128 51 255 101.5t255 101.5v-162q-69 -29 -137 -55.5t-137 -55.5q69 -26 137 -51.5t137 -51.5v-164z" />
    <glyph glyph-name="greaterequal" unicode="&#x2265;" horiz-adv-x="666" 
d="M78 7v139h510v-139h-510zM78 163v164q69 26 137 51.5t137 51.5q-69 29 -137 55.5t-137 55.5v162q128 -51 255 -101.5t255 -101.5v-134q-128 -51 -255 -101.5t-255 -101.5z" />
    <glyph glyph-name="lozenge" unicode="&#x25ca;" horiz-adv-x="619" 
d="M568 356q-48 -98 -95 -195.5t-95 -195.5h-140q-46 98 -92.5 195.5t-92.5 195.5q48 98 93.5 195.5t93.5 195.5h138q48 -98 95 -195.5t95 -195.5zM395 356q-21 49 -43.5 98.5t-43.5 98.5q-22 -49 -42 -98.5t-42 -98.5q22 -49 42 -98t42 -98q21 49 43.5 98t43.5 98z" />
    <glyph glyph-name="dotlessj" unicode="&#xf6be;" horiz-adv-x="346" 
d="M292 12q0 -51 -10.5 -96.5t-37.5 -80t-73 -55t-116 -20.5q-20 0 -48 3t-48 9l12 188q11 -3 20.5 -4t16.5 -1q26 0 39.5 14.5t13.5 49.5v507h231v-514v0z" />
    <glyph glyph-name="commaaccent" unicode="&#xf6c3;" 
d="M290 -45l-93 -195h-164l68 195h189z" />
    <glyph glyph-name="uniF8FF" unicode="&#xf8ff;" horiz-adv-x="512" 
d="M222 117v67h56v-67h-56zM225 234l-2 17q0 56 13 81q7 13 18 27.5t28 31.5q16 15 26 26.5t15 21t7 18t2 17.5q0 36 -22.5 60.5t-53.5 24.5t-53.5 -22t-28.5 -73l-50 8q7 72 44 104.5t91 32.5t89 -35.5t35 -95.5q0 -32 -12.5 -58.5t-50.5 -61.5q-37 -33 -43 -52
q-6 -20 -6 -72h-46zM462 50v617h-412v-617h412zM512 718v-718h-512v718h512z" />
    <glyph glyph-name="fi" unicode="&#xfb01;" horiz-adv-x="756" 
d="M471 526h231v-526h-231v526zM467 678q0 24 9.5 45.5t26 37.5t38.5 25.5t47 9.5q24 0 45 -9.5t37.5 -25.5t26 -37.5t9.5 -45.5q0 -25 -9.5 -46.5t-26 -37t-37.5 -24.5t-45 -9q-25 0 -47 9t-38.5 24.5t-26 37t-9.5 46.5zM426 598q-9 4 -21 6.5t-24 2.5q-34 0 -47.5 -21
t-13.5 -53v-7h111v-165h-111v-361h-230v361h-90v165h90v12q0 49 11.5 94t39.5 79.5t75.5 54.5t119.5 20q23 0 53.5 -3.5t51.5 -11.5z" />
    <glyph glyph-name="fl" unicode="&#xfb02;" horiz-adv-x="759" 
d="M470 756h236v-756h-236v756zM426 598q-9 4 -21 6.5t-24 2.5q-34 0 -47.5 -21t-13.5 -53v-7h111v-165h-111v-361h-230v361h-90v165h90v12q0 49 11.5 94t39.5 79.5t75.5 54.5t119.5 20q23 0 53.5 -3.5t51.5 -11.5z" />
    </font>
</defs>
</svg>
