<?xml version="1.0" standalone="no"?>
<!DOCTYPE svg PUBLIC "-//W3C//DTD SVG 1.1//EN" "http://www.w3.org/Graphics/SVG/1.1/DTD/svg11.dtd" >
<svg xmlns="http://www.w3.org/2000/svg">
<metadata>
This is a custom SVG webfont generated by Font Squirrel.
Copyright   : cThe digitally encoded machine readable outline data for producing the typefaces licensed to you is copyrighted C 2002 by The Foundry London All Rights Reserved
</metadata>
<defs>
<font id="FoundrySterlingExtraBold" horiz-adv-x="1353" >
<font-face units-per-em="2048" ascent="1516" descent="-532" />
<missing-glyph horiz-adv-x="485" />
<glyph unicode=" "  horiz-adv-x="485" />
<glyph unicode="&#x09;" horiz-adv-x="485" />
<glyph unicode="&#xa0;" horiz-adv-x="485" />
<glyph unicode="!" horiz-adv-x="837" d="M229 174q0 78 56.5 133t134.5 55t133 -55t55 -133t-55 -134t-133 -56t-134.5 56t-56.5 134zM238 1366h366l-49 -922h-268z" />
<glyph unicode="&#x22;" horiz-adv-x="909" d="M88 1366h338l-45 -535h-248zM483 1366h338l-45 -535h-248z" />
<glyph unicode="#" horiz-adv-x="1269" d="M145 502l27 203h184l21 157h-184l28 203h185l43 301h190l-43 -301h166l43 301h190l-43 -301h174l-28 -203h-172l-23 -157h176l-28 -203h-174l-48 -336h-190l47 336h-170l-47 -336h-190l47 336h-181zM545 705h170l20 157h-168z" />
<glyph unicode="$" d="M147 133l146 215q2 0 15.5 -8t23.5 -14.5t30.5 -16.5t39 -17t45 -16.5t52 -14.5t57.5 -9t65 -4q207 0 206 147q0 47 -39 86q-23 23 -218 104t-275 156q-104 100 -105 242q0 88 37 161t95.5 118t115 70.5t109.5 37.5v234h217v-220q109 -8 203 -39.5t133 -56t61 -45.5 l-147 -207q-154 94 -295 94q-86 0 -135 -31.5t-49 -88.5q0 -43 40 -80q27 -25 119 -63t201 -90t174 -115q104 -98 105 -246q0 -182 -121 -292t-289 -134v-228h-217v222q-139 10 -246 58t-154 91z" />
<glyph unicode="%" horiz-adv-x="1638" d="M92 1047q0 158 85 259t226 101q147 0 234.5 -102.5t87.5 -264.5q0 -166 -85 -267t-234 -101q-147 0 -230.5 102.5t-83.5 272.5zM264 12l926 1430l160 -105l-926 -1433zM279 1044q0 -109 34.5 -162t89.5 -53q135 0 136 205q0 109 -36 163t-93.5 54t-94 -52.5t-36.5 -154.5 zM913 344q0 158 85 259.5t227 101.5q147 0 234 -102.5t87 -264.5q0 -166 -85 -267.5t-234 -101.5q-147 0 -230.5 102.5t-83.5 272.5zM1100 342q0 -109 34.5 -162t90.5 -53q135 0 135 205q0 109 -36 163t-93 54t-94 -52.5t-37 -154.5z" />
<glyph unicode="&#x26;" horiz-adv-x="1460" d="M88 410q0 119 75 220t189 148q-127 150 -127 260q0 156 127 255.5t307 99.5q197 0 308 -111q84 -84 84 -213q0 -63 -21.5 -116.5t-44 -84t-74 -66.5t-71.5 -46l-78 -39l231 -244q27 37 50.5 123t23.5 143h262q-4 -106 -33.5 -209.5t-56.5 -152.5t-49 -80q61 -51 160 -64 v-235q-51 -8 -84 -8q-164 0 -269 108q-166 -125 -405 -125q-215 0 -359.5 125.5t-144.5 311.5zM389 416q0 -82 63.5 -141.5t170.5 -59.5q137 0 198 61l-311 328q-121 -77 -121 -188zM530 1047q0 -51 78 -150q88 45 126 82t38 88q0 37 -27.5 62.5t-80.5 25.5 q-63 0 -98.5 -31.5t-35.5 -76.5z" />
<glyph unicode="'" horiz-adv-x="514" d="M88 1366h338l-45 -535h-248z" />
<glyph unicode="(" horiz-adv-x="958" d="M129 604q0 182 56.5 340t131 253t164.5 169t142.5 101.5t78.5 35.5l152 -209q-25 -14 -56.5 -35.5t-95 -84t-110.5 -134t-85 -186.5t-38 -242q0 -125 37 -237.5t84 -185t108.5 -135t94 -86t57.5 -40.5l4 -2l-152 -209q-12 4 -32.5 13.5t-80 45.5t-113.5 79t-120.5 118.5 t-113.5 161.5t-80 209t-33 260z" />
<glyph unicode=")" horiz-adv-x="958" d="M104 -74q84 59 107 80q276 248 278 606q0 127 -37.5 242t-85 186.5t-110.5 134t-95 84t-57 35.5l152 209q27 -8 79 -35.5t142 -101.5t165 -169t131 -253t56 -340q0 -469 -350 -751q-119 -96 -223 -136z" />
<glyph unicode="*" horiz-adv-x="874" d="M96 1032l62 187l178 -54v201h203v-201l180 54l59 -187l-186 -61l143 -185l-157 -112l-140 164l-141 -164l-156 112l142 185z" />
<glyph unicode="+" horiz-adv-x="1355" d="M111 414v262h432v436h270v-436h432v-262h-432v-434h-270v434h-432z" />
<glyph unicode="," horiz-adv-x="657" d="M90 -139q31 27 63.5 63.5t74.5 124.5t42 178q0 27 -4 88h312q2 -10 2 -51q0 -100 -34 -195.5t-72 -151.5t-97.5 -113.5t-77.5 -70t-45 -30.5z" />
<glyph unicode="-" horiz-adv-x="1019" d="M143 414v262h734v-262h-734z" />
<glyph unicode="." horiz-adv-x="620" d="M121 174q0 78 56 133t134 55t133.5 -55t55.5 -133t-55.5 -134t-133.5 -56t-134 56t-56 134z" />
<glyph unicode="/" horiz-adv-x="1075" d="M80 -260l629 1706l229 -80l-631 -1706z" />
<glyph unicode="0" d="M88 684q0 319 162 518t428 199t427 -197.5t161 -513.5q0 -332 -159 -528.5t-433 -196.5q-268 0 -427 196.5t-159 522.5zM420 682q0 -217 66.5 -330.5t185.5 -113.5q121 0 191.5 113.5t70.5 330.5q0 219 -68.5 333.5t-185.5 114.5q-119 0 -189.5 -116.5t-70.5 -331.5z" />
<glyph unicode="1" d="M180 1014l525 352h260v-1366h-332v989l-303 -196z" />
<glyph unicode="2" d="M162 1171q18 23 51 51.5t97.5 73.5t159.5 75t200 30q205 0 346 -122t141 -304q0 -111 -63.5 -216.5t-196.5 -240.5q-72 -72 -266 -246h551v-272h-983v242q305 256 436 389q201 201 201 321q0 74 -57.5 124t-137.5 50q-143 0 -313 -147z" />
<glyph unicode="3" d="M168 111l135 198q147 -94 287 -94q127 0 191.5 52t64.5 136q0 72 -39 115q-57 59 -258 60h-55v241h14q72 0 102.5 1t85 18.5t88.5 52.5q37 37 37 98q0 68 -59.5 114t-151.5 46q-141 0 -278 -102l-142 172q82 94 211 138t267 44q197 0 326.5 -108.5t129.5 -276.5 q0 -127 -65.5 -209t-155.5 -96q133 -18 197.5 -105.5t64.5 -199.5q0 -199 -141 -320t-403 -121q-121 0 -228.5 32t-152.5 59.5t-72 54.5z" />
<glyph unicode="4" d="M115 242v225l655 899h332v-864h203v-260h-203v-242h-314v242h-673zM461 502h327v483z" />
<glyph unicode="5" d="M154 115l149 202q121 -84 270 -84q121 0 195 57.5t74 162.5q0 94 -64.5 160.5t-189.5 66.5t-215 -74l-107 66v694h840v-268h-535v-209q51 35 150 35q197 0 322.5 -128t125.5 -313q0 -229 -156.5 -373.5t-422.5 -144.5q-123 0 -229.5 35t-146.5 63.5t-60 51.5z" />
<glyph unicode="6" d="M127 659q0 336 166 539t455 203q129 0 239.5 -34t149.5 -59.5t59 -45.5l-133 -197q-147 90 -291 90q-162 0 -254 -90t-106 -268q35 49 122 100t209 51q211 0 345.5 -133t134.5 -340q0 -223 -147.5 -364.5t-383.5 -141.5q-260 0 -412.5 187.5t-152.5 502.5zM473 467 q0 -102 64.5 -165.5t164.5 -63.5q98 0 160 63.5t62 165.5q0 98 -62.5 158.5t-159.5 60.5q-102 0 -165.5 -61.5t-63.5 -157.5z" />
<glyph unicode="7" d="M154 1094v272h1050v-254l-522 -1112h-354l524 1094h-698z" />
<glyph unicode="8" d="M131 395q0 111 60.5 200t166.5 120q-90 31 -136 108.5t-46 173.5q0 182 137.5 291t360.5 109q225 0 364.5 -108.5t139.5 -289.5q0 -104 -49.5 -180t-133.5 -104q109 -35 167.5 -120t58.5 -202q0 -199 -148.5 -312.5t-394.5 -113.5q-248 0 -397.5 114.5t-149.5 313.5z M434 408q0 -86 61.5 -138.5t184.5 -52.5q117 0 178.5 50t61.5 139q0 80 -64.5 130t-177.5 50q-119 0 -181.5 -51t-62.5 -127zM473 991q0 -72 55.5 -118t153.5 -46q94 0 146.5 46.5t52.5 115.5q0 76 -51.5 119t-153.5 43q-96 0 -149.5 -46t-53.5 -114z" />
<glyph unicode="9" d="M125 895q0 223 147.5 364.5t382.5 141.5q260 0 413 -187.5t153 -502.5q0 -336 -166 -539t-455 -203q-129 0 -239.5 34t-149.5 59.5t-59 46.5l133 196q147 -90 290 -90q162 0 254.5 90t106.5 268q-35 -49 -122 -100t-210 -51q-211 0 -345 133t-134 340zM424 903 q0 -98 60.5 -158.5t156.5 -60.5q102 0 167.5 61.5t65.5 157.5q0 102 -65.5 166t-167.5 64q-96 0 -156.5 -64t-60.5 -166z" />
<glyph unicode=":" horiz-adv-x="620" d="M121 174q0 78 56 133t134 55t133.5 -55t55.5 -133t-55.5 -134t-133.5 -56t-134 56t-56 134zM121 829.5q0 77.5 56 133t134 55.5t133.5 -55.5t55.5 -133t-55.5 -134t-133.5 -56.5t-134 56.5t-56 134z" />
<glyph unicode=";" horiz-adv-x="686" d="M76 -139q31 27 63.5 63.5t74.5 124.5t42 178q0 27 -4 88h311q2 -10 2 -51q0 -100 -33.5 -195.5t-71.5 -151.5t-97.5 -113.5t-78 -70t-44.5 -30.5zM186 829.5q0 77.5 56.5 133t134.5 55.5t133 -55.5t55 -133t-55 -134t-133 -56.5t-134.5 56.5t-56.5 134z" />
<glyph unicode="&#x3c;" horiz-adv-x="1355" d="M121 440v211l1012 453l104 -252l-690 -307l690 -316l-104 -239z" />
<glyph unicode="=" horiz-adv-x="1357" d="M94 217v262h1170v-262h-1170zM94 612v262h1170v-262h-1170z" />
<glyph unicode="&#x3e;" horiz-adv-x="1355" d="M121 229l690 316l-690 307l104 252l1012 -453v-211l-1012 -450z" />
<glyph unicode="?" horiz-adv-x="1132" d="M94 1225q31 25 73 53.5t166 75.5t240 47q213 0 344.5 -106.5t131.5 -284.5q0 -143 -97 -240q-49 -49 -155.5 -113.5t-114.5 -72.5q-12 -12 -18.5 -21.5t-11.5 -38t-5 -80.5h-282q-12 25 -13 97q0 127 68 194q31 31 125 88.5t131 94.5q39 39 39 92q0 57 -45 90t-131 33 q-152 0 -310 -113zM311 174q0 78 56.5 133t134.5 55t133 -55t55 -133t-55 -134t-133 -56t-134.5 56t-56.5 134z" />
<glyph unicode="@" horiz-adv-x="1685" d="M82 633q0 328 238.5 548t590.5 220q289 0 486.5 -159t197.5 -400q0 -225 -170 -366.5t-428 -141.5q-25 0 -67 6l14 76q-2 -2 -15.5 -11.5t-19.5 -14.5t-21.5 -14t-25.5 -14.5t-27.5 -12.5t-33 -11t-34.5 -7t-38 -3q-121 0 -194.5 80.5t-73.5 203.5q0 197 143.5 329 t356.5 132q61 0 126.5 -14.5t96 -27.5t39.5 -17l-99 -506q109 14 191 110q78 90 78 220q0 166 -132.5 271t-351.5 105q-270 0 -442 -164.5t-172 -420.5q0 -219 144.5 -347t383.5 -128q205 0 434 137l97 -148q-254 -176 -557 -176t-509 187.5t-206 478.5zM662 614 q0 -49 27.5 -79.5t68.5 -30.5q94 0 182 82l61 315q-6 0 -20 1t-20 1q-123 0 -211 -85t-88 -204z" />
<glyph unicode="A" horiz-adv-x="1400" d="M37 0l493 1366h336l498 -1366h-348l-78 250h-479l-80 -250h-342zM537 502h319l-162 512z" />
<glyph unicode="B" horiz-adv-x="1259" d="M135 0v1366h479q143 0 239.5 -22.5t166.5 -92.5q100 -98 100 -252q0 -86 -28.5 -149.5t-71.5 -93t-74 -43t-55 -17.5q35 -2 74 -16t88 -43t79.5 -88.5t30.5 -136.5q0 -176 -104 -277q-86 -86 -196.5 -110.5t-268.5 -24.5h-459zM453 266h163q123 0 168 45q43 43 43 113 q0 61 -39 100q-31 31 -69.5 40t-116.5 9h-149v-307zM453 809h116q51 0 84 4t69 18.5t54.5 47t18.5 84.5q0 88 -51.5 116.5t-135.5 28.5h-155v-299z" />
<glyph unicode="C" horiz-adv-x="1357" d="M88 666q0 336 207 535.5t530 199.5q133 0 245 -35t155 -64.5t71 -58.5l-143 -219q-129 92 -299 92q-186 0 -306 -122t-120 -310q0 -184 106.5 -307t288.5 -123q160 0 348 115l138 -224q-10 -10 -23.5 -21t-62.5 -43t-104.5 -54.5t-146.5 -42t-190 -19.5 q-307 0 -500.5 195t-193.5 506z" />
<glyph unicode="D" horiz-adv-x="1456" d="M135 0v1366h377q264 0 407.5 -31.5t266.5 -154.5q86 -86 134 -214t48 -270q0 -135 -47 -264t-135 -217q-76 -76 -166 -123t-201.5 -65.5t-186.5 -22.5t-206 -4h-291zM467 264h139q207 0 315.5 111.5t108.5 324.5q0 197 -104 301q-68 68 -144.5 86.5t-224.5 18.5h-90v-842 z" />
<glyph unicode="E" horiz-adv-x="1110" d="M135 0v1366h864v-268h-528v-273h496v-262h-496v-291h545v-272h-881z" />
<glyph unicode="F" horiz-adv-x="1087" d="M135 0v1366h854v-268h-518v-273h494v-262h-494v-563h-336z" />
<glyph unicode="G" horiz-adv-x="1445" d="M88 672q0 334 207 531.5t530 197.5q322 0 482 -160l-146 -217q-152 98 -319 98q-182 0 -298 -116.5t-116 -315.5q0 -217 118 -331.5t292 -114.5q100 0 182 24v197h-248v244h545v-594l-12 -9q-12 -10 -26.5 -19t-41.5 -23.5t-55.5 -27.5t-70.5 -26.5t-87 -23t-102.5 -15.5 t-118.5 -6q-317 0 -516 191.5t-199 515.5z" />
<glyph unicode="H" horiz-adv-x="1394" d="M135 0v1366h336v-522h453v522h336v-1366h-336v571h-453v-571h-336z" />
<glyph unicode="I" horiz-adv-x="606" d="M135 0v1366h336v-1366h-336z" />
<glyph unicode="J" horiz-adv-x="884" d="M14 61l113 226q98 -39 158 -39q70 0 100 35q23 25 31 58.5t8 125.5v899h336v-901q0 -92 -5 -146.5t-31 -125t-77 -121.5q-106 -106 -317 -107q-80 0 -157 22.5t-111 42t-48 31.5z" />
<glyph unicode="K" horiz-adv-x="1318" d="M135 0v1366h336v-635l428 635h358l-454 -661l479 -705h-397l-414 625v-625h-336z" />
<glyph unicode="L" horiz-adv-x="1099" d="M135 0v1366h340v-1094h514v-272h-854z" />
<glyph unicode="M" horiz-adv-x="1806" d="M96 0l133 1366h363l317 -940l297 940h363l141 -1366h-313l-80 909l-285 -909h-278l-299 911l-62 -911h-297z" />
<glyph unicode="N" horiz-adv-x="1392" d="M135 0v1366h295l531 -825l-7 825h303v-1366h-274l-551 836l8 -836h-305z" />
<glyph unicode="O" horiz-adv-x="1548" d="M88 702q0 309 188.5 504t493.5 195q311 0 500.5 -198.5t189.5 -506.5q0 -330 -191.5 -530.5t-490.5 -200.5q-311 0 -500.5 204.5t-189.5 532.5zM428 672q0 -201 99.5 -314.5t254.5 -113.5q102 0 173 44t105 117.5t47 144.5t13 148q0 188 -98 309t-260 121 q-152 0 -243 -125.5t-91 -330.5z" />
<glyph unicode="P" horiz-adv-x="1257" d="M135 0v1366h410q184 0 295.5 -24.5t193.5 -104.5q111 -111 111 -293q0 -203 -125 -321q-88 -88 -191.5 -116t-255.5 -28h-106v-479h-332zM467 745h96q154 0 199 46q47 47 47 137q0 88 -45 133q-43 43 -191 43h-106v-359z" />
<glyph unicode="Q" horiz-adv-x="1533" d="M88 702q0 309 188.5 504t493.5 195q311 0 500.5 -198.5t189.5 -506.5q0 -340 -200 -540q-55 -55 -118 -90t-93.5 -43.5t-92.5 -22.5q6 -8 23.5 -19.5t93.5 -30t178 -18.5q74 0 176 21l39 -201q-135 -37 -288 -37q-383 0 -586 275q-23 0 -71 16.5t-126 66.5t-143.5 122.5 t-114.5 206.5t-49 300zM428 672q0 -201 99.5 -314.5t254.5 -113.5q82 0 144.5 30.5t98.5 77.5t58.5 110.5t29.5 120t7 115.5q0 188 -98 309t-260 121q-152 0 -243 -125.5t-91 -330.5z" />
<glyph unicode="R" horiz-adv-x="1253" d="M135 0v1366h371h56h62q7 0 54 -2t60.5 -5t51 -9.5t56 -15.5t49.5 -21.5t53.5 -30.5t44.5 -41q113 -113 113 -268q0 -145 -91 -239.5t-265 -112.5q111 -6 182 -78q14 -14 28.5 -34t23.5 -34t24.5 -44t20.5 -40t21.5 -48t20.5 -44l135 -299h-356l-135 301q-61 139 -101 178 q-35 35 -129 35h-18v-514h-332zM467 766h96q41 0 70 4t69.5 19.5t62 54.5t21.5 100q0 76 -41 117q-47 47 -198 47h-80v-342z" />
<glyph unicode="S" horiz-adv-x="1148" d="M55 123l142 219q2 -2 17 -11t28.5 -16.5t37 -19.5t48 -20.5t54.5 -17.5t64.5 -13t69.5 -4q201 0 201 149q0 49 -39 88q-23 23 -212.5 107t-266.5 159q-100 96 -101 246q0 182 141.5 297t356.5 115q117 0 224.5 -34t151.5 -61.5t68 -50.5l-143 -211q-154 94 -287 95 q-82 0 -130 -32t-48 -91q0 -47 39 -82q25 -25 209 -107t270 -165q102 -98 103 -252q0 -199 -143.5 -322t-372.5 -123q-182 0 -306.5 53.5t-175.5 104.5z" />
<glyph unicode="T" horiz-adv-x="1169" d="M51 1098v268h1067v-268h-362v-1098h-340v1098h-365z" />
<glyph unicode="U" horiz-adv-x="1370" d="M125 596v770h338v-842q0 -145 61 -207q57 -57 166 -57q104 0 170 66q37 37 47.5 94t10.5 186v760h327v-809q0 -174 -29.5 -266t-105.5 -168q-164 -158 -428 -158t-424 160q-82 82 -107.5 190.5t-25.5 280.5z" />
<glyph unicode="V" horiz-adv-x="1347" d="M41 1366h338l297 -965l299 965h332l-478 -1366h-319z" />
<glyph unicode="W" horiz-adv-x="1961" d="M80 1366h326l180 -1004l245 1004h330l230 -1004l192 1004h299l-323 -1366h-359l-211 967l-233 -967h-359z" />
<glyph unicode="X" horiz-adv-x="1331" d="M57 0l445 705l-416 661h360l238 -422l248 422h336l-420 -655l426 -711h-356l-254 451l-261 -451h-346z" />
<glyph unicode="Y" horiz-adv-x="1306" d="M55 1366h340l269 -563l282 563h305l-442 -819v-547h-326v547z" />
<glyph unicode="Z" horiz-adv-x="1189" d="M88 0v236l608 862h-579v268h962v-248l-587 -846h610v-272h-1014z" />
<glyph unicode="[" horiz-adv-x="952" d="M199 -260v1626h598v-262h-275v-1102h275v-262h-598z" />
<glyph unicode="\" horiz-adv-x="1075" d="M137 1366l230 80l628 -1706l-227 -80z" />
<glyph unicode="]" horiz-adv-x="952" d="M156 2h274v1102h-274v262h598v-1626h-598v262z" />
<glyph unicode="^" horiz-adv-x="1349" d="M133 487l426 879h244l416 -879h-289l-246 543l-248 -543h-303z" />
<glyph unicode="_" horiz-adv-x="1093" d="M-6 2h1106v-262h-1106v262z" />
<glyph unicode="`" horiz-adv-x="755" d="M74 1321l127 235l481 -268l-102 -172z" />
<glyph unicode="a" horiz-adv-x="1071" d="M80 309q0 78 26.5 139.5t64.5 99.5t96.5 65.5t105.5 41t109.5 20.5t91 8t65.5 1h23q0 68 -25 92q-33 33 -121 33q-143 0 -283 -70l-98 195q23 16 57.5 35.5t133 47t206.5 27.5q233 0 353 -118q41 -41 60.5 -104.5t20.5 -98.5t1 -129v-594h-271v86q-133 -109 -286 -109 q-152 0 -241 92.5t-89 239.5zM350 334q0 -66 39 -94.5t88 -28.5q92 0 189 57v207q-225 0 -281 -55q-35 -35 -35 -86z" />
<glyph unicode="b" horiz-adv-x="1200" d="M119 55v1428h327v-500q127 63 240 64q182 0 308 -139.5t126 -372.5q0 -258 -150.5 -412t-416.5 -154q-219 0 -434 86zM446 248q47 -18 119 -19q100 0 166 78t66 225q0 125 -58.5 190.5t-148.5 65.5q-76 0 -144 -45v-495z" />
<glyph unicode="c" horiz-adv-x="1044" d="M80 504q0 231 158.5 387t390.5 156q102 0 191 -29t126 -55.5t49 -42.5l-129 -199q-82 61 -190 61q-119 0 -192.5 -76.5t-73.5 -195.5q0 -127 62.5 -202t184.5 -75q119 0 230 74l125 -205l-2 -2q-160 -131 -398 -131q-242 0 -387 153t-145 382z" />
<glyph unicode="d" horiz-adv-x="1208" d="M80 494q0 240 146.5 396.5t338.5 156.5q94 0 197 -43v479h328v-1483h-271v78q-106 -106 -280 -107q-209 0 -334 145t-125 378zM406 502q0 -125 60 -197t152 -72q23 0 44.5 4.5t38 10.5t26.5 11t21.5 12.5t13.5 9.5v462q-57 43 -139 43q-94 0 -155.5 -77.5t-61.5 -206.5z " />
<glyph unicode="e" horiz-adv-x="1128" d="M80 502q0 236 139 390.5t361 154.5q225 0 347 -146.5t122 -396.5q0 -25 -2.5 -54.5t-2.5 -39.5h-671q0 -72 64.5 -139.5t195.5 -67.5t260 71l96 -192q-10 -10 -57 -34.5t-140.5 -51.5t-185.5 -27q-137 0 -241.5 46t-165 125t-90 170.5t-29.5 191.5zM379 627h383 q0 23 -6 49t-21.5 63t-54.5 60.5t-94 23.5q-59 0 -103.5 -25.5t-65 -63.5t-28.5 -64.5t-10 -42.5z" />
<glyph unicode="f" horiz-adv-x="991" d="M86 760v256h180v20q0 115 18.5 195t39 111.5t53.5 64.5q109 109 315 109q84 0 161 -26t105.5 -44.5t40.5 -30.5l-118 -203q-78 45 -148 45q-47 0 -77.5 -16t-43 -48t-15.5 -59.5t-3 -72.5v-45h278v-256h-278v-760h-328v760h-180z" />
<glyph unicode="g" horiz-adv-x="1202" d="M80 500q0 231 153.5 389t403.5 158q231 0 446 -115v-907v-23q0 -78 -3 -120t-29.5 -105.5t-79.5 -116.5q-141 -141 -391 -141q-131 0 -248 36.5t-158 64.5t-68 50l130 203q16 -12 48.5 -29.5t108.5 -40t148 -22.5q115 0 168 51t53 156v78q-102 -68 -219 -68 q-227 0 -345 149.5t-118 352.5zM403 514q0 -121 60.5 -188.5t148.5 -67.5q18 0 36 2t32 6t27.5 9.5t22.5 10.5t16.5 9t11.5 8l4 2v455q-53 27 -131 26q-96 0 -162 -73.5t-66 -198.5z" />
<glyph unicode="h" horiz-adv-x="1159" d="M119 0v1483h327v-508q106 72 238 72q168 0 262 -95q41 -41 64.5 -87t33 -108.5t10.5 -94t1 -105.5v-557h-328v549q0 158 -35 192q-31 31 -90 31q-76 0 -156 -57v-715h-327z" />
<glyph unicode="i" horiz-adv-x="555" d="M104 1302.5q0 71.5 51.5 122t123 50.5t122 -50.5t50.5 -122t-50.5 -123t-122 -51.5t-123 51.5t-51.5 123zM113 0v1016h327v-1016h-327z" />
<glyph unicode="j" horiz-adv-x="555" d="M-203 -416l86 217q68 -25 113 -24q59 0 88 28q33 33 33 146v1065h327v-1032q0 -80 -3 -121t-28.5 -114t-78.5 -126q-104 -104 -283 -104q-148 -1 -254 65zM104 1302.5q0 71.5 51.5 122t123 50.5t122 -50.5t50.5 -122t-50.5 -123t-122 -51.5t-123 51.5t-51.5 123z" />
<glyph unicode="k" horiz-adv-x="1148" d="M119 0v1483h327v-824l312 357h379l-412 -453l416 -563h-379l-316 457v-457h-327z" />
<glyph unicode="l" horiz-adv-x="565" d="M119 0v1483h327v-1483h-327z" />
<glyph unicode="m" horiz-adv-x="1720" d="M119 0v1016h270v-74q16 16 43 35.5t89.5 44.5t127.5 25q154 0 254 -111q20 16 54 36.5t117 47.5t163 27q170 0 270 -101q18 -18 32.5 -38.5t25 -39t18.5 -48t13.5 -46t9.5 -53.5t6 -51.5t3 -58.5t1 -56v-61v-60v-434h-328v563v62q0 16 -6 52t-17.5 50t-34 27.5 t-56.5 13.5q-72 0 -152 -57q10 -41 10 -185v-526h-327v563q0 43 -1.5 61.5t-6.5 52.5t-16 49t-34.5 28.5t-58.5 13.5q-72 0 -142 -47v-721h-327z" />
<glyph unicode="n" horiz-adv-x="1159" d="M119 0v1016h270v-82q12 12 45 34.5t107.5 50.5t148.5 28q162 0 256 -95q41 -41 64.5 -87t33 -108.5t10.5 -94t1 -105.5v-557h-328v549q0 158 -35 192q-31 31 -90 31q-76 0 -156 -57v-715h-327z" />
<glyph unicode="o" horiz-adv-x="1230" d="M80 500q0 238 154.5 392.5t390.5 154.5q229 0 377.5 -149.5t148.5 -373.5q0 -244 -154.5 -399.5t-396.5 -155.5q-229 0 -374.5 150t-145.5 381zM408 512q0 -129 59 -204t158 -75q94 0 146 72t52 201q0 127 -56 202.5t-155 75.5q-94 0 -149 -72.5t-55 -199.5z" />
<glyph unicode="p" horiz-adv-x="1208" d="M119 -449v1465h270v-78q106 106 281 106q209 0 333.5 -144t124.5 -378q0 -240 -146 -396.5t-339 -156.5q-94 0 -197 43v-461h-327zM446 274q57 -43 140 -43q94 0 155.5 78t61.5 207q0 125 -60.5 196.5t-152.5 71.5q-23 0 -44.5 -4t-37.5 -10t-26.5 -11t-21.5 -12.5 t-14 -9.5v-463z" />
<glyph unicode="q" horiz-adv-x="1202" d="M80 487q0 238 152.5 399t404.5 161q231 0 446 -115v-1381h-327v488q-92 -70 -211 -70q-231 0 -348 151.5t-117 366.5zM403 502q0 -131 60.5 -202t148.5 -71q18 0 36 2t31 6.5t25.5 9.5t21.5 10t15.5 9t10.5 8l4 2v484q-53 27 -125 26q-96 0 -162 -74.5t-66 -209.5z" />
<glyph unicode="r" horiz-adv-x="878" d="M119 0v1016h270v-135q4 6 17.5 21.5t45 41t69.5 48t93.5 39t114.5 16.5q63 0 125 -31l-74 -246q-25 8 -61 8q-96 0 -167 -43t-106 -96v-639h-327z" />
<glyph unicode="s" horiz-adv-x="960" d="M66 78l102 205q160 -80 258 -80q63 0 93 26.5t30 61.5t-27 61q-20 20 -151 78.5t-187 114.5q-78 78 -78 174q0 143 116 235.5t304 92.5q90 0 171 -20.5t116 -39t53 -33.5l-100 -192q-111 70 -231 69q-115 0 -115 -77q0 -37 46 -66t111.5 -56.5t131 -63.5t111.5 -105.5 t46 -165.5q0 -131 -108.5 -229.5t-286.5 -98.5q-106 0 -206.5 25.5t-143.5 48.5t-55 35z" />
<glyph unicode="t" horiz-adv-x="942" d="M39 760v256h176v280h328v-280h276v-256h-276v-367q0 -35 3 -56.5t13 -48t36 -41t67 -14.5q63 0 120 23l82 -215q-6 -6 -36.5 -21.5t-99.5 -33t-140 -17.5q-182 0 -281 99q-63 63 -77.5 134.5t-14.5 213.5v344h-176z" />
<glyph unicode="u" horiz-adv-x="1159" d="M104 463v553h328v-547q0 -158 35 -193q31 -31 90 -30q63 0 156 57v713h327v-1016h-266v90q-12 -12 -44 -35.5t-107.5 -54.5t-147.5 -31q-164 0 -262 99q-41 41 -64.5 87t-33 108.5t-10.5 94t-1 105.5z" />
<glyph unicode="v" horiz-adv-x="1132" d="M25 1016h337l213 -654l209 654h316l-387 -1016h-307z" />
<glyph unicode="w" horiz-adv-x="1632" d="M27 1016h311l160 -656l168 656h276l168 -656l154 656h299l-273 -1016h-334l-165 627l-152 -627h-322z" />
<glyph unicode="x" horiz-adv-x="1222" d="M51 0l383 504l-366 512h368l193 -275l174 275h340l-350 -504l389 -512h-369l-207 309l-203 -309h-352z" />
<glyph unicode="y" horiz-adv-x="1249" d="M-2 -408l98 226q90 -39 162 -39q80 0 129 49q55 55 86 176l-430 1012h348l246 -678l233 678h324l-403 -1006q-78 -195 -118 -266.5t-85 -116.5q-109 -109 -314 -108q-74 0 -142.5 18.5t-95 32.5t-38.5 22z" />
<glyph unicode="z" horiz-adv-x="1134" d="M109 0v219l497 541h-471v256h856v-240l-473 -510h498v-266h-907z" />
<glyph unicode="{" horiz-adv-x="925" d="M109 483v211q70 12 89 40t19 122v94q0 117 15.5 185.5t66.5 120t136 78t136.5 29.5t137.5 3h108v-252q-186 -10 -227 -31q-14 -6 -23 -14q-20 -20 -24 -57t-4 -148q0 -270 -136 -272q135 0 136 -279v-63v-37q0 -61 1 -87t7 -51.5t20 -39.5q6 -6 14.5 -11.5t19.5 -8.5 t20.5 -6t26 -5t28.5 -4t32.5 -3t33 -2t38 -2t37.5 -1v-252h-108q-86 0 -146.5 5t-137.5 30.5t-126 74.5q-51 51 -66.5 120t-15.5 186v166q0 94 -19 121.5t-89 39.5z" />
<glyph unicode="|" horiz-adv-x="614" d="M141 -260v1626h332v-1626h-332z" />
<glyph unicode="}" horiz-adv-x="925" d="M109 -8q12 0 37.5 1t38 2t33 2t32.5 3t28.5 4t25.5 5t20.5 6t19.5 8.5t14 11.5q20 20 24.5 55t4.5 123v37v63q0 279 135 279q-135 2 -135 272q0 111 -4 148t-25 57q-35 35 -221 43q-18 2 -28 2v252h108q86 0 137.5 -3t136 -29.5t136 -78t67 -120t15.5 -185.5v-94 q0 -94 19.5 -121.5t88.5 -40.5v-211q-70 -12 -89 -39.5t-19 -121.5v-166q0 -117 -15.5 -185.5t-66.5 -120.5q-49 -49 -126 -74.5t-137.5 -30.5t-146.5 -5h-108v252z" />
<glyph unicode="~" d="M164 510q10 27 38.5 65.5t104.5 85t170 46.5q96 0 226.5 -58.5t179.5 -58.5q33 0 64.5 18.5t46 33.5t42.5 48l154 -121q-6 -14 -26.5 -40.5t-57.5 -63.5t-95.5 -62.5t-123.5 -25.5q-90 0 -226.5 58.5t-189.5 58.5q-82 0 -145 -95z" />
<glyph horiz-adv-x="1400" d="M37 0l493 1366h336l498 -1366h-348l-78 250h-479l-80 -250h-342zM317 1677.5q0 65.5 47.5 113.5t113 48t113.5 -48t48 -113.5t-48 -112.5t-113.5 -47t-113 47t-47.5 112.5zM537 502h319l-162 512zM748 1677.5q0 65.5 47 113.5t112.5 48t113.5 -48t48 -113.5t-48 -112.5 t-113.5 -47t-112.5 47t-47 112.5z" />
<glyph horiz-adv-x="1400" d="M37 0l493 1366h336l498 -1366h-348l-78 250h-479l-80 -250h-342zM467 1730.5q0 96.5 68.5 164t165 67.5t164 -67.5t67.5 -164t-67.5 -165t-164 -68.5t-165 68.5t-68.5 165zM537 502h319l-162 512zM604 1733q0 -39 27.5 -67t66.5 -28t67 28t28 67t-28 66.5t-67 27.5 t-66.5 -27.5t-27.5 -66.5z" />
<glyph horiz-adv-x="1357" d="M88 666q0 336 207 535.5t530 199.5q133 0 245 -35t155 -64.5t71 -58.5l-143 -219q-129 92 -299 92q-186 0 -306 -122t-120 -310q0 -184 106.5 -307t288.5 -123q160 0 348 115l138 -224q-10 -10 -23.5 -21t-62.5 -43t-104.5 -54.5t-146.5 -42t-190 -19.5l-8 -57q37 6 41 6 q86 0 141.5 -51t55.5 -135q0 -94 -66.5 -151.5t-154.5 -57.5q-59 0 -107.5 17.5t-67.5 35.5l48 96q47 -31 110 -30q55 0 79 26.5t24 59t-27 55t-66 22.5q-51 0 -86 -28l-67 39l24 163q-236 31 -401.5 213.5t-165.5 477.5z" />
<glyph horiz-adv-x="1110" d="M135 0v1366h864v-268h-528v-273h496v-262h-496v-291h545v-272h-881zM301 1671l481 268l127 -235l-506 -205z" />
<glyph horiz-adv-x="1392" d="M135 0v1366h295l531 -825l-7 825h303v-1366h-274l-551 836l8 -836h-305zM313 1622q139 174 271 174q47 0 116.5 -31.5t102.5 -31.5q12 0 23.5 2t22.5 8t18 9t20.5 13.5t17.5 13.5t18.5 17t16.5 14l131 -131q-147 -174 -270 -174q-51 0 -121 33t-100 33q-14 0 -28.5 -5 t-31 -16.5t-26 -17.5t-29 -22.5t-21.5 -18.5z" />
<glyph unicode="&#x85;" horiz-adv-x="1548" d="M88 702q0 309 188.5 504t493.5 195q311 0 500.5 -198.5t189.5 -506.5q0 -330 -191.5 -530.5t-490.5 -200.5q-311 0 -500.5 204.5t-189.5 532.5zM403 1677.5q0 65.5 47.5 113.5t113 48t113.5 -48t48 -113.5t-48 -112.5t-113.5 -47t-113 47t-47.5 112.5zM428 672 q0 -201 99.5 -314.5t254.5 -113.5q102 0 173 44t105 117.5t47 144.5t13 148q0 188 -98 309t-260 121q-152 0 -243 -125.5t-91 -330.5zM834 1677.5q0 65.5 47 113.5t112.5 48t113.5 -48t48 -113.5t-48 -112.5t-113.5 -47t-112.5 47t-47 112.5z" />
<glyph horiz-adv-x="1370" d="M125 596v770h338v-842q0 -145 61 -207q57 -57 166 -57q104 0 170 66q37 37 47.5 94t10.5 186v760h327v-809q0 -174 -29.5 -266t-105.5 -168q-164 -158 -428 -158t-424 160q-82 82 -107.5 190.5t-25.5 280.5zM307 1677.5q0 65.5 47 113.5t112.5 48t114 -48t48.5 -113.5 t-48.5 -112.5t-114 -47t-112.5 47t-47 112.5zM737 1677.5q0 65.5 47 113.5t113 48t114 -48t48 -113.5t-48 -112.5t-114 -47t-113 47t-47 112.5z" />
<glyph horiz-adv-x="1071" d="M80 309q0 78 26.5 139.5t64.5 99.5t96.5 65.5t105.5 41t109.5 20.5t91 8t65.5 1h23q0 68 -25 92q-33 33 -121 33q-143 0 -283 -70l-98 195q23 16 57.5 35.5t133 47t206.5 27.5q233 0 353 -118q41 -41 60.5 -104.5t20.5 -98.5t1 -129v-594h-271v86q-133 -109 -286 -109 q-152 0 -241 92.5t-89 239.5zM256 1288l481 268l127 -235l-506 -205zM350 334q0 -66 39 -94.5t88 -28.5q92 0 189 57v207q-225 0 -281 -55q-35 -35 -35 -86z" />
<glyph horiz-adv-x="1071" d="M80 309q0 78 26.5 139.5t64.5 99.5t96.5 65.5t105.5 41t109.5 20.5t91 8t65.5 1h23q0 68 -25 92q-33 33 -121 33q-143 0 -283 -70l-98 195q23 16 57.5 35.5t133 47t206.5 27.5q233 0 353 -118q41 -41 60.5 -104.5t20.5 -98.5t1 -129v-594h-271v86q-133 -109 -286 -109 q-152 0 -241 92.5t-89 239.5zM248 1321l127 235l481 -268l-102 -172zM350 334q0 -66 39 -94.5t88 -28.5q92 0 189 57v207q-225 0 -281 -55q-35 -35 -35 -86z" />
<glyph horiz-adv-x="1071" d="M80 309q0 78 26.5 139.5t64.5 99.5t96.5 65.5t105.5 41t109.5 20.5t91 8t65.5 1h23q0 68 -25 92q-33 33 -121 33q-143 0 -283 -70l-98 195q23 16 57.5 35.5t133 47t206.5 27.5q233 0 353 -118q41 -41 60.5 -104.5t20.5 -98.5t1 -129v-594h-271v86q-133 -109 -286 -109 q-152 0 -241 92.5t-89 239.5zM170 1282l371 277l374 -293l-110 -146l-264 148l-265 -146zM350 334q0 -66 39 -94.5t88 -28.5q92 0 189 57v207q-225 0 -281 -55q-35 -35 -35 -86z" />
<glyph horiz-adv-x="1071" d="M80 309q0 78 26.5 139.5t64.5 99.5t96.5 65.5t105.5 41t109.5 20.5t91 8t65.5 1h23q0 68 -25 92q-33 33 -121 33q-143 0 -283 -70l-98 195q23 16 57.5 35.5t133 47t206.5 27.5q233 0 353 -118q41 -41 60.5 -104.5t20.5 -98.5t1 -129v-594h-271v86q-133 -109 -286 -109 q-152 0 -241 92.5t-89 239.5zM150 1325.5q0 65.5 47 113.5t112.5 48t113.5 -48t48 -113.5t-48 -113t-113.5 -47.5t-112.5 47.5t-47 113zM350 334q0 -66 39 -94.5t88 -28.5q92 0 189 57v207q-225 0 -281 -55q-35 -35 -35 -86zM580 1325.5q0 65.5 47 113.5t112.5 48t113.5 -48 t48 -113.5t-48 -113t-113.5 -47.5t-112.5 47.5t-47 113z" />
<glyph horiz-adv-x="1071" d="M80 309q0 78 26.5 139.5t64.5 99.5t96.5 65.5t105.5 41t109.5 20.5t91 8t65.5 1h23q0 68 -25 92q-33 33 -121 33q-143 0 -283 -70l-98 195q23 16 57.5 35.5t133 47t206.5 27.5q233 0 353 -118q41 -41 60.5 -104.5t20.5 -98.5t1 -129v-594h-271v86q-133 -109 -286 -109 q-152 0 -241 92.5t-89 239.5zM168 1298q139 174 270 175q47 0 117 -32t102 -32q12 0 23.5 2t23 8t18.5 9.5t20.5 13.5t17.5 13t18.5 17.5t16.5 14.5l131 -131q-147 -174 -271 -174q-51 0 -120.5 32.5t-100.5 32.5q-14 0 -28.5 -5t-31 -16.5t-25.5 -17.5t-28.5 -22.5 t-21.5 -18.5zM350 334q0 -66 39 -94.5t88 -28.5q92 0 189 57v207q-225 0 -281 -55q-35 -35 -35 -86z" />
<glyph horiz-adv-x="1071" d="M80 309q0 78 26.5 139.5t64.5 99.5t96.5 65.5t105.5 41t109.5 20.5t91 8t65.5 1h23q0 68 -25 92q-33 33 -121 33q-143 0 -283 -70l-98 195q23 16 57.5 35.5t133 47t206.5 27.5q233 0 353 -118q41 -41 60.5 -104.5t20.5 -98.5t1 -129v-594h-271v86q-133 -109 -286 -109 q-152 0 -241 92.5t-89 239.5zM301 1356q0 96 68.5 163.5t165 67.5t164 -67.5t67.5 -163.5t-67.5 -165t-164 -69t-165 69t-68.5 165zM350 334q0 -66 39 -94.5t88 -28.5q92 0 189 57v207q-225 0 -281 -55q-35 -35 -35 -86zM438 1358q0 -39 28 -66.5t66.5 -27.5t66.5 27.5 t28 66.5t-28 66.5t-66.5 27.5t-66.5 -27.5t-28 -66.5z" />
<glyph horiz-adv-x="1044" d="M80 504q0 231 158.5 387t390.5 156q102 0 191 -29t126 -55.5t49 -42.5l-129 -199q-82 61 -190 61q-119 0 -192.5 -76.5t-73.5 -195.5q0 -127 62.5 -202t184.5 -75q119 0 230 74l125 -205l-2 -2q-160 -131 -398 -131l-10 -61q37 6 41 6q86 0 141.5 -51t55.5 -135 q0 -94 -66.5 -151.5t-155.5 -57.5q-59 0 -107 17.5t-67 35.5l48 96q47 -31 110 -30q55 0 79 26.5t24 59t-27 55t-66 22.5q-51 0 -86 -28l-67 39l26 170q-172 35 -288.5 172t-116.5 350z" />
<glyph horiz-adv-x="1128" d="M80 502q0 236 139 390.5t361 154.5q225 0 347 -146.5t122 -396.5q0 -25 -2.5 -54.5t-2.5 -39.5h-671q0 -72 64.5 -139.5t195.5 -67.5t260 71l96 -192q-10 -10 -57 -34.5t-140.5 -51.5t-185.5 -27q-137 0 -241.5 46t-165 125t-90 170.5t-29.5 191.5zM246 1288l481 268 l127 -235l-506 -205zM379 627h383q0 23 -6 49t-21.5 63t-54.5 60.5t-94 23.5q-59 0 -103.5 -25.5t-65 -63.5t-28.5 -64.5t-10 -42.5z" />
<glyph horiz-adv-x="1128" d="M80 502q0 236 139 390.5t361 154.5q225 0 347 -146.5t122 -396.5q0 -25 -2.5 -54.5t-2.5 -39.5h-671q0 -72 64.5 -139.5t195.5 -67.5t260 71l96 -192q-10 -10 -57 -34.5t-140.5 -51.5t-185.5 -27q-137 0 -241.5 46t-165 125t-90 170.5t-29.5 191.5zM283 1321l127 235 l481 -268l-103 -172zM379 627h383q0 23 -6 49t-21.5 63t-54.5 60.5t-94 23.5q-59 0 -103.5 -25.5t-65 -63.5t-28.5 -64.5t-10 -42.5z" />
<glyph horiz-adv-x="1128" d="M80 502q0 236 139 390.5t361 154.5q225 0 347 -146.5t122 -396.5q0 -25 -2.5 -54.5t-2.5 -39.5h-671q0 -72 64.5 -139.5t195.5 -67.5t260 71l96 -192q-10 -10 -57 -34.5t-140.5 -51.5t-185.5 -27q-137 0 -241.5 46t-165 125t-90 170.5t-29.5 191.5zM217 1282l371 277 l375 -293l-111 -146l-264 148l-264 -146zM379 627h383q0 23 -6 49t-21.5 63t-54.5 60.5t-94 23.5q-59 0 -103.5 -25.5t-65 -63.5t-28.5 -64.5t-10 -42.5z" />
<glyph horiz-adv-x="1128" d="M80 502q0 236 139 390.5t361 154.5q225 0 347 -146.5t122 -396.5q0 -25 -2.5 -54.5t-2.5 -39.5h-671q0 -72 64.5 -139.5t195.5 -67.5t260 71l96 -192q-10 -10 -57 -34.5t-140.5 -51.5t-185.5 -27q-137 0 -241.5 46t-165 125t-90 170.5t-29.5 191.5zM203 1325.5 q0 65.5 47 113.5t112.5 48t113.5 -48t48 -113.5t-48 -113t-113.5 -47.5t-112.5 47.5t-47 113zM379 627h383q0 23 -6 49t-21.5 63t-54.5 60.5t-94 23.5q-59 0 -103.5 -25.5t-65 -63.5t-28.5 -64.5t-10 -42.5zM633 1325.5q0 65.5 47 113.5t112.5 48t113.5 -48t48 -113.5 t-48 -113t-113.5 -47.5t-112.5 47.5t-47 113z" />
<glyph horiz-adv-x="555" d="M-27 1288l482 268l127 -235l-506 -205zM113 0v1016h327v-1016h-327z" />
<glyph horiz-adv-x="555" d="M-27 1321l127 235l482 -268l-103 -172zM113 0v1016h327v-1016h-327z" />
<glyph horiz-adv-x="555" d="M-94 1282l370 277l375 -293l-110 -146l-265 148l-264 -146zM113 0v1016h327v-1016h-327z" />
<glyph horiz-adv-x="555" d="M-98 1325.5q0 65.5 47 113.5t112.5 48t113.5 -48t48 -113.5t-48 -113t-113.5 -47.5t-112.5 47.5t-47 113zM113 0v1016h327v-1016h-327zM332 1325.5q0 65.5 47 113.5t112.5 48t113.5 -48t48 -113.5t-48 -113t-113.5 -47.5t-112.5 47.5t-47 113z" />
<glyph horiz-adv-x="1159" d="M119 0v1016h270v-82q12 12 45 34.5t107.5 50.5t148.5 28q162 0 256 -95q41 -41 64.5 -87t33 -108.5t10.5 -94t1 -105.5v-557h-328v549q0 158 -35 192q-31 31 -90 31q-76 0 -156 -57v-715h-327zM223 1298q139 174 271 175q47 0 116.5 -32t102.5 -32q12 0 23.5 2t22.5 8 t18 9.5t20.5 13.5t17.5 13t18.5 17.5t16.5 14.5l131 -131q-147 -174 -270 -174q-51 0 -121 32.5t-101 32.5q-14 0 -28.5 -5t-30.5 -16.5t-25.5 -17.5t-29 -22.5t-21.5 -18.5z" />
<glyph horiz-adv-x="1230" d="M80 500q0 238 154.5 392.5t390.5 154.5q229 0 377.5 -149.5t148.5 -373.5q0 -244 -154.5 -399.5t-396.5 -155.5q-229 0 -374.5 150t-145.5 381zM317 1288l482 268l127 -235l-506 -205zM408 512q0 -129 59 -204t158 -75q94 0 146 72t52 201q0 127 -56 202.5t-155 75.5 q-94 0 -149 -72.5t-55 -199.5z" />
<glyph horiz-adv-x="1230" d="M80 500q0 238 154.5 392.5t390.5 154.5q229 0 377.5 -149.5t148.5 -373.5q0 -244 -154.5 -399.5t-396.5 -155.5q-229 0 -374.5 150t-145.5 381zM330 1321l127 235l481 -268l-102 -172zM408 512q0 -129 59 -204t158 -75q94 0 146 72t52 201q0 127 -56 202.5t-155 75.5 q-94 0 -149 -72.5t-55 -199.5z" />
<glyph horiz-adv-x="1230" d="M80 500q0 238 154.5 392.5t390.5 154.5q229 0 377.5 -149.5t148.5 -373.5q0 -244 -154.5 -399.5t-396.5 -155.5q-229 0 -374.5 150t-145.5 381zM264 1282l371 277l375 -293l-111 -146l-264 148l-264 -146zM408 512q0 -129 59 -204t158 -75q94 0 146 72t52 201 q0 127 -56 202.5t-155 75.5q-94 0 -149 -72.5t-55 -199.5z" />
<glyph horiz-adv-x="1230" d="M80 500q0 238 154.5 392.5t390.5 154.5q229 0 377.5 -149.5t148.5 -373.5q0 -244 -154.5 -399.5t-396.5 -155.5q-229 0 -374.5 150t-145.5 381zM250 1325.5q0 65.5 47 113.5t112.5 48t113.5 -48t48 -113.5t-48 -113t-113.5 -47.5t-112.5 47.5t-47 113zM408 512 q0 -129 59 -204t158 -75q94 0 146 72t52 201q0 127 -56 202.5t-155 75.5q-94 0 -149 -72.5t-55 -199.5zM680 1325.5q0 65.5 47 113.5t112.5 48t113.5 -48t48 -113.5t-48 -113t-113.5 -47.5t-112.5 47.5t-47 113z" />
<glyph horiz-adv-x="1230" d="M80 500q0 238 154.5 392.5t390.5 154.5q229 0 377.5 -149.5t148.5 -373.5q0 -244 -154.5 -399.5t-396.5 -155.5q-229 0 -374.5 150t-145.5 381zM215 1298q139 174 270 175q47 0 117 -32t103 -32q12 0 23 2t22.5 8t18.5 9.5t20.5 13.5t17.5 13t18.5 17.5t16.5 14.5 l131 -131q-147 -174 -271 -174q-51 0 -120.5 32.5t-100.5 32.5q-14 0 -28.5 -5t-30.5 -16.5t-25.5 -17.5t-29 -22.5t-21.5 -18.5zM408 512q0 -129 59 -204t158 -75q94 0 146 72t52 201q0 127 -56 202.5t-155 75.5q-94 0 -149 -72.5t-55 -199.5z" />
<glyph horiz-adv-x="1159" d="M104 463v553h328v-547q0 -158 35 -193q31 -31 90 -30q63 0 156 57v713h327v-1016h-266v90q-12 -12 -44 -35.5t-107.5 -54.5t-147.5 -31q-164 0 -262 99q-41 41 -64.5 87t-33 108.5t-10.5 94t-1 105.5zM299 1288l481 268l127 -235l-506 -205z" />
<glyph horiz-adv-x="1159" d="M104 463v553h328v-547q0 -158 35 -193q31 -31 90 -30q63 0 156 57v713h327v-1016h-266v90q-12 -12 -44 -35.5t-107.5 -54.5t-147.5 -31q-164 0 -262 99q-41 41 -64.5 87t-33 108.5t-10.5 94t-1 105.5zM274 1321l127 235l482 -268l-103 -172z" />
<glyph horiz-adv-x="1159" d="M104 463v553h328v-547q0 -158 35 -193q31 -31 90 -30q63 0 156 57v713h327v-1016h-266v90q-12 -12 -44 -35.5t-107.5 -54.5t-147.5 -31q-164 0 -262 99q-41 41 -64.5 87t-33 108.5t-10.5 94t-1 105.5zM180 1282l371 277l375 -293l-111 -146l-264 148l-264 -146z" />
<glyph horiz-adv-x="1159" d="M104 463v553h328v-547q0 -158 35 -193q31 -31 90 -30q63 0 156 57v713h327v-1016h-266v90q-12 -12 -44 -35.5t-107.5 -54.5t-147.5 -31q-164 0 -262 99q-41 41 -64.5 87t-33 108.5t-10.5 94t-1 105.5zM166 1325.5q0 65.5 47 113.5t112.5 48t113.5 -48t48 -113.5t-48 -113 t-113.5 -47.5t-112.5 47.5t-47 113zM596 1325.5q0 65.5 47 113.5t112.5 48t114 -48t48.5 -113.5t-48.5 -113t-114 -47.5t-112.5 47.5t-47 113z" />
<glyph unicode="&#xa0;" horiz-adv-x="1370" d="M174 662v272h348l-12 432h344l-14 -432h358v-272h-362l-23 -922h-264l-23 922h-352z" />
<glyph unicode="&#xa1;" horiz-adv-x="1345" d="M346 1087.5q0 135.5 95.5 230.5t230.5 95t231 -95t96 -230.5t-96 -231.5t-231 -96t-230.5 96t-95.5 231.5zM530 1087.5q0 -63.5 41 -105.5t100.5 -42t100.5 42t41 105.5t-41 106.5t-100.5 43t-100.5 -43t-41 -106.5z" />
<glyph unicode="&#xa2;" d="M227 514q0 119 43 219.5t111 162.5t139.5 100t136.5 48v228h205v-221q104 -10 183 -52.5t98 -68.5l-129 -199q-82 61 -191 62q-119 0 -192.5 -77t-73.5 -196q0 -127 62.5 -201.5t185.5 -74.5q119 0 229 73l125 -204l-8 -7q-6 -6 -15.5 -12t-25.5 -17t-34.5 -20.5 t-43 -20.5t-49.5 -20.5t-56.5 -16.5t-64.5 -11v-221h-205v221q-182 27 -306 168t-124 358z" />
<glyph unicode="&#xa3;" d="M152 0v250q199 27 198 235l-4 25h-188v262h159q-8 94 -8 143q0 227 134.5 356.5t373.5 129.5q76 0 147.5 -17.5t115.5 -39t84 -52t52.5 -43t22.5 -24.5l-164 -195q-16 14 -45 33.5t-87 41t-114 21.5q-92 0 -147 -56t-55 -155q0 -86 14 -143h377v-262h-346q2 -10 2 -27 q0 -55 -21.5 -117.5t-62.5 -93.5h622v-272h-1060z" />
<glyph unicode="&#xa5;" horiz-adv-x="837" d="M160 588q0 106 75.5 182t184 76t183.5 -75t75 -183.5t-76 -184t-182 -75.5q-109 0 -184.5 75.5t-75.5 184.5z" />
<glyph unicode="&#xa7;" horiz-adv-x="1220" d="M119 0v1077q0 186 119 305q129 133 354 134q203 0 326.5 -110t123.5 -286q0 -74 -27.5 -131t-60 -87t-60.5 -68.5t-28 -77.5q0 -33 31 -61.5t75 -56.5t87 -64.5t73.5 -99t30.5 -142.5q0 -162 -116.5 -257t-290.5 -95q-123 0 -246 51l80 243q88 -27 133 -26q61 0 94 26.5 t33 67.5q0 49 -41 90q-29 29 -106.5 77t-122.5 97t-45 117q0 55 30.5 107.5t68.5 88t68.5 91t30.5 114.5q0 47 -35.5 85t-89.5 38q-70 0 -112 -47q-59 -68 -60 -254v-946h-317z" />
<glyph unicode="&#xa9;" horiz-adv-x="1599" d="M82 682q0 297 211 508t508 211t507 -214t210 -505q0 -297 -210 -507t-507 -210t-508 210t-211 507zM283 682q0 -213 152.5 -363.5t365.5 -150.5t364.5 150.5t151.5 363.5t-151.5 364.5t-364.5 151.5t-365.5 -151.5t-152.5 -364.5zM432 692q0 168 116 279.5t286 111.5 q33 0 63.5 -4t54 -11t43 -14t34.5 -16.5t24.5 -15.5t19.5 -14l8 -9l-73 -112l-9 6q-6 4 -13 8t-20.5 10.5t-26.5 10.5t-33.5 7t-41.5 3q-106 0 -167.5 -73t-61.5 -157q0 -104 56.5 -173.5t166.5 -69.5q76 0 164 53l74 -117l-6 -2q-4 -4 -11.5 -9t-18.5 -12t-25.5 -14.5 t-32 -14.5t-38 -13t-42 -11.5t-48 -8.5t-53.5 -3q-176 0 -282.5 109.5t-106.5 275.5z" />
<glyph unicode="&#xaa;" horiz-adv-x="1810" d="M104 1198v168h629v-168h-213v-559h-203v559h-213zM854 641l72 727h213l149 -444l142 444h212l76 -727h-192l-37 399l-125 -399h-166l-131 399l-29 -399h-184z" />
<glyph unicode="&#xab;" horiz-adv-x="755" d="M74 1288l481 268l127 -235l-506 -205z" />
<glyph unicode="&#xac;" horiz-adv-x="882" d="M66 1325.5q0 65.5 47 113.5t112.5 48t113.5 -48t48 -113.5t-48 -113t-113.5 -47.5t-112.5 47.5t-47 113zM496 1325.5q0 65.5 47 113.5t112.5 48t113.5 -48t48 -113.5t-48 -113t-113.5 -47.5t-112.5 47.5t-47 113z" />
<glyph unicode="&#xad;" horiz-adv-x="1355" d="M94 217v262h424l82 133h-506v262h668l119 197l174 -110l-56 -87h265v-262h-422l-82 -133h504v-262h-652l-133 -201l-174 113l64 88h-275z" />
<glyph unicode="&#xae;" horiz-adv-x="1927" d="M14 0l813 1366h994v-268h-529v-273h496v-262h-496v-291h545v-272h-881v258h-454l-140 -258h-348zM649 530h307v568z" />
<glyph unicode="&#xaf;" horiz-adv-x="1546" d="M88 702q0 309 188.5 504t493.5 195q147 0 236 -35l98 172l233 -123l-100 -180q100 -86 161.5 -224.5t61.5 -314.5q0 -330 -191.5 -530.5t-490.5 -200.5q-121 0 -229 35l-98 -176l-232 127l103 176q-234 213 -234 575zM428 672q0 -201 99.5 -314.5t254.5 -113.5 q102 0 173 44t105 117.5t47 144.5t13 148q0 188 -98 309t-260 121q-152 0 -243 -125.5t-91 -330.5z" />
<glyph unicode="&#xb0;" horiz-adv-x="1705" d="M129 563q0 141 98.5 234.5t243.5 93.5q186 0 383 -182l6 6q178 184 385 184q145 0 238.5 -89t93.5 -228.5t-99.5 -235.5t-242.5 -96q-31 0 -63.5 5t-61.5 16.5t-55.5 22.5t-50 27.5t-44 30t-38 28.5t-28.5 25.5t-22 20.5l-12 10l-12 -10q-10 -12 -21.5 -22.5t-31 -27 t-40 -30.5t-46 -30.5t-53 -30t-57.5 -23.5t-62.5 -16t-65.5 -6q-137 0 -239.5 97t-102.5 226zM358 571q0 -47 35 -78.5t84 -31.5q25 0 52.5 7t49 18.5t44 25.5t36 25.5t27.5 23.5t16 12q-121 109 -221 109q-55 0 -89 -31t-34 -80zM1016 578l14 -13l29 -20q14 -10 36.5 -24.5 t44 -25t46 -17.5t45.5 -7q51 0 85 28.5t34 80.5q0 47 -36 79.5t-91 32.5q-92 1 -207 -114z" />
<glyph unicode="&#xb1;" d="M111 0v260h1134v-260h-1134zM111 743v263h432v397h270v-397h432v-263h-432v-401h-270v401h-432z" />
<glyph unicode="&#xb2;" horiz-adv-x="1355" d="M121 0v260h1114v-260h-1114zM121 770v211l1012 453l104 -252l-690 -308l690 -315l-104 -240z" />
<glyph unicode="&#xb3;" horiz-adv-x="1355" d="M121 559l690 315l-690 308l104 252l1012 -453v-211l-1012 -451zM123 0v260h1114v-260h-1114z" />
<glyph unicode="&#xb5;" horiz-adv-x="1171" d="M119 -260v1276h327v-547q0 -158 35 -193q31 -31 90 -30q63 0 156 57v713h328v-1016h-267v90q-115 -115 -258 -115q-39 0 -80.5 11.5t-56.5 25.5v-272h-274z" />
<glyph unicode="&#xb6;" horiz-adv-x="1286" d="M129 485q0 233 136 397.5t349 164.5q33 0 64 -5.5t51.5 -11.5t36.5 -12t25.5 -11.5t11.5 -5.5q-2 31 -15.5 66t-40 78t-81 70.5t-125.5 27.5q-109 0 -267 -94l-129 217q195 150 416 150q283 0 439.5 -202t156.5 -624q0 -334 -136 -529.5t-386 -195.5q-221 0 -363.5 146.5 t-142.5 373.5zM453 504q0 -123 50 -197t128 -74q92 0 146 103.5t54 310.5q0 49 -6 90q-86 43 -161 43q-96 0 -153.5 -74.5t-57.5 -201.5z" />
<glyph unicode="&#xb7;" horiz-adv-x="1189" d="M129 0v221l334 469l-334 453v223h934v-268h-494l279 -389l-311 -441h526v-268h-934z" />
<glyph unicode="&#xb9;" horiz-adv-x="1429" d="M141 760v256h1131v-256h-148v-359v-25v-26q0 -6 1 -21.5t2 -21.5t4.5 -16t7.5 -17.5t10 -13.5q20 -20 68 -20q35 0 71 8v-238q-127 -35 -213 -35q-147 0 -211 64q-39 39 -54 96.5t-15 177.5v447h-189v-760h-327v760h-138z" />
<glyph unicode="&#xba;" horiz-adv-x="1196" d="M141 -420l86 223q43 -18 82 -18q59 0 90 31q35 35 35 125v1126q0 127 20.5 205t88.5 145q98 98 282 99q53 0 107.5 -13.5t85.5 -27t37 -21.5l-86 -223q-43 18 -82 18q-59 0 -90 -30q-35 -35 -35 -125v-1127q0 -127 -20.5 -204.5t-88.5 -145.5q-98 -98 -282 -98 q-53 0 -107.5 13t-85.5 26.5t-37 21.5z" />
<glyph unicode="&#xbb;" horiz-adv-x="952" d="M129 858q0 66 23.5 117t67.5 79.5t86 47t97.5 26t82 9.5t59.5 2h12q0 41 -18 59q-23 23 -84 23q-98 0 -209 -54l-78 152q115 86 299 86q172 0 262 -90q10 -10 19.5 -22.5t15.5 -27t11 -24.5t7 -29.5t4 -26.5t3.5 -31t1.5 -28v-30v-29v-440h-209v57q-92 -76 -205 -76 t-180.5 69.5t-67.5 180.5zM334 877q0 -49 27.5 -70t64.5 -21q76 0 137 43v150q-164 0 -205 -41q-24 -24 -24 -61z" />
<glyph unicode="&#xbf;" horiz-adv-x="1230" d="M80 500q0 238 153.5 392.5t391.5 154.5q90 0 163 -25l93 156l190 -111l-94 -149q74 -59 124 -162t50 -232q0 -244 -154.5 -399.5t-396.5 -155.5q-104 0 -158 23l-90 -156l-194 105l92 157q-66 49 -118 153t-52 249zM408 512q0 -129 59 -204t158 -75q94 0 146 72t52 201 q0 127 -56 202.5t-155 75.5q-94 0 -149 -72.5t-55 -199.5z" />
<glyph unicode="&#xc0;" horiz-adv-x="1132" d="M94 20q0 143 96 240q49 49 156 113.5t115 72.5q12 12 18 21.5t11.5 38.5t5.5 80h282q12 -25 13 -97q0 -127 -68 -194q-31 -33 -125 -88t-131 -94q-39 -39 -39 -93q0 -57 45 -89.5t131 -32.5q152 0 309 112l136 -205q-31 -25 -73 -53t-166 -75.5t-241 -47.5 q-213 0 -344 106.5t-131 284.5zM453 856q0 78 55 134.5t133 56.5t134 -56.5t56 -134.5t-56 -133t-134 -55t-133 55t-55 133z" />
<glyph unicode="&#xc1;" horiz-adv-x="837" d="M229 856q0 78 55.5 134.5t133.5 56.5t134 -56.5t56 -134.5t-56 -133t-134 -55t-133.5 55t-55.5 133zM233 -336l50 922h268l49 -922h-367z" />
<glyph unicode="&#xc2;" horiz-adv-x="1355" d="M123 686v266h1110v-577h-289v311h-821z" />
<glyph unicode="&#xc3;" horiz-adv-x="1699" d="M129 846l522 178l234 -618l413 1120l273 -94l-541 -1432h-309l-264 688l-246 -84z" />
<glyph unicode="&#xc4;" d="M-25 -393l97 239q100 -37 141 -36q68 0 98 30q14 14 20.5 24.5t16.5 44.5t23 99l100 502h-252l53 262h256l31 162q31 162 57.5 234.5t71.5 117.5q115 115 293 115q143 0 307 -82l-90 -229q-100 39 -151 38q-43 0 -70 -12t-44.5 -45t-25.5 -63.5t-20 -94.5q-6 -27 -8 -41 l-21 -100h291l-57 -262h-291l-96 -524q-49 -264 -138 -353q-115 -115 -288 -114q-72 0 -146 21.5t-107 38t-51 28.5z" />
<glyph unicode="&#xc5;" d="M164 317q10 27 38.5 66t104.5 85t170 46q96 0 226.5 -58.5t179.5 -58.5q33 0 64.5 18.5t46 34t42.5 48.5l154 -121q-6 -14 -26.5 -41t-57.5 -63.5t-95.5 -62.5t-123.5 -26q-90 0 -226.5 58.5t-189.5 58.5q-82 0 -145 -94zM164 713q10 27 38.5 65.5t104.5 84.5t170 46 q96 0 226.5 -58t179.5 -58q33 0 64.5 18t46 33.5t42.5 48.5l154 -121q-6 -14 -26.5 -40.5t-57.5 -63.5t-95.5 -62.5t-123.5 -25.5q-90 0 -226.5 58t-189.5 58q-82 0 -145 -94z" />
<glyph unicode="&#xc6;" horiz-adv-x="1492" d="M129 0l469 1366h293l473 -1366h-1235zM494 256h485l-244 719z" />
<glyph unicode="&#xc7;" horiz-adv-x="1183" d="M121 500l330 405l174 -127l-174 -278l174 -295l-174 -107zM559 500l330 405l174 -127l-174 -278l174 -295l-174 -107z" />
<glyph unicode="&#xc8;" horiz-adv-x="1183" d="M121 205l174 295l-174 278l174 127l330 -405l-330 -402zM559 205l174 295l-174 278l174 127l330 -405l-330 -402z" />
<glyph unicode="&#xc9;" horiz-adv-x="1882" d="M121 174q0 78 56 133t134 55t133.5 -55t55.5 -133t-55.5 -134t-133.5 -56t-134 56t-56 134zM752 174q0 78 56 133t134 55t133 -55t55 -133t-55 -134t-133 -56t-134 56t-56 134zM1382 174q0 78 56.5 133t134.5 55t133 -55t55 -133t-55 -134t-133 -56t-134.5 56t-56.5 134z " />
<glyph unicode="&#xca;" horiz-adv-x="520" />
<glyph unicode="&#xcb;" horiz-adv-x="1400" d="M37 0l493 1366h336l498 -1366h-348l-78 250h-479l-80 -250h-342zM387 1704l127 235l481 -268l-102 -172zM537 502h319l-162 512z" />
<glyph unicode="&#xcc;" horiz-adv-x="1400" d="M37 0l493 1366h336l498 -1366h-348l-78 250h-479l-80 -250h-342zM311 1622q139 174 271 174q47 0 116.5 -31.5t102.5 -31.5q12 0 23.5 2t22.5 8t18 9t20.5 13.5t17.5 13.5t18.5 17t16.5 14l131 -131q-147 -174 -270 -174q-51 0 -121 33t-100 33q-14 0 -28.5 -5t-31 -16.5 t-26 -17.5t-29 -22.5t-21.5 -18.5zM537 502h319l-162 512z" />
<glyph unicode="&#xcd;" horiz-adv-x="1548" d="M88 702q0 309 188.5 504t493.5 195q311 0 500.5 -198.5t189.5 -506.5q0 -330 -191.5 -530.5t-490.5 -200.5q-311 0 -500.5 204.5t-189.5 532.5zM389 1622q139 174 270 174q47 0 117 -31.5t103 -31.5q12 0 23 2t22.5 8t18.5 9t20.5 13.5t17.5 13.5t18.5 17t16.5 14 l131 -131q-147 -174 -270 -174q-51 0 -121 33t-101 33q-14 0 -28.5 -5t-30.5 -16.5t-25.5 -17.5t-29 -22.5t-21.5 -18.5zM428 672q0 -201 99.5 -314.5t254.5 -113.5q102 0 173 44t105 117.5t47 144.5t13 148q0 188 -98 309t-260 121q-152 0 -243 -125.5t-91 -330.5z" />
<glyph unicode="&#xce;" horiz-adv-x="1841" d="M88 670q0 135 47 264t135 217q76 76 166 123t202 65.5t186.5 22.5t205.5 4h701v-268h-478v-273h445v-262h-445v-291h494v-272h-803q-264 0 -407.5 31.5t-266.5 154.5q-86 86 -134 214.5t-48 269.5zM426 666q0 -197 104 -301q68 -68 145 -86.5t224 -18.5h25v842h-74 q-207 0 -315.5 -111.5t-108.5 -324.5z" />
<glyph unicode="&#xcf;" horiz-adv-x="1910" d="M80 500q0 238 154.5 392.5t390.5 154.5q143 0 243.5 -53.5t137.5 -102.5q16 25 52 55.5t121 65.5t183 35q225 0 347 -146.5t122 -396.5q0 -25 -2 -54.5t-2 -39.5h-672q0 -72 64.5 -139.5t195.5 -67.5t260 71l97 -192q-10 -10 -57.5 -34.5t-140.5 -51.5t-185 -27 q-115 0 -207 35t-128 65.5t-57 61.5q-16 -20 -43.5 -42.5t-76 -52.5t-122 -48.5t-155.5 -18.5q-229 0 -374.5 150t-145.5 381zM408 512q0 -129 59 -204t158 -75q94 0 146 72t52 201q0 127 -56 202.5t-155 75.5q-94 0 -149 -72.5t-55 -199.5zM1161 627h383q0 23 -6 49 t-21.5 63t-54.5 60.5t-94 23.5q-59 0 -103 -25.5t-64.5 -63.5t-29 -64.5t-10.5 -42.5z" />
<glyph unicode="&#xd0;" horiz-adv-x="1392" d="M143 414v262h1106v-262h-1106z" />
<glyph unicode="&#xd1;" horiz-adv-x="2023" d="M143 414v262h1737v-262h-1737z" />
<glyph unicode="&#xd2;" horiz-adv-x="1124" d="M86 840q0 133 39 236.5t156 219.5q68 68 131 105l166 -148q-14 -12 -33 -30q-43 -43 -74 -93.5t-44 -84t-20.5 -85t-7.5 -64.5v-56h-313zM547 840q0 133 39 236.5t155 219.5q68 68 131 105l166 -148q-14 -12 -32 -30q-43 -43 -74 -93.5t-44.5 -84t-20.5 -85t-7 -64.5v-56 h-313z" />
<glyph unicode="&#xd3;" horiz-adv-x="1124" d="M86 952q14 12 33 31q43 43 73.5 93t44 84t20.5 85t7 65v56h314q0 -133 -39 -236.5t-156 -220.5q-68 -68 -131 -104zM547 952q14 12 33 31q43 43 73.5 93t44 84t20.5 85t7 65v56h313q0 -133 -38.5 -236.5t-155.5 -220.5q-68 -68 -131 -104z" />
<glyph unicode="&#xd4;" horiz-adv-x="663" d="M86 840q0 133 39 236.5t156 219.5q68 68 131 105l166 -148q-14 -12 -33 -30q-43 -43 -74 -93.5t-44 -84t-20.5 -85t-7.5 -64.5v-56h-313z" />
<glyph unicode="&#xd5;" horiz-adv-x="663" d="M86 952q14 12 33 31q43 43 73.5 93t44 84t20.5 85t7 65v56h314q0 -133 -39 -236.5t-156 -220.5q-68 -68 -131 -104z" />
<glyph unicode="&#xd6;" horiz-adv-x="1355" d="M94 414v262h1170v-262h-1170zM496 155.5q0 77.5 53 131t131 53.5t131 -53.5t53 -131t-53 -131t-131 -53.5t-131 53.5t-53 131zM496 934q0 78 53 131t131 53t131 -53t53 -131t-53 -131t-131 -53t-131 53t-53 131z" />
<glyph unicode="&#xd7;" horiz-adv-x="1351" d="M129 680l436 686h211l447 -686l-447 -680h-211zM414 680l258 -391l270 391l-270 407z" />
<glyph unicode="&#xd8;" horiz-adv-x="1249" d="M-2 -408l98 226q90 -39 162 -39q80 0 129 49q55 55 86 176l-430 1012h348l246 -678l233 678h324l-403 -1006q-78 -195 -118 -266.5t-85 -116.5q-109 -109 -314 -108q-74 0 -142.5 18.5t-95 32.5t-38.5 22zM260 1325.5q0 65.5 47 113.5t112.5 48t114 -48t48.5 -113.5 t-48.5 -113t-114 -47.5t-112.5 47.5t-47 113zM690 1325.5q0 65.5 47 113.5t112.5 48t114 -48t48.5 -113.5t-48.5 -113t-114 -47.5t-112.5 47.5t-47 113z" />
<glyph unicode="&#xd9;" horiz-adv-x="1306" d="M55 1366h340l269 -563l282 563h305l-442 -819v-547h-326v547zM287 1677.5q0 65.5 47 113.5t112.5 48t113.5 -48t48 -113.5t-48 -112.5t-113.5 -47t-112.5 47t-47 112.5zM717 1677.5q0 65.5 47 113.5t112.5 48t113.5 -48t48 -113.5t-48 -112.5t-113.5 -47t-112.5 47 t-47 112.5z" />
<glyph unicode="&#xda;" horiz-adv-x="1411" d="M164 12l926 1430l159 -105l-925 -1433z" />
<glyph unicode="&#xdb;" d="M121 412v213h145q0 10 -2 24.5t-2 32.5t4 59h-145v213h160q6 27 17 64t52 110.5t98.5 129t163 99.5t236.5 44q84 0 161.5 -18.5t126 -42t89.5 -52t56 -45t22 -24.5l-158 -179q-133 100 -277 101q-215 0 -264 -187h377v-213h-401q-4 -41 -5 -59q0 -16 2.5 -31.5t2.5 -25.5 h401v-213h-373q2 -12 5 -25.5t20.5 -44.5t43 -53.5t79 -41t121.5 -18.5q29 0 58.5 4.5t52 10.5t45 14t38.5 16.5t31.5 17.5t25 15t17.5 12l8 7l158 -191q-10 -10 -25.5 -24.5t-57.5 -42t-91.5 -49t-126 -38t-160.5 -16.5q-129 0 -233.5 42t-162 97.5t-98.5 125t-54 111.5 t-17 71h-164z" />
<glyph unicode="&#xdc;" horiz-adv-x="745" d="M121 500l330 405l174 -127l-174 -278l174 -295l-174 -107z" />
<glyph unicode="&#xdd;" horiz-adv-x="745" d="M121 205l174 295l-174 278l174 127l330 -405l-330 -402z" />
<glyph unicode="&#xde;" horiz-adv-x="1351" d="M86 760v256h180v20q0 115 18.5 195t39 111.5t53.5 64.5q109 109 315 109q84 0 161 -26t105.5 -44.5t40.5 -30.5l-118 -203q-78 45 -148 45q-47 0 -77.5 -16t-43 -48t-15.5 -59.5t-3 -72.5v-45h639v-1016h-328v760h-311v-760h-328v760h-180z" />
<glyph unicode="&#xdf;" horiz-adv-x="1351" d="M86 760v256h180v20q0 141 23.5 224t89.5 149q106 106 278 107q98 0 193 -43l-80 -236q-31 12 -57 12q-53 0 -81 -31.5t-33 -65.5t-5 -87v-49h311v467h328v-1483h-328v760h-311v-760h-328v760h-180z" />
<glyph unicode="&#xe0;" horiz-adv-x="1370" d="M174 662v272h348l-12 432h344l-12 -432h356v-272h-367l-2 -152h359v-272h-363l-10 -498h-266l-10 498h-355v272h351l-3 152h-358z" />
<glyph unicode="&#xe1;" horiz-adv-x="620" d="M121 526.5q0 77.5 56 133t134 55.5t133.5 -55.5t55.5 -133t-55.5 -134t-133.5 -56.5t-134 56.5t-56 134z" />
<glyph unicode="&#xe2;" horiz-adv-x="663" d="M86 -98q14 12 33 30q43 43 73.5 93.5t44 84t20.5 85t7 64.5v56h314q0 -133 -39 -236.5t-156 -219.5q-68 -68 -131 -105z" />
<glyph unicode="&#xe3;" horiz-adv-x="1124" d="M86 -98q14 12 33 30q43 43 73.5 93.5t44 84t20.5 85t7 64.5v56h314q0 -133 -39 -236.5t-156 -219.5q-68 -68 -131 -105zM547 -98q14 12 33 30q43 43 73.5 93.5t44 84t20.5 85t7 64.5v56h313q0 -133 -38.5 -236.5t-155.5 -219.5q-68 -68 -131 -105z" />
<glyph unicode="&#xe4;" horiz-adv-x="2367" d="M92 1047q0 158 85 259t226 101q147 0 234.5 -102.5t87.5 -264.5q0 -166 -85 -267t-234 -101q-147 0 -230.5 102.5t-83.5 272.5zM264 12l926 1430l160 -105l-926 -1433zM279 1044q0 -109 34.5 -162t89.5 -53q135 0 136 205q0 109 -36 163t-93.5 54t-94 -52.5t-36.5 -154.5 zM913 344q0 158 85 259.5t227 101.5q147 0 234 -102.5t87 -264.5q0 -166 -85 -267.5t-234 -101.5q-147 0 -230.5 102.5t-83.5 272.5zM1100 342q0 -109 34.5 -162t90.5 -53q135 0 135 205q0 109 -36 163t-93 54t-94 -52.5t-37 -154.5zM1642 344q0 158 85 259.5t227 101.5 q147 0 234 -102.5t87 -264.5q0 -166 -85 -267.5t-234 -101.5q-147 0 -230.5 102.5t-83.5 272.5zM1829 342q0 -109 34.5 -162t90.5 -53q135 0 135 205q0 109 -36 163t-93 54t-94 -52.5t-37 -154.5z" />
<glyph unicode="&#xe5;" horiz-adv-x="1400" d="M37 0l493 1366h336l498 -1366h-348l-78 250h-479l-80 -250h-342zM332 1659l370 276l375 -293l-110 -145l-265 148l-264 -146zM537 502h319l-162 512z" />
<glyph unicode="&#xe6;" horiz-adv-x="1110" d="M135 0v1366h864v-268h-528v-273h496v-262h-496v-291h545v-272h-881zM184 1659l371 276l375 -293l-111 -145l-264 148l-264 -146z" />
<glyph unicode="&#xe7;" horiz-adv-x="1400" d="M37 0l493 1366h336l498 -1366h-348l-78 250h-479l-80 -250h-342zM356 1671l482 268l127 -235l-506 -205zM537 502h319l-162 512z" />
<glyph unicode="&#xe8;" horiz-adv-x="1110" d="M135 0v1366h864v-268h-528v-273h496v-262h-496v-291h545v-272h-881zM205 1677.5q0 65.5 47 113.5t112.5 48t113.5 -48t48 -113.5t-48 -112.5t-113.5 -47t-112.5 47t-47 112.5zM635 1677.5q0 65.5 47 113.5t112.5 48t113.5 -48t48 -113.5t-48 -112.5t-113.5 -47t-112.5 47 t-47 112.5z" />
<glyph unicode="&#xe9;" horiz-adv-x="1110" d="M135 0v1366h864v-268h-528v-273h496v-262h-496v-291h545v-272h-881zM248 1704l127 235l481 -268l-102 -172z" />
<glyph unicode="&#xea;" horiz-adv-x="606" d="M-2 1671l481 268l127 -235l-506 -205zM135 0v1366h336v-1366h-336z" />
<glyph unicode="&#xeb;" horiz-adv-x="606" d="M-70 1659l371 276l375 -293l-111 -145l-264 148l-264 -146zM135 0v1366h336v-1366h-336z" />
<glyph unicode="&#xec;" horiz-adv-x="606" d="M-72 1677q0 66 47.5 114t113 48t113.5 -48t48 -114q0 -68 -47 -113.5t-115 -45.5q-66 0 -113 45.5t-47 113.5zM135 0v1366h336v-1366h-336zM358 1677q0 66 47.5 114t113 48t113.5 -48t48 -114q0 -68 -47 -113.5t-115 -45.5q-66 0 -113 45.5t-47 113.5z" />
<glyph unicode="&#xed;" horiz-adv-x="606" d="M0 1704l127 235l481 -268l-102 -172zM135 0v1366h336v-1366h-336z" />
<glyph unicode="&#xee;" horiz-adv-x="1548" d="M88 702q0 309 188.5 504t493.5 195q311 0 500.5 -198.5t189.5 -506.5q0 -330 -191.5 -530.5t-490.5 -200.5q-311 0 -500.5 204.5t-189.5 532.5zM428 672q0 -201 99.5 -314.5t254.5 -113.5q102 0 173 44t105 117.5t47 144.5t13 148q0 188 -98 309t-260 121 q-152 0 -243 -125.5t-91 -330.5zM461 1671l481 268l127 -235l-506 -205z" />
<glyph unicode="&#xef;" horiz-adv-x="1548" d="M88 702q0 309 188.5 504t493.5 195q311 0 500.5 -198.5t189.5 -506.5q0 -330 -191.5 -530.5t-490.5 -200.5q-311 0 -500.5 204.5t-189.5 532.5zM418 1659l370 276l375 -293l-110 -145l-265 148l-264 -146zM428 672q0 -201 99.5 -314.5t254.5 -113.5q102 0 173 44 t105 117.5t47 144.5t13 148q0 188 -98 309t-260 121q-152 0 -243 -125.5t-91 -330.5z" />
<glyph unicode="&#xf0;" horiz-adv-x="1851" d="M92 795q0 344 243 584.5t589 240.5t588.5 -240.5t242.5 -584.5t-242.5 -584t-588.5 -240t-589 240t-243 584zM336 797q0 -328 319 -521v342h-131v191h131v39q0 213 90 303q88 88 256 88q70 0 132.5 -20.5t87 -37t32.5 -24.5l-94 -166q-74 37 -123 37q-51 0 -76.5 -26.5 t-30.5 -55t-5 -80.5v-57h221v-191h-221v-405q246 0 415.5 170t169.5 413.5t-171 413.5t-414.5 170t-415.5 -170.5t-172 -412.5z" />
<glyph unicode="&#xf1;" horiz-adv-x="1548" d="M88 702q0 309 188.5 504t493.5 195q311 0 500.5 -198.5t189.5 -506.5q0 -330 -191.5 -530.5t-490.5 -200.5q-311 0 -500.5 204.5t-189.5 532.5zM428 672q0 -201 99.5 -314.5t254.5 -113.5q102 0 173 44t105 117.5t47 144.5t13 148q0 188 -98 309t-260 121 q-152 0 -243 -125.5t-91 -330.5zM496 1704l127 235l481 -268l-103 -172z" />
<glyph unicode="&#xf2;" horiz-adv-x="1370" d="M125 596v770h338v-842q0 -145 61 -207q57 -57 166 -57q104 0 170 66q37 37 47.5 94t10.5 186v760h327v-809q0 -174 -29.5 -266t-105.5 -168q-164 -158 -428 -158t-424 160q-82 82 -107.5 190.5t-25.5 280.5zM389 1671l481 268l127 -235l-505 -205z" />
<glyph unicode="&#xf3;" horiz-adv-x="1370" d="M125 596v770h338v-842q0 -145 61 -207q57 -57 166 -57q104 0 170 66q37 37 47.5 94t10.5 186v760h327v-809q0 -174 -29.5 -266t-105.5 -168q-164 -158 -428 -158t-424 160q-82 82 -107.5 190.5t-25.5 280.5zM322 1659l370 276l375 -293l-111 -145l-264 148l-264 -146z " />
<glyph unicode="&#xf4;" horiz-adv-x="1370" d="M125 596v770h338v-842q0 -145 61 -207q57 -57 166 -57q104 0 170 66q37 37 47.5 94t10.5 186v760h327v-809q0 -174 -29.5 -266t-105.5 -168q-164 -158 -428 -158t-424 160q-82 82 -107.5 190.5t-25.5 280.5zM379 1704l127 235l481 -268l-102 -172z" />
<glyph unicode="&#xf5;" horiz-adv-x="555" d="M113 0v1016h327v-1016h-327z" />
<glyph unicode="&#xf6;" horiz-adv-x="849" d="M74 1282l370 277l375 -293l-110 -146l-265 148l-264 -146z" />
<glyph unicode="&#xf7;" horiz-adv-x="827" d="M88 1298q139 174 270 175q47 0 117 -32t103 -32q12 0 23 2t22.5 8t18.5 9.5t20.5 13.5t17.5 13t18.5 17.5t16.5 14.5l131 -131q-147 -174 -271 -174q-51 0 -120.5 32.5t-100.5 32.5q-14 0 -28.5 -5t-30.5 -16.5t-25.5 -17.5t-29 -22.5t-21.5 -18.5z" />
<glyph unicode="&#xf8;" horiz-adv-x="813" d="M78 1229v192h764v-192h-764z" />
<glyph unicode="&#xf9;" horiz-adv-x="755" d="M68 1507h219q8 -129 108.5 -129t108.5 129h217q-2 -156 -89 -248t-236.5 -92t-237.5 92t-90 248z" />
<glyph unicode="&#xfa;" horiz-adv-x="454" d="M68 1325.5q0 65.5 47 113.5t112.5 48t113.5 -48t48 -113.5t-48 -113t-113.5 -47.5t-112.5 47.5t-47 113z" />
<glyph unicode="&#xfb;" horiz-adv-x="614" d="M76 1356q0 96 68.5 163.5t165 67.5t164 -67.5t67.5 -163.5t-67.5 -165t-164 -69t-165 69t-68.5 165zM213 1358q0 -39 27.5 -66.5t66.5 -27.5t66.5 27.5t27.5 66.5t-27.5 66.5t-66.5 27.5t-66.5 -27.5t-27.5 -66.5z" />
<glyph unicode="&#xfc;" horiz-adv-x="471" d="M33 -428l47 96q47 -31 110 -30q55 0 79 26.5t24 59t-26.5 55t-65.5 22.5q-49 0 -86 -28l-68 39l29 190h129l-15 -94q37 6 41 6q86 0 141.5 -51t55.5 -135q0 -94 -66.5 -151.5t-154.5 -57.5q-59 0 -107.5 17.5t-66.5 35.5z" />
<glyph unicode="&#xfd;" horiz-adv-x="880" d="M70 1169l125 379l262 -92l-168 -360zM424 1169l125 379l262 -92l-168 -360z" />
<glyph unicode="&#xfe;" horiz-adv-x="583" d="M68 -229q0 139 141 229l160 -47q-4 -4 -38 -27.5t-45.5 -34t-33 -32t-29.5 -43t-8 -45.5q0 -45 26.5 -74t69.5 -29q57 0 152 47l53 -108q-123 -70 -225 -70q-100 0 -161.5 64t-61.5 170z" />
<glyph unicode="&#xff;" horiz-adv-x="1105" d="M215 1413l111 146l264 -148l264 145l107 -159l-371 -277z" />
<glyph unicode="&#x152;" horiz-adv-x="952" d="M78 993q0 176 114.5 292t290.5 116q170 0 280.5 -110.5t110.5 -278.5q0 -182 -114.5 -298t-294.5 -116q-172 0 -279.5 111.5t-107.5 283.5zM328 1001.5q0 -92.5 43 -145.5t112 -53q68 0 105 50t37 144q0 92 -41 146.5t-111 54.5q-68 0 -106.5 -52t-38.5 -144.5z" />
<glyph unicode="&#x153;" horiz-adv-x="1712" d="M129 0v272h225q-193 135 -192 445q0 307 190.5 495.5t503.5 188.5t503.5 -188.5t190.5 -495.5q0 -287 -180 -438q-6 -4 -8 -7h221v-272h-631v211q20 6 39 13t64 42t75.5 80t56 133t25.5 197q0 209 -97 328.5t-259 119.5t-259 -119.5t-97 -328.5q0 -106 24.5 -192.5 t55 -133.5t73.5 -80.5t64.5 -43t42.5 -15.5v-211h-631z" />
<glyph unicode="&#x178;" horiz-adv-x="1724" d="M80 309q0 362 559 363h37q-2 74 -41 105.5t-119 31.5q-143 0 -283 -70l-98 195q23 16 57.5 35.5t133 47t206.5 27.5q211 0 316 -116q43 43 131 81t197 38q225 0 347 -146.5t122 -396.5q0 -25 -2.5 -54.5t-2.5 -39.5h-671q0 -72 64.5 -139.5t195.5 -67.5t260 71l96 -192 q-10 -10 -57 -34.5t-140.5 -51.5t-185.5 -27q-221 0 -371 150q-164 -150 -389 -150q-176 0 -269 94t-93 246zM350 334q0 -63 39 -96t100 -33q121 0 232 88q-35 70 -35 178q-94 0 -137 -2t-90 -13.5t-72 -35.5q-37 -37 -37 -86zM975 627h383q0 23 -6 49t-21.5 63t-54.5 60.5 t-94 23.5q-59 0 -103.5 -25.5t-65 -63.5t-28.5 -64.5t-10 -42.5z" />
<glyph unicode="&#x2c6;" horiz-adv-x="1349" d="M133 487l426 879h244l416 -879h-289l-246 543l-248 -543h-303z" />
<glyph unicode="&#x2dc;" horiz-adv-x="485" d="M-512 256q10 27 38.5 65.5t104.5 85t170 46.5q96 0 226.5 -58.5t179.5 -58.5q33 0 64.5 18.5t46 33.5t42.5 48l154 -121q-6 -14 -26.5 -40.5t-57.5 -63.5t-95.5 -62.5t-123.5 -25.5q-90 0 -226.5 58.5t-189.5 58.5q-82 0 -145 -95z" />
<glyph unicode="&#x2000;" horiz-adv-x="980" />
<glyph unicode="&#x2001;" horiz-adv-x="1961" />
<glyph unicode="&#x2002;" horiz-adv-x="980" />
<glyph unicode="&#x2003;" horiz-adv-x="1961" />
<glyph unicode="&#x2004;" horiz-adv-x="653" />
<glyph unicode="&#x2005;" horiz-adv-x="489" />
<glyph unicode="&#x2006;" horiz-adv-x="325" />
<glyph unicode="&#x2007;" horiz-adv-x="325" />
<glyph unicode="&#x2008;" horiz-adv-x="243" />
<glyph unicode="&#x2009;" horiz-adv-x="391" />
<glyph unicode="&#x200a;" horiz-adv-x="108" />
<glyph unicode="&#x2010;" horiz-adv-x="1019" d="M143 414v262h734v-262h-734z" />
<glyph unicode="&#x2011;" horiz-adv-x="1019" d="M143 414v262h734v-262h-734z" />
<glyph unicode="&#x2012;" horiz-adv-x="1019" d="M143 414v262h734v-262h-734z" />
<glyph unicode="&#x2013;" horiz-adv-x="1024" d="M143 414v262h738v-262h-738z" />
<glyph unicode="&#x2014;" horiz-adv-x="2048" d="M143 414v262h1762v-262h-1762z" />
<glyph unicode="&#x2018;" horiz-adv-x="755" d="M74 1321l127 235l481 -268l-102 -172z" />
<glyph unicode="&#x2019;" horiz-adv-x="514" d="M88 1366h338l-45 -535h-248z" />
<glyph unicode="&#x201c;" horiz-adv-x="909" d="M88 1366h338l-45 -535h-248zM483 1366h338l-45 -535h-248z" />
<glyph unicode="&#x201d;" horiz-adv-x="909" d="M88 1366h338l-45 -535h-248zM483 1366h338l-45 -535h-248z" />
<glyph unicode="&#x2026;" horiz-adv-x="1861" d="M1362 174q0 78 56 133t134 55t133.5 -55t55.5 -133t-55.5 -134t-133.5 -56t-134 56t-56 134zM742 174q0 78 56 133t134 55t133.5 -55t55.5 -133t-55.5 -134t-133.5 -56t-134 56t-56 134zM121 174q0 78 56 133t134 55t133.5 -55t55.5 -133t-55.5 -134t-133.5 -56t-134 56 t-56 134z" />
<glyph unicode="&#x202f;" horiz-adv-x="391" />
<glyph unicode="&#x2039;" horiz-adv-x="1355" d="M121 440v211l1012 453l104 -252l-690 -307l690 -316l-104 -239z" />
<glyph unicode="&#x203a;" horiz-adv-x="1355" d="M121 229l690 316l-690 307l104 252l1012 -453v-211l-1012 -450z" />
<glyph unicode="&#x205f;" horiz-adv-x="489" />
<glyph unicode="&#x20ac;" d="M225 -184l119 200q133 -74 244 -73q178 0 178 116q0 39 -37 72q-18 16 -158.5 69.5t-205.5 110.5q-100 92 -101 230q0 88 54.5 156.5t140.5 107.5q-164 102 -164 244q0 160 113.5 258t328.5 98q96 0 182.5 -26.5t116 -45t47.5 -33.5l-112 -188q-102 61 -209 62 q-168 0 -168 -101q0 -35 35 -65q27 -23 178 -77t215 -112q86 -76 86 -215q0 -176 -188 -278q53 -29 96 -98.5t43 -147.5q0 -170 -121 -275.5t-336 -105.5q-232 0 -377 117zM520 590q0 -41 29 -70q37 -37 176 -88q2 0 12.5 6t19.5 11.5t23.5 14.5t25.5 19.5t21.5 22.5 t15.5 27.5t5 31.5q0 37 -29 66q-39 39 -184 92q-115 -51 -115 -133z" />
<glyph unicode="&#x2122;" horiz-adv-x="2975" d="M1265 0l133 1366h363l317 -940l297 940h363l141 -1366h-313l-80 909l-285 -909h-278l-299 911l-62 -911h-297zM51 1098v268h1067v-268h-362v-1098h-340v1098h-365z" />
<glyph unicode="&#xe000;" horiz-adv-x="1014" d="M0 1015h1015v-1015h-1015v1015z" />
<glyph unicode="&#xfb01;" horiz-adv-x="1546" d="M1095 1302.5q0 71.5 51.5 122t123 50.5t122 -50.5t50.5 -122t-50.5 -123t-122 -51.5t-123 51.5t-51.5 123zM1104 0v1016h327v-1016h-327zM86 760v256h180v20q0 115 18.5 195t39 111.5t53.5 64.5q109 109 315 109q84 0 161 -26t105.5 -44.5t40.5 -30.5l-118 -203 q-78 45 -148 45q-47 0 -77.5 -16t-43 -48t-15.5 -59.5t-3 -72.5v-45h278v-256h-278v-760h-328v760h-180z" />
<glyph unicode="&#xfb02;" horiz-adv-x="1556" d="M1110 0v1483h327v-1483h-327zM86 760v256h180v20q0 115 18.5 195t39 111.5t53.5 64.5q109 109 315 109q84 0 161 -26t105.5 -44.5t40.5 -30.5l-118 -203q-78 45 -148 45q-47 0 -77.5 -16t-43 -48t-15.5 -59.5t-3 -72.5v-45h278v-256h-278v-760h-328v760h-180z" />
<glyph unicode="&#xfb03;" horiz-adv-x="2537" d="M2086 1302.5q0 71.5 51.5 122t123 50.5t122 -50.5t50.5 -122t-50.5 -123t-122 -51.5t-123 51.5t-51.5 123zM2095 0v1016h327v-1016h-327zM1077 760v256h180v20q0 115 18.5 195t39 111.5t53.5 64.5q109 109 315 109q84 0 161 -26t105.5 -44.5t40.5 -30.5l-118 -203 q-78 45 -148 45q-47 0 -77.5 -16t-43 -48t-15.5 -59.5t-3 -72.5v-45h278v-256h-278v-760h-328v760h-180zM86 760v256h180v20q0 115 18.5 195t39 111.5t53.5 64.5q109 109 315 109q84 0 161 -26t105.5 -44.5t40.5 -30.5l-118 -203q-78 45 -148 45q-47 0 -77.5 -16t-43 -48 t-15.5 -59.5t-3 -72.5v-45h278v-256h-278v-760h-328v760h-180z" />
<glyph unicode="&#xfb04;" horiz-adv-x="2547" d="M2101 0v1483h327v-1483h-327zM1077 760v256h180v20q0 115 18.5 195t39 111.5t53.5 64.5q109 109 315 109q84 0 161 -26t105.5 -44.5t40.5 -30.5l-118 -203q-78 45 -148 45q-47 0 -77.5 -16t-43 -48t-15.5 -59.5t-3 -72.5v-45h278v-256h-278v-760h-328v760h-180zM86 760 v256h180v20q0 115 18.5 195t39 111.5t53.5 64.5q109 109 315 109q84 0 161 -26t105.5 -44.5t40.5 -30.5l-118 -203q-78 45 -148 45q-47 0 -77.5 -16t-43 -48t-15.5 -59.5t-3 -72.5v-45h278v-256h-278v-760h-328v760h-180z" />
</font>
</defs>
</svg>
