<?xml version="1.0" standalone="no"?>
<!DOCTYPE svg PUBLIC "-//W3C//DTD SVG 1.1//EN" "http://www.w3.org/Graphics/SVG/1.1/DTD/svg11.dtd" >
<svg xmlns="http://www.w3.org/2000/svg" xmlns:xlink="http://www.w3.org/1999/xlink" version="1.1">
<metadata></metadata>
<defs>
<font id="frygiablack_italic" horiz-adv-x="1171" >
<font-face units-per-em="2048" ascent="1536" descent="-512" />
<missing-glyph horiz-adv-x="430" />
<glyph unicode="&#xfb01;" horiz-adv-x="1298" d="M963 1133q-13 0 -66 8t-104 8q-108 0 -143.5 -24t-41.5 -85l-2 -16h467q66 0 102 -2t57 -9t25.5 -17.5t2.5 -30.5l-97 -912q-2 -27 -13.5 -38t-48.5 -16t-124 -5t-125.5 5t-50.5 16.5t-10 37.5l69 664h-274l-70 -664q-2 -27 -13.5 -38t-48.5 -16t-124 -5t-126 5t-51 16.5 t-10 37.5l70 664h-90q-26 0 -36.5 12.5t-10.5 52.5q0 28 6 84q8 76 13 101.5t14.5 36t33.5 12.5l103 8l2 16q23 216 138 310t349 94q170 0 248 -27q29 -9 40 -26t11 -54q0 -11 -4 -61q-10 -93 -23 -118t-44 -25z" />
<glyph unicode="&#xfb02;" horiz-adv-x="1351" d="M608 1040l-2 -16h119q25 0 36 -13t11 -55q0 -30 -6 -86q-11 -105 -20 -129t-41 -24h-119l-70 -664q-2 -27 -13.5 -38t-48.5 -16t-124 -5t-126 5t-51 16.5t-10 37.5l70 664h-90q-26 0 -36.5 12.5t-10.5 52.5q0 28 6 84q8 76 13 101.5t14.5 36t33.5 12.5l103 8l2 16 q23 218 147 311t400 93q122 0 244.5 -15.5t203.5 -37.5q40 -11 53.5 -23.5t10.5 -42.5l-103 -967q-3 -25 2.5 -34t26.5 -9h10q31 0 43 -13.5t12 -59.5q0 -34 -6 -86q-9 -103 -24.5 -131.5t-67.5 -28.5h-106q-151 0 -213 45.5t-62 167.5q0 49 4 78l90 854q-58 8 -110 8 q-115 0 -152 -23.5t-43 -85.5z" />
<glyph unicode="&#xfb03;" horiz-adv-x="1953" d="M901 1024l2 16q23 215 141 309.5t353 94.5q163 0 241 -27q29 -9 40.5 -26t11.5 -54q0 -11 -4 -61q-7 -64 -16 -94.5t-20 -39.5t-32 -9q-13 0 -66 8t-104 8q-75 0 -114 -12.5t-52.5 -33.5t-17.5 -63l-2 -16h467q87 0 126 -5t51 -16.5t9 -37.5l-96 -912q-2 -27 -13.5 -38 t-49 -16t-124.5 -5t-125.5 5t-50.5 16.5t-10 37.5l70 664h-275l-70 -664q-2 -27 -13.5 -38t-48.5 -16t-124 -5t-125.5 5t-50.5 16.5t-10 37.5l69 664h-282l-70 -664q-2 -27 -13.5 -38t-48.5 -16t-124 -5t-126 5t-51 16.5t-10 37.5l70 664h-90q-26 0 -36.5 12.5t-10.5 52.5 q0 28 6 84q8 76 13 101.5t14.5 36t33.5 12.5l103 8l6 66q11 101 43.5 171.5t83.5 109.5t111.5 56t138.5 17q96 0 155 -19q29 -9 39.5 -24t10.5 -51q0 -34 -5 -70q-10 -94 -24.5 -120.5t-46.5 -26.5q-9 0 -31 2t-35 2q-74 0 -82 -66l-4 -47h295z" />
<glyph unicode="&#xfb04;" horiz-adv-x="2007" d="M901 1024l2 16q23 218 149.5 311t403.5 93q246 0 442 -53q40 -11 53.5 -23.5t10.5 -42.5l-102 -967q-3 -25 3 -34t27 -9h11q30 0 41.5 -13.5t11.5 -57.5q0 -32 -6 -88q-9 -103 -25 -131.5t-68 -28.5h-106q-151 0 -212.5 45.5t-61.5 167.5q0 49 4 78l90 854q-58 8 -111 8 q-115 0 -151.5 -23.5t-42.5 -85.5l-2 -16h118q25 0 36 -13t11 -55q0 -30 -6 -86q-11 -105 -20 -129t-41 -24h-119l-70 -664q-2 -27 -13.5 -38t-48.5 -16t-124 -5t-125.5 5t-50.5 16.5t-10 37.5l69 664h-282l-70 -664q-2 -27 -13.5 -38t-48.5 -16t-124 -5t-126 5t-51 16.5 t-10 37.5l70 664h-90q-26 0 -36.5 12.5t-10.5 52.5q0 28 6 84q8 76 13 101.5t14.5 36t33.5 12.5l103 8l6 66q11 101 43.5 171.5t83.5 109.5t111.5 56t138.5 17q96 0 155 -19q29 -9 39.5 -24t10.5 -51q0 -34 -5 -70q-10 -94 -24.5 -120.5t-46.5 -26.5q-9 0 -31 2t-35 2 q-74 0 -82 -66l-4 -47h295z" />
<glyph horiz-adv-x="0" />
<glyph horiz-adv-x="682" />
<glyph unicode=" "  horiz-adv-x="430" />
<glyph unicode="&#x09;" horiz-adv-x="430" />
<glyph unicode="&#xa0;" horiz-adv-x="430" />
<glyph unicode="!" horiz-adv-x="630" d="M334 518q-102 0 -133 11.5t-29 48.5l27 716q3 40 43 54t168 14q130 0 173.5 -14.5t37.5 -53.5l-125 -716q-3 -26 -15 -38t-44.5 -17t-102.5 -5zM279 -6q-93 0 -133.5 5t-53 17.5t-10.5 40.5l29 271q3 29 15 40.5t51.5 17t131.5 5.5q93 0 133.5 -5t52.5 -17.5t9 -40.5 l-29 -271q-2 -29 -14 -40.5t-51 -17t-131 -5.5z" />
<glyph unicode="&#x22;" horiz-adv-x="851" d="M156 969l18 405q1 21 10 31t41 15t99 5q98 0 126 -10.5t23 -40.5l-67 -405q-3 -22 -11 -30.5t-32 -12.5t-80 -4q-81 0 -105 9t-22 38zM565 969l19 405q1 22 10 31.5t40.5 14.5t98.5 5q98 0 126.5 -10.5t23.5 -40.5l-68 -405q-3 -22 -11 -30.5t-32 -12.5t-80 -4 q-81 0 -105 9t-22 38z" />
<glyph unicode="#" horiz-adv-x="1355" d="M666 41l59 246h-215l-59 -246q-5 -21 -16 -30t-40 -13t-94 -4q-94 0 -117.5 8.5t-15.5 38.5l59 246h-116q-22 0 -30.5 11.5t-8.5 47.5q0 41 4 70q9 90 16 109.5t33 19.5h166l45 180h-117q-23 0 -32 11.5t-9 49.5q0 10 4 68q9 88 17 108.5t34 20.5h164l62 246 q6 22 15.5 30.5t38 12.5t93.5 4q94 0 118.5 -8.5t16.5 -38.5l-61 -246h215l61 246q5 21 15.5 30t39 13t93.5 4q94 0 118.5 -8.5t16.5 -38.5l-61 -246h116q22 0 30.5 -11.5t8.5 -47.5q0 -41 -4 -70q-9 -90 -16 -109.5t-33 -19.5h-164l-45 -180h115q22 0 31.5 -11.5t9.5 -50.5 q0 -9 -4 -67q-9 -88 -17.5 -108.5t-34.5 -20.5h-163l-60 -246q-5 -21 -15.5 -30t-39.5 -13t-94 -4q-94 0 -117.5 8.5t-15.5 38.5zM618 725l-45 -180h215l46 180h-216z" />
<glyph unicode="$" horiz-adv-x="1212" d="M545 -190q-111 0 -140 9t-26 42l14 131q-191 27 -267 121t-60 247q4 39 18.5 55t54 22.5t131.5 6.5q122 0 154 -12t29 -57q-3 -40 25.5 -58t103.5 -18q157 0 157 90q0 48 -62 80q-40 20 -208 72q-35 11 -60.5 20t-63.5 26.5t-64.5 36.5t-57 48.5t-49 63.5t-31 81 t-12.5 101q0 211 102.5 317.5t305.5 132.5l12 127q2 24 12 33t42.5 13.5t109.5 4.5q111 0 139 -9t25 -42l-15 -133q173 -29 242.5 -122t56.5 -241q-4 -38 -20.5 -54.5t-58 -23t-134.5 -6.5q-84 0 -119.5 6t-45.5 19t-9 45q2 34 -20.5 53t-91.5 19q-70 0 -103 -15.5 t-33 -64.5q0 -55 75 -95q44 -24 184 -73l38 -14q126 -45 179 -81q137 -91 137 -280q0 -213 -107 -317t-313 -127l-14 -129q-2 -24 -11.5 -33t-41.5 -13.5t-109 -4.5z" />
<glyph unicode="%" horiz-adv-x="1765" d="M504 1370q151 0 231 -75t80 -212q0 -88 -19.5 -159.5t-61 -127.5t-112.5 -87t-167 -31q-151 0 -231.5 75t-80.5 212q0 88 20 159.5t61.5 127.5t112.5 87t167 31zM465 885q80 0 80 202q0 41 -11.5 58.5t-39.5 17.5q-80 0 -80 -202q0 -41 11.5 -58.5t39.5 -17.5zM1446 1298 l-787 -1247q-16 -26 -27 -35t-44 -15.5t-99 -6.5q-117 0 -123 29q-3 12 11 34l786 1248q18 26 28.5 35t43 15.5t98.5 6.5q119 0 124 -30q2 -13 -11 -34zM1370 678q151 0 231 -75t80 -212q0 -88 -19.5 -159.5t-61 -127.5t-112.5 -87t-167 -31q-151 0 -231 74.5t-80 211.5 q0 88 19.5 159.5t61 128t112.5 87.5t167 31zM1331 193q80 0 80 202q0 41 -11.5 58.5t-39.5 17.5q-80 0 -80 -203q0 -41 11.5 -58t39.5 -17z" />
<glyph unicode="&#x26;" horiz-adv-x="1445" d="M1321 307q29 0 40 -14t11 -55q0 -30 -6 -86q-8 -79 -22.5 -107.5t-53.5 -40.5q-59 -18 -135 -18q-165 0 -215 90q-150 -96 -354 -96q-246 0 -376 90.5t-130 273.5q0 66 20 132.5t69.5 129t121.5 92.5q-123 70 -123 260q0 106 39.5 187t111.5 131t168 75t213 25 q258 0 386 -93t110 -298q-4 -58 -46 -75t-157 -17q-97 0 -123.5 14t-23.5 60q3 60 -30.5 84t-108.5 24q-76 0 -125.5 -40.5t-49.5 -116.5q0 -63 30.5 -88t107.5 -25h22q30 0 39 -24t2 -95q-8 -77 -16.5 -98t-36.5 -21h-18q-41 0 -76 -8t-66 -26t-49 -52t-18 -80 q0 -59 43 -83.5t139 -24.5q139 0 205 46.5t75 141.5l9 86h-64q-30 0 -39 24t-2 95q8 77 16.5 98t36.5 21h508q30 0 39 -24t2 -95q-8 -77 -16.5 -98t-36.5 -21h-135l-14 -141q0 -2 -1 -7t-1 -7q-1 -4 -1 -10t0.5 -12.5t0.5 -8.5q0 -78 47 -78q8 0 28 2t29 2z" />
<glyph unicode="'" horiz-adv-x="442" d="M156 969l18 405q1 21 10 31t41 15t99 5q98 0 126 -10.5t23 -40.5l-67 -405q-3 -22 -11 -30.5t-32 -12.5t-80 -4q-81 0 -105 9t-22 38z" />
<glyph unicode="(" horiz-adv-x="790" d="M106 240q0 150 14 290t43 275t78 246t115 195.5t158 131.5t203 47h63q27 0 38 -13.5t11 -55.5q0 -43 -4 -72q-9 -96 -18 -118.5t-41 -22.5h-21q-74 0 -130.5 -73.5t-91 -203t-51.5 -295.5t-17 -362q0 -165 34.5 -234t114.5 -69h21q25 0 36 -12.5t11 -51.5q0 -28 -6 -78 q-9 -93 -20 -117t-44 -24h-63q-224 0 -328.5 156.5t-104.5 460.5z" />
<glyph unicode=")" horiz-adv-x="790" d="M684 809q0 -150 -14 -290t-43 -275.5t-78 -246.5t-114.5 -195.5t-157.5 -131.5t-203 -47h-64q-27 0 -38 14t-11 56t4 71q9 95 18.5 118.5t41.5 23.5h20q74 0 131 73.5t91 203t51.5 295.5t17.5 362q0 164 -35 233.5t-115 69.5h-20q-25 0 -36 12t-11 51q0 29 6 78 q9 93 20 117t43 24h64q224 0 328 -156t104 -460z" />
<glyph unicode="*" horiz-adv-x="1064" d="M301 1229l213 -109l-12 248q-2 28 24.5 40.5t112.5 12.5q59 0 89 -7t36.5 -17t3.5 -29l-68 -248l240 109q11 6 21.5 5t19.5 -11t18.5 -36t18.5 -69q10 -62 10 -84q0 -31 -9.5 -43t-29.5 -14l-250 -35l152 -180q10 -13 10 -26t-23.5 -35.5t-76.5 -57.5q-50 -33 -80 -44.5 t-42.5 -7t-19.5 22.5l-81 222l-127 -222q-10 -18 -23.5 -22.5t-40.5 7t-70 44.5q-47 35 -65.5 57t-17 34.5t17.5 27.5l188 180l-241 35q-19 2 -26 12.5t-1.5 41t27.5 87.5q34 82 55 102.5t47 8.5z" />
<glyph unicode="+" horiz-adv-x="1187" d="M817 1069l-29 -278h269q25 0 36 -13t11 -53q0 -31 -6 -84q-11 -103 -19.5 -126t-40.5 -23h-282l-29 -279q-2 -24 -11 -33t-39.5 -13.5t-101.5 -4.5q-103 0 -130.5 9t-24.5 42l29 279h-267q-27 0 -38 13t-11 56q0 27 6 80q11 102 20.5 126t41.5 24h280l29 278 q3 24 12.5 33t40 13.5t101.5 4.5q103 0 130.5 -9t22.5 -42z" />
<glyph unicode="," horiz-adv-x="565" d="M303 387q116 0 149 -14.5t23 -65.5q-17 -83 -117 -288t-147 -257q-19 -21 -48.5 -31t-50.5 -11t-77 -1q-38 0 -58 3.5t-31.5 13.5t-9.5 28.5t15 49.5q29 68 66 206t67 285q8 39 23.5 54.5t56.5 21.5t139 6z" />
<glyph unicode="-" horiz-adv-x="856" d="M162 717h586q27 0 38 -13.5t11 -56.5q0 -31 -6 -86q-10 -105 -20.5 -130t-43.5 -25h-586q-27 0 -38 13.5t-11 57.5q0 31 6 84q12 107 22 131.5t42 24.5z" />
<glyph unicode="." horiz-adv-x="565" d="M246 -6q-93 0 -133.5 5t-53 17.5t-10.5 40.5l29 271q3 29 15 40.5t51.5 17t131.5 5.5q93 0 133.5 -5t52.5 -17.5t9 -40.5l-29 -271q-2 -29 -14 -40.5t-51 -17t-131 -5.5z" />
<glyph unicode="/" horiz-adv-x="778" d="M870 1403l-561 -1516q-11 -26 -20.5 -35t-45 -14.5t-116.5 -5.5q-61 0 -96 3t-53.5 10.5t-21 19t2.5 29.5l563 1515q9 26 19.5 35.5t46 14.5t117.5 5q61 0 96 -3t53.5 -10t20 -18.5t-4.5 -29.5z" />
<glyph unicode="0" horiz-adv-x="1236" d="M690 1290q252 0 377 -126.5t125 -387.5q0 -87 -7.5 -165t-26.5 -159.5t-48.5 -149.5t-76.5 -129t-107.5 -102.5t-144.5 -66t-185 -24.5q-252 0 -377 126.5t-125 387.5q0 87 7.5 165t26.5 159.5t48.5 149.5t76.5 129t107.5 102.5t144.5 66t185 24.5zM608 311 q42 0 74.5 24.5t52.5 68t33.5 91t19.5 105.5t8.5 100t2.5 84q0 96 -28 135t-93 39q-41 0 -73.5 -24.5t-52.5 -68t-34 -91.5t-20 -105.5t-8.5 -99.5t-2.5 -84q0 -96 28 -135t93 -39z" />
<glyph unicode="1" horiz-adv-x="876" d="M266 55l90 842l-182 -35q-30 -5 -41.5 9t-11.5 57q0 16 8 110q10 107 22.5 134.5t49.5 33.5l493 82q50 8 69.5 -5t16.5 -52l-125 -1176q-2 -29 -13.5 -40.5t-50.5 -17t-130 -5.5q-92 0 -132 5t-52.5 17.5t-10.5 40.5z" />
<glyph unicode="2" horiz-adv-x="1122" d="M649 1290q222 0 330 -96t108 -258q0 -147 -82 -257.5t-231 -205.5q-37 -23 -116 -67t-111 -66h434q28 0 38.5 -12.5t10.5 -57.5q0 -36 -6 -100q-12 -119 -21.5 -144.5t-44.5 -25.5h-872q-29 0 -40 13.5t-11 60.5q0 34 6 96l4 41q5 43 20 82t43 72.5t54.5 59.5t69.5 54.5 t72.5 46.5t79.5 46.5t75 43.5q40 24 62.5 38.5t60 43.5t58.5 54.5t37.5 62t16.5 74.5t-19 53.5t-57 15.5q-49 0 -75 -19.5t-35 -70.5q-5 -30 -19 -43t-52.5 -19.5t-121.5 -6.5q-124 0 -160.5 16t-29.5 72q27 212 156 307.5t368 95.5z" />
<glyph unicode="3" horiz-adv-x="1105" d="M516 496h-104q-24 0 -32.5 11.5t-8.5 51.5q0 43 4 76q11 98 18.5 118.5t34.5 20.5h109q153 0 153 119q0 74 -98 74q-97 0 -109 -62q-6 -30 -18 -43t-49.5 -19.5t-120.5 -6.5q-122 0 -157.5 16t-28.5 72q25 202 149.5 284t366.5 82q221 0 336.5 -88.5t115.5 -247.5 q0 -113 -44.5 -187t-143.5 -128q66 -28 105.5 -89.5t39.5 -154.5q0 -108 -38.5 -189t-109 -129.5t-163 -72.5t-207.5 -24q-122 0 -209.5 17t-153.5 57t-95 111.5t-21 174.5q3 40 18.5 58t54 25t121.5 7q119 0 153 -14.5t32 -57.5q-3 -53 104 -53q129 0 129 109 q0 41 -31 61.5t-102 20.5z" />
<glyph unicode="4" horiz-adv-x="1200" d="M766 -6q-91 0 -130.5 5t-52 17t-10.5 39l25 224h-500q-30 0 -40.5 13t-10.5 58q0 12 4 78q7 68 18.5 97.5t39.5 60.5l550 645q27 32 63 40.5t155 8.5q71 0 109.5 -2t62 -9.5t29 -18.5t3.5 -31l-65 -625h106q28 0 40 -14.5t12 -57.5q0 -21 -7 -86q-11 -109 -20.5 -133 t-44.5 -24h-121l-23 -224q-2 -28 -13.5 -39t-50 -16.5t-128.5 -5.5zM401 594h246l35 334z" />
<glyph unicode="5" horiz-adv-x="1110" d="M545 557q-77 0 -160 -22q-69 -19 -156 -17q-75 1 -100.5 21t-19.5 63l98 604q5 28 18.5 40.5t48 18t109.5 5.5h614q29 0 39.5 -12.5t10.5 -57.5q0 -25 -7 -100q-12 -118 -22 -144t-45 -26h-443l-24 -144q82 29 172 29q170 0 269.5 -83t99.5 -255q0 -236 -130.5 -366.5 t-384.5 -130.5q-112 0 -198.5 18.5t-152.5 58t-97 109.5t-23 166q3 57 38 73.5t155 16.5q119 0 152.5 -14.5t31.5 -57.5q0 -53 94 -53q125 0 125 154q0 56 -27 81t-85 25z" />
<glyph unicode="6" horiz-adv-x="1179" d="M776 938q0 34 -24.5 45.5t-77.5 11.5q-139 0 -187 -245q91 61 234 61q63 0 117.5 -9t109 -32.5t92.5 -60.5t62 -98t24 -140q0 -235 -140.5 -363t-377.5 -128q-259 0 -387.5 132t-128.5 367q0 136 18 251t62.5 220.5t113.5 179t176 117t245 43.5q134 0 230.5 -34 t150.5 -109.5t45 -185.5q-3 -36 -17.5 -53.5t-52 -25.5t-113.5 -8q-77 0 -113.5 6t-48.5 18.5t-12 39.5zM463 522v-82q0 -85 30.5 -124.5t104.5 -39.5q80 0 124 48t44 125q0 57 -32.5 83.5t-104.5 26.5q-91 0 -166 -37z" />
<glyph unicode="7" horiz-adv-x="1081" d="M86 72q64 193 225.5 443.5t325.5 414.5h-463q-28 0 -38.5 12t-10.5 57q0 37 6 101q4 43 7 67t7.5 46t8 31t10.5 16t14.5 8.5t20.5 1.5h848q28 0 38.5 -12.5t10.5 -57.5q0 -36 -6 -100q-6 -53 -19 -85.5t-41 -62.5q-144 -159 -296.5 -425t-227.5 -466q-17 -46 -57 -57.5 t-177 -11.5q-89 0 -133 8.5t-53 26.5t0 45z" />
<glyph unicode="8" horiz-adv-x="1191" d="M68 328q0 126 59 202.5t162 122.5q-142 78 -142 230q0 88 27 157t74 115.5t114 77t144.5 44t167.5 13.5q227 0 352 -91t125 -257q0 -118 -52 -189t-145 -114q162 -86 162 -250q0 -111 -43 -192t-120.5 -127.5t-173 -68t-212.5 -21.5q-246 0 -372.5 94t-126.5 254z M739 397q0 49 -31.5 81.5t-91.5 58.5q-81 -28 -124 -66.5t-43 -103.5q0 -91 135 -91q37 0 69 9t59 37.5t27 74.5zM522 885q0 -77 105 -127q72 26 110.5 61.5t38.5 93.5q0 82 -117 82q-35 0 -63.5 -8t-51 -34t-22.5 -68z" />
<glyph unicode="9" horiz-adv-x="1179" d="M455 332q0 -34 25 -46t77 -12q138 0 186 244q-91 -59 -233 -59q-63 0 -117.5 9t-109 32.5t-93 60.5t-62.5 98t-24 140q0 235 141 363t378 128q259 0 387.5 -132t128.5 -367q0 -136 -18 -251t-62.5 -220.5t-113.5 -179t-176 -117t-245 -43.5q-134 0 -230.5 34 t-150.5 109.5t-45 185.5q3 36 17.5 53t52 25t113.5 8q78 0 114 -5.5t48 -18t12 -39.5zM768 829q0 85 -30.5 124.5t-104.5 39.5q-81 0 -124.5 -48t-43.5 -124q0 -57 32.5 -83.5t104.5 -26.5q97 0 164 37q2 27 2 81z" />
<glyph unicode=":" horiz-adv-x="614" d="M270 -6q-93 0 -133 5t-52.5 17.5t-10.5 40.5l28 271q3 29 15.5 40.5t52 17t131.5 5.5q93 0 133.5 -5t52.5 -17.5t9 -40.5l-29 -271q-2 -29 -14 -40.5t-51.5 -17t-131.5 -5.5zM338 647q-92 0 -133 5.5t-53.5 18t-10.5 40.5l29 270q3 29 15.5 40.5t52 17t131.5 5.5 q133 0 166 -11t28 -52l-28 -270q-2 -29 -14 -41t-51.5 -17.5t-131.5 -5.5z" />
<glyph unicode=";" horiz-adv-x="614" d="M319 387q116 0 149.5 -14.5t23.5 -65.5q-17 -83 -117.5 -288t-147.5 -257q-19 -21 -48.5 -31t-50.5 -11t-77 -1q-38 0 -58 3.5t-31.5 13.5t-9.5 28.5t15 49.5q29 68 66 206t67 285q8 39 23.5 54.5t56.5 21.5t139 6zM338 647q-92 0 -133 5.5t-53.5 18t-10.5 40.5l29 270 q3 29 15.5 40.5t52 17t131.5 5.5q133 0 166 -11t28 -52l-28 -270q-2 -29 -14 -41t-51.5 -17.5t-131.5 -5.5z" />
<glyph unicode="&#x3c;" horiz-adv-x="1187" d="M127 639q9 92 17 115.5t36 40.5l766 426q29 16 49.5 -1.5t61.5 -103.5q43 -88 45.5 -117.5t-27.5 -42.5l-581 -317l514 -317q28 -13 19 -42t-71 -118q-59 -86 -83 -103.5t-50 -1.5l-676 426q-16 11 -22 22.5t-6 35.5q0 4 8 98z" />
<glyph unicode="=" horiz-adv-x="1187" d="M190 541h840q23 0 32 -10.5t9 -45.5q0 -29 -6 -94q-10 -99 -21.5 -124t-44.5 -25h-839q-25 0 -34 11t-9 48q0 31 6 90q10 99 22 124.5t45 25.5zM240 1028h839q23 0 32 -10t9 -45q0 -29 -6 -94q-10 -100 -21 -125t-44 -25h-840q-25 0 -34 11t-9 48q0 32 6 91q7 69 15 99.5 t19 40t34 9.5z" />
<glyph unicode="&#x3e;" horiz-adv-x="1187" d="M1061 639q-9 -92 -17 -115.5t-36 -40.5l-766 -426q-29 -16 -49.5 1.5t-61.5 103.5q-43 88 -45.5 117.5t27.5 42.5l581 317l-514 317q-28 13 -19 42.5t70 117.5q59 85 83.5 103t50.5 2l675 -426q16 -11 22.5 -23t6.5 -35q0 -4 -8 -98z" />
<glyph unicode="?" horiz-adv-x="1167" d="M766 586l-6 -27q-4 -26 -14 -36t-43 -14.5t-113 -4.5q-115 0 -143.5 9.5t-26.5 45.5l2 41q3 45 27 83t57.5 62t72.5 50t71.5 48.5t54.5 57t22 76.5q0 36 -20.5 51.5t-63.5 15.5q-57 0 -84.5 -19t-36.5 -71q-4 -30 -17 -43t-51.5 -19.5t-121.5 -6.5q-124 0 -161.5 16 t-31.5 72q27 212 158.5 307.5t376.5 95.5q229 0 338.5 -94.5t109.5 -247.5q0 -73 -24.5 -132t-61 -94t-81 -66t-83.5 -51.5t-69 -48t-37 -56.5zM539 -6q-93 0 -133.5 5t-53 17.5t-10.5 40.5l29 271q3 29 15 40.5t51.5 17t131.5 5.5q93 0 133.5 -5t52.5 -17.5t9 -40.5 l-29 -271q-2 -29 -14 -40.5t-51 -17t-131 -5.5z" />
<glyph unicode="@" horiz-adv-x="1851" d="M1057 571l18 183q-40 12 -90 12q-43 0 -72 -20t-42 -56t-18 -71.5t-5 -81.5q0 -57 19.5 -83t62.5 -26q58 0 88.5 34.5t38.5 108.5zM1155 -158h-268q-179 0 -313.5 33.5t-234.5 106.5t-151 196t-51 295q0 903 885 903q384 0 562.5 -151.5t178.5 -466.5q0 -62 -3.5 -115.5 t-14 -115t-27.5 -110.5t-47 -96.5t-70 -79t-98.5 -50.5t-130.5 -19q-100 0 -170.5 38.5t-87.5 100.5q-33 -61 -97 -95t-149 -34q-156 0 -240.5 83.5t-84.5 252.5q0 97 12.5 171t43.5 136.5t81 102.5t126.5 62t178.5 22q208 0 348 -64q24 -11 33 -26.5t6 -42.5l-45 -424 q-6 -60 7.5 -85.5t54.5 -25.5q25 0 45 12t33.5 36t24 49t16 63.5t9.5 66t5.5 69.5t1.5 60.5v52.5v13q0 119 -28 195.5t-93 120.5t-155.5 60.5t-231.5 16.5q-332 0 -483.5 -158t-151.5 -520q0 -102 22 -176t61.5 -121.5t104 -75t140.5 -38.5t180 -11h291q22 0 30.5 -22.5 t1.5 -85.5q-8 -68 -17.5 -88.5t-39.5 -20.5z" />
<glyph unicode="A" horiz-adv-x="1314" d="M1059 -6q-139 0 -182 14.5t-46 65.5q-3 66 -16 196h-344q-42 -133 -57 -196q-8 -36 -28.5 -52t-64 -22t-139.5 -6q-122 0 -156 14.5t-20 59.5q83 264 225.5 635t253.5 593q21 40 69.5 53t197.5 13q104 0 158 -6t77.5 -19.5t30.5 -40.5q62 -225 127 -596.5t94 -631.5 q5 -46 -27.5 -60t-152.5 -14zM715 963q-117 -311 -140 -377h201q-33 222 -61 377z" />
<glyph unicode="B" horiz-adv-x="1273" d="M522 543l-24 -234h141q74 0 121 32.5t47 104.5q0 97 -143 97h-142zM690 1044h-115l-20 -198h115q57 0 100 27t43 90q0 44 -31 62.5t-92 18.5zM416 1356h325q486 0 486 -328q0 -100 -49 -183t-140 -128q86 -30 130 -99.5t44 -166.5q0 -117 -41.5 -204.5t-117 -141 t-175 -79.5t-223.5 -26h-368q-73 0 -112 2t-62.5 9.5t-29 19t-3.5 32.5l129 1229q3 29 16 41t54.5 17.5t136.5 5.5z" />
<glyph unicode="C" horiz-adv-x="1290" d="M111 678q38 368 190.5 533t460.5 165q258 0 390.5 -123t113.5 -342q-4 -56 -39 -70t-160 -14q-84 0 -124 6.5t-53.5 20.5t-12.5 43q2 65 -28.5 99t-100.5 34q-110 0 -160.5 -74.5t-71.5 -277.5q-8 -71 -8 -139q0 -119 38 -166t128 -47q72 0 112 34.5t50 106.5 q5 30 18.5 43.5t53 20t122.5 6.5q128 0 165 -14.5t30 -71.5q-30 -229 -174.5 -350t-403.5 -121q-277 0 -411 131.5t-134 412.5q0 71 9 154z" />
<glyph unicode="D" horiz-adv-x="1294" d="M506 344h96q103 0 159.5 76.5t74.5 257.5q6 59 6 106q0 122 -41.5 175t-128.5 53h-97zM573 0h-286q-73 0 -112 2t-62.5 9.5t-29 19t-3.5 32.5l129 1229q3 29 16 41t54.5 17.5t136.5 5.5h286q285 0 415 -128t130 -413q0 -63 -6 -137q-31 -358 -190 -518t-478 -160z" />
<glyph unicode="E" d="M1094 1020h-521l-16 -162h428q27 0 38 -13.5t11 -58.5q0 -32 -6 -94q-12 -116 -21.5 -141t-43.5 -25h-441l-20 -190h520q28 0 38.5 -13t10.5 -59q0 -34 -6 -96q-12 -116 -22 -142t-44 -26h-712q-73 0 -112 2t-62.5 9.5t-29 19t-3.5 32.5l129 1229q3 29 16 41t54.5 17.5 t136.5 5.5h700q28 0 38.5 -13t10.5 -59q0 -34 -6 -96q-7 -82 -13.5 -114t-17 -43t-34.5 -11z" />
<glyph unicode="F" horiz-adv-x="1118" d="M520 485l-45 -430q-3 -29 -15 -40.5t-51.5 -17t-132.5 -5.5q-71 0 -109 2t-60 9.5t-26.5 19t-2.5 32.5l131 1237q3 29 16 41t54.5 17.5t136.5 5.5h688q28 0 38.5 -13t10.5 -59q0 -34 -6 -96q-7 -81 -14 -113.5t-17.5 -43.5t-34.5 -11h-508l-22 -203h428q28 0 39.5 -13.5 t11.5 -60.5q0 -33 -6 -92q-8 -81 -15.5 -113t-18 -42.5t-34.5 -10.5h-436z" />
<glyph unicode="G" horiz-adv-x="1327" d="M1098 764q77 0 113.5 -11.5t46.5 -34.5t6 -69l-23 -205q-49 -464 -573 -464q-290 0 -428 130.5t-138 413.5q0 71 9 154q38 368 193 533t466 165q265 0 397.5 -109.5t112.5 -308.5q-6 -51 -45 -66t-162 -15q-118 0 -152.5 13t-31.5 52q3 46 -27.5 71t-101.5 25 q-118 0 -174 -78.5t-78 -281.5q-8 -94 -8 -127q0 -130 45.5 -182t150.5 -52q84 0 123 28.5t45 90.5l4 41h-145q-25 0 -34 11.5t-9 52.5q0 45 4 80q11 101 19 122t38 21h357z" />
<glyph unicode="H" horiz-adv-x="1388" d="M1038 -6q-71 0 -109 2t-60 9.5t-26.5 19t-2.5 32.5l49 463h-365l-49 -463q-3 -29 -15 -40.5t-51.5 -17t-132.5 -5.5q-71 0 -109 2t-60 9.5t-26.5 19t-2.5 32.5l131 1241q3 29 15 41t51.5 17.5t132.5 5.5q134 0 168.5 -11.5t29.5 -52.5l-47 -434h365l47 434 q3 30 14.5 41.5t51.5 17t132 5.5q134 0 169 -11.5t30 -52.5l-131 -1241q-3 -29 -15 -40.5t-51.5 -17t-132.5 -5.5z" />
<glyph unicode="I" horiz-adv-x="634" d="M281 -8q-94 0 -135 5t-53.5 17.5t-10.5 40.5l131 1243q3 29 15 41t51.5 17.5t132.5 5.5q134 0 168.5 -11.5t29.5 -52.5l-131 -1243q-2 -29 -14 -40.5t-51.5 -17t-132.5 -5.5z" />
<glyph unicode="J" horiz-adv-x="1126" d="M627 512l82 786q3 30 14.5 41.5t51.5 17t132 5.5q134 0 169 -11.5t30 -52.5l-84 -794q-14 -136 -45.5 -229.5t-91.5 -162t-155.5 -100.5t-233.5 -32q-233 0 -340 104t-107 285q0 41 2 61q4 57 39 71.5t160 14.5q84 0 124 -6.5t53.5 -20.5t12.5 -43q-2 -59 12.5 -82.5 t65.5 -23.5q57 0 77.5 33t31.5 139z" />
<glyph unicode="K" horiz-adv-x="1351" d="M1378 1270l-454 -574l344 -610q30 -53 -21 -73q-50 -19 -198 -19q-97 0 -143.5 11.5t-67.5 47.5l-258 469h-56l-49 -465q-2 -29 -14 -40.5t-52 -17t-133 -5.5q-94 0 -134.5 5t-53 17.5t-10.5 40.5l131 1241q3 29 15 41t51.5 17.5t132.5 5.5q134 0 168.5 -11.5t29.5 -52.5 l-47 -436h49l357 453q23 28 65 37.5t135 9.5q211 0 229 -42q7 -20 -16 -50z" />
<glyph unicode="L" horiz-adv-x="1069" d="M606 1298l-100 -962h422q28 0 38.5 -13t10.5 -59q0 -34 -6 -96q-12 -116 -22 -142t-44 -26h-618q-73 0 -112 2t-62.5 9.5t-29 19t-3.5 32.5l129 1235q3 29 15 41t51.5 17.5t132.5 5.5q134 0 168.5 -11.5t29.5 -52.5z" />
<glyph unicode="M" horiz-adv-x="1769" d="M864 137q-103 0 -135.5 10t-38.5 41l-133 682l-86 -813q-2 -29 -14 -40.5t-51.5 -17t-131.5 -5.5q-93 0 -133 5t-52.5 17.5t-10.5 40.5l131 1233q3 31 23 45t82 20.5t194 6.5q168 0 224 -12t63 -52l118 -643l258 643q12 28 34.5 40.5t76.5 18t168 5.5q101 0 158.5 -3 t91 -12t42.5 -21.5t7 -35.5l-131 -1233q-2 -29 -14 -40.5t-51.5 -17t-131.5 -5.5q-93 0 -133 5t-52.5 17.5t-10.5 40.5l86 815l-277 -684q-9 -23 -21.5 -32.5t-45.5 -14t-103 -4.5z" />
<glyph unicode="N" horiz-adv-x="1417" d="M1198 1362q134 0 169 -11.5t30 -52.5l-129 -1239q-3 -30 -16 -41.5t-57.5 -17.5t-147.5 -6q-104 0 -143 12t-52 41l-309 660l-68 -650q-2 -29 -14 -40.5t-52 -17t-133 -5.5q-94 0 -134.5 5t-53 17.5t-10.5 40.5l131 1239q3 30 15.5 41.5t57 18t146.5 6.5q104 0 144 -12 t53 -41l307 -660l67 649q3 29 15 41t51.5 17.5t132.5 5.5z" />
<glyph unicode="O" horiz-adv-x="1380" d="M776 1376q290 0 424.5 -131.5t134.5 -417.5q0 -78 -8 -149q-36 -370 -190 -534t-475 -164q-290 0 -425 131t-135 417q0 70 9 150q36 370 190 534t475 164zM682 319q117 0 167.5 76.5t72.5 282.5q8 73 8 143q0 120 -38.5 167.5t-133.5 47.5q-117 0 -168.5 -76.5 t-73.5 -281.5q-8 -73 -8 -141q0 -122 39.5 -170t134.5 -48z" />
<glyph unicode="P" horiz-adv-x="1257" d="M657 422h-143l-39 -365q-3 -29 -16.5 -40.5t-54.5 -17t-134 -5.5t-133 5t-51 17t-8 41l131 1235q3 29 16 41t54.5 17.5t136.5 5.5h321q263 0 380.5 -91.5t117.5 -295.5q0 -26 -4 -80q-22 -249 -155 -358t-419 -109zM578 1020l-29 -262h119q78 0 114 28t45 97q2 14 2 28 q0 60 -30.5 84.5t-102.5 24.5h-118z" />
<glyph unicode="Q" horiz-adv-x="1380" d="M776 1376q290 0 424.5 -131.5t134.5 -417.5q0 -78 -8 -149q-27 -266 -110.5 -423t-241.5 -222q59 -9 131 -6q26 0 35.5 -11t9.5 -49q0 -44 -8 -112q-8 -81 -16.5 -116t-20 -45.5t-37.5 -10.5q-172 0 -319.5 79.5t-231.5 227.5q-214 28 -315 158.5t-101 379.5q0 70 9 150 q36 370 190 534t475 164zM682 319q117 0 167.5 76.5t72.5 282.5q8 73 8 143q0 120 -38.5 167.5t-133.5 47.5q-117 0 -168.5 -76.5t-73.5 -281.5q-8 -73 -8 -141q0 -122 39.5 -170t134.5 -48z" />
<glyph unicode="R" horiz-adv-x="1269" d="M543 475h-25l-43 -418q-2 -29 -16 -41t-54.5 -17t-134.5 -5q-93 0 -132.5 5.5t-50.5 17t-9 40.5l131 1235q3 29 16 41t54.5 17.5t136.5 5.5h309q263 0 381.5 -89t118.5 -286q0 -24 -4 -74q-21 -248 -238 -356q53 -37 90 -96q85 -143 98 -367q2 -20 1 -35t-10 -26.5 t-32.5 -18.5t-67 -10.5t-112.5 -3.5q-79 0 -116 6t-47 17t-13 36q-14 154 -69 285q-24 53 -67 93t-95 44zM578 1024l-27 -238h108q83 0 117 23t41 96q0 4 1 12t1 11q0 52 -32 74t-103 22h-106z" />
<glyph unicode="S" horiz-adv-x="1204" d="M573 299q20 0 32 0.5t33.5 2.5t35.5 8t28.5 15t21.5 25t7 37q0 25 -17 45.5t-51.5 37t-77 32t-103.5 34.5q-11 3 -17 5q-115 38 -162 65q-172 98 -172 326q0 444 553 444q141 0 239 -26.5t151 -77.5t73 -117.5t12 -155.5q-4 -38 -19 -54.5t-55.5 -23t-132.5 -6.5 q-84 0 -121 5.5t-48.5 19t-10.5 45.5q2 35 -19 53.5t-89 18.5q-136 0 -136 -92q0 -25 19 -46.5t72 -46t83 -35.5t114 -40q3 -1 5 -2q112 -40 146 -58q120 -64 152 -194q14 -56 14 -127q0 -228 -148.5 -332t-431.5 -104q-145 0 -245.5 27t-155 78.5t-75 119t-11.5 155.5 q4 39 18.5 55t54 22.5t131.5 6.5q122 0 154 -12t29 -57q-3 -40 22.5 -58t97.5 -18z" />
<glyph unicode="T" horiz-adv-x="1167" d="M1133 1012h-287l-101 -955q-2 -29 -14 -40.5t-51.5 -17t-132.5 -5.5q-94 0 -135 5t-53.5 17.5t-10.5 40.5l101 955h-275q-28 0 -38.5 13t-10.5 58q0 37 6 101q9 85 15.5 117t17 43.5t35.5 11.5h958q28 0 38.5 -13.5t10.5 -58.5q0 -36 -6 -100q-12 -120 -22 -146t-45 -26z " />
<glyph unicode="U" horiz-adv-x="1363" d="M653 -20q-280 0 -409 104t-129 336q0 52 6 110l80 768q3 30 14.5 41.5t51.5 17t132 5.5q134 0 169 -11.5t30 -52.5l-80 -753q-11 -115 22.5 -160t135.5 -45q103 0 145 45.5t53 159.5l80 753q3 29 15 41t51.5 17.5t132.5 5.5q134 0 169 -11.5t30 -52.5l-80 -768 q-21 -200 -86.5 -318t-194 -175t-338.5 -57z" />
<glyph unicode="V" horiz-adv-x="1318" d="M1194 1362q122 0 157 -14.5t21 -59.5q-85 -256 -235.5 -630t-262.5 -599q-15 -28 -34.5 -40.5t-68.5 -18.5t-148 -6q-100 0 -150 6t-70.5 19t-27.5 40q-66 238 -139 614t-101 615q-4 31 7 46t49.5 21.5t121.5 6.5q139 0 182 -14.5t46 -65.5q19 -260 123 -831 q217 545 299 831q11 37 30.5 52.5t62 21.5t138.5 6z" />
<glyph unicode="W" horiz-adv-x="2101" d="M1960 1362q122 0 157 -14.5t21 -59.5q-72 -235 -212.5 -612.5t-244.5 -616.5q-18 -40 -61.5 -52.5t-177.5 -12.5q-99 0 -146.5 6t-64 18.5t-21.5 40.5q-49 219 -120 723q-160 -466 -269 -723q-13 -29 -28.5 -40.5t-62 -18t-144.5 -6.5q-94 0 -142 6t-68.5 19t-25.5 40 q-54 232 -114 608.5t-84 620.5q-5 46 26.5 60t151.5 14q139 0 181.5 -14t45.5 -66q21 -342 84 -801q203 557 272 801q11 39 26.5 53t58.5 20.5t147 6.5q105 0 149 -6t60 -21.5t18 -52.5q13 -214 105 -799q161 475 252 799q13 52 53.5 66t177.5 14z" />
<glyph unicode="X" horiz-adv-x="1388" d="M1038 696l262 -610q10 -27 8.5 -44.5t-28 -28.5t-73.5 -15t-128 -4q-96 0 -146.5 11.5t-66.5 47.5l-166 410l-251 -410q-22 -36 -70 -47.5t-143 -11.5q-189 0 -220 30q-21 19 7 62l389 610l-250 574q-10 27 -9 44.5t27 28.5t73 15t128 4q98 0 147.5 -11t65.5 -48 l156 -373l233 373q25 37 71 48t142 11q189 0 221 -30q21 -19 -6 -62z" />
<glyph unicode="Y" horiz-adv-x="1282" d="M922 1296q14 30 32 42.5t61 18t136 5.5q164 0 187 -27q13 -14 -3 -45q-72 -139 -224.5 -392t-262.5 -411l-45 -432q-2 -29 -14 -40.5t-52 -17t-133 -5.5q-94 0 -134.5 5t-53 17.5t-10.5 40.5l45 430q-77 162 -176.5 417.5t-139.5 387.5q-9 30 1 44t51.5 21t131.5 7 q94 0 139 -5.5t65 -18.5t26 -42q59 -237 137 -465q154 284 236 465z" />
<glyph unicode="Z" horiz-adv-x="1232" d="M260 1356h897q28 0 38.5 -13.5t10.5 -58.5q0 -36 -6 -100q-13 -122 -57 -172l-555 -668h479q28 0 38.5 -13.5t10.5 -58.5q0 -36 -6 -100q-12 -121 -21.5 -146.5t-44.5 -25.5h-929q-29 0 -40.5 13t-11.5 61q0 26 7 98q13 122 57 172l553 668h-444q-28 0 -39 13t-11 58 q0 26 7 101q12 120 22 146t45 26z" />
<glyph unicode="[" horiz-adv-x="790" d="M82 -309l174 1667q3 29 16.5 40.5t54.5 17t136 5.5h303q28 0 39.5 -13.5t11.5 -57.5q0 -41 -4 -70q-9 -96 -18 -118.5t-41 -22.5h-176l-129 -1229h163q26 0 36.5 -13t10.5 -55q0 -11 -4 -73q-10 -94 -21.5 -118t-43.5 -24h-303q-96 0 -138.5 5.5t-56 18t-10.5 40.5z" />
<glyph unicode="\" horiz-adv-x="778" d="M362 -113l-237 1516q-5 37 25.5 49t146.5 12q82 0 116 -5.5t42.5 -14.5t13.5 -35l236 -1515q4 -25 -5.5 -37.5t-47 -18.5t-117.5 -6q-82 0 -116.5 5t-44 14.5t-12.5 35.5z" />
<glyph unicode="]" horiz-adv-x="790" d="M709 1358l-174 -1667q-3 -29 -16 -41t-54.5 -17.5t-136.5 -5.5h-303q-28 0 -40 14t-12 58q0 41 4 70q9 95 18.5 118t41.5 23h176l129 1229h-164q-27 0 -37 12.5t-10 54.5q0 12 4 74q10 93 21.5 117t44.5 24h303q73 0 112 -2t62 -9.5t28 -19t3 -32.5z" />
<glyph unicode="^" horiz-adv-x="1187" d="M690 1372q115 0 152.5 -10.5t48.5 -38.5l246 -586q7 -19 7 -31.5t-19 -20t-54 -10.5t-98 -3q-73 0 -111 5.5t-53.5 17t-24.5 34.5l-120 332l-191 -332q-14 -24 -28 -34.5t-50.5 -16.5t-109.5 -6q-151 0 -170 23q-11 14 6 42l368 586q13 20 27 29t54.5 14.5t119.5 5.5z " />
<glyph unicode="_" horiz-adv-x="868" d="M776 -350h-825q-25 0 -32.5 19.5t-0.5 90.5q8 77 14 94t27 17h827q19 0 27 -9.5t8 -41.5q0 -10 -4 -60q-8 -79 -13.5 -94.5t-27.5 -15.5z" />
<glyph unicode="`" horiz-adv-x="819" d="M623 1124l-347 144q-16 7 -20.5 17t6.5 38.5t43 81.5t52.5 77t32.5 25.5t24 -6.5l311 -207q23 -11 21.5 -30t-35.5 -74q-32 -54 -47.5 -65.5t-40.5 -0.5z" />
<glyph unicode="a" horiz-adv-x="1110" d="M481 700q-1 -16 -2 -21.5t-6.5 -14.5t-14 -11t-27.5 -5.5t-44.5 -4t-67.5 -0.5q-123 0 -153.5 12.5t-26.5 65.5q8 76 33.5 131.5t77.5 100.5t141.5 68t216.5 23q238 0 339.5 -80t101.5 -245q0 -11 -5 -78l-61 -588q-2 -27 -13 -38t-47.5 -16t-121.5 -5q-121 0 -153 11 t-30 48l5 62q-43 -60 -108.5 -93.5t-172.5 -33.5q-153 0 -226 75.5t-73 186.5q0 96 30.5 161t91 100t135 49.5t177.5 14.5h195l6 64q7 66 -9.5 90.5t-86.5 24.5q-94 0 -101 -54zM651 379h-137q-26 0 -41 -1.5t-36.5 -8t-32.5 -23t-11 -43.5q0 -33 21 -47t71 -14 q68 0 113 29.5t51 80.5z" />
<glyph unicode="b" horiz-adv-x="1212" d="M571 1364l-45 -434q94 114 275 114q171 0 261.5 -99.5t90.5 -319.5q0 -51 -6 -113q-26 -283 -131 -407.5t-295 -124.5q-203 0 -283 141l-12 -68q-5 -27 -15 -37.5t-47 -16t-120 -5.5q-85 0 -123 5t-50 16.5t-10 37.5l138 1311q3 27 14.5 38t49 16t124.5 5 q125 0 157 -10.5t27 -48.5zM483 512q-4 -29 -4 -78q0 -82 29.5 -116.5t97.5 -34.5q75 0 110.5 51.5t49.5 177.5q4 62 4 80q0 81 -26.5 115t-88.5 34q-82 0 -121 -51.5t-51 -177.5z" />
<glyph unicode="c" horiz-adv-x="1093" d="M610 733q-70 0 -100.5 -48t-42.5 -173q-6 -50 -6 -88q0 -73 24.5 -103t81.5 -30q51 0 71.5 15.5t27.5 47.5q5 29 14 41t41.5 19.5t103.5 7.5q132 0 167 -13t28 -65q-8 -63 -24.5 -112.5t-51 -98.5t-85 -81t-130 -52t-182.5 -20q-235 0 -350 108t-115 332q0 26 4 92 q23 273 152 402.5t385 129.5q103 0 181 -19t126 -50.5t76.5 -78t37.5 -97t5 -111.5q-4 -53 -37 -65.5t-162 -12.5q-71 0 -105.5 7t-44.5 20t-10 41q2 28 -15 41.5t-65 13.5z" />
<glyph unicode="d" horiz-adv-x="1212" d="M713 53l2 47q-95 -120 -281 -120q-171 0 -260.5 99.5t-89.5 317.5q0 62 5 121t18 125t33.5 122.5t54 108.5t77.5 89t106 59t136 22q198 0 279 -137l49 457q3 27 14.5 38t49 16t124.5 5q125 0 157 -10.5t27 -48.5l-137 -1311q-2 -27 -13 -38t-47.5 -16t-121.5 -5 q-121 0 -152.5 11t-29.5 48zM754 512q4 58 4 74q0 84 -29.5 119.5t-97.5 35.5q-166 0 -166 -313q0 -79 27.5 -112t89.5 -33q82 0 120 51.5t52 177.5z" />
<glyph unicode="e" horiz-adv-x="1116" d="M991 434h-542v-16q0 -90 30.5 -125t98.5 -35q90 0 100 53q4 23 6.5 30t18.5 16t47 10.5t92 1.5q124 0 154 -12.5t24 -65.5q-6 -60 -33 -112.5t-79.5 -98.5t-142 -73t-206.5 -27q-240 0 -358.5 108.5t-118.5 333.5q0 28 4 90q25 275 153 403.5t390 128.5q217 0 328.5 -106 t111.5 -293q0 -24 -4 -74l-4 -45q-6 -54 -19 -73t-51 -19zM616 766q-67 0 -99 -35t-48 -113h248l2 23q2 10 2 33q0 92 -105 92z" />
<glyph unicode="f" horiz-adv-x="802" d="M750 717h-164l-70 -664q-2 -27 -13.5 -38t-48.5 -16t-124 -5t-126 5t-51 16.5t-10 37.5l70 664h-90q-26 0 -36.5 12.5t-10.5 52.5q0 28 6 84q8 76 13 101.5t14.5 36t33.5 12.5l101 8l6 47q10 95 35 163t58.5 108.5t84 63.5t101.5 30.5t122 7.5q49 0 107.5 -7.5 t81.5 -15.5q29 -10 40 -24t11 -51q0 -41 -4 -70q-7 -65 -17.5 -97.5t-22.5 -41.5t-34 -9q-17 0 -46 4.5t-46 4.5q-103 0 -111 -74l-4 -39h164q25 0 36 -13t11 -55q0 -30 -6 -86q-11 -105 -20 -129t-41 -24z" />
<glyph unicode="g" horiz-adv-x="1216" d="M399 -45q-3 -35 26.5 -52.5t92.5 -17.5q170 0 170 133q0 49 -24.5 72.5t-83.5 32.5h-21q-226 0 -340.5 101t-114.5 292q0 528 519 528q153 0 256 -53l309 51q16 2 27 0.5t16.5 -15.5t5.5 -44q0 -45 -4 -80q-11 -96 -20.5 -118.5t-41.5 -22.5h-108q12 -52 12 -115 q0 -140 -47.5 -250t-140.5 -178q129 -82 129 -246q0 -85 -26 -149t-69.5 -104t-109.5 -65t-137.5 -34.5t-161.5 -9.5q-255 0 -363 84.5t-92 238.5q4 38 18 53t47 20t116 5q113 0 139.5 -9.5t21.5 -47.5zM571 408q152 0 152 233q0 64 -26.5 91.5t-88.5 27.5q-149 0 -149 -228 q0 -67 25.5 -95.5t86.5 -28.5z" />
<glyph unicode="h" horiz-adv-x="1204" d="M571 1364l-47 -459q41 59 116.5 99t186.5 40q160 0 237 -73.5t77 -233.5q0 -55 -4 -86l-64 -598q-2 -27 -13.5 -38t-48.5 -16t-124 -5t-126 5t-51 16.5t-10 37.5l58 549q7 68 -16.5 95.5t-86.5 27.5q-151 0 -166 -147l-55 -525q-2 -27 -13.5 -38t-48.5 -16t-124 -5 t-126 5t-51 16.5t-10 37.5l138 1311q3 27 14.5 38t49 16t124.5 5q125 0 157 -10.5t27 -48.5z" />
<glyph unicode="i" horiz-adv-x="569" d="M61 53l97 918q3 27 14 38t48.5 16t123.5 5q87 0 126 -5t51 -16.5t9 -37.5l-96 -918q-2 -27 -13.5 -38t-48.5 -16t-124 -5t-126 5t-51 16.5t-10 37.5zM387 1423q130 0 163.5 -14.5t27.5 -69.5l-13 -114q-3 -40 -17 -56t-51.5 -22t-127.5 -6q-69 0 -104.5 2.5t-58 12 t-27.5 25t-3 44.5l12 114q4 39 18.5 55.5t52.5 22.5t128 6z" />
<glyph unicode="j" horiz-adv-x="589" d="M-35 -47q9 0 29.5 -2t28.5 -2q30 0 44.5 14.5t20.5 59.5l98 948q3 27 14.5 38t48.5 16t124 5t126 -5t51 -16.5t9 -37.5l-102 -987q-10 -96 -32 -163t-51.5 -108t-76 -64t-95 -30.5t-118.5 -7.5q-100 0 -152 18q-28 10 -38.5 24.5t-10.5 51.5q0 29 6 82q7 75 16 110 t21.5 45.5t38.5 10.5zM416 1423q130 0 163 -14.5t27 -69.5l-12 -114q-3 -39 -17 -55.5t-52 -22.5t-128 -6q-91 0 -129.5 6t-52 22.5t-10.5 55.5l12 114q4 39 18.5 55.5t52.5 22.5t128 6z" />
<glyph unicode="k" horiz-adv-x="1179" d="M571 1364l-69 -668h55l248 291q21 24 63.5 33.5t126.5 9.5q202 0 210 -40q3 -15 -19 -40l-355 -405l279 -471q27 -44 -9 -61q-40 -19 -186 -19q-89 0 -134.5 9t-59.5 34l-191 352h-61l-35 -336q-2 -27 -13.5 -38t-48.5 -16t-124 -5t-126 5t-51 16.5t-10 37.5l138 1311 q3 27 14.5 38t49 16t124.5 5q125 0 157 -10.5t27 -48.5z" />
<glyph unicode="l" horiz-adv-x="614" d="M496 315h10q31 0 43 -13.5t12 -59.5q0 -34 -6 -86q-9 -103 -24.5 -131.5t-67.5 -28.5h-107q-151 0 -212.5 45.5t-61.5 167.5q0 49 4 78l113 1077q3 27 14.5 38t49 16t124.5 5q125 0 157 -10.5t27 -48.5l-104 -1006q-3 -25 2.5 -34t26.5 -9z" />
<glyph unicode="m" horiz-adv-x="1781" d="M1094 580l-56 -527q-2 -27 -12.5 -38t-47.5 -16t-124 -5t-125 5t-49.5 16.5t-9.5 37.5l57 549q13 123 -94 123q-61 0 -101 -37.5t-47 -107.5l-55 -527q-2 -27 -13.5 -38t-48.5 -16t-124 -5t-126 5t-51 16.5t-10 37.5l97 918q3 27 14 38t47.5 16t120.5 5t122.5 -5.5 t50 -17t9.5 -36.5l-2 -70q99 143 289 143q229 0 289 -145q123 145 313 145q155 0 234 -67.5t79 -226.5q0 -24 -4 -78l-65 -619q-2 -27 -13.5 -38t-49 -16t-124.5 -5t-125.5 5t-50.5 16.5t-10 37.5l57 549q13 123 -96 123q-61 0 -99.5 -37t-45.5 -108z" />
<glyph unicode="n" horiz-adv-x="1196" d="M518 971l-2 -70q99 143 301 143q160 0 238 -74.5t78 -234.5q0 -45 -5 -84l-63 -598q-2 -27 -13.5 -38t-48.5 -16t-124 -5t-126 5t-51 16.5t-10 37.5l58 549q7 68 -16 95.5t-85 27.5q-149 0 -164 -147l-55 -525q-2 -27 -13.5 -38t-48.5 -16t-124 -5t-126 5t-51 16.5 t-10 37.5l97 918q3 27 14 38t47.5 16t120.5 5t122.5 -5.5t50 -17t9.5 -36.5z" />
<glyph unicode="o" horiz-adv-x="1159" d="M635 1044q238 0 353.5 -104t115.5 -319q0 -51 -6 -109q-30 -275 -159.5 -403.5t-391.5 -128.5q-237 0 -352 102t-115 315q0 53 6 115q28 275 157.5 403.5t391.5 128.5zM567 279q74 0 106 51.5t46 181.5q6 53 6 92q0 77 -24.5 109t-84.5 32q-74 0 -106.5 -51.5 t-44.5 -181.5q-6 -56 -6 -94q0 -76 24 -107.5t84 -31.5z" />
<glyph unicode="p" horiz-adv-x="1208" d="M518 971l-2 -53q94 126 281 126q171 0 261.5 -99.5t90.5 -319.5q0 -51 -6 -113q-26 -283 -131 -407.5t-295 -124.5q-201 0 -281 129l-45 -424q-2 -27 -13 -38t-49 -16.5t-124 -5.5q-87 0 -126 5t-51 17t-10 38l136 1286q3 27 14 38t47.5 16t120.5 5q121 0 152.5 -11 t29.5 -48zM479 512q-4 -29 -4 -78q0 -82 29.5 -116.5t97.5 -34.5q75 0 110.5 51.5t49.5 177.5q4 62 4 80q0 81 -26.5 115t-88.5 34q-82 0 -121 -51.5t-51 -177.5z" />
<glyph unicode="q" horiz-adv-x="1208" d="M799 893l10 78q3 26 13.5 37t48 16.5t120.5 5.5q123 0 155.5 -11t27.5 -48l-136 -1286q-2 -27 -13 -38t-49 -16.5t-124 -5.5q-87 0 -126 5t-50.5 17t-9.5 38l41 399q-94 -104 -273 -104q-171 0 -260.5 98t-89.5 315q0 55 6 119q27 283 131 407.5t293 124.5 q205 0 285 -151zM754 512q4 58 4 74q0 84 -29.5 119.5t-97.5 35.5q-76 0 -113 -52t-47 -177q-4 -58 -4 -78q0 -83 26 -117t89 -34q82 0 120 51.5t52 177.5z" />
<glyph unicode="r" horiz-adv-x="851" d="M774 664q-132 0 -211.5 -51.5t-89.5 -155.5l-43 -404q-3 -27 -14 -38t-48.5 -16t-123.5 -5q-66 0 -102 2t-57 9t-25.5 17.5t-2.5 30.5l97 918q3 27 14 38t47.5 16t120.5 5q121 0 152.5 -11t29.5 -48l-8 -131q41 76 123.5 136t179.5 60q34 0 45.5 -13t11.5 -56 q0 -49 -8 -117q-12 -123 -27 -154.5t-61 -31.5z" />
<glyph unicode="s" horiz-adv-x="1028" d="M369 287q-2 -24 21.5 -36.5t78.5 -12.5q64 0 92.5 12t28.5 47q0 11 -4.5 20t-14.5 16.5t-20.5 13t-29.5 12.5t-34 11.5t-40.5 12.5t-43.5 14q-49 15 -83 28t-79 39.5t-73 57t-48 78.5t-20 107q0 82 22.5 142.5t61.5 97.5t100 59t127 30t154 8q125 0 210 -21t127.5 -61.5 t57.5 -89.5t9 -114q-3 -35 -15.5 -50t-48 -21.5t-114.5 -6.5q-72 0 -103 5t-39 15.5t-6 36.5q3 24 -15 36.5t-67 12.5q-50 0 -75 -11t-25 -50q0 -17 9 -29.5t35.5 -25t40 -17.5t56.5 -18q8 -3 12 -4q148 -46 200 -74q109 -58 129 -168q5 -29 5 -61q0 -87 -23.5 -150 t-63 -101t-103.5 -60t-132 -29.5t-161 -7.5q-128 0 -216 21.5t-133.5 61.5t-62 89.5t-10.5 113.5q3 35 15.5 50t48 21.5t114.5 6.5q72 0 103 -5t39.5 -16t5.5 -36z" />
<glyph unicode="t" horiz-adv-x="884" d="M803 717h-225l-37 -355q-3 -28 12.5 -43.5t44.5 -15.5q43 0 86 16q38 12 57 -5.5t41 -102.5q17 -70 17 -92q0 -50 -49 -78q-96 -57 -269 -57q-169 0 -244 67t-75 209q0 22 4 76l39 381h-86q-26 0 -36.5 12.5t-10.5 52.5q0 28 6 84q8 76 13 101.5t14.5 36t33.5 12.5l115 8 l22 219q3 26 15 36.5t46 14.5t118 4q65 0 97 -1.5t53.5 -8t25.5 -16.5t2 -29l-23 -219h213q25 0 36 -13t11 -55q0 -30 -6 -86q-11 -105 -20 -129t-41 -24z" />
<glyph unicode="u" d="M676 53l4 70q-46 -64 -112.5 -103.5t-178.5 -39.5q-157 0 -233 79t-76 244q0 45 6 98l59 570q3 27 14.5 38t48.5 16t124 5t126 -5t51 -16.5t9 -37.5l-57 -547q-6 -68 16.5 -96.5t85.5 -28.5q72 0 105 34t41 109l55 529q3 27 14 38t48.5 16t123.5 5q66 0 102 -2t57 -9 t25.5 -17.5t2.5 -30.5l-97 -918q-3 -27 -14 -38t-47.5 -16t-120.5 -5q-121 0 -152.5 11t-29.5 48z" />
<glyph unicode="v" horiz-adv-x="1134" d="M961 1030q71 0 113 -4t64 -12.5t25.5 -22t-2.5 -33.5q-60 -163 -188.5 -446t-222.5 -459q-13 -24 -30 -34.5t-60.5 -16.5t-129.5 -6q-125 0 -166.5 11.5t-52.5 45.5q-57 180 -125.5 463.5t-93.5 441.5q-5 29 6.5 43t56.5 21.5t138 7.5q108 0 143.5 -9.5t38.5 -39.5 q30 -293 86 -621q134 351 221 621q9 31 41 40t138 9z" />
<glyph unicode="w" horiz-adv-x="1744" d="M1571 1030q117 0 154 -11t34 -40l-4 -21q-48 -166 -151.5 -449t-182.5 -456q-10 -24 -26 -34.5t-58.5 -16.5t-128.5 -6q-126 0 -169 12t-52 45q-12 45 -26 112.5t-23 119.5t-25 145.5t-24 136.5q-17 -45 -52.5 -137t-55.5 -145t-48 -120t-49 -112q-11 -23 -29 -34.5 t-62 -17t-130 -5.5q-125 0 -165 11.5t-48 45.5q-41 178 -85 461.5t-56 443.5q-3 12 -3 27q2 19 16 27.5t52.5 13t118.5 4.5q109 0 146 -9.5t38 -39.5q17 -382 39 -633q128 319 234 633q7 22 21.5 31.5t49.5 13.5t111 4q111 0 146.5 -9t39.5 -40q43 -335 96 -627 q59 197 177 627q5 21 20.5 31t50.5 14t109 4z" />
<glyph unicode="x" horiz-adv-x="1183" d="M684 51l-98 301l-160 -301q-18 -34 -63 -45.5t-134 -11.5q-196 0 -220 37q-11 18 7 47l269 444l-181 424q-22 49 33 67q51 17 185 17q90 0 138 -11t58 -40l103 -295l167 295q18 30 62 40.5t131 10.5q207 0 223 -43q6 -16 -10 -41l-270 -424l174 -444q6 -15 6.5 -27.5 t-7.5 -21.5t-23.5 -16t-42 -11t-63.5 -6t-87 -2q-91 0 -138.5 12t-58.5 45z" />
<glyph unicode="y" horiz-adv-x="1134" d="M276 -68q64 0 92.5 19t51.5 69q-50 4 -70 16.5t-28 37.5q-53 154 -124.5 433t-105.5 451q-5 29 6 43t55 21.5t134 7.5q106 0 140.5 -9.5t37.5 -39.5q29 -251 102 -604q153 379 221 604q9 31 40.5 40t134.5 9q69 0 110 -4t63 -12.5t26.5 -22t-1.5 -33.5 q-124 -344 -456 -1081q-33 -73 -65 -118.5t-79.5 -81t-113 -51t-158.5 -15.5q-100 0 -156 18q-28 8 -38.5 24.5t-10.5 57.5q0 12 4 70q8 74 18 108.5t22.5 43t37.5 8.5q14 0 48 -4.5t62 -4.5z" />
<glyph unicode="z" horiz-adv-x="995" d="M907 717l-426 -410h385q26 0 36.5 -13t10.5 -54q0 -30 -6 -86q-11 -107 -19.5 -130.5t-39.5 -23.5h-774q-27 0 -38 13t-11 53q0 26 6 73q8 75 18.5 105.5t42.5 62.5l426 410h-354q-26 0 -36.5 13t-10.5 54q0 30 6 86q11 105 20 129.5t41 24.5h746q27 0 37 -12t10 -51 q0 -10 -4 -68q-7 -76 -20 -109.5t-46 -66.5z" />
<glyph unicode="{" horiz-adv-x="790" d="M53 524q10 90 24 116t48 26h37q38 0 59.5 52.5t34.5 184.5q6 53 11 90t14.5 85t22 81t32 72t44.5 65t61 52t79.5 41t101.5 24.5t126 9.5h63q25 0 35 -11.5t10 -47.5q0 -30 -6 -82q-9 -92 -21 -116.5t-45 -24.5h-45q-68 0 -93 -59.5t-46 -256.5q-13 -117 -58.5 -197 t-123.5 -104q123 -39 123 -231q0 -20 -4 -70q-13 -130 -13 -188q0 -74 19 -100.5t67 -26.5h45q24 0 33.5 -11.5t9.5 -46.5q0 -28 -6 -83q-10 -91 -24 -116.5t-47 -25.5h-64q-118 0 -198 25.5t-121.5 75.5t-57.5 108t-16 137q0 56 12 174q8 68 8 123q0 115 -53 115h-37 q-26 0 -35.5 13t-9.5 53q0 42 4 75z" />
<glyph unicode="|" horiz-adv-x="712" d="M528 1366v-1724q0 -24 -10.5 -35t-46.5 -16t-115 -5t-115 5t-46.5 16t-10.5 35v1724q0 24 11 34.5t46.5 15.5t114.5 5t114.5 -5t46.5 -15.5t11 -34.5z" />
<glyph unicode="}" horiz-adv-x="790" d="M737 524q-10 -91 -23.5 -116t-47.5 -25h-37q-38 0 -59.5 -53t-34.5 -185q-6 -53 -11 -90t-14.5 -85t-22 -81t-32 -72t-44.5 -65t-61 -52t-79.5 -41t-101.5 -24.5t-126 -9.5h-63q-25 0 -35.5 12t-10.5 48q0 21 7 82q9 92 20.5 116.5t44.5 24.5h45q29 0 47.5 8.5t33 27 t24.5 57.5t17.5 89t16.5 133q13 116 59 196.5t124 104.5q-123 39 -123 232q0 19 4 69q12 120 12 189q0 74 -19 100.5t-67 26.5h-45q-25 0 -34 11t-9 46q0 28 6 84q10 90 24 115.5t48 25.5h63q95 0 166 -17.5t114 -47.5t69 -75.5t35.5 -94t9.5 -111.5q0 -46 -13 -174 q-8 -68 -8 -123q0 -61 13 -87.5t40 -26.5h37q26 0 35.5 -13t9.5 -53q0 -43 -4 -76z" />
<glyph unicode="~" horiz-adv-x="1187" d="M596 731l129 -69q3 -2 12 -6.5l11 -5.5l9 -4.5t9.5 -4t8 -2.5t9 -2.5t9 -1t10.5 -0.5q34 0 57.5 21.5t42.5 70.5q8 26 28 32.5t97 6.5t99 -10.5t10 -50.5q-107 -328 -369 -328q-74 0 -139 35l-131 69q-3 1 -7 4q-45 22 -69 23q-68 0 -100 -92q-9 -26 -28.5 -32.5 t-96.5 -6.5q-78 0 -100 10.5t-9 50.5q107 328 369 328q74 0 139 -35z" />
<glyph unicode="&#xa1;" horiz-adv-x="630" d="M319 506q102 0 133 -11.5t29 -48.5l-24 -716q-1 -27 -17.5 -41t-62 -20.5t-133.5 -6.5q-130 0 -172.5 14.5t-36.5 53.5l123 716q6 38 33.5 49t127.5 11zM344 633q-93 0 -133.5 5t-53 17.5t-10.5 40.5l29 271q3 29 15.5 40.5t52 17t131.5 5.5q133 0 166 -11t28 -52 l-28 -271q-2 -29 -14 -40.5t-51.5 -17t-131.5 -5.5z" />
<glyph unicode="&#xa2;" horiz-adv-x="1064" d="M555 -6q-107 0 -135 9t-25 42l13 121q-157 34 -233.5 140t-76.5 290q0 24 4 86q20 235 121 363t293 159l12 115q2 24 12 33t42 13.5t106 4.5q107 0 135 -9t25 -42l-14 -123q267 -64 249 -338q-4 -53 -36.5 -65.5t-161.5 -12.5q-103 0 -132.5 14t-27.5 54q2 27 -18.5 41 t-69.5 14q-71 0 -106 -49t-48 -172q-4 -54 -4 -72q0 -81 27.5 -115t87.5 -34q51 0 74.5 16t29.5 47q6 29 15.5 41t42.5 19.5t104 7.5q132 0 167 -13t28 -65q-8 -65 -27.5 -118t-56 -102t-99 -82.5t-147.5 -49.5l-10 -117q-2 -24 -12 -33t-42 -13.5t-106 -4.5z" />
<glyph unicode="&#xa3;" horiz-adv-x="1236" d="M229 -4q-22 -15 -40.5 -8.5t-36.5 36.5t-48 103q-41 99 -41 137q0 19 8.5 29t28.5 18q64 26 102.5 93t41.5 151h-117q-22 0 -30.5 10.5t-8.5 46.5q0 43 4 74q10 93 16 112t33 19h54q-15 69 -15 117q0 111 40 196.5t112 138.5t168 80t213 27q252 0 367.5 -90.5 t103.5 -281.5q-4 -60 -39.5 -75.5t-155.5 -15.5q-118 0 -152 12.5t-32 53.5q0 65 -113 65q-131 0 -131 -143q0 -30 4 -84h248q22 0 31.5 -12t9.5 -49q0 -12 -4 -70q-9 -91 -16.5 -111t-34.5 -20h-197v-14q0 -103 -45 -205q79 -21 127 -21q56 0 81 22t32 79q4 29 18 41.5 t50 18t118 5.5q124 0 158.5 -15.5t27.5 -76.5q-10 -95 -36.5 -166.5t-62.5 -115t-85 -70.5t-98 -37t-107 -10q-200 0 -395 112q-76 -67 -156 -106z" />
<glyph unicode="&#xa4;" d="M90 322l76 73q-53 109 -53 281t53 278l-76 76q-17 16 -8 34.5t61 70.5t70.5 61t34.5 -8l74 -76q103 53 264 53q158 0 264 -53l74 76q16 17 34 8t70 -61t61 -70.5t-8 -34.5l-75 -76q53 -106 53 -278t-53 -281l75 -73q17 -16 8 -34.5t-61 -70.5t-70 -61t-34 8l-74 74 q-104 -52 -264 -52q-163 0 -264 52l-74 -74q-16 -17 -34.5 -8t-70.5 61t-61 70.5t8 34.5zM586 492q84 0 123 43.5t39 140.5t-39 140.5t-123 43.5t-123 -43.5t-39 -140.5t39 -140.5t123 -43.5z" />
<glyph unicode="&#xa5;" horiz-adv-x="1245" d="M1085 291h-276l-25 -236q-2 -29 -14 -40.5t-51.5 -17t-132.5 -5.5q-94 0 -135 5t-53.5 17.5t-10.5 40.5l25 236h-265q-20 0 -27 9.5t-7 41.5q0 41 4 70q8 84 14.5 102t30.5 18h246q-20 44 -37 89h-189q-20 0 -27.5 9.5t-7.5 41.5q0 33 5 69q8 84 14.5 102.5t30.5 18.5h82 q-99 279 -138 428q-8 30 2 44t51.5 21t131.5 7q94 0 136.5 -5.5t59.5 -18.5t23 -42q43 -180 125 -446q142 267 219 446q14 31 29 42.5t56 17.5t134 6q162 0 186 -26q13 -15 -2 -46q-71 -151 -231 -428h74q20 0 28 -11t8 -46q0 -10 -4 -64q-9 -84 -16 -102t-31 -18h-200 q-22 -39 -56 -89h236q20 0 28.5 -11t8.5 -46q0 -9 -4 -63q-9 -83 -16.5 -102t-31.5 -19z" />
<glyph unicode="&#xa6;" horiz-adv-x="712" d="M528 322v-680q0 -24 -10.5 -35t-46.5 -16t-115 -5t-115 5t-46.5 16t-10.5 35v680q0 24 11 34.5t46.5 15.5t114.5 5t114.5 -5t46.5 -15.5t11 -34.5zM528 1366v-680q0 -24 -11 -34.5t-46.5 -15.5t-114.5 -5t-114.5 5t-46.5 15.5t-11 34.5v680q0 24 11 34.5t46.5 15.5 t114.5 5t114.5 -5t46.5 -15.5t11 -34.5z" />
<glyph unicode="&#xa7;" horiz-adv-x="1208" d="M383 -61q-3 -33 20 -49.5t91 -16.5q155 0 155 113q0 14 -2.5 25t-10 21t-14 17t-21.5 14.5t-24.5 12.5t-31.5 12t-34.5 10.5t-41 12t-43.5 12.5q-74 22 -127.5 47t-98.5 63t-68 93t-23 127q0 232 206 317q-106 96 -106 234q0 105 36.5 179t105 115t154 59.5t197.5 18.5 q128 0 214.5 -20t132.5 -60.5t62 -92t9 -122.5q-3 -35 -16 -50t-47.5 -21t-114.5 -6q-72 0 -102.5 5t-38.5 15.5t-6 36.5q3 29 -18.5 43t-76.5 14q-24 0 -45 -4.5t-41.5 -15t-32.5 -31.5t-12 -51q0 -54 48 -84t157 -64q66 -21 108 -37t89.5 -43.5t74 -58.5t44.5 -78t18 -106 q0 -211 -172 -299q76 -79 76 -207q0 -424 -527 -424q-110 0 -189.5 14.5t-128 39.5t-75 64t-34 83t-1.5 102q4 36 17 50.5t48 21t114 6.5q72 0 103 -5t39 -16t5 -36zM766 504q0 27 -13 47.5t-41.5 37t-57 27.5t-76.5 25q-52 -14 -88.5 -46t-36.5 -81q0 -22 11 -39.5 t26.5 -30t44.5 -25t52.5 -20t63.5 -18.5q49 14 82 44.5t33 78.5z" />
<glyph unicode="&#xa8;" horiz-adv-x="819" d="M279 1415q113 0 145.5 -15t26.5 -69l-13 -114q-4 -39 -18 -55.5t-47.5 -22.5t-110.5 -6q-113 0 -145.5 15t-26.5 69l12 114q4 39 18 55.5t48 22.5t111 6zM741 1415q113 0 145.5 -15t26.5 -69l-12 -114q-4 -39 -18 -55.5t-47.5 -22.5t-110.5 -6q-113 0 -145.5 15t-26.5 69 l12 114q4 39 18 55.5t47.5 22.5t110.5 6z" />
<glyph unicode="&#xa9;" horiz-adv-x="1638" d="M496 676q0 196 80.5 287.5t252.5 91.5q146 0 224.5 -68.5t81.5 -193.5q0 -32 -21 -41t-92 -9q-48 0 -70 3.5t-30 11.5t-9 26q-3 37 -21 55.5t-58 18.5q-61 0 -85 -39.5t-24 -142.5t24 -142.5t85 -39.5q41 0 61 19t23 60q2 24 21 31.5t87 7.5q72 0 92 -8t19 -41 q-3 -129 -81.5 -197.5t-226.5 -68.5q-172 0 -252.5 91.5t-80.5 287.5zM819 1376q360 0 528.5 -167.5t168.5 -530.5t-168.5 -530.5t-528.5 -167.5t-528 167.5t-168 530.5t168 530.5t528 167.5zM819 168q265 0 381.5 114.5t116.5 395.5t-116.5 395.5t-381.5 114.5t-381 -114.5 t-116 -395.5t116 -395.5t381 -114.5z" />
<glyph unicode="&#xaa;" horiz-adv-x="774" d="M498 952h-86q-37 0 -57.5 -10t-20.5 -39q0 -21 14 -30t45 -9q43 0 72 19.5t33 52.5v16zM393 1155q-2 -18 -6 -23t-25 -8.5t-73 -3.5q-78 0 -99.5 8t-17.5 41q6 49 21 84t46.5 64.5t88 44t137.5 14.5q170 0 234.5 -63.5t50.5 -196.5l-37 -373q-3 -24 -21 -30t-94 -6 q-79 0 -100 6.5t-19 29.5l2 41q-64 -84 -178 -84q-102 0 -147 47.5t-45 118.5q0 118 68 163.5t200 45.5h133l4 43q5 42 -5 57t-56 15q-59 0 -62 -35z" />
<glyph unicode="&#xab;" horiz-adv-x="1298" d="M92 569q6 52 33 86l182 238q28 33 65 42t148 9q170 0 171 -38q0 -9 -9 -21l-248 -316l182 -315q19 -39 -43 -51q-40 -8 -120 -8q-113 0 -153 9t-60 42l-134 237q-20 33 -14 86zM653 569q6 52 33 86l182 238q28 33 65 42t148 9q170 0 171 -38q0 -9 -9 -21l-248 -316 l183 -315q19 -39 -46 -52q-41 -7 -118 -7q-113 0 -153 9t-60 42l-133 237q-21 35 -15 86z" />
<glyph unicode="&#xad;" horiz-adv-x="856" d="M162 717h586q27 0 38 -13.5t11 -56.5q0 -31 -6 -86q-10 -105 -20.5 -130t-43.5 -25h-586q-27 0 -38 13.5t-11 57.5q0 31 6 84q12 107 22 131.5t42 24.5z" />
<glyph unicode="&#xae;" horiz-adv-x="1155" d="M578 1372q242 0 356.5 -117t114.5 -356t-114.5 -356t-356.5 -117t-357 117.5t-115 355.5t115 355.5t357 117.5zM578 571q172 0 243.5 75t71.5 253t-71.5 253t-243.5 75q-173 0 -244.5 -75t-71.5 -253t71.5 -253t244.5 -75zM569 823h-18v-131q0 -12 -12.5 -16t-57.5 -4 t-57 4t-12 16v410q0 10 10.5 14t46.5 4h127q97 0 139.5 -35t42.5 -112q0 -85 -67 -121q18 -13 34 -35q35 -51 46 -112q2 -9 1.5 -14.5t-7.5 -9.5t-22.5 -5.5t-43.5 -1.5q-38 0 -48.5 3.5t-13.5 16.5l-18 66q-21 66 -70 63zM551 1004v-76h43q29 0 41 8.5t12 28.5 q0 22 -12 30.5t-41 8.5h-43z" />
<glyph unicode="&#xaf;" horiz-adv-x="819" d="M805 1145h-623q-20 0 -27.5 8.5t-7.5 40.5q0 7 1 17t2 25t2 26q10 95 17 106q7 10 26 10h622q20 0 27.5 -8.5t7.5 -40.5q0 -38 -4 -67q-8 -84 -13.5 -100.5t-29.5 -16.5z" />
<glyph unicode="&#xb0;" horiz-adv-x="770" d="M477 1372q138 0 211.5 -67.5t73.5 -188.5q0 -156 -81 -245t-245 -89q-138 0 -211 65.5t-73 186.5q0 159 79.5 248.5t245.5 89.5zM444 967q59 0 92 35.5t33 97.5q0 88 -102 88q-59 0 -91 -36t-32 -97q0 -46 24 -67t76 -21z" />
<glyph unicode="&#xb1;" horiz-adv-x="1187" d="M840 1274l-27 -258h268q25 0 36 -13t11 -53q0 -31 -6 -84q-11 -103 -20 -126t-41 -23h-281l-26 -258q-2 -23 -12 -32.5t-40.5 -14t-101.5 -4.5q-103 0 -130 9t-24 42l27 258h-268q-26 0 -36.5 12.5t-10.5 52.5q0 32 6 84q11 103 20 126.5t41 23.5h281l26 258 q2 23 12 32.5t40.5 14t101.5 4.5q103 0 130 -9t24 -42zM150 299h856q25 0 36 -13t11 -53q0 -31 -6 -83q-11 -104 -19.5 -127t-40.5 -23h-856q-27 0 -38 13.5t-11 56.5q0 28 6 80q11 102 20.5 125.5t41.5 23.5z" />
<glyph unicode="&#xb2;" horiz-adv-x="757" d="M666 647h-519q-22 0 -28.5 17.5t0.5 80.5l2 3h-2l2 24q3 28 16 53t29.5 43t44.5 38t48 31.5t55 30.5t51 29q3 2 22.5 13t27 16t24.5 16.5t25 21t18.5 22.5t15 28t4.5 31q0 24 -11 33.5t-34 9.5q-29 0 -43.5 -11.5t-20.5 -41.5q-3 -18 -10.5 -25.5t-29.5 -11.5t-70 -4 q-74 0 -97.5 10t-19.5 43q15 125 90 180t215 55q130 0 196 -57.5t66 -153.5q0 -77 -47.5 -139t-136.5 -119q-15 -11 -115 -65h240q22 0 27 -16t-1 -87q-9 -82 -13 -90q-5 -8 -21 -8z" />
<glyph unicode="&#xb3;" horiz-adv-x="757" d="M410 936h-60q-18 0 -21 10t1 64q6 53 11.5 64t23.5 11h63q86 0 86 66q0 23 -14 32t-43 9q-61 0 -66 -33q-3 -18 -9 -24t-26.5 -9.5t-70.5 -3.5q-72 0 -94.5 9t-18.5 40q18 117 89 164t212 47q130 0 199 -53t69 -145q0 -120 -110 -172q40 -12 64 -49.5t24 -92.5 q0 -116 -86.5 -174.5t-218.5 -58.5q-144 0 -217 47t-66 160q1 34 20.5 42.5t88.5 8.5q73 0 93.5 -7t18.5 -32q0 -27 64 -27q78 0 78 62q0 26 -19 35.5t-65 9.5z" />
<glyph unicode="&#xb4;" horiz-adv-x="819" d="M723 1268l-379 -144q-28 -10 -41 2t-33 66q-23 57 -22 74.5t26 31.5l357 207q13 8 25 6t27.5 -26.5t37.5 -77.5q28 -83 27 -106t-25 -33z" />
<glyph unicode="&#xb6;" horiz-adv-x="1261" d="M1231 1090h-98q-70 0 -96 -22.5t-33 -90.5l-105 -993q-10 -96 -32 -163t-51 -108t-75 -64t-94.5 -30.5t-118.5 -7.5q-99 0 -155 18q-28 10 -38.5 24.5t-10.5 51.5q0 29 6 82q7 75 16 110t22 45.5t40 10.5q9 0 29 -2t28 -2q30 0 45.5 15t19.5 59l41 387h-10 q-227 0 -329.5 82t-102.5 290q0 56 6 121q15 143 51 238t101 152t153.5 80.5t216.5 23.5h594q25 0 36 -13t11 -55q0 -31 -6 -86q-11 -105 -20 -129t-41 -24z" />
<glyph unicode="&#xb7;" horiz-adv-x="565" d="M283 356q-92 0 -133 5.5t-53.5 18t-10.5 40.5l29 270q3 29 15 41t51.5 17.5t131.5 5.5t133 -5.5t53 -18t9 -40.5l-29 -270q-2 -29 -13.5 -41t-51 -17.5t-131.5 -5.5z" />
<glyph unicode="&#xb8;" horiz-adv-x="819" d="M418 -78h10q100 0 150.5 -32t50.5 -119q0 -129 -57 -177t-195 -53h-217q-17 0 -20 12.5t3 69.5t11 69.5t22 12.5h199q19 0 29 1.5t21 11.5t11 30q0 29 -53 29h-113q-49 0 -62 9t-5 32l73 178q7 17 22.5 20.5t74.5 3.5q53 0 62 -3.5t5 -20.5z" />
<glyph unicode="&#xb9;" horiz-adv-x="757" d="M657 647h-475q-22 0 -27 15.5t1 82.5q9 86 13 94q5 9 21 9h136l32 305l-116 -16q-23 -5 -28.5 15t1.5 87q7 65 14 80t29 20l299 41q30 6 41.5 -1t9.5 -29l-55 -502h113q22 0 27 -16t-1 -87q-9 -82 -14 -90t-21 -8z" />
<glyph unicode="&#xba;" horiz-adv-x="806" d="M389 1036q-4 -50 -4 -63q0 -46 15.5 -66t52.5 -20q48 0 68.5 32.5t29.5 116.5q4 40 4 56q0 51 -16 72.5t-56 21.5q-46 0 -66 -33t-28 -117zM150 1042q19 176 99 255t247 79q301 0 301 -278q0 -18 -4 -68q-19 -175 -102 -254.5t-253 -79.5q-293 0 -293 277q0 7 5 69z" />
<glyph unicode="&#xbb;" horiz-adv-x="1298" d="M645 569q-6 -52 -33 -86l-182 -237q-28 -33 -65 -42t-148 -9q-170 0 -171 38q1 10 9 21l248 315l-182 316q-19 39 46 52q41 7 118 7q113 0 153 -9t60 -42l133 -238q20 -33 14 -86zM1206 569q-6 -53 -32 -86l-183 -237q-28 -33 -65 -42t-148 -9q-170 0 -171 38q1 10 9 21 l248 315l-182 316q-19 39 46 52q41 7 118 7q113 0 153 -9t60 -42l133 -238q20 -33 14 -86z" />
<glyph unicode="&#xbc;" horiz-adv-x="1761" d="M1509 1298l-798 -1247q-17 -27 -26 -35.5t-40.5 -15t-97.5 -6.5q-23 0 -41.5 1t-31.5 3t-22.5 4.5t-14.5 7t-7 9t-1 10.5t3.5 12.5t7.5 15.5l799 1248q22 32 32 39q27 18 132 18q113 0 119 -28q1 -13 -13 -36zM1440 -2q-76 0 -96.5 6.5t-18.5 30.5l14 131h-292 q-23 0 -29 14t0 74q3 38 9 55t22 37l325 356q16 18 35.5 22.5t87.5 4.5q81 0 103.5 -6.5t19.5 -28.5l-37 -342h62q22 0 28 -16.5t0 -75.5q-8 -67 -12.5 -80.5t-24.5 -13.5h-71l-15 -131q-1 -17 -7 -23.5t-28 -10t-75 -3.5zM657 641h-475q-22 0 -27 15.5t1 82.5q9 86 13 94 q5 9 21 9h136l32 305l-116 -17q-23 -5 -28.5 15.5t1.5 87.5q7 65 14 80t29 20l299 41q30 6 41.5 -1.5t9.5 -29.5l-55 -501h113q22 0 27 -16t-1 -87q-9 -82 -14 -90t-21 -8zM1223 352h145l21 178z" />
<glyph unicode="&#xbd;" horiz-adv-x="1761" d="M1460 1298l-798 -1247q-17 -27 -26 -35.5t-40.5 -15t-97.5 -6.5q-23 0 -41.5 1t-31.5 3t-22.5 4.5t-14.5 7t-7 9t-1 10.5t3.5 12.5t7.5 15.5l799 1248q22 32 32 39q27 18 132 18q113 0 119 -28q1 -13 -13 -36zM1597 -16h-518q-22 0 -28.5 17.5t0.5 80.5l2 2h-2l2 25 q3 28 16 53t29 43t44.5 38t48 31.5t54.5 30.5t51 29q2 1 26 15t32.5 19.5t28 20.5t27.5 26.5t16 29t8 36.5q0 24 -11 33.5t-34 9.5q-29 0 -43.5 -11.5t-20.5 -41.5q-5 -26 -23.5 -33.5t-87.5 -7.5q-74 0 -97 10t-19 43q15 125 90 180.5t215 55.5q130 0 196 -57.5t66 -153.5 q0 -77 -47.5 -139t-136.5 -119q-22 -15 -115 -66h240q22 0 27 -16t-1 -86q-9 -82 -14 -90q-7 -8 -21 -8zM657 641h-475q-22 0 -27 15.5t1 82.5q9 86 13 94q5 9 21 9h136l32 305l-116 -17q-23 -5 -28.5 15.5t1.5 87.5q7 65 14 80t29 20l299 41q30 6 41.5 -1.5t9.5 -29.5 l-55 -501h113q22 0 27 -16t-1 -87q-9 -82 -14 -90t-21 -8z" />
<glyph unicode="&#xbe;" horiz-adv-x="1761" d="M1485 1298l-799 -1247q-17 -27 -26 -35.5t-40.5 -15t-97.5 -6.5q-61 0 -88.5 7t-29 21t11.5 35l798 1248q22 32 32 39q27 18 132 18q115 0 120 -29q1 -12 -13 -35zM410 930h-60q-18 0 -21 10t1 64q6 53 11.5 64t23.5 11h63q86 0 86 66q0 23 -14 32t-43 9q-61 0 -66 -33 q-3 -18 -9 -24t-26.5 -9.5t-70.5 -3.5q-72 0 -94.5 9t-18.5 40q18 117 89 164t212 47q130 0 199 -53t69 -145q0 -120 -110 -172q40 -12 64 -49.5t24 -92.5q0 -116 -86.5 -174.5t-218.5 -58.5q-144 0 -217 47t-66 160q1 34 20.5 42.5t88.5 8.5q73 0 93.5 -7t18.5 -32 q0 -27 64 -27q78 0 78 62q0 26 -19 35.5t-65 9.5zM1440 -2q-76 0 -96.5 6.5t-18.5 30.5l14 131h-292q-23 0 -29 14t0 74q3 38 9 55t22 37l325 356q16 18 35.5 22.5t87.5 4.5q81 0 103.5 -6.5t19.5 -28.5l-37 -342h62q22 0 28 -16.5t0 -75.5q-8 -67 -12.5 -80.5t-24.5 -13.5 h-71l-15 -131q-1 -17 -7 -23.5t-28 -10t-75 -3.5zM1223 352h145l21 178z" />
<glyph unicode="&#xbf;" horiz-adv-x="1150" d="M426 438l6 27q6 27 15.5 36.5t42 14t112.5 4.5q115 0 143.5 -9.5t26.5 -45.5l-2 -41q-3 -45 -27 -83t-57.5 -62t-72.5 -50t-71.5 -48.5t-54.5 -57t-22 -76.5q0 -36 20.5 -51.5t63.5 -15.5q57 0 84.5 19t36.5 71q4 30 17 43t51.5 19.5t121.5 6.5q124 0 161.5 -16t31.5 -72 q-26 -212 -158 -307.5t-377 -95.5q-229 0 -338.5 94.5t-109.5 247.5q0 73 24.5 132t61 94t81 66t83.5 51.5t69 48t37 56.5zM621 633q-93 0 -133.5 5t-53 17.5t-10.5 40.5l29 271q3 29 15 40.5t51.5 17t131.5 5.5q93 0 133.5 -5t52.5 -17.5t9 -40.5l-29 -271 q-2 -29 -14 -40.5t-51 -17t-131 -5.5z" />
<glyph unicode="&#xc0;" horiz-adv-x="1314" d="M1059 -6q-139 0 -182 14.5t-46 65.5q-3 66 -16 196h-344q-42 -133 -57 -196q-8 -36 -28.5 -52t-64 -22t-139.5 -6q-122 0 -156 14.5t-20 59.5q83 264 225.5 635t253.5 593q21 40 69.5 53t197.5 13q104 0 158 -6t77.5 -19.5t30.5 -40.5q62 -225 127 -596.5t94 -631.5 q5 -46 -27.5 -60t-152.5 -14zM754 1452l-371 125q-16 7 -20 17.5t5.5 40.5t39.5 87q33 58 52 83.5t31.5 28.5t24.5 -7l336 -193q26 -12 24.5 -31t-34.5 -79q-31 -57 -46.5 -69.5t-41.5 -2.5zM715 963q-117 -311 -140 -377h201q-33 222 -61 377z" />
<glyph unicode="&#xc1;" horiz-adv-x="1314" d="M1059 -6q-139 0 -182 14.5t-46 65.5q-3 66 -16 196h-344q-42 -133 -57 -196q-8 -36 -28.5 -52t-64 -22t-139.5 -6q-122 0 -156 14.5t-20 59.5q83 264 225.5 635t253.5 593q21 40 69.5 53t197.5 13q104 0 158 -6t77.5 -19.5t30.5 -40.5q62 -225 127 -596.5t94 -631.5 q5 -46 -27.5 -60t-152.5 -14zM1178 1577l-396 -125q-29 -10 -41.5 3t-31.5 71q-21 62 -18.5 80t30.5 32l373 193q11 7 20.5 7t20 -10t22.5 -35.5t27 -68.5q26 -89 23.5 -113t-29.5 -34zM715 963q-117 -311 -140 -377h201q-33 222 -61 377z" />
<glyph unicode="&#xc2;" horiz-adv-x="1314" d="M1059 -6q-139 0 -182 14.5t-46 65.5q-3 66 -16 196h-344q-42 -133 -57 -196q-8 -36 -28.5 -52t-64 -22t-139.5 -6q-122 0 -156 14.5t-20 59.5q83 264 225.5 635t253.5 593q21 40 69.5 53t197.5 13q104 0 158 -6t77.5 -19.5t30.5 -40.5q62 -225 127 -596.5t94 -631.5 q5 -46 -27.5 -60t-152.5 -14zM780 1569l-94 -80q-3 -2 -16 -13t-15.5 -12.5t-14.5 -7.5t-22 -6.5t-28 -2t-43 -1.5q-120 0 -116 33q0 6 7 14l209 223q20 21 29 28t37.5 13t81.5 6q78 0 105.5 -9.5t45.5 -37.5l160 -223q23 -33 -43 -43q-25 -4 -62 -4q-70 0 -93.5 8.5 t-49.5 34.5zM715 963q-117 -311 -140 -377h201q-33 222 -61 377z" />
<glyph unicode="&#xc3;" horiz-adv-x="1314" d="M1059 -6q-139 0 -182 14.5t-46 65.5q-3 66 -16 196h-344q-42 -133 -57 -196q-8 -36 -28.5 -52t-64 -22t-139.5 -6q-122 0 -156 14.5t-20 59.5q83 264 225.5 635t253.5 593q21 40 69.5 53t197.5 13q104 0 158 -6t77.5 -19.5t30.5 -40.5q62 -225 127 -596.5t94 -631.5 q5 -46 -27.5 -60t-152.5 -14zM950 1683l2 27q3 17 9.5 24t25.5 10t64 3q67 0 86.5 -7t15.5 -30l-12 -78q-31 -186 -209 -186q-74 0 -154 43l-84 47q-21 12 -41 12q-34 0 -37 -35l-2 -26q-3 -17 -9 -23.5t-25 -10t-64 -3.5q-67 0 -86.5 7t-15.5 30l12 78q31 186 215 186 q67 0 147 -43l84 -47q21 -12 41 -12q34 0 37 34zM715 963q-117 -311 -140 -377h201q-33 222 -61 377z" />
<glyph unicode="&#xc4;" horiz-adv-x="1314" d="M1059 -6q-139 0 -182 14.5t-46 65.5q-3 66 -16 196h-344q-42 -133 -57 -196q-8 -36 -28.5 -52t-64 -22t-139.5 -6q-122 0 -156 14.5t-20 59.5q83 264 225.5 635t253.5 593q21 40 69.5 53t197.5 13q104 0 158 -6t77.5 -19.5t30.5 -40.5q62 -225 127 -596.5t94 -631.5 q5 -46 -27.5 -60t-152.5 -14zM1028 1735q113 0 144.5 -15t25.5 -69l-12 -115q-4 -55 -34.5 -69.5t-141.5 -14.5q-113 0 -144.5 15t-27.5 69l12 115q6 55 36.5 69.5t141.5 14.5zM557 1735q113 0 144.5 -15t25.5 -69l-12 -115q-4 -55 -34.5 -69.5t-141.5 -14.5 q-113 0 -144.5 15t-27.5 69l12 115q6 55 36.5 69.5t141.5 14.5zM715 963q-117 -311 -140 -377h201q-33 222 -61 377z" />
<glyph unicode="&#xc5;" horiz-adv-x="1314" d="M1059 -6q-139 0 -182 14.5t-46 65.5q-3 66 -16 196h-344q-42 -133 -57 -196q-8 -36 -28.5 -52t-64 -22t-139.5 -6q-122 0 -156 14.5t-20 59.5q83 264 225.5 635t253.5 593q18 32 43 43q-10 29 -10 72q0 119 65.5 184.5t198.5 65.5q112 0 172 -52t60 -145q0 -74 -27 -129 q20 -10 31 -39q62 -225 127 -596.5t94 -631.5q5 -46 -27.5 -60t-152.5 -14zM715 963q-117 -311 -140 -377h201q-33 222 -61 377zM758 1364q88 0 88 84q0 59 -72 59q-37 0 -62.5 -20t-25.5 -62q0 -61 72 -61z" />
<glyph unicode="&#xc6;" horiz-adv-x="1961" d="M1884 1020h-471l-16 -162h379q27 0 38 -13.5t11 -58.5q0 -32 -6 -94q-9 -82 -15 -113.5t-16.5 -42t-34.5 -10.5h-391l-21 -190h471q28 0 39 -13t11 -59q0 -24 -7 -96q-12 -117 -22 -142.5t-43 -25.5h-664q-73 0 -112 2t-62.5 9.5t-28.5 19t-3 32.5l24 230h-416 q-93 -189 -106 -219q-16 -37 -39 -52.5t-68 -21.5t-143 -6q-58 0 -93 4t-54 12.5t-20.5 22.5t7.5 35q129 262 333 630t351 592q18 28 38 40.5t71 19t153 6.5h949q28 0 38.5 -13t10.5 -59q0 -34 -6 -96q-7 -81 -14 -113.5t-17.5 -43.5t-34.5 -11zM932 1040 q-111 -194 -232 -419h277l45 419h-90z" />
<glyph unicode="&#xc7;" horiz-adv-x="1290" d="M666 -76h10q104 0 154.5 -32.5t50.5 -120.5q0 -120 -59 -179t-191 -59h-225q-19 0 -23.5 12.5t0.5 71.5q1 13 3 32q3 35 6.5 42.5t17.5 7.5h206q36 0 52 9t16 40q0 29 -53 29h-109q-51 0 -67.5 9.5t-8.5 31.5l72 170q-211 28 -313.5 158.5t-102.5 377.5q0 71 9 154 q38 368 190.5 533t460.5 165q258 0 390.5 -123t113.5 -342q-4 -56 -39 -70t-160 -14q-84 0 -124 6.5t-53.5 20.5t-12.5 43q2 65 -28.5 99t-100.5 34q-110 0 -160.5 -74.5t-71.5 -277.5q-8 -71 -8 -139q0 -119 38 -166t128 -47q72 0 112 34.5t50 106.5q5 30 18.5 43.5t53 20 t122.5 6.5q128 0 165 -14.5t30 -71.5q-30 -221 -165 -341.5t-376 -129.5z" />
<glyph unicode="&#xc8;" d="M1094 1020h-521l-16 -162h428q27 0 38 -13.5t11 -58.5q0 -32 -6 -94q-12 -116 -21.5 -141t-43.5 -25h-441l-20 -190h520q28 0 38.5 -13t10.5 -59q0 -34 -6 -96q-12 -116 -22 -142t-44 -26h-712q-73 0 -112 2t-62.5 9.5t-29 19t-3.5 32.5l129 1229q3 29 16 41t54.5 17.5 t136.5 5.5h700q28 0 38.5 -13t10.5 -59q0 -34 -6 -96q-7 -82 -13.5 -114t-17 -43t-34.5 -11zM723 1452l-371 125q-16 7 -20 17.5t5.5 40.5t39.5 87q33 58 52 83.5t31.5 28.5t24.5 -7l336 -193q26 -12 24.5 -31t-34.5 -79q-31 -57 -46.5 -69.5t-41.5 -2.5z" />
<glyph unicode="&#xc9;" d="M1094 1020h-521l-16 -162h428q27 0 38 -13.5t11 -58.5q0 -32 -6 -94q-12 -116 -21.5 -141t-43.5 -25h-441l-20 -190h520q28 0 38.5 -13t10.5 -59q0 -34 -6 -96q-12 -116 -22 -142t-44 -26h-712q-73 0 -112 2t-62.5 9.5t-29 19t-3.5 32.5l129 1229q3 29 16 41t54.5 17.5 t136.5 5.5h700q28 0 38.5 -13t10.5 -59q0 -34 -6 -96q-7 -82 -13.5 -114t-17 -43t-34.5 -11zM1065 1577l-395 -125q-29 -10 -42 3t-32 71q-21 62 -18.5 80t30.5 32l373 193q11 7 20.5 7t20 -10t22.5 -35.5t27 -68.5q26 -89 23.5 -113t-29.5 -34z" />
<glyph unicode="&#xca;" d="M1094 1020h-521l-16 -162h428q27 0 38 -13.5t11 -58.5q0 -32 -6 -94q-12 -116 -21.5 -141t-43.5 -25h-441l-20 -190h520q28 0 38.5 -13t10.5 -59q0 -34 -6 -96q-12 -116 -22 -142t-44 -26h-712q-73 0 -112 2t-62.5 9.5t-29 19t-3.5 32.5l129 1229q3 29 16 41t54.5 17.5 t136.5 5.5h700q28 0 38.5 -13t10.5 -59q0 -34 -6 -96q-7 -82 -13.5 -114t-17 -43t-34.5 -11zM729 1569l-94 -80q-3 -2 -16 -13t-15.5 -12.5t-14.5 -7.5t-22 -6.5t-28 -2t-43 -1.5q-120 0 -116 33q0 6 7 14l209 223q20 21 29 28t37 13t81 6q78 0 106 -9.5t46 -37.5l160 -223 q23 -33 -43 -43q-25 -4 -62 -4q-70 0 -93.5 8.5t-49.5 34.5z" />
<glyph unicode="&#xcb;" d="M1094 1020h-521l-16 -162h428q27 0 38 -13.5t11 -58.5q0 -32 -6 -94q-12 -116 -21.5 -141t-43.5 -25h-441l-20 -190h520q28 0 38.5 -13t10.5 -59q0 -34 -6 -96q-12 -116 -22 -142t-44 -26h-712q-73 0 -112 2t-62.5 9.5t-29 19t-3.5 32.5l129 1229q3 29 16 41t54.5 17.5 t136.5 5.5h700q28 0 38.5 -13t10.5 -59q0 -34 -6 -96q-7 -82 -13.5 -114t-17 -43t-34.5 -11zM506 1735q113 0 144.5 -15t25.5 -69l-12 -115q-4 -55 -35 -69.5t-142 -14.5q-113 0 -144.5 15t-27.5 69l13 115q6 55 36.5 69.5t141.5 14.5zM977 1735q113 0 144.5 -15t25.5 -69 l-12 -115q-4 -55 -35 -69.5t-142 -14.5q-113 0 -144.5 15t-27.5 69l13 115q6 55 36.5 69.5t141.5 14.5z" />
<glyph unicode="&#xcc;" horiz-adv-x="634" d="M281 -8q-94 0 -135 5t-53.5 17.5t-10.5 40.5l131 1243q3 29 15 41t51.5 17.5t132.5 5.5q134 0 168.5 -11.5t29.5 -52.5l-131 -1243q-2 -29 -14 -40.5t-51.5 -17t-132.5 -5.5zM414 1452l-371 125q-16 7 -20 17.5t5.5 40.5t39.5 87q33 58 52 83.5t31.5 28.5t24.5 -7 l336 -193q26 -12 24.5 -31t-34.5 -79q-31 -57 -46.5 -69.5t-41.5 -2.5z" />
<glyph unicode="&#xcd;" horiz-adv-x="634" d="M281 -8q-94 0 -135 5t-53.5 17.5t-10.5 40.5l131 1243q3 29 15 41t51.5 17.5t132.5 5.5q134 0 168.5 -11.5t29.5 -52.5l-131 -1243q-2 -29 -14 -40.5t-51.5 -17t-132.5 -5.5zM838 1577l-396 -125q-29 -10 -41.5 3t-31.5 71q-21 62 -18.5 80t30.5 32l373 193q11 7 20.5 7 t20 -10t22.5 -35.5t27 -68.5q26 -89 23.5 -113t-29.5 -34z" />
<glyph unicode="&#xce;" horiz-adv-x="634" d="M281 -8q-94 0 -135 5t-53.5 17.5t-10.5 40.5l131 1243q3 29 15 41t51.5 17.5t132.5 5.5q134 0 168.5 -11.5t29.5 -52.5l-131 -1243q-2 -29 -14 -40.5t-51.5 -17t-132.5 -5.5zM440 1569l-94 -80q-3 -2 -16 -13t-15.5 -12.5t-14.5 -7.5t-22 -6.5t-28 -2t-43 -1.5 q-120 0 -116 33q0 6 7 14l209 223q20 21 29 28t37.5 13t81.5 6q78 0 105.5 -9.5t45.5 -37.5l160 -223q23 -33 -42 -43q-25 -4 -62 -4q-70 0 -94 8.5t-50 34.5z" />
<glyph unicode="&#xcf;" horiz-adv-x="634" d="M281 -8q-94 0 -135 5t-53.5 17.5t-10.5 40.5l131 1243q3 29 15 41t51.5 17.5t132.5 5.5q134 0 168.5 -11.5t29.5 -52.5l-131 -1243q-2 -29 -14 -40.5t-51.5 -17t-132.5 -5.5zM217 1735q113 0 144.5 -15t25.5 -69l-12 -115q-4 -55 -34.5 -69.5t-141.5 -14.5 q-113 0 -144.5 15t-27.5 69l12 115q6 55 36.5 69.5t141.5 14.5zM688 1735q113 0 144.5 -15t25.5 -69l-12 -115q-4 -55 -34.5 -69.5t-141.5 -14.5q-113 0 -144.5 15t-27.5 69l12 115q6 55 36.5 69.5t141.5 14.5z" />
<glyph unicode="&#xd0;" horiz-adv-x="1298" d="M578 0h-287q-73 0 -112 2t-62.5 9.5t-29 19t-3.5 32.5l49 480h-55q-20 0 -27.5 8.5t-7.5 40.5q0 9 4 67q11 96 17 107q6 10 26 10h68l55 516q3 29 16 41t54.5 17.5t136.5 5.5h287q285 0 414.5 -128t129.5 -413q0 -63 -6 -137q-31 -359 -190 -518.5t-477 -159.5zM510 344 h96q103 0 159.5 76.5t74.5 257.5q6 59 6 106q0 122 -41.5 175t-128.5 53h-96l-25 -236h117q20 0 27.5 -8.5t7.5 -40.5t-5 -68q-8 -84 -13.5 -100t-29.5 -16h-129z" />
<glyph unicode="&#xd1;" horiz-adv-x="1417" d="M1198 1362q134 0 169 -11.5t30 -52.5l-129 -1239q-3 -30 -16 -41.5t-57.5 -17.5t-147.5 -6q-104 0 -143 12t-52 41l-309 660l-68 -650q-2 -29 -14 -40.5t-52 -17t-133 -5.5q-94 0 -134.5 5t-53 17.5t-10.5 40.5l131 1239q3 30 15.5 41.5t57 18t146.5 6.5q104 0 144 -12 t53 -41l307 -660l67 649q3 29 15 41t51.5 17.5t132.5 5.5zM1001 1683l3 27q3 17 9 23.5t25 10t64 3.5q67 0 86.5 -7t15.5 -30l-12 -78q-31 -186 -209 -186q-74 0 -154 43l-84 47q-21 12 -40 12q-34 0 -37 -35l-2 -26q-3 -17 -9.5 -24t-25.5 -10t-64 -3q-67 0 -86.5 7 t-15.5 30l12 78q31 186 215 186q68 0 148 -43l84 -47q21 -12 41 -12q33 0 36 34z" />
<glyph unicode="&#xd2;" horiz-adv-x="1380" d="M776 1376q290 0 424.5 -131.5t134.5 -417.5q0 -78 -8 -149q-36 -370 -190 -534t-475 -164q-290 0 -425 131t-135 417q0 70 9 150q36 370 190 534t475 164zM682 319q117 0 167.5 76.5t72.5 282.5q8 73 8 143q0 120 -38.5 167.5t-133.5 47.5q-117 0 -168.5 -76.5 t-73.5 -281.5q-8 -73 -8 -141q0 -122 39.5 -170t134.5 -48zM786 1452l-370 125q-16 7 -20.5 17.5t5 40.5t39.5 87q32 57 52 83t32.5 29t24.5 -7l336 -193q25 -13 23.5 -31t-34.5 -79q-31 -57 -46.5 -69.5t-41.5 -2.5z" />
<glyph unicode="&#xd3;" horiz-adv-x="1380" d="M776 1376q290 0 424.5 -131.5t134.5 -417.5q0 -78 -8 -149q-36 -370 -190 -534t-475 -164q-290 0 -425 131t-135 417q0 70 9 150q36 370 190 534t475 164zM682 319q117 0 167.5 76.5t72.5 282.5q8 73 8 143q0 120 -38.5 167.5t-133.5 47.5q-117 0 -168.5 -76.5 t-73.5 -281.5q-8 -73 -8 -141q0 -122 39.5 -170t134.5 -48zM1210 1577l-395 -125q-29 -10 -42 3t-32 71q-21 62 -18.5 80t31.5 32l372 193q15 9 27.5 6.5t28 -29.5t35.5 -84q25 -89 22.5 -113t-29.5 -34z" />
<glyph unicode="&#xd4;" horiz-adv-x="1380" d="M776 1376q290 0 424.5 -131.5t134.5 -417.5q0 -78 -8 -149q-36 -370 -190 -534t-475 -164q-290 0 -425 131t-135 417q0 70 9 150q36 370 190 534t475 164zM682 319q117 0 167.5 76.5t72.5 282.5q8 73 8 143q0 120 -38.5 167.5t-133.5 47.5q-117 0 -168.5 -76.5 t-73.5 -281.5q-8 -73 -8 -141q0 -122 39.5 -170t134.5 -48zM813 1569l-94 -80q-3 -2 -16 -13t-15.5 -12.5t-14.5 -7.5t-22 -6.5t-28 -2t-43 -1.5q-120 0 -116 33q0 6 7 14l209 223q20 21 29 28t37 13t81 6q78 0 106 -9.5t46 -37.5l160 -223q23 -33 -43 -43q-25 -4 -62 -4 q-70 0 -93.5 8.5t-49.5 34.5z" />
<glyph unicode="&#xd5;" horiz-adv-x="1380" d="M776 1376q290 0 424.5 -131.5t134.5 -417.5q0 -78 -8 -149q-36 -370 -190 -534t-475 -164q-290 0 -425 131t-135 417q0 70 9 150q36 370 190 534t475 164zM682 319q117 0 167.5 76.5t72.5 282.5q8 73 8 143q0 120 -38.5 167.5t-133.5 47.5q-117 0 -168.5 -76.5 t-73.5 -281.5q-8 -73 -8 -141q0 -122 39.5 -170t134.5 -48zM983 1683l2 27q3 17 9 23.5t25 10t64 3.5q67 0 87 -7t16 -30l-12 -78q-31 -186 -209 -186q-74 0 -154 43l-84 47q-21 12 -41 12q-34 0 -37 -35l-2 -26q-3 -17 -9 -23.5t-25 -10t-64 -3.5q-67 0 -87 7t-16 30l13 78 q31 186 215 186q67 0 147 -43l84 -47q21 -12 41 -12q34 0 37 34z" />
<glyph unicode="&#xd6;" horiz-adv-x="1380" d="M776 1376q290 0 424.5 -131.5t134.5 -417.5q0 -78 -8 -149q-36 -370 -190 -534t-475 -164q-290 0 -425 131t-135 417q0 70 9 150q36 370 190 534t475 164zM682 319q117 0 167.5 76.5t72.5 282.5q8 73 8 143q0 120 -38.5 167.5t-133.5 47.5q-117 0 -168.5 -76.5 t-73.5 -281.5q-8 -73 -8 -141q0 -122 39.5 -170t134.5 -48zM590 1735q113 0 144.5 -15t25.5 -69l-12 -115q-4 -55 -35 -69.5t-142 -14.5q-113 0 -144.5 15t-27.5 69l13 115q6 55 36.5 69.5t141.5 14.5zM1061 1735q113 0 144.5 -15t25.5 -69l-12 -115q-4 -55 -35 -69.5 t-142 -14.5q-113 0 -144.5 15t-27.5 69l13 115q6 55 36.5 69.5t141.5 14.5z" />
<glyph unicode="&#xd7;" horiz-adv-x="1187" d="M811 188l-215 240l-264 -240q-24 -24 -47 -12.5t-88 82.5q-64 72 -73 96.5t17 46.5l265 240l-213 240q-23 22 -9 46t92 97q81 71 106 82.5t46 -12.5l213 -240l266 240q24 24 47 12.5t88 -82.5q64 -72 73 -96.5t-17 -46.5l-267 -240l216 -240q22 -23 8.5 -46.5 t-92.5 -96.5q-81 -71 -106 -82.5t-46 12.5z" />
<glyph unicode="&#xd8;" horiz-adv-x="1388" d="M780 1376q123 0 230 -26l24 34q14 22 24 30t44.5 14t105.5 6q146 0 150 -31q1 -9 -8 -23l-113 -172q102 -128 102 -381q0 -78 -8 -149q-36 -370 -190 -534t-475 -164q-127 0 -226 24l-26 -41q-15 -22 -25.5 -30t-45 -13.5t-105.5 -5.5q-144 0 -150 29q-2 9 8 24l115 176 q-105 132 -105 385q0 70 9 150q36 370 190 534t475 164zM520 678q-8 -63 -8 -123l313 473q-36 8 -63 8q-117 0 -168.5 -76.5t-73.5 -281.5zM686 319q117 0 167.5 76.5t72.5 282.5l8 115l-311 -467q32 -7 63 -7z" />
<glyph unicode="&#xd9;" horiz-adv-x="1363" d="M653 -20q-280 0 -409 104t-129 336q0 52 6 110l80 768q3 30 14.5 41.5t51.5 17t132 5.5q134 0 169 -11.5t30 -52.5l-80 -753q-11 -115 22.5 -160t135.5 -45q103 0 145 45.5t53 159.5l80 753q3 29 15 41t51.5 17.5t132.5 5.5q134 0 169 -11.5t30 -52.5l-80 -768 q-21 -200 -86.5 -318t-194 -175t-338.5 -57zM778 1452l-370 125q-16 7 -20.5 17.5t5 40.5t39.5 87q32 57 52 83t32.5 29t24.5 -7l336 -193q25 -13 23.5 -31t-34.5 -79q-31 -57 -46.5 -69.5t-41.5 -2.5z" />
<glyph unicode="&#xda;" horiz-adv-x="1363" d="M653 -20q-280 0 -409 104t-129 336q0 52 6 110l80 768q3 30 14.5 41.5t51.5 17t132 5.5q134 0 169 -11.5t30 -52.5l-80 -753q-11 -115 22.5 -160t135.5 -45q103 0 145 45.5t53 159.5l80 753q3 29 15 41t51.5 17.5t132.5 5.5q134 0 169 -11.5t30 -52.5l-80 -768 q-21 -200 -86.5 -318t-194 -175t-338.5 -57zM1202 1577l-395 -125q-29 -10 -42 3t-32 71q-21 62 -18.5 80t30.5 32l373 193q11 7 20.5 7t20 -10t22.5 -35.5t27 -68.5q26 -89 23.5 -113t-29.5 -34z" />
<glyph unicode="&#xdb;" horiz-adv-x="1363" d="M653 -20q-280 0 -409 104t-129 336q0 52 6 110l80 768q3 30 14.5 41.5t51.5 17t132 5.5q134 0 169 -11.5t30 -52.5l-80 -753q-11 -115 22.5 -160t135.5 -45q103 0 145 45.5t53 159.5l80 753q3 29 15 41t51.5 17.5t132.5 5.5q134 0 169 -11.5t30 -52.5l-80 -768 q-21 -200 -86.5 -318t-194 -175t-338.5 -57zM805 1569l-94 -80q-4 -3 -14.5 -11.5t-13 -10.5t-12 -7.5t-16 -6.5t-19.5 -3.5t-28.5 -3t-36.5 -0.5q-119 0 -115 33q0 6 7 14l209 223q20 21 29 28t37 13t81 6q78 0 106 -9.5t46 -37.5l159 -223q23 -33 -42 -43q-25 -4 -62 -4 q-70 0 -93.5 8.5t-49.5 34.5z" />
<glyph unicode="&#xdc;" horiz-adv-x="1363" d="M653 -20q-280 0 -409 104t-129 336q0 52 6 110l80 768q3 30 14.5 41.5t51.5 17t132 5.5q134 0 169 -11.5t30 -52.5l-80 -753q-11 -115 22.5 -160t135.5 -45q103 0 145 45.5t53 159.5l80 753q3 29 15 41t51.5 17.5t132.5 5.5q134 0 169 -11.5t30 -52.5l-80 -768 q-21 -200 -86.5 -318t-194 -175t-338.5 -57zM582 1735q113 0 144.5 -15t25.5 -69l-13 -115q-4 -55 -34.5 -69.5t-141.5 -14.5q-113 0 -144.5 15t-27.5 69l12 115q6 55 37 69.5t142 14.5zM1053 1735q113 0 144.5 -15t25.5 -69l-13 -115q-4 -55 -34.5 -69.5t-141.5 -14.5 q-113 0 -144.5 15t-27.5 69l12 115q6 55 37 69.5t142 14.5z" />
<glyph unicode="&#xdd;" horiz-adv-x="1282" d="M918 1296q14 30 32 42.5t61 18t136 5.5q164 0 187 -27q13 -14 -3 -45q-72 -139 -224.5 -392t-262.5 -411l-45 -432q-2 -29 -14 -40.5t-52 -17t-133 -5.5q-94 0 -135 5t-53.5 17.5t-10.5 40.5l45 430q-77 161 -176 416t-139 389q-9 30 1 44t51.5 21t131.5 7q94 0 139 -5.5 t65 -18.5t26 -42q59 -237 137 -465q154 284 236 465zM1161 1577l-395 -125q-29 -10 -42 3t-32 71q-21 62 -18.5 80t31.5 32l372 193q11 7 20.5 7t20 -10t22.5 -35.5t27 -68.5q26 -89 23.5 -113t-29.5 -34z" />
<glyph unicode="&#xde;" horiz-adv-x="1245" d="M627 279h-129l-23 -222q-2 -29 -14 -40.5t-52 -17t-133 -5.5q-94 0 -134.5 5t-53 17.5t-10.5 40.5l84 797l47 444q3 29 15 41t51.5 17.5t132.5 5.5q134 0 168.5 -11.5t29.5 -52.5l-14 -127h110q262 0 381 -90.5t119 -283.5q0 -22 -4 -72q-21 -232 -154 -339t-417 -107z M557 836l-25 -222h105q77 0 114.5 27.5t43.5 83.5v16q0 48 -32.5 71.5t-103.5 23.5h-102z" />
<glyph unicode="&#xdf;" horiz-adv-x="1509" d="M762 606q-24 0 -34.5 12.5t-10.5 51.5q0 26 6 73q9 94 17.5 116t37.5 22q119 0 166 10q129 28 129 137q0 123 -239 123q-87 0 -145.5 -15.5t-92.5 -48t-50 -74t-22 -102.5l-90 -858q-2 -27 -13.5 -38t-48.5 -16t-124 -5t-126 5t-51 16.5t-10 37.5l89 846 q31 285 200.5 415t501.5 130q281 0 433.5 -91.5t152.5 -256.5q0 -141 -82.5 -228t-233.5 -112q324 -41 324 -328q0 -220 -118.5 -334t-354.5 -114q-122 0 -205.5 20t-128 59t-61 89.5t-9.5 117.5q4 36 15 50.5t44.5 21t112.5 6.5q104 0 131.5 -10.5t22.5 -46.5 q-3 -49 80 -49q58 0 84 50.5t26 123.5q1 66 -24.5 106t-98.5 64t-200 24z" />
<glyph unicode="&#xe0;" horiz-adv-x="1110" d="M481 700q-1 -16 -2 -21.5t-6.5 -14.5t-14 -11t-27.5 -5.5t-44.5 -4t-67.5 -0.5q-123 0 -153.5 12.5t-26.5 65.5q8 76 33.5 131.5t77.5 100.5t141.5 68t216.5 23q238 0 339.5 -80t101.5 -245q0 -11 -5 -78l-61 -588q-2 -27 -13 -38t-47.5 -16t-121.5 -5q-121 0 -153 11 t-30 48l5 62q-43 -60 -108.5 -93.5t-172.5 -33.5q-153 0 -226 75.5t-73 186.5q0 96 30.5 161t91 100t135 49.5t177.5 14.5h195l6 64q7 66 -9.5 90.5t-86.5 24.5q-94 0 -101 -54zM651 379h-137q-26 0 -41 -1.5t-36.5 -8t-32.5 -23t-11 -43.5q0 -33 21 -47t71 -14 q68 0 113 29.5t51 80.5zM668 1124l-346 144q-16 7 -20.5 17t6 38.5t42.5 81.5t52.5 77t32.5 25.5t24 -6.5l311 -207q23 -11 21.5 -30t-35.5 -74q-32 -54 -47.5 -65.5t-40.5 -0.5z" />
<glyph unicode="&#xe1;" horiz-adv-x="1110" d="M481 700q-1 -16 -2 -21.5t-6.5 -14.5t-14 -11t-27.5 -5.5t-44.5 -4t-67.5 -0.5q-123 0 -153.5 12.5t-26.5 65.5q8 76 33.5 131.5t77.5 100.5t141.5 68t216.5 23q238 0 339.5 -80t101.5 -245q0 -11 -5 -78l-61 -588q-2 -27 -13 -38t-47.5 -16t-121.5 -5q-121 0 -153 11 t-30 48l5 62q-43 -60 -108.5 -93.5t-172.5 -33.5q-153 0 -226 75.5t-73 186.5q0 96 30.5 161t91 100t135 49.5t177.5 14.5h195l6 64q7 66 -9.5 90.5t-86.5 24.5q-94 0 -101 -54zM651 379h-137q-26 0 -41 -1.5t-36.5 -8t-32.5 -23t-11 -43.5q0 -33 21 -47t71 -14 q68 0 113 29.5t51 80.5zM973 1268l-379 -144q-28 -10 -41 2t-33 66q-23 57 -22 74.5t26 31.5l357 207q13 8 25 6t27.5 -26.5t37.5 -77.5q28 -83 27 -106t-25 -33z" />
<glyph unicode="&#xe2;" horiz-adv-x="1110" d="M481 700q-1 -16 -2 -21.5t-6.5 -14.5t-14 -11t-27.5 -5.5t-44.5 -4t-67.5 -0.5q-123 0 -153.5 12.5t-26.5 65.5q8 76 33.5 131.5t77.5 100.5t141.5 68t216.5 23q238 0 339.5 -80t101.5 -245q0 -11 -5 -78l-61 -588q-2 -27 -13 -38t-47.5 -16t-121.5 -5q-121 0 -153 11 t-30 48l5 62q-43 -60 -108.5 -93.5t-172.5 -33.5q-153 0 -226 75.5t-73 186.5q0 96 30.5 161t91 100t135 49.5t177.5 14.5h195l6 64q7 66 -9.5 90.5t-86.5 24.5q-94 0 -101 -54zM651 379h-137q-26 0 -41 -1.5t-36.5 -8t-32.5 -23t-11 -43.5q0 -33 21 -47t71 -14 q68 0 113 29.5t51 80.5zM645 1262l-96 -93q-32 -28 -46 -34q-25 -9 -95 -9q-117 0 -115 32q1 8 8 16l211 235q17 21 27.5 28.5t38 13t81.5 5.5q79 0 107.5 -9.5t44.5 -37.5l162 -235q21 -33 -42 -44q-27 -4 -65 -4q-71 0 -94 8t-47 35z" />
<glyph unicode="&#xe3;" horiz-adv-x="1110" d="M481 700q-1 -16 -2 -21.5t-6.5 -14.5t-14 -11t-27.5 -5.5t-44.5 -4t-67.5 -0.5q-123 0 -153.5 12.5t-26.5 65.5q8 76 33.5 131.5t77.5 100.5t141.5 68t216.5 23q238 0 339.5 -80t101.5 -245q0 -11 -5 -78l-61 -588q-2 -27 -13 -38t-47.5 -16t-121.5 -5q-121 0 -153 11 t-30 48l5 62q-43 -60 -108.5 -93.5t-172.5 -33.5q-153 0 -226 75.5t-73 186.5q0 96 30.5 161t91 100t135 49.5t177.5 14.5h195l6 64q7 66 -9.5 90.5t-86.5 24.5q-94 0 -101 -54zM651 379h-137q-26 0 -41 -1.5t-36.5 -8t-32.5 -23t-11 -43.5q0 -33 21 -47t71 -14 q68 0 113 29.5t51 80.5zM801 1360l4 26q3 24 18.5 30.5t79.5 6.5q66 0 86 -7t17 -30l-13 -77q-34 -187 -209 -187q-63 0 -143 43l-82 47q-26 13 -37 13q-25 0 -28 -35l-5 -27q-3 -24 -18.5 -30.5t-79.5 -6.5q-66 0 -85.5 7t-16.5 30l12 78q33 186 209 186q63 0 143 -43 l82 -47q24 -12 37 -12q26 0 29 35z" />
<glyph unicode="&#xe4;" horiz-adv-x="1110" d="M481 700q-1 -16 -2 -21.5t-6.5 -14.5t-14 -11t-27.5 -5.5t-44.5 -4t-67.5 -0.5q-123 0 -153.5 12.5t-26.5 65.5q8 76 33.5 131.5t77.5 100.5t141.5 68t216.5 23q238 0 339.5 -80t101.5 -245q0 -11 -5 -78l-61 -588q-2 -27 -13 -38t-47.5 -16t-121.5 -5q-121 0 -153 11 t-30 48l5 62q-43 -60 -108.5 -93.5t-172.5 -33.5q-153 0 -226 75.5t-73 186.5q0 96 30.5 161t91 100t135 49.5t177.5 14.5h195l6 64q7 66 -9.5 90.5t-86.5 24.5q-94 0 -101 -54zM651 379h-137q-26 0 -41 -1.5t-36.5 -8t-32.5 -23t-11 -43.5q0 -33 21 -47t71 -14 q68 0 113 29.5t51 80.5zM424 1415q113 0 145.5 -15t26.5 -69l-12 -114q-4 -39 -18 -55.5t-47.5 -22.5t-110.5 -6q-113 0 -145.5 15t-26.5 69l12 114q4 39 18 55.5t47.5 22.5t110.5 6zM887 1415q113 0 145.5 -15t26.5 -69l-12 -114q-4 -39 -18 -55.5t-48 -22.5t-111 -6 q-113 0 -145.5 15t-26.5 69l13 114q4 39 18 55.5t47.5 22.5t110.5 6z" />
<glyph unicode="&#xe5;" horiz-adv-x="1110" d="M481 700q-1 -16 -2 -21.5t-6.5 -14.5t-14 -11t-27.5 -5.5t-44.5 -4t-67.5 -0.5q-123 0 -153.5 12.5t-26.5 65.5q8 76 33.5 131.5t77.5 100.5t141.5 68t216.5 23q238 0 339.5 -80t101.5 -245q0 -11 -5 -78l-61 -588q-2 -27 -13 -38t-47.5 -16t-121.5 -5q-121 0 -153 11 t-30 48l5 62q-43 -60 -108.5 -93.5t-172.5 -33.5q-153 0 -226 75.5t-73 186.5q0 96 30.5 161t91 100t135 49.5t177.5 14.5h195l6 64q7 66 -9.5 90.5t-86.5 24.5q-94 0 -101 -54zM651 379h-137q-26 0 -41 -1.5t-36.5 -8t-32.5 -23t-11 -43.5q0 -33 21 -47t71 -14 q68 0 113 29.5t51 80.5zM664 1522q99 0 152.5 -46t53.5 -128q0 -107 -58 -167.5t-171 -60.5q-101 0 -155 46t-54 130q0 104 60.5 165t171.5 61zM645 1255q33 0 54.5 18t21.5 58q0 55 -62 55q-33 0 -55 -17t-22 -54q0 -60 63 -60z" />
<glyph unicode="&#xe6;" horiz-adv-x="1716" d="M1589 422h-540q0 -92 30 -128t99 -36q90 0 100 53q4 23 6.5 30t18.5 16t47 10.5t92 1.5q124 0 154 -12.5t24 -65.5q-5 -59 -34.5 -112.5t-82 -99t-138.5 -72.5t-194 -27q-232 0 -350 141q-165 -137 -413 -137q-189 0 -277 71t-88 197q0 334 422 334h197l4 53q4 40 2 65.5 t-23 37.5t-70 12q-51 0 -71 -13.5t-23 -40.5q-1 -16 -2 -21.5t-6.5 -14.5t-14 -11t-27.5 -5.5t-44.5 -4t-67.5 -0.5q-123 0 -153.5 12.5t-26.5 65.5q7 76 31.5 131.5t74.5 100.5t137.5 68t211.5 23q223 0 330 -104q132 104 336 104q192 0 300.5 -109t108.5 -296 q0 -22 -4 -68l-6 -57q-6 -54 -19 -73t-51 -19zM1223 766q-70 0 -104 -37.5t-52 -122.5h250l2 35v31q-2 45 -22 69.5t-74 24.5zM641 401h-131q-115 0 -115 -100q0 -32 21 -47.5t69 -15.5q66 0 106 30.5t46 83.5z" />
<glyph unicode="&#xe7;" horiz-adv-x="1093" d="M537 -78h10q100 0 150.5 -32t50.5 -119q0 -129 -57 -177t-195 -53h-217q-17 0 -20 12.5t3 69.5t11 69.5t22 12.5h199q19 0 29 1.5t21 11.5t11 30q0 29 -53 29h-113q-49 0 -62 9t-5 32l71 176q-311 61 -311 426q0 26 4 92q23 273 152 402.5t385 129.5q103 0 181 -19 t126 -50.5t76.5 -78t37.5 -97t5 -111.5q-4 -53 -37 -65.5t-162 -12.5q-71 0 -105.5 7t-44.5 20t-10 41q2 28 -15 41.5t-65 13.5q-70 0 -100.5 -48t-42.5 -173q-6 -50 -6 -88q0 -73 24.5 -103t81.5 -30q51 0 71.5 15.5t27.5 47.5q5 29 14 41t41.5 19.5t103.5 7.5 q132 0 167 -13t28 -65q-8 -62 -24.5 -112t-50.5 -98.5t-84 -80.5t-128.5 -52t-179.5 -21z" />
<glyph unicode="&#xe8;" horiz-adv-x="1116" d="M991 434h-542v-16q0 -90 30.5 -125t98.5 -35q90 0 100 53q4 23 6.5 30t18.5 16t47 10.5t92 1.5q124 0 154 -12.5t24 -65.5q-6 -60 -33 -112.5t-79.5 -98.5t-142 -73t-206.5 -27q-240 0 -358.5 108.5t-118.5 333.5q0 28 4 90q25 275 153 403.5t390 128.5q217 0 328.5 -106 t111.5 -293q0 -24 -4 -74l-4 -45q-6 -54 -19 -73t-51 -19zM670 1124l-346 144q-16 7 -20.5 17t6 38.5t42.5 81.5t52.5 77t32.5 25.5t24 -6.5l311 -207q23 -11 21.5 -30t-35.5 -74q-32 -54 -47.5 -65.5t-40.5 -0.5zM616 766q-67 0 -99 -35t-48 -113h248l2 23q2 10 2 33 q0 92 -105 92z" />
<glyph unicode="&#xe9;" horiz-adv-x="1116" d="M991 434h-542v-16q0 -90 30.5 -125t98.5 -35q90 0 100 53q4 23 6.5 30t18.5 16t47 10.5t92 1.5q124 0 154 -12.5t24 -65.5q-6 -60 -33 -112.5t-79.5 -98.5t-142 -73t-206.5 -27q-240 0 -358.5 108.5t-118.5 333.5q0 28 4 90q25 275 153 403.5t390 128.5q217 0 328.5 -106 t111.5 -293q0 -24 -4 -74l-4 -45q-6 -54 -19 -73t-51 -19zM975 1268l-379 -144q-28 -10 -41 2t-33 66q-23 57 -22 74.5t26 31.5l357 207q13 8 25 6t27.5 -26.5t37.5 -77.5q28 -83 27 -106t-25 -33zM616 766q-67 0 -99 -35t-48 -113h248l2 23q2 10 2 33q0 92 -105 92z" />
<glyph unicode="&#xea;" horiz-adv-x="1116" d="M991 434h-542v-16q0 -90 30.5 -125t98.5 -35q90 0 100 53q4 23 6.5 30t18.5 16t47 10.5t92 1.5q124 0 154 -12.5t24 -65.5q-6 -60 -33 -112.5t-79.5 -98.5t-142 -73t-206.5 -27q-240 0 -358.5 108.5t-118.5 333.5q0 28 4 90q25 275 153 403.5t390 128.5q217 0 328.5 -106 t111.5 -293q0 -24 -4 -74l-4 -45q-6 -54 -19 -73t-51 -19zM647 1262l-96 -93q-32 -28 -46 -34q-25 -9 -95 -9q-117 0 -115 32q1 8 8 16l211 235q24 29 48 38t100 9q78 0 106.5 -9.5t44.5 -37.5l162 -235q21 -33 -42 -44q-27 -4 -65 -4q-71 0 -94 8t-47 35zM616 766 q-67 0 -99 -35t-48 -113h248l2 23q2 10 2 33q0 92 -105 92z" />
<glyph unicode="&#xeb;" horiz-adv-x="1116" d="M991 434h-542v-16q0 -90 30.5 -125t98.5 -35q90 0 100 53q4 23 6.5 30t18.5 16t47 10.5t92 1.5q124 0 154 -12.5t24 -65.5q-6 -60 -33 -112.5t-79.5 -98.5t-142 -73t-206.5 -27q-240 0 -358.5 108.5t-118.5 333.5q0 28 4 90q25 275 153 403.5t390 128.5q217 0 328.5 -106 t111.5 -293q0 -24 -4 -74l-4 -45q-6 -54 -19 -73t-51 -19zM889 1415q113 0 145.5 -15t26.5 -69l-12 -114q-4 -39 -18 -55.5t-48 -22.5t-111 -6q-113 0 -145.5 15t-26.5 69l13 114q4 39 18 55.5t47.5 22.5t110.5 6zM426 1415q113 0 145.5 -15t26.5 -69l-12 -114 q-4 -39 -18 -55.5t-47.5 -22.5t-110.5 -6q-113 0 -145.5 15t-26.5 69l12 114q4 39 18 55.5t47.5 22.5t110.5 6zM616 766q-67 0 -99 -35t-48 -113h248l2 23q2 10 2 33q0 92 -105 92z" />
<glyph unicode="&#xec;" horiz-adv-x="569" d="M61 53l97 918q3 27 14 38t48.5 16t123.5 5q87 0 126 -5t51 -16.5t9 -37.5l-96 -918q-2 -27 -13.5 -38t-48.5 -16t-124 -5t-126 5t-51 16.5t-10 37.5zM377 1124l-346 144q-16 7 -20.5 17t6 38.5t42.5 81.5t52.5 77t32.5 25.5t24 -6.5l311 -207q23 -11 21.5 -30t-35.5 -74 q-32 -54 -47.5 -65.5t-40.5 -0.5z" />
<glyph unicode="&#xed;" horiz-adv-x="569" d="M61 53l97 918q3 27 14 38t48.5 16t123.5 5q87 0 126 -5t51 -16.5t9 -37.5l-96 -918q-2 -27 -13.5 -38t-48.5 -16t-124 -5t-126 5t-51 16.5t-10 37.5zM723 1268l-379 -144q-28 -10 -41 2t-33 66q-23 57 -22 74.5t26 31.5l357 207q13 8 25 6t27.5 -26.5t37.5 -77.5 q28 -83 27 -106t-25 -33z" />
<glyph unicode="&#xee;" horiz-adv-x="569" d="M61 53l97 918q3 27 14 38t48.5 16t123.5 5q87 0 126 -5t51 -16.5t9 -37.5l-96 -918q-2 -27 -13.5 -38t-48.5 -16t-124 -5t-126 5t-51 16.5t-10 37.5zM375 1262l-96 -93q-19 -17 -24.5 -21.5t-22 -11.5t-37 -8.5t-58.5 -1.5q-116 0 -114 32q0 7 8 16l211 235 q17 21 27.5 28.5t38 13t81.5 5.5q79 0 107.5 -9.5t44.5 -37.5l161 -235q21 -34 -43 -44q-25 -4 -63 -4q-71 0 -94 8t-47 35z" />
<glyph unicode="&#xef;" horiz-adv-x="569" d="M61 53l97 918q3 27 14 38t48.5 16t123.5 5q87 0 126 -5t51 -16.5t9 -37.5l-96 -918q-2 -27 -13.5 -38t-48.5 -16t-124 -5t-126 5t-51 16.5t-10 37.5zM154 1415q113 0 145.5 -15t26.5 -69l-13 -114q-4 -39 -18 -55.5t-47.5 -22.5t-110.5 -6q-113 0 -145.5 15t-26.5 69 l12 114q4 39 18 55.5t48 22.5t111 6zM616 1415q113 0 145.5 -15t26.5 -69l-12 -114q-4 -39 -18 -55.5t-47.5 -22.5t-110.5 -6q-113 0 -145.5 15t-26.5 69l12 114q4 39 18 55.5t47.5 22.5t110.5 6z" />
<glyph unicode="&#xf0;" horiz-adv-x="1089" d="M1055 1229l-92 -47q75 -146 75 -398q0 -130 -16 -280q-29 -285 -150 -404.5t-366 -119.5q-218 0 -325 95t-107 292q0 45 6 94q26 246 149 363.5t351 117.5q72 0 118 -12q-3 54 -20 108l-123 -61q-22 -10 -32 -2t-27 49q-20 42 -19.5 60t25.5 30l71 37q-47 18 -118 18 q-14 0 -21 3.5t-10 18t-2 38t6 69.5q9 90 17.5 109.5t41.5 19.5q251 0 385 -124l127 63q20 9 30 -0.5t28 -50.5q19 -44 19 -60t-21 -26zM526 266q62 0 89 43t38 152q6 47 6 80q0 61 -21 87.5t-71 26.5q-62 0 -88.5 -42t-38.5 -152q-4 -62 -4 -78q0 -63 20.5 -90t69.5 -27z " />
<glyph unicode="&#xf1;" horiz-adv-x="1196" d="M518 971l-2 -70q99 143 301 143q160 0 238 -74.5t78 -234.5q0 -45 -5 -84l-63 -598q-2 -27 -13.5 -38t-48.5 -16t-124 -5t-126 5t-51 16.5t-10 37.5l58 549q7 68 -16 95.5t-85 27.5q-149 0 -164 -147l-55 -525q-2 -27 -13.5 -38t-48.5 -16t-124 -5t-126 5t-51 16.5 t-10 37.5l97 918q3 27 14 38t47.5 16t120.5 5t122.5 -5.5t50 -17t9.5 -36.5zM844 1360l4 26q3 24 18.5 30.5t79.5 6.5q66 0 86 -7t17 -30l-13 -77q-34 -187 -209 -187q-63 0 -143 43l-82 47q-26 13 -37 13q-25 0 -28 -35l-5 -27q-3 -24 -18.5 -30.5t-79.5 -6.5 q-66 0 -85.5 7t-16.5 30l12 78q33 186 209 186q63 0 143 -43l82 -47q24 -12 37 -12q26 0 29 35z" />
<glyph unicode="&#xf2;" horiz-adv-x="1159" d="M635 1044q238 0 353.5 -104t115.5 -319q0 -51 -6 -109q-30 -275 -159.5 -403.5t-391.5 -128.5q-237 0 -352 102t-115 315q0 53 6 115q28 275 157.5 403.5t391.5 128.5zM567 279q74 0 106 51.5t46 181.5q6 53 6 92q0 77 -24.5 109t-84.5 32q-74 0 -106.5 -51.5 t-44.5 -181.5q-6 -56 -6 -94q0 -76 24 -107.5t84 -31.5zM692 1124l-346 144q-16 7 -20.5 17t6.5 38.5t43 81.5t52.5 77t32 25.5t23.5 -6.5l312 -207q23 -12 21 -30.5t-36 -73.5q-32 -54 -47.5 -65.5t-40.5 -0.5z" />
<glyph unicode="&#xf3;" horiz-adv-x="1159" d="M635 1044q238 0 353.5 -104t115.5 -319q0 -51 -6 -109q-30 -275 -159.5 -403.5t-391.5 -128.5q-237 0 -352 102t-115 315q0 53 6 115q28 275 157.5 403.5t391.5 128.5zM567 279q74 0 106 51.5t46 181.5q6 53 6 92q0 77 -24.5 109t-84.5 32q-74 0 -106.5 -51.5 t-44.5 -181.5q-6 -56 -6 -94q0 -76 24 -107.5t84 -31.5zM997 1268l-379 -144q-27 -10 -40 1.5t-33 66.5q-23 57 -22 74.5t26 31.5l356 207q13 8 25 6t27.5 -26.5t37.5 -77.5q28 -83 27 -106t-25 -33z" />
<glyph unicode="&#xf4;" horiz-adv-x="1159" d="M635 1044q238 0 353.5 -104t115.5 -319q0 -51 -6 -109q-30 -275 -159.5 -403.5t-391.5 -128.5q-237 0 -352 102t-115 315q0 53 6 115q28 275 157.5 403.5t391.5 128.5zM567 279q74 0 106 51.5t46 181.5q6 53 6 92q0 77 -24.5 109t-84.5 32q-74 0 -106.5 -51.5 t-44.5 -181.5q-6 -56 -6 -94q0 -76 24 -107.5t84 -31.5zM670 1262l-97 -93q-32 -28 -46 -34q-25 -9 -95 -9q-116 0 -114 32q0 7 8 16l211 235q17 21 27.5 28.5t38 13t81.5 5.5q79 0 107.5 -9.5t44.5 -37.5l161 -235q21 -34 -43 -44q-25 -4 -63 -4q-71 0 -94 8t-47 35z" />
<glyph unicode="&#xf5;" horiz-adv-x="1159" d="M635 1044q238 0 353.5 -104t115.5 -319q0 -51 -6 -109q-30 -275 -159.5 -403.5t-391.5 -128.5q-237 0 -352 102t-115 315q0 53 6 115q28 275 157.5 403.5t391.5 128.5zM567 279q74 0 106 51.5t46 181.5q6 53 6 92q0 77 -24.5 109t-84.5 32q-74 0 -106.5 -51.5 t-44.5 -181.5q-6 -56 -6 -94q0 -76 24 -107.5t84 -31.5zM825 1360l4 26q3 24 19 30.5t80 6.5q66 0 85.5 -7t16.5 -30l-12 -77q-34 -187 -209 -187q-63 0 -143 43l-82 47q-26 13 -37 13q-26 0 -29 -35l-4 -27q-3 -24 -18.5 -30.5t-79.5 -6.5q-66 0 -86 7t-17 30l13 78 q33 186 209 186q63 0 143 -43l82 -47q24 -12 37 -12q25 0 28 35z" />
<glyph unicode="&#xf6;" horiz-adv-x="1159" d="M635 1044q238 0 353.5 -104t115.5 -319q0 -51 -6 -109q-30 -275 -159.5 -403.5t-391.5 -128.5q-237 0 -352 102t-115 315q0 53 6 115q28 275 157.5 403.5t391.5 128.5zM567 279q74 0 106 51.5t46 181.5q6 53 6 92q0 77 -24.5 109t-84.5 32q-74 0 -106.5 -51.5 t-44.5 -181.5q-6 -56 -6 -94q0 -76 24 -107.5t84 -31.5zM449 1415q113 0 145.5 -15t26.5 -69l-13 -114q-4 -39 -18 -55.5t-47.5 -22.5t-110.5 -6q-113 0 -145.5 15t-26.5 69l12 114q4 39 18 55.5t48 22.5t111 6zM911 1415q113 0 145.5 -15t26.5 -69l-12 -114 q-4 -39 -18 -55.5t-47.5 -22.5t-110.5 -6q-113 0 -145.5 15t-26.5 69l12 114q4 39 18 55.5t47.5 22.5t110.5 6z" />
<glyph unicode="&#xf7;" horiz-adv-x="1187" d="M215 791h840q23 0 32 -10.5t9 -45.5q0 -29 -6 -94q-10 -99 -21.5 -124t-44.5 -25h-840q-25 0 -34 11t-9 48q0 31 6 90q10 99 22.5 124.5t45.5 25.5zM555 -8q-93 0 -133.5 5t-53 17.5t-10.5 40.5l29 271q3 29 15.5 40.5t52 17t131.5 5.5q133 0 166 -11t28 -52l-28 -271 q-2 -29 -14 -40.5t-51.5 -17t-131.5 -5.5zM651 893q-93 0 -133 5t-52.5 17.5t-10.5 40.5l28 271q3 29 15.5 40.5t52 17t131.5 5.5q93 0 133.5 -5t52.5 -17.5t9 -40.5l-29 -271q-2 -29 -14 -40.5t-51.5 -17t-131.5 -5.5z" />
<glyph unicode="&#xf8;" horiz-adv-x="1167" d="M639 1044q101 0 180 -18l12 16q11 17 19 23.5t35 11t82 4.5q114 0 115 -26q-1 -7 -5 -15l-73 -112q104 -104 104 -307q0 -51 -6 -109q-30 -275 -159.5 -403.5t-391.5 -128.5q-88 0 -166 16l-29 -43q-11 -18 -18.5 -24t-34.5 -10.5t-82 -4.5q-114 0 -115 26q1 7 5 15 l86 129q-113 101 -113 313q0 53 6 115q28 275 157.5 403.5t391.5 128.5zM469 512q-6 -43 -6 -74l199 301q-18 6 -41 6q-74 0 -107 -52t-45 -181zM571 279q74 0 106 51.5t46 181.5q4 36 4 53l-188 -284q10 -2 32 -2z" />
<glyph unicode="&#xf9;" d="M676 53l4 70q-46 -64 -112.5 -103.5t-178.5 -39.5q-157 0 -233 79t-76 244q0 45 6 98l59 570q3 27 14.5 38t48.5 16t124 5t126 -5t51 -16.5t9 -37.5l-57 -547q-6 -68 16.5 -96.5t85.5 -28.5q72 0 105 34t41 109l55 529q3 27 14 38t48.5 16t123.5 5q66 0 102 -2t57 -9 t25.5 -17.5t2.5 -30.5l-97 -918q-3 -27 -14 -38t-47.5 -16t-120.5 -5q-121 0 -152.5 11t-29.5 48zM637 1124l-346 144q-16 7 -20.5 17t6 38.5t42.5 81.5t52.5 77t32.5 25.5t24 -6.5l311 -207q23 -11 21.5 -30t-35.5 -74q-32 -54 -47.5 -65.5t-40.5 -0.5z" />
<glyph unicode="&#xfa;" d="M676 53l4 70q-46 -64 -112.5 -103.5t-178.5 -39.5q-157 0 -233 79t-76 244q0 45 6 98l59 570q3 27 14.5 38t48.5 16t124 5t126 -5t51 -16.5t9 -37.5l-57 -547q-6 -68 16.5 -96.5t85.5 -28.5q72 0 105 34t41 109l55 529q3 27 14 38t48.5 16t123.5 5q66 0 102 -2t57 -9 t25.5 -17.5t2.5 -30.5l-97 -918q-3 -27 -14 -38t-47.5 -16t-120.5 -5q-121 0 -152.5 11t-29.5 48zM1065 1268l-379 -144q-28 -10 -41 2t-33 66q-23 57 -22 74.5t26 31.5l357 207q13 8 25 6t27.5 -26.5t37.5 -77.5q28 -83 27 -106t-25 -33z" />
<glyph unicode="&#xfb;" d="M676 53l4 70q-46 -64 -112.5 -103.5t-178.5 -39.5q-157 0 -233 79t-76 244q0 45 6 98l59 570q3 27 14.5 38t48.5 16t124 5t126 -5t51 -16.5t9 -37.5l-57 -547q-6 -68 16.5 -96.5t85.5 -28.5q72 0 105 34t41 109l55 529q3 27 14 38t48.5 16t123.5 5q66 0 102 -2t57 -9 t25.5 -17.5t2.5 -30.5l-97 -918q-3 -27 -14 -38t-47.5 -16t-120.5 -5q-121 0 -152.5 11t-29.5 48zM676 1262l-96 -93q-19 -17 -24.5 -21.5t-22 -11.5t-37 -8.5t-58.5 -1.5q-116 0 -114 32q0 7 8 16l211 235q17 21 27.5 28.5t38 13t81.5 5.5q79 0 107.5 -9.5t44.5 -37.5 l162 -235q21 -33 -42 -44q-27 -4 -65 -4q-71 0 -94 8t-47 35z" />
<glyph unicode="&#xfc;" d="M676 53l4 70q-46 -64 -112.5 -103.5t-178.5 -39.5q-157 0 -233 79t-76 244q0 45 6 98l59 570q3 27 14.5 38t48.5 16t124 5t126 -5t51 -16.5t9 -37.5l-57 -547q-6 -68 16.5 -96.5t85.5 -28.5q72 0 105 34t41 109l55 529q3 27 14 38t48.5 16t123.5 5q66 0 102 -2t57 -9 t25.5 -17.5t2.5 -30.5l-97 -918q-3 -27 -14 -38t-47.5 -16t-120.5 -5q-121 0 -152.5 11t-29.5 48zM455 1415q113 0 145.5 -15t26.5 -69l-13 -114q-4 -39 -18 -55.5t-47.5 -22.5t-110.5 -6q-113 0 -145.5 15t-26.5 69l13 114q4 39 18 55.5t47.5 22.5t110.5 6zM918 1415 q113 0 145.5 -15t26.5 -69l-13 -114q-4 -39 -18 -55.5t-47.5 -22.5t-110.5 -6q-113 0 -145.5 15t-26.5 69l12 114q4 39 18 55.5t48 22.5t111 6z" />
<glyph unicode="&#xfd;" horiz-adv-x="1134" d="M276 -68q64 0 92.5 19t51.5 69q-50 4 -70 16.5t-28 37.5q-53 154 -124.5 433t-105.5 451q-5 29 6 43t55 21.5t134 7.5q106 0 140.5 -9.5t37.5 -39.5q29 -251 102 -604q153 379 221 604q9 31 40.5 40t134.5 9q69 0 110 -4t63 -12.5t26.5 -22t-1.5 -33.5 q-124 -344 -456 -1081q-33 -73 -65 -118.5t-79.5 -81t-113 -51t-158.5 -15.5q-100 0 -156 18q-28 8 -38.5 24.5t-10.5 57.5q0 12 4 70q8 74 18 108.5t22.5 43t37.5 8.5q14 0 48 -4.5t62 -4.5zM883 1268l-379 -144q-28 -10 -41 2t-33 66q-23 57 -22 74.5t26 31.5l357 207 q13 8 25 6t27.5 -26.5t37.5 -77.5q28 -83 27 -106t-25 -33z" />
<glyph unicode="&#xfe;" horiz-adv-x="1212" d="M571 1364l-45 -438q95 118 275 118q171 0 261.5 -99.5t90.5 -319.5q0 -51 -6 -113q-26 -283 -131 -407.5t-295 -124.5q-201 0 -281 129l-45 -424q-2 -27 -13 -38t-49 -16.5t-124 -5.5q-87 0 -126 5t-50.5 17t-9.5 38l176 1679q3 27 14.5 38t49 16t124.5 5 q125 0 157 -10.5t27 -48.5zM483 512q-4 -29 -4 -78q0 -82 29.5 -116.5t97.5 -34.5q75 0 110.5 51.5t49.5 177.5q4 62 4 80q0 81 -26.5 115t-88.5 34q-82 0 -121 -51.5t-51 -177.5z" />
<glyph unicode="&#xff;" horiz-adv-x="1134" d="M276 -68q64 0 92.5 19t51.5 69q-50 4 -70 16.5t-28 37.5q-53 154 -124.5 433t-105.5 451q-5 29 6 43t55 21.5t134 7.5q106 0 140.5 -9.5t37.5 -39.5q29 -251 102 -604q153 379 221 604q9 31 40.5 40t134.5 9q69 0 110 -4t63 -12.5t26.5 -22t-1.5 -33.5 q-124 -344 -456 -1081q-33 -73 -65 -118.5t-79.5 -81t-113 -51t-158.5 -15.5q-100 0 -156 18q-28 8 -38.5 24.5t-10.5 57.5q0 12 4 70q8 74 18 108.5t22.5 43t37.5 8.5q14 0 48 -4.5t62 -4.5zM899 1415q113 0 145.5 -15t26.5 -69l-12 -114q-4 -39 -18 -55.5t-47.5 -22.5 t-110.5 -6q-113 0 -145.5 15t-26.5 69l12 114q4 39 18 55.5t47.5 22.5t110.5 6zM436 1415q113 0 145.5 -15t26.5 -69l-12 -114q-4 -39 -18 -55.5t-47.5 -22.5t-110.5 -6q-113 0 -145.5 15t-26.5 69l12 114q4 39 18 55.5t47.5 22.5t110.5 6z" />
<glyph unicode="&#x152;" horiz-adv-x="1773" d="M1696 1020h-463l-16 -162h370q27 0 38 -13.5t11 -58.5q0 -32 -6 -94q-12 -116 -21.5 -141t-43.5 -25h-383l-21 -190h463q28 0 38.5 -13t10.5 -59q0 -34 -6 -96q-12 -117 -22 -142.5t-43 -25.5h-951q-286 0 -416.5 127t-130.5 410q0 55 7 141q32 359 191.5 518.5 t477.5 159.5h938q28 0 38.5 -13t10.5 -59q0 -34 -6 -96q-7 -82 -13.5 -114t-17 -43t-34.5 -11zM680 344h104l70 668h-104q-102 0 -158 -76t-76 -258q-6 -58 -6 -103q0 -123 41.5 -177t128.5 -54z" />
<glyph unicode="&#x153;" horiz-adv-x="1728" d="M1604 434h-543q-1 -99 28.5 -137.5t100.5 -38.5q90 0 100 53q4 23 6.5 30t18.5 16t47 10.5t92 1.5q124 0 154 -12.5t24 -65.5q-5 -59 -34 -112.5t-81.5 -99t-138.5 -72.5t-194 -27q-206 0 -322 110q-123 -110 -340 -110q-213 0 -327.5 107t-114.5 321q0 48 6 104 q28 274 154 403t374 129q204 0 314 -110q129 110 344 110q191 0 300 -106.5t109 -290.5q0 -22 -4 -76l-4 -45q-6 -55 -18.5 -73.5t-50.5 -18.5zM567 279q74 0 106 51.5t46 181.5q6 53 6 92q0 77 -24.5 109t-84.5 32q-74 0 -106.5 -51.5t-44.5 -181.5q-6 -56 -6 -94 q0 -76 24 -107.5t84 -31.5zM1235 766q-67 0 -102 -35.5t-50 -112.5h246l2 23q0 5 1 16.5t1 16.5q0 44 -21.5 68t-76.5 24z" />
<glyph unicode="&#x178;" horiz-adv-x="1282" d="M922 1296q14 30 32 42.5t61 18t136 5.5q164 0 187 -27q13 -14 -3 -45q-72 -139 -224.5 -392t-262.5 -411l-45 -432q-2 -29 -14 -40.5t-52 -17t-133 -5.5q-94 0 -134.5 5t-53 17.5t-10.5 40.5l45 430q-77 162 -176.5 417.5t-139.5 387.5q-9 30 1 44t51.5 21t131.5 7 q94 0 139 -5.5t65 -18.5t26 -42q59 -237 137 -465q154 284 236 465zM541 1735q113 0 144.5 -15t25.5 -69l-13 -115q-4 -55 -34.5 -69.5t-141.5 -14.5q-113 0 -144.5 15t-27.5 69l12 115q6 55 37 69.5t142 14.5zM1012 1735q113 0 144.5 -15t25.5 -69l-13 -115 q-4 -55 -34.5 -69.5t-141.5 -14.5q-113 0 -144.5 15t-27.5 69l13 115q6 55 36.5 69.5t141.5 14.5z" />
<glyph unicode="&#x2c6;" horiz-adv-x="819" d="M500 1262l-97 -93q-32 -28 -46 -34q-25 -9 -95 -9q-116 0 -114 32q0 7 8 16l211 235q17 21 27.5 28.5t38 13t81.5 5.5q79 0 107.5 -9.5t44.5 -37.5l161 -235q21 -34 -43 -44q-25 -4 -63 -4q-71 0 -94 8t-47 35z" />
<glyph unicode="&#x2dc;" horiz-adv-x="819" d="M655 1360l4 26q3 24 19 30.5t80 6.5q66 0 85.5 -7t16.5 -30l-12 -77q-34 -187 -209 -187q-63 0 -143 43l-82 47q-26 13 -37 13q-26 0 -29 -35l-4 -27q-3 -24 -18.5 -30.5t-79.5 -6.5q-66 0 -86 7t-17 30l13 78q33 186 209 186q63 0 143 -43l82 -47q24 -12 37 -12 q25 0 28 35z" />
<glyph unicode="&#x2000;" horiz-adv-x="919" />
<glyph unicode="&#x2001;" horiz-adv-x="1838" />
<glyph unicode="&#x2002;" horiz-adv-x="919" />
<glyph unicode="&#x2003;" horiz-adv-x="1838" />
<glyph unicode="&#x2004;" horiz-adv-x="612" />
<glyph unicode="&#x2005;" horiz-adv-x="459" />
<glyph unicode="&#x2006;" horiz-adv-x="306" />
<glyph unicode="&#x2007;" horiz-adv-x="306" />
<glyph unicode="&#x2008;" horiz-adv-x="229" />
<glyph unicode="&#x2009;" horiz-adv-x="367" />
<glyph unicode="&#x200a;" horiz-adv-x="102" />
<glyph unicode="&#x2010;" horiz-adv-x="856" d="M162 717h586q27 0 38 -13.5t11 -56.5q0 -31 -6 -86q-10 -105 -20.5 -130t-43.5 -25h-586q-27 0 -38 13.5t-11 57.5q0 31 6 84q12 107 22 131.5t42 24.5z" />
<glyph unicode="&#x2011;" horiz-adv-x="856" d="M162 717h586q27 0 38 -13.5t11 -56.5q0 -31 -6 -86q-10 -105 -20.5 -130t-43.5 -25h-586q-27 0 -38 13.5t-11 57.5q0 31 6 84q12 107 22 131.5t42 24.5z" />
<glyph unicode="&#x2012;" horiz-adv-x="856" d="M162 717h586q27 0 38 -13.5t11 -56.5q0 -31 -6 -86q-10 -105 -20.5 -130t-43.5 -25h-586q-27 0 -38 13.5t-11 57.5q0 31 6 84q12 107 22 131.5t42 24.5z" />
<glyph unicode="&#x2013;" horiz-adv-x="1122" d="M162 717h852q27 0 38 -13.5t11 -56.5q0 -31 -6 -86q-10 -105 -20.5 -130t-43.5 -25h-852q-27 0 -38 13.5t-11 57.5q0 31 6 84q12 107 22 131.5t42 24.5z" />
<glyph unicode="&#x2014;" horiz-adv-x="1552" d="M162 717h1282q27 0 38 -13.5t11 -56.5q0 -31 -6 -86q-10 -105 -20.5 -130t-43.5 -25h-1282q-27 0 -38 13.5t-11 57.5q0 31 6 84q12 107 22 131.5t42 24.5z" />
<glyph unicode="&#x2018;" horiz-adv-x="471" d="M430 1042l-8 -71q-2 -20 -12 -29.5t-40 -14.5t-91 -5q-89 0 -114 10t-22 39l9 80q25 256 297 370q26 11 42.5 -1t34.5 -62q21 -60 18.5 -77t-28.5 -36q-70 -53 -86 -203z" />
<glyph unicode="&#x2019;" horiz-adv-x="471" d="M205 1300l8 72q2 20 12 29.5t40 14.5t91 5q89 0 114 -10t22 -39l-9 -80q-25 -256 -297 -370q-26 -11 -42.5 1t-34.5 62q-21 60 -18.5 77t28.5 36q70 53 86 202z" />
<glyph unicode="&#x201a;" horiz-adv-x="471" d="M82 115l8 71q2 20 12 30t40 15t91 5q89 0 114 -10.5t22 -39.5l-9 -80q-25 -256 -297 -370q-26 -11 -42.5 1t-34.5 62q-21 60 -18.5 77t28.5 36q70 53 86 203z" />
<glyph unicode="&#x201c;" horiz-adv-x="888" d="M430 1042l-8 -71q-2 -20 -12 -29.5t-40 -14.5t-91 -5q-89 0 -114 10t-22 39l9 80q25 256 297 370q26 11 42.5 -1t34.5 -62q21 -60 18.5 -77t-28.5 -36q-70 -53 -86 -203zM848 1042l-8 -71q-3 -29 -29 -39t-115 -10t-113.5 10t-21.5 39l8 80q25 256 297 370q26 11 43 -1 t35 -62q21 -60 18.5 -77t-28.5 -36q-70 -53 -86 -203z" />
<glyph unicode="&#x201d;" horiz-adv-x="888" d="M205 1300l8 72q2 20 12 29.5t40 14.5t91 5q89 0 114 -10t22 -39l-9 -80q-25 -256 -297 -370q-26 -11 -42.5 1t-34.5 62q-21 60 -18.5 77t28.5 36q70 53 86 202zM623 1300l8 72q2 20 12 29.5t40 14.5t91 5q89 0 113.5 -10t21.5 -39l-8 -80q-25 -256 -297 -370 q-26 -11 -43 1t-35 62q-21 60 -18 77t29 36q70 53 86 202z" />
<glyph unicode="&#x201e;" horiz-adv-x="888" d="M82 115l8 71q2 20 12 30t40 15t91 5q89 0 114 -10.5t22 -39.5l-9 -80q-25 -256 -297 -370q-26 -11 -42.5 1t-34.5 62q-21 60 -18.5 77t28.5 36q70 53 86 203zM498 115l8 71q2 20 12 30t40 15t91 5t91 -5t38 -15t6 -30l-8 -80q-25 -256 -297 -370q-26 -11 -43 1t-35 62 q-21 60 -18 77t29 36q70 53 86 203z" />
<glyph unicode="&#x2022;" horiz-adv-x="778" d="M377 287q-151 0 -204.5 36.5t-53.5 147.5q0 43 6 98q10 91 26 143t52 85t89 44t144 11q151 0 205.5 -37t54.5 -149q0 -42 -6 -97q-10 -91 -26 -143t-53 -85t-90 -43.5t-144 -10.5z" />
<glyph unicode="&#x2026;" horiz-adv-x="1695" d="M246 -6q-93 0 -134.5 5t-55 17.5t-11.5 40.5l31 279q2 29 15 40.5t53 17t132 5.5q93 0 134.5 -5t55 -17.5t11.5 -40.5l-31 -279q-2 -29 -15 -40.5t-53 -17t-132 -5.5zM811 -6q-93 0 -134.5 5t-55 17.5t-11.5 40.5l31 279q2 29 15 40.5t53.5 17t132.5 5.5q93 0 134 -5 t54.5 -17.5t11.5 -40.5l-30 -279q-2 -29 -15 -40.5t-53.5 -17t-132.5 -5.5zM1376 -6q-93 0 -134 5t-54.5 17.5t-11.5 40.5l30 279q2 29 15 40.5t53.5 17t132.5 5.5q93 0 134.5 -5t55 -17.5t11.5 -40.5l-31 -279q-2 -29 -15 -40.5t-53.5 -17t-132.5 -5.5z" />
<glyph unicode="&#x202f;" horiz-adv-x="367" />
<glyph unicode="&#x2039;" horiz-adv-x="737" d="M92 569q6 52 33 86l182 238q28 33 65 42t148 9q170 0 171 -38q0 -9 -9 -21l-248 -316l182 -315q19 -39 -43 -51q-40 -8 -120 -8q-113 0 -153 9t-60 42l-134 237q-20 33 -14 86z" />
<glyph unicode="&#x203a;" horiz-adv-x="737" d="M645 569q-6 -52 -33 -86l-182 -237q-28 -33 -65 -42t-148 -9q-170 0 -171 38q1 10 9 21l248 315l-182 316q-19 39 46 52q41 7 118 7q113 0 153 -9t60 -42l133 -238q20 -33 14 -86z" />
<glyph unicode="&#x205f;" horiz-adv-x="459" />
<glyph unicode="&#x20ac;" horiz-adv-x="1343" d="M709 430h-136q13 -62 51 -87.5t107 -25.5q135 0 154 101q7 30 20 43t50.5 19.5t117.5 6.5q122 0 158 -14.5t29 -69.5q-55 -423 -555 -423q-252 0 -381.5 108.5t-149.5 341.5h-98q-22 0 -29 19.5t0 85.5q9 86 16 96q6 8 21 8h90l4 39q0 11 4 39h-78q-22 0 -27 16.5t1 87.5 q6 72 11.5 88.5t25.5 16.5h104q62 233 206 341.5t394 108.5q258 0 386.5 -110.5t111.5 -313.5q-4 -56 -38.5 -70t-154.5 -14q-80 0 -118.5 6.5t-52 20.5t-13.5 43q0 100 -133 100q-68 0 -111.5 -25.5t-70.5 -86.5h180q22 0 28.5 -19t0.5 -86q-8 -72 -13.5 -88t-25.5 -16 h-220q-4 -24 -4 -39q-4 -28 -4 -39h150q22 0 28.5 -19t-0.5 -85q-1 -7 -2 -19q-6 -60 -11 -73t-23 -13z" />
<glyph unicode="&#x2122;" horiz-adv-x="1814" d="M1071 1358q100 0 134 -7t38 -30l74 -344l147 344q9 23 39.5 30t128.5 7q60 0 95 -1.5t56.5 -6.5t28.5 -12.5t5 -20.5l-76 -719q-2 -25 -21.5 -32t-99.5 -7q-81 0 -104 7.5t-21 31.5l45 428l-139 -334q-6 -17 -29 -23.5t-82 -6.5q-61 0 -86 6.5t-28 23.5l-70 340l-45 -434 q-2 -25 -21.5 -32t-99.5 -7q-81 0 -104 7.5t-21 31.5l76 719q2 18 15 26t50 11.5t115 3.5zM733 1139h-170l-55 -541q-1 -17 -8.5 -24.5t-33 -11t-81.5 -3.5q-82 0 -105.5 7.5t-21.5 31.5l55 541h-145q-18 0 -25.5 10t-7.5 39q0 9 4 59q8 87 15 99q7 10 24 10h565 q24 0 30.5 -21t0.5 -88q-8 -75 -13.5 -91.5t-27.5 -16.5z" />
<glyph unicode="&#x25fc;" horiz-adv-x="1034" d="M0 1034h1034v-1034h-1034v1034z" />
</font>
</defs>
</svg>
