<?xml version="1.0" standalone="no"?>
<!DOCTYPE svg PUBLIC "-//W3C//DTD SVG 1.1//EN" "http://www.w3.org/Graphics/SVG/1.1/DTD/svg11.dtd" >
<svg xmlns="http://www.w3.org/2000/svg" xmlns:xlink="http://www.w3.org/1999/xlink" version="1.1">
<metadata></metadata>
<defs>
<font id="frygiabold" horiz-adv-x="1093" >
<font-face units-per-em="2048" ascent="1536" descent="-512" />
<missing-glyph horiz-adv-x="450" />
<glyph unicode="&#xfb01;" horiz-adv-x="1241" d="M864 1192q-12 0 -89 12.5t-124 12.5q-58 0 -94.5 -11t-55 -36.5t-24.5 -56t-6 -79.5v-26h502q90 0 113.5 -8.5t23.5 -38.5v-918q0 -30 -23.5 -38.5t-113.5 -8.5q-89 0 -113 8.5t-24 38.5v735h-361v-735q0 -30 -23.5 -38.5t-113.5 -8.5q-89 0 -113 8.5t-24 38.5v735h-115 q-25 0 -31 18.5t-6 92.5q0 75 6 92.5t31 19.5l115 7v30q0 205 100 302.5t309 97.5q151 0 250 -29q25 -8 34 -29t9 -75q0 -72 -8 -92.5t-31 -20.5z" />
<glyph unicode="&#xfb02;" horiz-adv-x="1286" d="M471 1034v-26h160q24 0 30.5 -20t6.5 -95t-6.5 -95t-30.5 -20h-156v-735q0 -30 -23.5 -38.5t-113.5 -8.5q-89 0 -113 8.5t-24 38.5v735h-115q-25 0 -31 18.5t-6 92.5q0 75 6 92.5t31 19.5l115 7v30q0 210 105.5 305t355.5 95q201 0 376 -43q37 -9 56.5 -21.5t19.5 -36.5 v-1042q0 -35 11.5 -46t45.5 -11h29q29 0 37 -20.5t8 -98.5q0 -77 -9.5 -98t-45.5 -21h-84q-152 0 -209 55t-57 203v944q-88 15 -170 15q-63 0 -103 -11t-60.5 -36.5t-28 -56.5t-7.5 -79z" />
<glyph unicode="&#xfb03;" horiz-adv-x="1880" d="M840 1008v30q0 205 100 302.5t309 97.5q151 0 250 -29q25 -8 34 -29t9 -75q0 -72 -8 -92.5t-31 -20.5q-12 0 -89 12.5t-124 12.5q-58 0 -94.5 -11t-55 -36.5t-24.5 -56t-6 -79.5v-26h502q90 0 113.5 -8.5t23.5 -38.5v-918q0 -30 -23.5 -38.5t-113.5 -8.5q-89 0 -113 8.5 t-24 38.5v735h-361v-735q0 -30 -23.5 -38.5t-113.5 -8.5q-89 0 -113 8.5t-24 38.5v735h-365v-735q0 -30 -23.5 -38.5t-113.5 -8.5q-89 0 -113 8.5t-24 38.5v735h-115q-25 0 -31 18.5t-6 92.5q0 75 6 92.5t31 19.5l115 7v73q0 195 82 276t247 81q109 0 168 -25q28 -9 34 -30 t-1 -83q-7 -67 -18.5 -86.5t-36.5 -17.5q-66 8 -92 8q-113 0 -113 -131v-65h369z" />
<glyph unicode="&#xfb04;" horiz-adv-x="1925" d="M840 1008v30q0 210 105 305t355 95q202 0 377 -43q37 -9 56.5 -21.5t19.5 -36.5v-1042q0 -35 11.5 -46t45.5 -11h29q29 0 37 -20.5t8 -98.5q0 -77 -9.5 -98t-45.5 -21h-84q-152 0 -209 55t-57 203v944q-88 15 -170 15q-63 0 -103 -11t-60.5 -36.5t-28 -56.5t-7.5 -79v-26 h160q24 0 30.5 -20t6.5 -95t-6.5 -95t-30.5 -20h-156v-735q0 -30 -23.5 -38.5t-113.5 -8.5q-89 0 -113 8.5t-24 38.5v735h-365v-735q0 -30 -23.5 -38.5t-113.5 -8.5q-89 0 -113 8.5t-24 38.5v735h-115q-25 0 -31 18.5t-6 92.5q0 75 6 92.5t31 19.5l115 7v73q0 195 82 276 t247 81q109 0 168 -25q28 -9 34 -30t-1 -83q-7 -67 -18.5 -86.5t-36.5 -17.5q-66 8 -92 8q-113 0 -113 -131v-65h369z" />
<glyph horiz-adv-x="0" />
<glyph horiz-adv-x="682" />
<glyph unicode=" "  horiz-adv-x="450" />
<glyph unicode="&#x09;" horiz-adv-x="450" />
<glyph unicode="&#xa0;" horiz-adv-x="450" />
<glyph unicode="!" horiz-adv-x="606" d="M303 453q-73 0 -94 9t-23 38l-41 805q-2 36 26 46.5t132 10.5t132 -10.5t26 -46.5l-41 -805q0 -28 -22 -37.5t-95 -9.5zM303 -4q-101 0 -128.5 10t-27.5 45v205q0 27 11 38.5t42 16t103 4.5q101 0 128.5 -10.5t27.5 -48.5v-205q0 -35 -27.5 -45t-128.5 -10z" />
<glyph unicode="&#x22;" horiz-adv-x="806" d="M121 963l-21 417q-2 26 18.5 34.5t98.5 8.5t98.5 -8.5t18.5 -34.5l-21 -417q-2 -25 -18.5 -32t-77.5 -7t-77.5 7t-18.5 32zM494 963l-21 417q-2 26 18.5 34.5t98.5 8.5t98.5 -8.5t18.5 -34.5l-21 -417q-2 -25 -18.5 -32t-77.5 -7t-77.5 7t-18.5 32z" />
<glyph unicode="#" horiz-adv-x="1290" d="M680 35l43 284h-254l-43 -284q-3 -25 -23 -32t-92 -7q-50 0 -72.5 4.5t-26 11.5t-1.5 23l43 284h-141q-22 0 -28.5 17.5t-6.5 79.5q0 61 6.5 77.5t28.5 16.5h170l39 248h-142q-22 0 -28.5 17t-6.5 79q0 61 6.5 77.5t28.5 16.5h172l43 287q3 25 23 32t92 7q50 0 72.5 -4.5 t26 -11.5t1.5 -23l-45 -287h256l43 287q3 25 23 32t92 7q50 0 72.5 -4.5t26 -11.5t1.5 -23l-45 -287h144q22 0 28 -16.5t6 -77.5q0 -63 -6 -79.5t-28 -16.5h-172l-37 -248h141q22 0 28.5 -16.5t6.5 -77.5q0 -62 -6.5 -79.5t-28.5 -17.5h-172l-43 -284q-3 -25 -23 -32t-92 -7 q-50 0 -72.5 4.5t-26 11.5t-1.5 23zM752 510l39 248h-254l-37 -248h252z" />
<glyph unicode="$" horiz-adv-x="1191" d="M602 -190q-81 0 -101 6.5t-20 33.5v136q-392 37 -395 360q0 39 25.5 50.5t119.5 11.5q62 0 90 -4.5t37 -15t9 -34.5q3 -114 143 -129v336q-50 15 -84.5 27t-80.5 33t-78 42t-66 54t-54.5 70t-33.5 88t-13 110q0 175 89 271t292 116v133q0 28 20.5 34.5t100.5 6.5 t100.5 -6.5t20.5 -34.5v-137q176 -23 257 -110.5t83 -243.5q0 -39 -25.5 -50.5t-119.5 -11.5q-61 0 -88.5 4.5t-37 15t-10.5 34.5q-3 90 -88 116v-342l15 -4q158 -54 213 -84q119 -64 156 -178q20 -62 20 -145q0 -169 -88 -263.5t-287 -117.5v-138q0 -27 -20 -33.5 t-101 -6.5zM389 999q0 -55 29 -89.5t92 -61.5v280q-68 -10 -94.5 -41.5t-26.5 -87.5zM809 367q0 51 -28.5 82.5t-86.5 54.5v-275q115 26 115 138z" />
<glyph unicode="%" horiz-adv-x="1679" d="M401 1368q157 0 232.5 -83t75.5 -249t-75.5 -248.5t-232.5 -82.5t-232 82.5t-75 248.5t75 249t232 83zM401 868q57 0 80 38.5t23 129.5t-23 129.5t-80 38.5t-79.5 -38t-22.5 -130t22.5 -130t79.5 -38zM1278 651q157 0 232 -83t75 -249t-75 -248.5t-232 -82.5t-232 82.5 t-75 248.5t75 249t232 83zM1278 152q57 0 79.5 38t22.5 129q0 92 -22.5 130t-79.5 38t-79.5 -38t-22.5 -130q0 -91 22.5 -129t79.5 -38zM1298 1311l-702 -1272q-11 -21 -17.5 -27t-31 -11t-78.5 -5q-63 0 -82.5 9.5t-5.5 37.5l702 1272q11 21 17.5 27t31 11t78.5 5 q63 0 82.5 -9.5t5.5 -37.5z" />
<glyph unicode="&#x26;" horiz-adv-x="1433" d="M1319 229q23 0 32 -22t17 -90q5 -54 0.5 -70.5t-20.5 -28.5q-38 -30 -140 -30q-159 0 -227 100q-131 -108 -342 -108q-537 0 -537 405q0 126 52.5 213.5t140.5 120.5q-78 35 -120 108t-42 174q0 375 481 375q235 0 352 -86t117 -266q0 -39 -30.5 -51t-116.5 -12 q-77 0 -102 10.5t-25 44.5q0 70 -42.5 97.5t-145.5 27.5q-108 0 -156.5 -36t-48.5 -126q0 -97 39.5 -131.5t142.5 -34.5h51q24 0 31.5 -20t7.5 -84t-8 -84.5t-31 -20.5h-47q-107 0 -161 -43.5t-54 -142.5q0 -106 57.5 -157.5t190.5 -51.5q156 0 219.5 58t63.5 165v172h-91 q-23 0 -29.5 19t-6.5 86q0 66 6.5 85t29.5 19h473q23 0 30 -19t7 -85t-7 -85.5t-30 -19.5h-143v-209q0 -101 18.5 -138.5t63.5 -37.5q14 0 41.5 5t38.5 5z" />
<glyph unicode="'" horiz-adv-x="434" d="M121 963l-21 417q-2 26 18.5 34.5t98.5 8.5t98.5 -8.5t18.5 -34.5l-21 -417q-2 -25 -18.5 -32t-77.5 -7t-77.5 7t-18.5 32z" />
<glyph unicode="(" horiz-adv-x="757" d="M135 524q0 453 107.5 677t351.5 224h49q26 0 33.5 -18.5t7.5 -87.5q0 -70 -7 -88.5t-32 -18.5h-24q-129 0 -178.5 -158.5t-49.5 -529.5t49.5 -529.5t178.5 -158.5h24q25 0 32 -18t7 -88q0 -69 -8 -88t-33 -19h-49q-244 0 -351.5 224t-107.5 677z" />
<glyph unicode=")" horiz-adv-x="757" d="M623 524q0 -453 -107.5 -677t-351.5 -224h-49q-25 0 -33 19t-8 88q0 70 7 88t32 18h24q129 0 178.5 158.5t49.5 529.5t-49.5 529.5t-178.5 158.5h-24q-25 0 -32 18.5t-7 88.5q0 69 7.5 87.5t33.5 18.5h49q244 0 351.5 -224t107.5 -677z" />
<glyph unicode="*" horiz-adv-x="1064" d="M203 1214l262 -124l-43 286q-3 25 17.5 33t92.5 8q73 0 93.5 -8t17.5 -33l-43 -286l262 124q24 8 37.5 -8.5t34.5 -85.5q15 -49 18 -73.5t-3 -34t-23 -11.5l-287 -43l199 -213q16 -18 3 -35.5t-73 -58.5q-60 -42 -83 -47.5t-32 17.5l-121 253l-120 -253q-9 -23 -32 -17.5 t-83 47.5q-60 41 -73 58.5t3 35.5l199 213l-287 43q-17 2 -23 11.5t-3 34t18 73.5q21 69 34.5 85.5t37.5 8.5z" />
<glyph unicode="+" horiz-adv-x="1150" d="M692 1040v-290h287q25 0 33 -20.5t8 -92.5t-8 -92.5t-33 -20.5h-287v-288q0 -27 -21 -35t-96 -8t-95.5 8t-20.5 35v288h-285q-27 0 -35 20.5t-8 92.5t8 92.5t35 20.5h285v290q0 25 20.5 33t95.5 8t96 -8t21 -33z" />
<glyph unicode="," horiz-adv-x="532" d="M291 315q81 0 110 -9.5t29 -39.5q0 -60 -71.5 -239t-116.5 -248q-24 -35 -52.5 -44t-89.5 -9q-48 0 -65.5 13t-7.5 50q73 255 94 463q3 28 15 40.5t45.5 17.5t109.5 5z" />
<glyph unicode="-" horiz-adv-x="839" d="M145 670h551q25 0 33 -20.5t8 -92.5t-8 -92.5t-33 -20.5h-551q-27 0 -35 20.5t-8 92.5t8 92.5t35 20.5z" />
<glyph unicode="." horiz-adv-x="532" d="M266 -4q-101 0 -128 10t-27 45v205q0 39 26.5 49t128.5 10q101 0 128.5 -10.5t27.5 -48.5v-205q0 -35 -27.5 -45t-128.5 -10z" />
<glyph unicode="/" horiz-adv-x="749" d="M729 1413l-444 -1534q-6 -22 -15.5 -30.5t-37.5 -12.5t-93 -4q-84 0 -105.5 10t-13.5 39l445 1534q6 22 15 30.5t37 12.5t93 4q84 0 105.5 -10t13.5 -39z" />
<glyph unicode="0" horiz-adv-x="1200" d="M600 1290q264 0 381 -156.5t117 -498.5t-117 -498.5t-381 -156.5t-381 156.5t-117 498.5t117 498.5t381 156.5zM600 221q120 0 164.5 90.5t44.5 323.5t-44.5 323.5t-164.5 90.5t-164.5 -90.5t-44.5 -323.5t44.5 -323.5t164.5 -90.5z" />
<glyph unicode="1" horiz-adv-x="872" d="M344 47v950l-215 -45q-29 -6 -38 17.5t-9 101.5q0 79 7.5 100.5t33.5 26.5l434 92q70 15 70 -39v-1204q0 -33 -24.5 -42t-117.5 -9t-117 9t-24 42z" />
<glyph unicode="2" horiz-adv-x="1101" d="M557 1290q116 0 201 -28t135 -80t74 -119t24 -150q0 -67 -14.5 -124t-38.5 -100.5t-64.5 -85.5t-81.5 -73.5t-100 -70.5q-19 -13 -96.5 -56.5t-125 -80t-69.5 -76.5h562q27 0 34 -20.5t7 -102.5t-7 -102.5t-34 -20.5h-830q-28 0 -35.5 20t-7.5 101v39q0 121 81 212.5 t273 207.5q12 7 35 21q49 29 73 44.5t60 44.5t52.5 55t30 65t12.5 85q0 81 -38 117.5t-118 36.5q-85 0 -126.5 -34.5t-47.5 -113.5q-1 -22 -10 -32.5t-37 -15.5t-88 -5q-89 0 -115.5 12t-26.5 51q0 197 116.5 288t340.5 91z" />
<glyph unicode="3" d="M510 539h-111q-24 0 -30.5 18.5t-6.5 87.5q0 68 7 87.5t30 19.5h115q102 0 141 34.5t39 124.5q0 76 -40.5 110t-127.5 34q-168 0 -174 -113q-3 -34 -26 -43.5t-109 -9.5q-89 0 -114.5 11t-24.5 50q4 178 118 259t336 81q226 0 335.5 -91.5t109.5 -264.5q0 -213 -162 -283 q90 -29 137 -98.5t47 -194.5q0 -183 -116.5 -280.5t-343.5 -97.5q-233 0 -352.5 80t-120.5 259q0 40 26 52t113 12q60 0 87.5 -5t36.5 -15t11 -33q5 -59 48.5 -87t143.5 -28q183 0 183 168q0 86 -51 121t-154 35z" />
<glyph unicode="4" horiz-adv-x="1159" d="M788 -4q-93 0 -117 9t-24 42v244h-551q-27 0 -35 22.5t-8 96.5q0 44 7.5 74t13.5 39.5t24 33.5l490 678q19 26 50 33.5t124 7.5q105 0 136.5 -9t31.5 -40v-699h137q28 0 35.5 -21t7.5 -97q0 -78 -7.5 -98.5t-35.5 -20.5h-137v-244q0 -33 -24.5 -42t-117.5 -9zM317 528 h336v467z" />
<glyph unicode="5" horiz-adv-x="1073" d="M500 596q-92 0 -193 -33q-46 -14 -114 -14q-27 0 -41.5 1.5t-30 7t-21 18.5t-4.5 34l37 615q2 27 25.5 36t101.5 9h604q27 0 34 -20.5t7 -102.5t-7 -102.5t-34 -20.5h-479l-16 -250q87 33 192 33q418 0 418 -393q0 -208 -114 -321t-337 -113q-459 0 -462 339q0 40 26 52 t113 12q60 0 87.5 -5t36.5 -15t11 -33q5 -59 45 -87t127 -28q182 0 182 201q0 180 -194 180z" />
<glyph unicode="6" horiz-adv-x="1132" d="M725 969q-3 54 -34.5 74t-102.5 20q-63 0 -105 -23.5t-65 -71t-33.5 -104t-13.5 -137.5q89 76 260 76q197 0 303 -90.5t106 -302.5q0 -93 -26 -169t-79 -135.5t-142.5 -92.5t-208.5 -33q-110 0 -194 27.5t-140 77.5t-91 126.5t-50 168t-15 208.5q0 184 25 312.5t82 217.5 t150.5 130.5t230.5 41.5q188 0 299 -76.5t114 -232.5q0 -38 -23.5 -49.5t-111.5 -11.5q-82 0 -107.5 9.5t-27.5 39.5zM578 211q109 0 152.5 47.5t43.5 147.5q0 102 -43 145t-151 43q-137 0 -211 -74q1 -59 6 -101t18.5 -84t36 -67.5t60 -41t88.5 -15.5z" />
<glyph unicode="7" horiz-adv-x="1032" d="M180 53q58 221 190.5 497t270.5 474h-526q-27 0 -34 20.5t-7 102.5t7 102.5t34 20.5h798q26 0 33.5 -21t7.5 -98q0 -79 -32 -125q-132 -204 -255.5 -481.5t-185.5 -497.5q-9 -34 -39.5 -43.5t-130.5 -9.5q-90 0 -114.5 13t-16.5 46z" />
<glyph unicode="8" horiz-adv-x="1150" d="M94 338q0 122 53.5 194t149.5 115q-85 39 -132.5 105.5t-47.5 179.5q0 358 458 358q459 0 459 -358q0 -113 -48 -179t-134 -106q97 -43 151 -114.5t54 -194.5q0 -180 -116.5 -269t-365.5 -89q-248 0 -364.5 89t-116.5 269zM776 344q0 91 -52 139t-149 78 q-97 -30 -148.5 -78t-51.5 -139q0 -139 200 -139q201 0 201 139zM391 924q0 -77 47 -119t137 -72q90 30 137.5 72t47.5 119t-43 111t-142 34t-141.5 -34t-42.5 -111z" />
<glyph unicode="9" horiz-adv-x="1134" d="M401 301q3 -54 34.5 -74t103.5 -20q62 0 104 23.5t65.5 70.5t34 103.5t13.5 136.5q-87 -74 -260 -74q-197 0 -303.5 90.5t-106.5 302.5q0 93 26 169t79.5 135.5t143 92.5t208.5 33q137 0 233 -41t151.5 -122.5t80 -189.5t24.5 -255q0 -369 -109.5 -535.5t-377.5 -166.5 q-188 0 -299.5 76.5t-114.5 232.5q0 38 23.5 49.5t111.5 11.5q82 0 107.5 -9.5t27.5 -39.5zM549 1059q-110 0 -153.5 -47.5t-43.5 -147.5q0 -102 43.5 -145t151.5 -43q140 0 211 74q-1 59 -6 101t-18.5 84t-36 67.5t-60 41t-88.5 15.5z" />
<glyph unicode=":" horiz-adv-x="581" d="M291 -4q-101 0 -128.5 10t-27.5 45v205q0 27 11 38.5t42 16t103 4.5q101 0 128 -10.5t27 -48.5v-205q0 -35 -27 -45t-128 -10zM291 692q-100 0 -128 10t-28 46v204q0 39 27 49.5t129 10.5q101 0 128 -10.5t27 -49.5v-204q0 -36 -27.5 -46t-127.5 -10z" />
<glyph unicode=";" horiz-adv-x="581" d="M305 315q81 0 110 -9.5t29 -39.5q0 -60 -71.5 -239t-116.5 -248q-24 -35 -52 -44t-89 -9q-48 0 -66 13t-8 50q73 255 94 463q3 28 15 40.5t45.5 17.5t109.5 5zM291 692q-100 0 -128 10t-28 46v204q0 39 27 49.5t129 10.5q101 0 128 -10.5t27 -49.5v-204q0 -36 -27.5 -46 t-127.5 -10z" />
<glyph unicode="&#x3c;" horiz-adv-x="1150" d="M127 637q0 63 6.5 87.5t26.5 37.5l678 442q19 12 42 -2t60 -65q39 -53 47 -79.5t-10 -35.5l-590 -385l590 -385q18 -9 10 -35.5t-47 -79.5q-37 -51 -60 -65t-42 -2l-678 442q-20 13 -26.5 37.5t-6.5 87.5z" />
<glyph unicode="=" horiz-adv-x="1150" d="M174 526h805q25 0 33 -20t8 -92t-8 -92.5t-33 -20.5h-805q-27 0 -35 20.5t-8 92.5t8 92t35 20zM174 965h805q25 0 33 -20.5t8 -92.5t-8 -92.5t-33 -20.5h-805q-27 0 -35 20.5t-8 92.5t8 92.5t35 20.5z" />
<glyph unicode="&#x3e;" horiz-adv-x="1150" d="M1024 637q0 -63 -6.5 -87.5t-26.5 -37.5l-678 -442q-19 -12 -42 2t-60 65q-39 53 -47 79.5t10 35.5l590 385l-590 385q-18 9 -10 35.5t47 79.5q37 51 60 65t42 2l678 -442q20 -13 26.5 -37.5t6.5 -87.5z" />
<glyph unicode="?" horiz-adv-x="1142" d="M682 528l-4 -39q-3 -29 -23.5 -37t-99.5 -8q-56 0 -81.5 4.5t-32.5 12.5t-9 28l-4 46q-5 53 16 99.5t55.5 78t76.5 65t78 61.5t60.5 67.5t24.5 82.5q0 75 -41 110.5t-127 35.5q-91 0 -134.5 -36t-49.5 -116q-1 -22 -10 -32.5t-37 -15.5t-88 -5q-89 0 -115 12t-26 51 q0 383 467 383q118 0 206.5 -28t139.5 -77.5t75.5 -111t24.5 -135.5q0 -70 -18 -126t-46.5 -92t-63.5 -64.5t-71 -50.5t-66.5 -44t-51.5 -52t-25 -67zM553 -4q-101 0 -128.5 10t-27.5 45v205q0 27 11 38.5t42 16t103 4.5q101 0 128.5 -10.5t27.5 -48.5v-205q0 -35 -27.5 -45 t-128.5 -10z" />
<glyph unicode="@" horiz-adv-x="1839" d="M1071 580v215q-52 20 -129 20q-97 0 -131.5 -48.5t-34.5 -176.5q0 -116 32 -164.5t110 -48.5q80 0 116.5 51t36.5 152zM1208 -147h-284q-150 0 -268.5 23t-218 77t-165 139.5t-101.5 214t-36 297.5q0 393 200.5 573.5t602.5 180.5q212 0 359.5 -44t238.5 -136.5 t131.5 -226.5t40.5 -322q0 -252 -84 -358.5t-248 -106.5q-198 0 -241 143q-34 -64 -101 -98.5t-155 -34.5q-172 0 -260.5 98.5t-88.5 317.5q0 229 91.5 329.5t316.5 100.5q187 0 315 -64q45 -20 45 -57v-440q0 -72 15 -104.5t61 -32.5q52 0 78 26t36.5 89.5t10.5 191.5 t-17.5 217.5t-55.5 155t-104.5 103t-159 54.5t-224.5 17q-160 0 -267.5 -26.5t-183 -92t-109.5 -176t-34 -277.5q0 -140 25.5 -240.5t70.5 -164t119.5 -100.5t160 -50.5t204.5 -13.5h290q18 0 24.5 -19.5t6.5 -72.5t-7 -71.5t-30 -18.5z" />
<glyph unicode="A" horiz-adv-x="1249" d="M1063 -4q-98 0 -127 10t-37 47q-26 124 -65 271h-420q-49 -201 -64 -271q-8 -37 -37 -47t-127 -10q-89 0 -115 11t-18 42q60 252 181.5 657t201.5 603q12 30 48 40.5t141 10.5t140.5 -10.5t47.5 -40.5q80 -198 201.5 -603t181.5 -657q8 -31 -18 -42t-115 -11zM625 1055 q-87 -276 -148 -496h295q-69 247 -147 496z" />
<glyph unicode="B" horiz-adv-x="1257" d="M436 573v-327h205q122 0 174.5 35t52.5 131t-57.5 128.5t-185.5 32.5h-189zM614 1110h-178v-299h182q102 0 151.5 35t49.5 119q0 81 -48 113t-157 32zM291 1356h338q248 0 365.5 -88.5t117.5 -268.5q0 -107 -45 -179.5t-123 -106.5q219 -62 219 -316q0 -199 -119 -298 t-376 -99h-377q-94 0 -119 9t-25 40v1256q0 32 25.5 41.5t118.5 9.5z" />
<glyph unicode="C" horiz-adv-x="1257" d="M106 678q0 374 129.5 536t436.5 162q239 0 360 -108.5t123 -309.5q0 -39 -26 -50t-117 -11q-89 0 -114.5 10t-27.5 43q-3 87 -48.5 129.5t-149.5 42.5q-105 0 -161 -38t-82 -133t-26 -273q0 -134 13 -218.5t46 -136t82 -71t128 -19.5q103 0 150 44.5t52 136.5 q2 33 27.5 43t114.5 10t116 -10t27 -45q-3 -432 -487 -432q-307 0 -436.5 162t-129.5 536z" />
<glyph unicode="D" horiz-adv-x="1294" d="M438 250h178q106 0 164.5 39t84.5 130.5t26 258.5q0 166 -26 258t-84.5 131t-164.5 39h-178v-856zM616 0h-325q-94 0 -119 9t-25 40v1256q0 32 25.5 41.5t118.5 9.5h325q312 0 442 -157t130 -521t-130 -521t-442 -157z" />
<glyph unicode="E" horiz-adv-x="1163" d="M997 1106h-559v-289h488q30 0 37.5 -20.5t7.5 -104.5t-7.5 -104.5t-37.5 -20.5h-488v-317h570q19 0 27.5 -8t13 -34.5t4.5 -82.5q0 -82 -8.5 -103.5t-36.5 -21.5h-717q-94 0 -119 9t-25 40v1256q0 32 25.5 41.5t118.5 9.5h706q19 0 27.5 -8t13 -34.5t4.5 -82.5 q0 -82 -8.5 -103.5t-36.5 -21.5z" />
<glyph unicode="F" horiz-adv-x="1089" d="M438 551v-506q0 -22 -10 -31.5t-39.5 -13.5t-95.5 -4q-67 0 -97 4t-39.5 13.5t-9.5 31.5v1260q0 32 25.5 41.5t118.5 9.5h692q19 0 27.5 -8t13 -34.5t4.5 -82.5q0 -82 -8.5 -103.5t-36.5 -21.5h-545v-305h477q30 0 38 -21t8 -104t-8 -104t-38 -21h-477z" />
<glyph unicode="G" horiz-adv-x="1306" d="M1057 729q80 0 103.5 -16t23.5 -62v-215q0 -229 -130.5 -342.5t-373.5 -113.5q-308 0 -441 162.5t-133 535.5q0 374 129.5 536t436.5 162q242 0 365 -102t126 -291q0 -37 -27.5 -49t-115.5 -12q-86 0 -113.5 10.5t-27.5 40.5q-6 153 -207 153q-105 0 -161.5 -39t-82 -135 t-25.5 -274q0 -177 28 -274t86 -136t163 -39q116 0 170.5 51.5t54.5 155.5v56h-219q-28 0 -35.5 19.5t-7.5 98.5t7.5 99t35.5 20h371z" />
<glyph unicode="H" horiz-adv-x="1359" d="M1067 -4q-67 0 -96.5 4t-39 13.5t-9.5 31.5v520h-484v-520q0 -22 -10 -31.5t-39.5 -13.5t-95.5 -4q-67 0 -97 4t-39.5 13.5t-9.5 31.5v1264q0 33 24.5 42t121.5 9q95 0 120 -9t25 -42v-490h484v490q0 23 9.5 33t39 14t96.5 4q95 0 120 -9t25 -42v-1264q0 -22 -10 -31.5 t-39.5 -13.5t-95.5 -4z" />
<glyph unicode="I" horiz-adv-x="598" d="M299 -4q-67 0 -96.5 4t-39 13.5t-9.5 31.5v1264q0 23 9.5 33t39 14t96.5 4q95 0 120 -9t25 -42v-1264q0 -22 -10 -31.5t-39.5 -13.5t-95.5 -4z" />
<glyph unicode="J" horiz-adv-x="1091" d="M657 461v848q0 33 24.5 42t121.5 9q95 0 120 -9t25 -42v-863q0 -86 -12 -154t-43.5 -128t-81.5 -99.5t-129 -62t-184 -22.5q-432 0 -432 423q0 40 25.5 51t117.5 11q88 0 113.5 -10.5t27.5 -42.5q2 -90 35.5 -131t114.5 -41q91 0 124 52t33 169z" />
<glyph unicode="K" horiz-adv-x="1269" d="M1188 1292l-418 -585l438 -644q32 -46 -36 -60q-38 -7 -107 -7q-79 0 -115 9.5t-57 39.5l-356 533h-99v-533q0 -22 -10 -31.5t-39.5 -13.5t-95.5 -4q-67 0 -97 4t-39.5 13.5t-9.5 31.5v1264q0 33 24.5 42t121.5 9q95 0 120 -9t25 -42v-480h94l345 488q18 26 53.5 34.5 t113.5 8.5q156 0 155 -41q0 -12 -11 -27z" />
<glyph unicode="L" horiz-adv-x="1040" d="M438 1309v-1059h484q19 0 27.5 -8t13 -34.5t4.5 -82.5q0 -82 -8.5 -103.5t-36.5 -21.5h-631q-94 0 -119 9t-25 40v1260q0 33 24.5 42t121.5 9q95 0 120 -9t25 -42z" />
<glyph unicode="M" horiz-adv-x="1695" d="M848 143q-78 0 -102 8.5t-33 36.5l-279 820v-963q0 -22 -9.5 -31.5t-38.5 -13.5t-95 -4q-96 0 -120 8.5t-24 40.5v1262q0 23 14.5 34t59 16t137.5 5q121 0 165.5 -10t54.5 -41l270 -811l270 811q10 31 54.5 41t164.5 10q93 0 137.5 -5t59 -16t14.5 -34v-1262 q0 -32 -23.5 -40.5t-119.5 -8.5q-66 0 -95 4t-38.5 13.5t-9.5 31.5v963l-279 -820q-9 -28 -33 -36.5t-102 -8.5z" />
<glyph unicode="N" horiz-adv-x="1380" d="M1087 1360q67 0 97 -4t39.5 -13.5t9.5 -31.5v-1264q0 -22 -10 -32t-44 -14.5t-110 -4.5q-81 0 -108.5 9t-40.5 34l-482 835v-829q0 -22 -10 -31.5t-39.5 -13.5t-95.5 -4q-67 0 -97 4t-39.5 13.5t-9.5 31.5v1264q0 22 10 32t44 14.5t110 4.5q81 0 109 -9t41 -34l481 -838 v832q0 22 10 31.5t39.5 13.5t95.5 4z" />
<glyph unicode="O" horiz-adv-x="1343" d="M672 1376q306 0 435.5 -162t129.5 -536t-129.5 -536t-435.5 -162q-307 0 -436.5 162t-129.5 536t129.5 536t436.5 162zM672 229q103 0 159.5 39.5t82.5 135.5t26 274t-26 274t-82 135t-160 39q-105 0 -161.5 -39t-82 -135t-25.5 -274t25.5 -274t82.5 -135.5t161 -39.5z " />
<glyph unicode="P" horiz-adv-x="1224" d="M623 457h-185v-412q0 -22 -10 -31.5t-39.5 -13.5t-95.5 -4q-67 0 -97 4t-39.5 13.5t-9.5 31.5v1260q0 32 25.5 41.5t118.5 9.5h332q270 0 388.5 -106.5t118.5 -342.5q0 -237 -119 -343.5t-388 -106.5zM438 1106v-399h176q122 0 171 41.5t49 158.5q0 112 -52.5 155.5 t-167.5 43.5h-176z" />
<glyph unicode="Q" horiz-adv-x="1343" d="M672 1376q306 0 435.5 -162t129.5 -536q0 -307 -86 -469t-279 -209q100 -47 252 -47q27 0 35 -21.5t8 -103.5t-8 -103.5t-35 -21.5q-160 0 -307 75t-237 206q-254 22 -364 185t-110 509q0 374 129.5 536t436.5 162zM672 229q103 0 159.5 39.5t82.5 135.5t26 274t-26 274 t-82 135t-160 39q-105 0 -161.5 -39t-82 -135t-25.5 -274t25.5 -274t82.5 -135.5t161 -39.5z" />
<glyph unicode="R" horiz-adv-x="1245" d="M526 506h-88v-461q0 -22 -10 -31.5t-39.5 -13.5t-95.5 -4q-67 0 -97 4t-39.5 13.5t-9.5 31.5v1260q0 22 10.5 32t40.5 14.5t95 4.5h323q269 0 388.5 -103t119.5 -325q0 -274 -237 -367q94 -55 166 -190q79 -150 108 -310q5 -15 4.5 -27.5t-10.5 -21.5t-43.5 -13.5 t-93.5 -4.5q-86 0 -115 10.5t-35 38.5q-25 133 -65 223q-96 240 -277 240zM438 1110v-367h170q123 0 171 37.5t48 145.5q0 103 -49 143.5t-170 40.5h-170z" />
<glyph unicode="S" horiz-adv-x="1179" d="M580 221q111 0 164 32t53 114q0 32 -12.5 56.5t-27 40t-53 32t-61.5 24.5t-81 25q-9 3 -13 4q-164 50 -233 85q-177 91 -208 264q-8 41 -8 87q0 197 111 294t369 97q168 0 272.5 -41.5t151 -120t47.5 -200.5q0 -39 -26 -50.5t-120 -11.5q-87 0 -110 9.5t-25 44.5 q-2 69 -45 99t-145 30q-113 0 -152 -32.5t-39 -103.5q0 -29 6.5 -51t25.5 -41.5t36 -32t56.5 -29.5t67 -27t86.5 -30q23 -8 35 -12q157 -54 213 -85q117 -65 152 -182q18 -61 18 -140q0 -97 -26 -167t-84 -121t-156.5 -76t-238.5 -25q-491 0 -494 366q0 39 25.5 50.5 t119.5 11.5q62 0 90 -4.5t37 -15t9 -34.5q1 -73 53.5 -103t159.5 -30z" />
<glyph unicode="T" horiz-adv-x="1122" d="M1020 1106h-313v-1061q0 -22 -9.5 -31.5t-39.5 -13.5t-97 -4t-96.5 4t-39 13.5t-9.5 31.5v1061h-314q-28 0 -36.5 21.5t-8.5 103.5q0 56 4.5 82.5t13 34.5t27.5 8h918q19 0 27.5 -8t13 -34.5t4.5 -82.5q0 -82 -8.5 -103.5t-36.5 -21.5z" />
<glyph unicode="U" horiz-adv-x="1339" d="M670 -20q-282 0 -406.5 125.5t-124.5 402.5v801q0 33 24.5 42t121.5 9q95 0 120 -9t25 -42v-789q0 -153 52 -214.5t188 -61.5t187.5 61.5t51.5 214.5v789q0 33 25.5 42t120.5 9q67 0 96.5 -4t39 -14t9.5 -33v-801q0 -277 -124 -402.5t-406 -125.5z" />
<glyph unicode="V" horiz-adv-x="1245" d="M1061 1360q87 0 112 -10q33 -14 23 -45q-64 -254 -190.5 -662.5t-200.5 -597.5q-11 -31 -44.5 -40t-137.5 -9t-138.5 9t-44.5 40q-74 189 -200.5 597.5t-190.5 662.5q-6 20 3 32.5t34.5 16.5t41 5t44.5 1h12q99 0 128 -10.5t38 -49.5q93 -397 273 -970q177 560 272 970 q9 39 38 49.5t128 10.5z" />
<glyph unicode="W" horiz-adv-x="1961" d="M1739 1360q97 0 127.5 -10t23.5 -45q-60 -287 -162 -681.5t-172 -578.5q-9 -30 -41 -39.5t-131 -9.5q-100 0 -128 9t-37 40q-110 359 -238 891q-134 -542 -238 -891q-9 -31 -37 -40t-128 -9q-99 0 -131 9.5t-41 39.5q-70 184 -172 578.5t-162 681.5q-7 35 23.5 45 t127.5 10q88 0 113 -10.5t33 -49.5q74 -401 215 -950q144 549 233 950q5 27 17 38.5t43.5 16.5t103.5 5t103.5 -5t43.5 -16.5t17 -38.5q89 -401 233 -950q141 549 215 950q8 39 33 49.5t113 10.5z" />
<glyph unicode="X" horiz-adv-x="1290" d="M885 696l344 -635q25 -45 -44 -58q-37 -7 -106 -7q-80 0 -116 8.5t-50 36.5l-268 516l-268 -516q-14 -28 -50 -36.5t-116 -8.5q-148 0 -156 37q-3 11 6 28l345 635l-336 598q-25 43 25 57q35 9 124 9q78 0 114 -9t52 -38l260 -479l260 479q16 29 52 38t114 9 q139 0 156 -27q8 -15 -6 -39z" />
<glyph unicode="Y" horiz-adv-x="1204" d="M852 1309q9 22 21 32t44.5 14.5t100.5 4.5q132 0 143 -30q4 -10 -2 -25q-59 -140 -187.5 -395t-223.5 -421v-446q0 -22 -9.5 -31.5t-39.5 -13.5t-97 -4q-66 0 -95.5 4t-39.5 13.5t-10 31.5v446q-96 168 -224.5 422.5t-187.5 393.5q-15 35 31 47q34 8 110 8 q68 0 100.5 -4.5t44.5 -14.5t21 -32q96 -258 250 -572q151 315 250 572z" />
<glyph unicode="Z" horiz-adv-x="1179" d="M162 1356h852q28 0 35.5 -22.5t7.5 -108.5q0 -78 -27 -127l-567 -848h565q19 0 27.5 -8t13 -34.5t4.5 -82.5q0 -82 -8.5 -103.5t-36.5 -21.5h-885q-29 0 -37 21.5t-8 105.5q0 80 29 127l571 852h-536q-28 0 -36.5 21.5t-8.5 103.5q0 56 4.5 82.5t13 34.5t27.5 8z" />
<glyph unicode="[" horiz-adv-x="757" d="M180 -324v1696q0 30 24.5 39.5t114.5 9.5h308q26 0 33.5 -18.5t7.5 -87.5q0 -70 -7 -88.5t-32 -18.5h-199v-1368h199q25 0 32 -18t7 -88q0 -69 -8 -88t-33 -19h-308q-90 0 -114.5 9.5t-24.5 39.5z" />
<glyph unicode="\" horiz-adv-x="749" d="M465 -121l-445 1534q-8 29 13.5 39t105.5 10q65 0 93 -4t37.5 -12.5t15.5 -30.5l444 -1534q8 -29 -13.5 -39t-105.5 -10q-65 0 -93 4t-37 12.5t-15 30.5z" />
<glyph unicode="]" horiz-adv-x="757" d="M578 1372v-1696q0 -30 -25 -39.5t-115 -9.5h-307q-25 0 -33 19t-8 88q0 70 7 88t32 18h199v1368h-199q-25 0 -32 18.5t-7 88.5q0 69 7.5 87.5t33.5 18.5h307q90 0 115 -9.5t25 -39.5z" />
<glyph unicode="^" horiz-adv-x="1150" d="M575 1370q82 0 108.5 -8t39.5 -31l324 -600q18 -32 -8.5 -42.5t-110.5 -10.5q-81 0 -108.5 9t-41.5 38l-203 395l-202 -395q-14 -29 -41.5 -38t-108.5 -9q-84 0 -110.5 10.5t-8.5 42.5l324 600q13 23 39 31t108 8z" />
<glyph unicode="_" horiz-adv-x="843" d="M825 -307h-807q-21 0 -25.5 14.5t-4.5 75.5t4.5 75.5t25.5 14.5h807q21 0 26 -15t5 -75t-5 -75t-26 -15z" />
<glyph unicode="`" horiz-adv-x="749" d="M510 1126l-342 152q-15 7 -19.5 16t2.5 31.5t29 63.5q32 60 50.5 74t35.5 -1l318 -202q20 -12 19.5 -26.5t-23.5 -57.5q-23 -41 -35.5 -50t-34.5 0z" />
<glyph unicode="a" d="M399 715q0 -27 -21.5 -35t-105.5 -8q-88 0 -111.5 9.5t-23.5 45.5q0 142 99.5 221.5t312.5 79.5q97 0 170 -15.5t121.5 -44.5t79 -73t43 -97t12.5 -122v-633q0 -21 -8.5 -30t-35.5 -13t-89 -4q-87 0 -110 8.5t-23 38.5l-2 74q-81 -133 -295 -133q-166 0 -246 78.5 t-80 207.5q0 156 90.5 228.5t286.5 72.5h242v91q0 84 -32.5 113.5t-127.5 29.5q-80 0 -113 -21.5t-33 -68.5zM705 391h-209q-81 0 -112.5 -24t-31.5 -80q0 -50 32 -73.5t99 -23.5q103 0 162.5 44.5t59.5 117.5v39z" />
<glyph unicode="b" horiz-adv-x="1187" d="M406 1372v-459q92 115 282 115q198 0 302 -130.5t104 -393.5q0 -264 -104.5 -394t-305.5 -130q-190 0 -283 118l-4 -55q-2 -21 -10.5 -30t-35 -13t-87.5 -4q-87 0 -110 8.5t-23 38.5v1329q0 30 24 38.5t113 8.5q90 0 114 -8.5t24 -38.5zM406 504q0 -163 46.5 -230 t161.5 -67q112 0 156.5 66.5t44.5 230.5t-44.5 230.5t-156.5 66.5q-115 0 -161.5 -67t-46.5 -230z" />
<glyph unicode="c" horiz-adv-x="1073" d="M569 797q-114 0 -155 -64t-41 -229t41 -229t155 -64q141 0 144 98q1 21 9 31t34.5 15t81.5 5q69 0 97 -4t38 -15t10 -38q0 -149 -102.5 -236t-311.5 -87q-248 0 -361.5 128.5t-113.5 395.5t113.5 395.5t361.5 128.5q208 0 305.5 -84t102.5 -231q0 -38 -24.5 -48 t-121.5 -10q-56 0 -82.5 5.5t-33.5 15t-8 31.5q-2 46 -34.5 68t-103.5 22z" />
<glyph unicode="d" horiz-adv-x="1187" d="M791 43l-7 55q-90 -118 -280 -118q-201 0 -305.5 130t-104.5 394q0 263 104 393.5t302 130.5q187 0 282 -115v459q0 30 24 38.5t114 8.5q89 0 113 -8.5t24 -38.5v-1329q0 -30 -23 -38.5t-110 -8.5q-61 0 -87.5 4t-35 13t-10.5 30zM782 504q0 163 -47 230t-162 67 q-112 0 -156 -66.5t-44 -230.5t44 -230.5t156 -66.5q115 0 162 67t47 230z" />
<glyph unicode="e" d="M952 434h-585q8 -128 56 -186t152 -58q71 0 107.5 25.5t38.5 67.5q1 21 8.5 30t33 13t85.5 4q88 0 111.5 -10t23.5 -50q-2 -129 -107.5 -209.5t-300.5 -80.5q-252 0 -366.5 128t-114.5 396q0 264 116 394t353 130q225 0 330.5 -122t105.5 -331v-53q0 -54 -8.5 -71 t-38.5 -17zM569 817q-97 0 -143 -51.5t-57 -163.5h368v29q0 186 -168 186z" />
<glyph unicode="f" horiz-adv-x="761" d="M664 778h-189v-735q0 -30 -23.5 -38.5t-113.5 -8.5q-89 0 -113 8.5t-24 38.5v735h-115q-25 0 -31 18.5t-6 92.5q0 75 6 92.5t31 19.5l115 7v73q0 103 21.5 173t66.5 110t105 57t145 17q47 0 98.5 -9t77.5 -20q28 -9 34 -30t-1 -83q-7 -67 -19 -86.5t-37 -17.5 q-11 1 -31 4.5t-36.5 5.5t-32.5 2q-65 0 -93 -30.5t-28 -100.5v-65h193q24 0 30 -20t6 -95t-6 -95t-30 -20z" />
<glyph unicode="g" horiz-adv-x="1167" d="M373 -72q0 -53 41 -77.5t135 -24.5q106 0 149 30t43 113q0 77 -44.5 112.5t-145.5 49.5h-2q-234 0 -342.5 111t-108.5 338t108.5 337.5t342.5 110.5q143 0 239 -41l285 37q27 3 36 -19t9 -90q0 -70 -7 -89t-34 -19h-116q38 -89 38 -227q0 -246 -145 -361 q150 -78 150 -280q0 -163 -107 -245.5t-344 -82.5q-231 0 -335.5 75t-104.5 230q0 38 23.5 47.5t109.5 9.5q83 0 105 -8.5t22 -36.5zM549 350q100 0 142 53.5t42 176.5t-42 176t-142 53t-142 -53t-42 -176t42 -176.5t142 -53.5z" />
<glyph unicode="h" horiz-adv-x="1179" d="M406 1372v-483q37 58 116 98.5t185 40.5q350 0 350 -360v-625q0 -30 -23.5 -38.5t-113.5 -8.5q-89 0 -113.5 8.5t-24.5 38.5v582q0 89 -40 128.5t-124 39.5q-98 0 -155 -58t-57 -155v-537q0 -30 -24 -38.5t-114 -8.5q-89 0 -113 8.5t-24 38.5v1329q0 30 24 38.5t113 8.5 q90 0 114 -8.5t24 -38.5z" />
<glyph unicode="i" horiz-adv-x="536" d="M131 43v922q0 30 24 38.5t113 8.5q90 0 114 -8.5t24 -38.5v-922q0 -30 -24 -38.5t-114 -8.5q-89 0 -113 8.5t-24 38.5zM268 1403q98 0 121 -10.5t23 -51.5v-139q0 -41 -23 -51t-121 -10t-120.5 10t-22.5 51v139q0 29 8.5 40.5t37 16.5t97.5 5z" />
<glyph unicode="j" horiz-adv-x="557" d="M2 -143q5 0 27 -2t37 -2q47 0 66.5 26.5t19.5 110.5v975q0 30 24 38.5t113 8.5q90 0 113.5 -8.5t23.5 -38.5v-990q0 -115 -18 -188t-58 -111t-90.5 -51.5t-128.5 -13.5q-87 0 -131 14q-28 8 -35.5 27t-7.5 86q0 78 8.5 98.5t36.5 20.5zM289 1403q69 0 97.5 -5t37 -16.5 t8.5 -40.5v-139q0 -41 -22.5 -51t-120.5 -10t-121 10t-23 51v139q0 41 23 51.5t121 10.5z" />
<glyph unicode="k" d="M406 1372v-713h81l252 310q21 26 51.5 34.5t110.5 8.5q150 0 151 -36q0 -12 -14 -28l-336 -403l351 -486q33 -44 -43 -57q-37 -6 -103 -6q-73 0 -102.5 8.5t-48.5 34.5l-279 391h-71v-389q0 -30 -24 -38.5t-114 -8.5q-89 0 -113 8.5t-24 38.5v1331q0 30 24 38.5t113 8.5 q90 0 114 -8.5t24 -38.5z" />
<glyph unicode="l" horiz-adv-x="577" d="M463 238h29q29 0 37 -20.5t8 -98.5q0 -77 -9.5 -98t-46.5 -21h-84q-152 0 -209 55t-57 203v1114q0 30 24 38.5t113 8.5q90 0 114 -8.5t24 -38.5v-1077q0 -35 11.5 -46t45.5 -11z" />
<glyph unicode="m" horiz-adv-x="1765" d="M1022 600v-557q0 -30 -23.5 -38.5t-113.5 -8.5q-89 0 -113 8.5t-24 38.5v602q0 78 -37 113t-115 35q-92 0 -143.5 -52.5t-51.5 -140.5v-557q0 -30 -23.5 -38.5t-113.5 -8.5q-89 0 -113 8.5t-24 38.5v922q0 30 24 38.5t113 8.5q60 0 86.5 -4t34 -12.5t8.5 -28.5l4 -80 q84 141 287 141q224 0 299 -151q114 151 322 151q167 0 252 -87t85 -253v-645q0 -30 -23.5 -38.5t-113.5 -8.5q-89 0 -113 8.5t-24 38.5v602q0 78 -36.5 113t-114.5 35q-92 0 -143.5 -52.5t-51.5 -140.5z" />
<glyph unicode="n" horiz-adv-x="1171" d="M393 967l4 -84q36 60 115 102.5t188 42.5q349 0 349 -360v-625q0 -30 -24 -38.5t-114 -8.5q-89 0 -113 8.5t-24 38.5v582q0 89 -39.5 128.5t-122.5 39.5q-98 0 -154.5 -58t-56.5 -155v-537q0 -30 -23.5 -38.5t-113.5 -8.5q-89 0 -113 8.5t-24 38.5v922q0 30 24 38.5 t113 8.5q60 0 86.5 -4t34 -12.5t8.5 -28.5z" />
<glyph unicode="o" horiz-adv-x="1138" d="M569 1028q248 0 361.5 -128.5t113.5 -395.5t-113.5 -395.5t-361.5 -128.5t-361.5 128.5t-113.5 395.5t113.5 395.5t361.5 128.5zM569 207q114 0 155.5 65.5t41.5 231.5t-41.5 231.5t-155.5 65.5q-113 0 -154.5 -65.5t-41.5 -231.5t41.5 -231.5t154.5 -65.5z" />
<glyph unicode="p" horiz-adv-x="1183" d="M393 965l6 -60q91 123 285 123q198 0 302 -130.5t104 -393.5q0 -264 -104.5 -394t-305.5 -130q-188 0 -279 114v-420q0 -30 -23.5 -38.5t-113.5 -8.5q-89 0 -113 8.5t-24 38.5v1291q0 30 23 38.5t110 8.5q61 0 87.5 -4t35 -13t10.5 -30zM401 504q0 -163 47 -230t162 -67 q112 0 156.5 66.5t44.5 230.5t-44.5 230.5t-156.5 66.5q-115 0 -162 -67t-47 -230z" />
<glyph unicode="q" horiz-adv-x="1183" d="M920 -373q-90 0 -114 8.5t-24 38.5v420q-94 -114 -278 -114q-201 0 -305.5 130t-104.5 394q0 263 104 393.5t302 130.5q190 0 284 -123l7 60q2 21 10.5 30t35 13t87.5 4q87 0 110 -8.5t23 -38.5v-1291q0 -30 -24 -38.5t-113 -8.5zM782 504q0 163 -47 230t-162 67 q-112 0 -156 -66.5t-44 -230.5t44 -230.5t156 -66.5q115 0 162 67t47 230z" />
<glyph unicode="r" horiz-adv-x="802" d="M709 743q-143 0 -225.5 -61.5t-82.5 -177.5v-461q0 -30 -23.5 -38.5t-113.5 -8.5q-89 0 -113 8.5t-24 38.5v922q0 30 24 38.5t113 8.5q60 0 86.5 -4t34 -12.5t8.5 -28.5l4 -136q37 81 119 136t193 55q34 0 43.5 -24t9.5 -115q0 -90 -10 -115t-43 -25z" />
<glyph unicode="s" horiz-adv-x="991" d="M338 266q0 -44 33 -62t118 -18q86 0 119 22t33 66q0 39 -26 64.5t-56.5 36.5t-110.5 32q-12 3 -18 5q-46 12 -75.5 21t-69 24t-64 30.5t-52 39.5t-42.5 52t-25 67t-10 85q0 152 92 224.5t308 72.5q215 0 305 -66t90 -206q0 -36 -24.5 -47t-108.5 -11q-79 0 -101 8.5 t-22 38.5q0 42 -31 59t-104 17q-77 0 -106.5 -20.5t-29.5 -65.5q0 -36 24.5 -60t50 -33.5t95.5 -29.5q18 -5 27 -8q157 -43 207 -67q98 -47 128 -137q17 -51 17 -121q0 -74 -20 -127t-66.5 -93t-128 -59.5t-200.5 -19.5q-225 0 -318.5 67.5t-93.5 208.5q0 36 24.5 46.5 t108.5 10.5q79 0 101 -8.5t22 -38.5z" />
<glyph unicode="t" horiz-adv-x="819" d="M698 778h-235v-448q0 -59 21 -84t69 -25q34 0 71 11.5t42 11.5q18 0 32 -19t31 -67q19 -55 19 -76.5t-17 -38.5q-26 -25 -88.5 -40t-134.5 -15q-178 0 -246.5 78t-68.5 256v456h-119q-25 0 -31 18.5t-6 92.5q0 75 6 92.5t31 19.5l127 7v227q0 29 23 37t110 8 q59 0 85.5 -4t35 -12.5t8.5 -28.5v-227h235q24 0 30.5 -20t6.5 -95t-6.5 -95t-30.5 -20z" />
<glyph unicode="u" horiz-adv-x="1159" d="M766 41l-4 84q-36 -60 -113.5 -102.5t-183.5 -42.5q-346 0 -346 372v613q0 30 23.5 38.5t113.5 8.5q89 0 113 -8.5t24 -38.5v-578q0 -89 40 -130.5t120 -41.5q95 0 150 58t55 155v537q0 30 23.5 38.5t113.5 8.5q89 0 113 -8.5t24 -38.5v-922q0 -30 -24 -38.5t-113 -8.5 q-60 0 -86.5 4t-34 12.5t-8.5 28.5z" />
<glyph unicode="v" horiz-adv-x="1060" d="M874 1012q100 0 126.5 -11t17.5 -45q-51 -188 -149 -470.5t-171 -446.5q-11 -26 -43 -34.5t-125 -8.5t-125 8.5t-43 34.5q-72 163 -169.5 445t-149.5 472q-9 34 18 45t125 11q81 0 109 -8t31 -29q70 -317 204 -721q137 413 205 721q3 21 30.5 29t108.5 8z" />
<glyph unicode="w" horiz-adv-x="1630" d="M1432 1012q85 0 111 -9t26 -32q0 -11 -4 -35q-36 -183 -111 -449t-141 -452q-8 -24 -37.5 -32.5t-118.5 -8.5q-88 0 -117.5 9t-38.5 36q-84 252 -186 635q-109 -399 -186 -635q-9 -27 -38.5 -36t-117.5 -9q-89 0 -118.5 8.5t-37.5 32.5q-66 185 -140 451t-111 450 q-5 30 -5 35q0 23 26.5 32t111.5 9q80 0 106 -9.5t31 -37.5q58 -326 147 -691q125 420 191 697q6 24 32.5 32.5t108.5 8.5t108.5 -8.5t32.5 -32.5q66 -277 191 -697q89 365 147 691q5 28 31.5 37.5t106.5 9.5z" />
<glyph unicode="x" horiz-adv-x="1083" d="M729 47l-184 354h-10l-183 -354q-15 -31 -45 -41t-117 -10q-138 0 -138 38q0 8 5 17l260 467l-256 438q-22 39 50 50q36 6 96 6q74 0 102 -7.5t41 -33.5l185 -340h12l184 340q13 26 41 33.5t102 7.5q152 0 152 -38q0 -8 -6 -18l-256 -438l260 -467q21 -39 -50 -50 q-32 -5 -83 -5q-87 0 -117 10t-45 41z" />
<glyph unicode="y" horiz-adv-x="1073" d="M260 -147q81 0 127 32t76 113q-42 3 -60 12t-26 29q-75 165 -176.5 448t-153.5 469q-10 37 18.5 46.5t124.5 9.5q81 0 109 -8t31 -29q73 -318 215 -729q153 499 203 729q3 21 30.5 29t108.5 8q86 0 115.5 -7.5t29.5 -29.5q0 -13 -2 -19q-46 -170 -151.5 -481t-184.5 -504 q-42 -102 -77 -164.5t-82 -109.5t-106 -66.5t-142 -19.5h-25q-35 0 -50 0.5t-36 4t-28 10.5t-16 21.5t-11 35.5t-2 53q0 77 10 100t37 23q6 0 36 -3t58 -3z" />
<glyph unicode="z" horiz-adv-x="991" d="M844 764l-424 -535h448q24 0 30.5 -20t6.5 -94q0 -75 -6.5 -95t-30.5 -20h-749q-25 0 -31 18.5t-6 92.5q0 65 27 104l450 563h-424q-24 0 -30.5 20t-6.5 95t6.5 95t30.5 20h721q25 0 31 -18.5t6 -92.5q0 -50 -8.5 -72.5t-40.5 -60.5z" />
<glyph unicode="{" horiz-adv-x="757" d="M41 524q0 68 8 87.5t35 19.5h41q32 0 49 20.5t25 79t8 172.5q0 58 1 96.5t5 88t11.5 82.5t21 71t33 62.5t47.5 49t64.5 38t84.5 22t107 8.5h65q26 0 33.5 -18.5t7.5 -87.5q0 -70 -7 -88.5t-32 -18.5h-53q-86 0 -109.5 -69t-23.5 -283q0 -148 -32.5 -227.5t-100.5 -104.5 q68 -25 100.5 -104t32.5 -227q0 -214 23.5 -283.5t109.5 -69.5h53q25 0 32 -18t7 -88q0 -69 -8 -88t-33 -19h-65q-59 0 -107 8.5t-84.5 22t-64.5 38t-47.5 49t-33 62.5t-21 71t-11.5 82.5t-5 88t-1 96.5q0 115 -8 173.5t-25 79t-49 20.5h-41q-27 0 -35 19t-8 87z" />
<glyph unicode="|" horiz-adv-x="692" d="M475 1374v-1741q0 -29 -23 -38t-106 -9t-106 9t-23 38v1741q0 29 23 38t106 9t106 -9t23 -38z" />
<glyph unicode="}" horiz-adv-x="757" d="M717 524q0 -68 -8 -87t-35 -19h-41q-32 0 -49 -20.5t-25 -79t-8 -173.5q0 -58 -1 -96.5t-5 -88t-11.5 -82.5t-21 -71t-33 -62.5t-47.5 -49t-64.5 -38t-84.5 -22t-107 -8.5h-65q-25 0 -33 19t-8 88q0 70 7 88t32 18h53q86 0 109.5 69.5t23.5 283.5q0 148 32.5 227 t100.5 104q-68 25 -100.5 104.5t-32.5 227.5q0 214 -23.5 283t-109.5 69h-53q-25 0 -32 18.5t-7 88.5q0 69 7.5 87.5t33.5 18.5h65q59 0 107 -8.5t84.5 -22t64.5 -38t47.5 -49t33 -62.5t21 -71t11.5 -82.5t5 -88t1 -96.5q0 -114 8 -172.5t25 -79t49 -20.5h41q27 0 35 -19.5 t8 -87.5z" />
<glyph unicode="~" horiz-adv-x="1150" d="M524 709l160 -82q56 -27 80 -27q38 0 61 24t39 76q5 16 20 21.5t68 5.5q56 0 73.5 -10.5t10.5 -40.5q-34 -131 -99 -203t-179 -72q-63 0 -131 33l-160 82q-56 27 -80 27q-38 0 -61 -24.5t-39 -76.5q-5 -16 -20 -21t-68 -5q-56 0 -73.5 10.5t-10.5 40.5q33 130 99 202 t179 72q65 0 131 -32z" />
<glyph unicode="&#xa1;" horiz-adv-x="606" d="M303 555q73 0 95 -9.5t22 -37.5l41 -805q2 -36 -26 -46.5t-132 -10.5t-132 10.5t-26 46.5l41 805q2 29 23 38t94 9zM303 692q-100 0 -128 10t-28 46v204q0 39 27 49.5t129 10.5q101 0 128.5 -11t27.5 -49v-204q0 -36 -28 -46t-128 -10z" />
<glyph unicode="&#xa2;" horiz-adv-x="1089" d="M563 -4q-77 0 -97 7t-20 34v131q-182 30 -267 157t-85 357t85 357t267 157v135q0 27 20 34t97 7t97 -7t20 -34v-131q299 -40 309 -309q0 -38 -24 -47.5t-121 -9.5q-56 0 -82.5 5t-34 14.5t-8.5 31.5q-3 63 -64 80v-568q67 22 70 90q1 21 9 31t34.5 15.5t81.5 5.5 q97 0 121 -9.5t24 -48.5q0 -129 -78 -212.5t-237 -104.5v-127q0 -27 -20 -34t-97 -7zM373 682q0 -122 22 -186t76 -88v548q-54 -26 -76 -89.5t-22 -184.5z" />
<glyph unicode="&#xa3;" horiz-adv-x="1228" d="M268 2q-29 -16 -55 6.5t-57 75.5q-1 2 -7.5 12.5t-10 16t-10 17.5t-9.5 19.5t-6.5 18.5t-3.5 19.5t1.5 17t7.5 15t15 11.5q63 38 107.5 106.5t44.5 145.5q0 31 -13 103h-145q-25 0 -31 17t-6 83q0 68 6 85t31 17h68q-37 105 -37 201q0 185 116.5 286t354.5 101 q235 0 348 -92.5t113 -279.5q0 -42 -26 -54t-114 -12q-86 0 -112.5 10.5t-26.5 42.5q0 71 -45.5 105t-138.5 34q-185 0 -185 -155q0 -86 33 -187h289q24 0 30.5 -17.5t6.5 -84.5q0 -65 -6.5 -82.5t-30.5 -17.5h-223q14 -65 14 -117q0 -95 -45 -197q98 -39 211 -39 q79 0 111.5 35.5t35.5 126.5q0 33 26.5 43.5t113.5 10.5q84 0 111.5 -14t27.5 -52q0 -89 -18 -157.5t-50 -112t-79 -71.5t-99.5 -39t-118.5 -11q-202 0 -389 108q-66 -69 -125 -98z" />
<glyph unicode="&#xa4;" horiz-adv-x="1191" d="M119 330l82 82q-47 100 -47 264q0 162 47 262l-82 84q-12 12 -2.5 31.5t45.5 56.5q37 36 56.5 45.5t31.5 -2.5l76 -76q106 64 270 64t270 -64l76 76q12 12 31.5 2.5t56.5 -45.5q36 -37 45.5 -56.5t-2.5 -31.5l-84 -84q49 -104 49 -262q0 -160 -49 -264l84 -82 q12 -12 2.5 -31.5t-45.5 -56.5q-37 -36 -56.5 -45.5t-31.5 2.5l-76 73q-101 -61 -270 -61t-270 61l-76 -73q-12 -12 -31.5 -2.5t-56.5 45.5q-36 37 -45.5 56.5t2.5 31.5zM596 434q110 0 156.5 55t46.5 187t-46.5 187t-156.5 55t-156.5 -55t-46.5 -187t46.5 -187t156.5 -55z " />
<glyph unicode="&#xa5;" horiz-adv-x="1200" d="M1042 342h-294v-299q0 -31 -25.5 -40t-122.5 -9q-95 0 -121 9t-26 40v299h-297q-22 0 -27.5 15.5t-5.5 78.5q0 64 5.5 80t27.5 16h270l-61 119h-209q-22 0 -27.5 15.5t-5.5 78.5q0 64 5.5 80.5t27.5 16.5h114q-155 317 -211 463q-15 32 20 44q33 11 122 11q67 0 97.5 -4 t42 -14t19.5 -33q90 -246 240 -566q147 322 240 566q8 23 19.5 33t42 14t97.5 4t101.5 -6.5t41 -18.5t-0.5 -30q-70 -174 -211 -463h112q23 0 29 -16.5t6 -80.5q0 -63 -6 -78.5t-29 -15.5h-208q-14 -31 -62 -119h270q23 0 29 -16t6 -80q0 -63 -6 -78.5t-29 -15.5z" />
<glyph unicode="&#xa6;" horiz-adv-x="692" d="M475 309v-676q0 -29 -23 -38t-106 -9t-106 9t-23 38v676q0 29 23 38t106 9t106 -9t23 -38zM475 1374v-676q0 -29 -23 -38t-106 -9t-106 9t-23 38v676q0 29 23 38t106 9t106 -9t23 -38z" />
<glyph unicode="&#xa7;" horiz-adv-x="1183" d="M369 -74q5 -53 47.5 -80.5t138.5 -27.5q108 0 148 32t40 111q0 67 -46.5 99.5t-186.5 68.5q-74 19 -113 31t-101 41.5t-94 64t-57.5 93.5t-25.5 135q0 212 174 292q-129 97 -129 263q0 327 436 327q222 0 320 -73.5t98 -219.5q0 -36 -22 -46.5t-105 -10.5q-56 0 -80 4 t-31 13t-8 30q-3 52 -41 77.5t-127 25.5q-170 0 -170 -119q0 -71 55.5 -115.5t176.5 -77.5q152 -40 199 -61q127 -53 166 -158q22 -57 22 -135q0 -208 -158 -289q111 -89 111 -266q0 -163 -103 -250.5t-338 -87.5q-124 0 -212 21.5t-137 62.5t-71 93.5t-22 121.5 q0 36 21.5 46.5t105.5 10.5q78 0 97 -8.5t22 -38.5zM535 684h-9q-68 -12 -110.5 -54.5t-42.5 -103.5q0 -35 12 -63t30 -46t49.5 -33t58.5 -24t69 -20q12 -4 57 -14q160 22 160 170q0 37 -13.5 65t-29.5 44.5t-56 31.5t-63 21t-81 19q-20 5 -31 7z" />
<glyph unicode="&#xa8;" horiz-adv-x="749" d="M174 1389q87 0 111 -12t24 -56v-117q0 -44 -24.5 -56.5t-110.5 -12.5q-91 0 -113 14t-22 68v104q0 44 23.5 56t111.5 12zM575 1389q87 0 111.5 -12t24.5 -56v-117q0 -44 -24.5 -56.5t-111.5 -12.5q-91 0 -113 14t-22 68v104q0 44 23.5 56t111.5 12z" />
<glyph unicode="&#xa9;" horiz-adv-x="1613" d="M492 676q0 212 75.5 304.5t251.5 92.5q140 0 214.5 -64.5t74.5 -183.5q0 -25 -16 -32t-70 -7t-70 7t-16 28q-3 52 -29.5 76.5t-85.5 24.5q-86 0 -118.5 -51.5t-32.5 -194.5q0 -144 32.5 -195t118.5 -51q56 0 87.5 27t31.5 80q0 21 15.5 27.5t68.5 6.5q51 0 68.5 -6.5 t17.5 -27.5q0 -258 -291 -258q-176 0 -251.5 92.5t-75.5 304.5zM807 1374q352 0 507.5 -165.5t155.5 -530.5q0 -366 -155 -531t-508 -165t-508.5 165t-155.5 531q0 365 156 530.5t508 165.5zM807 131q277 0 390.5 123t113.5 424q0 299 -113.5 422t-390.5 123t-390.5 -123 t-113.5 -422q0 -301 113.5 -424t390.5 -123z" />
<glyph unicode="&#xaa;" horiz-adv-x="749" d="M455 973h-125q-46 0 -65 -13.5t-19 -48.5q0 -34 19 -45.5t61 -11.5q58 0 93.5 22t35.5 66v31zM276 1171q0 -19 -12.5 -23.5t-70.5 -4.5q-61 0 -76 6t-15 31q0 94 63.5 143t203.5 49q150 0 210 -55.5t60 -169.5v-389q0 -23 -15 -29t-75 -6t-75 6t-15 29l-2 49 q-58 -90 -185 -90q-103 0 -150.5 49t-47.5 133q0 98 54.5 142t180.5 44h146v54q0 48 -18.5 65t-71.5 17q-49 0 -69 -11.5t-20 -38.5z" />
<glyph unicode="&#xab;" horiz-adv-x="1142" d="M98 561q0 42 21 72l174 244q17 23 42 29.5t101 6.5q132 0 132 -30q-1 -8 -7 -17l-221 -305l221 -305q25 -33 -41 -43q-31 -4 -84 -4q-75 0 -100 6.5t-43 30.5l-174 243q-21 30 -21 72zM553 561q0 43 20 72l175 244q17 23 42 29.5t101 6.5q132 0 132 -30q-1 -8 -7 -17 l-221 -305l221 -305q25 -33 -41 -43q-32 -4 -84 -4q-75 0 -100 6.5t-43 30.5l-175 243q-20 29 -20 72z" />
<glyph unicode="&#xad;" horiz-adv-x="839" d="M145 670h551q25 0 33 -20.5t8 -92.5t-8 -92.5t-33 -20.5h-551q-27 0 -35 20.5t-8 92.5t8 92.5t35 20.5z" />
<glyph unicode="&#xae;" horiz-adv-x="1122" d="M561 1372q238 0 344.5 -113t106.5 -350q0 -238 -106.5 -350.5t-344.5 -112.5q-236 0 -343 112.5t-107 350.5q0 237 107 350t343 113zM561 559q185 0 257.5 79t72.5 271q0 190 -72.5 269t-257.5 79q-184 0 -256 -79t-72 -269q0 -192 72 -271t256 -79zM549 844h-37v-160 q0 -11 -11 -14.5t-46 -3.5q-36 0 -47 3.5t-11 14.5v446q0 10 9 14.5t38 4.5h131q101 0 146 -37.5t45 -120.5q0 -47 -18 -78t-66 -49q32 -23 49 -47q43 -58 43 -135q0 -14 -59 -14q-31 0 -40.5 3.5t-12.5 14.5q-8 51 -29 94q-31 61 -84 64zM512 1053v-123h61q46 0 64 13.5 t18 47.5q0 37 -17.5 49.5t-64.5 12.5h-61z" />
<glyph unicode="&#xaf;" horiz-adv-x="749" d="M662 1147h-574q-22 0 -27.5 15.5t-5.5 76.5q0 60 5.5 76t27.5 16h574q21 0 26.5 -15.5t5.5 -76.5q0 -62 -5 -77t-27 -15z" />
<glyph unicode="&#xb0;" horiz-adv-x="761" d="M381 1372q141 0 207.5 -66t66.5 -200q0 -132 -66.5 -198t-207.5 -66t-208 66t-67 198q0 133 67 199.5t208 66.5zM381 985q67 0 95 28.5t28 92.5q0 65 -28 94t-95 29t-95 -29t-28 -94q0 -64 28 -92.5t95 -28.5z" />
<glyph unicode="&#xb1;" horiz-adv-x="1150" d="M692 1184v-281h287q25 0 33 -20t8 -92t-8 -92.5t-33 -20.5h-287v-279q0 -27 -21 -35t-96 -8t-95.5 8t-20.5 35v279h-285q-27 0 -35 20.5t-8 92.5t8 92t35 20h285v281q0 25 20.5 33t95.5 8t96 -8t21 -33zM174 225h805q25 0 33 -20t8 -92t-8 -92.5t-33 -20.5h-805 q-27 0 -35 20.5t-8 92.5t8 92t35 20z" />
<glyph unicode="&#xb2;" horiz-adv-x="729" d="M610 653h-499q-18 0 -23.5 13.5t-5.5 62.5v23q0 26 6.5 49t22.5 43.5t29.5 35t40 33t42 27.5t48 27.5t44.5 25.5q62 36 95.5 71.5t33.5 82.5q0 80 -84 80q-46 0 -69.5 -18t-24.5 -60q-2 -20 -16.5 -25.5t-71.5 -5.5q-53 0 -70.5 6.5t-17.5 26.5q0 118 70 171.5t205 53.5 q134 0 196 -59t62 -160q0 -50 -17 -91t-50.5 -73t-63.5 -53t-74 -45q-3 -2 -18 -10t-19 -10t-17 -9.5t-17.5 -10t-14.5 -9t-14.5 -10t-11.5 -9t-12 -10.5t-9 -10h325q16 0 20.5 -13.5t4.5 -64.5q0 -49 -4.5 -62.5t-20.5 -13.5z" />
<glyph unicode="&#xb3;" horiz-adv-x="729" d="M346 954h-55q-15 0 -20 11t-5 51q0 42 4.5 52.5t20.5 10.5h57q54 0 75 17.5t21 64.5q0 38 -22.5 54t-67.5 16q-89 0 -92 -57q-1 -14 -6.5 -19.5t-23 -8.5t-56.5 -3q-57 0 -72.5 6.5t-15.5 32.5q3 196 270 196q133 0 199 -53t66 -151q0 -109 -91 -152q103 -33 103 -160 q0 -105 -69.5 -162t-203.5 -57q-277 0 -280 197q-1 26 14.5 32.5t71.5 6.5q57 0 71 -5.5t17 -27.5q3 -28 26.5 -40.5t75.5 -12.5t75.5 20.5t23.5 63.5q0 44 -26 60.5t-85 16.5z" />
<glyph unicode="&#xb4;" horiz-adv-x="749" d="M582 1278l-342 -152q-22 -9 -34.5 0t-35.5 50q-23 43 -23.5 57.5t19.5 26.5l317 202q17 15 35.5 1t50.5 -74q22 -41 29 -63.5t3 -31.5t-19 -16z" />
<glyph unicode="&#xb6;" horiz-adv-x="1159" d="M1071 1167h-104q-66 0 -88.5 -22t-22.5 -90v-1071q0 -92 -14.5 -158t-39.5 -106.5t-66 -64t-86.5 -32t-108.5 -8.5q-81 0 -125 14q-28 8 -36.5 27.5t-8.5 85.5q0 77 9 98t38 21q7 0 28.5 -2t30.5 -2q57 0 83 31t26 118v440h-29q-108 0 -180.5 13.5t-127 44t-85 86.5 t-44.5 135.5t-14 196.5q0 145 21 234.5t75.5 144.5t137.5 75.5t217 20.5h514q25 0 32 -21t7 -94q0 -74 -7 -94.5t-32 -20.5z" />
<glyph unicode="&#xb7;" horiz-adv-x="532" d="M266 393q-100 0 -127.5 10t-27.5 46v204q0 39 26.5 49.5t128.5 10.5q101 0 128.5 -11t27.5 -49v-204q0 -36 -28 -46t-128 -10z" />
<glyph unicode="&#xb8;" horiz-adv-x="749" d="M428 -90h8q58 0 95 -6t67 -23.5t43.5 -51.5t13.5 -87q0 -104 -51 -142t-162 -38h-204q-17 0 -21 11t-4 56t4 56.5t21 11.5h206q28 3 39 12.5t11 32.5q0 27 -16.5 37t-55.5 10h-103q-36 0 -51 7t-8 28l55 176q4 13 17 16.5t55 3.5q40 0 53 -4.5t9 -21.5z" />
<glyph unicode="&#xb9;" horiz-adv-x="729" d="M598 653h-444q-18 0 -22.5 13t-4.5 63q0 52 4.5 65t22.5 13h137v387l-129 -25q-19 -3 -25 12t-6 66q0 47 5.5 61t21.5 17l272 51q41 7 41 -24v-545h127q16 0 20.5 -13.5t4.5 -64.5q0 -49 -4.5 -62.5t-20.5 -13.5z" />
<glyph unicode="&#xba;" horiz-adv-x="786" d="M276 1042q0 -98 25 -137t92 -39t92 39t25 137q0 99 -25.5 139t-91.5 40t-91.5 -40t-25.5 -139zM90 1042q0 170 70.5 250t232.5 80t232.5 -80t70.5 -250q0 -169 -70.5 -248t-232.5 -79t-232.5 79t-70.5 248z" />
<glyph unicode="&#xbb;" horiz-adv-x="1142" d="M590 561q0 -42 -21 -72l-174 -243q-18 -24 -43 -30.5t-100 -6.5q-132 0 -132 30q0 8 7 17l221 305l-221 305q-25 33 41 43q32 4 84 4q76 0 101 -6.5t42 -29.5l174 -244q21 -30 21 -72zM1044 561q0 -43 -20 -72l-174 -243q-18 -24 -43 -30.5t-100 -6.5q-132 0 -132 30 q0 8 7 17l221 305l-221 305q-25 33 41 43q32 4 84 4q76 0 101 -6.5t42 -29.5l174 -244q20 -29 20 -72z" />
<glyph unicode="&#xbc;" horiz-adv-x="1724" d="M1409 1311l-702 -1272q-11 -21 -17.5 -27t-31 -11t-78.5 -5q-63 0 -82.5 9.5t-5.5 37.5l702 1272q11 21 17.5 27t31 11t78.5 5q63 0 82.5 -9.5t5.5 -37.5zM1462 -2q-59 0 -74.5 6.5t-15.5 28.5v135h-315q-19 0 -24 12t-5 58q0 32 3.5 44.5t15.5 30.5l292 383 q12 16 31.5 20.5t77.5 4.5q65 0 83.5 -5.5t18.5 -25.5v-377h78q17 0 22 -12t5 -59q0 -49 -5 -61.5t-22 -12.5h-78v-135q0 -22 -15 -28.5t-73 -6.5zM598 651h-444q-18 0 -22.5 13t-4.5 63q0 52 4.5 65t22.5 13h137v387l-129 -25q-19 -3 -25 12t-6 66q0 47 5.5 61t21.5 17 l272 51q41 7 41 -24v-545h127q16 0 20.5 -13.5t4.5 -64.5q0 -49 -4.5 -62.5t-20.5 -13.5zM1194 313h186v242z" />
<glyph unicode="&#xbd;" horiz-adv-x="1724" d="M1352 1311l-703 -1272q-11 -21 -17.5 -27t-31 -11t-78.5 -5q-63 0 -82.5 9.5t-5.5 37.5l703 1272q11 21 17.5 27t31 11t78.5 5q63 0 82.5 -9.5t5.5 -37.5zM1606 -10h-500q-18 0 -23.5 13.5t-5.5 62.5v22q0 26 6.5 49t22.5 43.5t29.5 35.5t40.5 33t42 27.5t48 28t45 25.5 q62 36 95.5 71t33.5 82q0 80 -84 80q-46 0 -69.5 -18t-24.5 -60q-1 -20 -16 -25t-72 -5q-54 0 -71.5 6t-17.5 26q0 118 70 172t205 54q134 0 196 -59t62 -160q0 -40 -12.5 -76t-31 -61.5t-48.5 -50.5t-54.5 -40.5t-58.5 -34.5q-3 -2 -18 -10t-19 -10t-17 -9.5t-17.5 -10 t-14.5 -9t-14.5 -10t-11.5 -9t-12 -10.5t-9 -10h326q15 0 19.5 -13t4.5 -64q0 -50 -4.5 -63t-19.5 -13zM598 651h-444q-18 0 -22.5 13t-4.5 63q0 52 4.5 65t22.5 13h137v387l-129 -25q-19 -3 -25 12t-6 66q0 47 5.5 61t21.5 17l272 51q41 7 41 -24v-545h127q16 0 20.5 -13.5 t4.5 -64.5q0 -49 -4.5 -62.5t-20.5 -13.5z" />
<glyph unicode="&#xbe;" horiz-adv-x="1724" d="M1376 1311l-702 -1272q-11 -21 -17.5 -27t-31 -11t-78.5 -5q-63 0 -82.5 9.5t-5.5 37.5l702 1272q11 21 17.5 27t31 11t78.5 5q63 0 82.5 -9.5t5.5 -37.5zM1462 -2q-59 0 -74.5 6.5t-15.5 28.5v135h-315q-19 0 -24 12t-5 58q0 32 3.5 44.5t15.5 30.5l292 383 q12 16 31.5 20.5t77.5 4.5q65 0 83.5 -5.5t18.5 -25.5v-377h78q17 0 22 -12t5 -59q0 -49 -5 -61.5t-22 -12.5h-78v-135q0 -22 -15 -28.5t-73 -6.5zM346 952h-55q-15 0 -20 11t-5 51q0 42 4.5 52.5t20.5 10.5h57q54 0 75 17.5t21 64.5q0 38 -22.5 54t-67.5 16q-89 0 -92 -58 q-2 -19 -16 -24.5t-70 -5.5q-57 0 -72.5 6.5t-15.5 32.5q3 196 270 196q133 0 199 -53.5t66 -151.5q0 -108 -91 -151q103 -33 103 -160q0 -105 -69.5 -162t-203.5 -57q-277 0 -280 197q-1 26 14.5 32.5t71.5 6.5q57 0 71 -5.5t17 -27.5q3 -28 26.5 -40.5t75.5 -12.5t75.5 20 t23.5 63q0 44 -26 61t-85 17zM1194 313h186v242z" />
<glyph unicode="&#xbf;" horiz-adv-x="1130" d="M461 479l4 39q3 29 23.5 37t99.5 8q56 0 81.5 -4.5t32.5 -12.5t9 -28l4 -45q4 -46 -11 -86.5t-42 -71t-61 -58t-69 -54t-63.5 -53.5t-47 -60.5t-18.5 -71.5q0 -75 41 -110t127 -35q91 0 135 36.5t50 115.5q1 22 10 32.5t37 15.5t88 5q89 0 115 -12.5t26 -51.5 q0 -383 -467 -383q-118 0 -206.5 28t-139.5 77.5t-75.5 111.5t-24.5 136q0 70 18 126t46.5 91.5t63.5 64t71 51t66.5 44t51.5 51.5t25 67zM590 692q-100 0 -128 10t-28 46v204q0 39 27 49.5t129 10.5q101 0 128 -10.5t27 -49.5v-204q0 -36 -27.5 -46t-127.5 -10z" />
<glyph unicode="&#xc0;" horiz-adv-x="1249" d="M1063 -4q-98 0 -127 10t-37 47q-26 124 -65 271h-420q-49 -201 -64 -271q-8 -37 -37 -47t-127 -10q-89 0 -115 11t-18 42q60 252 181.5 657t201.5 603q12 30 48 40.5t141 10.5t140.5 -10.5t47.5 -40.5q80 -198 201.5 -603t181.5 -657q8 -31 -18 -42t-115 -11zM610 1458 l-362 146q-16 7 -20.5 16.5t1.5 33t27 66.5q31 63 50 78t36 -2l340 -199q21 -12 21 -27.5t-23 -58.5q-21 -44 -34 -53.5t-36 0.5zM625 1055q-87 -276 -148 -496h295q-69 247 -147 496z" />
<glyph unicode="&#xc1;" horiz-adv-x="1249" d="M1063 -4q-98 0 -127 10t-37 47q-26 124 -65 271h-420q-49 -201 -64 -271q-8 -37 -37 -47t-127 -10q-89 0 -115 11t-18 42q60 252 181.5 657t201.5 603q12 30 48 40.5t141 10.5t140.5 -10.5t47.5 -40.5q80 -198 201.5 -603t181.5 -657q8 -31 -18 -42t-115 -11zM1006 1604 l-363 -146q-23 -10 -36 -0.5t-34 53.5q-23 43 -23 58.5t21 27.5l340 199q17 17 36 2t50 -78q21 -44 27.5 -67t2 -32.5t-20.5 -16.5zM625 1055q-87 -276 -148 -496h295q-69 247 -147 496z" />
<glyph unicode="&#xc2;" horiz-adv-x="1249" d="M1063 -4q-98 0 -127 10t-37 47q-26 124 -65 271h-420q-49 -201 -64 -271q-8 -37 -37 -47t-127 -10q-89 0 -115 11t-18 42q60 252 181.5 657t201.5 603q12 30 48 40.5t141 10.5t140.5 -10.5t47.5 -40.5q80 -198 201.5 -603t181.5 -657q8 -31 -18 -42t-115 -11zM625 1585 l-113 -106q-25 -25 -90 -25q-104 0 -104 25q1 9 8 18l182 213q12 15 21 22t32.5 12t63.5 5q58 0 78 -8.5t38 -30.5l183 -213q26 -33 -39 -40l-58 -3q-65 0 -90 25zM625 1055q-87 -276 -148 -496h295q-69 247 -147 496z" />
<glyph unicode="&#xc3;" horiz-adv-x="1249" d="M1063 -4q-98 0 -127 10t-37 47q-26 124 -65 271h-420q-49 -201 -64 -271q-8 -37 -37 -47t-127 -10q-89 0 -115 11t-18 42q60 252 181.5 657t201.5 603q12 30 48 40.5t141 10.5t140.5 -10.5t47.5 -40.5q80 -198 201.5 -603t181.5 -657q8 -31 -18 -42t-115 -11zM788 1663 l3 25q2 22 15 28t64 6q47 0 64 -7t16 -29l-4 -68q-11 -170 -174 -166q-57 0 -137 41l-90 49q-25 14 -45 14q-36 0 -39 -47l-2 -24q-2 -22 -15.5 -28.5t-64.5 -6.5q-46 0 -63.5 7.5t-16.5 29.5l4 67q11 170 174 166q57 0 137 -41l91 -49q25 -14 45 -14q35 0 38 47zM625 1055 q-87 -276 -148 -496h295q-69 247 -147 496z" />
<glyph unicode="&#xc4;" horiz-adv-x="1249" d="M1063 -4q-98 0 -127 10t-37 47q-26 124 -65 271h-420q-49 -201 -64 -271q-8 -37 -37 -47t-127 -10q-89 0 -115 11t-18 42q60 252 181.5 657t201.5 603q12 30 48 40.5t141 10.5t140.5 -10.5t47.5 -40.5q80 -198 201.5 -603t181.5 -657q8 -31 -18 -42t-115 -11zM625 1055 q-87 -276 -148 -496h295q-69 247 -147 496zM416 1714q87 0 110 -11.5t23 -55.5v-117q0 -45 -23.5 -57.5t-109.5 -12.5q-63 0 -90 6.5t-35 22t-8 53.5v105q0 44 22.5 55.5t110.5 11.5zM834 1714q87 0 110 -11.5t23 -55.5v-117q0 -45 -23.5 -57.5t-109.5 -12.5q-90 0 -112 14 t-22 68v105q0 44 23 55.5t111 11.5z" />
<glyph unicode="&#xc5;" horiz-adv-x="1249" d="M1063 -4q-98 0 -127 10t-37 47q-26 124 -65 271h-420q-49 -201 -64 -271q-8 -37 -37 -47t-127 -10q-89 0 -115 11t-18 42q60 252 181.5 657t201.5 603q0 4 4 8q-34 49 -34 131q0 207 219 207t219 -207q0 -81 -35 -131q0 -4 4 -8q80 -198 201.5 -603t181.5 -657 q8 -31 -18 -42t-115 -11zM625 1055q-87 -276 -148 -496h295q-69 247 -147 496zM625 1362q46 0 68 20.5t22 65.5t-22 65.5t-68 20.5t-68 -20.5t-22 -65.5t22 -65.5t68 -20.5z" />
<glyph unicode="&#xc6;" horiz-adv-x="1884" d="M1718 1106h-514v-289h443q30 0 37.5 -20.5t7.5 -104.5t-7.5 -104.5t-37.5 -20.5h-443v-317h525q19 0 27.5 -8t13 -34.5t4.5 -82.5q0 -82 -8.5 -103.5t-36.5 -21.5h-672q-94 0 -119 9t-25 40v279h-454q-64 -141 -117 -275q-15 -37 -46.5 -47t-129.5 -10q-81 0 -110 10 t-15 43q354 810 600 1254q18 32 52.5 42.5t140.5 10.5h884q19 0 27.5 -8t13 -34.5t4.5 -82.5q0 -82 -8.5 -103.5t-36.5 -21.5zM827 1106q-123 -244 -254 -528h340v528h-86z" />
<glyph unicode="&#xc7;" horiz-adv-x="1257" d="M657 -86h9q62 0 100 -6t69 -24t44.5 -53t13.5 -91q0 -109 -52.5 -147.5t-168.5 -38.5h-213q-17 0 -21 11.5t-4 57.5q0 47 4 58.5t21 11.5h215q29 3 40 13.5t11 33.5q0 28 -16.5 38.5t-57.5 10.5h-106q-37 0 -53 7t-9 30l49 164q-228 32 -327 195t-99 493q0 374 129.5 536 t436.5 162q239 0 360 -108.5t123 -309.5q0 -39 -26 -50t-117 -11q-89 0 -114.5 10t-27.5 43q-3 87 -48.5 129.5t-149.5 42.5q-105 0 -161 -38t-82 -133t-26 -273q0 -134 13 -218.5t46 -136t82 -71t128 -19.5q103 0 150 44.5t52 136.5q2 33 27.5 43t114.5 10t116 -10t27 -45 q-3 -432 -487 -432z" />
<glyph unicode="&#xc8;" horiz-adv-x="1163" d="M997 1106h-559v-289h488q30 0 37.5 -20.5t7.5 -104.5t-7.5 -104.5t-37.5 -20.5h-488v-317h570q19 0 27.5 -8t13 -34.5t4.5 -82.5q0 -82 -8.5 -103.5t-36.5 -21.5h-717q-94 0 -119 9t-25 40v1256q0 32 25.5 41.5t118.5 9.5h706q19 0 27.5 -8t13 -34.5t4.5 -82.5 q0 -82 -8.5 -103.5t-36.5 -21.5zM627 1458l-363 146q-16 7 -20.5 16.5t1.5 33t27 66.5q31 63 50 78t36 -2l340 -199q21 -12 21 -27.5t-23 -58.5q-22 -44 -34 -53t-35 0z" />
<glyph unicode="&#xc9;" horiz-adv-x="1163" d="M997 1106h-559v-289h488q30 0 37.5 -20.5t7.5 -104.5t-7.5 -104.5t-37.5 -20.5h-488v-317h570q19 0 27.5 -8t13 -34.5t4.5 -82.5q0 -82 -8.5 -103.5t-36.5 -21.5h-717q-94 0 -119 9t-25 40v1256q0 32 25.5 41.5t118.5 9.5h706q19 0 27.5 -8t13 -34.5t4.5 -82.5 q0 -82 -8.5 -103.5t-36.5 -21.5zM926 1604l-363 -146q-23 -9 -35 0t-34 53q-23 43 -23 58.5t21 27.5l339 199q17 17 36.5 2t50.5 -78q21 -43 27 -66.5t1.5 -33t-20.5 -16.5z" />
<glyph unicode="&#xca;" horiz-adv-x="1163" d="M997 1106h-559v-289h488q30 0 37.5 -20.5t7.5 -104.5t-7.5 -104.5t-37.5 -20.5h-488v-317h570q19 0 27.5 -8t13 -34.5t4.5 -82.5q0 -82 -8.5 -103.5t-36.5 -21.5h-717q-94 0 -119 9t-25 40v1256q0 32 25.5 41.5t118.5 9.5h706q19 0 27.5 -8t13 -34.5t4.5 -82.5 q0 -82 -8.5 -103.5t-36.5 -21.5zM600 1585l-113 -106q-25 -25 -90 -25q-104 0 -104 25q1 9 8 18l182 213q12 15 21 22t32.5 12t63.5 5q58 0 78.5 -8.5t38.5 -30.5l182 -213q26 -33 -40 -41l-56 -2q-65 0 -90 25z" />
<glyph unicode="&#xcb;" horiz-adv-x="1163" d="M997 1106h-559v-289h488q30 0 37.5 -20.5t7.5 -104.5t-7.5 -104.5t-37.5 -20.5h-488v-317h570q19 0 27.5 -8t13 -34.5t4.5 -82.5q0 -82 -8.5 -103.5t-36.5 -21.5h-717q-94 0 -119 9t-25 40v1256q0 32 25.5 41.5t118.5 9.5h706q19 0 27.5 -8t13 -34.5t4.5 -82.5 q0 -82 -8.5 -103.5t-36.5 -21.5zM395 1714q87 0 110 -11.5t23 -55.5v-117q0 -45 -23.5 -57.5t-109.5 -12.5q-63 0 -90 6.5t-35 22t-8 53.5v105q0 44 22.5 55.5t110.5 11.5zM813 1714q87 0 110 -11.5t23 -55.5v-117q0 -45 -23.5 -57.5t-109.5 -12.5q-63 0 -90 6.5t-35 22 t-8 53.5v105q0 44 22.5 55.5t110.5 11.5z" />
<glyph unicode="&#xcc;" horiz-adv-x="598" d="M299 -4q-67 0 -96.5 4t-39 13.5t-9.5 31.5v1264q0 23 9.5 33t39 14t96.5 4q95 0 120 -9t25 -42v-1264q0 -22 -10 -31.5t-39.5 -13.5t-95.5 -4zM283 1458l-363 146q-16 7 -20.5 16.5t1.5 33t27 66.5q31 63 50 78t36 -2l340 -199q21 -12 21 -27.5t-23 -58.5 q-22 -44 -34 -53t-35 0z" />
<glyph unicode="&#xcd;" horiz-adv-x="598" d="M299 -4q-67 0 -96.5 4t-39 13.5t-9.5 31.5v1264q0 23 9.5 33t39 14t96.5 4q95 0 120 -9t25 -42v-1264q0 -22 -10 -31.5t-39.5 -13.5t-95.5 -4zM676 1604l-363 -146q-23 -9 -35 0t-34 53q-23 43 -23 58.5t21 27.5l340 199q17 17 36 2t50 -78q21 -43 27 -66.5t1.5 -33 t-20.5 -16.5z" />
<glyph unicode="&#xce;" horiz-adv-x="598" d="M299 -4q-67 0 -96.5 4t-39 13.5t-9.5 31.5v1264q0 23 9.5 33t39 14t96.5 4q95 0 120 -9t25 -42v-1264q0 -22 -10 -31.5t-39.5 -13.5t-95.5 -4zM299 1585l-113 -106q-25 -25 -90 -25q-104 0 -104 25q1 9 8 18l182 213q12 15 21 22t32.5 12t63.5 5q58 0 78.5 -8.5 t38.5 -30.5l182 -213q26 -33 -40 -41l-56 -2q-65 0 -90 25z" />
<glyph unicode="&#xcf;" horiz-adv-x="598" d="M299 -4q-67 0 -96.5 4t-39 13.5t-9.5 31.5v1264q0 23 9.5 33t39 14t96.5 4q95 0 120 -9t25 -42v-1264q0 -22 -10 -31.5t-39.5 -13.5t-95.5 -4zM90 1714q87 0 110 -11.5t23 -55.5v-117q0 -45 -23.5 -57.5t-109.5 -12.5q-63 0 -90 6.5t-35 22t-8 53.5v105q0 44 22.5 55.5 t110.5 11.5zM508 1714q87 0 110 -11.5t23 -55.5v-117q0 -45 -23.5 -57.5t-109.5 -12.5q-63 0 -90 6.5t-35 22t-8 53.5v105q0 44 22.5 55.5t110.5 11.5z" />
<glyph unicode="&#xd0;" horiz-adv-x="1298" d="M621 0h-326q-94 0 -118.5 9t-24.5 40v510h-91q-22 0 -27 15t-5 77q0 61 5.5 76.5t26.5 15.5h91v562q0 32 25 41.5t118 9.5h326q312 0 441.5 -157t129.5 -521t-129.5 -521t-441.5 -157zM442 250h179q106 0 164 39t84 130.5t26 258.5q0 245 -59 336.5t-215 91.5h-179v-363 h187q22 0 27.5 -16t5.5 -76q0 -61 -5.5 -76.5t-27.5 -15.5h-187v-309z" />
<glyph unicode="&#xd1;" horiz-adv-x="1380" d="M1087 1360q67 0 97 -4t39.5 -13.5t9.5 -31.5v-1264q0 -22 -10 -32t-44 -14.5t-110 -4.5q-81 0 -108.5 9t-40.5 34l-482 835v-829q0 -22 -10 -31.5t-39.5 -13.5t-95.5 -4q-67 0 -97 4t-39.5 13.5t-9.5 31.5v1264q0 22 10 32t44 14.5t110 4.5q81 0 109 -9t41 -34l481 -838 v832q0 22 10 31.5t39.5 13.5t95.5 4zM854 1663l2 25q2 22 15 28t65 6q47 0 64 -7t16 -29l-4 -68q-11 -170 -174 -166q-58 0 -138 41l-90 49q-25 14 -45 14q-36 0 -39 -47l-2 -24q-2 -22 -15.5 -28.5t-64.5 -6.5q-46 0 -63 7.5t-16 29.5l4 67q11 170 174 166q57 0 137 -41 l90 -49q25 -14 45 -14q36 0 39 47z" />
<glyph unicode="&#xd2;" horiz-adv-x="1343" d="M672 1376q306 0 435.5 -162t129.5 -536t-129.5 -536t-435.5 -162q-307 0 -436.5 162t-129.5 536t129.5 536t436.5 162zM672 229q103 0 159.5 39.5t82.5 135.5t26 274t-26 274t-82 135t-160 39q-105 0 -161.5 -39t-82 -135t-25.5 -274t25.5 -274t82.5 -135.5t161 -39.5z M674 1458l-363 146q-16 7 -20.5 16.5t1.5 33t27 66.5q31 63 50.5 78t36.5 -2l339 -199q21 -12 21 -27.5t-23 -58.5q-22 -44 -34 -53t-35 0z" />
<glyph unicode="&#xd3;" horiz-adv-x="1343" d="M672 1376q306 0 435.5 -162t129.5 -536t-129.5 -536t-435.5 -162q-307 0 -436.5 162t-129.5 536t129.5 536t436.5 162zM672 229q103 0 159.5 39.5t82.5 135.5t26 274t-26 274t-82 135t-160 39q-105 0 -161.5 -39t-82 -135t-25.5 -274t25.5 -274t82.5 -135.5t161 -39.5z M1030 1604l-362 -146q-23 -10 -36 -0.5t-34 53.5q-23 43 -23 58.5t21 27.5l340 199q17 17 36 2t50 -78q21 -43 27 -66.5t1.5 -33t-20.5 -16.5z" />
<glyph unicode="&#xd4;" horiz-adv-x="1343" d="M672 1376q306 0 435.5 -162t129.5 -536t-129.5 -536t-435.5 -162q-307 0 -436.5 162t-129.5 536t129.5 536t436.5 162zM672 229q103 0 159.5 39.5t82.5 135.5t26 274t-26 274t-82 135t-160 39q-105 0 -161.5 -39t-82 -135t-25.5 -274t25.5 -274t82.5 -135.5t161 -39.5z M670 1585l-113 -106q-25 -25 -90 -25q-104 0 -104 25q1 9 8 18l182 213q12 15 21 22t32.5 12t63.5 5q58 0 78 -8.5t38 -30.5l183 -213q26 -33 -39 -40l-58 -3q-65 0 -90 25z" />
<glyph unicode="&#xd5;" horiz-adv-x="1343" d="M672 1376q306 0 435.5 -162t129.5 -536t-129.5 -536t-435.5 -162q-307 0 -436.5 162t-129.5 536t129.5 536t436.5 162zM672 229q103 0 159.5 39.5t82.5 135.5t26 274t-26 274t-82 135t-160 39q-105 0 -161.5 -39t-82 -135t-25.5 -274t25.5 -274t82.5 -135.5t161 -39.5z M834 1663l2 25q2 22 15 28t64 6q47 0 64 -7t16 -29l-4 -68q-11 -170 -174 -166q-57 0 -137 41l-90 49q-25 14 -45 14q-36 0 -39 -47l-2 -24q-2 -22 -15.5 -28.5t-64.5 -6.5q-46 0 -63.5 7.5t-16.5 29.5l4 67q11 170 174 166q57 0 137 -41l91 -49q25 -14 45 -14q36 0 39 47z " />
<glyph unicode="&#xd6;" horiz-adv-x="1343" d="M672 1376q306 0 435.5 -162t129.5 -536t-129.5 -536t-435.5 -162q-307 0 -436.5 162t-129.5 536t129.5 536t436.5 162zM672 229q103 0 159.5 39.5t82.5 135.5t26 274t-26 274t-82 135t-160 39q-105 0 -161.5 -39t-82 -135t-25.5 -274t25.5 -274t82.5 -135.5t161 -39.5z M461 1714q87 0 110 -11.5t23 -55.5v-117q0 -45 -23.5 -57.5t-109.5 -12.5q-63 0 -90 6.5t-35 22t-8 53.5v105q0 44 22.5 55.5t110.5 11.5zM879 1714q87 0 110 -11.5t23 -55.5v-117q0 -45 -23.5 -57.5t-109.5 -12.5q-90 0 -112 14t-22 68v105q0 44 23 55.5t111 11.5z" />
<glyph unicode="&#xd7;" horiz-adv-x="1150" d="M823 227l-248 248l-245 -246q-17 -20 -38 -11.5t-75 61.5q-53 54 -61 74.5t12 37.5l246 246l-246 246q-20 17 -12 37.5t61 74.5q54 52 75 60.5t38 -11.5l245 -245l248 248q16 19 36.5 10t74.5 -62q52 -54 61 -74t-10 -36l-248 -248l248 -248q19 -16 10 -36t-61 -74 q-54 -53 -74.5 -62t-36.5 10z" />
<glyph unicode="&#xd8;" horiz-adv-x="1351" d="M676 1376q154 0 266 -41l33 58q10 18 20 25t36 11.5t79 4.5q46 0 71 -6t29 -16t-2 -23l-104 -168q137 -165 137 -543q0 -374 -129.5 -536t-435.5 -162q-152 0 -264 38l-35 -63q-10 -18 -20 -25t-36 -11.5t-79 -4.5q-105 0 -103 32q0 6 4 13l103 176q-135 162 -135 543 q0 375 129 536.5t436 161.5zM676 229q103 0 159.5 39.5t82.5 135.5t26 274q0 169 -22 260l-390 -680q54 -29 144 -29zM408 678q0 -164 20 -254l391 674q-55 28 -143 28q-104 0 -160.5 -39t-82 -135t-25.5 -274z" />
<glyph unicode="&#xd9;" horiz-adv-x="1339" d="M670 -20q-282 0 -406.5 125.5t-124.5 402.5v801q0 33 24.5 42t121.5 9q95 0 120 -9t25 -42v-789q0 -153 52 -214.5t188 -61.5t187.5 61.5t51.5 214.5v789q0 33 25.5 42t120.5 9q67 0 96.5 -4t39 -14t9.5 -33v-801q0 -277 -124 -402.5t-406 -125.5zM649 1458l-362 146 q-16 7 -20.5 16.5t1.5 33t27 66.5q31 63 50 78t36 -2l340 -199q21 -12 21 -27.5t-23 -58.5q-21 -44 -34 -53.5t-36 0.5z" />
<glyph unicode="&#xda;" horiz-adv-x="1339" d="M670 -20q-282 0 -406.5 125.5t-124.5 402.5v801q0 33 24.5 42t121.5 9q95 0 120 -9t25 -42v-789q0 -153 52 -214.5t188 -61.5t187.5 61.5t51.5 214.5v789q0 33 25.5 42t120.5 9q67 0 96.5 -4t39 -14t9.5 -33v-801q0 -277 -124 -402.5t-406 -125.5zM1044 1604l-362 -146 q-23 -10 -36 -0.5t-34 53.5q-23 43 -23 58.5t21 27.5l340 199q17 17 36 2t50 -78q21 -43 27 -66.5t1.5 -33t-20.5 -16.5z" />
<glyph unicode="&#xdb;" horiz-adv-x="1339" d="M670 -20q-282 0 -406.5 125.5t-124.5 402.5v801q0 33 24.5 42t121.5 9q95 0 120 -9t25 -42v-789q0 -153 52 -214.5t188 -61.5t187.5 61.5t51.5 214.5v789q0 33 25.5 42t120.5 9q67 0 96.5 -4t39 -14t9.5 -33v-801q0 -277 -124 -402.5t-406 -125.5zM670 1585l-113 -106 q-25 -25 -90 -25q-104 0 -104 25q1 9 8 18l182 213q12 15 21 22t32.5 12t63.5 5q58 0 78 -8.5t38 -30.5l183 -213q26 -33 -39 -40l-58 -3q-65 0 -90 25z" />
<glyph unicode="&#xdc;" horiz-adv-x="1339" d="M670 -20q-282 0 -406.5 125.5t-124.5 402.5v801q0 33 24.5 42t121.5 9q95 0 120 -9t25 -42v-789q0 -153 52 -214.5t188 -61.5t187.5 61.5t51.5 214.5v789q0 33 25.5 42t120.5 9q67 0 96.5 -4t39 -14t9.5 -33v-801q0 -277 -124 -402.5t-406 -125.5zM461 1714 q87 0 110 -11.5t23 -55.5v-117q0 -45 -23.5 -57.5t-109.5 -12.5q-63 0 -90 6.5t-35 22t-8 53.5v105q0 44 22.5 55.5t110.5 11.5zM879 1714q87 0 110 -11.5t23 -55.5v-117q0 -45 -23.5 -57.5t-109.5 -12.5q-90 0 -112 14t-22 68v105q0 44 23 55.5t111 11.5z" />
<glyph unicode="&#xdd;" horiz-adv-x="1204" d="M852 1309q9 22 21 32t44.5 14.5t100.5 4.5q132 0 143 -30q4 -10 -2 -25q-59 -140 -187.5 -395t-223.5 -421v-446q0 -22 -9.5 -31.5t-39.5 -13.5t-97 -4q-66 0 -95.5 4t-39.5 13.5t-10 31.5v446q-96 168 -224.5 422.5t-187.5 393.5q-15 35 31 47q34 8 110 8 q68 0 100.5 -4.5t44.5 -14.5t21 -32q96 -258 250 -572q151 315 250 572zM985 1604l-362 -146q-23 -10 -36 -0.5t-34 53.5q-23 43 -23 58.5t21 27.5l340 199q17 17 36 2t50 -78q21 -43 27 -66.5t1.5 -33t-20.5 -16.5z" />
<glyph unicode="&#xde;" horiz-adv-x="1208" d="M610 293h-172v-248q0 -22 -10 -31.5t-39.5 -13.5t-95.5 -4q-67 0 -97 4t-39.5 13.5t-9.5 31.5v1264q0 33 24.5 42t121.5 9q95 0 120 -9t25 -42v-158h172q268 0 384 -102.5t116 -325.5q0 -224 -116.5 -327t-383.5 -103zM438 901v-358h164q119 0 165 39.5t46 140.5 q0 96 -50 137t-161 41h-164z" />
<glyph unicode="&#xdf;" horiz-adv-x="1419" d="M668 657q-24 0 -30.5 18.5t-6.5 88.5q0 68 6.5 86t30.5 18q170 8 237.5 46t67.5 139q0 164 -273 164q-87 0 -144.5 -15t-88.5 -47t-43 -73t-12 -101v-940q0 -21 -9.5 -29.5t-37 -12t-91.5 -3.5q-90 0 -112.5 7.5t-22.5 37.5v887q0 130 26 220.5t89 158t173.5 99.5 t274.5 32q535 0 535 -357q0 -143 -77.5 -219t-211.5 -92q69 -10 121.5 -26t102.5 -46t82 -72.5t51.5 -107.5t19.5 -149q0 -186 -94 -287.5t-309 -101.5q-109 0 -184 19.5t-116.5 58t-59 86.5t-17.5 114q0 37 21 47t106 10q76 0 96 -8.5t23 -38.5q3 -45 29.5 -67.5 t94.5 -22.5q82 0 114 48t32 139q0 101 -33.5 159.5t-118.5 91t-241 41.5z" />
<glyph unicode="&#xe0;" d="M399 715q0 -27 -21.5 -35t-105.5 -8q-88 0 -111.5 9.5t-23.5 45.5q0 142 99.5 221.5t312.5 79.5q97 0 170 -15.5t121.5 -44.5t79 -73t43 -97t12.5 -122v-633q0 -21 -8.5 -30t-35.5 -13t-89 -4q-87 0 -110 8.5t-23 38.5l-2 74q-81 -133 -295 -133q-166 0 -246 78.5 t-80 207.5q0 156 90.5 228.5t286.5 72.5h242v91q0 84 -32.5 113.5t-127.5 29.5q-80 0 -113 -21.5t-33 -68.5zM705 391h-209q-81 0 -112.5 -24t-31.5 -80q0 -50 32 -73.5t99 -23.5q103 0 162.5 44.5t59.5 117.5v39zM520 1126l-342 152q-15 7 -19.5 16t2.5 31.5t29 63.5 q32 60 50.5 74t35.5 -1l318 -202q20 -12 19.5 -26.5t-23.5 -57.5q-23 -41 -35.5 -50t-34.5 0z" />
<glyph unicode="&#xe1;" d="M399 715q0 -27 -21.5 -35t-105.5 -8q-88 0 -111.5 9.5t-23.5 45.5q0 142 99.5 221.5t312.5 79.5q97 0 170 -15.5t121.5 -44.5t79 -73t43 -97t12.5 -122v-633q0 -21 -8.5 -30t-35.5 -13t-89 -4q-87 0 -110 8.5t-23 38.5l-2 74q-81 -133 -295 -133q-166 0 -246 78.5 t-80 207.5q0 156 90.5 228.5t286.5 72.5h242v91q0 84 -32.5 113.5t-127.5 29.5q-80 0 -113 -21.5t-33 -68.5zM705 391h-209q-81 0 -112.5 -24t-31.5 -80q0 -50 32 -73.5t99 -23.5q103 0 162.5 44.5t59.5 117.5v39zM915 1278l-342 -152q-22 -9 -34 0t-35 50 q-23 43 -23.5 57.5t19.5 26.5l317 202q17 15 35.5 1t50.5 -74q22 -41 29 -63.5t2.5 -31.5t-19.5 -16z" />
<glyph unicode="&#xe2;" d="M399 715q0 -27 -21.5 -35t-105.5 -8q-88 0 -111.5 9.5t-23.5 45.5q0 142 99.5 221.5t312.5 79.5q97 0 170 -15.5t121.5 -44.5t79 -73t43 -97t12.5 -122v-633q0 -21 -8.5 -30t-35.5 -13t-89 -4q-87 0 -110 8.5t-23 38.5l-2 74q-81 -133 -295 -133q-166 0 -246 78.5 t-80 207.5q0 156 90.5 228.5t286.5 72.5h242v91q0 84 -32.5 113.5t-127.5 29.5q-80 0 -113 -21.5t-33 -68.5zM705 391h-209q-81 0 -112.5 -24t-31.5 -80q0 -50 32 -73.5t99 -23.5q103 0 162.5 44.5t59.5 117.5v39zM547 1268l-115 -115q-25 -25 -90 -25q-104 0 -104 25 q1 9 8 18l184 222q12 15 21 22t32.5 12t63.5 5q58 0 78.5 -8.5t38.5 -30.5l184 -222q26 -33 -40 -41l-56 -2q-65 0 -90 25z" />
<glyph unicode="&#xe3;" d="M399 715q0 -27 -21.5 -35t-105.5 -8q-88 0 -111.5 9.5t-23.5 45.5q0 142 99.5 221.5t312.5 79.5q97 0 170 -15.5t121.5 -44.5t79 -73t43 -97t12.5 -122v-633q0 -21 -8.5 -30t-35.5 -13t-89 -4q-87 0 -110 8.5t-23 38.5l-2 74q-81 -133 -295 -133q-166 0 -246 78.5 t-80 207.5q0 156 90.5 228.5t286.5 72.5h242v91q0 84 -32.5 113.5t-127.5 29.5q-80 0 -113 -21.5t-33 -68.5zM705 391h-209q-81 0 -112.5 -24t-31.5 -80q0 -50 32 -73.5t99 -23.5q103 0 162.5 44.5t59.5 117.5v39zM702 1341l3 25q2 22 15 28.5t64 6.5q46 0 63.5 -7.5 t16.5 -29.5l-4 -68q-11 -169 -170 -166q-53 0 -133 41l-90 50q-25 14 -41 14q-32 0 -35 -47l-2 -25q-2 -22 -15.5 -28.5t-64.5 -6.5q-46 0 -63.5 7.5t-16.5 29.5l4 68q11 169 170 166q54 0 134 -41l90 -49q27 -15 41 -15q16 0 24.5 10.5t9.5 36.5z" />
<glyph unicode="&#xe4;" d="M399 715q0 -27 -21.5 -35t-105.5 -8q-88 0 -111.5 9.5t-23.5 45.5q0 142 99.5 221.5t312.5 79.5q97 0 170 -15.5t121.5 -44.5t79 -73t43 -97t12.5 -122v-633q0 -21 -8.5 -30t-35.5 -13t-89 -4q-87 0 -110 8.5t-23 38.5l-2 74q-81 -133 -295 -133q-166 0 -246 78.5 t-80 207.5q0 156 90.5 228.5t286.5 72.5h242v91q0 84 -32.5 113.5t-127.5 29.5q-80 0 -113 -21.5t-33 -68.5zM705 391h-209q-81 0 -112.5 -24t-31.5 -80q0 -50 32 -73.5t99 -23.5q103 0 162.5 44.5t59.5 117.5v39zM346 1389q87 0 111 -12t24 -56v-117q0 -44 -24.5 -56.5 t-110.5 -12.5q-91 0 -113 14t-22 68v104q0 44 23.5 56t111.5 12zM748 1389q87 0 111 -12t24 -56v-117q0 -44 -24.5 -56.5t-110.5 -12.5q-91 0 -113.5 14.5t-22.5 67.5v104q0 44 24 56t112 12z" />
<glyph unicode="&#xe5;" d="M399 715q0 -27 -21.5 -35t-105.5 -8q-88 0 -111.5 9.5t-23.5 45.5q0 142 99.5 221.5t312.5 79.5q97 0 170 -15.5t121.5 -44.5t79 -73t43 -97t12.5 -122v-633q0 -21 -8.5 -30t-35.5 -13t-89 -4q-87 0 -110 8.5t-23 38.5l-2 74q-81 -133 -295 -133q-166 0 -246 78.5 t-80 207.5q0 156 90.5 228.5t286.5 72.5h242v91q0 84 -32.5 113.5t-127.5 29.5q-80 0 -113 -21.5t-33 -68.5zM705 391h-209q-81 0 -112.5 -24t-31.5 -80q0 -50 32 -73.5t99 -23.5q103 0 162.5 44.5t59.5 117.5v39zM547 1507q207 0 207 -194q0 -195 -207 -195t-207 195 q0 194 207 194zM547 1231q45 0 65.5 19t20.5 63t-20.5 63t-65.5 19t-65.5 -19t-20.5 -63t20.5 -63t65.5 -19z" />
<glyph unicode="&#xe6;" horiz-adv-x="1691" d="M1550 434h-577q8 -129 54.5 -186.5t150.5 -57.5q70 0 104.5 25.5t36.5 67.5q1 21 8.5 30t33 13t85.5 4q88 0 111.5 -10t23.5 -50q-2 -129 -105 -209.5t-298 -80.5q-237 0 -344 143q-132 -139 -383 -139q-365 0 -365 286q0 156 90.5 228.5t286.5 72.5h229v91q0 85 -29 114 t-122 29q-79 0 -110.5 -21.5t-31.5 -68.5q0 -27 -21.5 -35t-105.5 -8q-88 0 -111.5 9.5t-23.5 45.5q0 301 408 301q228 0 321 -108q108 108 299 108q115 0 200 -33.5t135 -95.5t73.5 -142.5t23.5 -181.5v-53q0 -54 -8.5 -71t-38.5 -17zM1171 817q-96 0 -140.5 -51 t-55.5 -164h360v29q0 88 -36.5 137t-127.5 49zM692 391h-200q-81 0 -110.5 -24t-29.5 -80q0 -51 30.5 -74t96.5 -23q102 0 157.5 44t55.5 118v39z" />
<glyph unicode="&#xe7;" horiz-adv-x="1073" d="M551 -90h8q58 0 95 -6t67 -23.5t43.5 -51.5t13.5 -87q0 -104 -51 -142t-162 -38h-205q-17 0 -20.5 11t-3.5 56q0 46 3.5 57t20.5 11h207q28 3 38.5 12.5t10.5 32.5q0 27 -16 37t-55 10h-103q-36 0 -51 7t-8 28l51 168q-176 30 -258 156.5t-82 355.5q0 267 113.5 395.5 t361.5 128.5q208 0 305.5 -84t102.5 -231q0 -38 -24.5 -48t-121.5 -10q-56 0 -82.5 5.5t-33.5 15t-8 31.5q-2 46 -34.5 68t-103.5 22q-114 0 -155 -64t-41 -229t41 -229t155 -64q141 0 144 98q1 21 9 31t34.5 15t81.5 5q69 0 97 -4t38 -15t10 -38q0 -149 -102.5 -236 t-311.5 -87h-2z" />
<glyph unicode="&#xe8;" d="M952 434h-585q8 -128 56 -186t152 -58q71 0 107.5 25.5t38.5 67.5q1 21 8.5 30t33 13t85.5 4q88 0 111.5 -10t23.5 -50q-2 -129 -107.5 -209.5t-300.5 -80.5q-252 0 -366.5 128t-114.5 396q0 264 116 394t353 130q225 0 330.5 -122t105.5 -331v-53q0 -54 -8.5 -71 t-38.5 -17zM541 1126l-342 152q-15 7 -19.5 16t2.5 31.5t29 63.5q32 60 50.5 74t35.5 -1l317 -202q20 -12 19.5 -26.5t-23.5 -57.5q-23 -41 -35 -50t-34 0zM569 817q-97 0 -143 -51.5t-57 -163.5h368v29q0 186 -168 186z" />
<glyph unicode="&#xe9;" d="M952 434h-585q8 -128 56 -186t152 -58q71 0 107.5 25.5t38.5 67.5q1 21 8.5 30t33 13t85.5 4q88 0 111.5 -10t23.5 -50q-2 -129 -107.5 -209.5t-300.5 -80.5q-252 0 -366.5 128t-114.5 396q0 264 116 394t353 130q225 0 330.5 -122t105.5 -331v-53q0 -54 -8.5 -71 t-38.5 -17zM895 1278l-342 -152q-22 -9 -34.5 0t-35.5 50q-23 43 -23.5 57.5t19.5 26.5l318 202q17 15 35.5 1t50.5 -74q22 -41 29 -63.5t2.5 -31.5t-19.5 -16zM569 817q-97 0 -143 -51.5t-57 -163.5h368v29q0 186 -168 186z" />
<glyph unicode="&#xea;" d="M952 434h-585q8 -128 56 -186t152 -58q71 0 107.5 25.5t38.5 67.5q1 21 8.5 30t33 13t85.5 4q88 0 111.5 -10t23.5 -50q-2 -129 -107.5 -209.5t-300.5 -80.5q-252 0 -366.5 128t-114.5 396q0 264 116 394t353 130q225 0 330.5 -122t105.5 -331v-53q0 -54 -8.5 -71 t-38.5 -17zM547 1268l-115 -115q-25 -25 -90 -25q-104 0 -104 25q1 9 8 18l184 222q12 15 21 22t32.5 12t63.5 5q58 0 78.5 -8.5t38.5 -30.5l184 -222q26 -33 -40 -41l-56 -2q-65 0 -90 25zM569 817q-97 0 -143 -51.5t-57 -163.5h368v29q0 186 -168 186z" />
<glyph unicode="&#xeb;" d="M952 434h-585q8 -128 56 -186t152 -58q71 0 107.5 25.5t38.5 67.5q1 21 8.5 30t33 13t85.5 4q88 0 111.5 -10t23.5 -50q-2 -129 -107.5 -209.5t-300.5 -80.5q-252 0 -366.5 128t-114.5 396q0 264 116 394t353 130q225 0 330.5 -122t105.5 -331v-53q0 -54 -8.5 -71 t-38.5 -17zM569 817q-97 0 -143 -51.5t-57 -163.5h368v29q0 186 -168 186zM346 1389q87 0 111 -12t24 -56v-117q0 -44 -24.5 -56.5t-110.5 -12.5q-91 0 -113 14t-22 68v104q0 44 23.5 56t111.5 12zM748 1389q87 0 111 -12t24 -56v-117q0 -44 -24.5 -56.5t-110.5 -12.5 q-91 0 -113.5 14.5t-22.5 67.5v104q0 44 24 56t112 12z" />
<glyph unicode="&#xec;" horiz-adv-x="536" d="M131 41v926q0 30 24 38.5t113 8.5q90 0 114 -8.5t24 -38.5v-926q0 -30 -24 -38.5t-114 -8.5q-89 0 -113 8.5t-24 38.5zM262 1126l-342 152q-15 7 -19.5 16t2.5 31.5t29 63.5q32 60 50.5 74t35.5 -1l318 -202q20 -12 19.5 -26.5t-23.5 -57.5q-23 -41 -35.5 -50t-34.5 0z " />
<glyph unicode="&#xed;" horiz-adv-x="536" d="M131 41v926q0 30 24 38.5t113 8.5q90 0 114 -8.5t24 -38.5v-926q0 -30 -24 -38.5t-114 -8.5q-89 0 -113 8.5t-24 38.5zM616 1278l-342 -152q-22 -9 -34 0t-35 50q-23 43 -23.5 57.5t19.5 26.5l317 202q17 15 35.5 1t50.5 -74q22 -41 29 -63.5t2.5 -31.5t-19.5 -16z" />
<glyph unicode="&#xee;" horiz-adv-x="536" d="M131 41v926q0 30 24 38.5t113 8.5q90 0 114 -8.5t24 -38.5v-926q0 -30 -24 -38.5t-114 -8.5q-89 0 -113 8.5t-24 38.5zM268 1268l-114 -115q-25 -25 -91 -25q-104 0 -104 25q1 9 8 18l185 222q12 15 20.5 22t32 12t63.5 5q58 0 78.5 -8.5t38.5 -30.5l184 -222 q26 -33 -40 -41l-56 -2q-65 0 -90 25z" />
<glyph unicode="&#xef;" horiz-adv-x="536" d="M131 41v926q0 30 24 38.5t113 8.5q90 0 114 -8.5t24 -38.5v-926q0 -30 -24 -38.5t-114 -8.5q-89 0 -113 8.5t-24 38.5zM68 1389q87 0 111 -12t24 -56v-117q0 -44 -24.5 -56.5t-110.5 -12.5q-91 0 -113.5 14.5t-22.5 67.5v104q0 44 24 56t112 12zM469 1389q87 0 111 -12 t24 -56v-117q0 -44 -24.5 -56.5t-110.5 -12.5q-91 0 -113 14t-22 68v104q0 44 23.5 56t111.5 12z" />
<glyph unicode="&#xf0;" horiz-adv-x="1105" d="M991 1241l-100 -47q67 -112 92 -274.5t25 -391.5q0 -292 -109 -420t-350 -128q-240 0 -347.5 119.5t-107.5 377.5q0 257 103 378.5t321 121.5q142 0 217 -62q-13 121 -51 183l-156 -72q-13 -7 -20.5 0.5t-26.5 48.5q-20 37 -20.5 50t14.5 20l103 47q-70 31 -177 31 q-22 0 -28 17t-6 83q0 67 6.5 83.5t32.5 16.5q258 0 399 -125l133 62q13 7 21 -1.5t26 -47.5q20 -39 20.5 -51t-14.5 -19zM549 197q105 0 145.5 63t40.5 217t-41 217.5t-145 63.5t-144 -63t-40 -218t40 -217.5t144 -62.5z" />
<glyph unicode="&#xf1;" horiz-adv-x="1171" d="M393 967l4 -84q36 60 115 102.5t188 42.5q349 0 349 -360v-625q0 -30 -24 -38.5t-114 -8.5q-89 0 -113 8.5t-24 38.5v582q0 89 -39.5 128.5t-122.5 39.5q-98 0 -154.5 -58t-56.5 -155v-537q0 -30 -23.5 -38.5t-113.5 -8.5q-89 0 -113 8.5t-24 38.5v922q0 30 24 38.5 t113 8.5q60 0 86.5 -4t34 -12.5t8.5 -28.5zM741 1341l2 25q2 22 15.5 28.5t64.5 6.5q46 0 63.5 -7.5t16.5 -29.5l-4 -68q-11 -169 -170 -166q-53 0 -133 41l-90 50q-25 14 -41 14q-32 0 -35 -47l-2 -25q-2 -22 -15.5 -28.5t-64.5 -6.5q-46 0 -63.5 7.5t-16.5 29.5l4 68 q11 169 170 166q53 0 133 -41l91 -49q27 -15 41 -15q16 0 24.5 10.5t9.5 36.5z" />
<glyph unicode="&#xf2;" horiz-adv-x="1138" d="M569 1028q248 0 361.5 -128.5t113.5 -395.5t-113.5 -395.5t-361.5 -128.5t-361.5 128.5t-113.5 395.5t113.5 395.5t361.5 128.5zM569 207q114 0 155.5 65.5t41.5 231.5t-41.5 231.5t-155.5 65.5q-113 0 -154.5 -65.5t-41.5 -231.5t41.5 -231.5t154.5 -65.5zM563 1126 l-342 152q-15 7 -19.5 16t2.5 31.5t29 63.5q32 60 50.5 74t35.5 -1l318 -202q20 -12 19.5 -26.5t-23.5 -57.5q-23 -41 -35.5 -50t-34.5 0z" />
<glyph unicode="&#xf3;" horiz-adv-x="1138" d="M569 1028q248 0 361.5 -128.5t113.5 -395.5t-113.5 -395.5t-361.5 -128.5t-361.5 128.5t-113.5 395.5t113.5 395.5t361.5 128.5zM569 207q114 0 155.5 65.5t41.5 231.5t-41.5 231.5t-155.5 65.5q-113 0 -154.5 -65.5t-41.5 -231.5t41.5 -231.5t154.5 -65.5zM918 1278 l-343 -152q-22 -9 -34 0t-35 50q-23 43 -23.5 57.5t19.5 26.5l317 202q17 15 35.5 1t50.5 -74q22 -41 29 -63.5t3 -31.5t-19 -16z" />
<glyph unicode="&#xf4;" horiz-adv-x="1138" d="M569 1028q248 0 361.5 -128.5t113.5 -395.5t-113.5 -395.5t-361.5 -128.5t-361.5 128.5t-113.5 395.5t113.5 395.5t361.5 128.5zM569 207q114 0 155.5 65.5t41.5 231.5t-41.5 231.5t-155.5 65.5q-113 0 -154.5 -65.5t-41.5 -231.5t41.5 -231.5t154.5 -65.5zM569 1268 l-114 -115q-25 -25 -90 -25q-105 0 -105 26q1 8 8 17l185 222q12 15 20.5 22t32 12t63.5 5q58 0 78.5 -8.5t38.5 -30.5l184 -222q26 -33 -40 -41l-56 -2q-65 0 -90 25z" />
<glyph unicode="&#xf5;" horiz-adv-x="1138" d="M569 1028q248 0 361.5 -128.5t113.5 -395.5t-113.5 -395.5t-361.5 -128.5t-361.5 128.5t-113.5 395.5t113.5 395.5t361.5 128.5zM569 207q114 0 155.5 65.5t41.5 231.5t-41.5 231.5t-155.5 65.5q-113 0 -154.5 -65.5t-41.5 -231.5t41.5 -231.5t154.5 -65.5zM725 1341 l2 25q2 22 15.5 28.5t64.5 6.5q46 0 63.5 -7.5t16.5 -29.5l-4 -68q-11 -169 -170 -166q-53 0 -133 41l-91 50q-25 14 -40 14q-32 0 -35 -47l-2 -25q-2 -22 -15.5 -28.5t-64.5 -6.5q-46 0 -63.5 7.5t-16.5 29.5l4 68q11 169 170 166q53 0 133 -41l90 -49q27 -15 41 -15 q32 0 35 47z" />
<glyph unicode="&#xf6;" horiz-adv-x="1138" d="M569 1028q248 0 361.5 -128.5t113.5 -395.5t-113.5 -395.5t-361.5 -128.5t-361.5 128.5t-113.5 395.5t113.5 395.5t361.5 128.5zM569 207q114 0 155.5 65.5t41.5 231.5t-41.5 231.5t-155.5 65.5q-113 0 -154.5 -65.5t-41.5 -231.5t41.5 -231.5t154.5 -65.5zM369 1389 q87 0 111 -12t24 -56v-117q0 -44 -24.5 -56.5t-110.5 -12.5q-91 0 -113.5 14.5t-22.5 67.5v104q0 44 24 56t112 12zM770 1389q87 0 111 -12t24 -56v-117q0 -44 -24.5 -56.5t-110.5 -12.5q-91 0 -113 14t-22 68v104q0 44 23.5 56t111.5 12z" />
<glyph unicode="&#xf7;" horiz-adv-x="1150" d="M174 750h805q25 0 33 -20.5t8 -92.5t-8 -92.5t-33 -20.5h-805q-27 0 -35 20.5t-8 92.5t8 92.5t35 20.5zM575 74q-101 0 -128 10t-27 45v205q0 39 26.5 49t128.5 10q101 0 128.5 -10.5t27.5 -48.5v-205q0 -35 -27.5 -45t-128.5 -10zM575 881q-101 0 -128 10t-27 45v205 q0 39 26.5 49t128.5 10q101 0 128.5 -10.5t27.5 -48.5v-205q0 -35 -27.5 -45t-128.5 -10z" />
<glyph unicode="&#xf8;" horiz-adv-x="1146" d="M573 1028q107 0 199 -29l23 39q13 20 33.5 27.5t78.5 7.5q84 0 85 -25q0 -6 -5 -14l-69 -119q131 -125 131 -411q0 -267 -114 -395.5t-362 -128.5q-98 0 -192 24l-29 -47q-13 -20 -33.5 -27.5t-78.5 -7.5q-84 0 -85 25q0 6 5 14l73 125q-135 126 -135 418 q0 267 113.5 395.5t361.5 128.5zM377 504q0 -106 14 -166l266 450q-37 13 -84 13q-113 0 -154.5 -65.5t-41.5 -231.5zM573 207q114 0 155.5 65.5t41.5 231.5q0 94 -12 155l-262 -444q31 -8 77 -8z" />
<glyph unicode="&#xf9;" horiz-adv-x="1159" d="M766 41l-4 84q-36 -60 -113.5 -102.5t-183.5 -42.5q-346 0 -346 372v613q0 30 23.5 38.5t113.5 8.5q89 0 113 -8.5t24 -38.5v-578q0 -89 40 -130.5t120 -41.5q95 0 150 58t55 155v537q0 30 23.5 38.5t113.5 8.5q89 0 113 -8.5t24 -38.5v-922q0 -30 -24 -38.5t-113 -8.5 q-60 0 -86.5 4t-34 12.5t-8.5 28.5zM553 1126l-342 152q-15 7 -19.5 16t2.5 31.5t29 63.5q32 60 50.5 74t35.5 -1l318 -202q20 -12 19.5 -26.5t-23.5 -57.5q-23 -41 -35.5 -50t-34.5 0z" />
<glyph unicode="&#xfa;" horiz-adv-x="1159" d="M766 41l-4 84q-36 -60 -113.5 -102.5t-183.5 -42.5q-346 0 -346 372v613q0 30 23.5 38.5t113.5 8.5q89 0 113 -8.5t24 -38.5v-578q0 -89 40 -130.5t120 -41.5q95 0 150 58t55 155v537q0 30 23.5 38.5t113.5 8.5q89 0 113 -8.5t24 -38.5v-922q0 -30 -24 -38.5t-113 -8.5 q-60 0 -86.5 4t-34 12.5t-8.5 28.5zM948 1278l-342 -152q-22 -9 -34 0t-35 50q-23 43 -24 57.5t19 26.5l318 202q17 15 35.5 1t50.5 -74q22 -41 29 -63.5t2.5 -31.5t-19.5 -16z" />
<glyph unicode="&#xfb;" horiz-adv-x="1159" d="M766 41l-4 84q-36 -60 -113.5 -102.5t-183.5 -42.5q-346 0 -346 372v613q0 30 23.5 38.5t113.5 8.5q89 0 113 -8.5t24 -38.5v-578q0 -89 40 -130.5t120 -41.5q95 0 150 58t55 155v537q0 30 23.5 38.5t113.5 8.5q89 0 113 -8.5t24 -38.5v-922q0 -30 -24 -38.5t-113 -8.5 q-60 0 -86.5 4t-34 12.5t-8.5 28.5zM580 1268l-115 -115q-25 -25 -90 -25q-104 0 -104 25q1 9 8 18l184 222q12 15 21 22t32.5 12t63.5 5q58 0 78 -8.5t38 -30.5l185 -222q26 -33 -39 -40l-58 -3q-65 0 -90 25z" />
<glyph unicode="&#xfc;" horiz-adv-x="1159" d="M766 41l-4 84q-36 -60 -113.5 -102.5t-183.5 -42.5q-346 0 -346 372v613q0 30 23.5 38.5t113.5 8.5q89 0 113 -8.5t24 -38.5v-578q0 -89 40 -130.5t120 -41.5q95 0 150 58t55 155v537q0 30 23.5 38.5t113.5 8.5q89 0 113 -8.5t24 -38.5v-922q0 -30 -24 -38.5t-113 -8.5 q-60 0 -86.5 4t-34 12.5t-8.5 28.5zM379 1389q87 0 111 -12t24 -56v-117q0 -44 -24.5 -56.5t-110.5 -12.5q-91 0 -113 14t-22 68v104q0 44 23.5 56t111.5 12zM780 1389q87 0 111 -12t24 -56v-117q0 -44 -24.5 -56.5t-110.5 -12.5q-91 0 -113 14t-22 68v104q0 44 23.5 56 t111.5 12z" />
<glyph unicode="&#xfd;" horiz-adv-x="1073" d="M260 -147q81 0 127 32t76 113q-42 3 -60 12t-26 29q-75 165 -176.5 448t-153.5 469q-10 37 18.5 46.5t124.5 9.5q81 0 109 -8t31 -29q73 -318 215 -729q153 499 203 729q3 21 30.5 29t108.5 8q86 0 115.5 -7.5t29.5 -29.5q0 -13 -2 -19q-46 -170 -151.5 -481t-184.5 -504 q-42 -102 -77 -164.5t-82 -109.5t-106 -66.5t-142 -19.5h-25q-35 0 -50 0.5t-36 4t-28 10.5t-16 21.5t-11 35.5t-2 53q0 77 10 100t37 23q6 0 36 -3t58 -3zM905 1278l-342 -152q-22 -9 -34 0t-35 50q-23 43 -24 57.5t19 26.5l318 202q17 15 35.5 1t50.5 -74q22 -41 29 -63.5 t2.5 -31.5t-19.5 -16z" />
<glyph unicode="&#xfe;" horiz-adv-x="1187" d="M406 1372v-463q93 119 282 119q198 0 302 -130.5t104 -393.5q0 -264 -104.5 -394t-305.5 -130q-186 0 -278 114v-420q0 -30 -24 -38.5t-114 -8.5q-89 0 -113 8.5t-24 38.5v1698q0 30 24 38.5t113 8.5q90 0 114 -8.5t24 -38.5zM406 504q0 -163 46.5 -230t161.5 -67 q112 0 156.5 66.5t44.5 230.5t-44.5 230.5t-156.5 66.5q-115 0 -161.5 -67t-46.5 -230z" />
<glyph unicode="&#xff;" horiz-adv-x="1073" d="M260 -147q81 0 127 32t76 113q-42 3 -60 12t-26 29q-75 165 -176.5 448t-153.5 469q-10 37 18.5 46.5t124.5 9.5q81 0 109 -8t31 -29q73 -318 215 -729q153 499 203 729q3 21 30.5 29t108.5 8q86 0 115.5 -7.5t29.5 -29.5q0 -13 -2 -19q-46 -170 -151.5 -481t-184.5 -504 q-42 -102 -77 -164.5t-82 -109.5t-106 -66.5t-142 -19.5h-25q-35 0 -50 0.5t-36 4t-28 10.5t-16 21.5t-11 35.5t-2 53q0 77 10 100t37 23q6 0 36 -3t58 -3zM737 1389q87 0 111 -12t24 -56v-117q0 -44 -24.5 -56.5t-110.5 -12.5q-91 0 -113 14t-22 68v104q0 44 23.5 56 t111.5 12zM336 1389q87 0 111 -12t24 -56v-117q0 -44 -24.5 -56.5t-110.5 -12.5q-91 0 -113 14t-22 68v104q0 44 23.5 56t111.5 12z" />
<glyph unicode="&#x152;" horiz-adv-x="1859" d="M1694 1106h-510v-289h438q30 0 37.5 -20.5t7.5 -104.5t-7.5 -104.5t-37.5 -20.5h-438v-317h520q19 0 27.5 -8t13 -34.5t4.5 -82.5q0 -82 -8.5 -103.5t-36.5 -21.5h-985q-312 0 -442 157t-130 521t130 521t442 157h975q19 0 27.5 -8t13 -34.5t4.5 -82.5q0 -82 -8.5 -103.5 t-36.5 -21.5zM719 250h182v856h-182q-106 0 -164.5 -39t-84.5 -131t-26 -258q0 -167 26 -258.5t84.5 -130.5t164.5 -39z" />
<glyph unicode="&#x153;" horiz-adv-x="1732" d="M1591 434h-577q8 -129 54.5 -186.5t150.5 -57.5q70 0 104.5 25.5t36.5 67.5q1 21 8.5 30t33 13t85.5 4q88 0 111.5 -10t23.5 -50q-2 -129 -105 -209.5t-298 -80.5q-223 0 -334 129q-105 -129 -324 -129q-244 0 -355.5 128t-111.5 396t111.5 396t355.5 128q219 0 326 -131 q107 131 319 131q115 0 200 -33.5t135 -95.5t73.5 -142.5t23.5 -181.5v-53q0 -54 -8.5 -71t-38.5 -17zM561 207q108 0 150.5 66.5t42.5 230.5t-42.5 230.5t-150.5 66.5q-107 0 -147.5 -66t-40.5 -231t40.5 -231t147.5 -66zM1212 817q-96 0 -140.5 -51t-55.5 -164h360v29 q0 88 -36.5 137t-127.5 49z" />
<glyph unicode="&#x178;" horiz-adv-x="1204" d="M852 1309q9 22 21 32t44.5 14.5t100.5 4.5q132 0 143 -30q4 -10 -2 -25q-59 -140 -187.5 -395t-223.5 -421v-446q0 -22 -9.5 -31.5t-39.5 -13.5t-97 -4q-66 0 -95.5 4t-39.5 13.5t-10 31.5v446q-96 168 -224.5 422.5t-187.5 393.5q-15 35 31 47q34 8 110 8 q68 0 100.5 -4.5t44.5 -14.5t21 -32q96 -258 250 -572q151 315 250 572zM811 1714q87 0 110 -11.5t23 -55.5v-117q0 -45 -23.5 -57.5t-109.5 -12.5q-63 0 -90 6.5t-35 22t-8 53.5v105q0 44 22.5 55.5t110.5 11.5zM393 1714q87 0 110 -11.5t23 -55.5v-117q0 -45 -23.5 -57.5 t-109.5 -12.5q-63 0 -90 6.5t-35 22t-8 53.5v105q0 44 22.5 55.5t110.5 11.5z" />
<glyph unicode="&#x2c6;" horiz-adv-x="749" d="M375 1268l-115 -115q-25 -25 -90 -25q-104 0 -104 25q1 9 8 18l184 222q12 15 21 22t32.5 12t63.5 5q58 0 78.5 -8.5t38.5 -30.5l184 -222q26 -33 -40 -41l-56 -2q-66 0 -91 25z" />
<glyph unicode="&#x2dc;" horiz-adv-x="749" d="M530 1341l2 25q2 22 15.5 28.5t64.5 6.5q46 0 63.5 -7.5t16.5 -29.5l-4 -68q-11 -169 -170 -166q-53 0 -133 41l-90 50q-25 14 -41 14q-32 0 -35 -47l-2 -25q-2 -22 -15.5 -28.5t-64.5 -6.5q-46 0 -63.5 7.5t-16.5 29.5l4 68q11 169 170 166q54 0 134 -41l90 -49 q27 -15 41 -15q16 0 24.5 10.5t9.5 36.5z" />
<glyph unicode="&#x2000;" horiz-adv-x="902" />
<glyph unicode="&#x2001;" horiz-adv-x="1805" />
<glyph unicode="&#x2002;" horiz-adv-x="902" />
<glyph unicode="&#x2003;" horiz-adv-x="1805" />
<glyph unicode="&#x2004;" horiz-adv-x="601" />
<glyph unicode="&#x2005;" horiz-adv-x="451" />
<glyph unicode="&#x2006;" horiz-adv-x="300" />
<glyph unicode="&#x2007;" horiz-adv-x="300" />
<glyph unicode="&#x2008;" horiz-adv-x="225" />
<glyph unicode="&#x2009;" horiz-adv-x="361" />
<glyph unicode="&#x200a;" horiz-adv-x="100" />
<glyph unicode="&#x2010;" horiz-adv-x="839" d="M145 670h551q25 0 33 -20.5t8 -92.5t-8 -92.5t-33 -20.5h-551q-27 0 -35 20.5t-8 92.5t8 92.5t35 20.5z" />
<glyph unicode="&#x2011;" horiz-adv-x="839" d="M145 670h551q25 0 33 -20.5t8 -92.5t-8 -92.5t-33 -20.5h-551q-27 0 -35 20.5t-8 92.5t8 92.5t35 20.5z" />
<glyph unicode="&#x2012;" horiz-adv-x="839" d="M145 670h551q25 0 33 -20.5t8 -92.5t-8 -92.5t-33 -20.5h-551q-27 0 -35 20.5t-8 92.5t8 92.5t35 20.5z" />
<glyph unicode="&#x2013;" horiz-adv-x="1105" d="M145 670h818q25 0 33 -20.5t8 -92.5t-8 -92.5t-33 -20.5h-818q-27 0 -35 20.5t-8 92.5t8 92.5t35 20.5z" />
<glyph unicode="&#x2014;" horiz-adv-x="1536" d="M145 670h1248q25 0 33 -20.5t8 -92.5t-8 -92.5t-33 -20.5h-1248q-27 0 -35 20.5t-8 92.5t8 92.5t35 20.5z" />
<glyph unicode="&#x2018;" horiz-adv-x="454" d="M322 1077v-82q0 -24 -19.5 -32.5t-91.5 -8.5q-69 0 -89 8.5t-20 32.5v88q0 233 226 338q18 10 32 0t37 -53q23 -48 22.5 -62.5t-20.5 -29.5q-40 -28 -58.5 -74.5t-18.5 -124.5z" />
<glyph unicode="&#x2019;" horiz-adv-x="454" d="M133 1298v82q0 24 19.5 32.5t91.5 8.5q69 0 88.5 -8.5t19.5 -32.5v-88q0 -233 -225 -338q-19 -9 -33 1t-37 53q-23 48 -22.5 62.5t20.5 29.5q41 28 59.5 74t18.5 124z" />
<glyph unicode="&#x201a;" horiz-adv-x="454" d="M133 111v82q0 24 19.5 32t91.5 8q70 0 89 -8.5t19 -31.5v-89q0 -232 -225 -337q-18 -11 -33 -0.5t-37 53.5q-23 48 -22.5 62.5t20.5 29.5q41 28 59.5 74.5t18.5 124.5z" />
<glyph unicode="&#x201c;" horiz-adv-x="831" d="M322 1077v-82q0 -24 -19.5 -32.5t-91.5 -8.5q-69 0 -89 8.5t-20 32.5v88q0 233 226 338q18 10 32 0t37 -53q23 -48 22.5 -62.5t-20.5 -29.5q-40 -28 -58.5 -74.5t-18.5 -124.5zM698 1077v-82q0 -24 -19 -32.5t-91 -8.5q-69 0 -89 8.5t-20 32.5v88q0 233 226 338 q18 10 32 0t37 -53q23 -48 22.5 -62.5t-20.5 -29.5q-41 -28 -59.5 -74.5t-18.5 -124.5z" />
<glyph unicode="&#x201d;" horiz-adv-x="831" d="M133 1298v82q0 24 19.5 32.5t91.5 8.5q69 0 88.5 -8.5t19.5 -32.5v-88q0 -233 -225 -338q-19 -9 -33 1t-37 53q-23 48 -22.5 62.5t20.5 29.5q41 28 59.5 74t18.5 124zM510 1298v82q0 24 19.5 32.5t91.5 8.5q69 0 88.5 -8.5t19.5 -32.5v-88q0 -233 -225 -338q-19 -9 -33 1 t-37 53q-23 48 -22.5 62.5t20.5 29.5q41 28 59.5 74t18.5 124z" />
<glyph unicode="&#x201e;" horiz-adv-x="831" d="M133 111v82q0 24 19.5 32t91.5 8q70 0 89 -8.5t19 -31.5v-89q0 -232 -225 -337q-18 -11 -33 -0.5t-37 53.5q-23 48 -22.5 62.5t20.5 29.5q41 28 59.5 74.5t18.5 124.5zM510 111v82q0 24 19.5 32t91.5 8q70 0 89 -8.5t19 -31.5v-89q0 -232 -225 -337q-18 -11 -33 -0.5 t-37 53.5q-23 48 -22.5 62.5t20.5 29.5q41 28 59.5 74.5t18.5 124.5z" />
<glyph unicode="&#x2022;" horiz-adv-x="745" d="M373 322q-79 0 -121.5 8t-69.5 36t-35 71.5t-8 123.5t8 124t35 72.5t70 37t121 8.5t121 -8.5t69.5 -37t34.5 -72.5t8 -124t-8 -123.5t-34.5 -71.5t-69.5 -36t-121 -8z" />
<glyph unicode="&#x2026;" horiz-adv-x="1597" d="M266 -4q-101 0 -128 10t-27 45v205q0 39 26.5 49t128.5 10q101 0 128.5 -10.5t27.5 -48.5v-205q0 -35 -27.5 -45t-128.5 -10zM799 -4q-101 0 -128.5 10t-27.5 45v205q0 27 11 38.5t42 16t103 4.5q101 0 128 -10.5t27 -48.5v-205q0 -35 -27 -45t-128 -10zM1331 -4 q-101 0 -128 10t-27 45v205q0 39 26.5 49t128.5 10q101 0 128.5 -10.5t27.5 -48.5v-205q0 -35 -27.5 -45t-128.5 -10z" />
<glyph unicode="&#x202f;" horiz-adv-x="361" />
<glyph unicode="&#x2039;" horiz-adv-x="688" d="M98 561q0 42 21 72l174 244q17 23 42 29.5t101 6.5q132 0 132 -30q-1 -8 -7 -17l-221 -305l221 -305q25 -33 -41 -43q-31 -4 -84 -4q-75 0 -100 6.5t-43 30.5l-174 243q-21 30 -21 72z" />
<glyph unicode="&#x203a;" horiz-adv-x="688" d="M590 561q0 -42 -21 -72l-174 -243q-18 -24 -43 -30.5t-100 -6.5q-132 0 -132 30q0 8 7 17l221 305l-221 305q-25 33 41 43q32 4 84 4q76 0 101 -6.5t42 -29.5l174 -244q21 -30 21 -72z" />
<glyph unicode="&#x205f;" horiz-adv-x="451" />
<glyph unicode="&#x20ac;" horiz-adv-x="1318" d="M713 449h-226q21 -126 79 -175t173 -49q101 0 149.5 44.5t51.5 119.5q2 32 27 42.5t110 10.5q88 0 114 -11t26 -50q0 -195 -120 -298t-362 -103q-253 0 -378.5 110.5t-157.5 358.5h-111q-19 0 -25 14.5t-6 71.5t6 71.5t25 14.5h98v112h-98q-19 0 -25 14.5t-6 71.5t6 71.5 t25 14.5h111q32 249 158 360t378 111q239 0 359 -102.5t120 -294.5q0 -40 -24.5 -50.5t-114.5 -10.5q-83 0 -109 10.5t-28 42.5q-5 78 -50.5 117.5t-148.5 39.5q-117 0 -174 -48.5t-78 -174.5h285q19 0 25 -14.5t6 -71.5t-6 -71.5t-25 -14.5h-297v-112h238q19 0 24.5 -14.5 t5.5 -71.5t-5.5 -71.5t-24.5 -14.5z" />
<glyph unicode="&#x2122;" horiz-adv-x="1687" d="M895 1356q70 0 94.5 -6.5t32.5 -26.5l145 -401l150 401q8 20 31.5 26.5t95.5 6.5q80 0 106.5 -6.5t26.5 -28.5v-713q0 -20 -14.5 -25t-73.5 -5q-62 0 -77 5t-15 25v512l-140 -381q-5 -16 -24 -23t-64 -7t-64.5 7t-25.5 23l-137 379v-510q0 -20 -15.5 -25t-76.5 -5 q-60 0 -75 5t-15 25v713q0 21 27 28t108 7zM616 1192h-178v-584q0 -20 -15.5 -25t-78.5 -5q-60 0 -75 5t-15 25v584h-174q-20 0 -25.5 14.5t-5.5 67.5t5.5 67.5t25.5 14.5h536q20 0 24.5 -14t4.5 -68t-4.5 -68t-24.5 -14z" />
<glyph unicode="&#x25fc;" horiz-adv-x="1013" d="M0 1014h1014v-1014h-1014v1014z" />
</font>
</defs>
</svg>
