<?xml version="1.0" standalone="no"?>
<!DOCTYPE svg PUBLIC "-//W3C//DTD SVG 1.1//EN" "http://www.w3.org/Graphics/SVG/1.1/DTD/svg11.dtd" >
<svg xmlns="http://www.w3.org/2000/svg" xmlns:xlink="http://www.w3.org/1999/xlink" version="1.1">
<metadata></metadata>
<defs>
<font id="frygiabook" horiz-adv-x="1114" >
<font-face units-per-em="2048" ascent="1536" descent="-512" />
<missing-glyph horiz-adv-x="450" />
<glyph unicode="&#xfb01;" horiz-adv-x="1155" d="M852 1274q-78 16 -201 16q-113 0 -168.5 -20t-76.5 -66t-21 -139v-70h518q53 0 68.5 -6t15.5 -28v-930q0 -22 -16 -28.5t-68 -6.5t-68 6.5t-16 28.5v825h-434v-825q0 -22 -15 -28.5t-67 -6.5t-67 6.5t-15 28.5v825h-127q-18 0 -23 12t-5 56q0 43 5 55t23 12l127 4v78 q0 195 94 278t320 83q133 0 231 -25q18 -5 22 -17t-1 -55q-4 -43 -11 -54.5t-24 -8.5z" />
<glyph unicode="&#xfb02;" horiz-adv-x="1179" d="M385 1065v-70h201q18 0 23 -12.5t5 -56.5t-5 -57t-23 -13h-201v-825q0 -22 -15 -28.5t-67 -6.5t-67 6.5t-15 28.5v825h-127q-18 0 -23 12t-5 56q0 43 5 55t23 12l127 4v78q0 194 96 277.5t322 83.5q194 0 313 -39q35 -12 35 -45v-1129q0 -42 17 -58t59 -16h29 q19 0 24.5 -13.5t5.5 -59.5t-5.5 -60t-24.5 -14h-45q-129 0 -178.5 44.5t-49.5 160.5v1071q-79 14 -164 14q-113 0 -169.5 -20t-78.5 -66.5t-22 -138.5z" />
<glyph unicode="&#xfb03;" horiz-adv-x="1769" d="M836 995v78q0 195 93.5 278t319.5 83q134 0 232 -25q18 -5 21.5 -17t-1.5 -55q-4 -43 -11 -54.5t-24 -8.5q-78 16 -200 16q-113 0 -169 -20t-77 -66t-21 -139v-70h519q53 0 68.5 -6t15.5 -28v-930q0 -22 -16 -28.5t-68 -6.5t-68 6.5t-16 28.5v825h-435v-825 q0 -22 -14.5 -28.5t-66.5 -6.5t-67 6.5t-15 28.5v825h-451v-825q0 -22 -15 -28.5t-67 -6.5t-67 6.5t-15 28.5v825h-127q-18 0 -23 12t-5 56q0 43 5 55t23 12l127 4v111q0 170 68 244.5t223 74.5q108 0 178 -32q15 -8 16 -22t-14 -54q-14 -37 -24.5 -46.5t-26.5 -4.5 q-50 16 -104 16q-83 0 -117.5 -41t-34.5 -143v-103h451z" />
<glyph unicode="&#xfb04;" horiz-adv-x="1794" d="M836 995v78q0 194 95.5 277.5t321.5 83.5q195 0 314 -39q35 -12 35 -45v-1129q0 -42 16.5 -58t58.5 -16h29q19 0 25 -14t6 -59t-6 -59.5t-25 -14.5h-45q-129 0 -178 44.5t-49 160.5v1071q-79 14 -164 14t-136 -9.5t-82 -36.5t-42 -68t-11 -111v-70h201q19 0 24 -13t5 -56 t-5.5 -56.5t-23.5 -13.5h-201v-825q0 -22 -14.5 -28.5t-66.5 -6.5t-67 6.5t-15 28.5v825h-451v-825q0 -22 -15 -28.5t-67 -6.5t-67 6.5t-15 28.5v825h-127q-18 0 -23 12t-5 56q0 43 5 55t23 12l127 4v111q0 170 68 244.5t223 74.5q108 0 178 -32q15 -8 16 -22t-14 -54 q-14 -37 -24.5 -46.5t-26.5 -4.5q-50 16 -104 16q-83 0 -117.5 -41t-34.5 -143v-103h451z" />
<glyph horiz-adv-x="0" />
<glyph horiz-adv-x="682" />
<glyph unicode=" "  horiz-adv-x="450" />
<glyph unicode="&#x09;" horiz-adv-x="450" />
<glyph unicode="&#xa0;" horiz-adv-x="450" />
<glyph unicode="!" horiz-adv-x="581" d="M291 383q-44 0 -56 6.5t-12 26.5l-33 901q-1 25 20.5 34t80.5 9t80 -9t20 -34l-33 -901q0 -20 -11.5 -26.5t-55.5 -6.5zM291 -4q-66 0 -88.5 9.5t-22.5 41.5v135q0 34 21 42.5t90 8.5t89.5 -8.5t20.5 -42.5v-135q0 -32 -22 -41.5t-88 -9.5z" />
<glyph unicode="&#x22;" horiz-adv-x="753" d="M143 956l-16 430q0 22 15 28.5t65 6.5t65 -6.5t15 -28.5l-17 -430q0 -19 -12 -24.5t-51 -5.5t-51.5 5.5t-12.5 24.5zM483 956l-16 430q0 22 15 28.5t65 6.5t65 -6.5t15 -28.5l-17 -430q0 -19 -12 -24.5t-51 -5.5t-51.5 5.5t-12.5 24.5z" />
<glyph unicode="#" horiz-adv-x="1220" d="M657 25l56 331h-297l-56 -331q-3 -18 -17 -23.5t-58 -5.5q-43 0 -55 5t-9 24l55 331h-165q-15 0 -20 13t-5 47t5 46.5t20 12.5h186l53 320h-166q-15 0 -19.5 12t-4.5 47t4.5 47t19.5 12h187l55 332q3 18 17.5 23.5t58.5 5.5q43 0 54.5 -5t8.5 -24l-55 -332h297l55 332 q3 18 17.5 23.5t58.5 5.5q43 0 54.5 -5t8.5 -24l-55 -332h164q15 0 20 -12.5t5 -46.5t-5 -46.5t-20 -12.5h-184l-54 -320h164q15 0 20 -12.5t5 -46.5t-5 -47t-20 -13h-184l-55 -331q-3 -18 -17.5 -23.5t-58.5 -5.5q-43 0 -55 5t-9 24zM489 795l-53 -320h297l53 320h-297z " />
<glyph unicode="$" horiz-adv-x="1175" d="M594 -188q-54 0 -69 7t-15 29v136q-188 13 -288 96t-103 254q0 22 15.5 29.5t68.5 7.5q52 0 67 -7t15 -30q1 -98 60 -148t177 -61v504q-71 19 -123.5 39.5t-104 52t-84 71t-52 97t-19.5 129.5q0 168 86 256t285 100v133q0 23 15 30t69 7t69 -7t15 -30v-135 q170 -18 253.5 -99t86.5 -243q0 -22 -15.5 -29.5t-68.5 -7.5q-52 0 -67 7t-15 30q-1 91 -46 138t-140 59v-477q72 -21 120.5 -38.5t96 -41.5t76 -51.5t51.5 -65t33 -86t10 -111.5q0 -170 -88.5 -263.5t-286.5 -108.5v-136q0 -22 -15 -29t-69 -7zM883 356q0 98 -51 149 t-166 87v-467q117 12 167 67t50 164zM309 1026q0 -102 49.5 -150t163.5 -83v438q-118 -7 -165.5 -54.5t-47.5 -150.5z" />
<glyph unicode="%" horiz-adv-x="1585" d="M395 1368q150 0 215.5 -77t65.5 -240t-66 -240.5t-215 -77.5t-214.5 77.5t-65.5 240.5t65.5 240t214.5 77zM395 844q84 0 117 46t33 161t-33 160.5t-117 45.5t-116.5 -45.5t-32.5 -160.5t32.5 -161t116.5 -46zM1190 623q149 0 214.5 -77.5t65.5 -240.5t-65.5 -240 t-214.5 -77q-150 0 -215.5 77t-65.5 240t66 240.5t215 77.5zM1190 98q84 0 116.5 46t32.5 161t-32.5 161t-116.5 46t-117 -46t-33 -161t33 -161t117 -46zM1237 1327l-748 -1302q-10 -19 -27 -24t-65 -5q-27 0 -40 4t-14 11.5t5 17.5l748 1302q10 19 27 24t65 5q27 0 40 -4 t14 -11.5t-5 -17.5z" />
<glyph unicode="&#x26;" horiz-adv-x="1425" d="M1288 145q15 7 26.5 -6.5t22.5 -46.5q13 -40 12 -54t-16 -22q-54 -28 -145 -28q-158 0 -219 121q-116 -129 -348 -129q-251 0 -370.5 105.5t-119.5 311.5q0 131 55 221t148 123q-80 30 -125 101.5t-45 181.5q0 173 106 262.5t334 89.5q217 0 317.5 -77.5t100.5 -229.5 q0 -21 -15 -27t-67 -6t-64 6t-14 29q-5 82 -60.5 123t-197.5 41q-144 0 -205 -49.5t-61 -165.5q0 -121 48 -170t171 -49h68q17 0 21.5 -12.5t4.5 -55.5q0 -45 -4.5 -57t-21.5 -12h-64q-115 0 -184.5 -64t-69.5 -194q0 -132 75 -208.5t239 -76.5q305 0 305 260v283h-117 q-17 0 -22 12.5t-5 56.5q0 43 5 55.5t22 12.5h442q17 0 22 -12.5t5 -55.5q0 -44 -5 -56.5t-22 -12.5h-161v-306q0 -97 10.5 -146t33 -66t66.5 -17q52 0 88 16z" />
<glyph unicode="'" horiz-adv-x="421" d="M147 956l-16 430q0 22 15 28.5t65 6.5t65 -6.5t15 -28.5l-17 -430q0 -19 -12.5 -24.5t-50.5 -5.5q-39 0 -51.5 5.5t-12.5 24.5z" />
<glyph unicode="(" horiz-adv-x="716" d="M164 524q0 156 7.5 275t25.5 223.5t48.5 177t75.5 124.5t107.5 76.5t144.5 24.5h35q18 0 22.5 -12t4.5 -53q0 -42 -4.5 -54t-22.5 -12h-30q-77 0 -128.5 -48.5t-81 -150t-41.5 -238t-12 -333.5t12 -333.5t41.5 -238t81 -150t128.5 -48.5h30q18 0 22.5 -12t4.5 -53 q0 -42 -4.5 -54t-22.5 -12h-35q-82 0 -144.5 24.5t-107.5 76.5t-75.5 124.5t-48.5 177t-25.5 223.5t-7.5 275z" />
<glyph unicode=")" horiz-adv-x="716" d="M553 524q0 -155 -7.5 -274.5t-25.5 -224t-49 -177t-76 -124.5t-107.5 -76.5t-144.5 -24.5h-34q-18 0 -22.5 12t-4.5 54q0 41 4.5 53t22.5 12h30q62 0 107 32.5t74.5 93t47.5 157.5t25.5 213.5t7.5 273.5t-7.5 273.5t-25.5 213.5t-47.5 157.5t-74.5 93t-107 32.5h-30 q-18 0 -22.5 12t-4.5 54q0 41 4.5 53t22.5 12h34q82 0 144.5 -24.5t107.5 -76.5t76 -124.5t49 -177t25.5 -224t7.5 -274.5z" />
<glyph unicode="*" horiz-adv-x="1056" d="M201 1196l288 -137l-40 317q-3 22 13.5 29.5t65.5 7.5q50 0 66.5 -7.5t13.5 -29.5l-41 -317l289 137q19 9 31.5 -5t27.5 -61q10 -32 12.5 -48.5t-2.5 -25.5t-20 -12l-313 -59l219 -231q14 -14 4.5 -31.5t-49.5 -46.5q-39 -30 -56 -33.5t-28 16.5l-154 281l-153 -281 q-11 -20 -28 -16.5t-56 33.5q-40 29 -49.5 46.5t4.5 31.5l219 231l-313 59q-22 4 -24 22t13 64q15 47 28 61t32 5z" />
<glyph unicode="+" d="M633 1010v-303h305q18 0 23.5 -13.5t5.5 -58.5t-5.5 -58.5t-23.5 -13.5h-305v-303q0 -19 -14.5 -25t-61.5 -6t-61.5 6t-14.5 25v303h-305q-18 0 -23.5 13.5t-5.5 58.5t5.5 58.5t23.5 13.5h305v303q0 19 14.5 24.5t61.5 5.5t61.5 -5.5t14.5 -24.5z" />
<glyph unicode="," horiz-adv-x="499" d="M276 229q64 0 85 -10t12 -41q-25 -86 -81 -215.5t-99 -214.5q-13 -27 -80 -27q-31 0 -46.5 6.5t-11.5 22.5q73 248 101 438q3 25 25 33t95 8z" />
<glyph unicode="-" horiz-adv-x="819" d="M164 623h491q19 0 24 -12.5t5 -57.5t-5 -57.5t-24 -12.5h-491q-19 0 -24 12.5t-5 57.5t5 57.5t24 12.5z" />
<glyph unicode="." horiz-adv-x="499" d="M250 -4q-66 0 -88.5 9.5t-22.5 41.5v135q0 34 21 42.5t90 8.5t89.5 -8.5t20.5 -42.5v-135q0 -32 -22 -41.5t-88 -9.5z" />
<glyph unicode="/" horiz-adv-x="724" d="M692 1425l-487 -1556q-6 -23 -24.5 -30t-80.5 -7q-51 0 -62 7t-5 30l487 1556q6 23 24.5 30t80.5 7q51 0 62 -7t5 -30z" />
<glyph unicode="0" horiz-adv-x="1163" d="M582 1290q251 0 352.5 -154t101.5 -501t-101.5 -501t-352.5 -154t-353 154t-102 501t102 501t353 154zM582 123q161 0 219.5 113.5t58.5 398.5t-58.5 398.5t-219.5 113.5t-220 -113.5t-59 -398.5t59 -398.5t220 -113.5z" />
<glyph unicode="1" horiz-adv-x="864" d="M381 33v1077l-250 -68q-19 -4 -26 10t-7 50q0 51 5 67.5t24 20.5l385 102q41 9 41 -18v-1241q0 -22 -16.5 -29.5t-69.5 -7.5t-69.5 7.5t-16.5 29.5z" />
<glyph unicode="2" horiz-adv-x="1081" d="M549 1290q405 0 405 -364q0 -60 -10.5 -111.5t-25.5 -89.5t-45.5 -75.5t-55.5 -61.5t-71 -54.5t-76 -48t-88 -49.5t-90 -51q-94 -54 -145 -110.5t-52 -131.5h639q19 0 24 -13t5 -58t-5.5 -58.5t-23.5 -13.5h-782q-18 0 -23.5 13.5t-5.5 58.5v34q0 116 57 203.5t172 165.5 q44 30 105 64.5t102 56.5t87 55.5t73 68t45 87.5t18 119q0 114 -53 169.5t-180 55.5q-132 0 -189.5 -49.5t-62.5 -161.5q-2 -23 -15 -30t-65 -7q-50 0 -65 7t-17 28q3 186 105.5 269t308.5 83z" />
<glyph unicode="3" horiz-adv-x="1073" d="M512 588h-119q-17 0 -21.5 12t-4.5 55t4.5 55.5t21.5 12.5h123q131 0 180 50.5t49 174.5q0 107 -52.5 155t-178.5 48q-128 0 -185.5 -43t-62.5 -127q-2 -23 -15 -29t-65 -6q-51 0 -66.5 6.5t-15.5 26.5q3 154 107.5 232.5t302.5 78.5q404 0 404 -334q0 -230 -164 -292 q99 -33 147.5 -106t48.5 -202q0 -177 -106 -276.5t-316 -99.5q-432 0 -438 319q0 20 15.5 26.5t66.5 6.5q52 0 65 -6t15 -29q5 -87 68.5 -132.5t207.5 -45.5q248 0 248 246q0 127 -67 175t-197 48z" />
<glyph unicode="4" d="M774 -4q-53 0 -69.5 7.5t-16.5 29.5v278h-594q-18 0 -23 16.5t-5 63.5q0 35 3 51.5t15 34.5l522 768q12 20 38 26.5t89 6.5q76 0 101.5 -6.5t25.5 -28.5v-792h160q18 0 23.5 -13.5t5.5 -56.5t-5.5 -56.5t-23.5 -13.5h-160v-278q0 -22 -16.5 -29.5t-69.5 -7.5zM244 451 h448v665z" />
<glyph unicode="5" horiz-adv-x="1028" d="M487 659q-141 0 -231 -41q-28 -12 -80 -12q-41 0 -56 7t-14 28l39 594q1 22 16.5 28.5t61.5 6.5h594q18 0 23.5 -13.5t5.5 -58.5t-5.5 -58.5t-23.5 -13.5h-524l-27 -376q90 45 242 45q405 0 405 -400q0 -415 -424 -415q-401 0 -407 319q0 20 15.5 26.5t66.5 6.5 q52 0 65 -6t15 -29q5 -87 62 -132.5t183 -45.5q136 0 193 66t57 208q0 135 -56 200.5t-196 65.5z" />
<glyph unicode="6" horiz-adv-x="1081" d="M766 1001q-9 150 -217 150q-53 0 -95 -16.5t-69 -42.5t-47 -66.5t-30.5 -78t-16 -90t-7 -89t-1.5 -86.5q38 53 115.5 81t170.5 28q210 0 302 -99t92 -303q0 -409 -412 -409q-105 0 -181.5 28t-124.5 77.5t-76.5 128.5t-39 169t-10.5 211q0 158 11.5 267t39.5 195 t77.5 135t123 74t178.5 25q170 0 273 -71.5t106 -219.5q0 -20 -15.5 -26t-66.5 -6q-53 0 -65.5 6t-14.5 28zM551 119q139 0 191.5 66t52.5 204q0 144 -50 205t-192 61q-207 0 -270 -141q1 -48 4.5 -86t11.5 -80.5t20 -74.5t32.5 -62t47.5 -49.5t65.5 -31t86.5 -11.5z" />
<glyph unicode="7" horiz-adv-x="978" d="M240 35q74 247 203.5 548.5t258.5 542.5h-591q-18 0 -23.5 13.5t-5.5 58.5t5.5 58.5t23.5 13.5h745q18 0 23.5 -12.5t5.5 -51.5q0 -11 -0.5 -21t-2.5 -19t-3 -14.5t-4.5 -13.5t-4.5 -10.5t-5 -11.5t-5 -10q-136 -259 -256.5 -546t-191.5 -527q-6 -22 -27 -29.5t-74 -7.5 q-51 0 -64 8t-7 31z" />
<glyph unicode="8" horiz-adv-x="1122" d="M123 334q0 137 57 210t160 109q-91 36 -140.5 105.5t-49.5 195.5q0 167 99.5 251.5t311.5 84.5t312 -84.5t100 -251.5q0 -125 -50.5 -195t-140.5 -106q102 -37 159.5 -109.5t57.5 -209.5q0 -174 -106.5 -264t-331.5 -90t-331.5 90t-106.5 264zM829 338q0 66 -20.5 113 t-61.5 75t-82 43t-104 29q-63 -14 -104 -29t-82 -43t-61.5 -75t-20.5 -113q0 -114 63.5 -166.5t204.5 -52.5t204.5 52.5t63.5 166.5zM317 950q0 -58 18.5 -100.5t55 -69t75 -41.5t95.5 -28q57 13 95.5 28t75 41.5t55 69t18.5 100.5q0 109 -56 156t-188 47t-188 -47t-56 -156 z" />
<glyph unicode="9" horiz-adv-x="1081" d="M307 268q9 -149 217 -149q53 0 95 16.5t69.5 42t47.5 66t30 78t16 89.5t7.5 89t1.5 86q-38 -52 -116 -79.5t-171 -27.5q-210 0 -301.5 99t-91.5 303q0 409 411 409q105 0 181.5 -28t124.5 -77.5t76.5 -128.5t39 -169t10.5 -211q0 -158 -11.5 -267t-39.5 -195t-77.5 -135 t-123 -74t-178.5 -25q-170 0 -273 71t-106 219q0 20 15.5 26.5t66.5 6.5q52 0 65 -6t15 -29zM522 1151q-139 0 -191 -66t-52 -204q0 -144 49.5 -205.5t191.5 -61.5q100 0 168.5 36.5t99.5 105.5q-1 56 -5.5 100t-14.5 91.5t-29.5 82t-47.5 63t-71 43.5t-98 15z" />
<glyph unicode=":" horiz-adv-x="540" d="M270 -4q-66 0 -88 9.5t-22 41.5v135q0 34 20.5 42.5t89.5 8.5t90 -8.5t21 -42.5v-135q0 -32 -22.5 -41.5t-88.5 -9.5zM270 762q-66 0 -88 9.5t-22 41.5v135q0 34 20.5 42.5t89.5 8.5t90 -8.5t21 -42.5v-135q0 -32 -22.5 -41.5t-88.5 -9.5z" />
<glyph unicode=";" horiz-adv-x="540" d="M270 762q-66 0 -88 9.5t-22 41.5v135q0 34 20.5 42.5t89.5 8.5t90 -8.5t21 -42.5v-135q0 -32 -22.5 -41.5t-88.5 -9.5zM297 229q64 0 84.5 -10t11.5 -41q-25 -86 -81 -215.5t-99 -214.5q-13 -27 -80 -27q-65 0 -57 29q71 242 100 438q3 25 25 33t96 8z" />
<glyph unicode="&#x3c;" d="M156 635q0 37 3.5 55.5t8 24t16.5 14.5l652 469q18 11 30.5 3.5t40.5 -46.5q28 -38 31 -53t-16 -27l-611 -440l611 -440q19 -12 16 -27t-31 -53q-28 -39 -40.5 -46.5t-30.5 3.5l-652 469q-12 9 -16.5 14.5t-8 24t-3.5 55.5z" />
<glyph unicode="=" d="M184 512h746q18 0 23 -13.5t5 -58.5t-5 -58t-23 -13h-746q-18 0 -23 13t-5 58t5 58.5t23 13.5zM184 901h746q18 0 23 -13.5t5 -58.5t-5 -58t-23 -13h-746q-18 0 -23 13t-5 58t5 58.5t23 13.5z" />
<glyph unicode="&#x3e;" d="M958 635q0 -37 -3.5 -55.5t-8 -24t-16.5 -14.5l-651 -469q-17 -12 -30.5 -4t-41.5 47q-28 38 -30.5 53t16.5 27l610 440l-610 440q-19 12 -16.5 27t30.5 53q28 39 41.5 47t30.5 -4l651 -469q12 -9 16.5 -14.5t8 -24t3.5 -55.5z" />
<glyph unicode="?" horiz-adv-x="1118" d="M604 467l-4 -51q-2 -20 -14.5 -26.5t-57.5 -6.5t-57 6.5t-14 26.5l-4 51q-5 59 12 108t48 83.5t69.5 65t78 60t72.5 61.5t53.5 77t20.5 98q0 104 -57 156.5t-193 52.5q-143 0 -209 -54t-67 -174q0 -23 -14.5 -30.5t-67.5 -7.5q-50 0 -67 7.5t-17 28.5q0 196 112 286.5 t330 90.5q426 0 426 -356q0 -66 -20 -119t-52 -89t-71 -66.5t-78.5 -58.5t-73.5 -57.5t-57 -71t-27 -91.5zM530 -4q-66 0 -88 9.5t-22 41.5v135q0 34 20.5 42.5t89.5 8.5t90 -8.5t21 -42.5v-135q0 -32 -22.5 -41.5t-88.5 -9.5z" />
<glyph unicode="@" horiz-adv-x="1802" d="M1108 588v262q-62 33 -178 33q-132 0 -182 -65t-50 -236q0 -149 45 -211t154 -62q211 0 211 279zM1198 -137h-289q-191 0 -327.5 37.5t-234 123t-144.5 228t-47 348.5t47.5 348t147 228t240 123.5t339.5 37.5q167 0 290 -28t206.5 -81t134 -139t72.5 -193t22 -251 q0 -189 -32.5 -297t-94.5 -151t-166 -43q-108 0 -157 42t-66 123q-71 -137 -262 -137q-162 0 -243 94t-81 306q0 227 85 328.5t292 101.5q168 0 280 -62q22 -11 29.5 -21t7.5 -24v-475q0 -168 103 -168q93 0 129.5 81.5t36.5 301.5q0 165 -26.5 270.5t-94.5 175.5t-179.5 99 t-285.5 29q-114 0 -199 -11t-159 -38t-123.5 -73t-85 -114.5t-52 -163t-16.5 -219.5t16 -219.5t51 -163t83.5 -114t120 -72.5t153.5 -38t190 -11h289q15 0 20 -11.5t5 -48.5q0 -36 -5 -47.5t-20 -11.5z" />
<glyph unicode="A" horiz-adv-x="1175" d="M1026 -4q-52 0 -69 7t-23 30q-68 250 -98 350h-496q-30 -100 -98 -350q-6 -23 -23 -30t-69 -7q-56 0 -74.5 7.5t-12.5 29.5q75 286 190.5 642t227.5 648q8 22 27.5 29.5t79.5 7.5t79 -7t27 -30q112 -292 227.5 -648t190.5 -642q6 -22 -12 -29.5t-74 -7.5zM588 1151 q-88 -244 -203 -621h406q-99 326 -203 621z" />
<glyph unicode="B" horiz-adv-x="1236" d="M360 625v-475h273q162 0 233.5 54t71.5 181q0 75 -21.5 123.5t-68 73.5t-103.5 34t-145 9h-240zM606 1206h-246v-436h256q142 0 205.5 55t63.5 170q0 113 -64 162t-215 49zM260 1356h352q233 0 342 -87.5t109 -262.5q0 -116 -45 -188t-137 -109q111 -23 174 -102t63 -220 q0 -191 -111 -289t-362 -98h-385q-45 0 -60.5 7.5t-15.5 29.5v1282q0 22 15.5 29.5t60.5 7.5z" />
<glyph unicode="C" horiz-adv-x="1212" d="M131 678q0 194 24.5 322t84 214.5t158 124t249.5 37.5q445 0 445 -383q0 -22 -16.5 -29.5t-69.5 -7.5t-69.5 7.5t-16.5 29.5q-2 119 -66 175.5t-207 56.5q-102 0 -163.5 -23t-102 -86.5t-55.5 -166.5t-15 -271t15.5 -271t56 -166.5t103 -86.5t165.5 -23q148 0 208.5 58.5 t62.5 185.5q0 22 16.5 29.5t69.5 7.5t69.5 -7.5t16.5 -29.5q0 -199 -106 -297t-337 -98q-151 0 -250.5 37.5t-160 124t-85 214.5t-24.5 322z" />
<glyph unicode="D" horiz-adv-x="1290" d="M360 152h263q74 0 127 9.5t94 34.5t66 62t41 98t22 137.5t6 184.5t-6 184.5t-22 137.5t-41 98t-66 62t-94 34.5t-127 9.5h-263v-1052zM623 0h-363q-45 0 -60.5 7.5t-15.5 29.5v1282q0 22 15.5 29.5t60.5 7.5h363q126 0 216.5 -25t152.5 -74.5t98.5 -132.5t52.5 -190 t16 -256t-16 -256t-52.5 -190t-98.5 -132.5t-152.5 -74.5t-216.5 -25z" />
<glyph unicode="E" horiz-adv-x="1142" d="M969 1200h-609v-428h539q20 0 26.5 -14t6.5 -62t-6.5 -61.5t-26.5 -13.5h-539v-465h615q19 0 26 -15t7 -63t-7 -63t-26 -15h-715q-45 0 -60.5 7.5t-15.5 29.5v1282q0 22 15.5 29.5t60.5 7.5h709q19 0 25.5 -15t6.5 -63t-6.5 -63t-25.5 -15z" />
<glyph unicode="F" horiz-adv-x="1052" d="M360 621v-588q0 -22 -17 -29.5t-71 -7.5t-71 7.5t-17 29.5v1286q0 22 15.5 29.5t60.5 7.5h686q19 0 26 -15t7 -63t-7 -63t-26 -15h-586v-428h525q20 0 26.5 -14t6.5 -62t-6.5 -61.5t-26.5 -13.5h-525z" />
<glyph unicode="G" horiz-adv-x="1261" d="M1042 684q45 0 60.5 -7.5t15.5 -29.5v-219q0 -448 -450 -448q-190 0 -306 67.5t-173.5 220.5t-57.5 410q0 192 25 320t85.5 215t159 125t248.5 38q223 0 339 -93t116 -273q0 -22 -16.5 -29.5t-69.5 -7.5t-69.5 7.5t-16.5 29.5q-3 215 -283 215q-81 0 -135.5 -15.5 t-95.5 -51.5t-63.5 -100.5t-33 -155.5t-10.5 -224q0 -132 13.5 -225.5t39.5 -156t70.5 -99t100 -51.5t133.5 -15q149 0 213.5 71t64.5 234v96h-291q-19 0 -25.5 14t-6.5 62t6.5 62t25.5 14h387z" />
<glyph unicode="H" horiz-adv-x="1331" d="M1059 -4q-54 0 -71 7.5t-17 29.5v585h-611v-585q0 -22 -17 -29.5t-71 -7.5t-71 7.5t-17 29.5v1290q0 22 17 29.5t71 7.5t71 -7.5t17 -29.5v-549h611v549q0 22 17 29.5t71 7.5t71 -7.5t17 -29.5v-1290q0 -22 -17 -29.5t-71 -7.5z" />
<glyph unicode="I" horiz-adv-x="552" d="M276 -4q-54 0 -71 7.5t-17 29.5v1290q0 22 17 29.5t71 7.5q55 0 72 -7.5t17 -29.5v-1290q0 -22 -17 -29.5t-72 -7.5z" />
<glyph unicode="J" horiz-adv-x="1052" d="M700 475v848q0 22 17 29.5t71 7.5q55 0 72 -7.5t17 -29.5v-856q0 -252 -94.5 -369.5t-315.5 -117.5q-196 0 -290.5 99t-94.5 296q0 22 16.5 29.5t69.5 7.5t69.5 -7.5t16.5 -29.5q2 -125 52.5 -182.5t164.5 -57.5q133 0 181 78.5t48 261.5z" />
<glyph unicode="K" horiz-adv-x="1175" d="M1096 1321l-445 -602l471 -684q23 -31 -36 -38q-14 -1 -33 -1q-62 0 -88 7t-41 28l-414 608h-150v-606q0 -22 -17 -29.5t-71 -7.5t-71 7.5t-17 29.5v1290q0 22 17 29.5t71 7.5t71 -7.5t17 -29.5v-528h150l383 530q15 20 42.5 27.5t90.5 7.5q82 0 76 -27z" />
<glyph unicode="L" horiz-adv-x="1003" d="M360 1323v-1171h545q20 0 26.5 -14t6.5 -62t-6.5 -62t-26.5 -14h-645q-45 0 -60.5 7.5t-15.5 29.5v1286q0 22 17 29.5t71 7.5t71 -7.5t17 -29.5z" />
<glyph unicode="M" horiz-adv-x="1613" d="M807 150q-53 0 -69.5 7.5t-24.5 30.5l-357 936v-1091q0 -22 -16.5 -29.5t-69.5 -7.5t-69.5 7.5t-16.5 29.5v1290q0 22 26.5 29.5t102.5 7.5q67 0 95.5 -8t35.5 -29l363 -952l362 952q7 21 35.5 29t95.5 8q76 0 103 -7.5t27 -29.5v-1290q0 -22 -17 -29.5t-70 -7.5 t-69.5 7.5t-16.5 29.5v1091l-356 -936q-8 -23 -24.5 -30.5t-69.5 -7.5z" />
<glyph unicode="N" horiz-adv-x="1339" d="M1069 1360q53 0 69.5 -7.5t16.5 -29.5v-1290q0 -22 -19.5 -29.5t-86.5 -7.5q-54 0 -72 6t-29 27l-592 1048v-1044q0 -22 -16.5 -29.5t-69.5 -7.5t-69.5 7.5t-16.5 29.5v1290q0 22 20 29.5t87 7.5q54 0 71.5 -6t28.5 -27l592 -1048v1044q0 22 16.5 29.5t69.5 7.5z" />
<glyph unicode="O" horiz-adv-x="1302" d="M651 1376q288 0 404 -159t116 -539t-116 -539t-404 -159t-404 159t-116 539t116 539t404 159zM651 131q131 0 202 46t104.5 163.5t33.5 337.5t-33.5 337.5t-104.5 163.5t-202 46t-202 -46t-104.5 -163.5t-33.5 -337.5t33.5 -337.5t104.5 -163.5t202 -46z" />
<glyph unicode="P" horiz-adv-x="1183" d="M602 504h-242v-471q0 -22 -17 -29.5t-71 -7.5t-71 7.5t-17 29.5v1286q0 22 15.5 29.5t60.5 7.5h342q253 0 364 -101t111 -327q0 -224 -111.5 -324t-363.5 -100zM360 1204v-553h238q168 0 233.5 57t65.5 220q0 84 -15.5 137t-53 84.5t-91.5 43t-139 11.5h-238z" />
<glyph unicode="Q" horiz-adv-x="1302" d="M651 1376q288 0 404 -159t116 -539q0 -329 -85 -490t-287 -196q46 -53 135 -85t186 -34q20 0 26.5 -14t6.5 -62t-6.5 -62t-26.5 -14q-145 0 -278 72.5t-215 186.5q-274 6 -385 165.5t-111 532.5q0 380 116 539t404 159zM651 131q131 0 202 46t104.5 163.5t33.5 337.5 t-33.5 337.5t-104.5 163.5t-202 46t-202 -46t-104.5 -163.5t-33.5 -337.5t33.5 -337.5t104.5 -163.5t202 -46z" />
<glyph unicode="R" horiz-adv-x="1220" d="M561 549h-201v-516q0 -22 -17 -29.5t-71 -7.5t-71 7.5t-17 29.5v1286q0 22 15.5 29.5t60.5 7.5h342q251 0 363 -99.5t112 -308.5q0 -282 -256 -362q69 -27 114.5 -90t90.5 -189q58 -158 88 -274q0 -4 1 -9t-4.5 -10t-14 -9t-27.5 -6.5t-45 -2.5q-57 0 -78 7.5t-26 27.5 q-17 83 -72 243q-23 66 -46 111.5t-56 85t-79 59t-106 19.5zM360 1204v-512h238q166 0 232.5 54.5t66.5 201.5t-66.5 201.5t-232.5 54.5h-238z" />
<glyph unicode="S" horiz-adv-x="1179" d="M588 127q152 0 219 53.5t67 173.5q0 111 -64 162t-224 90q-59 14 -103.5 27.5t-93 33t-84 41.5t-68.5 52.5t-53.5 67t-32.5 84t-12 104.5q0 179 101 269.5t329 90.5q221 0 331.5 -81t113.5 -265q0 -22 -15.5 -29.5t-68.5 -7.5t-68.5 7.5t-15.5 29.5q-1 109 -67 154 t-204 45q-142 0 -202 -48t-60 -157q0 -37 7.5 -66.5t18 -51.5t34 -41.5t43.5 -32t60.5 -27t69.5 -23t85 -24.5q96 -27 154.5 -48t114.5 -53t85 -71t46.5 -96.5t17.5 -135.5q0 -187 -109 -280.5t-352 -93.5q-464 0 -469 354q0 22 15.5 29.5t68.5 7.5t68.5 -7.5t15.5 -29.5 q1 -110 78.5 -158.5t222.5 -48.5z" />
<glyph unicode="T" horiz-adv-x="1077" d="M975 1200h-348v-1167q0 -22 -17 -29.5t-71 -7.5t-71 7.5t-17 29.5v1167h-349q-19 0 -25.5 15t-6.5 63t6.5 63t25.5 15h873q19 0 26 -15t7 -63t-7 -63t-26 -15z" />
<glyph unicode="U" horiz-adv-x="1302" d="M651 -20q-259 0 -369 119t-110 384v840q0 22 17 29.5t71 7.5t71 -7.5t17 -29.5v-831q0 -194 65.5 -273.5t237.5 -79.5t237.5 79.5t65.5 273.5v831q0 22 17 29.5t71 7.5t71 -7.5t17 -29.5v-840q0 -265 -110 -384t-369 -119z" />
<glyph unicode="V" horiz-adv-x="1167" d="M1024 1360q55 0 72.5 -7.5t11.5 -29.5q-209 -736 -418 -1290q-8 -23 -27 -30t-79 -7t-79.5 7.5t-27.5 29.5q-209 554 -418 1290q-6 22 13.5 29.5t77.5 7.5q54 0 72 -7.5t24 -29.5q202 -715 342 -1114q148 429 346 1114q6 23 22 30t68 7z" />
<glyph unicode="W" horiz-adv-x="1810" d="M1640 1360q55 0 73 -7.5t13 -29.5q-58 -281 -155.5 -652.5t-184.5 -637.5q-8 -22 -27 -29.5t-75 -7.5q-55 0 -72.5 7t-23.5 30q-138 464 -283 1048q-174 -686 -282 -1048q-6 -23 -24 -30t-73 -7q-56 0 -75 7.5t-27 29.5q-87 266 -184.5 637.5t-155.5 652.5q-4 22 14 29.5 t74 7.5q53 0 70 -7.5t22 -29.5q107 -523 260 -1092q145 520 287 1092q5 23 22 30t72 7q56 0 75 -7.5t24 -29.5q169 -677 284 -1092q161 601 262 1092q5 22 21.5 29.5t68.5 7.5z" />
<glyph unicode="X" horiz-adv-x="1171" d="M731 698l373 -663q5 -10 4.5 -17.5t-8.5 -12t-25 -7t-45 -2.5q-60 0 -83.5 7t-33.5 28l-319 587h-16l-320 -587q-10 -21 -33.5 -28t-83.5 -7q-28 0 -45 2.5t-24.5 7t-8 12t4.5 17.5l372 663l-362 623q-5 10 -4.5 17.5t8.5 12t25 7t45 2.5q59 0 81.5 -6.5t32.5 -28.5 l312 -551h16l311 551q10 22 33 28.5t82 6.5q28 0 45 -2.5t25 -7t8.5 -12t-4.5 -17.5z" />
<glyph unicode="Y" horiz-adv-x="1134" d="M889 1323q7 16 13.5 23t24.5 10.5t56 3.5q33 0 53.5 -2t31 -6.5t12 -12t-2.5 -18.5q-79 -173 -203 -415t-219 -410v-463q0 -22 -17 -29.5t-71 -7.5t-71 7.5t-17 29.5v463q-95 168 -219 410t-203 415q-4 11 -2.5 18.5t12.5 12t31.5 6.5t53.5 2q38 0 56 -3.5t24.5 -10.5 t13.5 -23q155 -364 321 -674q171 319 322 674z" />
<glyph unicode="Z" horiz-adv-x="1118" d="M158 1356h803q21 0 26.5 -16t5.5 -68q0 -54 -16 -78l-666 -1042h664q20 0 26.5 -14t6.5 -62t-6.5 -62t-26.5 -14h-836q-21 0 -27 15.5t-6 66.5q0 50 17 76l665 1046h-630q-20 0 -26.5 14t-6.5 62t6.5 62t26.5 14z" />
<glyph unicode="[" horiz-adv-x="716" d="M197 -340v1729q0 19 13 25.5t54 6.5h320q18 0 22 -11.5t4 -53.5t-4 -54t-22 -12h-240v-1532h240q18 0 22 -11.5t4 -53.5t-4 -54t-22 -12h-320q-40 0 -53.5 7t-13.5 26z" />
<glyph unicode="\" horiz-adv-x="724" d="M520 -131l-487 1556q-6 23 5 30t62 7q62 0 80.5 -7t24.5 -30l487 -1556q6 -23 -5 -30t-62 -7q-62 0 -80.5 7t-24.5 30z" />
<glyph unicode="]" horiz-adv-x="716" d="M520 1389v-1729q0 -19 -13.5 -26t-53.5 -7h-320q-18 0 -22.5 12t-4.5 54q0 41 4.5 53t22.5 12h240v1532h-240q-18 0 -22.5 12t-4.5 54q0 41 4.5 53t22.5 12h320q41 0 54 -6.5t13 -25.5z" />
<glyph unicode="^" d="M557 1368q48 0 63 -4.5t25 -22.5l344 -614q6 -11 5.5 -18.5t-9 -12t-24.5 -6.5t-43 -2q-53 0 -75 7t-34 28l-252 463l-252 -463q-12 -21 -33.5 -28t-74.5 -7q-27 0 -43 2t-25 6.5t-9.5 12t5.5 18.5l344 614q10 18 25 22.5t63 4.5z" />
<glyph unicode="_" horiz-adv-x="815" d="M795 -260h-775q-18 0 -23 12t-5 53t5 53.5t23 12.5h775q18 0 23 -12.5t5 -53.5t-5 -53t-23 -12z" />
<glyph unicode="`" horiz-adv-x="675" d="M469 1130l-317 158q-21 9 -20.5 24.5t26.5 57.5q25 41 37.5 49t31.5 -4l301 -198q15 -10 15 -20.5t-17 -37.5q-18 -30 -28.5 -34.5t-28.5 5.5z" />
<glyph unicode="a" horiz-adv-x="1064" d="M322 731q0 -21 -16 -28t-66 -7q-53 0 -66.5 6.5t-13.5 30.5q0 140 93.5 211.5t274.5 71.5q107 0 182 -21.5t119 -64t64 -101t20 -137.5v-663q0 -21 -14.5 -27t-64.5 -6t-65 6t-15 27l-2 98q-92 -143 -310 -143q-336 0 -336 280q0 143 84.5 217t264.5 74h293v129 q0 108 -49 150.5t-167 42.5q-110 0 -160 -35.5t-50 -110.5zM748 428h-289q-108 0 -148.5 -38t-40.5 -124q0 -80 47.5 -113.5t135.5 -33.5q133 0 214 62t81 171v76z" />
<glyph unicode="b" horiz-adv-x="1150" d="M332 1386v-497q95 127 299 127q206 0 303.5 -125.5t97.5 -384.5q0 -275 -97 -400.5t-304 -125.5t-305 133l-2 -84q0 -21 -15 -27t-65 -6t-65 6t-15 27v1357q0 22 16 28.5t68 6.5t68 -6.5t16 -28.5zM332 498q0 -199 61.5 -287t210.5 -88q145 0 200.5 85t55.5 298 q0 197 -56.5 281.5t-199.5 84.5q-149 0 -210.5 -87.5t-61.5 -286.5z" />
<glyph unicode="c" horiz-adv-x="1040" d="M557 872q-151 0 -208.5 -84.5t-57.5 -289.5t58.5 -290t209.5 -85q206 0 209 139q0 21 16 28t66 7q53 0 66.5 -6.5t13.5 -30.5q-3 -137 -100.5 -208.5t-270.5 -71.5q-236 0 -338 123.5t-102 394.5t101 394.5t337 123.5q169 0 267.5 -72t101.5 -203q0 -24 -13.5 -30 t-66.5 -6q-50 0 -66 6.5t-16 27.5q-1 66 -56 99.5t-151 33.5z" />
<glyph unicode="d" horiz-adv-x="1150" d="M827 29l-4 84q-95 -133 -303 -133q-207 0 -304 125.5t-97 400.5q0 259 97.5 384.5t303.5 125.5q201 0 299 -127v497q0 22 16 28.5t68 6.5t68 -6.5t16 -28.5v-1357q0 -21 -15 -27t-65 -6t-65 6t-15 27zM819 498q0 199 -61.5 286.5t-210.5 87.5q-143 0 -199.5 -84.5 t-56.5 -281.5q0 -213 55.5 -298t200.5 -85q149 0 210.5 88t61.5 287z" />
<glyph unicode="e" horiz-adv-x="1069" d="M915 446h-628q6 -172 70.5 -247.5t209.5 -75.5q96 0 147 34t54 95q2 21 17 28t65 7q53 0 66.5 -6.5t13.5 -30.5q-3 -128 -99 -199t-264 -71q-237 0 -342.5 121.5t-105.5 381.5q0 279 103.5 406t334.5 127q114 0 193.5 -34t121.5 -96.5t60 -136.5t18 -169v-50 q0 -52 -6.5 -68t-28.5 -16zM557 872q-135 0 -196.5 -67.5t-71.5 -231.5h504v45q0 125 -50.5 189.5t-185.5 64.5z" />
<glyph unicode="f" horiz-adv-x="704" d="M606 856h-221v-825q0 -22 -15 -28.5t-67 -6.5t-67 6.5t-15 28.5v825h-127q-18 0 -23 12t-5 56q0 43 5 55t23 12l127 4v119q0 170 68 245t223 75q106 0 178 -33q15 -8 16 -22t-14 -54q-14 -37 -24.5 -46.5t-26.5 -4.5q-50 16 -104 16q-83 0 -117.5 -41t-34.5 -143v-111 h221q19 0 24 -13t5 -56t-5.5 -56.5t-23.5 -13.5z" />
<glyph unicode="g" horiz-adv-x="1118" d="M285 -104q0 -146 252 -146q127 0 187 38t60 138q0 94 -63.5 141.5t-188.5 73.5q-217 0 -317 109t-100 330t98 329.5t315 108.5q106 0 197 -33l283 23q21 1 26.5 -13t5.5 -59t-5.5 -58.5t-26.5 -13.5h-129q71 -112 71 -289q0 -291 -184 -387q184 -77 184 -262 q0 -315 -413 -315q-201 0 -307.5 72.5t-106.5 210.5q0 24 13.5 30t66.5 6q50 0 66 -6.5t16 -27.5zM532 279q134 0 194 73t60 223q0 153 -62 229.5t-196 76.5q-136 0 -192.5 -72t-56.5 -229q0 -156 58 -228.5t195 -72.5z" />
<glyph unicode="h" horiz-adv-x="1146" d="M332 1386v-516q35 61 116.5 103.5t202.5 42.5q161 0 250.5 -87.5t89.5 -264.5v-633q0 -22 -16 -28.5t-68 -6.5t-68 6.5t-16 28.5v620q0 113 -50 165t-155 52q-131 0 -208.5 -71.5t-77.5 -194.5v-571q0 -22 -16 -28.5t-68 -6.5t-68 6.5t-16 28.5v1355q0 22 16 28.5t68 6.5 t68 -6.5t16 -28.5z" />
<glyph unicode="i" horiz-adv-x="503" d="M168 31v934q0 22 15.5 28t68.5 6t68.5 -6t15.5 -28v-934q0 -22 -16 -28.5t-68 -6.5t-68 6.5t-16 28.5zM252 1378q63 0 78.5 -8.5t15.5 -42.5v-131q0 -32 -17 -41.5t-77 -9.5t-77 9.5t-17 41.5v131q0 34 15.5 42.5t78.5 8.5z" />
<glyph unicode="j" horiz-adv-x="520" d="M-8 -233q3 0 22.5 -2.5t32.5 -2.5q53 0 81 17t42 67t14 146v973q0 22 15.5 28t68.5 6t68.5 -6t15.5 -28v-981q0 -110 -17.5 -183t-54 -112t-84 -54.5t-116.5 -15.5q-66 0 -90 6q-18 4 -22.5 16t-4.5 56q0 43 5.5 56.5t23.5 13.5zM268 1378q63 0 78.5 -8.5t15.5 -42.5 v-131q0 -32 -17 -41.5t-77 -9.5t-77 9.5t-17 41.5v131q0 34 15.5 42.5t78.5 8.5z" />
<glyph unicode="k" horiz-adv-x="999" d="M332 1386v-774h102l301 346q23 26 44.5 33.5t82.5 7.5q93 0 82 -30q-2 -6 -8 -13l-363 -413l375 -504q22 -30 -15 -39q-19 -4 -56 -4q-62 0 -82 7t-41 34l-324 436h-98v-442q0 -22 -16 -28.5t-68 -6.5t-68 6.5t-16 28.5v1355q0 22 16 28.5t68 6.5t68 -6.5t16 -28.5z" />
<glyph unicode="l" horiz-adv-x="528" d="M412 147h28q19 0 25 -14t6 -59t-6 -59.5t-25 -14.5h-45q-129 0 -178 44.5t-49 160.5v1181q0 22 16 28.5t68 6.5t68 -6.5t16 -28.5v-1165q0 -42 17 -58t59 -16z" />
<glyph unicode="m" horiz-adv-x="1732" d="M954 606v-575q0 -22 -16 -28.5t-68 -6.5t-68 6.5t-16 28.5v624q0 114 -42 163.5t-138 49.5q-111 0 -192.5 -72t-81.5 -190v-575q0 -22 -16 -28.5t-68 -6.5t-68 6.5t-16 28.5v936q0 21 14.5 26.5t65.5 5.5t65.5 -5.5t14.5 -26.5l4 -105q34 62 120.5 108t190.5 46 q213 0 281 -182q50 83 141 132.5t196 49.5q154 0 237 -85.5t83 -262.5v-637q0 -22 -16 -28.5t-68 -6.5t-68 6.5t-16 28.5v624q0 114 -42 163.5t-138 49.5q-111 0 -193 -72t-82 -190z" />
<glyph unicode="n" horiz-adv-x="1146" d="M324 967l4 -105q36 66 117.5 110t205.5 44q162 0 251 -86t89 -262v-637q0 -22 -16 -28.5t-68 -6.5t-68 6.5t-16 28.5v624q0 113 -49.5 163t-155.5 50q-131 0 -208.5 -70t-77.5 -192v-575q0 -22 -16 -28.5t-68 -6.5t-68 6.5t-16 28.5v936q0 21 14.5 26.5t65.5 5.5 t65.5 -5.5t14.5 -26.5z" />
<glyph unicode="o" d="M557 1016q236 0 337 -123.5t101 -394.5t-101 -394.5t-337 -123.5t-337 123.5t-101 394.5t101 394.5t337 123.5zM557 123q151 0 208.5 85t57.5 290t-57.5 289.5t-208.5 84.5t-208.5 -84.5t-57.5 -289.5t57.5 -290t208.5 -85z" />
<glyph unicode="p" horiz-adv-x="1150" d="M324 967l2 -84q98 133 307 133q206 0 302.5 -125.5t96.5 -392.5q0 -266 -97.5 -392t-301.5 -126q-207 0 -301 122v-440q0 -22 -16 -28.5t-68 -6.5t-68 6.5t-16 28.5v1305q0 21 14.5 26.5t65.5 5.5t65.5 -5.5t14.5 -26.5zM332 498q0 -199 61.5 -287t210.5 -88 q144 0 200 85t56 290q0 204 -56 289t-200 85q-149 0 -210.5 -87.5t-61.5 -286.5z" />
<glyph unicode="q" horiz-adv-x="1150" d="M903 -373q-52 0 -68 6.5t-16 28.5v440q-96 -122 -301 -122q-204 0 -301.5 126t-97.5 392q0 267 96.5 392.5t302.5 125.5q210 0 305 -133l4 84q0 21 14.5 26.5t65.5 5.5t65.5 -5.5t14.5 -26.5v-1305q0 -22 -16 -28.5t-68 -6.5zM819 498q0 199 -61.5 286.5t-210.5 87.5 q-144 0 -200 -85t-56 -289q0 -205 56 -290t200 -85q149 0 210.5 88t61.5 287z" />
<glyph unicode="r" horiz-adv-x="749" d="M666 844q-154 0 -244 -73.5t-90 -201.5v-538q0 -22 -16 -28.5t-68 -6.5t-68 6.5t-16 28.5v936q0 21 14.5 26.5t65.5 5.5t65.5 -5.5t14.5 -26.5l4 -142q42 80 129 133.5t209 53.5q22 0 28 -15.5t6 -68.5t-6 -68.5t-28 -15.5z" />
<glyph unicode="s" horiz-adv-x="1011" d="M268 252q8 -69 62.5 -102t181.5 -33q124 0 169.5 34.5t45.5 112.5q0 75 -56.5 110.5t-181.5 59.5q-89 16 -149.5 36t-112.5 53.5t-77 86t-25 125.5q0 140 86 210.5t276 70.5q186 0 279.5 -64.5t93.5 -203.5q0 -21 -16 -28t-66 -7q-52 0 -65 6.5t-15 30.5q-5 67 -52 98 t-159 31q-109 0 -154.5 -32t-45.5 -104q0 -29 6.5 -51t24 -38.5t35 -28t52.5 -22t61.5 -17t76.5 -17.5t83.5 -19t73.5 -21.5t65 -28.5t51 -37t40.5 -49.5t23.5 -64.5t9 -83q0 -68 -17.5 -118t-58.5 -89t-116.5 -59t-184.5 -20q-210 0 -308 72t-98 198q0 24 13.5 30.5 t66.5 6.5q49 0 64 -7t18 -28z" />
<glyph unicode="t" horiz-adv-x="749" d="M618 856h-241v-573q0 -90 25 -122t90 -32q57 0 104 21q14 7 26 -6.5t23 -47.5q13 -40 12 -54t-16 -22q-62 -32 -162 -32q-147 0 -206.5 62.5t-59.5 219.5v586h-123q-19 0 -24 12.5t-5 55.5t5 55t24 12l123 4v238q0 22 15 28.5t67 6.5t67 -6.5t15 -28.5v-238h241 q19 0 24 -13t5 -56t-5.5 -56.5t-23.5 -13.5z" />
<glyph unicode="u" horiz-adv-x="1130" d="M807 29l-4 104q-84 -153 -291 -153q-175 0 -267.5 90.5t-92.5 269.5v625q0 22 15.5 28t68.5 6t68 -6t15 -28v-613q0 -117 52.5 -173t171.5 -56q121 0 188.5 74t67.5 196v572q0 22 15.5 28t68.5 6t68.5 -6t15.5 -28v-936q0 -21 -15 -27t-65 -6t-65 6t-15 27z" />
<glyph unicode="v" horiz-adv-x="991" d="M852 999q55 0 69.5 -8.5t8.5 -32.5q-59 -206 -150.5 -470.5t-173.5 -462.5q-7 -18 -29.5 -23.5t-80.5 -5.5t-81 5.5t-30 23.5q-82 198 -173.5 462.5t-150.5 470.5q-6 24 10 32.5t72 8.5q53 0 72.5 -8.5t24.5 -29.5q126 -481 256 -824q152 400 266 824q5 22 21.5 30 t68.5 8z" />
<glyph unicode="w" horiz-adv-x="1511" d="M1346 999q54 0 69 -6.5t15 -25.5q0 -11 -9 -43q-144 -567 -258 -899q-6 -18 -26 -23.5t-72 -5.5q-49 0 -63.5 5t-20.5 24q-106 317 -225 755q-122 -438 -226 -755q-6 -19 -20.5 -24t-63.5 -5q-52 0 -72 5.5t-26 23.5q-114 332 -258 899q-8 28 -8 43q0 19 15 25.5t69 6.5 q53 0 71 -9.5t23 -35.5q65 -322 184 -749q139 460 218 756q5 22 23 30t71 8t71 -8t23 -30q108 -405 217 -756q119 427 184 749q5 26 23.5 35.5t71.5 9.5z" />
<glyph unicode="x" horiz-adv-x="974" d="M721 37l-225 403h-19l-227 -403q-15 -27 -33 -34t-76 -7q-34 0 -53.5 5t-23.5 14.5t4 23.5l280 473l-272 444q-8 14 -3 23.5t25 14.5t54 5q40 0 60 -4t28.5 -11t19.5 -26l219 -378h17l223 378q16 27 32.5 34t73.5 7q34 0 53.5 -5t24 -14.5t-3.5 -23.5l-272 -444l280 -473 q8 -14 3 -23.5t-25 -14.5t-54 -5q-59 0 -77 7t-33 34z" />
<glyph unicode="y" horiz-adv-x="1019" d="M221 -238q49 0 78 7t56 34t46.5 62.5t53.5 109.5q1 6 10 23q-51 3 -59 27q-85 195 -182 459.5t-161 473.5q-6 24 9.5 32.5t70.5 8.5q53 0 71.5 -8.5t23.5 -29.5q134 -464 280 -836q81 198 156.5 431t116.5 405q5 22 21.5 30t66.5 8q53 0 68.5 -9t10.5 -34 q-41 -186 -142.5 -473.5t-209.5 -525.5q-28 -61 -45 -96.5t-40 -76.5t-42 -63t-44.5 -45t-53.5 -33.5t-63.5 -17t-79.5 -6.5q-65 0 -97 8q-18 4 -22 16t-4 56t5 57t23 13l25 -3q24 -4 53 -4z" />
<glyph unicode="z" horiz-adv-x="987" d="M854 877l-535 -742h529q19 0 24 -12t5 -55t-5 -55.5t-24 -12.5h-711q-17 0 -21.5 11.5t-4.5 47.5q0 41 10 56l536 745h-501q-19 0 -24 12.5t-5 55.5t5 55t24 12h682q17 0 21.5 -12t4.5 -49q0 -42 -10 -57z" />
<glyph unicode="{" horiz-adv-x="716" d="M57 524q0 43 5.5 56.5t23.5 13.5h49q39 0 57 18.5t27.5 84t9.5 204.5q0 62 1 103.5t4 92t9.5 83.5t17.5 70.5t27 61t39 46.5t53 35.5t69.5 20t87.5 7.5h71q18 0 22.5 -12t4.5 -53q0 -42 -4.5 -54t-22.5 -12h-67q-44 0 -72.5 -15t-46.5 -41.5t-26.5 -79.5t-11.5 -111 t-3 -154q0 -123 -14.5 -200t-38.5 -112t-64 -53q40 -18 64 -52.5t38.5 -111.5t14.5 -200q0 -80 2 -131t7.5 -101t16 -78t28.5 -51t44 -32t62 -9h67q18 0 22.5 -12t4.5 -53q0 -42 -4.5 -54t-22.5 -12h-71q-48 0 -87.5 7.5t-69.5 20t-53 35.5t-39 46.5t-27 61t-17.5 70.5 t-9.5 83.5t-4 92t-1 103.5q0 139 -9.5 204.5t-27.5 84.5t-57 19h-49q-19 0 -24 13t-5 56z" />
<glyph unicode="|" horiz-adv-x="659" d="M414 1386v-1765q0 -22 -16 -28.5t-68 -6.5t-68 6.5t-16 28.5v1765q0 22 16 28.5t68 6.5t68 -6.5t16 -28.5z" />
<glyph unicode="}" horiz-adv-x="716" d="M659 524q0 -44 -5 -56.5t-23 -12.5h-49q-39 0 -57.5 -19t-28 -84.5t-9.5 -204.5q0 -62 -1 -103.5t-4 -92.5t-9.5 -83.5t-17 -70t-26.5 -60.5t-39 -46.5t-53 -36t-69.5 -20t-87.5 -7.5h-71q-18 0 -22.5 12t-4.5 54q0 41 4.5 53t22.5 12h67q36 0 62 9t44 32t28.5 51t16 78 t7.5 101t2 131q0 123 14.5 200t38.5 111.5t64 52.5q-40 18 -64 53t-38.5 112t-14.5 200q0 96 -3 154t-11.5 111t-26.5 79.5t-46.5 41.5t-72.5 15h-67q-18 0 -22.5 12t-4.5 54q0 41 4.5 53t22.5 12h71q48 0 87.5 -7.5t69.5 -20t53 -36t39 -46.5t26.5 -60.5t17 -70t9.5 -83.5 t4 -92.5t1 -103.5q0 -139 9.5 -204.5t27.5 -84t58 -18.5h49q18 0 23 -13t5 -57z" />
<glyph unicode="~" d="M487 684l179 -98q45 -25 77 -25q37 0 67.5 28.5t47.5 78.5q3 8 11.5 11t33.5 3q36 0 51 -10t9 -29q-31 -112 -90.5 -162.5t-127.5 -50.5t-120 27l-179 98q-45 25 -77 25q-36 0 -66 -28.5t-47 -78.5q-3 -8 -11.5 -11t-33.5 -3q-36 0 -50.5 10t-8.5 29q31 113 89 163 t126 50t120 -27z" />
<glyph unicode="&#xa1;" horiz-adv-x="581" d="M291 612q44 0 55.5 -6t11.5 -26l33 -902q1 -25 -20 -34t-80 -9t-80.5 9t-20.5 34l33 902q0 20 12 26t56 6zM291 762q-66 0 -88.5 9.5t-22.5 41.5v135q0 34 21 42.5t90 8.5t89.5 -8.5t20.5 -42.5v-135q0 -32 -22 -41.5t-88 -9.5z" />
<glyph unicode="&#xa2;" horiz-adv-x="1064" d="M569 -4q-50 0 -63.5 7t-13.5 28v137q-194 20 -281.5 144t-87.5 370q0 245 87 368.5t282 145.5v137q0 21 13.5 28t63.5 7q51 0 64.5 -7t13.5 -28v-137q138 -15 217 -85t82 -179q0 -24 -13.5 -30.5t-66.5 -6.5q-50 0 -65 7t-17 28q-3 45 -42 78t-105 43v-740q71 9 109.5 42 t41.5 85q2 21 17 28t65 7q53 0 66.5 -6.5t13.5 -30.5q-3 -115 -82 -184.5t-221 -83.5v-137q0 -21 -13.5 -28t-64.5 -7zM295 682q0 -178 47 -265.5t160 -105.5v740q-114 -18 -160.5 -104.5t-46.5 -264.5z" />
<glyph unicode="&#xa3;" horiz-adv-x="1216" d="M246 -2q-21 -10 -33 -0.5t-39 55.5q-28 45 -30.5 63.5t16.5 28.5q76 50 131 132.5t55 168.5q0 91 -39 177h-155q-19 0 -24 11.5t-5 55.5t5 56t24 12h94q-47 110 -47 250q0 171 107 269.5t327 98.5t323 -93t103 -277q0 -22 -16.5 -29.5t-69.5 -7.5t-69.5 7.5t-16.5 29.5 q-2 112 -60.5 165.5t-193.5 53.5t-196.5 -53.5t-61.5 -163.5q0 -118 57 -250h322q19 0 23.5 -11.5t4.5 -56.5q0 -44 -4.5 -55.5t-23.5 -11.5h-267q31 -88 31 -174q0 -121 -61 -236q119 -68 297 -68q106 0 148.5 49.5t43.5 182.5q0 22 16.5 29.5t69.5 7.5t69.5 -7.5 t16.5 -29.5q0 -207 -87 -295t-271 -88q-114 0 -215.5 30t-169.5 78q-59 -62 -129 -104z" />
<glyph unicode="&#xa4;" horiz-adv-x="1155" d="M123 342l90 92q-41 93 -41 244t41 244l-90 92q-12 13 -6.5 27t37.5 46t45.5 37.5t25.5 -6.5l80 -78q98 76 273 76q170 0 272 -76l80 78q12 12 25.5 6.5t45.5 -37.5t37.5 -46t-6.5 -27l-92 -92q43 -98 43 -244t-43 -244l92 -92q13 -13 7 -27.5t-38 -46.5t-46 -37.5 t-25 7.5l-80 77q-97 -75 -272 -75q-180 0 -273 75l-80 -77q-11 -13 -25 -7.5t-46 37.5t-38 46.5t7 27.5zM578 375q137 0 191 67.5t54 235.5t-54 235.5t-191 67.5t-191.5 -67.5t-54.5 -235.5t54.5 -235.5t191.5 -67.5z" />
<glyph unicode="&#xa5;" horiz-adv-x="1150" d="M991 397h-327v-364q0 -22 -17 -29.5t-72 -7.5q-54 0 -71 7.5t-17 29.5v364h-327q-19 0 -24 12t-5 56t5 55.5t24 11.5h307l-80 152h-227q-19 0 -24 12t-5 56t5 55.5t24 11.5h157q-152 291 -243 502q-4 11 -2.5 18.5t13 12t32 6.5t53.5 2q54 0 70 -7t26 -30 q108 -265 309 -666q207 411 310 666q10 23 26 30t70 7q33 0 53.5 -2t32 -6.5t13 -12t-2.5 -18.5q-92 -207 -243 -502h157q19 0 24 -11.5t5 -55.5t-5 -56t-24 -12h-227q-16 -30 -43.5 -81t-38.5 -71h309q19 0 24 -11.5t5 -55.5t-5 -56t-24 -12z" />
<glyph unicode="&#xa6;" horiz-adv-x="659" d="M410 303v-684q0 -20 -15 -26.5t-65 -6.5t-65 6.5t-15 26.5v684q0 20 15 26.5t65 6.5t65 -6.5t15 -26.5zM410 1389v-684q0 -20 -15 -26.5t-65 -6.5t-65 6.5t-15 26.5v684q0 20 14.5 26t65.5 6t65.5 -6t14.5 -26z" />
<glyph unicode="&#xa7;" horiz-adv-x="1155" d="M303 -88q11 -75 71 -115.5t189 -40.5q136 0 188 40.5t52 137.5q0 99 -51 140t-187 67q-167 32 -232 57q-138 55 -177 176q-17 54 -17 124q0 234 178 311q-131 92 -131 266q0 142 96 221.5t296 79.5q393 0 393 -289q0 -21 -16 -27.5t-66 -6.5q-53 0 -65.5 6.5t-14.5 30.5 q-6 75 -57.5 112t-173.5 37q-116 0 -173 -41.5t-57 -114.5q0 -87 57 -136.5t199 -84.5q21 -5 59.5 -13.5t60.5 -13.5t56.5 -15t54.5 -19t47.5 -24t44 -32t35 -41t28 -52.5t16 -66t6.5 -81.5q0 -122 -41.5 -196t-130.5 -111q125 -88 125 -265q0 -71 -19 -125.5t-63 -98 t-124.5 -66.5t-195.5 -23q-216 0 -319 78.5t-103 212.5q0 24 13.5 30.5t66.5 6.5q49 0 64 -7t18 -28zM551 723q-25 3 -49 10q-97 -10 -149 -62t-52 -165q0 -46 14.5 -80t32.5 -53.5t61 -36.5t71 -24t92 -21q30 -7 46 -10l29 -7q111 8 157 58.5t46 169.5q0 50 -12.5 85 t-30.5 55.5t-54.5 35t-68 21.5t-86.5 16q-31 5 -47 8z" />
<glyph unicode="&#xa8;" horiz-adv-x="675" d="M164 1362q61 0 76.5 -8.5t15.5 -42.5v-119q0 -31 -16.5 -41t-75.5 -10t-75.5 10t-16.5 41v119q0 34 15.5 42.5t76.5 8.5zM512 1362q61 0 76.5 -8.5t15.5 -42.5v-119q0 -31 -16.5 -41t-75.5 -10t-75.5 10t-16.5 41v119q0 34 15.5 42.5t76.5 8.5z" />
<glyph unicode="&#xa9;" horiz-adv-x="1593" d="M489 678q0 229 70.5 323.5t249.5 94.5q272 0 272 -232q0 -17 -11 -22.5t-48 -5.5t-48 5.5t-11 22.5q-2 66 -38.5 96.5t-115.5 30.5q-77 0 -117.5 -25.5t-60 -92.5t-19.5 -195t19.5 -195t60 -92.5t117.5 -25.5q84 0 119 31.5t37 103.5q0 16 12 22t47 6q34 0 46.5 -6.5 t12.5 -21.5q0 -122 -65.5 -181t-208.5 -59q-179 0 -249.5 94.5t-70.5 323.5zM797 1372q175 0 295 -40t194 -127t106.5 -215t32.5 -312t-32.5 -312t-106.5 -215t-194 -127t-295 -40t-295 40t-194.5 127t-107 215t-32.5 312t32.5 312t107 215t194.5 127t295 40zM797 94 q148 0 245.5 31t157 103.5t83.5 179.5t24 270t-24 270t-83.5 179.5t-157 103.5t-245.5 31t-245.5 -31t-157 -103.5t-83.5 -179.5t-24 -270t24 -270t83.5 -179.5t157 -103.5t245.5 -31z" />
<glyph unicode="&#xaa;" horiz-adv-x="724" d="M471 1001h-172q-52 0 -73 -19t-21 -62q0 -50 23.5 -67t72.5 -17q73 0 121.5 28.5t48.5 85.5v51zM238 1190q0 -15 -12 -20t-50 -5q-43 0 -52 4.5t-9 22.5q0 176 241 176q132 0 187 -51t55 -152v-391q0 -23 -10 -28t-51 -5q-40 0 -51 5.5t-11 27.5v55q-66 -96 -194 -96 q-199 0 -199 182q0 89 48.5 132t166.5 43h174v69q0 58 -26 80.5t-89 22.5t-90.5 -17.5t-27.5 -54.5z" />
<glyph unicode="&#xab;" horiz-adv-x="978" d="M123 553q0 34 16 55l191 250q10 13 27 18t69 5q61 0 61 -19q0 -6 -6 -14l-225 -295l225 -295q19 -27 -30 -32q-11 -1 -25 -1q-52 0 -69 5t-27 18l-191 250q-16 21 -16 55zM467 553q0 34 16 55l191 250q10 13 27 18t69 5q61 0 61 -19q0 -6 -6 -14l-225 -295l225 -295 q19 -27 -30 -32l-25 -1q-52 0 -69 5t-27 18l-191 250q-16 21 -16 55z" />
<glyph unicode="&#xad;" horiz-adv-x="819" d="M164 623h491q19 0 24 -12.5t5 -57.5t-5 -57.5t-24 -12.5h-491q-19 0 -24 12.5t-5 57.5t5 57.5t24 12.5z" />
<glyph unicode="&#xae;" horiz-adv-x="1093" d="M547 1372q232 0 330 -107t98 -343t-98 -343.5t-330 -107.5t-330 107.5t-98 343.5t98 343t330 107zM547 549q197 0 269.5 83.5t72.5 289.5t-72.5 289t-269.5 83t-269.5 -83t-72.5 -289t72.5 -289.5t269.5 -83.5zM535 866h-62v-188q0 -10 -9.5 -13t-37.5 -3q-26 0 -34.5 3 t-8.5 13v485q0 11 7 15t28 4h139q103 0 151 -37.5t48 -120.5q0 -105 -99 -141q47 -23 74 -90q19 -49 33 -113q1 -5 0.5 -9t-10.5 -6.5t-31 -2.5q-26 0 -34.5 3.5t-10.5 12.5q-14 61 -23 90q-34 92 -116 98h-4zM473 1110v-174h82q64 0 87.5 17.5t23.5 70.5q0 54 -22.5 70 t-88.5 16h-82z" />
<glyph unicode="&#xaf;" horiz-adv-x="675" d="M598 1153h-520q-19 0 -24 11t-5 50q0 38 5.5 50t23.5 12h520q18 0 23.5 -12t5.5 -50q0 -39 -5 -50t-24 -11z" />
<glyph unicode="&#xb0;" horiz-adv-x="749" d="M375 1372q127 0 185 -57t58 -176t-58 -176.5t-185 -57.5t-185.5 57.5t-58.5 176.5t58.5 176t185.5 57zM375 1008q75 0 105 30t30 101t-30 101t-105 30t-105 -30t-30 -101t30 -101t105 -30z" />
<glyph unicode="&#xb1;" d="M633 1071v-303h305q18 0 23.5 -13.5t5.5 -58.5t-5 -58t-24 -13h-305v-303q0 -19 -14.5 -25t-61.5 -6t-61.5 6t-14.5 25v303h-305q-19 0 -24 13t-5 58t5.5 58.5t23.5 13.5h305v303q0 19 14.5 25t61.5 6t61.5 -6t14.5 -25zM174 135h766q17 0 22 -12t5 -55t-5 -55.5 t-22 -12.5h-766q-17 0 -22 12.5t-5 55.5t5 55t22 12z" />
<glyph unicode="&#xb2;" horiz-adv-x="696" d="M578 664h-472q-12 0 -16 9.5t-4 41.5v18q0 70 38 119t126 104q21 12 58 30.5t60 32t48.5 33.5t38 47.5t12.5 63.5q0 55 -28 82t-91 27q-67 0 -99 -25t-32 -80q0 -15 -11 -18.5t-50 -3.5q-40 0 -51 3.5t-11 20.5q1 106 65.5 154.5t188.5 48.5q246 0 246 -209 q0 -29 -7.5 -56t-17.5 -47t-30 -41.5t-35 -34.5t-43 -31t-43 -26.5t-47 -26t-43 -23.5q-4 -2 -18.5 -10.5t-19 -11t-16 -10t-16 -11t-13.5 -11t-13 -13t-9.5 -13t-8 -15t-3.5 -16.5h367q12 0 16 -9.5t4 -41.5t-4 -41.5t-16 -9.5z" />
<glyph unicode="&#xb3;" horiz-adv-x="696" d="M338 975h-51q-12 0 -16.5 9.5t-4.5 39.5t4.5 39.5t16.5 9.5h53q66 0 90.5 23.5t24.5 83.5q0 51 -28.5 71.5t-92.5 20.5q-65 0 -93.5 -20t-31.5 -62q-2 -15 -12.5 -20t-49.5 -5q-40 0 -50.5 4.5t-10.5 22.5q1 89 65 134.5t183 45.5q248 0 248 -188q0 -113 -86 -152 q102 -30 102 -166q0 -102 -64.5 -158.5t-189.5 -56.5q-263 0 -266 185q0 18 10.5 22t50.5 4t49.5 -4t12.5 -22q7 -42 38.5 -63t104.5 -21q67 0 97 29.5t30 88.5q0 62 -30 83.5t-103 21.5z" />
<glyph unicode="&#xb4;" horiz-adv-x="675" d="M524 1288l-317 -158q-18 -10 -28.5 -5.5t-28.5 34.5q-17 28 -17.5 38t14.5 20l302 198q19 12 31.5 4t37.5 -49q26 -42 26.5 -57.5t-20.5 -24.5z" />
<glyph unicode="&#xb6;" horiz-adv-x="1052" d="M979 1253h-105q-63 0 -86.5 -22t-23.5 -88v-1159q0 -109 -20 -182.5t-60 -112.5t-89.5 -54.5t-119.5 -15.5q-74 0 -98 6q-19 5 -23 15t-4 53t5 54t24 11q3 0 26.5 -2t36.5 -2q58 0 91.5 18t52 70.5t18.5 149.5v495h-47q-94 0 -156.5 7t-112.5 27.5t-77.5 50.5t-45.5 84 t-24 120t-6 166t6 166t24 120t45.5 84t77.5 50.5t112.5 27.5t156.5 7h422q18 0 23.5 -13.5t5.5 -58.5t-5.5 -58.5t-23.5 -13.5z" />
<glyph unicode="&#xb7;" horiz-adv-x="499" d="M250 434q-66 0 -88.5 9.5t-22.5 41.5v136q0 34 21 42.5t90 8.5t89.5 -8.5t20.5 -42.5v-136q0 -32 -22 -41.5t-88 -9.5z" />
<glyph unicode="&#xb8;" horiz-adv-x="675" d="M387 -104h31q103 0 149.5 -31.5t46.5 -122.5q0 -93 -47 -126.5t-149 -33.5h-195q-17 0 -21.5 9t-4.5 42q0 32 4.5 42t21.5 10h187q47 0 66.5 10t19.5 47q0 38 -19 47.5t-67 9.5h-107q-32 0 -42.5 6.5t-4.5 24.5l57 176q3 10 13.5 13.5t35.5 3.5q32 0 45 -7t7 -26z" />
<glyph unicode="&#xb9;" horiz-adv-x="696" d="M561 664h-409q-12 0 -16.5 10t-4.5 41t4.5 41t16.5 10h145v475l-145 -33q-21 -4 -21 49t16 56l248 61q29 8 29 -16v-592h137q12 0 16.5 -10t4.5 -41t-4.5 -41t-16.5 -10z" />
<glyph unicode="&#xba;" horiz-adv-x="774" d="M233 1051q0 -116 33 -161.5t121 -45.5t121 45.5t33 161.5q0 115 -33 160.5t-121 45.5t-121 -45.5t-33 -160.5zM102 1051q0 164 66 240.5t219 76.5t219 -76.5t66 -240.5t-66 -241t-219 -77t-219 77t-66 241z" />
<glyph unicode="&#xbb;" horiz-adv-x="978" d="M512 553q0 -34 -16 -55l-191 -250q-10 -13 -27 -18t-69 -5q-61 0 -61 19q0 6 6 14l225 295l-225 295q-19 27 30 32q11 1 25 1q52 0 69 -5t27 -18l191 -250q16 -21 16 -55zM856 553q0 -34 -16 -55l-191 -250q-10 -13 -27 -18t-69 -5q-61 0 -61 19q0 6 6 14l225 295 l-225 295q-19 27 30 32l25 1q52 0 69 -5t27 -18l191 -250q16 -21 16 -55z" />
<glyph unicode="&#xbc;" horiz-adv-x="1683" d="M1448 -2q-40 0 -52 6.5t-12 26.5v143h-335q-15 0 -20 8.5t-5 38.5q0 41 14 60l301 409q10 14 26.5 19.5t61.5 5.5q51 0 67.5 -5t16.5 -24v-414h91q12 0 16 -9t4 -40t-4 -40t-16 -9h-91v-143q0 -21 -11 -27t-52 -6zM1311 1327l-676 -1302q-9 -19 -25 -24t-63 -5 q-37 0 -47 9t0 24l676 1302q9 19 25 24t63 5q38 0 47.5 -9t-0.5 -24zM561 664h-409q-12 0 -16.5 10t-4.5 41t4.5 41t16.5 10h145v475l-145 -33q-21 -4 -21 49t16 56l248 61q29 8 29 -16v-592h137q12 0 16.5 -10t4.5 -41t-4.5 -41t-16.5 -10zM1159 272h230v314z" />
<glyph unicode="&#xbd;" horiz-adv-x="1683" d="M1247 1327l-676 -1302q-9 -19 -25 -24t-63 -5q-37 0 -47 9t0 24l676 1302q9 19 25 24t63 5q38 0 47.5 -9t-0.5 -24zM1565 0h-471q-12 0 -16.5 10t-4.5 41v19q0 70 38 119t126 104q21 12 58 30.5t60 32t48.5 33.5t38 47.5t12.5 63.5q0 55 -28 81.5t-91 26.5 q-67 0 -99 -24.5t-32 -79.5q0 -15 -11 -19t-50 -4q-40 0 -51 4t-11 21q1 106 65.5 154.5t188.5 48.5q246 0 246 -209q0 -26 -5 -49.5t-16 -44t-22.5 -37.5t-31 -34t-33.5 -29t-39 -26.5t-39.5 -23t-41 -23t-38.5 -20.5q-4 -2 -18.5 -10.5t-19 -11t-16 -10t-16 -11t-13.5 -11 t-13 -13t-9.5 -13t-8 -15t-3.5 -16.5h367q12 0 16 -9.5t4 -41.5t-4 -41.5t-16 -9.5zM561 664h-409q-12 0 -16.5 10t-4.5 41t4.5 41t16.5 10h145v475l-145 -33q-21 -4 -21 49t16 56l248 61q29 8 29 -16v-592h137q12 0 16.5 -10t4.5 -41t-4.5 -41t-16.5 -10z" />
<glyph unicode="&#xbe;" horiz-adv-x="1683" d="M1448 -2q-40 0 -52 6.5t-12 26.5v143h-335q-15 0 -20 8.5t-5 38.5q0 41 14 60l301 409q10 14 26.5 19.5t61.5 5.5q51 0 67.5 -5t16.5 -24v-414h91q12 0 16 -9t4 -40t-4 -40t-16 -9h-91v-143q0 -21 -11 -27t-52 -6zM1272 1327l-676 -1302q-9 -19 -25 -24t-63 -5 q-37 0 -47 9t0 24l676 1302q9 19 25 24t63 5q38 0 47.5 -9t-0.5 -24zM338 975h-51q-12 0 -16.5 9.5t-4.5 39.5t4.5 39.5t16.5 9.5h53q66 0 90.5 23.5t24.5 83.5q0 51 -28.5 71.5t-92.5 20.5q-65 0 -93.5 -20t-31.5 -62q-2 -15 -12.5 -20t-49.5 -5q-40 0 -50.5 4.5 t-10.5 22.5q1 89 65 134.5t183 45.5q248 0 248 -188q0 -113 -86 -152q102 -30 102 -166q0 -102 -64.5 -158.5t-189.5 -56.5q-263 0 -266 185q0 18 10.5 22t50.5 4t49.5 -4t12.5 -22q7 -42 38.5 -63t104.5 -21q67 0 97 29.5t30 88.5q0 62 -30 83.5t-103 21.5zM1159 272h230 v314z" />
<glyph unicode="&#xbf;" horiz-adv-x="1105" d="M512 528l4 52q2 20 14.5 26t57.5 6t57 -6t14 -26l5 -52q5 -59 -12 -108t-48 -83.5t-70 -65t-78.5 -60t-72 -61.5t-53.5 -77t-21 -98q0 -104 56.5 -156t193.5 -52q143 0 209.5 54t67.5 173q0 23 14.5 31t67.5 8q50 0 66.5 -8t16.5 -29q0 -196 -112 -286.5t-330 -90.5 q-426 0 -426 356q0 66 20 119t52 89t71 66.5t78.5 58.5t73.5 57.5t57 71t27 91.5zM586 762q-66 0 -88.5 9.5t-22.5 41.5v135q0 34 21 42.5t90 8.5t89.5 -8.5t20.5 -42.5v-135q0 -32 -22 -41.5t-88 -9.5z" />
<glyph unicode="&#xc0;" horiz-adv-x="1175" d="M1034 -4q-52 0 -69 7t-23 30q-68 250 -98 350h-496q-30 -100 -98 -350q-6 -23 -23 -30t-69 -7q-56 0 -74 7.5t-12 29.5q75 288 190.5 644t226.5 646q8 22 27.5 29.5t79.5 7.5t79 -7t27 -30q112 -292 227.5 -648t190.5 -642q6 -22 -12 -29.5t-74 -7.5zM596 1151 q-88 -244 -203 -621h406q-99 326 -203 621zM571 1466l-333 166q-21 9 -20.5 24.5t26.5 57.5q25 41 37.5 49t31.5 -4l318 -207q15 -10 15 -20t-17 -37q-18 -30 -29 -34.5t-29 5.5z" />
<glyph unicode="&#xc1;" horiz-adv-x="1175" d="M1034 -4q-52 0 -69 7t-23 30q-68 250 -98 350h-496q-30 -100 -98 -350q-6 -23 -23 -30t-69 -7q-56 0 -74 7.5t-12 29.5q75 288 190.5 644t226.5 646q8 22 27.5 29.5t79.5 7.5t79 -7t27 -30q112 -292 227.5 -648t190.5 -642q6 -22 -12 -29.5t-74 -7.5zM596 1151 q-88 -244 -203 -621h406q-99 326 -203 621zM954 1632l-333 -166q-18 -10 -29 -5.5t-29 34.5q-17 27 -17 37t15 20l318 207q19 12 31.5 4t37.5 -49q26 -42 26.5 -57.5t-20.5 -24.5z" />
<glyph unicode="&#xc2;" horiz-adv-x="1175" d="M1034 -4q-52 0 -69 7t-23 30q-68 250 -98 350h-496q-30 -100 -98 -350q-6 -23 -23 -30t-69 -7q-56 0 -74 7.5t-12 29.5q75 288 190.5 644t226.5 646q8 22 27.5 29.5t79.5 7.5t79 -7t27 -30q112 -292 227.5 -648t190.5 -642q6 -22 -12 -29.5t-74 -7.5zM596 1151 q-88 -244 -203 -621h406q-99 326 -203 621zM596 1587l-133 -106q-16 -13 -33.5 -18t-54.5 -5q-58 0 -53 23q1 6 8 14l194 205q17 20 72 20t72 -20l194 -205q26 -30 -22 -36l-23 -1q-37 0 -54.5 5t-33.5 18z" />
<glyph unicode="&#xc3;" horiz-adv-x="1175" d="M1034 -4q-52 0 -69 7t-23 30q-68 250 -98 350h-496q-30 -100 -98 -350q-6 -23 -23 -30t-69 -7q-56 0 -74 7.5t-12 29.5q75 288 190.5 644t226.5 646q8 22 27.5 29.5t79.5 7.5t79 -7t27 -30q112 -292 227.5 -648t190.5 -642q6 -22 -12 -29.5t-74 -7.5zM596 1151 q-88 -244 -203 -621h406q-99 326 -203 621zM780 1640v25q0 17 12.5 23t47.5 6q42 0 52.5 -6.5t8.5 -28.5l-4 -55q-5 -81 -47 -113.5t-96 -32.5q-68 0 -136 37l-108 61q-38 21 -53 21q-21 0 -33 -13t-12 -48v-25q0 -17 -12.5 -23t-47.5 -6q-42 0 -52.5 6.5t-8.5 28.5l4 55 q5 81 47 113.5t96 32.5q67 0 135 -37l109 -62q36 -20 53 -20q21 0 33 13t12 48z" />
<glyph unicode="&#xc4;" horiz-adv-x="1175" d="M1034 -4q-52 0 -69 7t-23 30q-68 250 -98 350h-496q-30 -100 -98 -350q-6 -23 -23 -30t-69 -7q-56 0 -74 7.5t-12 29.5q75 288 190.5 644t226.5 646q8 22 27.5 29.5t79.5 7.5t79 -7t27 -30q112 -292 227.5 -648t190.5 -642q6 -22 -12 -29.5t-74 -7.5zM596 1151 q-88 -244 -203 -621h406q-99 326 -203 621zM414 1688q61 0 76.5 -9t15.5 -43v-118q0 -32 -17 -42t-75 -10t-75 10t-17 42v118q0 34 15.5 43t76.5 9zM778 1688q61 0 76.5 -9t15.5 -43v-118q0 -32 -17 -42t-75 -10t-75 10t-17 42v118q0 34 15.5 43t76.5 9z" />
<glyph unicode="&#xc5;" horiz-adv-x="1175" d="M1034 -4q-52 0 -69 7t-23 30q-68 250 -98 350h-496q-30 -100 -98 -350q-6 -23 -23 -30t-69 -7q-56 0 -74 7.5t-12 29.5q74 283 186 630t221 635q-73 40 -73 154q0 178 190 178t190 -178q0 -114 -73 -154q109 -288 221 -635t186 -630q6 -22 -12 -29.5t-74 -7.5zM596 1151 q-88 -244 -203 -621h406q-99 326 -203 621zM596 1360q54 0 76 20.5t22 71.5t-22 71.5t-76 20.5t-76 -20.5t-22 -71.5q0 -47 19 -69t63 -23h16z" />
<glyph unicode="&#xc6;" horiz-adv-x="1789" d="M1616 1200h-567v-428h505q20 0 26.5 -14t6.5 -62t-6.5 -61.5t-26.5 -13.5h-505v-465h573q19 0 26 -15t7 -63t-7 -63t-26 -15h-674q-45 0 -60.5 7.5t-15.5 29.5v330h-495q-110 -229 -156 -334q-11 -22 -30 -29.5t-70 -7.5q-56 0 -74.5 8t-9.5 29q130 289 310 646t339 640 q12 22 33.5 29.5t81.5 7.5h815q19 0 26 -15t7 -63t-7 -63t-26 -15zM805 1200q-170 -313 -354 -682h421v682h-67z" />
<glyph unicode="&#xc7;" horiz-adv-x="1212" d="M604 -106h27q106 0 153 -32t47 -126q0 -96 -48 -130t-154 -34h-174q-18 0 -23.5 10.5t-5.5 44.5q0 32 5.5 43t23.5 11h166q27 0 39 1t25.5 6t18.5 16.5t5 31.5q0 39 -18.5 48t-69.5 9h-107q-32 0 -42.5 6.5t-4.5 24.5l53 164q-218 32 -303.5 191t-85.5 499 q0 194 24.5 322t84 214.5t158 124t249.5 37.5q445 0 445 -383q0 -22 -16.5 -29.5t-69.5 -7.5t-69.5 7.5t-16.5 29.5q-2 119 -66 175.5t-207 56.5q-102 0 -163.5 -23t-102 -86.5t-55.5 -166.5t-15 -271t15.5 -271t56 -166.5t103 -86.5t165.5 -23q148 0 208.5 58.5t62.5 185.5 q0 22 16.5 29.5t69.5 7.5t69.5 -7.5t16.5 -29.5q0 -199 -106 -297t-337 -98h-22z" />
<glyph unicode="&#xc8;" horiz-adv-x="1142" d="M969 1200h-609v-428h539q20 0 26.5 -14t6.5 -62t-6.5 -61.5t-26.5 -13.5h-539v-465h615q19 0 26 -15t7 -63t-7 -63t-26 -15h-715q-45 0 -60.5 7.5t-15.5 29.5v1282q0 22 15.5 29.5t60.5 7.5h709q19 0 25.5 -15t6.5 -63t-6.5 -63t-25.5 -15zM629 1466l-334 166 q-21 9 -20.5 24.5t26.5 57.5q24 41 38 49.5t32 -4.5l317 -207q15 -10 15 -20t-17 -37q-18 -30 -28.5 -34.5t-28.5 5.5z" />
<glyph unicode="&#xc9;" horiz-adv-x="1142" d="M969 1200h-609v-428h539q20 0 26.5 -14t6.5 -62t-6.5 -61.5t-26.5 -13.5h-539v-465h615q19 0 26 -15t7 -63t-7 -63t-26 -15h-715q-45 0 -60.5 7.5t-15.5 29.5v1282q0 22 15.5 29.5t60.5 7.5h709q19 0 25.5 -15t6.5 -63t-6.5 -63t-25.5 -15zM909 1632l-334 -166 q-18 -10 -28.5 -5.5t-28.5 34.5q-17 27 -17 37t15 20l318 207q19 12 31.5 4t37.5 -49q26 -42 26.5 -57.5t-20.5 -24.5z" />
<glyph unicode="&#xca;" horiz-adv-x="1142" d="M969 1200h-609v-428h539q20 0 26.5 -14t6.5 -62t-6.5 -61.5t-26.5 -13.5h-539v-465h615q19 0 26 -15t7 -63t-7 -63t-26 -15h-715q-45 0 -60.5 7.5t-15.5 29.5v1282q0 22 15.5 29.5t60.5 7.5h709q19 0 25.5 -15t6.5 -63t-6.5 -63t-25.5 -15zM588 1587l-133 -106 q-16 -13 -33.5 -18t-54.5 -5q-58 0 -53 23q1 6 8 14l194 205q17 20 72 20q54 0 71 -20l195 -205q26 -30 -22 -36l-23 -1q-37 0 -54.5 5t-33.5 18z" />
<glyph unicode="&#xcb;" horiz-adv-x="1142" d="M969 1200h-609v-428h539q20 0 26.5 -14t6.5 -62t-6.5 -61.5t-26.5 -13.5h-539v-465h615q19 0 26 -15t7 -63t-7 -63t-26 -15h-715q-45 0 -60.5 7.5t-15.5 29.5v1282q0 22 15.5 29.5t60.5 7.5h709q19 0 25.5 -15t6.5 -63t-6.5 -63t-25.5 -15zM414 1688q61 0 76.5 -9 t15.5 -43v-118q0 -32 -17 -42t-75 -10t-75 10t-17 42v118q0 34 15.5 43t76.5 9zM778 1688q61 0 76.5 -9t15.5 -43v-118q0 -32 -17 -42t-75 -10t-75 10t-17 42v118q0 34 15.5 43t76.5 9z" />
<glyph unicode="&#xcc;" horiz-adv-x="552" d="M276 -4q-54 0 -71 7.5t-17 29.5v1290q0 22 17 29.5t71 7.5q55 0 72 -7.5t17 -29.5v-1290q0 -22 -17 -29.5t-72 -7.5zM252 1466l-334 166q-21 9 -20.5 24.5t26.5 57.5q24 41 38 49.5t32 -4.5l317 -207q15 -10 15 -20t-17 -37q-18 -30 -28.5 -34.5t-28.5 5.5z" />
<glyph unicode="&#xcd;" horiz-adv-x="552" d="M276 -4q-54 0 -71 7.5t-17 29.5v1290q0 22 17 29.5t71 7.5q55 0 72 -7.5t17 -29.5v-1290q0 -22 -17 -29.5t-72 -7.5zM635 1632l-334 -166q-18 -10 -28.5 -5.5t-28.5 34.5q-17 27 -17 37t15 20l317 207q18 13 32 4.5t38 -49.5q26 -42 26.5 -57.5t-20.5 -24.5z" />
<glyph unicode="&#xce;" horiz-adv-x="552" d="M276 -4q-54 0 -71 7.5t-17 29.5v1290q0 22 17 29.5t71 7.5q55 0 72 -7.5t17 -29.5v-1290q0 -22 -17 -29.5t-72 -7.5zM276 1587l-133 -106q-16 -13 -33.5 -18t-54.5 -5q-58 0 -53 23q1 6 8 14l195 205q17 20 71 20q55 0 72 -20l195 -205q26 -30 -22 -36l-23 -1 q-37 0 -54.5 5t-33.5 18z" />
<glyph unicode="&#xcf;" horiz-adv-x="552" d="M276 -4q-54 0 -71 7.5t-17 29.5v1290q0 22 17 29.5t71 7.5q55 0 72 -7.5t17 -29.5v-1290q0 -22 -17 -29.5t-72 -7.5zM94 1688q61 0 76.5 -9t15.5 -43v-118q0 -32 -17 -42t-75 -10t-75 10t-17 42v118q0 34 15.5 43t76.5 9zM459 1688q61 0 76.5 -9t15.5 -43v-118 q0 -32 -17 -42t-75 -10t-75 10t-17 42v118q0 34 15.5 43t76.5 9z" />
<glyph unicode="&#xd0;" horiz-adv-x="1294" d="M627 0h-363q-45 0 -60.5 7.5t-15.5 29.5v541h-118q-19 0 -24 12t-5 53q0 44 5 55t24 11h118v610q0 22 15.5 29.5t60.5 7.5h363q126 0 216.5 -25t152.5 -74.5t98.5 -132.5t52.5 -190t16 -256t-16 -256t-52.5 -190t-98.5 -132.5t-152.5 -74.5t-216.5 -25zM365 152h262 q74 0 127 9.5t94 34.5t66 62t41 98t22 137.5t6 184.5t-6 184.5t-22 137.5t-41 98t-66 62t-94 34.5t-127 9.5h-262v-495h237q19 0 24 -12t5 -54q0 -41 -5 -53t-24 -12h-237v-426z" />
<glyph unicode="&#xd1;" horiz-adv-x="1339" d="M1069 1360q53 0 69.5 -7.5t16.5 -29.5v-1290q0 -22 -19.5 -29.5t-86.5 -7.5q-54 0 -72 6t-29 27l-592 1048v-1044q0 -22 -16.5 -29.5t-69.5 -7.5t-69.5 7.5t-16.5 29.5v1290q0 22 20 29.5t87 7.5q54 0 71.5 -6t28.5 -27l592 -1048v1044q0 22 16.5 29.5t69.5 7.5z M854 1640v25q0 17 12 23t47 6q42 0 53 -7t9 -28l-4 -55q-5 -81 -47.5 -113.5t-96.5 -32.5q-67 0 -135 37l-108 61q-38 21 -54 21q-21 0 -33 -13t-12 -48v-25q0 -17 -12 -23t-47 -6q-42 0 -52.5 6.5t-8.5 28.5l4 55q5 81 47 113.5t96 32.5q67 0 135 -37l109 -62 q36 -20 53 -20q21 0 33 13t12 48z" />
<glyph unicode="&#xd2;" horiz-adv-x="1302" d="M651 1376q288 0 404 -159t116 -539t-116 -539t-404 -159t-404 159t-116 539t116 539t404 159zM651 131q131 0 202 46t104.5 163.5t33.5 337.5t-33.5 337.5t-104.5 163.5t-202 46t-202 -46t-104.5 -163.5t-33.5 -337.5t33.5 -337.5t104.5 -163.5t202 -46zM668 1466 l-334 166q-21 9 -20.5 24.5t26.5 57.5q24 41 38 49.5t32 -4.5l317 -207q15 -10 15 -20t-17 -37q-18 -30 -28.5 -34.5t-28.5 5.5z" />
<glyph unicode="&#xd3;" horiz-adv-x="1302" d="M651 1376q288 0 404 -159t116 -539t-116 -539t-404 -159t-404 159t-116 539t116 539t404 159zM651 131q131 0 202 46t104.5 163.5t33.5 337.5t-33.5 337.5t-104.5 163.5t-202 46t-202 -46t-104.5 -163.5t-33.5 -337.5t33.5 -337.5t104.5 -163.5t202 -46zM969 1632 l-334 -166q-18 -10 -28.5 -5.5t-28.5 34.5q-17 28 -17.5 37.5t14.5 19.5l318 207q18 13 32 4.5t38 -49.5q26 -42 26.5 -57.5t-20.5 -24.5z" />
<glyph unicode="&#xd4;" horiz-adv-x="1302" d="M651 1376q288 0 404 -159t116 -539t-116 -539t-404 -159t-404 159t-116 539t116 539t404 159zM651 131q131 0 202 46t104.5 163.5t33.5 337.5t-33.5 337.5t-104.5 163.5t-202 46t-202 -46t-104.5 -163.5t-33.5 -337.5t33.5 -337.5t104.5 -163.5t202 -46zM651 1587 l-133 -106q-16 -13 -33.5 -18t-54.5 -5q-58 0 -53 23q1 6 8 14l195 205q17 20 71 20q55 0 72 -20l195 -205q25 -29 -21 -35q-11 -2 -25 -2q-37 0 -54.5 5t-33.5 18z" />
<glyph unicode="&#xd5;" horiz-adv-x="1302" d="M651 1376q288 0 404 -159t116 -539t-116 -539t-404 -159t-404 159t-116 539t116 539t404 159zM651 131q131 0 202 46t104.5 163.5t33.5 337.5t-33.5 337.5t-104.5 163.5t-202 46t-202 -46t-104.5 -163.5t-33.5 -337.5t33.5 -337.5t104.5 -163.5t202 -46zM836 1640v25 q0 17 12 23t47 6q42 0 52.5 -6.5t8.5 -28.5l-4 -55q-5 -81 -47 -113.5t-96 -32.5q-67 0 -135 37l-109 61q-38 21 -53 21q-21 0 -33 -13t-12 -48v-25q0 -17 -12 -23t-47 -6q-42 0 -53 7t-9 28l4 55q5 81 47.5 113.5t96.5 32.5q67 0 135 -37l108 -62q36 -20 54 -20q21 0 33 13 t12 48z" />
<glyph unicode="&#xd6;" horiz-adv-x="1302" d="M651 1376q288 0 404 -159t116 -539t-116 -539t-404 -159t-404 159t-116 539t116 539t404 159zM651 131q131 0 202 46t104.5 163.5t33.5 337.5t-33.5 337.5t-104.5 163.5t-202 46t-202 -46t-104.5 -163.5t-33.5 -337.5t33.5 -337.5t104.5 -163.5t202 -46zM469 1688 q61 0 76.5 -9t15.5 -43v-118q0 -32 -17 -42t-75 -10t-75 10t-17 42v118q0 34 15.5 43t76.5 9zM834 1688q61 0 76.5 -9t15.5 -43v-118q0 -32 -17 -42t-75 -10q-59 0 -76 10t-17 42v118q0 34 16 43t77 9z" />
<glyph unicode="&#xd7;" d="M817 272l-260 260l-260 -260q-11 -15 -26 -9.5t-48 38.5t-38 48t10 26l260 260l-260 260q-15 11 -10 26t38 48t48 38t26 -10l260 -260l260 260q11 15 26 10t48 -38t38.5 -48t-9.5 -26l-261 -260l261 -260q15 -11 9.5 -26t-38.5 -48t-48 -38.5t-26 9.5z" />
<glyph unicode="&#xd8;" horiz-adv-x="1310" d="M655 1376q197 0 310 -71l59 98q11 19 28.5 25t61.5 6q17 0 29 -2t18 -5t8 -7.5t1 -9.5t-5 -11l-108 -178q119 -160 119 -543q0 -380 -116.5 -539t-404.5 -159q-196 0 -307 67l-61 -102q-11 -19 -28.5 -25t-61.5 -6q-17 0 -29 2t-18.5 5t-8.5 7.5t-1 9.5t5 11l111 182 q-121 159 -121 547q0 380 116 539t404 159zM315 678q0 -257 45 -379l521 860q-74 66 -226 66q-131 0 -202 -46t-104.5 -163.5t-33.5 -337.5zM655 131q131 0 202 46t104.5 163.5t33.5 337.5q0 253 -45 375l-518 -860q73 -62 223 -62z" />
<glyph unicode="&#xd9;" horiz-adv-x="1302" d="M651 -20q-259 0 -369 119t-110 384v840q0 22 17 29.5t71 7.5t71 -7.5t17 -29.5v-831q0 -194 65.5 -273.5t237.5 -79.5t237.5 79.5t65.5 273.5v831q0 22 17 29.5t71 7.5t71 -7.5t17 -29.5v-840q0 -265 -110 -384t-369 -119zM627 1466l-334 166q-21 9 -20.5 24.5t26.5 57.5 q24 41 38 49.5t32 -4.5l317 -207q15 -10 15 -20t-17 -37q-18 -30 -28.5 -34.5t-28.5 5.5z" />
<glyph unicode="&#xda;" horiz-adv-x="1302" d="M651 -20q-259 0 -369 119t-110 384v840q0 22 17 29.5t71 7.5t71 -7.5t17 -29.5v-831q0 -194 65.5 -273.5t237.5 -79.5t237.5 79.5t65.5 273.5v831q0 22 17 29.5t71 7.5t71 -7.5t17 -29.5v-840q0 -265 -110 -384t-369 -119zM1010 1632l-334 -166q-18 -10 -29 -5.5 t-29 34.5q-17 27 -17 37t15 20l318 207q18 13 32 4.5t38 -49.5q26 -42 26.5 -57.5t-20.5 -24.5z" />
<glyph unicode="&#xdb;" horiz-adv-x="1302" d="M651 -20q-259 0 -369 119t-110 384v840q0 22 17 29.5t71 7.5t71 -7.5t17 -29.5v-831q0 -194 65.5 -273.5t237.5 -79.5t237.5 79.5t65.5 273.5v831q0 22 17 29.5t71 7.5t71 -7.5t17 -29.5v-840q0 -265 -110 -384t-369 -119zM651 1587l-133 -106q-16 -13 -33.5 -18 t-54.5 -5q-58 0 -53 23q1 6 8 14l195 205q17 20 71 20q55 0 72 -20l195 -205q25 -29 -21 -35q-11 -2 -25 -2q-37 0 -54.5 5t-33.5 18z" />
<glyph unicode="&#xdc;" horiz-adv-x="1302" d="M651 -20q-259 0 -369 119t-110 384v840q0 22 17 29.5t71 7.5t71 -7.5t17 -29.5v-831q0 -194 65.5 -273.5t237.5 -79.5t237.5 79.5t65.5 273.5v831q0 22 17 29.5t71 7.5t71 -7.5t17 -29.5v-840q0 -265 -110 -384t-369 -119zM469 1688q61 0 76.5 -9t15.5 -43v-118 q0 -32 -17 -42t-75 -10t-75 10t-17 42v118q0 34 15.5 43t76.5 9zM834 1688q61 0 76.5 -9t15.5 -43v-118q0 -32 -17 -42t-75 -10q-59 0 -76 10t-17 42v118q0 34 16 43t77 9z" />
<glyph unicode="&#xdd;" horiz-adv-x="1134" d="M889 1323q7 16 13.5 23t24.5 10.5t56 3.5q33 0 53.5 -2t31 -6.5t12 -12t-2.5 -18.5q-79 -173 -203 -415t-219 -410v-463q0 -22 -17 -29.5t-71 -7.5t-71 7.5t-17 29.5v463q-95 168 -219 410t-203 415q-4 11 -2.5 18.5t12.5 12t31.5 6.5t53.5 2q38 0 56 -3.5t24.5 -10.5 t13.5 -23q155 -364 321 -674q171 319 322 674zM926 1632l-334 -166q-18 -10 -28.5 -5.5t-28.5 34.5q-17 28 -17.5 37.5t14.5 19.5l318 207q18 13 32 4.5t38 -49.5q26 -42 26.5 -57.5t-20.5 -24.5z" />
<glyph unicode="&#xde;" horiz-adv-x="1163" d="M582 311h-222v-278q0 -22 -17 -29.5t-71 -7.5t-71 7.5t-17 29.5v1290q0 22 17 29.5t71 7.5t71 -7.5t17 -29.5v-193h222q248 0 357.5 -97.5t109.5 -313.5q0 -215 -110.5 -311.5t-356.5 -96.5zM360 979v-520h218q82 0 134 11t88.5 40t52 79.5t15.5 129.5t-15.5 129.5 t-52 79.5t-88.5 40t-134 11h-218z" />
<glyph unicode="&#xdf;" horiz-adv-x="1323" d="M600 715q-19 1 -24 14t-5 57t5 57.5t24 14.5q186 15 261 65.5t75 172.5q0 194 -293 194q-87 0 -145.5 -15t-91 -46t-45.5 -72t-13 -100v-1026q0 -22 -15 -28.5t-67 -6.5t-67 6.5t-15 28.5v1034q0 89 22 154t73 115t142 75t222 25q457 0 457 -336q0 -140 -80.5 -218 t-216.5 -94q48 -8 87.5 -18t81.5 -27t74.5 -39t62.5 -55t49 -74t30.5 -96.5t11.5 -122.5q0 -83 -19.5 -149t-61 -117.5t-113.5 -79.5t-170 -28q-94 0 -160 19.5t-103 57t-53 84.5t-16 109q0 24 13.5 30.5t66.5 6.5q49 0 64 -7t18 -28q5 -36 12 -56.5t24 -41t50 -29t84 -8.5 q114 0 158 60.5t44 176.5q0 68 -9 117t-32 86.5t-53.5 62t-83.5 43t-112 30t-148 22.5z" />
<glyph unicode="&#xe0;" horiz-adv-x="1064" d="M322 731q0 -21 -16 -28t-66 -7q-53 0 -66.5 6.5t-13.5 30.5q0 140 93.5 211.5t274.5 71.5q107 0 182 -21.5t119 -64t64 -101t20 -137.5v-663q0 -21 -14.5 -27t-64.5 -6t-65 6t-15 27l-2 98q-92 -143 -310 -143q-336 0 -336 280q0 143 84.5 217t264.5 74h293v129 q0 108 -49 150.5t-167 42.5q-110 0 -160 -35.5t-50 -110.5zM748 428h-289q-108 0 -148.5 -38t-40.5 -124q0 -80 47.5 -113.5t135.5 -33.5q133 0 214 62t81 171v76zM561 1130l-317 158q-21 9 -20.5 24.5t26.5 57.5q25 41 37.5 49t31.5 -4l302 -198q15 -10 14.5 -20t-17.5 -38 q-18 -30 -28.5 -34.5t-28.5 5.5z" />
<glyph unicode="&#xe1;" horiz-adv-x="1064" d="M322 731q0 -21 -16 -28t-66 -7q-53 0 -66.5 6.5t-13.5 30.5q0 140 93.5 211.5t274.5 71.5q107 0 182 -21.5t119 -64t64 -101t20 -137.5v-663q0 -21 -14.5 -27t-64.5 -6t-65 6t-15 27l-2 98q-92 -143 -310 -143q-336 0 -336 280q0 143 84.5 217t264.5 74h293v129 q0 108 -49 150.5t-167 42.5q-110 0 -160 -35.5t-50 -110.5zM748 428h-289q-108 0 -148.5 -38t-40.5 -124q0 -80 47.5 -113.5t135.5 -33.5q133 0 214 62t81 171v76zM819 1288l-317 -158q-18 -10 -29 -5.5t-29 34.5q-17 27 -17 37.5t15 20.5l301 198q18 13 32 4.5t38 -49.5 q26 -42 26.5 -57.5t-20.5 -24.5z" />
<glyph unicode="&#xe2;" horiz-adv-x="1064" d="M322 731q0 -21 -16 -28t-66 -7q-53 0 -66.5 6.5t-13.5 30.5q0 140 93.5 211.5t274.5 71.5q107 0 182 -21.5t119 -64t64 -101t20 -137.5v-663q0 -21 -14.5 -27t-64.5 -6t-65 6t-15 27l-2 98q-92 -143 -310 -143q-336 0 -336 280q0 143 84.5 217t264.5 74h293v129 q0 108 -49 150.5t-167 42.5q-110 0 -160 -35.5t-50 -110.5zM748 428h-289q-108 0 -148.5 -38t-40.5 -124q0 -80 47.5 -113.5t135.5 -33.5q133 0 214 62t81 171v76zM541 1280l-121 -115q-21 -20 -39 -25t-59 -5q-53 0 -52 18q1 6 9 16l194 220q17 20 68 20q50 0 67 -20 l195 -220q18 -32 -43 -34q-41 0 -59 5t-39 25z" />
<glyph unicode="&#xe3;" horiz-adv-x="1064" d="M322 731q0 -21 -16 -28t-66 -7q-53 0 -66.5 6.5t-13.5 30.5q0 140 93.5 211.5t274.5 71.5q107 0 182 -21.5t119 -64t64 -101t20 -137.5v-663q0 -21 -14.5 -27t-64.5 -6t-65 6t-15 27l-2 98q-92 -143 -310 -143q-336 0 -336 280q0 143 84.5 217t264.5 74h293v129 q0 108 -49 150.5t-167 42.5q-110 0 -160 -35.5t-50 -110.5zM748 428h-289q-108 0 -148.5 -38t-40.5 -124q0 -80 47.5 -113.5t135.5 -33.5q133 0 214 62t81 171v76zM711 1313v24q0 17 11 23t46 6q42 0 51.5 -6.5t7.5 -28.5l-4 -55q-10 -146 -135 -146q-61 0 -133 39l-109 62 q-32 18 -51 18q-21 0 -31 -12.5t-10 -48.5v-25q0 -17 -11 -22.5t-46 -5.5q-42 0 -51.5 6t-7.5 28l4 56q10 145 135 145q61 0 133 -39l108 -61q34 -19 52 -19q21 0 31 13t10 49z" />
<glyph unicode="&#xe4;" horiz-adv-x="1064" d="M322 731q0 -21 -16 -28t-66 -7q-53 0 -66.5 6.5t-13.5 30.5q0 140 93.5 211.5t274.5 71.5q107 0 182 -21.5t119 -64t64 -101t20 -137.5v-663q0 -21 -14.5 -27t-64.5 -6t-65 6t-15 27l-2 98q-92 -143 -310 -143q-336 0 -336 280q0 143 84.5 217t264.5 74h293v129 q0 108 -49 150.5t-167 42.5q-110 0 -160 -35.5t-50 -110.5zM748 428h-289q-108 0 -148.5 -38t-40.5 -124q0 -80 47.5 -113.5t135.5 -33.5q133 0 214 62t81 171v76zM358 1362q62 0 77.5 -8.5t15.5 -42.5v-119q0 -31 -17 -41t-76 -10t-75.5 10t-16.5 41v119q0 34 15.5 42.5 t76.5 8.5zM707 1362q61 0 76.5 -8.5t15.5 -42.5v-119q0 -31 -16.5 -41t-75.5 -10t-76 10t-17 41v119q0 34 15.5 42.5t77.5 8.5z" />
<glyph unicode="&#xe5;" horiz-adv-x="1064" d="M322 731q0 -21 -16 -28t-66 -7q-53 0 -66.5 6.5t-13.5 30.5q0 140 93.5 211.5t274.5 71.5q107 0 182 -21.5t119 -64t64 -101t20 -137.5v-663q0 -21 -14.5 -27t-64.5 -6t-65 6t-15 27l-2 98q-92 -143 -310 -143q-336 0 -336 280q0 143 84.5 217t264.5 74h293v129 q0 108 -49 150.5t-167 42.5q-110 0 -160 -35.5t-50 -110.5zM748 428h-289q-108 0 -148.5 -38t-40.5 -124q0 -80 47.5 -113.5t135.5 -33.5q133 0 214 62t81 171v76zM532 1468q94 0 138.5 -42t44.5 -128t-44.5 -128t-138.5 -42q-93 0 -137.5 41.5t-44.5 128.5t44.5 128.5 t137.5 41.5zM532 1210q51 0 73 20.5t22 67.5t-22 67.5t-73 20.5t-72.5 -20.5t-21.5 -67.5t21.5 -67.5t72.5 -20.5z" />
<glyph unicode="&#xe6;" horiz-adv-x="1671" d="M1518 438h-613q8 -166 72.5 -240.5t200.5 -74.5q89 0 139 34t53 95q2 21 17 28t65 7q53 0 66.5 -6.5t13.5 -30.5q-3 -128 -98.5 -199t-255.5 -71q-253 0 -351 157q-58 -80 -156.5 -116.5t-203.5 -36.5q-193 0 -277 75t-84 220q0 64 17.5 113.5t56.5 89.5t109.5 61.5 t169.5 21.5h289v119q0 108 -48 150.5t-163 42.5q-110 0 -163.5 -37t-51.5 -109q0 -21 -16 -28t-66 -7q-53 0 -66.5 6.5t-13.5 30.5q0 140 97.5 211.5t279.5 71.5q238 0 313 -127q97 127 317 127q385 0 385 -436v-58q0 -53 -6 -68.5t-28 -15.5zM748 438h-285 q-106 0 -149.5 -42t-43.5 -117q0 -90 49.5 -125t143.5 -35q127 0 206 59t79 166v94zM1167 872q-130 0 -190.5 -70t-69.5 -237h488v53q0 123 -50.5 188.5t-177.5 65.5z" />
<glyph unicode="&#xe7;" horiz-adv-x="1040" d="M504 -104h31q103 0 149.5 -31.5t46.5 -122.5q0 -93 -47 -126.5t-149 -33.5h-195q-17 0 -22 9.5t-5 41.5q0 31 5 41.5t22 10.5h186q47 0 66.5 10t19.5 47q0 38 -19 47.5t-67 9.5h-106q-32 0 -42.5 6.5t-4.5 24.5l51 162q-162 32 -233.5 154t-71.5 352q0 271 101 394.5 t337 123.5q169 0 267.5 -72t101.5 -203q0 -24 -13.5 -30t-66.5 -6q-50 0 -66 6.5t-16 27.5q-1 66 -56 99.5t-151 33.5q-151 0 -208.5 -84.5t-57.5 -289.5t58.5 -290t209.5 -85q206 0 209 139q0 21 16 28t66 7q53 0 66.5 -6.5t13.5 -30.5q-3 -137 -100.5 -208.5t-270.5 -71.5 h-33z" />
<glyph unicode="&#xe8;" horiz-adv-x="1069" d="M915 446h-628q6 -172 70.5 -247.5t209.5 -75.5q96 0 147 34t54 95q2 21 17 28t65 7q53 0 66.5 -6.5t13.5 -30.5q-3 -128 -99 -199t-264 -71q-237 0 -342.5 121.5t-105.5 381.5q0 279 103.5 406t334.5 127q114 0 193.5 -34t121.5 -96.5t60 -136.5t18 -169v-50 q0 -52 -6.5 -68t-28.5 -16zM557 872q-135 0 -196.5 -67.5t-71.5 -231.5h504v45q0 125 -50.5 189.5t-185.5 64.5zM563 1130l-317 158q-21 9 -20.5 24.5t26.5 57.5q24 41 38 49.5t32 -4.5l301 -198q15 -10 15 -20.5t-17 -37.5q-18 -30 -29 -34.5t-29 5.5z" />
<glyph unicode="&#xe9;" horiz-adv-x="1069" d="M915 446h-628q6 -172 70.5 -247.5t209.5 -75.5q96 0 147 34t54 95q2 21 17 28t65 7q53 0 66.5 -6.5t13.5 -30.5q-3 -128 -99 -199t-264 -71q-237 0 -342.5 121.5t-105.5 381.5q0 279 103.5 406t334.5 127q114 0 193.5 -34t121.5 -96.5t60 -136.5t18 -169v-50 q0 -52 -6.5 -68t-28.5 -16zM557 872q-135 0 -196.5 -67.5t-71.5 -231.5h504v45q0 125 -50.5 189.5t-185.5 64.5zM842 1288l-318 -158q-18 -10 -28.5 -5.5t-28.5 34.5q-17 27 -17 37.5t15 20.5l301 198q18 13 32 4.5t38 -49.5q26 -42 26.5 -57.5t-20.5 -24.5z" />
<glyph unicode="&#xea;" horiz-adv-x="1069" d="M915 446h-628q6 -172 70.5 -247.5t209.5 -75.5q96 0 147 34t54 95q2 21 17 28t65 7q53 0 66.5 -6.5t13.5 -30.5q-3 -128 -99 -199t-264 -71q-237 0 -342.5 121.5t-105.5 381.5q0 279 103.5 406t334.5 127q114 0 193.5 -34t121.5 -96.5t60 -136.5t18 -169v-50 q0 -52 -6.5 -68t-28.5 -16zM557 872q-135 0 -196.5 -67.5t-71.5 -231.5h504v45q0 125 -50.5 189.5t-185.5 64.5zM535 1280l-121 -115q-21 -20 -39.5 -25t-59.5 -5q-53 0 -52 18q1 6 9 16l195 220q17 20 68 20q50 0 67 -20l195 -220q18 -32 -43 -34q-41 0 -59.5 5t-39.5 25z " />
<glyph unicode="&#xeb;" horiz-adv-x="1069" d="M915 446h-628q6 -172 70.5 -247.5t209.5 -75.5q96 0 147 34t54 95q2 21 17 28t65 7q53 0 66.5 -6.5t13.5 -30.5q-3 -128 -99 -199t-264 -71q-237 0 -342.5 121.5t-105.5 381.5q0 279 103.5 406t334.5 127q114 0 193.5 -34t121.5 -96.5t60 -136.5t18 -169v-50 q0 -52 -6.5 -68t-28.5 -16zM557 872q-135 0 -196.5 -67.5t-71.5 -231.5h504v45q0 125 -50.5 189.5t-185.5 64.5zM360 1362q62 0 77.5 -8.5t15.5 -42.5v-119q0 -31 -17 -41t-76 -10t-75.5 10t-16.5 41v119q0 34 15.5 42.5t76.5 8.5zM709 1362q61 0 76.5 -8.5t15.5 -42.5v-119 q0 -31 -16.5 -41t-75.5 -10t-76 10t-17 41v119q0 34 15.5 42.5t77.5 8.5z" />
<glyph unicode="&#xec;" horiz-adv-x="512" d="M172 31v934q0 22 15.5 28t68.5 6t68.5 -6t15.5 -28v-934q0 -22 -16 -28.5t-68 -6.5t-68 6.5t-16 28.5zM225 1130l-317 158q-21 9 -20.5 24.5t26.5 57.5q24 41 38 49.5t32 -4.5l301 -198q15 -10 15 -20.5t-17 -37.5q-18 -30 -29 -34.5t-29 5.5z" />
<glyph unicode="&#xed;" horiz-adv-x="512" d="M172 31v934q0 22 15.5 28t68.5 6t68.5 -6t15.5 -28v-934q0 -22 -16 -28.5t-68 -6.5t-68 6.5t-16 28.5zM606 1288l-317 -158q-18 -10 -29 -5.5t-29 34.5q-17 27 -17 37.5t15 20.5l301 198q18 13 32 4.5t38 -49.5q26 -42 26.5 -57.5t-20.5 -24.5z" />
<glyph unicode="&#xee;" horiz-adv-x="512" d="M172 31v934q0 22 15.5 28t68.5 6t68.5 -6t15.5 -28v-934q0 -22 -16 -28.5t-68 -6.5t-68 6.5t-16 28.5zM256 1280l-121 -115q-21 -20 -39 -25t-59 -5q-53 0 -52 18q1 6 9 16l194 220q17 20 68 20t68 -20l194 -220q18 -32 -43 -34q-41 0 -59 5t-39 25z" />
<glyph unicode="&#xef;" horiz-adv-x="512" d="M172 31v934q0 22 15.5 28t68.5 6t68.5 -6t15.5 -28v-934q0 -22 -16 -28.5t-68 -6.5t-68 6.5t-16 28.5zM92 1362q61 0 76.5 -8.5t15.5 -42.5v-119q0 -31 -16.5 -41t-75.5 -10t-75.5 10t-16.5 41v119q0 34 15.5 42.5t76.5 8.5zM420 1362q61 0 76.5 -8.5t15.5 -42.5v-119 q0 -31 -16.5 -41t-75.5 -10t-75.5 10t-16.5 41v119q0 34 15.5 42.5t76.5 8.5z" />
<glyph unicode="&#xf0;" horiz-adv-x="1122" d="M1020 1257l-121 -47q57 -99 78.5 -255t21.5 -398q0 -217 -44.5 -342t-139 -180t-256.5 -55q-236 0 -338 123.5t-102 394.5t102 394.5t338 123.5q80 0 155.5 -32.5t119.5 -86.5q-12 172 -74 260l-185 -70q-13 -7 -21 0.5t-19 38.5q-12 31 -11.5 43t15.5 19l129 49 q-83 45 -232 45q-20 0 -26.5 13t-6.5 57t6.5 56.5t26.5 12.5q271 0 398 -121l149 58q14 6 22.5 -2.5t18.5 -38.5q12 -31 11.5 -42.5t-15.5 -17.5zM559 123q151 0 209.5 85t58.5 290t-58.5 289.5t-209.5 84.5t-209.5 -84.5t-58.5 -289.5t58.5 -290t209.5 -85z" />
<glyph unicode="&#xf1;" horiz-adv-x="1150" d="M324 967l4 -105q36 66 117.5 110t205.5 44q162 0 251 -86t89 -262v-637q0 -22 -16 -28.5t-68 -6.5t-68 6.5t-16 28.5v624q0 113 -49.5 163t-155.5 50q-131 0 -208.5 -70t-77.5 -192v-575q0 -22 -16 -28.5t-68 -6.5t-68 6.5t-16 28.5v936q0 21 14.5 26.5t65.5 5.5 t65.5 -5.5t14.5 -26.5zM754 1313v24q0 17 11 23t46 6q42 0 51.5 -6.5t7.5 -28.5l-4 -55q-10 -146 -135 -146q-61 0 -133 39l-109 62q-32 18 -51 18q-21 0 -31 -12.5t-10 -48.5v-25q0 -17 -11 -22.5t-46 -5.5q-42 0 -51.5 6t-7.5 28l4 56q10 145 135 145q61 0 133 -39 l109 -61q34 -19 51 -19q21 0 31 13t10 49z" />
<glyph unicode="&#xf2;" d="M557 1016q236 0 337 -123.5t101 -394.5t-101 -394.5t-337 -123.5t-337 123.5t-101 394.5t101 394.5t337 123.5zM557 123q151 0 208.5 85t57.5 290t-57.5 289.5t-208.5 84.5t-208.5 -84.5t-57.5 -289.5t57.5 -290t208.5 -85zM567 1130l-317 158q-21 9 -20.5 24.5 t26.5 57.5q24 41 38 49.5t32 -4.5l301 -198q15 -10 15 -20.5t-17 -37.5q-18 -30 -29 -34.5t-29 5.5z" />
<glyph unicode="&#xf3;" d="M557 1016q236 0 337 -123.5t101 -394.5t-101 -394.5t-337 -123.5t-337 123.5t-101 394.5t101 394.5t337 123.5zM557 123q151 0 208.5 85t57.5 290t-57.5 289.5t-208.5 84.5t-208.5 -84.5t-57.5 -289.5t57.5 -290t208.5 -85zM866 1288l-317 -158q-18 -10 -28.5 -5.5 t-28.5 34.5q-17 28 -17.5 38t14.5 20l302 198q19 12 31.5 4t37.5 -49q26 -42 26.5 -57.5t-20.5 -24.5z" />
<glyph unicode="&#xf4;" d="M557 1016q236 0 337 -123.5t101 -394.5t-101 -394.5t-337 -123.5t-337 123.5t-101 394.5t101 394.5t337 123.5zM557 123q151 0 208.5 85t57.5 290t-57.5 289.5t-208.5 84.5t-208.5 -84.5t-57.5 -289.5t57.5 -290t208.5 -85zM557 1280l-121 -115q-21 -20 -39 -25t-59 -5 q-53 0 -52 18q1 6 9 16l194 220q17 20 68 20t68 -20l194 -220q18 -32 -43 -34q-41 0 -59 5t-39 25z" />
<glyph unicode="&#xf5;" d="M557 1016q236 0 337 -123.5t101 -394.5t-101 -394.5t-337 -123.5t-337 123.5t-101 394.5t101 394.5t337 123.5zM557 123q151 0 208.5 85t57.5 290t-57.5 289.5t-208.5 84.5t-208.5 -84.5t-57.5 -289.5t57.5 -290t208.5 -85zM737 1313v24q0 17 11.5 23t46.5 6 q42 0 51.5 -6.5t7.5 -28.5l-4 -55q-10 -146 -135 -146q-61 0 -133 39l-109 62q-32 18 -51 18q-21 0 -31 -12.5t-10 -48.5v-25q0 -17 -11 -22.5t-46 -5.5q-42 0 -52 6.5t-8 27.5l4 56q10 145 135 145q62 0 134 -39l108 -61q34 -19 51 -19q21 0 31 13t10 49z" />
<glyph unicode="&#xf6;" d="M557 1016q236 0 337 -123.5t101 -394.5t-101 -394.5t-337 -123.5t-337 123.5t-101 394.5t101 394.5t337 123.5zM557 123q151 0 208.5 85t57.5 290t-57.5 289.5t-208.5 84.5t-208.5 -84.5t-57.5 -289.5t57.5 -290t208.5 -85zM385 1362q61 0 76.5 -8.5t15.5 -42.5v-119 q0 -31 -16.5 -41t-75.5 -10t-75.5 10t-16.5 41v119q0 34 15.5 42.5t76.5 8.5zM733 1362q61 0 76.5 -8.5t15.5 -42.5v-119q0 -31 -16.5 -41t-75.5 -10t-75.5 10t-16.5 41v119q0 34 15.5 42.5t76.5 8.5z" />
<glyph unicode="&#xf7;" d="M184 707h746q18 0 23 -13.5t5 -58.5t-5 -58.5t-23 -13.5h-746q-18 0 -23 13.5t-5 58.5t5 58.5t23 13.5zM557 162q-66 0 -88.5 9.5t-22.5 41.5v135q0 34 21 42.5t90 8.5t90 -8.5t21 -42.5v-135q0 -32 -22.5 -41.5t-88.5 -9.5zM557 870q-66 0 -88.5 10t-22.5 42v135 q0 34 21 42.5t90 8.5t90 -8.5t21 -42.5v-135q0 -32 -22.5 -42t-88.5 -10z" />
<glyph unicode="&#xf8;" horiz-adv-x="1126" d="M559 1016q139 0 229 -43l50 80q10 17 27 22.5t59 5.5q17 0 28 -1.5t17 -4.5t8 -7t1 -8.5t-5 -10.5l-88 -144q112 -118 112 -407q0 -271 -101 -394.5t-337 -123.5q-133 0 -223 38l-47 -75q-11 -17 -28 -23t-58 -6q-17 0 -28.5 1.5t-17 4.5t-7.5 7.5t-1 9t5 10.5l84 137 q-117 120 -117 414q0 271 101 394.5t337 123.5zM293 498q0 -183 43 -265l375 607q-54 32 -152 32q-151 0 -208.5 -84.5t-57.5 -289.5zM559 123q151 0 208.5 85t57.5 290q0 171 -39 256l-372 -602q60 -29 145 -29z" />
<glyph unicode="&#xf9;" horiz-adv-x="1130" d="M807 29l-4 104q-84 -153 -291 -153q-175 0 -267.5 90.5t-92.5 269.5v625q0 22 15.5 28t68.5 6t68 -6t15 -28v-613q0 -117 52.5 -173t171.5 -56q121 0 188.5 74t67.5 196v572q0 22 15.5 28t68.5 6t68.5 -6t15.5 -28v-936q0 -21 -15 -27t-65 -6t-65 6t-15 27zM569 1130 l-317 158q-21 9 -20.5 24.5t26.5 57.5q24 41 38 49.5t32 -4.5l301 -198q15 -10 15 -20.5t-17 -37.5q-18 -30 -29 -34.5t-29 5.5z" />
<glyph unicode="&#xfa;" horiz-adv-x="1130" d="M807 29l-4 104q-84 -153 -291 -153q-175 0 -267.5 90.5t-92.5 269.5v625q0 22 15.5 28t68.5 6t68 -6t15 -28v-613q0 -117 52.5 -173t171.5 -56q121 0 188.5 74t67.5 196v572q0 22 15.5 28t68.5 6t68.5 -6t15.5 -28v-936q0 -21 -15 -27t-65 -6t-65 6t-15 27zM850 1288 l-318 -158q-18 -10 -28.5 -5.5t-28.5 34.5q-17 27 -17 37.5t15 20.5l301 198q18 13 32 4.5t38 -49.5q26 -42 26.5 -57.5t-20.5 -24.5z" />
<glyph unicode="&#xfb;" horiz-adv-x="1130" d="M807 29l-4 104q-84 -153 -291 -153q-175 0 -267.5 90.5t-92.5 269.5v625q0 22 15.5 28t68.5 6t68 -6t15 -28v-613q0 -117 52.5 -173t171.5 -56q121 0 188.5 74t67.5 196v572q0 22 15.5 28t68.5 6t68.5 -6t15.5 -28v-936q0 -21 -15 -27t-65 -6t-65 6t-15 27zM561 1280 l-121 -115q-21 -20 -39 -25t-59 -5q-53 0 -52 18q1 6 9 16l195 220q17 20 67 20q51 0 68 -20l194 -220q18 -32 -43 -34q-41 0 -59 5t-39 25z" />
<glyph unicode="&#xfc;" horiz-adv-x="1130" d="M807 29l-4 104q-84 -153 -291 -153q-175 0 -267.5 90.5t-92.5 269.5v625q0 22 15.5 28t68.5 6t68 -6t15 -28v-613q0 -117 52.5 -173t171.5 -56q121 0 188.5 74t67.5 196v572q0 22 15.5 28t68.5 6t68.5 -6t15.5 -28v-936q0 -21 -15 -27t-65 -6t-65 6t-15 27zM385 1362 q61 0 76.5 -8.5t15.5 -42.5v-119q0 -31 -16.5 -41t-75.5 -10t-75.5 10t-16.5 41v119q0 34 15.5 42.5t76.5 8.5zM733 1362q61 0 76.5 -8.5t15.5 -42.5v-119q0 -31 -16.5 -41t-75.5 -10t-75.5 10t-16.5 41v119q0 34 15.5 42.5t76.5 8.5z" />
<glyph unicode="&#xfd;" horiz-adv-x="1019" d="M221 -238q49 0 78 7t56 34t46.5 62.5t53.5 109.5q1 6 10 23q-51 3 -59 27q-85 195 -182 459.5t-161 473.5q-6 24 9.5 32.5t70.5 8.5q53 0 71.5 -8.5t23.5 -29.5q134 -464 280 -836q81 198 156.5 431t116.5 405q5 22 21.5 30t66.5 8q53 0 68.5 -9t10.5 -34 q-41 -186 -142.5 -473.5t-209.5 -525.5q-28 -61 -45 -96.5t-40 -76.5t-42 -63t-44.5 -45t-53.5 -33.5t-63.5 -17t-79.5 -6.5q-65 0 -97 8q-18 4 -22 16t-4 56t5 57t23 13l25 -3q24 -4 53 -4zM858 1288l-317 -158q-18 -10 -29 -5.5t-29 34.5q-17 27 -17 37.5t15 20.5l301 198 q18 13 32 4.5t38 -49.5q26 -42 26.5 -57.5t-20.5 -24.5z" />
<glyph unicode="&#xfe;" horiz-adv-x="1150" d="M332 1386v-497q95 127 301 127t302.5 -125.5t96.5 -392.5q0 -266 -97.5 -392t-301.5 -126q-207 0 -301 122v-440q0 -22 -16 -28.5t-68 -6.5t-68 6.5t-16 28.5v1724q0 22 16 28.5t68 6.5t68 -6.5t16 -28.5zM332 498q0 -199 61.5 -287t210.5 -88q144 0 200 85t56 290 q0 204 -56 289t-200 85q-149 0 -210.5 -87.5t-61.5 -286.5z" />
<glyph unicode="&#xff;" horiz-adv-x="1019" d="M221 -238q49 0 78 7t56 34t46.5 62.5t53.5 109.5q1 6 10 23q-51 3 -59 27q-85 195 -182 459.5t-161 473.5q-6 24 9.5 32.5t70.5 8.5q53 0 71.5 -8.5t23.5 -29.5q134 -464 280 -836q81 198 156.5 431t116.5 405q5 22 21.5 30t66.5 8q53 0 68.5 -9t10.5 -34 q-41 -186 -142.5 -473.5t-209.5 -525.5q-28 -61 -45 -96.5t-40 -76.5t-42 -63t-44.5 -45t-53.5 -33.5t-63.5 -17t-79.5 -6.5q-65 0 -97 8q-18 4 -22 16t-4 56t5 57t23 13l25 -3q24 -4 53 -4zM684 1362q61 0 76.5 -8.5t15.5 -42.5v-119q0 -31 -16.5 -41t-75.5 -10t-75.5 10 t-16.5 41v119q0 34 15.5 42.5t76.5 8.5zM336 1362q61 0 76.5 -8.5t15.5 -42.5v-119q0 -31 -16.5 -41t-75.5 -10t-75.5 10t-16.5 41v119q0 34 15.5 42.5t76.5 8.5z" />
<glyph unicode="&#x152;" horiz-adv-x="1818" d="M1645 1200h-568v-428h506q20 0 26.5 -14t6.5 -62t-6.5 -61.5t-26.5 -13.5h-506v-465h574q19 0 25.5 -15t6.5 -63t-6.5 -63t-25.5 -15h-983q-156 0 -259 37.5t-165 122t-87.5 208.5t-25.5 310t25.5 310t87.5 208.5t165 122t259 37.5h977q19 0 25.5 -15t6.5 -63t-6.5 -63 t-25.5 -15zM668 152h233v1052h-233q-109 0 -175 -22.5t-108.5 -84.5t-58 -160t-15.5 -259t15.5 -259t58 -160t108.5 -84.5t175 -22.5z" />
<glyph unicode="&#x153;" horiz-adv-x="1736" d="M1583 438h-612q8 -166 72 -240.5t200 -74.5q89 0 139.5 34.5t53.5 94.5q2 21 17 28t65 7q53 0 66 -6.5t13 -30.5q-3 -128 -98.5 -199t-255.5 -71q-260 0 -350 167q-41 -86 -124.5 -126.5t-219.5 -40.5q-229 0 -329.5 124t-100.5 394t100.5 394t329.5 124q136 0 219.5 -42 t124.5 -130q46 89 128.5 130.5t211.5 41.5q385 0 385 -436v-58q0 -52 -6.5 -68t-28.5 -16zM549 123q148 0 207 85.5t59 289.5q0 203 -59 288.5t-207 85.5q-144 0 -201 -85t-57 -289t57 -289.5t201 -85.5zM1233 872q-130 0 -190.5 -70t-69.5 -237h487v53q0 123 -50 188.5 t-177 65.5z" />
<glyph unicode="&#x178;" horiz-adv-x="1134" d="M889 1323q7 16 13.5 23t24.5 10.5t56 3.5q33 0 53.5 -2t31 -6.5t12 -12t-2.5 -18.5q-79 -173 -203 -415t-219 -410v-463q0 -22 -17 -29.5t-71 -7.5t-71 7.5t-17 29.5v463q-95 168 -219 410t-203 415q-4 11 -2.5 18.5t12.5 12t31.5 6.5t53.5 2q38 0 56 -3.5t24.5 -10.5 t13.5 -23q155 -364 321 -674q171 319 322 674zM750 1688q61 0 76.5 -9t15.5 -43v-118q0 -32 -17 -42t-75 -10q-59 0 -76 10t-17 42v118q0 34 16 43t77 9zM385 1688q61 0 76.5 -9t15.5 -43v-118q0 -32 -17 -42t-75 -10t-75 10t-17 42v118q0 34 15.5 43t76.5 9z" />
<glyph unicode="&#x2c6;" horiz-adv-x="675" d="M338 1280l-121 -115q-21 -20 -39 -25t-59 -5q-53 0 -52 18q1 6 9 16l194 220q17 20 68 20t68 -20l194 -220q18 -32 -43 -34q-41 0 -59 5t-39 25z" />
<glyph unicode="&#x2dc;" horiz-adv-x="675" d="M516 1313v24q0 17 11 23t46 6q42 0 52 -6.5t8 -28.5l-4 -55q-10 -146 -135 -146q-62 0 -134 39l-108 62q-32 18 -51 18q-21 0 -31 -12.5t-10 -48.5v-25q0 -17 -11.5 -22.5t-46.5 -5.5q-42 0 -51.5 6t-7.5 28l4 56q10 145 135 145q61 0 133 -39l109 -61q34 -19 51 -19 q21 0 31 13t10 49z" />
<glyph unicode="&#x2000;" horiz-adv-x="883" />
<glyph unicode="&#x2001;" horiz-adv-x="1766" />
<glyph unicode="&#x2002;" horiz-adv-x="883" />
<glyph unicode="&#x2003;" horiz-adv-x="1766" />
<glyph unicode="&#x2004;" horiz-adv-x="588" />
<glyph unicode="&#x2005;" horiz-adv-x="441" />
<glyph unicode="&#x2006;" horiz-adv-x="294" />
<glyph unicode="&#x2007;" horiz-adv-x="294" />
<glyph unicode="&#x2008;" horiz-adv-x="220" />
<glyph unicode="&#x2009;" horiz-adv-x="353" />
<glyph unicode="&#x200a;" horiz-adv-x="98" />
<glyph unicode="&#x2010;" horiz-adv-x="819" d="M164 623h491q19 0 24 -12.5t5 -57.5t-5 -57.5t-24 -12.5h-491q-19 0 -24 12.5t-5 57.5t5 57.5t24 12.5z" />
<glyph unicode="&#x2011;" horiz-adv-x="819" d="M164 623h491q19 0 24 -12.5t5 -57.5t-5 -57.5t-24 -12.5h-491q-19 0 -24 12.5t-5 57.5t5 57.5t24 12.5z" />
<glyph unicode="&#x2012;" horiz-adv-x="819" d="M164 623h491q19 0 24 -12.5t5 -57.5t-5 -57.5t-24 -12.5h-491q-19 0 -24 12.5t-5 57.5t5 57.5t24 12.5z" />
<glyph unicode="&#x2013;" horiz-adv-x="1069" d="M156 623h757q19 0 24 -12.5t5 -57.5t-5 -57.5t-24 -12.5h-757q-19 0 -24 12.5t-5 57.5t5 57.5t24 12.5z" />
<glyph unicode="&#x2014;" horiz-adv-x="1490" d="M152 623h1187q19 0 24 -12.5t5 -57.5t-5 -57.5t-24 -12.5h-1187q-19 0 -24 12.5t-5 57.5t5 57.5t24 12.5z" />
<glyph unicode="&#x2018;" horiz-adv-x="434" d="M283 1116v-92q0 -12 -3.5 -18t-21.5 -10.5t-55 -4.5q-34 0 -51.5 4.5t-21 10.5t-3.5 18v98q0 108 44.5 181t143.5 118q14 10 27 2t29 -41q19 -41 18 -51t-18 -20q-50 -28 -69 -73t-19 -122z" />
<glyph unicode="&#x2019;" horiz-adv-x="434" d="M152 1296v93q0 12 3 17.5t21 10t55 4.5q50 0 63 -7.5t13 -24.5v-99q0 -108 -44.5 -181t-143.5 -118q-14 -10 -27 -2t-29 41q-19 41 -18 51.5t18 20.5q51 28 70 72.5t19 121.5z" />
<glyph unicode="&#x201a;" horiz-adv-x="434" d="M152 104v93q0 12 3 17.5t21 10t55 4.5q50 0 63 -7.5t13 -24.5v-99q0 -108 -44.5 -181t-143.5 -118q-14 -10 -27 -2t-29 41q-19 41 -18 51.5t18 20.5q51 28 70 72.5t19 121.5z" />
<glyph unicode="&#x201c;" horiz-adv-x="765" d="M283 1116v-92q0 -12 -3.5 -18t-21.5 -10.5t-55 -4.5q-34 0 -51.5 4.5t-21 10.5t-3.5 18v98q0 108 44.5 181t143.5 118q14 10 27 2t29 -41q19 -41 18 -51t-18 -20q-50 -28 -69 -73t-19 -122zM614 1116v-92q0 -12 -3 -18t-21 -10.5t-55 -4.5q-34 0 -51.5 4.5t-21 10.5 t-3.5 18v98q0 108 44.5 181t143.5 118q14 9 26.5 1.5t28.5 -40.5q19 -41 18 -51t-18 -20q-50 -28 -69 -73t-19 -122z" />
<glyph unicode="&#x201d;" horiz-adv-x="765" d="M152 1296v93q0 12 3 17.5t21 10t55 4.5q50 0 63 -7.5t13 -24.5v-99q0 -108 -44.5 -181t-143.5 -118q-14 -10 -27 -2t-29 41q-19 41 -18 51.5t18 20.5q51 28 70 72.5t19 121.5zM483 1296v93q0 12 3.5 17.5t21.5 10t55 4.5q50 0 63 -7.5t13 -24.5v-99q0 -108 -44.5 -181 t-143.5 -118q-14 -10 -27 -2t-29 41q-19 41 -18 51.5t18 20.5q51 28 69.5 72.5t18.5 121.5z" />
<glyph unicode="&#x201e;" horiz-adv-x="765" d="M152 104v93q0 12 3 17.5t21 10t55 4.5q50 0 63 -7.5t13 -24.5v-99q0 -108 -44.5 -181t-143.5 -118q-14 -10 -27 -2t-29 41q-19 41 -18 51.5t18 20.5q51 28 70 72.5t19 121.5zM483 104v93q0 12 3.5 17.5t21.5 10t55 4.5q50 0 63 -7.5t13 -24.5v-99q0 -108 -44.5 -181 t-143.5 -118q-14 -10 -27 -2t-29 41q-19 41 -18 51.5t18 20.5q51 28 69.5 72.5t18.5 121.5z" />
<glyph unicode="&#x2022;" horiz-adv-x="712" d="M356 358q-64 0 -97 5.5t-53.5 29t-25 57.5t-4.5 103t4.5 103t25 57.5t53.5 29t97 5.5q43 0 70 -2.5t49 -11t32.5 -20t18 -35.5t9.5 -52t2 -74t-2 -74t-9.5 -52t-18 -35.5t-32.5 -20t-49 -11t-70 -2.5z" />
<glyph unicode="&#x2026;" horiz-adv-x="1499" d="M250 -4q-66 0 -88.5 9.5t-22.5 41.5v135q0 34 21 42.5t90 8.5t89.5 -8.5t20.5 -42.5v-135q0 -32 -22 -41.5t-88 -9.5zM750 -4q-66 0 -88.5 9.5t-22.5 41.5v135q0 34 21 42.5t90 8.5t89.5 -8.5t20.5 -42.5v-135q0 -32 -22 -41.5t-88 -9.5zM1249 -4q-66 0 -88 9.5t-22 41.5 v135q0 34 20.5 42.5t89.5 8.5t90 -8.5t21 -42.5v-135q0 -32 -22.5 -41.5t-88.5 -9.5z" />
<glyph unicode="&#x202f;" horiz-adv-x="353" />
<glyph unicode="&#x2039;" horiz-adv-x="634" d="M123 553q0 34 16 55l191 250q10 13 27 18t69 5q61 0 61 -19q0 -6 -6 -14l-225 -295l225 -295q19 -27 -30 -32q-11 -1 -25 -1q-52 0 -69 5t-27 18l-191 250q-16 21 -16 55z" />
<glyph unicode="&#x203a;" horiz-adv-x="634" d="M512 553q0 -34 -16 -55l-191 -250q-10 -13 -27 -18t-69 -5q-61 0 -61 19q0 6 6 14l225 295l-225 295q-19 27 30 32q11 1 25 1q52 0 69 -5t27 -18l191 -250q16 -21 16 -55z" />
<glyph unicode="&#x205f;" horiz-adv-x="441" />
<glyph unicode="&#x20ac;" horiz-adv-x="1286" d="M725 469h-315q18 -198 89 -270t238 -72q146 0 203 57.5t59 173.5q0 22 15.5 29.5t68.5 7.5t68.5 -7.5t15.5 -29.5q0 -187 -100.5 -282.5t-329.5 -95.5q-172 0 -276.5 50.5t-158 156t-69.5 282.5h-122q-19 0 -24 12t-5 56t5 55.5t24 11.5h114v74v74h-114q-19 0 -24 11.5 t-5 55.5t5 56t24 12h122q16 177 69 282.5t157.5 156t275.5 50.5q430 0 430 -366q0 -22 -15.5 -29.5t-68.5 -7.5t-68.5 7.5t-15.5 29.5q-2 107 -62.5 163t-199.5 56q-164 0 -235.5 -72.5t-89.5 -269.5h376q19 0 24 -12t5 -56t-5 -55.5t-24 -11.5h-385v-74v-74h324 q19 0 24 -11.5t5 -55.5t-5 -56t-24 -12z" />
<glyph unicode="&#x2122;" horiz-adv-x="1548" d="M807 1356q41 0 58.5 -6t23.5 -21l186 -444l187 444q6 15 23 21t58 6q44 0 63 -5.5t19 -21.5v-706q0 -17 -9 -21t-44 -4q-38 0 -47.5 4t-9.5 21v581l-176 -411q-7 -17 -19.5 -24t-44.5 -7q-31 0 -43.5 7t-19.5 24l-176 411v-581q0 -17 -10 -21t-48 -4q-35 0 -44 4t-9 21 v706q0 16 19 21.5t63 5.5zM584 1253h-197v-630q0 -17 -9.5 -21t-49.5 -4q-37 0 -46.5 4t-9.5 21v630h-196q-15 0 -19 9t-4 43q0 35 4 43t19 8h508q15 0 18.5 -8t3.5 -43q0 -34 -3.5 -43t-18.5 -9z" />
<glyph unicode="&#x25fc;" horiz-adv-x="1003" d="M0 1004h1004v-1004h-1004v1004z" />
</font>
</defs>
</svg>
