<?xml version="1.0" standalone="no"?>
<!DOCTYPE svg PUBLIC "-//W3C//DTD SVG 1.1//EN" "http://www.w3.org/Graphics/SVG/1.1/DTD/svg11.dtd" >
<svg xmlns="http://www.w3.org/2000/svg" xmlns:xlink="http://www.w3.org/1999/xlink" version="1.1">
<metadata></metadata>
<defs>
<font id="frygiabook_italic" horiz-adv-x="1114" >
<font-face units-per-em="2048" ascent="1536" descent="-512" />
<missing-glyph horiz-adv-x="450" />
<glyph unicode="&#xfb01;" horiz-adv-x="1155" d="M944 1274q-78 16 -207 16q-85 0 -135 -9.5t-82 -37t-45 -67.5t-20 -111l-6 -70h516q53 0 68 -6t14 -28l-99 -930q-2 -22 -18 -28.5t-68 -6.5t-68 6.5t-14 28.5l86 825h-434l-86 -825q-2 -22 -17 -28.5t-67 -6.5t-67 6.5t-13 28.5l86 825h-125q-19 0 -23 12.5t1 55.5 q5 45 10 56t23 11l131 4l8 78q20 195 122 278t328 83q132 0 230 -25q16 -5 18.5 -17t-6.5 -55t-16.5 -54.5t-24.5 -8.5z" />
<glyph unicode="&#xfb02;" horiz-adv-x="1179" d="M455 1065l-6 -70h198q19 0 23 -13t0 -56q-5 -44 -11 -57t-24 -13h-203l-86 -825q-2 -22 -17 -28.5t-67 -6.5t-67 6.5t-13 28.5l86 825h-125q-19 0 -23 12.5t1 55.5q5 45 10 56t23 11l131 4l8 78q20 194 124.5 277.5t330.5 83.5q194 0 309 -39q33 -11 30 -45l-118 -1129 q-4 -43 10 -58.5t55 -15.5h29q19 0 23.5 -14t0.5 -59q-5 -48 -10.5 -61t-23.5 -13h-45q-129 0 -175 45t-34 160l112 1071q-79 14 -170 14q-112 0 -169.5 -20t-82.5 -66t-34 -139z" />
<glyph unicode="&#xfb03;" horiz-adv-x="1769" d="M899 995l8 78q20 195 122.5 278t328.5 83q131 0 229 -25q16 -5 18.5 -17t-6.5 -55t-16 -54.5t-24 -8.5q-78 16 -207 16q-68 0 -113 -6.5t-76.5 -21t-50 -42t-28 -63.5t-15.5 -92l-6 -70h516q53 0 68 -6t14 -28l-98 -930q-2 -22 -18 -28.5t-68 -6.5t-68 6.5t-14 28.5 l86 825h-434l-86 -825q-2 -22 -17 -28.5t-67 -6.5t-67 6.5t-13 28.5l86 825h-451l-86 -825q-2 -22 -17 -28.5t-67 -6.5t-67 6.5t-13 28.5l86 825h-125q-19 0 -23 12.5t1 55.5q5 45 10 56t23 11l131 4l10 111q19 170 95 244.5t231 74.5q108 0 174 -32q14 -6 13 -22t-20 -54 q-20 -37 -30.5 -46.5t-26.5 -4.5q-46 16 -110 16q-81 0 -116 -40.5t-46 -143.5l-10 -103h450z" />
<glyph unicode="&#xfb04;" horiz-adv-x="1794" d="M899 995l8 78q20 194 124.5 277.5t330.5 83.5q194 0 309 -39q34 -12 31 -45l-119 -1129q-4 -42 10 -58t56 -16h28q19 0 24 -14t1 -59q-5 -47 -11 -60.5t-24 -13.5h-45q-129 0 -175 45t-34 160l113 1071q-79 14 -170 14q-113 0 -170 -20t-82.5 -66t-34.5 -139l-6 -70h199 q19 0 23 -13t-1 -56q-5 -44 -11 -57t-24 -13h-202l-86 -825q-2 -22 -17 -28.5t-67 -6.5t-67 6.5t-13 28.5l86 825h-451l-86 -825q-2 -22 -17 -28.5t-67 -6.5t-67 6.5t-13 28.5l86 825h-125q-19 0 -23 12.5t1 55.5q5 45 10 56t23 11l131 4l10 111q19 170 95 244.5t231 74.5 q108 0 174 -32q14 -6 13 -22t-20 -54q-20 -37 -30.5 -46.5t-26.5 -4.5q-46 16 -110 16q-81 0 -116 -40.5t-46 -143.5l-10 -103h450z" />
<glyph horiz-adv-x="0" />
<glyph horiz-adv-x="682" />
<glyph unicode=" "  horiz-adv-x="450" />
<glyph unicode="&#x09;" horiz-adv-x="450" />
<glyph unicode="&#xa0;" horiz-adv-x="450" />
<glyph unicode="!" horiz-adv-x="581" d="M291 383q-44 0 -56 6.5t-10 26.5l62 901q2 25 23 34t79 9q59 0 80.5 -9.5t17.5 -33.5l-127 -901q-2 -20 -13.5 -26.5t-55.5 -6.5zM250 -4q-66 0 -88 10t-19 41l15 135q3 34 23 42.5t89 8.5q70 0 91 -8.5t18 -42.5l-14 -135q-3 -32 -26 -41.5t-89 -9.5z" />
<glyph unicode="&#x22;" horiz-adv-x="753" d="M203 956l28 430q2 22 16.5 28.5t63.5 6.5q50 0 65.5 -6.5t14.5 -28.5l-61 -430q-3 -20 -15.5 -25t-50.5 -5q-39 0 -51.5 5.5t-9.5 24.5zM543 956l28 430q2 22 16.5 28.5t63.5 6.5q50 0 65.5 -6.5t14.5 -28.5l-61 -430q-3 -20 -15.5 -25t-50.5 -5q-39 0 -51.5 5.5 t-9.5 24.5z" />
<glyph unicode="#" horiz-adv-x="1220" d="M618 25l91 331h-297l-90 -331q-4 -18 -19 -23.5t-59 -5.5q-43 0 -54.5 5t-7.5 24l90 331h-166q-14 0 -17.5 12.5t-0.5 47.5q3 34 9.5 46.5t21.5 12.5h186l86 320h-166q-15 0 -18 12t0 47q5 35 10.5 47t20.5 12h186l90 332q6 19 20.5 24t57.5 5q44 0 55.5 -5.5t5.5 -23.5 l-90 -332h297l90 332q6 19 20.5 24t57.5 5q44 0 56 -5.5t6 -23.5l-91 -332h164q15 0 19 -12.5t0 -46.5q-3 -34 -9.5 -46.5t-21.5 -12.5h-184l-86 -320h163q15 0 18.5 -12t0.5 -47q-3 -34 -9.5 -47t-21.5 -13h-184l-90 -331q-4 -18 -19 -23.5t-59 -5.5q-43 0 -54.5 5t-7.5 24 zM530 795l-86 -320h297l86 320h-297z" />
<glyph unicode="$" horiz-adv-x="1175" d="M535 -188q-55 0 -70 7t-12 29l14 136q-182 13 -276.5 97.5t-77.5 252.5q2 22 17.5 29.5t68.5 7.5t67.5 -7.5t12.5 -29.5q-9 -98 45 -148t170 -61l51 504q-79 22 -136.5 48.5t-106.5 67t-74 99t-25 135.5q0 373 409 395l15 133q2 23 17 30t69 7t69 -7t13 -30l-15 -137 q166 -18 241 -99.5t62 -240.5q-2 -22 -17.5 -29.5t-68.5 -7.5q-52 0 -66.5 7t-12.5 30q9 91 -31 138t-135 59l-52 -477q73 -22 123.5 -42.5t97 -49.5t73.5 -63.5t43 -83t16 -110.5q0 -191 -109 -296.5t-311 -120.5l-12 -136q-3 -23 -17.5 -29.5t-68.5 -6.5zM881 391 q0 79 -47 123.5t-150 77.5l-49 -465q246 28 246 264zM373 987q1 -81 45.5 -121.5t144.5 -72.5l45 438q-112 -8 -173.5 -64t-61.5 -180z" />
<glyph unicode="%" horiz-adv-x="1585" d="M489 1368q133 0 196 -63t63 -189q0 -79 -14.5 -143.5t-48 -120.5t-96.5 -87.5t-151 -31.5q-134 0 -197 63.5t-63 190.5q0 62 9 115.5t31 103.5t56.5 85t89.5 56t125 21zM442 844q174 0 174 270q0 76 -30.5 109.5t-100.5 33.5q-176 0 -176 -264q0 -79 31 -114t102 -35z M1335 1327l-884 -1302q-12 -19 -29.5 -24t-65.5 -5q-27 0 -40 4t-13.5 11.5t6.5 17.5l885 1302q12 19 28.5 24t63.5 5q27 0 40.5 -4t14.5 -11.5t-6 -17.5zM1206 623q133 0 195.5 -63t62.5 -189q0 -63 -8.5 -116t-30 -103.5t-56 -85.5t-89 -56.5t-125.5 -21.5 q-133 0 -196.5 63t-63.5 191q0 62 9 115.5t31 103.5t56.5 85t89.5 56t125 21zM1159 98q174 0 174 271q0 76 -30.5 109.5t-100.5 33.5q-176 0 -176 -264q0 -79 31 -114.5t102 -35.5z" />
<glyph unicode="&#x26;" horiz-adv-x="1425" d="M1262 145q15 7 25 -6.5t18 -46.5q9 -40 6.5 -54.5t-19.5 -21.5q-58 -28 -137 -28q-161 0 -215 123q-121 -131 -356 -131q-457 0 -457 368q0 133 60 238t184 153q-68 27 -106 86.5t-38 147.5q0 200 125.5 301.5t345.5 101.5q218 0 313.5 -78t80.5 -229q-2 -21 -17 -27 t-67 -6t-64 6t-12 29q5 82 -46.5 123t-193.5 41q-140 0 -215.5 -59.5t-75.5 -202.5q0 -95 45 -133.5t154 -38.5h68q17 0 20 -12.5t-2 -55.5q-5 -45 -10.5 -57t-22.5 -12h-63q-124 0 -204.5 -83.5t-80.5 -218.5q0 -241 287 -241q306 0 332 260l28 283h-112q-18 0 -22.5 13 t-0.5 56q5 44 10.5 56t22.5 12h442q17 0 21 -12.5t0 -55.5q-5 -46 -9.5 -57.5t-21.5 -11.5h-166l-31 -299q0 -9 -2 -11q-4 -82 -4 -102q0 -74 22.5 -98.5t84.5 -24.5q37 0 76 16z" />
<glyph unicode="'" horiz-adv-x="421" d="M207 956l29 430q2 22 16 28.5t63 6.5q50 0 65.5 -6.5t14.5 -28.5l-61 -430q-3 -20 -15.5 -25t-50.5 -5q-39 0 -51.5 5.5t-9.5 24.5z" />
<glyph unicode="(" horiz-adv-x="716" d="M154 166q0 149 11 290.5t34 286.5t64.5 265t98 215t138.5 148.5t182 53.5h35q18 0 20.5 -12.5t-2.5 -52.5q-3 -41 -9 -53.5t-24 -12.5h-30q-79 0 -143.5 -78t-105 -198.5t-68.5 -275t-39 -299t-11 -277.5q0 -210 47.5 -311t157.5 -101h31q18 0 21 -12.5t-1 -52.5 q-5 -41 -11 -53.5t-24 -12.5h-34q-180 0 -259 133t-79 410z" />
<glyph unicode=")" horiz-adv-x="716" d="M563 883q0 -149 -11 -290.5t-34 -286.5t-64.5 -265.5t-98 -215.5t-138.5 -148.5t-182 -53.5h-35q-18 0 -20.5 13t2.5 53q3 41 8.5 53t23.5 12h31q79 0 143.5 78t105 199t68.5 275.5t39 299t11 277.5q0 210 -47.5 310.5t-157.5 100.5h-31q-18 0 -21 13t1 53 q5 42 10.5 53.5t23.5 11.5h35q180 0 259 -132.5t79 -409.5z" />
<glyph unicode="*" horiz-adv-x="1056" d="M285 1196l274 -137l-8 317q0 22 17.5 29.5t66.5 7.5q50 0 66 -7.5t10 -29.5l-74 -317l303 137q20 9 31 -5t22 -61q6 -32 6.5 -48.5t-5.5 -25.5t-21 -12l-320 -59l195 -231q13 -14 1.5 -31.5t-54.5 -46.5q-42 -30 -59 -33.5t-27 16.5l-123 281l-185 -281 q-12 -20 -29 -16.5t-53 33.5q-37 28 -44.5 46t8.5 32l243 231l-307 59q-22 4 -22 22t22 64q20 47 34.5 61t31.5 5z" />
<glyph unicode="+" d="M696 1010l-32 -303h305q19 0 23 -14t-1 -58q-5 -46 -11 -59t-24 -13h-307l-31 -303q-2 -19 -16 -25t-61 -6t-61.5 6t-12.5 25l31 303h-303q-19 0 -23.5 14t0.5 58q5 46 11 59t24 13h305l33 303q3 19 17 24.5t61 5.5q48 0 62 -5.5t11 -24.5z" />
<glyph unicode="," horiz-adv-x="499" d="M256 229q64 0 85 -10t9 -41q-66 -163 -225 -430q-17 -27 -82 -27q-31 0 -46 6.5t-9 22.5q95 241 145 438q6 25 28 33t95 8z" />
<glyph unicode="-" horiz-adv-x="819" d="M184 623h492q19 0 23.5 -13t0.5 -57q-5 -46 -10.5 -58t-23.5 -12h-492q-19 0 -23 13t1 57q5 47 9.5 58.5t22.5 11.5z" />
<glyph unicode="." horiz-adv-x="499" d="M209 -4q-66 0 -88 10t-19 41l15 135q3 34 23 42.5t89 8.5q70 0 91 -8.5t18 -42.5l-14 -135q-3 -32 -26 -41.5t-89 -9.5z" />
<glyph unicode="/" horiz-adv-x="724" d="M801 1425l-651 -1556q-10 -23 -27.5 -30t-79.5 -7q-51 0 -63 7.5t-3 29.5l652 1556q8 23 26 30t80 7q51 0 62.5 -7t3.5 -30z" />
<glyph unicode="0" horiz-adv-x="1163" d="M664 1290q215 0 311 -112.5t96 -352.5q0 -83 -4 -155.5t-18 -161t-36.5 -160.5t-62.5 -142.5t-93 -118.5t-132 -77.5t-176 -29.5q-215 0 -311.5 112t-96.5 352q0 846 523 846zM553 123q79 0 140 40t99 106t62 160.5t33.5 193.5t9.5 215q0 167 -54 238t-184 71 q-79 0 -140 -40t-99 -106t-62 -160.5t-33.5 -193.5t-9.5 -215q0 -167 54 -238t184 -71z" />
<glyph unicode="1" horiz-adv-x="864" d="M342 33l113 1077l-256 -68q-19 -4 -24.5 12t-2.5 52q6 51 12.5 65.5t26.5 18.5l395 102q42 9 39 -18l-131 -1241q-2 -22 -18.5 -29.5t-69.5 -7.5t-69.5 7.5t-14.5 29.5z" />
<glyph unicode="2" horiz-adv-x="1081" d="M635 1290q193 0 285 -84t92 -229q0 -91 -26 -166t-54.5 -122t-102.5 -102t-114.5 -78.5t-144.5 -79.5q-53 -29 -81 -44q-98 -54 -154.5 -110t-66.5 -132h637q19 0 23 -13.5t0 -57.5q-5 -47 -10 -59.5t-23 -12.5h-782q-19 0 -24 14t-1 58l4 34q12 116 78 203.5t190 165.5 q32 20 78 45t82.5 43.5t79.5 44t76 49.5t65 57.5t52.5 70t33.5 84.5t13 104q0 91 -48.5 134.5t-162.5 43.5q-132 0 -196 -50t-79 -161q-5 -23 -18 -30t-64 -7q-50 0 -65.5 7t-13.5 28q23 187 130 269.5t312 82.5z" />
<glyph unicode="3" horiz-adv-x="1073" d="M532 588h-118q-17 0 -21 12t0 55t11 55.5t24 12.5h123q129 0 191.5 63t62.5 201q0 87 -48.5 125.5t-162.5 38.5q-128 0 -190.5 -43.5t-75.5 -126.5q-5 -23 -17.5 -29t-64.5 -6q-51 0 -67 6.5t-13 26.5q38 311 434 311q193 0 286 -78.5t93 -222.5q0 -104 -47 -191.5 t-150 -133.5q168 -57 168 -256q0 -204 -120.5 -316t-335.5 -112q-218 0 -322.5 80t-91.5 239q2 20 17.5 26.5t66.5 6.5q52 0 65 -6t13 -29q-5 -86 52.5 -132t192.5 -46q287 0 287 284q0 104 -61.5 144.5t-180.5 40.5z" />
<glyph unicode="4" d="M733 -4q-53 0 -69.5 7.5t-14.5 29.5l29 278h-594q-9 0 -14 4t-6.5 15.5t-1 24t3.5 38.5q3 34 8 49.5t18 34.5l602 768q15 20 40 26.5t87 6.5q77 0 103.5 -6.5t23.5 -28.5l-84 -792h162q18 0 22 -14.5t-1 -57.5q-4 -43 -11 -55.5t-26 -12.5h-160l-29 -278 q-2 -22 -18.5 -29.5t-69.5 -7.5zM250 451h446l72 665z" />
<glyph unicode="5" horiz-adv-x="1028" d="M514 659q-139 0 -235 -41q-28 -12 -78 -12q-42 0 -57.5 7t-12.5 28l102 594q3 22 18.5 28.5t61.5 6.5h594q19 0 23.5 -14t-0.5 -58q-5 -46 -11 -59t-24 -13h-526l-66 -376q95 45 238 45q377 0 377 -342q0 -218 -116 -345.5t-347 -127.5q-199 0 -297.5 80.5t-85.5 238.5 q2 20 17.5 26.5t66.5 6.5q52 0 64.5 -6t12.5 -29q-5 -86 48 -132t180 -46q142 0 211 85.5t69 244.5q0 106 -51.5 158t-175.5 52z" />
<glyph unicode="6" horiz-adv-x="1081" d="M831 1001q3 74 -45.5 112t-144.5 38q-287 0 -340 -475q43 55 122.5 85t172.5 30q371 0 371 -320q0 -237 -114 -364t-335 -127q-209 0 -299 110.5t-90 321.5q0 161 15.5 290.5t52.5 241.5t95.5 187t147.5 117t205 42q165 0 262 -72t86 -219q-3 -20 -19 -26t-67 -6 q-53 0 -65.5 6t-10.5 28zM291 518v-108q0 -51 6 -92t21.5 -79t41 -64t66.5 -41t96 -15q82 0 138.5 27.5t85.5 78t41 107.5t12 131q0 100 -48 146t-169 46q-99 0 -175 -35.5t-116 -101.5z" />
<glyph unicode="7" horiz-adv-x="978" d="M201 35q100 246 261 546.5t316 544.5h-590q-19 0 -23 14t1 58q5 46 11 59t24 13h745q19 0 23.5 -13t-0.5 -51q-2 -26 -8.5 -46.5t-10.5 -27.5t-16 -26q-163 -259 -314 -546t-247 -527q-7 -22 -28.5 -29.5t-74.5 -7.5q-51 0 -64 8t-5 31z" />
<glyph unicode="8" horiz-adv-x="1122" d="M115 291q0 84 19.5 148t57.5 105.5t80.5 67.5t100.5 45q-80 32 -124 91.5t-44 162.5q0 190 115 284.5t325 94.5q195 0 291 -75.5t96 -217.5q-1 -78 -18.5 -138t-50 -99.5t-71.5 -65t-91 -43.5q92 -35 142.5 -95.5t51.5 -172.5q0 -202 -122.5 -302.5t-346.5 -100.5 q-208 0 -309.5 80.5t-101.5 230.5zM825 375q0 54 -17.5 93t-52.5 63.5t-71 39t-90 27.5q-57 -12 -95 -23.5t-82.5 -34.5t-70.5 -52.5t-43.5 -77.5t-17.5 -111q0 -93 59.5 -136.5t187.5 -43.5q133 0 213 60t80 196zM373 918q0 -47 15.5 -82.5t46.5 -59t64 -38t81 -27.5 q54 13 90 24.5t76 33.5t63.5 50t39 71.5t15.5 100.5q0 86 -52 124t-171 38q-268 0 -268 -235z" />
<glyph unicode="9" horiz-adv-x="1081" d="M293 268q-3 -74 45.5 -111.5t144.5 -37.5q290 0 338 473q-43 -54 -122 -83.5t-171 -29.5q-370 0 -370 320q0 237 113.5 364t334.5 127q209 0 299 -110.5t90 -321.5q0 -161 -15.5 -290.5t-52.5 -241.5t-95.5 -187t-147.5 -117t-205 -42q-165 0 -262 71.5t-86 218.5 q3 20 19 26.5t67 6.5q53 0 65.5 -6.5t10.5 -28.5zM834 860q0 65 -10 114t-35 91t-72 64t-115 22q-66 0 -115.5 -19t-79.5 -50t-49 -76.5t-25.5 -93t-6.5 -105.5q0 -101 48 -147t169 -46q97 0 172.5 36t115.5 100q3 62 3 110z" />
<glyph unicode=":" horiz-adv-x="540" d="M229 -4q-66 0 -87.5 9.5t-18.5 41.5l14 135q3 34 23.5 42.5t89.5 8.5q70 0 90.5 -8.5t17.5 -42.5l-14 -135q-3 -32 -26 -41.5t-89 -9.5zM309 762q-66 0 -87.5 9.5t-18.5 41.5l14 135q3 34 23.5 42.5t89.5 8.5q70 0 90.5 -8.5t17.5 -42.5l-14 -135q-3 -32 -26 -41.5 t-89 -9.5z" />
<glyph unicode=";" horiz-adv-x="540" d="M309 762q-66 0 -87.5 9.5t-18.5 41.5l14 135q3 34 23.5 42.5t89.5 8.5q70 0 90.5 -8.5t17.5 -42.5l-14 -135q-3 -32 -26 -41.5t-89 -9.5zM276 229q65 0 86 -10t9 -41q-64 -158 -226 -430q-17 -27 -82 -27q-31 0 -46 6.5t-9 22.5q98 248 146 438q6 26 27.5 33.5t94.5 7.5z " />
<glyph unicode="&#x3c;" d="M180 635q4 37 9 55.5t10.5 24.5t19.5 14l701 469q19 11 30.5 3.5t36.5 -46.5q24 -39 25 -53.5t-19 -26.5l-657 -440l563 -440q19 -12 14.5 -27t-36.5 -53q-31 -38 -46 -46.5t-30 3.5l-602 469q-16 12 -19 23.5t0 70.5z" />
<glyph unicode="=" d="M199 512h745q18 0 22 -14t-1 -58t-11.5 -57.5t-25.5 -13.5h-746q-18 0 -21.5 13.5t1.5 57.5q5 45 11.5 58.5t25.5 13.5zM236 901h745q18 0 21.5 -14t-1.5 -58q-5 -45 -11 -58t-25 -13h-746q-18 0 -21.5 13.5t1.5 57.5q5 45 11.5 58.5t25.5 13.5z" />
<glyph unicode="&#x3e;" d="M1016 635q-4 -37 -9 -55.5t-10.5 -24.5t-19.5 -14l-701 -469q-19 -11 -30.5 -3.5t-36.5 46.5q-24 39 -25 53.5t19 26.5l657 440l-563 440q-19 12 -14.5 27t36.5 53q31 38 46 46.5t30 -3.5l602 -469q16 -12 19 -23.5t0 -70.5z" />
<glyph unicode="?" horiz-adv-x="1118" d="M610 467l-8 -51q-3 -20 -17 -26.5t-59 -6.5t-56 6.5t-11 26.5v51q2 57 25.5 105.5t60.5 84t81 68.5t87.5 66.5t79.5 70t58.5 86.5t22.5 109q0 86 -52.5 129t-176.5 43q-148 0 -217.5 -53.5t-83.5 -174.5q-3 -23 -18 -30.5t-68 -7.5q-50 0 -66.5 7.5t-13.5 28.5 q21 197 138.5 287t334.5 90q205 0 302.5 -86.5t97.5 -232.5q0 -74 -22 -133.5t-57.5 -99t-79 -73t-89 -62.5t-85 -59t-69.5 -71.5t-39 -91.5zM489 -4q-66 0 -87.5 9.5t-18.5 41.5l14 135q3 34 23.5 42.5t89.5 8.5q70 0 90.5 -8.5t17.5 -42.5l-14 -135q-3 -32 -26 -41.5 t-89 -9.5z" />
<glyph unicode="@" horiz-adv-x="1802" d="M1128 588l27 262q-57 33 -174 33q-79 0 -133.5 -29t-83 -84t-40 -119.5t-11.5 -150.5q0 -102 40.5 -146.5t133.5 -44.5q212 0 241 279zM1141 -137h-279q-173 0 -298.5 31t-216 99.5t-135 183t-44.5 276.5q0 456 209.5 670t640.5 214q185 0 314 -34t208 -103.5t114.5 -169 t35.5 -237.5q0 -56 -2.5 -107t-11.5 -117.5t-23.5 -122t-41 -111.5t-62 -94.5t-88.5 -62.5t-118 -24q-109 0 -157 42.5t-56 122.5q-92 -137 -258 -137q-150 0 -227.5 75t-77.5 239q0 516 414 516q85 0 163 -17.5t124 -44.5q35 -19 32 -45l-49 -475q-18 -168 84 -168 q215 0 215 535q0 233 -118 327.5t-416 94.5q-251 0 -404.5 -75.5t-229 -244t-75.5 -448.5q0 -112 23 -193t66 -134t113.5 -84.5t155.5 -44.5t201 -13h289q15 0 18.5 -10.5t0.5 -47.5q-4 -37 -11 -49t-22 -12z" />
<glyph unicode="A" horiz-adv-x="1175" d="M983 -4q-52 0 -67.5 7t-20.5 30q-34 199 -64 350h-491q-63 -155 -135 -350q-8 -22 -27 -29.5t-72 -7.5q-55 0 -72 7.5t-9 29.5q104 285 257 640.5t296 649.5q11 23 31 30t79 7q60 0 79 -7.5t24 -29.5q81 -288 159 -644t123 -646q4 -22 -15 -29.5t-75 -7.5zM666 1147 q-138 -301 -267 -617h404q-68 338 -137 617z" />
<glyph unicode="B" horiz-adv-x="1236" d="M385 625l-51 -475h272q58 0 105.5 7.5t90.5 27t72.5 50.5t46.5 80.5t17 114.5q0 48 -14 83t-38.5 56.5t-65 34t-86 17t-109.5 4.5h-240zM690 1206h-246l-45 -436h256q134 0 214.5 62t80.5 198q0 94 -60.5 135t-199.5 41zM360 1356h342q217 0 321.5 -76.5t104.5 -232.5 q0 -242 -215 -338q205 -45 205 -279q0 -217 -131.5 -323.5t-372.5 -106.5h-395q-46 0 -61 7.5t-13 29.5l136 1282q3 22 18.5 29.5t60.5 7.5z" />
<glyph unicode="C" horiz-adv-x="1212" d="M160 678q16 156 42.5 266t69 195.5t106.5 136t152.5 75.5t208.5 25q100 0 176.5 -19.5t135 -62.5t85 -119t17.5 -182q-2 -22 -18.5 -29.5t-69.5 -7.5t-69.5 7.5t-14.5 29.5q11 119 -47.5 175.5t-200.5 56.5q-68 0 -117 -10t-90.5 -35t-70 -64t-51 -102t-37.5 -143.5 t-27 -192.5q-12 -126 -12 -217q0 -190 66 -260t229 -70q148 0 214.5 58.5t82.5 185.5q2 22 19.5 29.5t70.5 7.5t68.5 -7.5t13.5 -29.5q-22 -200 -134.5 -297.5t-341.5 -97.5q-254 0 -361.5 113.5t-107.5 375.5q0 85 13 209z" />
<glyph unicode="D" horiz-adv-x="1290" d="M334 152h262q89 0 150 15.5t107 49t75 96.5t48 149t32 216q14 143 14 211q0 182 -69.5 248.5t-245.5 66.5h-263zM592 0h-371q-46 0 -61.5 7.5t-14.5 29.5l136 1282q3 22 17.5 29.5t59.5 7.5h355q263 0 375 -113t112 -369q0 -88 -12 -196q-19 -188 -55 -310t-104.5 -208 t-174 -123t-262.5 -37z" />
<glyph unicode="E" horiz-adv-x="1142" d="M1055 1200h-611l-45 -428h537q20 0 26.5 -15.5t0.5 -62.5q-4 -48 -11.5 -60.5t-27.5 -12.5h-541l-49 -465h612q20 0 26.5 -16.5t0.5 -63.5q-4 -49 -11 -62.5t-26 -13.5h-715q-46 0 -61.5 7.5t-14.5 29.5l136 1282q3 22 17.5 29.5t59.5 7.5h709q19 0 25 -16t2 -64t-12 -62 t-27 -14z" />
<glyph unicode="F" horiz-adv-x="1052" d="M383 621l-61 -588q-2 -22 -19 -29.5t-72 -7.5t-71.5 7.5t-14.5 29.5l136 1286q3 22 17.5 29.5t59.5 7.5h686q20 0 25.5 -15t1.5 -63t-12 -63t-27 -15h-588l-45 -428h523q20 0 26 -14.5t0 -61.5q-4 -48 -12 -61.5t-27 -13.5h-526z" />
<glyph unicode="G" horiz-adv-x="1261" d="M1071 684q46 0 61 -7.5t13 -29.5l-25 -219q-23 -228 -142.5 -338t-344.5 -110q-250 0 -366.5 119.5t-116.5 396.5q0 72 10 182q21 193 57.5 320t104 214.5t169 125.5t250.5 38q224 0 335 -93.5t91 -272.5q-2 -22 -19.5 -29.5t-70.5 -7.5t-68.5 7.5t-13.5 29.5 q10 107 -55 161t-205 54q-134 0 -209.5 -47.5t-118.5 -163t-67 -336.5q-10 -88 -10 -186q0 -106 18.5 -176.5t58.5 -111t95 -57t137 -16.5q151 0 222.5 70.5t88.5 234.5l11 96h-289q-20 0 -26.5 14.5t-0.5 61.5q4 48 12 62t27 14h387z" />
<glyph unicode="H" horiz-adv-x="1331" d="M1018 -4q-55 0 -71.5 7.5t-14.5 29.5l61 585h-610l-61 -585q-2 -22 -19 -29.5t-72 -7.5t-71.5 7.5t-14.5 29.5l136 1290q3 22 19.5 29.5t70.5 7.5q55 0 72 -7.5t14 -29.5l-58 -549h611l57 549q3 22 19.5 29.5t70.5 7.5q55 0 72 -7.5t14 -29.5l-135 -1290 q-2 -22 -19 -29.5t-71 -7.5z" />
<glyph unicode="I" horiz-adv-x="552" d="M236 -4q-55 0 -71.5 7.5t-14.5 29.5l135 1290q3 22 19.5 29.5t70.5 7.5q55 0 72 -7.5t14 -29.5l-135 -1290q-2 -22 -19 -29.5t-71 -7.5z" />
<glyph unicode="J" horiz-adv-x="1052" d="M709 475l88 848q3 22 19.5 29.5t70.5 7.5q55 0 72 -7.5t14 -29.5l-90 -856q-27 -256 -129 -371.5t-322 -115.5q-175 0 -265.5 82t-90.5 241q0 22 4 72q2 22 18.5 29.5t69.5 7.5t69.5 -7.5t14.5 -29.5q-12 -125 32 -182.5t158 -57.5q133 0 190 78.5t77 261.5z" />
<glyph unicode="K" horiz-adv-x="1175" d="M1192 1321l-508 -602l399 -684q20 -31 -36 -37q-15 -2 -35 -2q-63 0 -87 6.5t-36 28.5l-352 608h-148l-67 -606q-3 -22 -20 -29.5t-71 -7.5q-55 0 -71.5 7.5t-14.5 29.5l136 1290q3 22 19.5 29.5t70.5 7.5q57 0 78 -8t18 -29l-59 -528h141l438 530q18 21 44.5 28t88.5 7 q85 0 80 -26q-2 -6 -8 -13z" />
<glyph unicode="L" horiz-adv-x="1003" d="M457 1323l-123 -1171h543q20 0 26 -15.5t0 -62.5q-4 -48 -11 -61t-26 -13h-645q-46 0 -61.5 7.5t-14.5 29.5l136 1286q3 22 19.5 29.5t70.5 7.5q55 0 72 -7.5t14 -29.5z" />
<glyph unicode="M" horiz-adv-x="1613" d="M782 150q-53 0 -69.5 7.5t-22.5 30.5l-258 936l-115 -1091q-2 -22 -18.5 -29.5t-69.5 -7.5t-69.5 7.5t-14.5 29.5l136 1290q3 22 29 29.5t102 7.5q67 0 96 -8t33 -29l262 -952l463 952q10 22 38.5 29.5t94.5 7.5q77 0 103.5 -7.5t23.5 -29.5l-135 -1290 q-2 -22 -18.5 -29.5t-69.5 -7.5t-69.5 7.5t-14.5 29.5l114 1091l-454 -936q-10 -23 -27 -30.5t-70 -7.5z" />
<glyph unicode="N" horiz-adv-x="1339" d="M1167 1360q54 0 70.5 -7.5t13.5 -29.5l-135 -1290q-1 -15 -9 -22.5t-30.5 -11t-68.5 -3.5q-54 0 -72 6t-27 27l-481 1058l-111 -1054q-2 -22 -18.5 -29.5t-69.5 -7.5t-69.5 7.5t-14.5 29.5l136 1290q3 23 22 30t86 7q55 0 73 -6t27 -27l480 -1057l110 1053q3 22 19 29.5 t69 7.5z" />
<glyph unicode="O" horiz-adv-x="1302" d="M743 1376q248 0 358.5 -116t110.5 -381q0 -90 -12 -201q-20 -193 -58.5 -322t-107.5 -215t-170.5 -123.5t-247.5 -37.5q-249 0 -357.5 117t-108.5 384q0 107 10 197q20 193 59 321.5t107.5 215t169.5 124t247 37.5zM623 131q98 0 162.5 23.5t113 86t76.5 167t45 270.5 q12 120 12 207q0 132 -31.5 206.5t-93.5 104t-170 29.5q-78 0 -133.5 -15t-101 -51t-75.5 -99.5t-51.5 -156t-35.5 -225.5q-12 -117 -12 -205q0 -133 31.5 -208t93.5 -104.5t170 -29.5z" />
<glyph unicode="P" horiz-adv-x="1183" d="M623 504h-252l-49 -471q-2 -22 -19 -29.5t-72 -7.5t-71.5 7.5t-14.5 29.5l136 1286q3 22 17.5 29.5t59.5 7.5h334q231 0 338 -85t107 -267q0 -22 -4 -76q-22 -225 -140.5 -324.5t-369.5 -99.5zM444 1204l-59 -553h240q168 0 239 57t88 220q4 54 4 71q0 119 -62 162 t-212 43h-238z" />
<glyph unicode="Q" horiz-adv-x="1302" d="M743 1376q248 0 358.5 -116t110.5 -381q0 -90 -12 -201q-34 -334 -134 -493.5t-308 -194.5q40 -53 125.5 -84t181.5 -33q19 0 24 -15t1 -63q-4 -47 -12.5 -60.5t-28.5 -13.5q-145 0 -270 72.5t-195 186.5q-231 7 -332.5 124.5t-101.5 376.5q0 107 10 197q20 193 59 321.5 t107.5 215t169.5 124t247 37.5zM623 131q98 0 162.5 23.5t113 86t76.5 167t45 270.5q12 120 12 207q0 132 -31.5 206.5t-93.5 104t-170 29.5q-78 0 -133.5 -15t-101 -51t-75.5 -99.5t-51.5 -156t-35.5 -225.5q-12 -117 -12 -205q0 -133 31.5 -208t93.5 -104.5t170 -29.5z " />
<glyph unicode="R" horiz-adv-x="1220" d="M578 549h-203l-53 -516q-2 -22 -19 -29.5t-72 -7.5t-71.5 7.5t-14.5 29.5l136 1286q3 22 17.5 29.5t59.5 7.5h334q229 0 338 -85t109 -257q0 -20 -4 -70q-30 -282 -293 -358q66 -27 104 -90t70 -189q49 -180 59 -274q2 -21 -13 -29t-79 -8q-57 0 -78 8t-24 27 q-8 81 -45 243q-16 66 -34 111.5t-47.5 85t-73 59t-103.5 19.5zM444 1204l-53 -512h238q166 0 238 54.5t87 201.5q4 40 4 56q0 114 -62.5 157t-213.5 43h-238z" />
<glyph unicode="S" horiz-adv-x="1179" d="M559 127q313 0 313 262q0 92 -60.5 137.5t-203.5 81.5q-74 19 -129 38t-110 49.5t-89 67.5t-55.5 91t-21.5 121q0 202 119 301.5t342 99.5q221 0 324.5 -81t90.5 -265q-2 -22 -18.5 -29.5t-69.5 -7.5t-67.5 7.5t-12.5 29.5q10 109 -49.5 154t-197.5 45q-64 0 -113 -11.5 t-90 -38t-62.5 -75.5t-21.5 -119q0 -26 4 -48t15.5 -40t22.5 -32t33.5 -27t40.5 -22.5t51 -21t57 -18.5t67 -20q71 -21 116.5 -36.5t93.5 -38t76 -47t51.5 -58.5t33.5 -77.5t10 -99.5q0 -209 -129 -314t-367 -105q-222 0 -338 84t-102 270q2 22 18.5 29.5t69.5 7.5 t67.5 -7.5t12.5 -29.5q-10 -110 61.5 -158.5t216.5 -48.5z" />
<glyph unicode="T" horiz-adv-x="1077" d="M1061 1200h-350l-123 -1167q-2 -22 -19 -29.5t-71 -7.5q-55 0 -71.5 7.5t-14.5 29.5l123 1167h-347q-19 0 -24.5 15t-1.5 63t12 63t27 15h872q20 0 25.5 -15t1.5 -63t-12 -63t-27 -15z" />
<glyph unicode="U" horiz-adv-x="1302" d="M616 -20q-230 0 -336 95.5t-106 299.5q0 50 6 108l88 840q3 22 19.5 29.5t70.5 7.5q55 0 72 -7.5t14 -29.5l-86 -831q-6 -56 -6 -101q0 -136 61.5 -194t211.5 -58q172 0 245.5 79.5t94.5 273.5l86 831q3 22 19.5 29.5t70.5 7.5q55 0 72 -7.5t14 -29.5l-88 -840 q-28 -266 -146.5 -384.5t-376.5 -118.5z" />
<glyph unicode="V" horiz-adv-x="1167" d="M1122 1360q56 0 73.5 -7.5t8.5 -29.5q-294 -757 -553 -1290q-9 -22 -29.5 -29.5t-80.5 -7.5t-78.5 7t-24.5 30q-152 567 -282 1290q-3 22 17 29.5t77 7.5q54 0 71.5 -7.5t20.5 -29.5q122 -681 225 -1112q189 418 461 1112q9 23 25.5 30t68.5 7z" />
<glyph unicode="W" horiz-adv-x="1810" d="M1739 1360q56 0 73.5 -7.5t10.5 -29.5q-89 -286 -225 -657t-250 -633q-9 -22 -30 -29.5t-77 -7.5q-55 0 -71 7t-21 30q-83 444 -172 1048q-220 -620 -393 -1048q-8 -22 -26.5 -29.5t-74.5 -7.5t-74 7.5t-24 29.5q-59 271 -118 642.5t-87 647.5q-1 22 17.5 29.5t74.5 7.5 q53 0 69.5 -7.5t18.5 -29.5q53 -500 146 -1087q166 429 399 1087q8 22 26.5 29.5t74.5 7.5t74 -7.5t20 -29.5q79 -553 170 -1090q203 538 375 1090q8 23 25 30t69 7z" />
<glyph unicode="X" horiz-adv-x="1171" d="M762 698l303 -663q6 -13 1.5 -22t-23.5 -13t-56 -4q-60 0 -83 7t-32 28l-258 587h-16l-381 -587q-12 -22 -35 -28.5t-82 -6.5q-77 0 -77 22q0 7 6 17l442 663l-297 623q-8 21 7.5 30t68.5 9q59 0 81 -6.5t31 -28.5l252 -551h17l370 551q12 22 34 28.5t81 6.5q80 0 80 -22 q1 -7 -6 -17z" />
<glyph unicode="Y" horiz-adv-x="1134" d="M981 1323q13 24 28.5 30.5t69.5 6.5q97 0 100 -22q0 -7 -5 -17q-98 -175 -246.5 -417t-261.5 -408l-50 -463q-2 -22 -19 -29.5t-71 -7.5q-55 0 -71.5 7.5t-14.5 29.5l49 463q-76 165 -173.5 406.5t-161.5 418.5q-6 23 11 31t81 8q55 0 70.5 -7t21.5 -30 q127 -386 252 -674q215 340 391 674z" />
<glyph unicode="Z" horiz-adv-x="1118" d="M256 1356h803q21 0 26 -17t0 -67q-6 -55 -24 -78l-780 -1042h665q20 0 26.5 -14.5t0.5 -61.5q-4 -49 -11 -62.5t-26 -13.5h-836q-22 0 -27 16t1 66q6 52 24 76l779 1046h-633q-20 0 -25.5 14t-1.5 62q6 49 13 62.5t26 13.5z" />
<glyph unicode="[" horiz-adv-x="716" d="M119 -340l182 1729q2 19 15 25.5t53 6.5h319q19 0 23.5 -12.5t-0.5 -52.5q-6 -54 -13 -61q-7 -5 -18 -5h-242l-162 -1532h238q18 0 22 -12t1 -53q-5 -43 -10 -54.5t-23 -11.5h-320q-40 0 -53.5 7t-11.5 26z" />
<glyph unicode="\" horiz-adv-x="724" d="M465 -131l-324 1556q-5 23 8 30t64 7q62 0 78.5 -7t21.5 -30l324 -1556q3 -23 -9 -30t-63 -7q-62 0 -79.5 7t-20.5 30z" />
<glyph unicode="]" horiz-adv-x="716" d="M598 1389l-182 -1729q-2 -19 -15 -26t-53 -7h-319q-19 0 -23.5 13t0.5 53q5 44 9 54.5t22 10.5h242l161 1532h-237q-18 0 -22 12.5t-1 53.5q5 42 10 53.5t23 11.5h319q41 0 54.5 -6.5t11.5 -25.5z" />
<glyph unicode="^" d="M657 1368q49 0 64 -4.5t22 -22.5l281 -614q9 -22 -5.5 -30.5t-66.5 -8.5q-53 0 -74 7t-30 28l-205 463l-299 -463q-15 -21 -37.5 -28t-75.5 -7q-78 0 -78 21q0 8 7 18l407 614q13 19 27.5 23t62.5 4z" />
<glyph unicode="_" horiz-adv-x="815" d="M727 -260h-772q-19 0 -23.5 12.5t0.5 52.5q5 43 10 54.5t21 11.5h774q19 0 23.5 -13t1.5 -53q-5 -41 -11 -53t-24 -12z" />
<glyph unicode="`" horiz-adv-x="675" d="M547 1130l-301 158q-21 9 -19.5 23.5t31.5 56.5q29 41 42 48.5t30 -5.5l280 -199q14 -9 13.5 -18.5t-19.5 -36.5q-21 -29 -31 -33t-26 6z" />
<glyph unicode="a" horiz-adv-x="1064" d="M356 731q-2 -21 -18 -28t-66 -7q-53 0 -66.5 6.5t-10.5 30.5q30 283 391 283q210 0 293 -83t65 -249l-70 -655q-1 -21 -16 -27t-65 -6q-51 0 -65 6t-13 27l8 98q-42 -63 -120.5 -103t-190.5 -40q-161 0 -241.5 66.5t-80.5 185.5q0 156 98.5 237.5t274.5 81.5h301l14 129 q10 108 -34 150.5t-162 42.5q-110 0 -164 -35.5t-62 -110.5zM750 428h-289q-95 0 -151 -43.5t-56 -136.5q0 -129 170 -129q133 0 220 62t99 171z" />
<glyph unicode="b" horiz-adv-x="1150" d="M436 1386l-53 -491q109 121 305 121q361 0 361 -393q0 -45 -7 -117q-31 -277 -137 -401.5t-311 -124.5q-214 0 -297 139l-12 -90q-1 -21 -16.5 -27t-65.5 -6q-51 0 -65 6t-13 27l143 1357q2 22 17 28.5t67 6.5q53 0 69 -6.5t15 -28.5zM342 498q-6 -58 -6 -107 q0 -141 55.5 -204.5t183.5 -63.5q145 0 209 85t86 298q9 97 9 117q0 130 -53 189.5t-173 59.5q-149 0 -219.5 -87.5t-91.5 -286.5z" />
<glyph unicode="c" horiz-adv-x="1040" d="M606 872q-151 0 -217 -84.5t-88 -289.5q-8 -86 -8 -119q0 -137 54.5 -196.5t182.5 -59.5q207 0 224 139q2 20 19.5 27.5t68.5 7.5q52 0 63.5 -6.5t9.5 -30.5q-19 -138 -119.5 -209t-269.5 -71q-210 0 -306.5 96.5t-96.5 302.5q0 55 6 119q28 272 139 395t346 123 q170 0 265.5 -72.5t83.5 -202.5q-1 -23 -16.5 -29.5t-69.5 -6.5q-50 0 -65 6.5t-13 27.5q6 66 -45.5 99.5t-147.5 33.5z" />
<glyph unicode="d" horiz-adv-x="1150" d="M788 29l5 77q-106 -126 -310 -126q-182 0 -271 98t-89 295q0 55 6 116q31 277 137.5 402t311.5 125t292 -133l54 503q2 22 18 28.5t68 6.5t68 -6.5t14 -28.5l-144 -1357q-1 -21 -17 -27t-67 -6q-50 0 -63.5 6t-12.5 27zM829 498q7 68 7 106q0 141 -56 204.5t-184 63.5 q-145 0 -209 -85t-86 -298q-8 -86 -8 -116q0 -131 52.5 -190.5t172.5 -59.5q149 0 219.5 88t91.5 287z" />
<glyph unicode="e" horiz-adv-x="1069" d="M920 446h-629q-2 -23 -2 -61q0 -138 59 -200t191 -62q96 0 150 34t63 95q5 21 21 28t65 7q53 0 65.5 -6.5t9.5 -30.5q-17 -130 -115 -200t-266 -70q-211 0 -311 98t-100 301q0 49 6 104q29 280 143 406.5t344 126.5q359 0 359 -350q0 -28 -4 -86l-4 -50q-6 -52 -14.5 -68 t-30.5 -16zM606 872q-135 0 -203 -67.5t-96 -231.5h504l4 45q4 40 4 62q0 94 -47.5 143t-165.5 49z" />
<glyph unicode="f" horiz-adv-x="704" d="M655 856h-223l-86 -825q-2 -22 -17 -28.5t-67 -6.5t-67 6.5t-13 28.5l86 825h-125q-19 0 -23 12.5t1 55.5q5 45 10 56t23 11l131 4l12 119q17 170 93 245t231 75q106 0 174 -33q15 -7 14.5 -22t-18.5 -54q-20 -37 -31 -46.5t-27 -4.5q-50 16 -102 16q-89 0 -125 -40 t-47 -144l-13 -111h222q19 0 23 -13t-1 -56q-5 -44 -11 -57t-24 -13z" />
<glyph unicode="g" horiz-adv-x="1118" d="M231 -104q-16 -146 234 -146q43 0 80 5t73 19t61.5 36t41.5 58t16 83q0 81 -58 124t-165 66q-385 0 -385 355q0 55 4 84q24 222 130.5 330t322.5 108q107 0 194 -33l289 23q21 1 26.5 -13.5t2.5 -58.5q-5 -45 -11.5 -58.5t-27.5 -13.5h-135q49 -85 49 -209q0 -22 -4 -80 q-30 -293 -226 -389q160 -71 160 -227q0 -90 -33.5 -158.5t-94.5 -109t-139 -60.5t-173 -20q-202 0 -304 73t-89 210q3 24 17 30t67 6q50 0 65 -6.5t12 -27.5zM520 279q134 0 202 73.5t83 222.5q4 50 4 68q0 119 -55.5 178.5t-173.5 59.5q-136 0 -200.5 -72t-82.5 -229 q-4 -54 -4 -72q0 -118 53 -173.5t174 -55.5z" />
<glyph unicode="h" horiz-adv-x="1146" d="M436 1386l-55 -514q43 61 125 102.5t203 41.5q148 0 230.5 -74t82.5 -227q0 -20 -4 -66l-66 -618q-2 -22 -18 -28.5t-68 -6.5t-68 6.5t-14 28.5l66 620q12 113 -32.5 165t-149.5 52q-131 0 -217 -71.5t-99 -194.5l-59 -571q-2 -22 -18 -28.5t-68 -6.5t-68 6.5t-14 28.5 l143 1355q2 22 17 28.5t67 6.5q53 0 69 -6.5t15 -28.5z" />
<glyph unicode="i" horiz-adv-x="503" d="M129 31l98 934q1 22 17 28t69 6t68 -6t14 -28l-98 -934q-2 -22 -18 -28.5t-68 -6.5t-68 6.5t-14 28.5zM352 1378q63 0 79 -8.5t13 -42.5l-14 -131q-3 -32 -20.5 -41.5t-77.5 -9.5t-76.5 10t-13.5 41l14 131q3 34 18.5 42.5t77.5 8.5z" />
<glyph unicode="j" horiz-adv-x="520" d="M-72 -233q4 0 22.5 -2.5t29.5 -2.5q53 0 82.5 17t49 67t29.5 146l103 973q1 22 17 28t69 6t68 -6t14 -28l-103 -981q-12 -110 -36.5 -182.5t-64.5 -112t-88.5 -55t-117.5 -15.5q-68 0 -92 6q-17 4 -20.5 16.5t1.5 55.5t11.5 56.5t25.5 13.5zM369 1378q63 0 79 -8.5 t13 -42.5l-15 -131q-3 -32 -20.5 -41.5t-77.5 -9.5t-76.5 10t-13.5 41l14 131q3 34 19 42.5t78 8.5z" />
<glyph unicode="k" horiz-adv-x="999" d="M436 1386l-82 -774h99l338 346q24 26 46 33.5t83 7.5q90 0 85 -27q-2 -8 -10 -16l-407 -413l321 -504q5 -8 7 -14t-1 -12t-11.5 -9.5t-25.5 -5.5t-42 -2q-61 0 -79.5 7t-37.5 34l-277 436h-102l-47 -442q-2 -22 -18 -28.5t-68 -6.5t-68 6.5t-14 28.5l143 1355 q2 22 17 28.5t67 6.5q53 0 69 -6.5t15 -28.5z" />
<glyph unicode="l" horiz-adv-x="528" d="M385 147h27q19 0 23.5 -14t0.5 -59q-5 -47 -11 -60.5t-24 -13.5h-45q-125 0 -173 45.5t-36 159.5l125 1181q2 22 17 28.5t67 6.5q53 0 69 -6.5t15 -28.5l-123 -1165q-4 -42 11 -58t57 -16z" />
<glyph unicode="m" horiz-adv-x="1732" d="M977 606l-62 -575q-2 -22 -18 -28.5t-68 -6.5t-67.5 6.5t-13.5 28.5l65 624q12 114 -25 163.5t-133 49.5q-111 0 -200 -72t-101 -190l-61 -575q-2 -22 -18 -28.5t-68 -6.5t-68 6.5t-14 28.5l98 936q3 21 18 26.5t66 5.5t65 -5.5t11 -26.5l-6 -105q41 63 128.5 108.5 t190.5 45.5q219 0 271 -185q57 85 150 135t198 50q293 0 293 -293q0 -20 -4 -70l-66 -622q-2 -22 -18 -28.5t-68 -6.5t-68 6.5t-14 28.5l66 624q12 114 -25 163.5t-133 49.5q-111 0 -200 -72t-101 -190z" />
<glyph unicode="n" horiz-adv-x="1146" d="M383 967l-6 -105q44 67 126.5 110.5t205.5 43.5q148 0 230.5 -73.5t82.5 -225.5q0 -18 -4 -64l-66 -622q-2 -22 -18 -28.5t-68 -6.5t-68 6.5t-14 28.5l66 624q12 113 -32 163t-150 50q-132 0 -217 -70t-97 -192l-61 -575q-2 -22 -18 -28.5t-68 -6.5t-68 6.5t-14 28.5 l98 936q3 21 17.5 26.5t64.5 5.5q51 0 66 -5.5t12 -26.5z" />
<glyph unicode="o" d="M614 1016q209 0 303.5 -95.5t94.5 -299.5q0 -59 -6 -123q-28 -272 -139.5 -395t-346.5 -123q-209 0 -303 95.5t-94 299.5q0 59 6 123q28 272 139 395t346 123zM528 123q151 0 217.5 85t88.5 290q8 90 8 120q0 136 -54.5 195t-181.5 59q-151 0 -217 -84.5t-88 -289.5 q-8 -90 -8 -121q0 -136 54 -195t181 -59z" />
<glyph unicode="p" horiz-adv-x="1150" d="M383 967l-6 -80q108 129 311 129q361 0 361 -393q0 -45 -7 -117q-31 -277 -137 -401.5t-311 -124.5q-210 0 -293 131l-47 -449q-2 -22 -18 -28.5t-68 -6.5t-68 6.5t-14 28.5l137 1305q3 21 17.5 26.5t64.5 5.5q51 0 66 -5.5t12 -26.5zM342 498q-6 -58 -6 -107 q0 -141 55.5 -204.5t183.5 -63.5q145 0 209 85t86 298q9 97 9 117q0 130 -53 189.5t-173 59.5q-149 0 -219.5 -87.5t-91.5 -286.5z" />
<glyph unicode="q" horiz-adv-x="1150" d="M823 -373q-52 0 -68 6.5t-14 28.5l45 438q-106 -120 -303 -120q-182 0 -271 98t-89 295q0 55 6 116q31 277 137.5 402t311.5 125q212 0 296 -139l13 90q3 21 17.5 26.5t64.5 5.5q51 0 66 -5.5t12 -26.5l-138 -1305q-2 -22 -18 -28.5t-68 -6.5zM829 498q7 68 7 106 q0 141 -56 204.5t-184 63.5q-145 0 -209 -85t-86 -298q-8 -86 -8 -116q0 -131 52.5 -190.5t172.5 -59.5q149 0 219.5 88t91.5 287z" />
<glyph unicode="r" horiz-adv-x="749" d="M715 844q-155 0 -253.5 -73.5t-111.5 -201.5l-57 -538q-2 -22 -18 -28.5t-68 -6.5t-68 6.5t-14 28.5l98 936q3 21 17.5 26.5t64.5 5.5q51 0 66 -5.5t12 -26.5l-10 -142q51 80 141.5 133.5t212.5 53.5q22 0 28.5 -16.5t0.5 -67.5q-5 -53 -12 -68.5t-29 -15.5z" />
<glyph unicode="s" horiz-adv-x="1011" d="M252 252q2 -70 52 -102.5t177 -32.5q234 0 234 168q0 63 -53.5 95t-167.5 54q-80 15 -137.5 35t-104.5 51.5t-70.5 78t-23.5 108.5q0 309 385 309q188 0 278.5 -65t75.5 -203q-3 -21 -19.5 -28t-66.5 -7q-53 0 -65.5 6.5t-10.5 30.5q2 67 -41.5 98t-154.5 31 q-217 0 -217 -156q0 -24 6 -42.5t23.5 -33.5t33 -24.5t49 -20t56.5 -16.5t71 -17q64 -15 105 -27.5t85.5 -34t69 -48t40.5 -67.5t16 -95q0 -317 -402 -317q-211 0 -304.5 72.5t-80.5 197.5q3 24 17 30.5t67 6.5q49 0 63.5 -7t14.5 -28z" />
<glyph unicode="t" horiz-adv-x="749" d="M668 856h-244l-59 -573q-9 -91 12.5 -122.5t85.5 -31.5q57 0 106 21q17 7 27 -6.5t16 -47.5q10 -40 8 -54t-18 -22q-66 -32 -156 -32q-129 0 -189 50.5t-60 172.5q0 39 2 59l61 586h-121q-19 0 -23 12.5t1 55.5q5 45 10 56t23 11l126 4l25 238q2 22 17 28.5t67 6.5 t67 -6.5t13 -28.5l-27 -238h242q19 0 23 -13t-1 -56q-5 -45 -10.5 -57.5t-23.5 -12.5z" />
<glyph unicode="u" horiz-adv-x="1130" d="M768 29l6 104q-29 -45 -62.5 -75.5t-95 -54t-141.5 -23.5q-161 0 -247.5 75.5t-86.5 225.5q0 19 4 59l66 625q1 22 17 28t69 6t68 -6t14 -28l-64 -613q-12 -117 34 -173t165 -56q121 0 196 73.5t89 196.5l59 572q1 22 17 28t69 6t68 -6t14 -28l-98 -936q-1 -21 -16.5 -27 t-65.5 -6q-51 0 -65 6t-13 27z" />
<glyph unicode="v" horiz-adv-x="991" d="M913 999q55 0 69.5 -8.5t6.5 -32.5q-77 -199 -197 -463.5t-225 -469.5q-9 -18 -32.5 -23.5t-81.5 -5.5t-79.5 5.5t-27.5 23.5q-61 195 -124.5 459.5t-100.5 473.5q-5 24 11.5 32.5t72.5 8.5q53 0 71 -8.5t21 -29.5q75 -485 168 -824q198 406 354 824q6 22 23.5 30t70.5 8 z" />
<glyph unicode="w" horiz-adv-x="1511" d="M1407 999q54 0 69 -6.5t13 -25.5q-4 -25 -12 -43q-185 -523 -353 -899q-7 -18 -28.5 -23.5t-73.5 -5.5q-49 0 -62 5t-18 24q-64 284 -147 755q-164 -436 -303 -755q-7 -19 -23 -24t-66 -5q-51 0 -70.5 5.5t-23.5 23.5q-77 322 -164 899q-5 36 -4 43q2 19 17 25.5t69 6.5 q53 0 69.5 -9.5t18.5 -35.5q29 -315 107 -751q179 444 297 758q6 21 26.5 29.5t73.5 8.5t69 -8t19 -30q42 -275 137 -756q64 163 141 383t122 366q8 26 27.5 35.5t72.5 9.5z" />
<glyph unicode="x" horiz-adv-x="974" d="M680 37l-182 403h-21l-270 -403q-13 -20 -22 -27t-27.5 -10.5t-59.5 -3.5q-77 0 -76 26q1 7 7 17l331 473l-225 444q-7 14 -1 23.5t26.5 14.5t54.5 5q40 0 58.5 -4t24.5 -10.5t17 -26.5l179 -378h18l264 378q18 26 36 33.5t75 7.5q100 0 71 -43l-319 -444l229 -473 q7 -14 0.5 -23.5t-27 -14.5t-55.5 -5q-58 0 -75 7t-31 34z" />
<glyph unicode="y" horiz-adv-x="1019" d="M154 -238q49 0 79 7t59.5 34t52.5 62.5t65 109.5l12 23q-47 3 -55 27q-64 193 -132.5 457t-111.5 476q-5 24 11 32.5t71 8.5q53 0 71 -8.5t21 -29.5q76 -435 192 -836q100 196 199.5 429t161.5 407q6 22 23 30t67 8q53 0 68.5 -9t9.5 -34q-61 -185 -193 -472.5 t-266 -526.5q-31 -56 -47.5 -85t-42 -70t-41.5 -60t-40 -44.5t-45 -36.5t-49.5 -22.5t-59.5 -15.5t-70 -4q-73 0 -105 8q-17 4 -20 16.5t2 55.5t11.5 56.5t25.5 13.5l24 -3q23 -4 52 -4z" />
<glyph unicode="z" horiz-adv-x="987" d="M903 877l-618 -742h532q19 0 24 -12.5t1 -54.5q-5 -45 -10 -56.5t-23 -11.5h-711q-17 0 -21.5 12t-0.5 47q3 39 14 56l623 745h-506q-19 0 -24 13t-1 55q5 43 11 55t24 12h682q17 0 21.5 -13t-0.5 -48q-3 -40 -17 -57z" />
<glyph unicode="{" horiz-adv-x="716" d="M70 524q5 45 10.5 57.5t23.5 12.5h50q40 0 60 18.5t37 84t32 204.5q6 63 11 103.5t13.5 92t18 84t24 70.5t32.5 60.5t43 46t56.5 36t71.5 20t88 7.5h72q19 0 23 -12.5t-1 -52.5q-6 -53 -12 -60q-5 -6 -18 -6h-68q-44 0 -74.5 -15t-51.5 -42t-35.5 -79.5t-24 -111 t-19.5 -153.5q-13 -123 -35.5 -200t-50.5 -112t-70 -53q44 -20 66.5 -69t22.5 -148q0 -61 -9 -147q-16 -144 -16 -223q0 -97 28.5 -138t102.5 -41h68q18 0 21.5 -12t0.5 -53q-5 -43 -10 -54.5t-23 -11.5h-71q-153 0 -212 71.5t-59 219.5q0 46 17 229q14 150 14 193 q0 71 -17 93t-57 22h-49q-19 0 -23.5 13.5t-0.5 55.5z" />
<glyph unicode="|" horiz-adv-x="659" d="M414 1386v-1765q0 -22 -16 -28.5t-68 -6.5t-68 6.5t-16 28.5v1765q0 22 16 28.5t68 6.5t68 -6.5t16 -28.5z" />
<glyph unicode="}" horiz-adv-x="716" d="M647 524q-5 -44 -11 -56.5t-24 -12.5h-49q-39 0 -59.5 -19t-37.5 -84.5t-32 -204.5q-6 -63 -11 -103.5t-13.5 -92t-18 -84t-24 -70.5t-32.5 -60.5t-43 -46t-56.5 -36t-71.5 -20t-88 -7.5h-72q-18 0 -22.5 13t0.5 53q6 53 12 59q5 6 18 6h68q44 0 74.5 15t51.5 42 t35.5 79.5t24 111.5t19.5 154q13 124 35.5 200t50 111t69.5 53q-44 20 -66 69t-22 148q0 72 8 148q17 153 17 223q0 97 -28.5 137.5t-102.5 40.5h-68q-18 0 -21.5 12t-0.5 54q5 43 9.5 54t22.5 11h72q153 0 211.5 -71.5t58.5 -219.5q0 -57 -16 -229q-14 -151 -14 -192 q0 -71 16.5 -93t56.5 -22h50q19 0 23.5 -14t0.5 -56z" />
<glyph unicode="~" d="M518 684l168 -98q42 -25 74 -25q36 0 70 28.5t57 78.5q3 8 11.5 11t33.5 3q36 0 49.5 -10t7.5 -29q-39 -112 -104.5 -162.5t-134.5 -50.5q-71 0 -119 27l-168 98q-42 25 -76 25q-36 0 -68.5 -28.5t-54.5 -78.5q-8 -14 -47 -14q-36 0 -48.5 10t-6.5 29q38 112 103 162.5 t134 50.5q67 0 119 -27z" />
<glyph unicode="&#xa1;" horiz-adv-x="581" d="M311 612q45 0 57 -6.5t9 -25.5l-62 -902q-2 -25 -23 -34t-79 -9q-59 0 -80.5 9.5t-17.5 33.5l127 902q3 20 14.5 26t54.5 6zM330 762q-66 0 -88 10t-19 41l15 135q3 34 23 42.5t89 8.5q70 0 91 -8.5t18 -42.5l-15 -135q-3 -32 -25.5 -41.5t-88.5 -9.5z" />
<glyph unicode="&#xa2;" horiz-adv-x="1064" d="M528 -4q-50 0 -63.5 7t-11.5 28l14 137q-164 20 -243 118.5t-79 282.5q0 45 7 113q27 250 125.5 373.5t297.5 140.5l15 137q2 21 16 28t64 7t63.5 -7t11.5 -28l-16 -139q136 -17 208.5 -86t63.5 -176q-2 -24 -16 -30.5t-67 -6.5q-49 0 -63.5 7t-14.5 28q2 46 -33.5 79.5 t-101.5 43.5l-78 -742q73 9 115.5 42t50.5 85q3 21 19.5 28t66.5 7q52 0 64.5 -6.5t10.5 -30.5q-15 -119 -100 -188.5t-231 -81.5l-15 -135q-2 -21 -16 -28t-64 -7zM317 573q0 -122 42 -184.5t135 -77.5l75 740q-114 -18 -170 -105t-75 -264q-7 -68 -7 -109z" />
<glyph unicode="&#xa3;" horiz-adv-x="1216" d="M203 -2q-21 -11 -32.5 -1t-33.5 56q-23 45 -23.5 63.5t19.5 28.5q93 56 156 147.5t63 199.5q0 56 -22 131h-154q-19 0 -22.5 11.5t0.5 55.5q5 46 9.5 57t22.5 11h99q-27 102 -27 186q0 209 118.5 320.5t346.5 111.5q221 0 319.5 -94t79.5 -276q-2 -22 -18.5 -29.5 t-69.5 -7.5t-69.5 7.5t-14.5 29.5q11 112 -42.5 165.5t-188.5 53.5q-283 0 -283 -277q0 -80 31 -190h321q19 0 24 -12.5t1 -55.5q-5 -44 -10.5 -55.5t-24.5 -11.5h-270q18 -77 18 -138q0 -141 -86 -274q109 -66 287 -66q106 0 154 49.5t63 182.5q2 22 18.5 29.5t69.5 7.5 t69.5 -7.5t14.5 -29.5q-23 -209 -112.5 -296t-270.5 -87q-113 0 -217 30t-170 76q-66 -60 -143 -102z" />
<glyph unicode="&#xa4;" horiz-adv-x="1155" d="M123 342l90 92q-41 93 -41 244t41 244l-90 92q-12 13 -6.5 27t37.5 46t45.5 37.5t25.5 -6.5l80 -78q98 76 273 76q170 0 272 -76l80 78q12 12 25.5 6.5t45.5 -37.5t37.5 -46t-6.5 -27l-92 -92q43 -98 43 -244t-43 -244l92 -92q13 -13 7 -27.5t-38 -46.5t-46 -37.5 t-25 7.5l-80 77q-97 -75 -272 -75q-180 0 -273 75l-80 -77q-11 -13 -25 -7.5t-46 37.5t-38 46.5t7 27.5zM578 375q137 0 191 67.5t54 235.5t-54 235.5t-191 67.5t-191.5 -67.5t-54.5 -235.5t54.5 -235.5t191.5 -67.5z" />
<glyph unicode="&#xa5;" horiz-adv-x="1150" d="M993 397h-329l-39 -364q-2 -22 -19 -29.5t-71 -7.5q-55 0 -71.5 7.5t-14.5 29.5l38 364h-325q-19 0 -24 12.5t-1 55.5q5 44 10.5 55.5t24.5 11.5h309q-12 26 -34 81t-29 71h-225q-19 0 -24 12.5t-1 55.5q5 44 10.5 55.5t24.5 11.5h159q-107 256 -192 502q-6 22 13.5 30.5 t84.5 8.5q55 0 71.5 -7t22.5 -30q79 -260 240 -666q245 400 379 666q13 24 28.5 30.5t69.5 6.5q97 0 100 -22q0 -7 -5 -17q-108 -201 -295 -502h155q19 0 23 -11.5t0 -55.5q-5 -46 -10 -57t-23 -11h-231q-40 -66 -95 -152h306q19 0 22.5 -11.5t-0.5 -55.5q-5 -46 -10 -57 t-23 -11z" />
<glyph unicode="&#xa6;" horiz-adv-x="659" d="M410 303v-684q0 -20 -15 -26.5t-65 -6.5t-65 6.5t-15 26.5v684q0 20 15 26.5t65 6.5t65 -6.5t15 -26.5zM410 1389v-684q0 -20 -15 -26.5t-65 -6.5t-65 6.5t-15 26.5v684q0 20 14.5 26t65.5 6t65.5 -6t14.5 -26z" />
<glyph unicode="&#xa7;" horiz-adv-x="1155" d="M252 -88q3 -75 59 -115.5t185 -40.5q46 0 82 5t70.5 19t57.5 37t36.5 61t13.5 89q0 80 -47.5 116t-169.5 60q-52 10 -85 17.5t-79 21.5t-74.5 29t-61 39t-50.5 53t-30 70t-12 90q0 263 222 348q-113 87 -113 236q0 87 30.5 151.5t86.5 102.5t130.5 56.5t168.5 18.5 q195 0 290 -71.5t80 -217.5q-2 -21 -18 -27.5t-66 -6.5q-52 0 -64.5 6.5t-12.5 30.5q2 75 -45.5 112t-169.5 37q-45 0 -86 -9t-79 -29t-60.5 -57.5t-22.5 -88.5q0 -72 54 -117.5t181 -77.5q144 -36 174 -46q132 -46 174 -139q25 -54 25 -128q0 -144 -55 -228t-162 -124 q109 -82 109 -228q0 -183 -110 -265.5t-319 -82.5q-212 0 -312.5 79.5t-86.5 211.5q2 24 16.5 30.5t67.5 6.5q49 0 62.5 -7t15.5 -28zM586 723q-18 2 -49 10q-103 -12 -165.5 -78.5t-62.5 -177.5q0 -21 4 -39.5t9.5 -32.5t18.5 -27t22.5 -21.5t30 -17.5t33 -14t40 -12 t42 -10.5t48 -10.5t49.5 -11l25 -7q115 9 173 71.5t58 197.5q0 22 -4 40t-8.5 31.5t-16.5 25.5t-20.5 20t-27.5 16t-30.5 12t-37 10t-39.5 8.5t-45 8t-47 8.5z" />
<glyph unicode="&#xa8;" horiz-adv-x="675" d="M262 1362q62 0 77.5 -8.5t12.5 -42.5l-12 -119q-3 -32 -20 -41.5t-76 -9.5t-75 10t-13 41l12 119q3 34 18 42.5t76 8.5zM610 1362q62 0 77.5 -8.5t12.5 -42.5l-12 -119q-3 -32 -20 -41.5t-76 -9.5t-75 10t-13 41l12 119q3 34 18 42.5t76 8.5z" />
<glyph unicode="&#xa9;" horiz-adv-x="1593" d="M489 678q0 229 70.5 323.5t249.5 94.5q272 0 272 -232q0 -17 -11 -22.5t-48 -5.5t-48 5.5t-11 22.5q-2 66 -38.5 96.5t-115.5 30.5q-77 0 -117.5 -25.5t-60 -92.5t-19.5 -195t19.5 -195t60 -92.5t117.5 -25.5q84 0 119 31.5t37 103.5q0 16 12 22t47 6q34 0 46.5 -6.5 t12.5 -21.5q0 -122 -65.5 -181t-208.5 -59q-179 0 -249.5 94.5t-70.5 323.5zM797 1372q175 0 295 -40t194 -127t106.5 -215t32.5 -312t-32.5 -312t-106.5 -215t-194 -127t-295 -40t-295 40t-194.5 127t-107 215t-32.5 312t32.5 312t107 215t194.5 127t295 40zM797 94 q148 0 245.5 31t157 103.5t83.5 179.5t24 270t-24 270t-83.5 179.5t-157 103.5t-245.5 31t-245.5 -31t-157 -103.5t-83.5 -179.5t-24 -270t24 -270t83.5 -179.5t157 -103.5t245.5 -31z" />
<glyph unicode="&#xaa;" horiz-adv-x="724" d="M535 1001h-173q-104 0 -104 -102q0 -37 22 -50t68 -13q72 0 123 28.5t57 85.5zM322 1190q-2 -15 -15 -20t-51 -5q-42 0 -50.5 4.5t-6.5 22.5q18 176 250 176q134 0 187 -53t42 -158l-41 -383q-1 -23 -11 -28t-51 -5q-40 0 -51 5.5t-10 27.5l6 55q-37 -46 -80.5 -71 t-113.5 -25q-94 0 -143.5 42.5t-49.5 117.5q0 99 63 148t173 49h174l8 69q6 58 -18 80.5t-87 22.5t-92 -17.5t-32 -54.5z" />
<glyph unicode="&#xab;" horiz-adv-x="978" d="M139 553q3 33 23 55l217 250q10 13 27 18t69 5q62 0 60 -20q-1 -5 -7 -13l-256 -295l195 -295q6 -10 4 -17.5t-17 -11.5t-44 -4q-52 0 -70.5 5t-26.5 18l-163 250q-14 22 -11 55zM483 553q3 33 23 55l217 250q10 13 27 18t69 5q62 0 60 -20q-1 -5 -7 -13l-256 -295 l195 -295q6 -10 4 -17.5t-17 -11.5t-44 -4q-52 0 -70.5 5t-26.5 18l-163 250q-14 22 -11 55z" />
<glyph unicode="&#xad;" horiz-adv-x="819" d="M184 623h492q19 0 23.5 -13t0.5 -57q-5 -46 -10.5 -58t-23.5 -12h-492q-19 0 -23 13t1 57q5 47 9.5 58.5t22.5 11.5z" />
<glyph unicode="&#xae;" horiz-adv-x="1093" d="M547 1372q232 0 330 -107t98 -343t-98 -343.5t-330 -107.5t-330 107.5t-98 343.5t98 343t330 107zM547 549q197 0 269.5 83.5t72.5 289.5t-72.5 289t-269.5 83t-269.5 -83t-72.5 -289t72.5 -289.5t269.5 -83.5zM535 866h-62v-188q0 -10 -9.5 -13t-37.5 -3q-26 0 -34.5 3 t-8.5 13v485q0 11 7 15t28 4h139q103 0 151 -37.5t48 -120.5q0 -105 -99 -141q47 -23 74 -90q19 -49 33 -113q1 -5 0.5 -9t-10.5 -6.5t-31 -2.5q-26 0 -34.5 3.5t-10.5 12.5q-14 61 -23 90q-34 92 -116 98h-4zM473 1110v-174h82q64 0 87.5 17.5t23.5 70.5q0 54 -22.5 70 t-88.5 16h-82z" />
<glyph unicode="&#xaf;" horiz-adv-x="675" d="M680 1153h-520q-19 0 -24 11.5t-1 49.5q3 38 9 50t24 12h520q18 0 23 -12.5t2 -49.5q-5 -40 -10 -50.5t-23 -10.5z" />
<glyph unicode="&#xb0;" horiz-adv-x="749" d="M469 1372q229 0 229 -190q0 -129 -64 -203t-198 -74q-229 0 -229 193q0 127 64.5 200.5t197.5 73.5zM438 1008q73 0 112.5 40.5t39.5 120.5q0 54 -28 77.5t-95 23.5q-152 0 -152 -164q0 -53 28 -75.5t95 -22.5z" />
<glyph unicode="&#xb1;" d="M702 1071l-32 -303h305q19 0 23 -14t-1 -58q-5 -47 -9.5 -59t-22.5 -12h-310l-30 -303q-2 -19 -16.5 -25t-61.5 -6t-61.5 6t-12.5 25l31 303h-301q-19 0 -24 14t-1 57q5 46 11 59t24 13h305l33 303q3 19 17.5 25t60.5 6q47 0 61.5 -6t11.5 -25zM143 135h766 q18 0 22.5 -12.5t0.5 -54.5q-5 -45 -9.5 -56.5t-21.5 -11.5h-766q-18 0 -22 13t0 55q3 26 4 35.5t4.5 19t8 11t13.5 1.5z" />
<glyph unicode="&#xb2;" horiz-adv-x="696" d="M608 664h-471q-13 0 -17 10t-1 41l2 18q7 70 50.5 119t137.5 104q19 11 60.5 31t67 34.5t54.5 38t43.5 54.5t14.5 70q0 88 -109 88q-132 0 -143 -105q-1 -15 -11.5 -18.5t-49.5 -3.5q-41 0 -52 4t-8 20q12 107 77.5 155t188.5 48q119 0 176.5 -46.5t57.5 -131.5 q0 -26 -5.5 -50.5t-11 -43.5t-21.5 -39.5t-25 -33t-34 -31t-34.5 -26.5t-41.5 -26t-41 -22.5t-45 -23.5q-27 -14 -40 -21q-5 -3 -24.5 -13.5t-25 -14t-20.5 -13t-21 -15.5t-15 -15.5t-13.5 -19t-7.5 -20.5h364q13 0 16.5 -10t0.5 -41q-3 -33 -7 -42t-16 -9z" />
<glyph unicode="&#xb3;" horiz-adv-x="696" d="M401 975h-51q-13 0 -17 10t-1 39q3 31 7.5 40t16.5 9h54q129 0 129 123q0 42 -27 59t-86 17q-65 0 -96 -20.5t-37 -61.5q-3 -15 -14 -20t-50 -5q-40 0 -51 4.5t-8 22.5q21 180 258 180q117 0 177.5 -46t60.5 -126q0 -120 -105 -168q88 -28 88 -141q0 -106 -73.5 -173 t-194.5 -67q-131 0 -198 47.5t-60 137.5q3 18 13 22t50 4q41 0 50.5 -4.5t9.5 -21.5q0 -41 30.5 -62.5t104.5 -21.5q65 0 103 37t38 104q0 48 -27.5 65t-93.5 17z" />
<glyph unicode="&#xb4;" horiz-adv-x="675" d="M618 1288l-333 -158q-20 -10 -31 -5t-25 34q-14 28 -13.5 38t17.5 20l322 198q20 13 33 4.5t33 -49.5q21 -43 19.5 -57t-22.5 -25z" />
<glyph unicode="&#xb6;" horiz-adv-x="1052" d="M1071 1253h-104q-64 0 -91 -22t-34 -88l-121 -1159q-12 -109 -41 -182.5t-74 -112.5t-97 -54.5t-122 -15.5q-68 0 -92 6q-17 5 -20 15t1 53q5 43 10.5 54t24.5 11q3 0 30 -2t40 -2q86 0 126 48t54 190l53 495h-47q-116 0 -186.5 11.5t-117.5 43.5t-65 85.5t-18 140.5 q0 64 13 174q10 100 22.5 165.5t36 120t54 84.5t82 50.5t114.5 27.5t157 7h422q19 0 24 -14t1 -58q-6 -47 -11.5 -59.5t-23.5 -12.5z" />
<glyph unicode="&#xb7;" horiz-adv-x="499" d="M254 434q-66 0 -88 10t-19 41l15 136q3 34 23 42.5t89 8.5q70 0 91 -8.5t18 -42.5l-14 -136q-3 -32 -26 -41.5t-89 -9.5z" />
<glyph unicode="&#xb8;" horiz-adv-x="675" d="M334 -104h31q92 0 137 -30t45 -104q0 -98 -53 -139t-160 -41h-195q-18 0 -22 9.5t0 41.5q3 34 7.5 43t20.5 9h187q20 0 33 1.5t29 8t24 21.5t8 38q0 30 -17 37.5t-61 7.5h-106q-32 0 -42 6.5t-3 24.5l75 176q7 17 50 17q32 0 44 -7t5 -26z" />
<glyph unicode="&#xb9;" horiz-adv-x="696" d="M592 664h-410q-13 0 -17 10t-1 41q3 32 7.5 41.5t16.5 9.5h148l49 475l-147 -33q-11 -2 -15.5 9.5t-1.5 39.5q5 52 23 56l254 61q11 4 19 0t7 -16l-61 -592h135q12 0 15.5 -9.5t0.5 -41.5q-3 -33 -6.5 -42t-15.5 -9z" />
<glyph unicode="&#xba;" horiz-adv-x="774" d="M301 1051q-4 -46 -4 -64q0 -78 31 -110.5t106 -32.5q88 0 125.5 46t48.5 161q4 50 4 67q0 75 -31 107t-104 32q-88 0 -126 -45.5t-50 -160.5zM170 1051q18 165 88.5 241t222.5 76q136 0 199 -61t63 -187q0 -19 -4 -69q-18 -166 -87.5 -242t-221.5 -76q-137 0 -200.5 61 t-63.5 187q0 20 4 70z" />
<glyph unicode="&#xbb;" horiz-adv-x="978" d="M496 553q-3 -33 -23 -55l-217 -250q-10 -13 -27 -18t-69 -5q-63 0 -61 20q1 6 7 13l256 295l-194 295q-6 10 -4 17.5t17 11.5t44 4q52 0 70.5 -5t26.5 -18l163 -250q14 -22 11 -55zM840 553q-3 -33 -23 -55l-217 -250q-10 -13 -27 -18t-69 -5q-62 0 -60 20q1 5 7 13 l256 295l-195 295q-6 10 -4 17.5t17 11.5t44 4q52 0 70.5 -5t26.5 -18l163 -250q14 -22 11 -55z" />
<glyph unicode="&#xbc;" horiz-adv-x="1683" d="M1407 -2q-40 0 -51.5 6.5t-9.5 26.5l14 143h-334q-15 0 -19 8.5t-1 38.5q3 40 20 60l344 409q11 15 27 20t61 5q51 0 68 -5t16 -24l-45 -414h88q13 0 17.5 -9.5t1.5 -39.5q-3 -31 -8 -40t-17 -9h-92l-14 -143q-2 -21 -13.5 -27t-52.5 -6zM1409 1327l-813 -1302 q-10 -19 -26.5 -24t-63.5 -5q-36 0 -45.5 9t0.5 24l813 1302q11 19 26 24t62 5q27 0 39.5 -4t13 -11.5t-5.5 -17.5zM592 664h-410q-13 0 -17 10t-1 41q3 32 7.5 41.5t16.5 9.5h148l49 475l-147 -33q-11 -2 -15.5 9.5t-1.5 39.5q5 52 23 56l254 61q11 4 19 0t7 -16l-61 -592 h135q12 0 15.5 -9.5t0.5 -41.5q-3 -33 -6.5 -42t-15.5 -9zM1145 272h231l33 314z" />
<glyph unicode="&#xbd;" horiz-adv-x="1683" d="M1346 1327l-814 -1302q-10 -19 -26.5 -24t-63.5 -5q-36 0 -45.5 9t0.5 24l813 1302q11 19 26 24t62 5q20 0 32.5 -2.5t17 -7t4 -10t-5.5 -13.5zM1524 0h-471q-13 0 -17.5 10t-1.5 41l2 19q7 70 50.5 119t138.5 104q19 11 60.5 30.5t66.5 34.5t54 38t43.5 54t14.5 70 q0 44 -25.5 66t-82.5 22q-67 0 -102.5 -24.5t-41.5 -79.5q-1 -15 -12 -19t-49 -4q-40 0 -51 4t-8 21q12 107 77.5 155t188.5 48q119 0 176 -47t57 -132q0 -26 -5.5 -50.5t-11 -43.5t-21.5 -39.5t-25 -33t-34 -31t-34.5 -26.5t-41.5 -26t-41 -22.5t-45 -23.5q-27 -14 -40 -21 q-5 -3 -24.5 -13.5t-25 -14t-20.5 -13t-21 -15.5t-15 -15.5t-13.5 -19t-7.5 -20.5h365q12 0 15.5 -9.5t0.5 -41.5q-3 -33 -6.5 -42t-15.5 -9zM592 664h-410q-13 0 -17 10t-1 41q3 32 7.5 41.5t16.5 9.5h148l49 475l-147 -33q-11 -2 -15.5 9.5t-1.5 39.5q5 52 23 56l254 61 q11 4 19 0t7 -16l-61 -592h135q12 0 15.5 -9.5t0.5 -41.5q-3 -33 -6.5 -42t-15.5 -9z" />
<glyph unicode="&#xbe;" horiz-adv-x="1683" d="M1407 -2q-40 0 -51.5 6.5t-9.5 26.5l14 143h-334q-15 0 -19 8.5t-1 38.5q3 40 20 60l344 409q11 15 27 20t61 5q51 0 68 -5t16 -24l-45 -414h88q13 0 17.5 -9.5t1.5 -39.5q-3 -31 -8 -40t-17 -9h-92l-14 -143q-2 -21 -13.5 -27t-52.5 -6zM1370 1327l-813 -1302 q-10 -19 -26.5 -24t-63.5 -5q-36 0 -45.5 9t0.5 24l813 1302q11 19 26 24t62 5q27 0 39.5 -4t13 -11.5t-5.5 -17.5zM401 975h-51q-13 0 -17 10t-1 39q3 31 7.5 40t16.5 9h54q129 0 129 123q0 42 -27 59t-86 17q-65 0 -96 -20.5t-37 -61.5q-3 -15 -14 -20t-50 -5 q-40 0 -51 4.5t-8 22.5q21 180 258 180q117 0 177.5 -46t60.5 -126q0 -120 -105 -168q88 -28 88 -141q0 -106 -73.5 -173t-194.5 -67q-131 0 -198 47.5t-60 137.5q3 18 13 22t50 4q41 0 50.5 -4.5t9.5 -21.5q0 -41 30.5 -62.5t104.5 -21.5q65 0 103 37t38 104q0 48 -27.5 65 t-93.5 17zM1145 272h231l33 314z" />
<glyph unicode="&#xbf;" horiz-adv-x="1105" d="M526 528l9 52q3 20 16 26t59 6q45 0 56.5 -6t11.5 -26v-52q-2 -57 -25.5 -105.5t-60.5 -84t-81 -68.5l-88 -66t-80 -69.5t-58.5 -86.5t-22.5 -109q0 -86 53 -129t177 -43q148 0 217.5 53t83.5 174q3 23 18 31t68 8q50 0 66 -8t13 -29q-21 -197 -138.5 -287t-334.5 -90 q-205 0 -302 87t-97 233q0 74 22 133t57.5 99t79 73t89 62.5t84.5 59t69 71t39 91.5zM625 762q-66 0 -88 10t-19 41l14 135q3 34 23.5 42.5t89.5 8.5q70 0 91 -8.5t18 -42.5l-15 -135q-3 -32 -25.5 -41.5t-88.5 -9.5z" />
<glyph unicode="&#xc0;" horiz-adv-x="1175" d="M991 -4q-52 0 -67.5 7t-20.5 30q-39 232 -63 350h-492q-63 -155 -135 -350q-8 -22 -26.5 -29.5t-71.5 -7.5q-56 0 -72.5 7.5t-9.5 29.5q104 285 257 640.5t296 649.5q11 23 31 30t79 7q60 0 79 -7.5t24 -29.5q81 -288 159 -644t123 -646q4 -22 -15 -29.5t-75 -7.5z M674 1147q-128 -280 -266 -617h403q-68 338 -137 617zM684 1466l-317 166q-20 9 -18 24t30 56q29 40 43 48t31 -5l295 -207q14 -10 13.5 -19t-20.5 -36q-21 -29 -31 -33t-26 6z" />
<glyph unicode="&#xc1;" horiz-adv-x="1175" d="M991 -4q-52 0 -67.5 7t-20.5 30q-39 232 -63 350h-492q-63 -155 -135 -350q-8 -22 -26.5 -29.5t-71.5 -7.5q-56 0 -72.5 7.5t-9.5 29.5q104 285 257 640.5t296 649.5q11 23 31 30t79 7q60 0 79 -7.5t24 -29.5q81 -288 159 -644t123 -646q4 -22 -15 -29.5t-75 -7.5z M674 1147q-128 -280 -266 -617h403q-68 338 -137 617zM1083 1632l-350 -166q-20 -10 -30.5 -5.5t-24.5 34.5q-14 28 -13.5 37.5t17.5 19.5l340 207q20 12 31.5 4t31.5 -49q22 -43 21.5 -57t-23.5 -25z" />
<glyph unicode="&#xc2;" horiz-adv-x="1175" d="M991 -4q-52 0 -67.5 7t-20.5 30q-39 232 -63 350h-492q-63 -155 -135 -350q-8 -22 -26.5 -29.5t-71.5 -7.5q-56 0 -72.5 7.5t-9.5 29.5q104 285 257 640.5t296 649.5q11 23 31 30t79 7q60 0 79 -7.5t24 -29.5q81 -288 159 -644t123 -646q4 -22 -15 -29.5t-75 -7.5z M674 1147q-128 -280 -266 -617h403q-68 338 -137 617zM721 1587l-146 -106q-16 -13 -33.5 -18t-54.5 -5q-57 0 -53 21q2 8 10 16l218 205q17 20 71 20q55 0 72 -20l172 -205q9 -12 7 -20t-16 -12.5t-38 -4.5q-37 0 -54.5 5t-33.5 18z" />
<glyph unicode="&#xc3;" horiz-adv-x="1175" d="M991 -4q-52 0 -67.5 7t-20.5 30q-39 232 -63 350h-492q-63 -155 -135 -350q-8 -22 -26.5 -29.5t-71.5 -7.5q-56 0 -72.5 7.5t-9.5 29.5q104 285 257 640.5t296 649.5q11 23 31 30t79 7q60 0 79 -7.5t24 -29.5q81 -288 159 -644t123 -646q4 -22 -15 -29.5t-75 -7.5z M674 1147q-128 -280 -266 -617h403q-68 338 -137 617zM911 1640l2 25q2 17 13.5 23t46.5 6q43 0 53.5 -7t7.5 -28l-10 -55q-9 -56 -37.5 -91t-58 -45t-62.5 -10q-68 0 -133 37l-102 61q-34 21 -51 21q-21 0 -34.5 -13t-17.5 -48l-2 -25q-2 -17 -13 -23t-46 -6q-43 0 -53.5 7 t-7.5 28l10 55q7 43 24.5 73.5t41 45.5t45.5 21t46 6q69 0 134 -37l102 -62q32 -20 51 -20q21 0 34 13t17 48z" />
<glyph unicode="&#xc4;" horiz-adv-x="1175" d="M991 -4q-52 0 -67.5 7t-20.5 30q-39 232 -63 350h-492q-63 -155 -135 -350q-8 -22 -26.5 -29.5t-71.5 -7.5q-56 0 -72.5 7.5t-9.5 29.5q104 285 257 640.5t296 649.5q11 23 31 30t79 7q60 0 79 -7.5t24 -29.5q81 -288 159 -644t123 -646q4 -22 -15 -29.5t-75 -7.5z M674 1147q-128 -280 -266 -617h403q-68 338 -137 617zM547 1688q62 0 77 -9t11 -43l-12 -118q-3 -32 -20 -42t-75 -10q-59 0 -76 10.5t-14 41.5l13 118q5 34 20.5 43t75.5 9zM911 1688q62 0 77 -9t11 -43l-12 -118q-3 -32 -19.5 -42t-74.5 -10q-59 0 -76 10.5t-14 41.5 l12 118q5 34 20.5 43t75.5 9z" />
<glyph unicode="&#xc5;" horiz-adv-x="1175" d="M991 -4q-52 0 -67.5 7t-20.5 30q-39 232 -63 350h-492q-63 -155 -135 -350q-8 -22 -26.5 -29.5t-71.5 -7.5q-56 0 -72.5 7.5t-9.5 29.5q103 282 252.5 631t289.5 639q-61 40 -61 131t52 143.5t149 52.5q184 0 184 -160q0 -123 -94 -174q79 -285 155 -632t121 -631 q4 -22 -15 -29.5t-75 -7.5zM674 1147q-128 -280 -266 -617h403q-68 338 -137 617zM696 1360q109 0 109 108q0 42 -19.5 59t-68.5 17q-109 0 -109 -108q0 -42 19.5 -59t68.5 -17z" />
<glyph unicode="&#xc6;" horiz-adv-x="1789" d="M1702 1200h-569l-46 -428h504q20 0 26.5 -14.5t0.5 -61.5q-4 -48 -12 -61.5t-27 -13.5h-508l-49 -465h571q20 0 26.5 -15.5t0.5 -62.5q-4 -49 -11 -63.5t-26 -14.5h-674q-46 0 -61.5 7.5t-13.5 29.5l34 330h-495q-131 -222 -191 -334q-12 -22 -31.5 -29.5t-70.5 -7.5 q-56 0 -74 8t-8 29q161 289 378.5 646t405.5 640q16 23 37 30t80 7h815q20 0 25.5 -15t1.5 -63t-12 -63t-27 -15zM889 1200q-217 -335 -426 -682h422l71 682h-67z" />
<glyph unicode="&#xc7;" horiz-adv-x="1212" d="M551 -106h24q94 0 141.5 -32.5t47.5 -107.5q0 -98 -54.5 -140t-164.5 -42h-174q-19 0 -24.5 11t-2.5 44q3 32 9 43t24 11h166q15 0 22 0.5t21 2t21 5.5t15.5 11t12.5 19.5t4 28.5q0 22 -10.5 32t-24 11.5t-45.5 1.5h-106q-32 0 -43 6.5t-4 24.5l71 166 q-177 27 -253.5 140.5t-76.5 338.5q0 85 13 209q16 156 42.5 266t69 195.5t106.5 136t152.5 75.5t208.5 25q100 0 176.5 -19.5t135 -62.5t85 -119t17.5 -182q-2 -22 -18.5 -29.5t-69.5 -7.5t-69.5 7.5t-14.5 29.5q11 119 -47.5 175.5t-200.5 56.5q-68 0 -117 -10t-90.5 -35 t-70 -64t-51 -102t-37.5 -143.5t-27 -192.5q-12 -126 -12 -217q0 -190 66 -260t229 -70q148 0 214.5 58.5t82.5 185.5q2 22 19.5 29.5t70.5 7.5t68.5 -7.5t13.5 -29.5q-22 -200 -134.5 -297.5t-341.5 -97.5h-32z" />
<glyph unicode="&#xc8;" horiz-adv-x="1142" d="M1055 1200h-611l-45 -428h537q20 0 26.5 -15.5t0.5 -62.5q-4 -48 -11.5 -60.5t-27.5 -12.5h-541l-49 -465h612q20 0 26.5 -16.5t0.5 -63.5q-4 -49 -11 -62.5t-26 -13.5h-715q-46 0 -61.5 7.5t-14.5 29.5l136 1282q3 22 17.5 29.5t59.5 7.5h709q19 0 25 -16t2 -64t-12 -62 t-27 -14zM741 1466l-317 166q-20 9 -18 24t30 56q29 40 43 48t31 -5l295 -207q14 -9 13.5 -18.5t-19.5 -36.5q-21 -29 -31.5 -33.5t-26.5 6.5z" />
<glyph unicode="&#xc9;" horiz-adv-x="1142" d="M1055 1200h-611l-45 -428h537q20 0 26.5 -15.5t0.5 -62.5q-4 -48 -11.5 -60.5t-27.5 -12.5h-541l-49 -465h612q20 0 26.5 -16.5t0.5 -63.5q-4 -49 -11 -62.5t-26 -13.5h-715q-46 0 -61.5 7.5t-14.5 29.5l136 1282q3 22 17.5 29.5t59.5 7.5h709q19 0 25 -16t2 -64t-12 -62 t-27 -14zM1038 1632l-350 -166q-20 -10 -30.5 -5.5t-24.5 34.5q-14 28 -13.5 37.5t17.5 19.5l340 207q20 12 31.5 4t31.5 -49q22 -43 21.5 -57t-23.5 -25z" />
<glyph unicode="&#xca;" horiz-adv-x="1142" d="M1055 1200h-611l-45 -428h537q20 0 26.5 -15.5t0.5 -62.5q-4 -48 -11.5 -60.5t-27.5 -12.5h-541l-49 -465h612q20 0 26.5 -16.5t0.5 -63.5q-4 -49 -11 -62.5t-26 -13.5h-715q-46 0 -61.5 7.5t-14.5 29.5l136 1282q3 22 17.5 29.5t59.5 7.5h709q19 0 25 -16t2 -64t-12 -62 t-27 -14zM713 1587l-146 -106q-16 -13 -33.5 -18t-54.5 -5q-57 0 -53 21q2 8 10 16l217 205q17 20 72 20t72 -20l172 -205q9 -12 7 -20t-16 -12.5t-38 -4.5q-37 0 -54.5 5t-33.5 18z" />
<glyph unicode="&#xcb;" horiz-adv-x="1142" d="M1055 1200h-611l-45 -428h537q20 0 26.5 -15.5t0.5 -62.5q-4 -48 -11.5 -60.5t-27.5 -12.5h-541l-49 -465h612q20 0 26.5 -16.5t0.5 -63.5q-4 -49 -11 -62.5t-26 -13.5h-715q-46 0 -61.5 7.5t-14.5 29.5l136 1282q3 22 17.5 29.5t59.5 7.5h709q19 0 25 -16t2 -64t-12 -62 t-27 -14zM547 1688q62 0 77 -9t11 -43l-12 -118q-3 -32 -20 -42t-75 -10q-59 0 -76 10.5t-14 41.5l13 118q5 34 20.5 43t75.5 9zM911 1688q62 0 77 -9t11 -43l-12 -118q-3 -32 -19.5 -42t-74.5 -10q-59 0 -76 10.5t-14 41.5l12 118q5 34 20.5 43t75.5 9z" />
<glyph unicode="&#xcc;" horiz-adv-x="552" d="M236 -4q-55 0 -71.5 7.5t-14.5 29.5l135 1290q3 22 19.5 29.5t70.5 7.5q55 0 72 -7.5t14 -29.5l-135 -1290q-2 -22 -19 -29.5t-71 -7.5zM365 1466l-318 166q-20 9 -18 24t30 56q29 40 43 48t31 -5l295 -207q14 -9 13.5 -18.5t-19.5 -36.5q-21 -29 -31 -33t-26 6z" />
<glyph unicode="&#xcd;" horiz-adv-x="552" d="M236 -4q-55 0 -71.5 7.5t-14.5 29.5l135 1290q3 22 19.5 29.5t70.5 7.5q55 0 72 -7.5t14 -29.5l-135 -1290q-2 -22 -19 -29.5t-71 -7.5zM764 1632l-350 -166q-20 -10 -31 -5t-25 34q-14 28 -13.5 37.5t17.5 19.5l340 207q20 12 32 4t32 -49q22 -43 21.5 -57t-23.5 -25z " />
<glyph unicode="&#xce;" horiz-adv-x="552" d="M236 -4q-55 0 -71.5 7.5t-14.5 29.5l135 1290q3 22 19.5 29.5t70.5 7.5q55 0 72 -7.5t14 -29.5l-135 -1290q-2 -22 -19 -29.5t-71 -7.5zM401 1587l-145 -106q-16 -13 -33.5 -18t-54.5 -5q-57 0 -53 21q2 8 10 16l217 205q17 20 72 20q54 0 71 -20l172 -205q9 -12 7 -20 t-16 -12.5t-38 -4.5q-37 0 -54.5 5t-33.5 18z" />
<glyph unicode="&#xcf;" horiz-adv-x="552" d="M236 -4q-55 0 -71.5 7.5t-14.5 29.5l135 1290q3 22 19.5 29.5t70.5 7.5q55 0 72 -7.5t14 -29.5l-135 -1290q-2 -22 -19 -29.5t-71 -7.5zM227 1688q62 0 77 -9t11 -43l-12 -118q-3 -32 -19.5 -42t-74.5 -10q-59 0 -76 10.5t-14 41.5l12 118q5 34 20.5 43t75.5 9zM592 1688 q62 0 77 -9t11 -43l-12 -118q-3 -32 -20 -42t-75 -10q-59 0 -76 10.5t-14 41.5l13 118q5 34 20.5 43t75.5 9z" />
<glyph unicode="&#xd0;" horiz-adv-x="1294" d="M596 0h-371q-46 0 -61.5 7.5t-13.5 29.5l57 541h-117q-19 0 -23 12t1 53q5 46 9.5 56t22.5 10h119l66 610q3 22 17.5 29.5t59.5 7.5h355q263 0 375 -113t112 -369q0 -88 -12 -196q-19 -188 -55 -310t-104.5 -208t-174 -123t-262.5 -37zM338 152h262q89 0 150 15.5t107 49 t75 96.5t48 149t32 216q14 143 14 211q0 182 -69.5 248.5t-245.5 66.5h-262l-54 -495h238q19 0 23 -12t1 -54q-5 -43 -10.5 -54t-23.5 -11h-240z" />
<glyph unicode="&#xd1;" horiz-adv-x="1339" d="M1167 1360q54 0 70.5 -7.5t13.5 -29.5l-135 -1290q-1 -15 -9 -22.5t-30.5 -11t-68.5 -3.5q-54 0 -72 6t-27 27l-481 1058l-111 -1054q-2 -22 -18.5 -29.5t-69.5 -7.5t-69.5 7.5t-14.5 29.5l136 1290q3 23 22 30t86 7q55 0 73 -6t27 -27l480 -1057l110 1053q3 22 19 29.5 t69 7.5zM985 1640l2 25q2 17 13.5 23t46.5 6q43 0 53.5 -7t7.5 -28l-10 -55q-9 -56 -37.5 -91t-58 -45t-62.5 -10q-68 0 -133 37l-102 61q-34 21 -52 21q-21 0 -34 -13t-17 -48l-2 -25q-2 -17 -13 -23t-46 -6q-43 0 -54 7t-8 28l10 55q9 56 37.5 91t58 45t62.5 10 q68 0 133 -37l103 -62q32 -20 51 -20q21 0 34 13t17 48z" />
<glyph unicode="&#xd2;" horiz-adv-x="1302" d="M743 1376q248 0 358.5 -116t110.5 -381q0 -90 -12 -201q-20 -193 -58.5 -322t-107.5 -215t-170.5 -123.5t-247.5 -37.5q-249 0 -357.5 117t-108.5 384q0 107 10 197q20 193 59 321.5t107.5 215t169.5 124t247 37.5zM623 131q98 0 162.5 23.5t113 86t76.5 167t45 270.5 q12 120 12 207q0 132 -31.5 206.5t-93.5 104t-170 29.5q-78 0 -133.5 -15t-101 -51t-75.5 -99.5t-51.5 -156t-35.5 -225.5q-12 -117 -12 -205q0 -133 31.5 -208t93.5 -104.5t170 -29.5zM780 1466l-317 166q-20 9 -18 24t30 56q29 40 43 48t31 -5l295 -207q14 -9 13.5 -18.5 t-19.5 -36.5q-21 -29 -31.5 -33.5t-26.5 6.5z" />
<glyph unicode="&#xd3;" horiz-adv-x="1302" d="M743 1376q248 0 358.5 -116t110.5 -381q0 -90 -12 -201q-20 -193 -58.5 -322t-107.5 -215t-170.5 -123.5t-247.5 -37.5q-249 0 -357.5 117t-108.5 384q0 107 10 197q20 193 59 321.5t107.5 215t169.5 124t247 37.5zM623 131q98 0 162.5 23.5t113 86t76.5 167t45 270.5 q12 120 12 207q0 132 -31.5 206.5t-93.5 104t-170 29.5q-78 0 -133.5 -15t-101 -51t-75.5 -99.5t-51.5 -156t-35.5 -225.5q-12 -117 -12 -205q0 -133 31.5 -208t93.5 -104.5t170 -29.5zM1098 1632l-350 -166q-20 -10 -31 -5t-25 34q-14 28 -13.5 37.5t17.5 19.5l340 207 q20 12 32 4t32 -49q22 -43 21.5 -57t-23.5 -25z" />
<glyph unicode="&#xd4;" horiz-adv-x="1302" d="M743 1376q248 0 358.5 -116t110.5 -381q0 -90 -12 -201q-20 -193 -58.5 -322t-107.5 -215t-170.5 -123.5t-247.5 -37.5q-249 0 -357.5 117t-108.5 384q0 107 10 197q20 193 59 321.5t107.5 215t169.5 124t247 37.5zM623 131q98 0 162.5 23.5t113 86t76.5 167t45 270.5 q12 120 12 207q0 132 -31.5 206.5t-93.5 104t-170 29.5q-78 0 -133.5 -15t-101 -51t-75.5 -99.5t-51.5 -156t-35.5 -225.5q-12 -117 -12 -205q0 -133 31.5 -208t93.5 -104.5t170 -29.5zM776 1587l-145 -106q-16 -13 -33.5 -18t-54.5 -5q-57 0 -53 21q2 8 10 16l217 205 q17 20 71 20q55 0 72 -20l172 -205q9 -12 7 -20t-16 -12.5t-38 -4.5q-37 0 -54.5 5t-33.5 18z" />
<glyph unicode="&#xd5;" horiz-adv-x="1302" d="M743 1376q248 0 358.5 -116t110.5 -381q0 -90 -12 -201q-20 -193 -58.5 -322t-107.5 -215t-170.5 -123.5t-247.5 -37.5q-249 0 -357.5 117t-108.5 384q0 107 10 197q20 193 59 321.5t107.5 215t169.5 124t247 37.5zM623 131q98 0 162.5 23.5t113 86t76.5 167t45 270.5 q12 120 12 207q0 132 -31.5 206.5t-93.5 104t-170 29.5q-78 0 -133.5 -15t-101 -51t-75.5 -99.5t-51.5 -156t-35.5 -225.5q-12 -117 -12 -205q0 -133 31.5 -208t93.5 -104.5t170 -29.5zM967 1640l2 25q2 17 13 23t46 6q43 0 54 -7t8 -28l-11 -55q-7 -43 -24.5 -73.5 t-41 -45.5t-45.5 -21t-46 -6q-69 0 -134 37l-102 61q-34 21 -51 21q-21 0 -34 -13t-17 -48l-2 -25q-2 -17 -13.5 -23t-46.5 -6q-43 0 -53.5 7t-7.5 28l10 55q9 56 37.5 91t58 45t62.5 10q68 0 133 -37l102 -62q32 -20 51 -20q21 0 34.5 13t17.5 48z" />
<glyph unicode="&#xd6;" horiz-adv-x="1302" d="M743 1376q248 0 358.5 -116t110.5 -381q0 -90 -12 -201q-20 -193 -58.5 -322t-107.5 -215t-170.5 -123.5t-247.5 -37.5q-249 0 -357.5 117t-108.5 384q0 107 10 197q20 193 59 321.5t107.5 215t169.5 124t247 37.5zM623 131q98 0 162.5 23.5t113 86t76.5 167t45 270.5 q12 120 12 207q0 132 -31.5 206.5t-93.5 104t-170 29.5q-78 0 -133.5 -15t-101 -51t-75.5 -99.5t-51.5 -156t-35.5 -225.5q-12 -117 -12 -205q0 -133 31.5 -208t93.5 -104.5t170 -29.5zM602 1688q62 0 77 -9t11 -43l-12 -118q-3 -32 -19.5 -42t-74.5 -10q-59 0 -76 10.5 t-14 41.5l12 118q5 34 20.5 43t75.5 9zM967 1688q62 0 77 -9t11 -43l-13 -118q-3 -32 -19.5 -42t-74.5 -10q-59 0 -76 10.5t-14 41.5l12 118q5 34 20.5 43t76.5 9z" />
<glyph unicode="&#xd7;" d="M803 272l-234 260l-286 -260q-11 -15 -25.5 -9.5t-44.5 38.5q-29 32 -32.5 47.5t12.5 26.5l286 258l-233 262q-13 11 -6 26t43 48q37 33 52.5 38t24.5 -10l232 -260l289 260q12 15 26.5 10t42.5 -38q30 -33 33.5 -48t-12.5 -26l-287 -260l234 -260q13 -11 6 -26t-43 -48 t-51.5 -38t-26.5 9z" />
<glyph unicode="&#xd8;" horiz-adv-x="1310" d="M748 1376q200 0 309 -73l71 100q14 19 31.5 25t61.5 6q17 0 29 -2t18 -5t8 -7.5t0 -9.5t-6 -11l-131 -182q78 -115 78 -338q0 -81 -13 -201q-20 -193 -58.5 -321.5t-107.5 -215t-170 -124t-247 -37.5q-201 0 -308 71l-73 -106q-14 -19 -31.5 -25t-61.5 -6q-17 0 -29 2 t-18 5t-8 7.5t0 9.5t6 11l133 186q-77 116 -77 346q0 107 10 197q20 193 59 321.5t108 215t170 124t247 37.5zM332 473q0 -103 18 -174l611 860q-66 66 -220 66q-78 0 -133.5 -15t-101 -51t-75.5 -99.5t-51.5 -156t-35.5 -225.5q-12 -117 -12 -205zM627 131q98 0 162.5 23.5 t113 86t76.5 167t45 270.5q12 120 12 207q0 99 -18 166l-610 -858q68 -62 219 -62z" />
<glyph unicode="&#xd9;" horiz-adv-x="1302" d="M616 -20q-230 0 -336 95.5t-106 299.5q0 50 6 108l88 840q3 22 19.5 29.5t70.5 7.5q55 0 72 -7.5t14 -29.5l-86 -831q-6 -56 -6 -101q0 -136 61.5 -194t211.5 -58q172 0 245.5 79.5t94.5 273.5l86 831q3 22 19.5 29.5t70.5 7.5q55 0 72 -7.5t14 -29.5l-88 -840 q-28 -266 -146.5 -384.5t-376.5 -118.5zM739 1466l-317 166q-20 9 -18 24t30 56q29 40 43 48t31 -5l295 -207q14 -9 13.5 -18.5t-19.5 -36.5q-21 -29 -31.5 -33.5t-26.5 6.5z" />
<glyph unicode="&#xda;" horiz-adv-x="1302" d="M616 -20q-230 0 -336 95.5t-106 299.5q0 50 6 108l88 840q3 22 19.5 29.5t70.5 7.5q55 0 72 -7.5t14 -29.5l-86 -831q-6 -56 -6 -101q0 -136 61.5 -194t211.5 -58q172 0 245.5 79.5t94.5 273.5l86 831q3 22 19.5 29.5t70.5 7.5q55 0 72 -7.5t14 -29.5l-88 -840 q-28 -266 -146.5 -384.5t-376.5 -118.5zM1139 1632l-351 -166q-20 -10 -30.5 -5.5t-24.5 34.5q-14 28 -13.5 37.5t17.5 19.5l340 207q20 12 32 4t32 -49q22 -43 21.5 -57t-23.5 -25z" />
<glyph unicode="&#xdb;" horiz-adv-x="1302" d="M616 -20q-230 0 -336 95.5t-106 299.5q0 50 6 108l88 840q3 22 19.5 29.5t70.5 7.5q55 0 72 -7.5t14 -29.5l-86 -831q-6 -56 -6 -101q0 -136 61.5 -194t211.5 -58q172 0 245.5 79.5t94.5 273.5l86 831q3 22 19.5 29.5t70.5 7.5q55 0 72 -7.5t14 -29.5l-88 -840 q-28 -266 -146.5 -384.5t-376.5 -118.5zM776 1587l-145 -106q-16 -13 -33.5 -18t-54.5 -5q-57 0 -53 21q2 8 10 16l217 205q17 20 71 20q55 0 72 -20l172 -205q9 -12 7 -20t-16 -12.5t-38 -4.5q-37 0 -54.5 5t-33.5 18z" />
<glyph unicode="&#xdc;" horiz-adv-x="1302" d="M616 -20q-230 0 -336 95.5t-106 299.5q0 50 6 108l88 840q3 22 19.5 29.5t70.5 7.5q55 0 72 -7.5t14 -29.5l-86 -831q-6 -56 -6 -101q0 -136 61.5 -194t211.5 -58q172 0 245.5 79.5t94.5 273.5l86 831q3 22 19.5 29.5t70.5 7.5q55 0 72 -7.5t14 -29.5l-88 -840 q-28 -266 -146.5 -384.5t-376.5 -118.5zM602 1688q62 0 77 -9t11 -43l-12 -118q-3 -32 -19.5 -42t-74.5 -10q-59 0 -76 10.5t-14 41.5l12 118q5 34 20.5 43t75.5 9zM967 1688q62 0 77 -9t11 -43l-13 -118q-3 -32 -19.5 -42t-74.5 -10q-59 0 -76 10.5t-14 41.5l12 118 q5 34 20.5 43t76.5 9z" />
<glyph unicode="&#xdd;" horiz-adv-x="1134" d="M981 1323q13 24 28.5 30.5t69.5 6.5q97 0 100 -22q0 -7 -5 -17q-98 -175 -246.5 -417t-261.5 -408l-50 -463q-2 -22 -19 -29.5t-71 -7.5q-55 0 -71.5 7.5t-14.5 29.5l49 463q-76 165 -173.5 406.5t-161.5 418.5q-6 23 11 31t81 8q55 0 70.5 -7t21.5 -30 q127 -386 252 -674q215 340 391 674zM1055 1632l-350 -166q-20 -10 -31 -5t-25 34q-14 28 -13.5 37.5t17.5 19.5l340 207q20 12 32 4t32 -49q22 -43 21.5 -57t-23.5 -25z" />
<glyph unicode="&#xde;" horiz-adv-x="1163" d="M582 311h-232l-28 -278q-2 -22 -19 -29.5t-72 -7.5t-71.5 7.5t-14.5 29.5l113 1061l23 229q3 22 19.5 29.5t70.5 7.5q55 0 72 -7.5t14 -29.5l-21 -193h213q227 0 331.5 -82.5t104.5 -259.5q0 -19 -4 -69q-20 -216 -137 -312t-362 -96zM422 979l-55 -520h217 q82 0 135.5 11t93.5 40t60 79.5t28 129.5q4 50 4 65q0 113 -60.5 154t-205.5 41h-217z" />
<glyph unicode="&#xdf;" horiz-adv-x="1323" d="M635 715q-19 2 -23 14.5t0 56.5q5 46 10.5 58.5t24.5 13.5q50 4 87 9.5t82.5 16.5t77.5 29.5t60.5 45.5t43 68t14.5 93q0 170 -275 170q-169 0 -238.5 -56.5t-80.5 -176.5l-109 -1026q-2 -22 -18 -28.5t-68 -6.5t-66 6.5t-12 28.5l109 1034q8 72 26 126t53.5 101.5 t88.5 77.5t133 47t186 17q435 0 435 -293q0 -144 -90 -237.5t-242 -117.5q60 -8 108.5 -22t96.5 -41t80 -65t51.5 -97t19.5 -135q0 -93 -23 -171.5t-69 -141t-125 -98t-182 -35.5q-92 0 -157.5 21t-100.5 59t-48 85t-8 105q2 24 15.5 30.5t66.5 6.5q50 0 65 -7t15 -28 q2 -36 6.5 -56.5t19.5 -41t47 -29t83 -8.5q233 0 233 313q0 61 -14.5 104t-42 73t-79 50.5t-112 33t-155.5 24.5z" />
<glyph unicode="&#xe0;" horiz-adv-x="1064" d="M356 731q-2 -21 -18 -28t-66 -7q-53 0 -66.5 6.5t-10.5 30.5q30 283 391 283q210 0 293 -83t65 -249l-70 -655q-1 -21 -16 -27t-65 -6q-51 0 -65 6t-13 27l8 98q-42 -63 -120.5 -103t-190.5 -40q-161 0 -241.5 66.5t-80.5 185.5q0 156 98.5 237.5t274.5 81.5h301l14 129 q10 108 -34 150.5t-162 42.5q-110 0 -164 -35.5t-62 -110.5zM750 428h-289q-95 0 -151 -43.5t-56 -136.5q0 -129 170 -129q133 0 220 62t99 171zM639 1130l-301 158q-21 9 -19.5 23.5t31.5 56.5q29 41 42 48.5t30 -5.5l280 -199q14 -9 13.5 -18.5t-19.5 -36.5 q-21 -29 -31 -33t-26 6z" />
<glyph unicode="&#xe1;" horiz-adv-x="1064" d="M356 731q-2 -21 -18 -28t-66 -7q-53 0 -66.5 6.5t-10.5 30.5q30 283 391 283q210 0 293 -83t65 -249l-70 -655q-1 -21 -16 -27t-65 -6q-51 0 -65 6t-13 27l8 98q-42 -63 -120.5 -103t-190.5 -40q-161 0 -241.5 66.5t-80.5 185.5q0 156 98.5 237.5t274.5 81.5h301l14 129 q10 108 -34 150.5t-162 42.5q-110 0 -164 -35.5t-62 -110.5zM750 428h-289q-95 0 -151 -43.5t-56 -136.5q0 -129 170 -129q133 0 220 62t99 171zM913 1288l-333 -158q-20 -10 -31 -5t-25 34q-14 28 -13.5 38t17.5 20l322 198q20 13 32.5 4.5t32.5 -49.5q21 -43 20 -57 t-22 -25z" />
<glyph unicode="&#xe2;" horiz-adv-x="1064" d="M356 731q-2 -21 -18 -28t-66 -7q-53 0 -66.5 6.5t-10.5 30.5q30 283 391 283q210 0 293 -83t65 -249l-70 -655q-1 -21 -16 -27t-65 -6q-51 0 -65 6t-13 27l8 98q-42 -63 -120.5 -103t-190.5 -40q-161 0 -241.5 66.5t-80.5 185.5q0 156 98.5 237.5t274.5 81.5h301l14 129 q10 108 -34 150.5t-162 42.5q-110 0 -164 -35.5t-62 -110.5zM750 428h-289q-95 0 -151 -43.5t-56 -136.5q0 -129 170 -129q133 0 220 62t99 171zM633 1280l-133 -115q-23 -20 -40.5 -25t-58.5 -5q-58 0 -52 19q3 7 11 15l218 220q17 20 67 20q51 0 68 -20l172 -220 q12 -17 1.5 -25.5t-46.5 -8.5q-42 0 -61 5.5t-38 24.5z" />
<glyph unicode="&#xe3;" horiz-adv-x="1064" d="M356 731q-2 -21 -18 -28t-66 -7q-53 0 -66.5 6.5t-10.5 30.5q30 283 391 283q210 0 293 -83t65 -249l-70 -655q-1 -21 -16 -27t-65 -6q-51 0 -65 6t-13 27l8 98q-42 -63 -120.5 -103t-190.5 -40q-161 0 -241.5 66.5t-80.5 185.5q0 156 98.5 237.5t274.5 81.5h301l14 129 q10 108 -34 150.5t-162 42.5q-110 0 -164 -35.5t-62 -110.5zM750 428h-289q-95 0 -151 -43.5t-56 -136.5q0 -129 170 -129q133 0 220 62t99 171zM807 1313l2 24q2 17 13 23t46 6q42 0 51.5 -6.5t6.5 -28.5l-11 -55q-24 -146 -147 -146q-67 0 -131 39l-102 62q-32 18 -50 18 q-21 0 -33 -12.5t-16 -48.5l-2 -25q-2 -17 -12 -22.5t-45 -5.5q-42 0 -51.5 6.5t-6.5 27.5l9 56q28 145 149 145q63 0 131 -39l103 -61q30 -19 49 -19q20 0 31.5 13t15.5 49z" />
<glyph unicode="&#xe4;" horiz-adv-x="1064" d="M356 731q-2 -21 -18 -28t-66 -7q-53 0 -66.5 6.5t-10.5 30.5q30 283 391 283q210 0 293 -83t65 -249l-70 -655q-1 -21 -16 -27t-65 -6q-51 0 -65 6t-13 27l8 98q-42 -63 -120.5 -103t-190.5 -40q-161 0 -241.5 66.5t-80.5 185.5q0 156 98.5 237.5t274.5 81.5h301l14 129 q10 108 -34 150.5t-162 42.5q-110 0 -164 -35.5t-62 -110.5zM750 428h-289q-95 0 -151 -43.5t-56 -136.5q0 -129 170 -129q133 0 220 62t99 171zM457 1362q62 0 77.5 -8.5t12.5 -42.5l-12 -119q-3 -31 -20.5 -41t-76.5 -10t-75 10t-13 41l12 119q3 34 18.5 42.5t76.5 8.5z M805 1362q62 0 77.5 -8.5t12.5 -42.5l-12 -119q-3 -31 -20.5 -41t-76.5 -10t-75 10t-13 41l13 119q3 34 18 42.5t76 8.5z" />
<glyph unicode="&#xe5;" horiz-adv-x="1064" d="M356 731q-2 -21 -18 -28t-66 -7q-53 0 -66.5 6.5t-10.5 30.5q30 283 391 283q210 0 293 -83t65 -249l-70 -655q-1 -21 -16 -27t-65 -6q-51 0 -65 6t-13 27l8 98q-42 -63 -120.5 -103t-190.5 -40q-161 0 -241.5 66.5t-80.5 185.5q0 156 98.5 237.5t274.5 81.5h301l14 129 q10 108 -34 150.5t-162 42.5q-110 0 -164 -35.5t-62 -110.5zM750 428h-289q-95 0 -151 -43.5t-56 -136.5q0 -129 170 -129q133 0 220 62t99 171zM639 1468q84 0 128 -37t44 -108q0 -90 -50.5 -142.5t-146.5 -52.5q-85 0 -128.5 39t-43.5 111q0 89 51 139.5t146 50.5z M618 1210q46 0 74.5 26t28.5 83q0 35 -20 51t-64 16q-46 0 -75.5 -24.5t-29.5 -79.5q0 -38 20 -55t66 -17z" />
<glyph unicode="&#xe6;" horiz-adv-x="1671" d="M1522 438h-613q-9 -166 47.5 -240.5t192.5 -74.5q89 0 142.5 34.5t62.5 94.5q5 21 20 28t64 7q53 0 67 -6.5t11 -30.5q-17 -128 -115.5 -199t-257.5 -71q-260 0 -340 159q-66 -80 -165.5 -117.5t-203.5 -37.5q-342 0 -342 258q0 163 100.5 243t284.5 80h289l12 119 q10 108 -33.5 150.5t-158.5 42.5q-218 0 -230 -146q-2 -21 -18 -28t-66 -7q-53 0 -66 6.5t-11 30.5q15 140 116.5 211.5t282.5 71.5q240 0 305 -127q106 127 326 127q350 0 350 -350q0 -57 -4 -86l-6 -58q-4 -52 -12.5 -68t-30.5 -16zM752 438h-285q-93 0 -152 -47t-59 -143 q0 -72 46 -100.5t132 -28.5q127 0 212 59t95 166zM1217 872q-130 0 -197 -69.5t-96 -237.5h489l4 53q2 18 2 54q0 98 -45 149t-157 51z" />
<glyph unicode="&#xe7;" horiz-adv-x="1040" d="M451 -104h30q92 0 137.5 -30t45.5 -104q0 -98 -53 -139t-160 -41h-195q-18 0 -22.5 10t-0.5 41q3 33 8 42.5t21 9.5h187q20 0 33 1.5t29 8t24 21.5t8 38q0 30 -17 37.5t-61 7.5h-107q-32 0 -42 6.5t-3 24.5l70 164q-134 28 -197 122t-63 263q0 55 6 119q28 272 139 395 t346 123q170 0 265.5 -72.5t83.5 -202.5q-1 -23 -16.5 -29.5t-69.5 -6.5q-50 0 -65 6.5t-13 27.5q6 66 -45.5 99.5t-147.5 33.5q-151 0 -217 -84.5t-88 -289.5q-8 -86 -8 -119q0 -137 54.5 -196.5t182.5 -59.5q207 0 224 139q2 20 19.5 27.5t68.5 7.5q52 0 63.5 -6.5 t9.5 -30.5q-19 -138 -119.5 -209t-269.5 -71q-29 0 -43 2z" />
<glyph unicode="&#xe8;" horiz-adv-x="1069" d="M920 446h-629q-2 -23 -2 -61q0 -138 59 -200t191 -62q96 0 150 34t63 95q5 21 21 28t65 7q53 0 65.5 -6.5t9.5 -30.5q-17 -130 -115 -200t-266 -70q-211 0 -311 98t-100 301q0 49 6 104q29 280 143 406.5t344 126.5q359 0 359 -350q0 -28 -4 -86l-4 -50q-6 -52 -14.5 -68 t-30.5 -16zM606 872q-135 0 -203 -67.5t-96 -231.5h504l4 45q4 40 4 62q0 94 -47.5 143t-165.5 49zM641 1130l-301 158q-21 9 -19.5 23.5t31.5 56.5q29 41 42 48.5t30 -5.5l281 -199q14 -10 13.5 -19t-20.5 -36q-21 -29 -31 -33t-26 6z" />
<glyph unicode="&#xe9;" horiz-adv-x="1069" d="M920 446h-629q-2 -23 -2 -61q0 -138 59 -200t191 -62q96 0 150 34t63 95q5 21 21 28t65 7q53 0 65.5 -6.5t9.5 -30.5q-17 -130 -115 -200t-266 -70q-211 0 -311 98t-100 301q0 49 6 104q29 280 143 406.5t344 126.5q359 0 359 -350q0 -28 -4 -86l-4 -50q-6 -52 -14.5 -68 t-30.5 -16zM606 872q-135 0 -203 -67.5t-96 -231.5h504l4 45q4 40 4 62q0 94 -47.5 143t-165.5 49zM936 1288l-334 -158q-20 -10 -30.5 -5.5t-24.5 34.5q-14 28 -13.5 38t17.5 20l321 198q20 13 33 4.5t33 -49.5q21 -43 20 -57t-22 -25z" />
<glyph unicode="&#xea;" horiz-adv-x="1069" d="M920 446h-629q-2 -23 -2 -61q0 -138 59 -200t191 -62q96 0 150 34t63 95q5 21 21 28t65 7q53 0 65.5 -6.5t9.5 -30.5q-17 -130 -115 -200t-266 -70q-211 0 -311 98t-100 301q0 49 6 104q29 280 143 406.5t344 126.5q359 0 359 -350q0 -28 -4 -86l-4 -50q-6 -52 -14.5 -68 t-30.5 -16zM606 872q-135 0 -203 -67.5t-96 -231.5h504l4 45q4 40 4 62q0 94 -47.5 143t-165.5 49zM627 1280l-133 -115q-23 -20 -40.5 -25t-58.5 -5q-58 0 -52 19q3 7 11 15l217 220q17 20 68 20t68 -20l172 -220q12 -17 1.5 -25.5t-46.5 -8.5q-42 0 -61 5.5t-38 24.5z" />
<glyph unicode="&#xeb;" horiz-adv-x="1069" d="M920 446h-629q-2 -23 -2 -61q0 -138 59 -200t191 -62q96 0 150 34t63 95q5 21 21 28t65 7q53 0 65.5 -6.5t9.5 -30.5q-17 -130 -115 -200t-266 -70q-211 0 -311 98t-100 301q0 49 6 104q29 280 143 406.5t344 126.5q359 0 359 -350q0 -28 -4 -86l-4 -50q-6 -52 -14.5 -68 t-30.5 -16zM606 872q-135 0 -203 -67.5t-96 -231.5h504l4 45q4 40 4 62q0 94 -47.5 143t-165.5 49zM459 1362q62 0 77.5 -8.5t12.5 -42.5l-12 -119q-3 -31 -20.5 -41t-76.5 -10t-75 10t-13 41l13 119q3 34 18 42.5t76 8.5zM807 1362q62 0 77.5 -8.5t12.5 -42.5l-12 -119 q-3 -31 -20.5 -41t-76.5 -10t-75 10t-13 41l13 119q3 34 18 42.5t76 8.5z" />
<glyph unicode="&#xec;" horiz-adv-x="512" d="M133 31l98 934q1 22 17 28t69 6t68 -6t14 -28l-98 -934q-2 -22 -18 -28.5t-68 -6.5t-68 6.5t-14 28.5zM303 1130l-301 158q-21 9 -19.5 23.5t31.5 56.5q29 41 42 48.5t30 -5.5l281 -199q14 -10 13.5 -19t-20.5 -36q-21 -29 -31 -33t-26 6z" />
<glyph unicode="&#xed;" horiz-adv-x="512" d="M133 31l98 934q1 22 17 28t69 6t68 -6t14 -28l-98 -934q-2 -22 -18 -28.5t-68 -6.5t-68 6.5t-14 28.5zM700 1288l-333 -158q-20 -10 -31 -5t-25 34q-14 28 -13.5 38t17.5 20l322 198q20 13 32.5 4.5t32.5 -49.5q21 -43 20 -57t-22 -25z" />
<glyph unicode="&#xee;" horiz-adv-x="512" d="M133 31l98 934q1 22 17 28t69 6t68 -6t14 -28l-98 -934q-2 -22 -18 -28.5t-68 -6.5t-68 6.5t-14 28.5zM348 1280l-133 -115q-23 -20 -40 -25t-58 -5q-58 0 -52 19q3 7 11 15l217 220q17 20 67 20q51 0 68 -20l172 -220q12 -17 1.5 -25.5t-46.5 -8.5q-42 0 -60 5t-38 25z " />
<glyph unicode="&#xef;" horiz-adv-x="512" d="M133 31l98 934q1 22 17 28t69 6t68 -6t14 -28l-98 -934q-2 -22 -18 -28.5t-68 -6.5t-68 6.5t-14 28.5zM190 1362q62 0 78 -9t13 -42l-13 -119q-3 -32 -20 -41.5t-76 -9.5t-75 10t-13 41l12 119q3 34 18 42.5t76 8.5zM518 1362q62 0 77.5 -8.5t12.5 -42.5l-12 -119 q-3 -32 -20 -41.5t-76 -9.5t-75 10t-13 41l12 119q3 34 18 42.5t76 8.5z" />
<glyph unicode="&#xf0;" horiz-adv-x="1122" d="M1110 1257l-125 -47q51 -110 51 -317q0 -155 -20 -336q-16 -158 -49.5 -265t-92 -178t-143 -102.5t-205.5 -31.5q-210 0 -306.5 96.5t-96.5 302.5q0 55 6 119q28 272 140 395t347 123q80 0 156 -33t115 -86q3 177 -47 260l-193 -70q-14 -8 -22 0.5t-15 38.5 q-9 31 -6.5 42.5t17.5 19.5l135 49q-80 45 -228 45q-19 0 -23.5 12.5t-0.5 57.5q4 44 11.5 56.5t27.5 12.5q271 0 383 -121l157 58q15 6 22 -2t15 -39q9 -31 7 -42.5t-17 -17.5zM530 123q151 0 218.5 85t89.5 290q8 86 8 118q0 137 -55 196.5t-183 59.5q-151 0 -218 -84.5 t-89 -289.5q-8 -86 -8 -119q0 -137 54.5 -196.5t182.5 -59.5z" />
<glyph unicode="&#xf1;" horiz-adv-x="1150" d="M383 967l-6 -105q44 67 126.5 110.5t205.5 43.5q148 0 230.5 -73.5t82.5 -225.5q0 -18 -4 -64l-66 -622q-2 -22 -18 -28.5t-68 -6.5t-68 6.5t-14 28.5l66 624q12 113 -32 163t-150 50q-132 0 -217 -70t-97 -192l-61 -575q-2 -22 -18 -28.5t-68 -6.5t-68 6.5t-14 28.5 l98 936q3 21 17.5 26.5t64.5 5.5q51 0 66 -5.5t12 -26.5zM850 1313l2 24q2 17 13 23t46 6q42 0 51.5 -6.5t6.5 -28.5l-11 -55q-24 -146 -147 -146q-67 0 -131 39l-102 62q-32 18 -50 18q-21 0 -33 -12.5t-16 -48.5l-2 -25q-2 -17 -12 -22.5t-45 -5.5q-42 0 -51.5 6.5 t-6.5 27.5l9 56q28 145 149 145q63 0 131 -39l103 -61q30 -19 49 -19q20 0 31.5 13t15.5 49z" />
<glyph unicode="&#xf2;" d="M614 1016q209 0 303.5 -95.5t94.5 -299.5q0 -59 -6 -123q-28 -272 -139.5 -395t-346.5 -123q-209 0 -303 95.5t-94 299.5q0 59 6 123q28 272 139 395t346 123zM528 123q151 0 217.5 85t88.5 290q8 90 8 120q0 136 -54.5 195t-181.5 59q-151 0 -217 -84.5t-88 -289.5 q-8 -90 -8 -121q0 -136 54 -195t181 -59zM645 1130l-301 158q-21 9 -19.5 23.5t31.5 56.5q29 41 42 48.5t30 -5.5l281 -199q14 -10 13.5 -19t-20.5 -36q-21 -29 -31 -33t-26 6z" />
<glyph unicode="&#xf3;" d="M614 1016q209 0 303.5 -95.5t94.5 -299.5q0 -59 -6 -123q-28 -272 -139.5 -395t-346.5 -123q-209 0 -303 95.5t-94 299.5q0 59 6 123q28 272 139 395t346 123zM528 123q151 0 217.5 85t88.5 290q8 90 8 120q0 136 -54.5 195t-181.5 59q-151 0 -217 -84.5t-88 -289.5 q-8 -90 -8 -121q0 -136 54 -195t181 -59zM961 1288l-334 -158q-20 -10 -31 -5t-25 34q-14 28 -13.5 38t17.5 20l322 198q20 13 33 4.5t33 -49.5q21 -43 20 -57t-22 -25z" />
<glyph unicode="&#xf4;" d="M614 1016q209 0 303.5 -95.5t94.5 -299.5q0 -59 -6 -123q-28 -272 -139.5 -395t-346.5 -123q-209 0 -303 95.5t-94 299.5q0 59 6 123q28 272 139 395t346 123zM528 123q151 0 217.5 85t88.5 290q8 90 8 120q0 136 -54.5 195t-181.5 59q-151 0 -217 -84.5t-88 -289.5 q-8 -90 -8 -121q0 -136 54 -195t181 -59zM649 1280l-133 -115q-23 -20 -40 -25t-58 -5q-58 0 -52 19q3 7 11 15l217 220q17 20 68 20q50 0 67 -20l172 -220q12 -17 1.5 -25.5t-46.5 -8.5q-42 0 -60 5t-38 25z" />
<glyph unicode="&#xf5;" d="M614 1016q209 0 303.5 -95.5t94.5 -299.5q0 -59 -6 -123q-28 -272 -139.5 -395t-346.5 -123q-209 0 -303 95.5t-94 299.5q0 59 6 123q28 272 139 395t346 123zM528 123q151 0 217.5 85t88.5 290q8 90 8 120q0 136 -54.5 195t-181.5 59q-151 0 -217 -84.5t-88 -289.5 q-8 -90 -8 -121q0 -136 54 -195t181 -59zM834 1313l2 24q2 17 13 23t46 6q42 0 51 -6.5t6 -28.5l-10 -55q-24 -146 -147 -146q-67 0 -131 39l-103 62q-32 18 -49 18q-21 0 -33 -12.5t-16 -48.5l-2 -25q-2 -17 -12.5 -22.5t-45.5 -5.5q-42 0 -51 6t-6 28l8 56q28 145 150 145 q63 0 131 -39l102 -61q30 -19 49 -19q21 0 32.5 13t15.5 49z" />
<glyph unicode="&#xf6;" d="M614 1016q209 0 303.5 -95.5t94.5 -299.5q0 -59 -6 -123q-28 -272 -139.5 -395t-346.5 -123q-209 0 -303 95.5t-94 299.5q0 59 6 123q28 272 139 395t346 123zM528 123q151 0 217.5 85t88.5 290q8 90 8 120q0 136 -54.5 195t-181.5 59q-151 0 -217 -84.5t-88 -289.5 q-8 -90 -8 -121q0 -136 54 -195t181 -59zM483 1362q62 0 77.5 -8.5t12.5 -42.5l-12 -119q-3 -32 -20 -41.5t-76 -9.5t-75 10t-13 41l12 119q3 34 18 42.5t76 8.5zM831 1362q62 0 78 -9t13 -42l-13 -119q-3 -32 -20 -41.5t-76 -9.5t-75 10t-13 41l12 119q3 34 18 42.5t76 8.5 z" />
<glyph unicode="&#xf7;" d="M217 707h746q18 0 21.5 -14t-1.5 -58q-5 -45 -11.5 -58.5t-25.5 -13.5h-745q-18 0 -22 14t1 58q5 45 11.5 58.5t25.5 13.5zM532 162q-66 0 -87.5 9.5t-18.5 41.5l14 135q3 34 23.5 42.5t89.5 8.5q70 0 91 -8.5t18 -42.5l-15 -135q-3 -32 -26 -41.5t-89 -9.5zM606 870 q-66 0 -87.5 10t-18.5 42l14 135q3 34 23.5 42.5t89.5 8.5q70 0 90.5 -8.5t17.5 -42.5l-14 -135q-3 -32 -26 -42t-89 -10z" />
<glyph unicode="&#xf8;" horiz-adv-x="1126" d="M616 1016q140 0 232 -45l59 82q12 17 28.5 22.5t57.5 5.5q54 0 54 -17q-1 -7 -7 -15l-106 -146q80 -96 80 -282q0 -59 -6 -123q-28 -272 -139.5 -395t-346.5 -123q-138 0 -225 40l-55 -77q-14 -18 -30.5 -23.5t-57.5 -5.5q-27 0 -41 4.5t-13.5 12t6.5 16.5l101 139 q-82 95 -82 289q0 59 6 123q28 272 139 395t346 123zM295 377q0 -93 22 -144l441 607q-51 32 -150 32q-151 0 -217 -84.5t-88 -289.5q-8 -90 -8 -121zM530 123q151 0 217.5 85t88.5 290q8 90 8 120q0 82 -21 138l-436 -604q54 -29 143 -29z" />
<glyph unicode="&#xf9;" horiz-adv-x="1130" d="M768 29l6 104q-29 -45 -62.5 -75.5t-95 -54t-141.5 -23.5q-161 0 -247.5 75.5t-86.5 225.5q0 19 4 59l66 625q1 22 17 28t69 6t68 -6t14 -28l-64 -613q-12 -117 34 -173t165 -56q121 0 196 73.5t89 196.5l59 572q1 22 17 28t69 6t68 -6t14 -28l-98 -936q-1 -21 -16.5 -27 t-65.5 -6q-51 0 -65 6t-13 27zM647 1130l-301 158q-21 9 -19.5 23.5t31.5 56.5q29 41 42 48.5t30 -5.5l281 -199q14 -9 13.5 -18.5t-19.5 -36.5q-21 -29 -31.5 -33.5t-26.5 6.5z" />
<glyph unicode="&#xfa;" horiz-adv-x="1130" d="M768 29l6 104q-29 -45 -62.5 -75.5t-95 -54t-141.5 -23.5q-161 0 -247.5 75.5t-86.5 225.5q0 19 4 59l66 625q1 22 17 28t69 6t68 -6t14 -28l-64 -613q-12 -117 34 -173t165 -56q121 0 196 73.5t89 196.5l59 572q1 22 17 28t69 6t68 -6t14 -28l-98 -936q-1 -21 -16.5 -27 t-65.5 -6q-51 0 -65 6t-13 27zM944 1288l-334 -158q-20 -10 -30.5 -5.5t-24.5 34.5q-14 28 -13.5 38t17.5 20l322 198q20 13 32.5 4.5t32.5 -49.5q21 -43 20 -57t-22 -25z" />
<glyph unicode="&#xfb;" horiz-adv-x="1130" d="M768 29l6 104q-29 -45 -62.5 -75.5t-95 -54t-141.5 -23.5q-161 0 -247.5 75.5t-86.5 225.5q0 19 4 59l66 625q1 22 17 28t69 6t68 -6t14 -28l-64 -613q-12 -117 34 -173t165 -56q121 0 196 73.5t89 196.5l59 572q1 22 17 28t69 6t68 -6t14 -28l-98 -936q-1 -21 -16.5 -27 t-65.5 -6q-51 0 -65 6t-13 27zM653 1280l-133 -115q-23 -20 -40 -25t-58 -5q-58 0 -52 19q3 7 11 15l217 220q17 20 68 20q50 0 67 -20l172 -220q12 -17 1.5 -25.5t-46.5 -8.5q-42 0 -60 5t-38 25z" />
<glyph unicode="&#xfc;" horiz-adv-x="1130" d="M768 29l6 104q-29 -45 -62.5 -75.5t-95 -54t-141.5 -23.5q-161 0 -247.5 75.5t-86.5 225.5q0 19 4 59l66 625q1 22 17 28t69 6t68 -6t14 -28l-64 -613q-12 -117 34 -173t165 -56q121 0 196 73.5t89 196.5l59 572q1 22 17 28t69 6t68 -6t14 -28l-98 -936q-1 -21 -16.5 -27 t-65.5 -6q-51 0 -65 6t-13 27zM483 1362q62 0 77.5 -8.5t12.5 -42.5l-12 -119q-3 -32 -20 -41.5t-76 -9.5t-75 10t-13 41l12 119q3 34 18 42.5t76 8.5zM831 1362q62 0 78 -9t13 -42l-13 -119q-3 -32 -20 -41.5t-76 -9.5t-75 10t-13 41l12 119q3 34 18 42.5t76 8.5z" />
<glyph unicode="&#xfd;" horiz-adv-x="1019" d="M154 -238q49 0 79 7t59.5 34t52.5 62.5t65 109.5l12 23q-47 3 -55 27q-64 193 -132.5 457t-111.5 476q-5 24 11 32.5t71 8.5q53 0 71 -8.5t21 -29.5q76 -435 192 -836q100 196 199.5 429t161.5 407q6 22 23 30t67 8q53 0 68.5 -9t9.5 -34q-61 -185 -193 -472.5 t-266 -526.5q-31 -56 -47.5 -85t-42 -70t-41.5 -60t-40 -44.5t-45 -36.5t-49.5 -22.5t-59.5 -15.5t-70 -4q-73 0 -105 8q-17 4 -20 16.5t2 55.5t11.5 56.5t25.5 13.5l24 -3q23 -4 52 -4zM952 1288l-334 -158q-20 -10 -30.5 -5.5t-24.5 34.5q-14 28 -13.5 38t17.5 20l322 198 q20 13 32.5 4.5t32.5 -49.5q21 -43 20 -57t-22 -25z" />
<glyph unicode="&#xfe;" horiz-adv-x="1150" d="M436 1386l-53 -491q109 121 305 121q361 0 361 -393q0 -45 -7 -117q-31 -277 -137 -401.5t-311 -124.5q-210 0 -293 131l-47 -449q-2 -22 -18 -28.5t-68 -6.5t-68 6.5t-14 28.5l182 1724q2 22 17 28.5t67 6.5q53 0 69 -6.5t15 -28.5zM342 498q-6 -58 -6 -107 q0 -141 55.5 -204.5t183.5 -63.5q145 0 209 85t86 298q9 97 9 117q0 130 -53 189.5t-173 59.5q-149 0 -219.5 -87.5t-91.5 -286.5z" />
<glyph unicode="&#xff;" horiz-adv-x="1019" d="M154 -238q49 0 79 7t59.5 34t52.5 62.5t65 109.5l12 23q-47 3 -55 27q-64 193 -132.5 457t-111.5 476q-5 24 11 32.5t71 8.5q53 0 71 -8.5t21 -29.5q76 -435 192 -836q100 196 199.5 429t161.5 407q6 22 23 30t67 8q53 0 68.5 -9t9.5 -34q-61 -185 -193 -472.5 t-266 -526.5q-31 -56 -47.5 -85t-42 -70t-41.5 -60t-40 -44.5t-45 -36.5t-49.5 -22.5t-59.5 -15.5t-70 -4q-73 0 -105 8q-17 4 -20 16.5t2 55.5t11.5 56.5t25.5 13.5l24 -3q23 -4 52 -4zM782 1362q62 0 77.5 -8.5t12.5 -42.5l-12 -119q-3 -32 -20 -41.5t-76 -9.5t-75 10 t-13 41l12 119q3 34 18 42.5t76 8.5zM434 1362q62 0 77.5 -8.5t12.5 -42.5l-12 -119q-3 -32 -20 -41.5t-76 -9.5t-75 10t-13 41l12 119q3 34 18 42.5t76 8.5z" />
<glyph unicode="&#x152;" horiz-adv-x="1818" d="M1731 1200h-570l-45 -428h504q20 0 26.5 -14.5t0.5 -61.5q-4 -48 -12 -61.5t-27 -13.5h-508l-49 -465h571q20 0 26.5 -15.5t0.5 -62.5q-4 -49 -11 -63.5t-26 -14.5h-977q-263 0 -374 114t-111 373q0 74 10 191q13 124 33.5 217.5t53 171.5t77.5 130.5t108 89t143.5 53 t184.5 16.5h983q19 0 24.5 -15t1.5 -63q-4 -49 -11.5 -63.5t-26.5 -14.5zM641 152h233l111 1052h-233q-109 0 -177 -22.5t-117 -84.5t-75 -160t-43 -259q-12 -117 -12 -201q0 -187 69 -256t244 -69z" />
<glyph unicode="&#x153;" horiz-adv-x="1736" d="M1587 438h-612q-9 -166 47 -240.5t192 -74.5q89 0 142.5 34.5t62.5 94.5q5 21 20 28t64 7q53 0 67 -6.5t11 -30.5q-17 -128 -115.5 -199t-257.5 -71q-263 0 -338 167q-51 -87 -136.5 -127t-221.5 -40q-203 0 -296 95t-93 300q0 59 6 123q28 271 138.5 394.5t338.5 123.5 q136 0 216.5 -42t115.5 -130q53 88 138 130t214 42q350 0 350 -350q0 -57 -4 -86l-6 -58q-4 -52 -12.5 -68t-30.5 -16zM520 123q147 0 215 85.5t90 289.5q6 65 6 114q0 139 -54 199.5t-179 60.5q-144 0 -209.5 -85t-87.5 -289q-8 -90 -8 -121q0 -135 53 -194.5t174 -59.5z M1282 872q-130 0 -197 -69.5t-96 -237.5h490l4 53q2 18 2 54q0 98 -45.5 149t-157.5 51z" />
<glyph unicode="&#x178;" horiz-adv-x="1134" d="M981 1323q13 24 28.5 30.5t69.5 6.5q97 0 100 -22q0 -7 -5 -17q-98 -175 -246.5 -417t-261.5 -408l-50 -463q-2 -22 -19 -29.5t-71 -7.5q-55 0 -71.5 7.5t-14.5 29.5l49 463q-76 165 -173.5 406.5t-161.5 418.5q-6 23 11 31t81 8q55 0 70.5 -7t21.5 -30 q127 -386 252 -674q215 340 391 674zM883 1688q62 0 77 -9t11 -43l-13 -118q-3 -32 -19.5 -42t-74.5 -10q-59 0 -76 10.5t-14 41.5l12 118q5 34 20.5 43t76.5 9zM518 1688q62 0 77 -9t11 -43l-12 -118q-3 -32 -19.5 -42t-74.5 -10q-59 0 -76 10.5t-14 41.5l12 118 q5 34 20.5 43t75.5 9z" />
<glyph unicode="&#x2c6;" horiz-adv-x="675" d="M430 1280l-133 -115q-23 -20 -40 -25t-58 -5q-58 0 -52 19q3 7 11 15l217 220q17 20 67 20q51 0 68 -20l172 -220q12 -17 1.5 -25.5t-46.5 -8.5q-42 0 -60 5t-38 25z" />
<glyph unicode="&#x2dc;" horiz-adv-x="675" d="M612 1313l2 24q2 17 13.5 23t46.5 6q42 0 51 -6.5t6 -28.5l-10 -55q-24 -146 -148 -146q-67 0 -131 39l-102 62q-32 18 -49 18q-21 0 -33 -12.5t-16 -48.5l-2 -25q-2 -17 -12.5 -22.5t-45.5 -5.5q-42 0 -51 6t-6 28l8 56q28 145 150 145q63 0 131 -39l102 -61 q30 -19 49 -19q20 0 31.5 13t15.5 49z" />
<glyph unicode="&#x2000;" horiz-adv-x="883" />
<glyph unicode="&#x2001;" horiz-adv-x="1766" />
<glyph unicode="&#x2002;" horiz-adv-x="883" />
<glyph unicode="&#x2003;" horiz-adv-x="1766" />
<glyph unicode="&#x2004;" horiz-adv-x="588" />
<glyph unicode="&#x2005;" horiz-adv-x="441" />
<glyph unicode="&#x2006;" horiz-adv-x="294" />
<glyph unicode="&#x2007;" horiz-adv-x="294" />
<glyph unicode="&#x2008;" horiz-adv-x="220" />
<glyph unicode="&#x2009;" horiz-adv-x="353" />
<glyph unicode="&#x200a;" horiz-adv-x="98" />
<glyph unicode="&#x2010;" horiz-adv-x="819" d="M184 623h492q19 0 23.5 -13t0.5 -57q-5 -46 -10.5 -58t-23.5 -12h-492q-19 0 -23 13t1 57q5 47 9.5 58.5t22.5 11.5z" />
<glyph unicode="&#x2011;" horiz-adv-x="819" d="M184 623h492q19 0 23.5 -13t0.5 -57q-5 -46 -10.5 -58t-23.5 -12h-492q-19 0 -23 13t1 57q5 47 9.5 58.5t22.5 11.5z" />
<glyph unicode="&#x2012;" horiz-adv-x="819" d="M184 623h492q19 0 23.5 -13t0.5 -57q-5 -46 -10.5 -58t-23.5 -12h-492q-19 0 -23 13t1 57q5 47 9.5 58.5t22.5 11.5z" />
<glyph unicode="&#x2013;" horiz-adv-x="1069" d="M176 623h758q19 0 23.5 -13t0.5 -57q-5 -46 -10.5 -58t-23.5 -12h-758q-19 0 -23 13t0 57q5 46 10 58t23 12z" />
<glyph unicode="&#x2014;" horiz-adv-x="1490" d="M172 623h1188q19 0 23.5 -13t0.5 -57q-5 -46 -10.5 -58t-23.5 -12h-1188q-19 0 -23 13t0 57q5 46 10 58t23 12z" />
<glyph unicode="&#x2018;" horiz-adv-x="434" d="M358 1116l-10 -92q-1 -13 -4 -18t-21 -10t-55 -5q-50 0 -63.5 8t-11.5 25l10 98q12 109 64 181.5t157 117.5q14 10 26 2t25 -41q14 -40 12 -50.5t-20 -20.5q-54 -28 -77.5 -73t-31.5 -122z" />
<glyph unicode="&#x2019;" horiz-adv-x="434" d="M246 1296l10 93q1 13 4 18t21 9.5t55 4.5q50 0 64 -7.5t12 -24.5l-11 -99q-12 -109 -64 -181.5t-157 -117.5q-14 -10 -26 -2t-25 41q-14 40 -12 51t20 21q54 28 77.5 72.5t31.5 121.5z" />
<glyph unicode="&#x201a;" horiz-adv-x="434" d="M121 104l10 93q1 13 4 18t21 9.5t55 4.5q50 0 64 -7.5t12 -24.5l-11 -99q-12 -109 -64 -181.5t-157 -117.5q-14 -10 -26 -2t-25 41q-14 40 -12 51t20 21q54 28 77.5 72.5t31.5 121.5z" />
<glyph unicode="&#x201c;" horiz-adv-x="765" d="M358 1116l-10 -92q-1 -13 -4 -18t-21 -10t-55 -5q-50 0 -63.5 8t-11.5 25l10 98q12 109 64 181.5t157 117.5q14 10 26 2t25 -41q14 -40 12 -50.5t-20 -20.5q-54 -28 -77.5 -73t-31.5 -122zM690 1116l-10 -92q-1 -13 -4 -18t-21 -10t-55 -5q-50 0 -64 8t-12 25l11 98 q12 109 64 181.5t157 117.5q14 10 26 2t25 -41q14 -40 12 -50.5t-20 -20.5q-54 -28 -77.5 -73t-31.5 -122z" />
<glyph unicode="&#x201d;" horiz-adv-x="765" d="M246 1296l10 93q1 13 4 18t21 9.5t55 4.5q50 0 64 -7.5t12 -24.5l-11 -99q-12 -109 -64 -181.5t-157 -117.5q-14 -10 -26 -2t-25 41q-14 40 -12 51t20 21q54 28 77.5 72.5t31.5 121.5zM578 1296l10 93q1 13 4 18t21 9.5t55 4.5q50 0 63.5 -7.5t11.5 -24.5l-10 -99 q-12 -109 -64 -181.5t-157 -117.5q-14 -10 -26 -2t-25 41q-14 40 -12 51t20 21q54 28 77.5 72.5t31.5 121.5z" />
<glyph unicode="&#x201e;" horiz-adv-x="765" d="M121 104l10 93q1 13 4 18t21 9.5t55 4.5q50 0 64 -7.5t12 -24.5l-11 -99q-12 -109 -64 -181.5t-157 -117.5q-14 -10 -26 -2t-25 41q-14 40 -12 51t20 21q54 28 77.5 72.5t31.5 121.5zM451 104l10 93q1 13 4 18t21 9.5t55 4.5q50 0 63.5 -7.5t11.5 -24.5l-10 -99 q-12 -109 -64 -181.5t-157 -117.5q-14 -10 -26 -2t-25 41q-14 40 -12 51t20 21q54 28 77.5 72.5t31.5 121.5z" />
<glyph unicode="&#x2022;" horiz-adv-x="712" d="M356 358q-101 0 -135.5 21.5t-34.5 91.5q0 24 7 82q6 56 12.5 86t17.5 55t33 35t51.5 14.5t81.5 4.5q101 0 135.5 -21.5t34.5 -91.5q0 -33 -6 -82q-7 -70 -15 -103.5t-30 -57t-55 -29t-97 -5.5z" />
<glyph unicode="&#x2026;" horiz-adv-x="1499" d="M209 -4q-66 0 -88 10t-19 41l15 135q3 34 23 42.5t89 8.5q70 0 91 -8.5t18 -42.5l-14 -135q-3 -32 -26 -41.5t-89 -9.5zM709 -4q-66 0 -88 10t-19 41l14 135q3 34 23.5 42.5t89.5 8.5q70 0 91 -8.5t18 -42.5l-15 -135q-3 -32 -25.5 -41.5t-88.5 -9.5zM1208 -4 q-66 0 -87.5 9.5t-18.5 41.5l14 135q3 34 23.5 42.5t89.5 8.5q70 0 90.5 -8.5t17.5 -42.5l-14 -135q-3 -32 -26 -41.5t-89 -9.5z" />
<glyph unicode="&#x202f;" horiz-adv-x="353" />
<glyph unicode="&#x2039;" horiz-adv-x="634" d="M139 553q3 33 23 55l217 250q10 13 27 18t69 5q62 0 60 -20q-1 -5 -7 -13l-256 -295l195 -295q6 -10 4 -17.5t-17 -11.5t-44 -4q-52 0 -70.5 5t-26.5 18l-163 250q-14 22 -11 55z" />
<glyph unicode="&#x203a;" horiz-adv-x="634" d="M496 553q-3 -33 -23 -55l-217 -250q-10 -13 -27 -18t-69 -5q-63 0 -61 20q1 6 7 13l256 295l-194 295q-6 10 -4 17.5t17 11.5t44 4q52 0 70.5 -5t26.5 -18l163 -250q14 -22 11 -55z" />
<glyph unicode="&#x205f;" horiz-adv-x="441" />
<glyph unicode="&#x20ac;" horiz-adv-x="1286" d="M735 469h-319v-16q0 -187 65 -256.5t228 -69.5q146 0 209.5 58t76.5 173q2 22 18.5 29.5t69.5 7.5t67.5 -7.5t12.5 -29.5q-13 -124 -61 -205.5t-148 -127t-254 -45.5q-251 0 -354.5 110.5t-103.5 368.5v10h-121q-19 0 -24 12.5t-1 55.5q5 44 10.5 55.5t24.5 11.5h115 l8 74q4 48 8 74h-112q-19 0 -23.5 11.5t0.5 55.5q5 46 10 57t23 11h123q35 178 97 282.5t170 155.5t277 51q223 0 322 -94.5t80 -271.5q-2 -22 -18.5 -29.5t-69.5 -7.5t-67.5 7.5t-12.5 29.5q10 107 -44.5 163t-193.5 56q-164 0 -243.5 -73t-118.5 -269h375q19 0 23.5 -12.5 t0.5 -55.5q-6 -46 -11.5 -56.5t-23.5 -10.5h-387q-4 -26 -8 -74l-8 -74h323q19 0 23 -11.5t0 -55.5q-5 -46 -10 -57t-23 -11z" />
<glyph unicode="&#x2122;" horiz-adv-x="1548" d="M905 1356q41 0 59 -6t23 -21l139 -444l234 444q8 15 25 21t57 6q45 0 64 -5.5t18 -21.5l-76 -706q-1 -17 -10 -21t-43 -4q-38 0 -48.5 4t-9.5 21l62 581l-219 -411q-9 -17 -21 -24t-43 -7q-32 0 -45 7.5t-18 23.5l-133 411l-62 -581q-1 -17 -10.5 -21t-46.5 -4 q-35 0 -44.5 4t-8.5 21l75 706q1 16 19.5 21.5t62.5 5.5zM676 1253h-201l-65 -630q-1 -17 -10.5 -21t-49.5 -4q-38 0 -47 4t-8 21l65 630h-192q-15 0 -19.5 9.5t-1.5 42.5q5 36 8.5 43.5t18.5 7.5h508q16 0 19 -8t-1 -43q-3 -36 -6.5 -44t-17.5 -8z" />
<glyph unicode="&#x25fc;" horiz-adv-x="1003" d="M0 1004h1004v-1004h-1004v1004z" />
</font>
</defs>
</svg>
