<?xml version="1.0" standalone="no"?>
<!DOCTYPE svg PUBLIC "-//W3C//DTD SVG 1.1//EN" "http://www.w3.org/Graphics/SVG/1.1/DTD/svg11.dtd" >
<svg xmlns="http://www.w3.org/2000/svg" xmlns:xlink="http://www.w3.org/1999/xlink" version="1.1">
<metadata></metadata>
<defs>
<font id="frygiaxlight" horiz-adv-x="1114" >
<font-face units-per-em="2048" ascent="1536" descent="-512" />
<missing-glyph horiz-adv-x="475" />
<glyph unicode="&#xfb01;" horiz-adv-x="1077" d="M797 1331q-98 23 -195 23q-159 0 -217.5 -59.5t-58.5 -215.5v-98h528q24 0 31.5 -3t7.5 -13v-951q0 -10 -7.5 -13t-29.5 -3q-24 0 -30.5 3t-6.5 13v901h-491v-901q0 -10 -7 -13t-30 -3q-24 0 -30.5 3t-6.5 13v901h-174q-9 0 -11.5 6t-2.5 25t2.5 26t11.5 7l174 2v102 q0 182 78.5 261t269.5 79q112 0 207 -26q17 -6 10 -39q-4 -19 -9 -24t-13 -3z" />
<glyph unicode="&#xfb02;" horiz-adv-x="1099" d="M326 1079v-98h254q8 0 10 -6t2 -27q0 -22 -1.5 -27.5t-10.5 -5.5h-252v-901q0 -10 -7 -13t-30 -3q-24 0 -30.5 3t-6.5 13v901h-174q-9 0 -11.5 6t-2.5 25t2.5 26t11.5 7l174 2v102q0 182 78.5 261t269.5 79q158 0 270 -32q21 -6 21 -23v-1169q0 -74 22.5 -101.5 t88.5 -27.5h36q9 0 12 -7.5t3 -27.5t-3 -27.5t-12 -7.5h-45q-100 0 -138 43t-38 147v1143q-95 21 -217 21q-159 0 -217.5 -59.5t-58.5 -215.5z" />
<glyph unicode="&#xfb03;" horiz-adv-x="1654" d="M831 981v102q0 182 79 261t270 79q111 0 206 -26q18 -6 11 -39q-4 -19 -9 -24t-14 -3q-98 23 -194 23q-160 0 -218.5 -60t-58.5 -215v-98h529q24 0 31 -3t7 -13v-951q0 -10 -7 -13t-29 -3q-24 0 -30.5 3t-6.5 13v901h-492v-901q0 -10 -7 -13t-30 -3q-24 0 -30.5 3 t-6.5 13v901h-503v-901q0 -10 -7 -13t-30 -3q-24 0 -30.5 3t-6.5 13v901h-174q-9 0 -11.5 6t-2.5 25t2.5 26t11.5 7l174 2v143q0 155 57.5 227t190.5 72q87 0 157 -28q16 -5 3 -37q-10 -29 -25 -23q-58 21 -133 21q-100 0 -139 -54.5t-39 -181.5v-139h505z" />
<glyph unicode="&#xfb04;" horiz-adv-x="1677" d="M831 981v102q0 182 79 261t270 79q158 0 270 -32q20 -6 20 -23v-1169q0 -74 22.5 -101.5t88.5 -27.5h37q9 0 11.5 -7t2.5 -28t-2.5 -28t-11.5 -7h-45q-100 0 -138 43t-38 147v1143q-95 21 -217 21q-160 0 -218.5 -60t-58.5 -215v-98h254q8 0 10 -6t2 -27 q0 -22 -1.5 -27.5t-10.5 -5.5h-252v-901q0 -10 -7 -13t-30 -3q-24 0 -30.5 3t-6.5 13v901h-503v-901q0 -10 -7 -13t-30 -3q-24 0 -30.5 3t-6.5 13v901h-174q-9 0 -11.5 6t-2.5 25t2.5 26t11.5 7l174 2v143q0 155 57.5 227t190.5 72q87 0 157 -28q16 -5 3 -37 q-10 -29 -25 -23q-58 21 -133 21q-100 0 -139 -54.5t-39 -181.5v-139h505z" />
<glyph horiz-adv-x="0" />
<glyph horiz-adv-x="682" />
<glyph unicode=" "  horiz-adv-x="475" />
<glyph unicode="&#x09;" horiz-adv-x="475" />
<glyph unicode="&#xa0;" horiz-adv-x="475" />
<glyph unicode="!" horiz-adv-x="512" d="M254 383q-19 0 -24 3t-5 13l-14 938q-1 12 8.5 16.5t34.5 4.5q27 0 36.5 -4.5t8.5 -16.5l-14 -938q0 -9 -5.5 -12.5t-25.5 -3.5zM256 -2q-28 0 -37.5 4.5t-9.5 17.5v152q0 15 9 19t38 4t38 -4t9 -19v-152q0 -13 -9.5 -17.5t-37.5 -4.5z" />
<glyph unicode="&#x22;" horiz-adv-x="684" d="M162 940l-10 457q0 10 6.5 13t31.5 3t32 -3t7 -13l-10 -457q0 -14 -29 -14q-28 0 -28 14zM465 936l-10 457q0 10 7 13t32 3t31.5 -3t6.5 -13l-10 -457q0 -14 -28 -14q-29 0 -29 14z" />
<glyph unicode="#" horiz-adv-x="1191" d="M666 12l79 379h-395l-80 -379q-1 -9 -7 -11.5t-25 -2.5t-24.5 2.5t-4.5 11.5l80 379h-187q-12 0 -12 29t12 29h199l78 374h-184q-8 0 -10.5 6t-2.5 23q0 11 0.5 16.5t3.5 9t9 3.5h196l80 379q0 9 7 11.5t26 2.5t24 -2.5t4 -11.5l-79 -379h395l80 379q0 9 7 11.5t26 2.5 t24 -2.5t4 -11.5l-80 -379h185q12 0 12 -29t-12 -29h-197l-78 -374h185q12 0 12 -29t-12 -29h-197l-80 -379q-1 -9 -7.5 -11.5t-25.5 -2.5t-24 2.5t-4 11.5zM440 823l-78 -374h396l78 374h-396z" />
<glyph unicode="$" horiz-adv-x="1159" d="M590 -186q-24 0 -30.5 3.5t-6.5 14.5v158q-201 6 -309.5 90.5t-108.5 253.5q0 10 6.5 13t30.5 3q23 0 29 -2.5t6 -13.5q3 -267 350 -279v604q-77 21 -131 40.5t-107.5 50.5t-86 69t-52.5 93.5t-20 125.5q0 165 91 245t302 83v158q0 11 6.5 14.5t30.5 3.5q23 0 30 -3.5 t7 -14.5v-160q180 -11 264 -90.5t84 -245.5q0 -9 -7 -12.5t-30 -3.5q-22 0 -28.5 3.5t-6.5 12.5q-1 135 -67.5 197.5t-214.5 70.5v-579q89 -25 145.5 -46t109 -51t80.5 -67t44 -89.5t16 -123.5q0 -171 -89.5 -258.5t-299.5 -93.5v-156q0 -11 -7 -14.5t-30 -3.5zM942 340 q0 70 -18.5 118t-62 82.5t-97.5 56.5t-143 46v-588q177 4 249 72.5t72 212.5zM233 1040q0 -57 15.5 -100.5t40 -73.5t68.5 -55t88 -41t112 -35v563q-178 -1 -251 -61t-73 -197z" />
<glyph unicode="%" horiz-adv-x="1564" d="M387 1364q132 0 196 -77t64 -234t-64 -234.5t-196 -77.5t-196 77.5t-64 234.5t64 234t196 77zM387 799q101 0 148 61.5t47 192.5t-47 192.5t-148 61.5t-147.5 -61.5t-46.5 -192.5t46.5 -192.5t147.5 -61.5zM1178 614q132 0 196 -77t64 -234t-64 -234t-196 -77t-196 77 t-64 234t64 234t196 77zM1178 49q101 0 147.5 61.5t46.5 192.5t-46.5 192.5t-147.5 61.5t-148 -61.5t-47 -192.5t47 -192.5t148 -61.5zM1221 1341l-809 -1329q-6 -9 -13.5 -11.5t-29.5 -2.5q-12 0 -19 2t-8 5.5t2 8.5l809 1329q10 15 43 15q12 0 19 -2t8 -6t-2 -9z" />
<glyph unicode="&#x26;" horiz-adv-x="1363" d="M1274 68q7 3 12 -3t10 -22q6 -17 5 -22.5t-9 -10.5q-41 -18 -112 -18q-82 0 -129.5 42t-67.5 132q-47 -84 -143.5 -131t-237.5 -47q-229 0 -346 103.5t-117 303.5q0 149 72 246t188 121q-92 18 -146 88.5t-54 196.5q0 321 372 321q193 0 278.5 -74t88.5 -221 q0 -9 -7 -11.5t-30 -2.5t-28 2.5t-7 13.5q-5 115 -69 168t-226 53q-156 0 -225.5 -61.5t-69.5 -190.5q0 -134 59.5 -193.5t192.5 -59.5h121q13 0 13 -35t-13 -35h-119q-146 0 -229.5 -85t-83.5 -239q0 -168 96 -258t289 -90q188 0 280.5 88.5t92.5 229.5v354h-154 q-12 0 -12 35t12 35h422q12 0 12 -35t-12 -35h-196v-361q0 -8 -5 -38q1 -151 35 -209t109 -58q42 0 88 13z" />
<glyph unicode="'" horiz-adv-x="380" d="M162 940l-10 457q0 10 6.5 13t31.5 3t32 -3t7 -13l-10 -457q0 -14 -29 -14q-28 0 -28 14z" />
<glyph unicode="(" horiz-adv-x="671" d="M180 524q0 467 84 684t285 217h35q9 0 11.5 -6t2.5 -24q0 -19 -2.5 -25t-11.5 -6h-33q-163 0 -231 -202t-68 -638t68 -637.5t231 -201.5h33q9 0 11.5 -6t2.5 -25q0 -18 -2.5 -24.5t-11.5 -6.5h-35q-201 0 -285 217t-84 684z" />
<glyph unicode=")" horiz-adv-x="671" d="M492 524q0 -467 -84 -684t-285 -217h-35q-9 0 -11.5 6.5t-2.5 24.5q0 19 2.5 25t11.5 6h33q163 0 231 201.5t68 637.5t-68 638t-231 202h-33q-9 0 -11.5 6t-2.5 25q0 18 2.5 24t11.5 6h35q201 0 285 -217t84 -684z" />
<glyph unicode="*" horiz-adv-x="1040" d="M176 1165l326 -127l-19 353q0 10 7.5 14t29.5 4t29.5 -4t7.5 -14l-18 -353l325 127q10 5 16 -0.5t13 -29.5q7 -22 6 -30t-12 -11l-336 -93l219 -268q11 -14 -20 -37q-18 -15 -26.5 -16t-14.5 10l-189 291l-188 -291q-6 -11 -14.5 -10t-26.5 16q-32 23 -21 37l219 268 l-335 93q-11 3 -12.5 11t5.5 30q7 24 13 29.5t16 0.5z" />
<glyph unicode="+" horiz-adv-x="1093" d="M582 1020v-354h344q9 0 11.5 -6t2.5 -27q0 -19 -2.5 -26t-11.5 -7h-344v-356q0 -9 -7 -13t-28 -4q-35 0 -35 17v356h-346q-8 0 -10 6t-2 27q0 22 1.5 27.5t10.5 5.5h346v354q0 9 7 11.5t28 2.5q22 0 28.5 -2.5t6.5 -11.5z" />
<glyph unicode="," horiz-adv-x="413" d="M246 209q28 0 37 -5t6 -18q-43 -166 -172 -452q-7 -13 -35 -13q-14 0 -21 3.5t-6 11.5q120 310 142 448q1 17 9 21t40 4z" />
<glyph unicode="-" horiz-adv-x="794" d="M154 584h487q9 0 11.5 -7t2.5 -26q0 -21 -2.5 -27t-11.5 -6h-487q-9 0 -12 6.5t-3 26.5q0 19 3 26t12 7z" />
<glyph unicode="." horiz-adv-x="413" d="M207 -2q-28 0 -37.5 4.5t-9.5 17.5v152q0 15 9 19t38 4t38 -4t9 -19v-152q0 -13 -9.5 -17.5t-37.5 -4.5z" />
<glyph unicode="/" horiz-adv-x="724" d="M682 1446l-567 -1598q-3 -10 -10 -13t-33 -3q-21 0 -26.5 3.5t-2.5 12.5l567 1598q3 10 10 13t33 3q21 0 26.5 -3.5t2.5 -12.5z" />
<glyph unicode="0" horiz-adv-x="1146" d="M573 1286q232 0 333.5 -155t101.5 -494t-101.5 -494t-333.5 -155t-333 155t-101 494t101 494t333 155zM573 53q194 0 274.5 137.5t80.5 446.5t-80.5 446.5t-274.5 137.5q-193 0 -273.5 -137t-80.5 -447t80.5 -447t273.5 -137z" />
<glyph unicode="1" horiz-adv-x="765" d="M369 16v1174l-285 -94q-10 -3 -14 4.5t-4 23.5q0 22 2.5 29t11.5 10l346 119q20 7 20 -10v-1256q0 -11 -7 -14.5t-31 -3.5q-23 0 -31 3.5t-8 14.5z" />
<glyph unicode="2" horiz-adv-x="1056" d="M528 1286q377 0 377 -346q0 -76 -20.5 -140t-50 -108.5t-83 -89.5t-96.5 -73t-114 -71q-25 -14 -37 -22q-70 -43 -115.5 -75.5t-92.5 -77.5t-70 -96.5t-23 -110.5v-10h708q9 0 12 -6t3 -25q0 -20 -3 -27.5t-12 -7.5h-772q-10 0 -13 5.5t-3 25.5v32q0 67 24 126t72 110.5 t98.5 91t124.5 86.5q24 16 71.5 45.5t71.5 45t63 44t59.5 49.5t47 53.5t39 64t22 73t9.5 88.5q0 143 -71 210t-226 67q-91 0 -152 -18t-96.5 -55.5t-51 -88t-17.5 -123.5q0 -11 -7 -15t-30 -4q-37 0 -37 17q3 180 93.5 268t297.5 88z" />
<glyph unicode="3" horiz-adv-x="1060" d="M549 625h-139q-13 0 -13 34q0 35 13 35h141q138 0 203 62t65 200q0 134 -72 198.5t-231 64.5q-88 0 -149 -16t-97 -48.5t-52.5 -77t-18.5 -106.5q0 -11 -7 -14t-30 -3q-22 0 -29.5 3t-7.5 12q3 157 97 237t294 80q381 0 381 -328q0 -130 -54 -202t-145 -94 q104 -19 168 -95.5t64 -214.5q0 -181 -103 -272.5t-295 -91.5q-213 0 -315.5 80.5t-105.5 240.5q0 9 7 12t29 3q23 0 30 -3t7 -14q5 -127 85 -189.5t263 -62.5q320 0 320 295q0 141 -79.5 208t-223.5 67z" />
<glyph unicode="4" horiz-adv-x="1089" d="M778 -2q-23 0 -31 3.5t-8 14.5v308h-643q-9 0 -11.5 7t-2.5 27q0 29 10 41l610 863q9 16 60 16q33 0 44 -3.5t11 -14.5v-871h193q9 0 11.5 -6t2.5 -27q0 -19 -2.5 -25.5t-11.5 -6.5h-193v-308q0 -11 -8 -14.5t-31 -3.5zM168 389h573v811z" />
<glyph unicode="5" horiz-adv-x="1015" d="M500 713q-183 0 -297 -66q-15 -6 -39 -6q-35 0 -35 16l47 596q2 11 8 15t27 4h596q14 0 14 -35q0 -21 -2.5 -28t-11.5 -7h-563l-39 -487q116 63 295 63q393 0 393 -391q0 -189 -100 -294t-299 -105q-391 0 -400 321q0 9 6 12t29 3t29 -3t6 -14q5 -125 83.5 -188.5 t246.5 -63.5q167 0 244 83t77 249t-77.5 246t-237.5 80z" />
<glyph unicode="6" horiz-adv-x="1073" d="M846 999q-19 218 -287 218q-85 0 -147 -29.5t-99 -79.5t-59 -129t-29.5 -163t-7.5 -198v-18q43 77 143 123.5t222 46.5q372 0 372 -377q0 -407 -385 -407q-123 0 -207.5 40.5t-133 122.5t-69 192t-20.5 265q0 368 92.5 523t327.5 155q161 0 254 -74t102 -211 q0 -10 -6 -13t-28 -3q-23 0 -29 2.5t-6 13.5zM569 53q91 0 153 24t96 71.5t48.5 106t14.5 138.5q0 160 -71.5 233.5t-229.5 73.5q-126 0 -223 -52t-138 -144q4 -86 16.5 -152t38 -124t64 -95t96.5 -58.5t135 -21.5z" />
<glyph unicode="7" horiz-adv-x="958" d="M244 18q181 521 526 1184h-661q-9 0 -12 7.5t-3 27.5q0 35 15 35h735q8 0 10 -5t2 -24q0 -24 -10 -47q-328 -620 -524 -1180q-3 -11 -11.5 -14.5t-31.5 -3.5t-30.5 4.5t-4.5 15.5z" />
<glyph unicode="8" horiz-adv-x="1105" d="M133 317q0 65 16.5 117t42.5 85.5t67.5 60t81 41.5t93.5 30q-60 18 -103 40t-82.5 59t-60 94t-20.5 133q0 148 95.5 228.5t289.5 80.5t289.5 -80.5t95.5 -228.5q0 -76 -20.5 -133t-60 -94t-83.5 -59t-104 -40q69 -18 116.5 -39.5t93.5 -58.5t69.5 -96t23.5 -140 q0 -160 -107 -244.5t-313 -84.5t-313 84.5t-107 244.5zM895 317q0 40 -7 73.5t-22.5 60t-32 46.5t-45 37t-50 28.5t-59 23.5t-61 18.5t-65.5 16.5q-42 -10 -65.5 -16.5t-61 -18.5t-59 -23.5t-50 -28.5t-45 -37t-32 -46.5t-22.5 -60t-7 -73.5q0 -262 342 -262t342 262z M242 975q0 -60 17.5 -106.5t43.5 -76t70.5 -53t83 -35.5t96.5 -26q57 14 95.5 26t83 35.5t70.5 53t44 76t18 106.5q0 122 -75.5 184t-235.5 62t-235.5 -62t-75.5 -184z" />
<glyph unicode="9" horiz-adv-x="1073" d="M227 272q18 -217 287 -217q85 0 147 29.5t99 79t59 129t29.5 163t7.5 197.5v19q-44 -78 -143 -124t-221 -46q-373 0 -373 377q0 407 385 407q123 0 207.5 -40.5t133 -122.5t69 -192t20.5 -265q0 -368 -92.5 -523t-327.5 -155q-161 0 -254 73.5t-102 210.5q0 11 6.5 14 t28.5 3q23 0 28.5 -3t5.5 -14zM504 1219q-91 0 -153 -24t-96 -71.5t-48 -106t-14 -138.5q0 -160 71.5 -234t229.5 -74q124 0 220.5 52t137.5 145q-6 108 -24.5 185.5t-57 140t-105 94t-161.5 31.5z" />
<glyph unicode=":" horiz-adv-x="454" d="M227 -2q-28 0 -37.5 4.5t-9.5 17.5v152q0 15 9 19t38 4t38 -4t9 -19v-152q0 -13 -9.5 -17.5t-37.5 -4.5zM227 784q-28 0 -37.5 4.5t-9.5 18.5v151q0 15 9 19t38 4t38 -4t9 -19v-151q0 -14 -9.5 -18.5t-37.5 -4.5z" />
<glyph unicode=";" horiz-adv-x="454" d="M227 784q-28 0 -37.5 4.5t-9.5 18.5v151q0 15 9 19t38 4t38 -4t9 -19v-151q0 -14 -9.5 -18.5t-37.5 -4.5zM258 209q28 0 37 -5t6 -18q-43 -166 -172 -452q-7 -13 -35 -13q-13 0 -20 3.5t-6 11.5q119 306 141 448q1 17 9 21t40 4z" />
<glyph unicode="&#x3c;" horiz-adv-x="1093" d="M184 639q0 22 2.5 29t10.5 12l620 481q9 6 16 2.5t17 -20.5q12 -15 13 -22t-7 -13l-604 -469l604 -469q8 -6 7 -13t-13 -24q-11 -16 -17 -19.5t-16 1.5l-620 481q-13 10 -13 43z" />
<glyph unicode="=" horiz-adv-x="1093" d="M174 485h746q9 0 11.5 -6.5t2.5 -27.5q0 -35 -14 -35h-746q-14 0 -14 35q0 21 2.5 27.5t11.5 6.5zM174 852h746q9 0 11.5 -7t2.5 -28q0 -35 -14 -35h-746q-14 0 -14 35q0 21 2.5 28t11.5 7z" />
<glyph unicode="&#x3e;" horiz-adv-x="1093" d="M909 639q0 -23 -2 -30t-10 -13l-621 -481q-10 -5 -15.5 -1.5t-16.5 19.5q-12 17 -13 24t7 13l604 469l-604 469q-8 6 -7 13t13 22q10 17 16.5 20.5t15.5 -2.5l621 -481q8 -5 10 -11.5t2 -29.5z" />
<glyph unicode="?" horiz-adv-x="1093" d="M571 453l-2 -54q0 -10 -5.5 -13t-24.5 -3q-21 0 -26 3t-7 13l-2 54q-2 61 17.5 110t51.5 82t71.5 62.5t79 59.5t72.5 64.5t53.5 85.5t20.5 115q0 136 -77.5 201t-243.5 65q-192 0 -270.5 -74.5t-81.5 -232.5q0 -11 -7 -14.5t-30 -3.5t-30 3.5t-7 12.5q2 191 102 285 t324 94q401 0 401 -336q0 -70 -20.5 -125t-53.5 -91.5t-72.5 -67t-80 -58.5t-74 -59t-55 -76t-23.5 -102zM539 -2q-28 0 -37.5 4.5t-9.5 17.5v152q0 15 9 19t38 4t38 -4t9 -19v-152q0 -13 -9.5 -17.5t-37.5 -4.5z" />
<glyph unicode="@" horiz-adv-x="1773" d="M1124 518v375q-82 35 -209 35q-161 0 -219.5 -77.5t-58.5 -272.5q0 -178 53 -254t187 -76q116 0 181.5 65.5t65.5 204.5zM1167 -137h-237q-129 0 -230 14.5t-188.5 47t-148.5 87.5t-105 135.5t-65 190.5t-21 252q0 199 43.5 337.5t135.5 225.5t228 126.5t328 39.5 q164 0 283.5 -27.5t199.5 -80t128 -137.5t68 -190.5t20 -248.5q0 -185 -28 -288.5t-81.5 -143t-146.5 -39.5q-189 0 -205 194q-31 -84 -102.5 -130t-174.5 -46q-153 0 -227 96t-74 300q0 220 77.5 317.5t270.5 97.5q151 0 261 -45q18 -9 18 -24v-484q0 -219 152 -219 q77 0 117 33.5t58.5 122t18.5 258.5q0 137 -17.5 234t-59.5 174t-115 122.5t-181 68.5t-260 23q-180 0 -303 -33.5t-206.5 -112t-121.5 -205.5t-38 -316q0 -134 18.5 -236.5t58.5 -176t95 -122.5t135.5 -78t172 -41t212.5 -12h237q13 0 13 -30q0 -31 -13 -31z" />
<glyph unicode="A" horiz-adv-x="1138" d="M1030 -2q-23 0 -30.5 3.5t-10.5 14.5q-90 293 -127 410h-586q-78 -243 -126 -410q-3 -11 -10.5 -14.5t-30.5 -3.5q-25 0 -32.5 3.5t-4.5 14.5q85 297 215 679t235 644q3 11 12 15t35 4t35 -4t12 -15q106 -264 236 -646t215 -677q3 -11 -4.5 -14.5t-32.5 -3.5zM569 1270 q-119 -309 -272 -778h545q-129 395 -273 778z" />
<glyph unicode="B" horiz-adv-x="1216" d="M279 662v-592h350q201 0 290 73t89 226q0 158 -98.5 225.5t-299.5 67.5h-331zM621 1286h-342v-555h339q186 0 265.5 68.5t79.5 216.5q0 140 -80 205t-262 65zM236 1356h387q217 0 316 -84t99 -252q0 -145 -59 -220.5t-180 -99.5q286 -44 286 -331q0 -180 -105.5 -274.5 t-344.5 -94.5h-399q-35 0 -35 16v1323q0 17 35 17z" />
<glyph unicode="C" horiz-adv-x="1212" d="M143 680q0 369 112 528.5t384 159.5q218 0 323.5 -95t108.5 -282q0 -9 -7 -12.5t-30 -3.5t-31 3.5t-8 12.5q-5 156 -89.5 230.5t-266.5 74.5q-232 0 -324 -136.5t-92 -479.5q0 -349 91.5 -485t334.5 -136q184 0 266.5 78t85.5 244q0 10 6.5 13t30.5 3t31.5 -3t7.5 -13 q-3 -197 -105.5 -295t-322.5 -98q-145 0 -241.5 38.5t-155.5 125t-84 213.5t-25 315z" />
<glyph unicode="D" horiz-adv-x="1275" d="M279 74h323q128 0 212.5 30.5t138.5 103t77 185.5t23 285t-23 285t-77 185.5t-138.5 103t-212.5 30.5h-323v-1208zM602 0h-366q-35 0 -35 16v1323q0 17 35 17h366q289 0 410 -157.5t121 -520.5t-121 -520.5t-410 -157.5z" />
<glyph unicode="E" d="M948 1282h-669v-551h608q14 0 14 -35q0 -34 -14 -34h-608v-588h677q15 0 15 -37t-15 -37h-720q-35 0 -35 16v1323q0 17 35 17h712q9 0 12 -7.5t3 -29.5t-3 -29.5t-12 -7.5z" />
<glyph unicode="F" horiz-adv-x="1044" d="M279 662v-646q0 -11 -7.5 -14.5t-31.5 -3.5q-23 0 -31 3.5t-8 14.5v1323q0 17 35 17h696q9 0 11.5 -7.5t2.5 -29.5t-2.5 -29.5t-11.5 -7.5h-653v-551h602q9 0 11.5 -6.5t2.5 -28.5q0 -21 -2.5 -27.5t-11.5 -6.5h-602z" />
<glyph unicode="G" horiz-adv-x="1249" d="M1059 645q20 0 27.5 -4t7.5 -14v-209q0 -430 -430 -430q-277 0 -399 161.5t-122 530.5q0 368 112 528t386 160q434 0 440 -362q0 -11 -7 -14t-30 -3t-30.5 3.5t-7.5 13.5q-3 149 -91 220.5t-274 71.5q-234 0 -326 -137.5t-92 -480.5q0 -341 101 -482t340 -141 q184 0 268 88.5t84 276.5v153h-354q-9 0 -12 6.5t-3 28.5q0 20 3 27.5t12 7.5h397z" />
<glyph unicode="H" horiz-adv-x="1302" d="M1063 -2q-23 0 -31 3.5t-8 14.5v643h-745v-643q0 -11 -7.5 -14.5t-31.5 -3.5q-23 0 -31 3.5t-8 14.5v1323q0 11 8 15t31 4q24 0 31.5 -4t7.5 -15v-606h745v606q0 11 8 15t31 4q24 0 31.5 -4t7.5 -15v-1323q0 -11 -7.5 -14.5t-31.5 -3.5z" />
<glyph unicode="I" horiz-adv-x="495" d="M248 -2q-23 0 -31 3.5t-8 14.5v1323q0 11 8 15t31 4q24 0 31.5 -4t7.5 -15v-1323q0 -11 -7.5 -14.5t-31.5 -3.5z" />
<glyph unicode="J" horiz-adv-x="1040" d="M770 461v878q0 11 7.5 15t31.5 4q23 0 31 -4t8 -15v-882q0 -243 -83.5 -356t-283.5 -113q-188 0 -277.5 97.5t-92.5 297.5q0 9 8 12.5t31 3.5q22 0 29 -3.5t7 -12.5q3 -165 72.5 -243.5t222.5 -78.5q164 0 226.5 93.5t62.5 306.5z" />
<glyph unicode="K" horiz-adv-x="1146" d="M1051 1337l-498 -618l516 -701q4 -6 2.5 -10.5t-10 -7t-23.5 -2.5q-44 0 -57 16l-487 666h-215v-664q0 -11 -7.5 -14.5t-31.5 -3.5q-23 0 -31 3.5t-8 14.5v1323q0 11 8 15t31 4q24 0 31.5 -4t7.5 -15v-585h213l469 587q14 17 59 17q15 0 23.5 -3t10 -7.5t-2.5 -10.5z" />
<glyph unicode="L" horiz-adv-x="1003" d="M279 1339v-1265h636q9 0 12 -7.5t3 -29.5q0 -37 -15 -37h-679q-35 0 -35 18v1321q0 11 8 15t31 4q24 0 31.5 -4t7.5 -15z" />
<glyph unicode="M" horiz-adv-x="1581" d="M791 150q-24 0 -31 3.5t-12 14.5l-472 1079v-1231q0 -11 -6.5 -14.5t-29.5 -3.5t-31 3.5t-8 14.5v1323q0 11 12 15t45 4q49 0 57 -19l476 -1091l475 1091q8 19 57 19q33 0 45 -4t12 -15v-1323q0 -11 -8 -14.5t-31 -3.5t-29.5 3.5t-6.5 14.5v1231l-471 -1079 q-5 -11 -12 -14.5t-31 -3.5z" />
<glyph unicode="N" horiz-adv-x="1314" d="M1077 1358q23 0 30 -4t7 -15v-1323q0 -11 -8.5 -14.5t-38.5 -3.5q-25 0 -33 3t-12 13l-746 1219v-1217q0 -11 -6.5 -14.5t-29.5 -3.5t-31 3.5t-8 14.5v1323q0 11 9.5 15t37.5 4q24 0 32.5 -3t14.5 -14l745 -1218v1216q0 11 7 15t30 4z" />
<glyph unicode="O" horiz-adv-x="1282" d="M641 1368q272 0 385 -160t113 -530t-113 -530t-385 -160t-385 160t-113 530t113 530t385 160zM641 57q157 0 247 60.5t130.5 194t40.5 366.5t-40.5 366.5t-130.5 193.5t-247 60t-247 -60t-130.5 -193.5t-40.5 -366.5t40.5 -366.5t130.5 -194t247 -60.5z" />
<glyph unicode="P" horiz-adv-x="1163" d="M582 547h-303v-531q0 -11 -7.5 -14.5t-31.5 -3.5q-23 0 -31 3.5t-8 14.5v1323q0 17 35 17h346q245 0 351.5 -94t106.5 -310t-107 -310.5t-351 -94.5zM279 1282v-661h301q209 0 295 71.5t86 259.5q0 187 -86.5 258.5t-294.5 71.5h-301z" />
<glyph unicode="Q" horiz-adv-x="1282" d="M641 1368q272 0 385 -160t113 -530q0 -348 -100 -509.5t-337 -178.5q56 -86 170 -139t242 -56q9 0 11.5 -7t2.5 -28q0 -22 -2.5 -29t-11.5 -7q-146 0 -286.5 74t-213.5 190q-257 7 -364 167.5t-107 522.5q0 370 113 530t385 160zM641 57q157 0 247 60.5t130.5 194 t40.5 366.5t-40.5 366.5t-130.5 193.5t-247 60t-247 -60t-130.5 -193.5t-40.5 -366.5t40.5 -366.5t130.5 -194t247 -60.5z" />
<glyph unicode="R" horiz-adv-x="1185" d="M559 588h-280v-572q0 -11 -7.5 -14.5t-31.5 -3.5q-23 0 -31 3.5t-8 14.5v1323q0 17 35 17h350q238 0 343 -91t105 -294q0 -297 -270 -361q83 -28 136 -99t91 -189q35 -105 78 -306q1 -5 -0.5 -8.5t-11 -6.5t-27.5 -3q-24 0 -32 3.5t-11 14.5q-23 129 -76 289 q-44 144 -122.5 213.5t-229.5 69.5zM279 1282v-625h305q197 0 284.5 71t87.5 243q0 175 -84.5 243t-287.5 68h-305z" />
<glyph unicode="S" horiz-adv-x="1167" d="M596 59q190 0 271 67.5t81 211.5q0 58 -15.5 102t-41.5 74.5t-74 55.5t-97.5 42t-127.5 37q-60 16 -103 29.5t-91.5 33t-82 40t-65.5 49.5t-51.5 62.5t-31 77.5t-11.5 97q0 168 96 249t313 81q213 0 314 -79.5t102 -258.5q0 -9 -7 -12.5t-30 -3.5t-31 3.5t-8 12.5 q0 145 -80 205.5t-258 60.5q-180 0 -257 -59t-77 -195q0 -34 6 -64t15.5 -53.5t28 -45t35.5 -37t46 -31.5t52.5 -26.5t62 -24t67 -22t75.5 -21.5q76 -21 126 -38t99.5 -40t79.5 -49.5t54 -62.5t34 -82.5t10 -106.5q0 -175 -100 -262.5t-328 -87.5q-219 0 -339.5 84.5 t-121.5 261.5q0 10 6.5 13t30.5 3t31.5 -3t7.5 -13q1 -144 99 -209.5t286 -65.5z" />
<glyph unicode="T" horiz-adv-x="1052" d="M961 1286h-396v-1270q0 -11 -8 -14.5t-31 -3.5q-24 0 -31.5 3.5t-7.5 14.5v1270h-395q-9 0 -11.5 6.5t-2.5 28.5t2.5 28.5t11.5 6.5h869q9 0 11.5 -6.5t2.5 -28.5t-2.5 -28.5t-11.5 -6.5z" />
<glyph unicode="U" horiz-adv-x="1290" d="M645 -12q-244 0 -348 114.5t-104 370.5v866q0 11 7.5 15t30.5 4q24 0 31.5 -4t7.5 -15v-862q0 -219 84.5 -316.5t290.5 -97.5t290.5 97.5t84.5 316.5v862q0 11 7.5 15t31.5 4q23 0 31 -4t8 -15v-866q0 -256 -104.5 -370.5t-348.5 -114.5z" />
<glyph unicode="V" horiz-adv-x="1130" d="M1016 1358q25 0 33.5 -4t5.5 -15q-83 -297 -211 -679.5t-232 -643.5q-5 -11 -13.5 -14.5t-33.5 -3.5t-33.5 3.5t-13.5 14.5q-104 259 -231.5 641.5t-210.5 681.5q-3 11 5.5 15t33.5 4q23 0 30.5 -4t10.5 -15q73 -264 188.5 -614t220.5 -621q107 280 223 629.5t187 605.5 q3 11 10.5 15t30.5 4z" />
<glyph unicode="W" horiz-adv-x="1859" d="M1733 1358q24 0 32.5 -4t6.5 -15q-69 -289 -181.5 -677t-201.5 -646q-5 -11 -13.5 -14.5t-32.5 -3.5q-37 0 -43 18q-192 555 -370 1229q-178 -661 -371 -1229q-6 -18 -43 -18q-24 0 -32 3.5t-13 14.5q-89 258 -201.5 646t-181.5 677q-2 11 6.5 15t32.5 4q22 0 29 -4 t10 -15q57 -249 158 -602.5t194 -642.5q187 572 369 1245q3 11 11 15t32 4t32 -4t11 -15q180 -678 368 -1245q94 292 195 644.5t158 600.5q3 11 10 15t29 4z" />
<glyph unicode="X" horiz-adv-x="1175" d="M672 698l422 -680q5 -11 -2 -15.5t-31 -4.5q-26 0 -36.5 3t-14.5 13l-398 650h-51l-395 -650q-4 -10 -14.5 -13t-36.5 -3q-24 0 -31 4.5t-2 15.5l422 680l-414 639q-5 11 1 16t30 5q26 0 36.5 -3.5t16.5 -13.5l389 -610h49l389 610q6 10 16.5 13.5t37.5 3.5q23 0 29 -5 t1 -16z" />
<glyph unicode="Y" horiz-adv-x="1110" d="M952 1339q3 7 4 9t5 4.5t10.5 3t19.5 0.5q27 0 35.5 -4t3.5 -15q-89 -190 -214 -427.5t-222 -399.5v-494q0 -11 -8 -14.5t-31 -3.5q-24 0 -31.5 3.5t-7.5 14.5v494q-97 162 -222 399.5t-214 427.5q-5 11 3.5 15t35.5 4q23 0 28.5 -3t10.5 -14q173 -379 397 -757 q90 152 201.5 365t195.5 392z" />
<glyph unicode="Z" d="M152 1356h809q10 0 13 -7.5t3 -31.5q0 -22 -8 -35l-760 -1210h766q9 0 12.5 -7t3.5 -28q0 -37 -16 -37h-840q-10 0 -13 7.5t-3 29.5t8 35l760 1212h-735q-9 0 -13 7t-4 28q0 37 17 37z" />
<glyph unicode="[" horiz-adv-x="671" d="M221 -356v1761q0 9 6.5 12.5t24.5 3.5h301q8 0 10 -5.5t2 -24.5q0 -20 -1.5 -25.5t-10.5 -5.5h-262v-1671h266q9 0 10.5 -5.5t1.5 -25.5v-15t-1.5 -8.5t-4 -6t-6.5 -1.5h-305q-31 0 -31 17z" />
<glyph unicode="\" horiz-adv-x="724" d="M610 -152l-567 1598q-3 9 2.5 12.5t26.5 3.5q26 0 33 -3t10 -13l567 -1598q3 -9 -2.5 -12.5t-26.5 -3.5q-26 0 -33 3t-10 13z" />
<glyph unicode="]" horiz-adv-x="671" d="M451 1405v-1761q0 -17 -31 -17h-305q-9 0 -11 6t-2 25q0 20 2 25.5t11 5.5h266v1671h-262q-9 0 -11 5.5t-2 25.5q0 18 2 24t11 6h301q18 0 24.5 -3.5t6.5 -12.5z" />
<glyph unicode="^" horiz-adv-x="1093" d="M547 1360q22 0 28.5 -1.5t10.5 -10.5l360 -641q6 -11 -1 -15t-30 -4q-37 0 -47 17l-321 573l-322 -573q-10 -17 -47 -17q-23 0 -30 4t-1 15l361 641q4 9 10.5 10.5t28.5 1.5z" />
<glyph unicode="_" horiz-adv-x="782" d="M772 -190h-762q-9 0 -11.5 5.5t-2.5 24.5q0 18 2.5 24.5t11.5 6.5h762q9 0 11.5 -6.5t2.5 -24.5q0 -19 -2.5 -24.5t-11.5 -5.5z" />
<glyph unicode="`" horiz-adv-x="638" d="M473 1124l-330 160q-10 5 -10.5 11t10.5 28q11 19 19 23t16 -3l322 -176q11 -6 0 -28q-8 -14 -13 -16.5t-14 1.5z" />
<glyph unicode="a" horiz-adv-x="1048" d="M252 721q0 -10 -6.5 -13t-30.5 -3q-23 0 -29 2.5t-6 13.5q3 272 348 272q186 0 269.5 -74t83.5 -229v-676q0 -10 -6.5 -13t-28.5 -3t-28.5 3t-6.5 13l-2 189q-36 -88 -133.5 -149.5t-231.5 -61.5q-153 0 -237 67t-84 197q0 134 78.5 198t251.5 64h354v168 q0 133 -65.5 189.5t-213.5 56.5q-140 0 -207.5 -51t-68.5 -160zM807 459h-350q-143 0 -201.5 -47t-58.5 -156q0 -203 252 -203q143 0 250.5 92.5t107.5 210.5v103z" />
<glyph unicode="b" horiz-adv-x="1126" d="M258 1403v-606q88 196 346 196q207 0 301 -126t94 -373q0 -252 -94 -380t-301 -128q-261 0 -350 200v-172q0 -10 -6.5 -13t-28.5 -3t-28.5 3t-6.5 13v1389q0 10 6.5 13t30.5 3q23 0 30 -3t7 -13zM258 489q0 -224 78.5 -330t265.5 -106q175 0 248.5 107.5t73.5 333.5 q0 221 -73.5 326.5t-248.5 105.5q-187 0 -265.5 -106.5t-78.5 -330.5z" />
<glyph unicode="c" horiz-adv-x="1009" d="M530 926q-183 0 -255 -104.5t-72 -332.5q0 -114 16 -192t54 -134t104 -82t164 -26q134 0 202 54.5t72 166.5q0 9 7 13t28 4q23 0 30 -4t7 -15q-6 -140 -93 -213t-253 -73q-226 0 -320 121.5t-94 379.5q0 256 92.5 380t310.5 124q164 0 255 -70t96 -196q0 -11 -6.5 -14.5 t-28.5 -3.5t-29.5 3.5t-7.5 12.5q-5 98 -76 149.5t-203 51.5z" />
<glyph unicode="d" horiz-adv-x="1126" d="M872 14l-2 172q-89 -200 -348 -200q-207 0 -301 128t-94 380q0 247 94 373t301 126q258 0 346 -196v606q0 10 7 13t30 3q24 0 30.5 -3t6.5 -13v-1389q0 -10 -6.5 -13t-28.5 -3t-28.5 3t-6.5 13zM868 489q0 224 -78.5 330.5t-265.5 106.5q-175 0 -248 -105.5t-73 -326.5 q0 -226 73 -333.5t248 -107.5q187 0 265.5 106t78.5 330z" />
<glyph unicode="e" horiz-adv-x="1036" d="M897 475h-696q2 -217 81 -319.5t263 -102.5q259 0 278 209q2 11 8 14t27 3q24 0 31 -3.5t6 -13.5q-11 -132 -100.5 -203t-249.5 -71q-218 0 -318 122t-100 375q0 256 98 382t312 126q102 0 176.5 -31t117 -88t62.5 -128.5t20 -161.5v-70q0 -24 -3 -31.5t-13 -7.5z M537 928q-173 0 -250.5 -94.5t-85.5 -296.5h641v49q0 342 -305 342z" />
<glyph unicode="f" horiz-adv-x="692" d="M612 915h-284v-901q0 -10 -7 -13t-30 -3q-24 0 -30.5 3t-6.5 13v901h-174q-9 0 -11.5 6t-2.5 25t2.5 26t11.5 7l174 2v143q0 156 57.5 227.5t192.5 71.5q92 0 162 -28q15 -5 2 -37q-10 -29 -25 -23q-58 21 -137 21q-103 0 -141.5 -54.5t-38.5 -181.5v-139h286 q9 0 11 -6.5t2 -26.5q0 -21 -2 -27t-11 -6z" />
<glyph unicode="g" horiz-adv-x="1060" d="M207 -94q0 -116 78.5 -172t240.5 -56q151 0 224 53.5t73 172.5q0 115 -82.5 170.5t-232.5 70.5q-201 0 -293 105.5t-92 318.5t92 318.5t293 105.5q76 0 137 -18l303 10q9 0 12 -6.5t3 -26.5q0 -19 -3 -25.5t-12 -6.5h-188q133 -106 133 -351q0 -316 -217 -397 q219 -59 219 -268q0 -145 -91 -217t-278 -72q-389 0 -389 291q0 11 6 13.5t29 2.5q22 0 28.5 -3t6.5 -13zM508 211q166 0 238.5 86t72.5 272t-72.5 272.5t-238.5 86.5t-238.5 -86.5t-72.5 -272.5t72.5 -272t238.5 -86z" />
<glyph unicode="h" horiz-adv-x="1126" d="M258 1403v-623q36 85 128.5 149t231.5 64q159 0 247.5 -83t88.5 -251v-645q0 -10 -7 -13t-29 -3q-24 0 -30.5 3t-6.5 13v639q0 141 -69 206t-202 65q-156 0 -254 -96.5t-98 -223.5v-590q0 -10 -7 -13t-30 -3q-24 0 -30.5 3t-6.5 13v1389q0 10 6.5 13t30.5 3q23 0 30 -3 t7 -13z" />
<glyph unicode="i" horiz-adv-x="442" d="M184 14v953q0 9 8 12.5t29 3.5q23 0 30 -3.5t7 -12.5v-953q0 -10 -6.5 -13t-30.5 -3q-23 0 -30 3t-7 13zM221 1364q27 0 33 -4t6 -19v-149q0 -15 -6.5 -19t-32.5 -4t-32.5 4t-6.5 19v149q0 15 6.5 19t32.5 4z" />
<glyph unicode="j" horiz-adv-x="466" d="M-29 -307l27 -5q26 -5 55 -5q61 0 92.5 17.5t47.5 70t16 155.5v1041q0 9 7.5 12.5t29.5 3.5q23 0 30 -3.5t7 -12.5v-1043q0 -94 -12.5 -154.5t-41.5 -93.5t-66.5 -45t-96.5 -12q-72 0 -95 10q-9 3 -10.5 7.5t-1.5 23.5q0 22 1.5 27.5t10.5 5.5zM246 1364q27 0 33 -4 t6 -19v-149q0 -15 -6.5 -19t-32.5 -4t-33.5 4t-7.5 19v149q0 15 7.5 19t33.5 4z" />
<glyph unicode="k" horiz-adv-x="958" d="M258 1403v-842h156l379 402q11 12 22 16t37 4q39 0 36 -13q0 -4 -5 -9l-408 -433l420 -510q14 -17 -18 -20h-13q-28 0 -38 3t-19 15l-393 480h-156v-482q0 -10 -7 -13t-30 -3q-24 0 -30.5 3t-6.5 13v1389q0 10 6.5 13t30.5 3q23 0 30 -3t7 -13z" />
<glyph unicode="l" horiz-adv-x="466" d="M369 70h39q9 0 11.5 -7t2.5 -28t-2.5 -28t-11.5 -7h-46q-101 0 -139.5 43t-38.5 147v1211q0 9 8 12.5t29 3.5q23 0 30 -3.5t7 -12.5v-1202q0 -73 23 -101t88 -28z" />
<glyph unicode="m" horiz-adv-x="1712" d="M254 967l2 -191q31 85 117 151t213 66q118 0 196 -57t101 -164q46 97 132 159t212 62q142 0 227.5 -76t85.5 -245v-658q0 -10 -6.5 -13t-30.5 -3q-23 0 -30 3t-7 13v652q0 128 -61.5 193t-179.5 65q-140 0 -230.5 -92.5t-95.5 -215.5v-602q0 -10 -6.5 -13t-30.5 -3 q-22 0 -29.5 3t-7.5 13v652q0 128 -61.5 193t-179.5 65q-141 0 -233.5 -97t-92.5 -223v-590q0 -10 -7 -13t-30 -3q-24 0 -30.5 3t-6.5 13v953q0 10 6.5 13t28.5 3t28.5 -3t6.5 -13z" />
<glyph unicode="n" horiz-adv-x="1126" d="M254 967l2 -191q35 86 128 151.5t234 65.5q159 0 247.5 -83t88.5 -251v-645q0 -10 -7 -13t-29 -3q-24 0 -30.5 3t-6.5 13v639q0 141 -69 206t-202 65q-156 0 -254 -96.5t-98 -223.5v-590q0 -10 -7 -13t-30 -3q-24 0 -30.5 3t-6.5 13v953q0 10 6.5 13t28.5 3t28.5 -3 t6.5 -13z" />
<glyph unicode="o" horiz-adv-x="1069" d="M535 993q220 0 313.5 -123.5t93.5 -380.5q0 -256 -93 -379.5t-314 -123.5t-314.5 123.5t-93.5 379.5t93.5 380t314.5 124zM535 53q185 0 258 104t73 332t-73 332.5t-258 104.5t-258.5 -104.5t-73.5 -332.5q0 -227 73 -331.5t259 -104.5z" />
<glyph unicode="p" horiz-adv-x="1126" d="M254 967v-176q88 202 350 202q207 0 301 -126t94 -373q0 -252 -94 -380t-301 -128q-257 0 -346 194v-534q0 -10 -7.5 -13.5t-29.5 -3.5q-23 0 -30 3t-7 14v1321q0 10 6.5 13t28.5 3t28.5 -3t6.5 -13zM258 489q0 -224 78.5 -330t265.5 -106q175 0 248.5 107.5t73.5 333.5 q0 221 -73.5 326.5t-248.5 105.5q-187 0 -265.5 -106.5t-78.5 -330.5z" />
<glyph unicode="q" horiz-adv-x="1126" d="M905 -371q-22 0 -29.5 3.5t-7.5 13.5v534q-89 -194 -346 -194q-207 0 -301 128t-94 380q0 247 94 373t301 126q260 0 348 -202l2 176q0 10 6.5 13t28.5 3t28.5 -3t6.5 -13v-1321q0 -11 -7 -14t-30 -3zM868 489q0 224 -78.5 330.5t-265.5 106.5q-175 0 -248 -105.5 t-73 -326.5q0 -226 73 -333.5t248 -107.5q187 0 265.5 106t78.5 330z" />
<glyph unicode="r" horiz-adv-x="696" d="M623 915q-171 0 -268 -93t-97 -242v-566q0 -10 -7 -13t-30 -3q-24 0 -30.5 3t-6.5 13v953q0 10 6.5 13t28.5 3t28.5 -3t6.5 -13l2 -207q29 97 123 163t244 66q10 0 13 -6.5t3 -30.5t-3 -30.5t-13 -6.5z" />
<glyph unicode="s" horiz-adv-x="978" d="M190 262q3 -108 80.5 -158.5t235.5 -50.5q274 0 274 191q0 54 -16.5 90t-56 60.5t-87 39.5t-128.5 31q-92 18 -153 38.5t-108.5 52t-69.5 77.5t-22 110q0 250 336 250q177 0 262.5 -63.5t85.5 -192.5q0 -10 -6.5 -13t-28.5 -3q-23 0 -28.5 2.5t-7.5 13.5 q-2 98 -66.5 144.5t-210.5 46.5q-134 0 -199 -42t-65 -138q0 -51 17 -86t59 -59.5t91.5 -39.5t135.5 -33q74 -16 120.5 -29.5t92.5 -35.5t70.5 -50t39.5 -70.5t15 -100.5q0 -256 -346 -256q-192 0 -289.5 70t-97.5 204q0 11 6 14t29 3q21 0 27.5 -3t8.5 -14z" />
<glyph unicode="t" horiz-adv-x="729" d="M608 915h-295v-655q0 -112 36 -158.5t122 -46.5q75 0 133 25q13 8 25 -23q6 -19 5 -24t-9 -10q-68 -31 -158 -31q-121 0 -174 61t-53 201v661h-160q-9 0 -11.5 6t-2.5 25t2.5 26t11.5 7l160 2v266q0 10 7 13.5t29 3.5t29.5 -4t7.5 -13v-266h295q9 0 12 -7t3 -26 q0 -20 -3 -26.5t-12 -6.5z" />
<glyph unicode="u" d="M860 14l-2 187q-15 -38 -39 -72t-62.5 -67.5t-98.5 -53.5t-134 -20q-163 0 -259.5 86t-96.5 264v629q0 10 7 13t30 3q24 0 30.5 -3t6.5 -13v-623q0 -287 290 -287q79 0 142.5 29t102 76t59 102.5t20.5 112.5v590q0 10 7.5 13t29.5 3q24 0 30.5 -3t6.5 -13v-953 q0 -10 -6.5 -13t-28.5 -3t-28.5 3t-6.5 13z" />
<glyph unicode="v" horiz-adv-x="950" d="M840 983q24 0 30.5 -4.5t3.5 -15.5q-60 -208 -161 -480t-191 -471q-5 -14 -47 -14t-47 14q-90 199 -191 471t-161 480q-3 11 4 15.5t31 4.5q23 0 30.5 -4t10.5 -14q58 -197 148.5 -444.5t174.5 -442.5q83 191 173.5 439t150.5 448q3 10 10.5 14t30.5 4z" />
<glyph unicode="w" horiz-adv-x="1519" d="M1395 983q23 0 29 -3t6 -13q0 -3 -1.5 -7.5t-3 -10.5t-2.5 -9q-159 -545 -301 -928q-3 -9 -11.5 -11.5t-31.5 -2.5q-20 0 -27.5 2.5t-11.5 11.5q-142 414 -280 873q-134 -435 -281 -873q-4 -9 -11.5 -11.5t-27.5 -2.5q-23 0 -31.5 2.5t-11.5 11.5q-142 383 -301 928 q-6 24 -6 27q0 10 6 13t29 3q22 0 30 -4.5t11 -15.5q125 -459 270 -881q138 409 281 883q6 18 43 18t43 -18q108 -369 278 -883q129 366 273 881q3 11 11 15.5t30 4.5z" />
<glyph unicode="x" horiz-adv-x="954" d="M793 16l-299 463h-35l-297 -463q-8 -12 -15.5 -15t-31.5 -3q-16 0 -24.5 2.5t-10 7t1.5 10.5l321 494l-311 449q-6 11 1.5 16.5t31.5 5.5q25 0 32 -3.5t15 -16.5l287 -418h37l286 418q8 13 15 16.5t32 3.5q24 0 31.5 -5.5t1.5 -16.5l-311 -449l321 -494q3 -6 2 -10.5 t-9.5 -7t-24.5 -2.5q-24 0 -31.5 3t-15.5 15z" />
<glyph unicode="y" horiz-adv-x="978" d="M209 -317q38 0 69 12.5t54.5 32t48.5 60.5t44.5 80.5t49.5 108.5l8 23q-18 0 -24 12q-93 197 -203.5 470.5t-179.5 480.5q-3 12 3.5 16t31.5 4q23 0 31 -4t10 -14q67 -206 167.5 -462.5t188.5 -445.5q72 176 165 438t156 470q3 10 10 14t29 4q24 0 31.5 -4.5t3.5 -17.5 q-68 -231 -177.5 -529.5t-184.5 -466.5q-34 -79 -56 -124.5t-52.5 -94t-60 -72.5t-69 -39.5t-88.5 -15.5q-70 0 -113 16q-9 1 -10.5 6t-1.5 25t2.5 25.5t11.5 5.5q3 0 15.5 -3.5t36 -7t53.5 -3.5z" />
<glyph unicode="z" horiz-adv-x="958" d="M823 922l-614 -859h616q9 0 12 -5.5t3 -24.5t-3 -26t-12 -7h-694q-8 0 -10 5t-2 24q0 18 4 24l618 865h-594q-9 0 -10.5 5t-1.5 25v16t1.5 9.5t3.5 6t7 1.5h670q12 0 12 -33q0 -18 -6 -26z" />
<glyph unicode="{" horiz-adv-x="671" d="M57 524q0 19 3 26t12 7h53q72 0 100.5 79.5t28.5 270.5q0 85 0.5 126t5 107.5t14 98.5t27 74t44.5 61t66.5 33t92.5 14h59q8 0 10 -5.5t2 -24.5q0 -20 -1.5 -25.5t-10.5 -5.5h-57q-36 0 -64 -9.5t-46.5 -24t-31.5 -43.5t-20 -56t-10.5 -74t-4.5 -84t-1 -100v-68 q0 -134 -18 -218.5t-44.5 -117t-64.5 -41.5q38 -9 64.5 -41.5t44.5 -117t18 -218.5v-67q0 -63 1 -100t4.5 -84t10.5 -74t20 -56t31.5 -43.5t46.5 -24t64 -9.5h57q9 0 10.5 -5.5t1.5 -25.5v-15t-1.5 -8.5t-4 -6t-6.5 -1.5h-59q-53 0 -92.5 14t-66.5 33t-44.5 61t-27 74 t-14 98.5t-5 107.5t-0.5 126q0 191 -28.5 271t-100.5 80h-53q-9 0 -12 6.5t-3 25.5z" />
<glyph unicode="|" horiz-adv-x="585" d="M330 1403v-1798q0 -10 -7.5 -13.5t-29.5 -3.5q-23 0 -30 3t-7 14v1798q0 10 6.5 13t30.5 3q23 0 30 -3t7 -13z" />
<glyph unicode="}" horiz-adv-x="671" d="M614 524q0 -19 -2.5 -25.5t-11.5 -6.5h-53q-72 0 -100.5 -80t-28.5 -271q0 -85 -0.5 -126t-5 -107.5t-14 -98.5t-27 -74t-44.5 -61t-66.5 -33t-92.5 -14h-59q-9 0 -11 6t-2 25q0 20 2 25.5t11 5.5h57q36 0 64 9.5t46.5 24t31.5 43.5t20 56t10.5 74t4.5 84t1 100v67 q0 134 18 218.5t44.5 117t64.5 41.5q-38 9 -64.5 41.5t-44.5 117t-18 218.5v68q0 63 -1 100t-4.5 84t-10.5 74t-20 56t-31.5 43.5t-46.5 24t-64 9.5h-57q-9 0 -11 5.5t-2 25.5q0 18 2 24t11 6h59q53 0 92.5 -14t66.5 -33t44.5 -61t27 -74t14 -98.5t5 -107.5t0.5 -126 q0 -191 28.5 -270.5t100.5 -79.5h53q9 0 11.5 -7t2.5 -26z" />
<glyph unicode="~" horiz-adv-x="1093" d="M477 647l160 -88q53 -29 94 -29q91 0 133 123q3 9 25 9q15 0 21.5 -5t2.5 -14q-29 -92 -73 -133t-109 -41q-55 0 -115 29l-159 88q-53 30 -95 30q-47 0 -78 -29.5t-53 -92.5q-6 -9 -24 -9q-17 0 -23.5 4t-3.5 13q29 92 73.5 134t108.5 42q58 0 115 -31z" />
<glyph unicode="&#xa1;" horiz-adv-x="512" d="M254 596q20 0 25.5 -3.5t5.5 -12.5l14 -938q1 -12 -8.5 -16.5t-36.5 -4.5q-25 0 -34.5 4.5t-8.5 16.5l14 938q0 10 5 13t24 3zM256 786q-28 0 -37.5 4.5t-9.5 18.5v152q0 14 9 18t38 4t38 -4t9 -18v-152q0 -14 -9.5 -18.5t-37.5 -4.5z" />
<glyph unicode="&#xa2;" horiz-adv-x="1040" d="M557 -2q-22 0 -28.5 3.5t-6.5 12.5v160q-210 10 -296.5 132.5t-86.5 373.5q0 252 88 376.5t295 131.5v155q0 11 6 14t29 3t29 -3t6 -14v-157q150 -7 230 -76t85 -188q0 -11 -6.5 -15t-28.5 -4q-36 0 -36 17q-9 186 -248 198v-876q125 4 187 58.5t67 162.5q0 9 7 12.5 t28 3.5q23 0 29.5 -3.5t6.5 -14.5q-12 -275 -321 -287v-160q0 -9 -6.5 -12.5t-28.5 -3.5zM215 680q0 -223 67 -326t244 -112v878q-175 -7 -243 -112t-68 -328z" />
<glyph unicode="&#xa3;" horiz-adv-x="1187" d="M178 0q-13 -10 -31 23q-12 20 -13 28t7 12q96 63 161 153t65 200q0 46 -11.5 92.5t-24 74.5t-36.5 76h-170q-9 0 -11.5 5.5t-2.5 25.5t2.5 25.5t11.5 5.5h139q-71 146 -71 285q0 179 105 270.5t304 91.5q213 0 307.5 -90t96.5 -274q0 -11 -7 -15t-30 -4t-30 4t-7 15 q-2 152 -77.5 222t-252.5 70q-163 0 -247.5 -69.5t-84.5 -220.5q0 -81 20.5 -146.5t57.5 -138.5h365q9 0 11.5 -5.5t2.5 -25.5t-2.5 -25.5t-11.5 -5.5h-334q63 -130 63 -241q0 -124 -69 -230q179 -129 377 -129q59 0 101.5 15t69 40t42 67t21.5 87.5t7 110.5q0 11 7 14.5 t30 3.5t30 -3.5t7 -14.5q-1 -96 -16.5 -164.5t-51 -120t-97 -77t-150.5 -25.5q-218 0 -418 141q-56 -68 -154 -133z" />
<glyph unicode="&#xa4;" horiz-adv-x="1130" d="M129 305l104 107q-55 104 -55 266t55 266l-104 107q-6 6 -3.5 12.5t15.5 19.5q15 14 21 16.5t12 -3.5l96 -97q95 115 295 115t295 -115l96 97q6 6 12 3.5t21 -16.5q13 -13 15.5 -19.5t-3.5 -12.5l-104 -107q55 -104 55 -266t-55 -266l104 -107q11 -11 -12 -33 q-15 -14 -21 -16t-12 4l-96 94q-95 -112 -295 -112t-295 112l-96 -94q-6 -6 -12 -4t-21 16q-23 22 -12 33zM565 303q166 0 241 92t75 283t-75 283t-241 92t-240.5 -92t-74.5 -283t74.5 -283t240.5 -92z" />
<glyph unicode="&#xa5;" horiz-adv-x="1134" d="M956 428h-350v-412q0 -11 -8 -14.5t-31 -3.5q-24 0 -31.5 3.5t-7.5 14.5v412h-352q-8 0 -10 5.5t-2 25.5t2 25t10 5h350q-65 111 -123 224h-235q-9 0 -11.5 5.5t-2.5 24.5q0 20 2.5 25.5t11.5 5.5h203q-170 323 -281 563q-2 5 -1.5 9t5 6t13.5 3t24 1q23 0 30.5 -3 t12.5 -14q75 -170 187.5 -394t205.5 -390q219 392 394 784q5 11 12 14t31 3q27 0 36 -4t4 -15q-133 -279 -282 -563h205q9 0 11.5 -5.5t2.5 -25.5q0 -19 -2.5 -24.5t-11.5 -5.5h-238q-40 -79 -121 -224h348q9 0 12 -5t3 -25t-3 -25.5t-12 -5.5z" />
<glyph unicode="&#xa6;" horiz-adv-x="585" d="M330 317v-712q0 -10 -7.5 -13.5t-29.5 -3.5q-23 0 -30 3t-7 14v712q0 11 7 14t30 3q22 0 29.5 -3.5t7.5 -13.5zM330 1403v-713q0 -10 -7 -13t-30 -3q-24 0 -30.5 3t-6.5 13v713q0 10 6.5 13t30.5 3q23 0 30 -3t7 -13z" />
<glyph unicode="&#xa7;" horiz-adv-x="1130" d="M244 -84q6 -231 317 -231q150 0 219.5 54t69.5 173t-64 173.5t-223 86.5q-76 15 -130.5 31t-107.5 42.5t-85.5 61.5t-52 87t-19.5 120q0 246 231 303q-93 39 -138.5 106t-45.5 173q0 272 354 272q181 0 265 -71.5t84 -213.5q0 -10 -6.5 -13t-28.5 -3q-24 0 -30.5 3 t-6.5 13q-3 112 -65 166t-212 54q-146 0 -214 -49t-68 -154q0 -119 69.5 -173t241.5 -93q76 -17 123 -31t98.5 -40t79.5 -59t46 -85.5t18 -122.5q0 -253 -226 -306q94 -39 139.5 -105t45.5 -173q0 -293 -361 -293q-195 0 -292 78t-97 217q0 12 6 15t29 3q21 0 28 -3.5 t9 -12.5zM575 768l-57 12q-128 -5 -202 -68.5t-74 -193.5q0 -67 22 -114t71 -78t104 -49.5t145 -38.5q16 -6 34 -9q138 5 204.5 68.5t66.5 196.5q0 57 -13.5 98.5t-36 69t-64.5 48t-86 32.5t-114 26z" />
<glyph unicode="&#xa8;" horiz-adv-x="638" d="M150 1325q26 0 32 -3.5t6 -18.5v-144q0 -14 -6.5 -18t-31.5 -4q-26 0 -32.5 4t-6.5 18v144q0 15 6.5 18.5t32.5 3.5zM489 1325q26 0 32.5 -3.5t6.5 -18.5v-144q0 -14 -6.5 -18t-32.5 -4q-25 0 -31.5 4t-6.5 18v144q0 15 6 18.5t32 3.5z" />
<glyph unicode="&#xa9;" horiz-adv-x="1589" d="M496 680q0 215 69.5 314.5t245.5 99.5q134 0 201.5 -59t70.5 -167q0 -12 -28 -12q-31 0 -31 12q-3 85 -53.5 125.5t-159.5 40.5q-147 0 -199.5 -80.5t-52.5 -273.5q0 -98 10.5 -161t39 -109t79 -66t129.5 -20q112 0 160 44t51 140q0 12 31 12q28 0 28 -12 q-3 -122 -67.5 -183t-202.5 -61q-94 0 -156.5 25t-98.5 79t-51 128.5t-15 183.5zM795 1368q330 0 474 -168t144 -522t-144 -522t-474 -168t-474.5 168.5t-144.5 521.5t144.5 521.5t474.5 168.5zM795 47q155 0 262 37.5t172.5 118t94 195.5t28.5 280t-28.5 280t-94 195.5 t-172.5 118t-262 37.5t-262 -37.5t-172.5 -118t-94 -195.5t-28.5 -280t28.5 -280t94 -195.5t172.5 -118t262 -37.5z" />
<glyph unicode="&#xaa;" horiz-adv-x="692" d="M504 1024h-211q-81 0 -114.5 -26t-33.5 -87q0 -67 37.5 -93.5t108.5 -26.5q86 0 149.5 54.5t63.5 123.5v55zM178 1194q0 -7 -5.5 -9.5t-22.5 -2.5q-20 0 -25.5 2.5t-5.5 11.5q0 88 55.5 129t167.5 41q118 0 172.5 -46.5t54.5 -143.5v-414q0 -10 -6 -13.5t-24 -3.5 q-33 0 -33 17v104q-25 -55 -82 -90t-141 -35q-96 0 -148.5 42t-52.5 126t49.5 125t159.5 41h213v96q0 78 -37.5 109t-124.5 31q-88 0 -126 -26t-38 -91z" />
<glyph unicode="&#xab;" horiz-adv-x="917" d="M131 551q0 11 10 24l211 287q8 10 45 10q19 0 25 -4.5t0 -13.5l-223 -303l223 -303q6 -9 -0.5 -15t-24.5 -6q-37 0 -45 13l-211 284q-10 13 -10 27zM475 551q0 11 10 24l211 287q8 10 45 10q19 0 25 -4.5t0 -13.5l-223 -303l223 -303q6 -9 -0.5 -15t-24.5 -6 q-37 0 -45 13l-211 284q-10 13 -10 27z" />
<glyph unicode="&#xad;" horiz-adv-x="794" d="M154 584h487q9 0 11.5 -7t2.5 -26q0 -21 -2.5 -27t-11.5 -6h-487q-9 0 -12 6.5t-3 26.5q0 19 3 26t12 7z" />
<glyph unicode="&#xae;" horiz-adv-x="1077" d="M539 1368q217 0 312 -109t95 -337t-95 -337.5t-312 -109.5t-312.5 109.5t-95.5 337.5t95.5 337t312.5 109zM539 524q195 0 275.5 95t80.5 303t-80.5 302.5t-275.5 94.5t-276 -94.5t-81 -302.5t81 -303t276 -95zM537 877h-95v-203q0 -10 -26 -10q-25 0 -25 10v497 q0 11 19 11h137q94 0 139 -36t45 -114q0 -114 -108 -145q51 -27 79 -113q15 -49 25 -98q1 -7 -3.5 -10.5t-16.5 -3.5q-22 0 -25 10t-12 44t-15 50q-17 51 -41 79.5t-73 31.5h-4zM442 1135v-211h103q72 0 103.5 25.5t31.5 82.5q0 60 -29 81.5t-106 21.5h-103z" />
<glyph unicode="&#xaf;" horiz-adv-x="638" d="M565 1149h-491q-15 0 -15 31q0 17 3 23.5t12 6.5h491q9 0 12 -6.5t3 -23.5q0 -31 -15 -31z" />
<glyph unicode="&#xb0;" horiz-adv-x="716" d="M358 1368q220 0 220 -223t-220 -223q-219 0 -219 223t219 223zM358 971q88 0 129 41.5t41 132.5t-41 132.5t-129 41.5t-129 -41.5t-41 -132.5t41 -132.5t129 -41.5z" />
<glyph unicode="&#xb1;" horiz-adv-x="1093" d="M582 1044v-354h344q9 0 11.5 -6t2.5 -27q0 -19 -2.5 -25.5t-11.5 -6.5h-344v-357q0 -9 -7 -12.5t-28 -3.5q-35 0 -35 16v357h-346q-8 0 -10 5.5t-2 26.5q0 22 1.5 27.5t10.5 5.5h346v354q0 9 7.5 12t27.5 3q22 0 28.5 -3t6.5 -12zM166 61h760q9 0 11.5 -5t2.5 -25 q0 -19 -2.5 -25t-11.5 -6h-760q-9 0 -10.5 5.5t-1.5 25.5q0 21 1.5 25.5t10.5 4.5z" />
<glyph unicode="&#xb2;" horiz-adv-x="659" d="M549 664h-445q-10 0 -10 24v14q0 72 48 124t145 114q9 6 35.5 21.5t37.5 22.5t32.5 22.5t32 25.5t25.5 27.5t21.5 33t12 37t5.5 44.5q0 74 -38 105.5t-121 31.5q-92 0 -127 -32.5t-37 -107.5q0 -7 -6.5 -9.5t-26.5 -2.5t-26.5 3t-6.5 12q3 194 230 194q225 0 225 -194 q0 -49 -17 -89.5t-53.5 -74.5t-64 -53t-77.5 -49l-15 -9q-41 -25 -62.5 -39.5t-48.5 -37t-40.5 -46.5t-16.5 -51h389q7 0 9.5 -6t2.5 -25q0 -20 -2 -25t-10 -5z" />
<glyph unicode="&#xb3;" horiz-adv-x="659" d="M338 999h-68q-10 0 -10 27t10 27h68q73 0 107 30.5t34 100.5q0 65 -38.5 95t-121.5 30q-92 0 -125 -26.5t-36 -90.5q-2 -8 -7 -10t-24 -2h-15t-8.5 1.5t-6 4t-1.5 6.5q3 87 56 131.5t167 44.5q112 0 169 -47t57 -135q0 -68 -29 -108t-72 -50q117 -22 117 -172 q0 -97 -62 -149t-171 -52q-235 0 -238 181q0 9 6.5 11.5t24.5 2.5q19 0 25 -2.5t6 -11.5q5 -64 42.5 -92.5t133.5 -28.5q166 0 166 143q0 75 -38.5 108t-117.5 33z" />
<glyph unicode="&#xb4;" horiz-adv-x="638" d="M494 1284l-330 -160q-9 -4 -14 -1.5t-13 16.5q-11 22 0 28l322 176q8 7 16 3t19 -23q11 -22 10.5 -28t-10.5 -11z" />
<glyph unicode="&#xb6;" horiz-adv-x="1036" d="M883 1319h-92q-60 0 -83.5 -24t-23.5 -89v-1265q0 -182 -54 -252t-171 -70q-72 0 -99 10q-9 3 -10.5 7.5t-1.5 25.5q0 19 2.5 25t11.5 6q2 0 13 -2t30 -4t41 -2q92 0 130 53.5t38 204.5v581h-82q-118 0 -188 17.5t-115 68t-61 131t-16 215.5t16 216t61 131t115 68t188 18 h351q14 0 14 -35q0 -21 -2.5 -28t-11.5 -7z" />
<glyph unicode="&#xb7;" horiz-adv-x="413" d="M207 446q-28 0 -37.5 4.5t-9.5 18.5v152q0 14 9 18t38 4t38 -4t9 -18v-152q0 -14 -9.5 -18.5t-37.5 -4.5z" />
<glyph unicode="&#xb8;" horiz-adv-x="638" d="M336 -121h63q90 0 132 -26t42 -103t-42 -103t-132 -26h-176q-8 0 -10 5.5t-2 21.5v12.5t1.5 7.5t3.5 5t7 1h172q27 0 41 1t31.5 4.5t25.5 11.5t13.5 22.5t5.5 36.5q0 28 -7 44.5t-25 23.5t-34.5 8.5t-50.5 1.5h-106q-14 0 -20 6t-3 16l51 152q4 10 27 10q14 0 21 -3 t4 -11z" />
<glyph unicode="&#xb9;" horiz-adv-x="659" d="M526 664h-381q-10 0 -10 30q0 31 10 31h164v561l-157 -45q-3 -1 -6 2t-5 10t-2 17q0 27 11 30l206 64q19 6 19 -10v-629h151q11 0 11 -31q0 -30 -11 -30z" />
<glyph unicode="&#xba;" horiz-adv-x="724" d="M160 1053q0 -133 45.5 -195.5t154.5 -62.5q111 0 156 62t45 196q0 132 -45 194t-156 62q-109 0 -154.5 -62t-45.5 -194zM96 1053q0 158 61 235.5t203 77.5t203.5 -77.5t61.5 -235.5q0 -159 -61.5 -237.5t-203.5 -78.5t-203 78.5t-61 237.5z" />
<glyph unicode="&#xbb;" horiz-adv-x="917" d="M442 551q0 -14 -10 -27l-211 -284q-8 -13 -45 -13q-18 0 -24.5 6t0.5 15l223 303l-223 303q-6 9 -0.5 13.5t24.5 4.5q37 0 45 -10l211 -287q10 -13 10 -24zM786 551q0 -14 -10 -27l-211 -284q-8 -13 -45 -13q-18 0 -24.5 6t0.5 15l223 303l-223 303q-6 9 -0.5 13.5 t24.5 4.5q38 0 45 -10l211 -287q10 -13 10 -24z" />
<glyph unicode="&#xbc;" horiz-adv-x="1617" d="M1401 -2q-19 0 -26 2.5t-7 11.5v162h-354q-13 0 -13 31q0 24 9 33l338 454q10 13 45 13q23 0 32 -2.5t9 -12.5v-459h98q7 0 9.5 -5.5t2.5 -22.5q0 -19 -2 -24t-10 -5h-98v-162q0 -9 -7 -11.5t-26 -2.5zM1278 1339l-750 -1327q-7 -14 -41 -14q-18 0 -23.5 5t-0.5 13 l749 1327q8 15 41 15q18 0 24 -5.5t1 -13.5zM526 664h-381q-10 0 -10 30q0 31 10 31h164v561l-157 -45q-3 -1 -6 2t-5 10t-2 17q0 27 11 30l206 64q19 6 19 -10v-629h151q11 0 11 -31q0 -30 -11 -30zM1075 231h295v398z" />
<glyph unicode="&#xbd;" horiz-adv-x="1617" d="M1507 0h-444q-10 0 -10 25v14q0 72 47.5 123.5t144.5 113.5q8 5 40.5 24.5t43 26.5t36 25.5t35 31.5t24 33.5t19.5 43.5t5 49q0 74 -38.5 105.5t-121.5 31.5q-92 0 -127 -32t-37 -107q0 -8 -6 -10t-26 -2q-21 0 -27 2.5t-6 11.5q3 195 229 195q225 0 225 -195 q0 -49 -16 -88.5t-54.5 -74.5t-62 -51.5t-78.5 -49.5q-5 -3 -8.5 -5.5t-7.5 -4.5q-40 -24 -62 -39t-49 -38t-40.5 -47t-16.5 -51h389q8 0 10.5 -6t2.5 -24q0 -20 -2.5 -25.5t-10.5 -5.5zM1229 1339l-750 -1327q-7 -14 -41 -14q-18 0 -23.5 5t-0.5 13l749 1327q7 15 41 15 q18 0 24 -5.5t1 -13.5zM526 664h-381q-10 0 -10 30q0 31 10 31h164v561l-157 -45q-3 -1 -6 2t-5 10t-2 17q0 27 11 30l206 64q19 6 19 -10v-629h151q11 0 11 -31q0 -30 -11 -30z" />
<glyph unicode="&#xbe;" horiz-adv-x="1617" d="M1401 -2q-19 0 -26 2.5t-7 11.5v162h-354q-13 0 -13 31q0 24 9 33l338 454q10 13 45 13q23 0 32 -2.5t9 -12.5v-459h98q7 0 9.5 -5.5t2.5 -22.5q0 -19 -2 -24t-10 -5h-98v-162q0 -9 -7 -11.5t-26 -2.5zM338 999h-68q-10 0 -10 27t10 27h68q73 0 107 30.5t34 100.5 q0 65 -38.5 95t-121.5 30q-92 0 -125 -26.5t-36 -90.5q-2 -8 -7 -10t-24 -2h-15t-8.5 1.5t-6 4t-1.5 6.5q3 87 56 131.5t167 44.5q112 0 169 -47t57 -135q0 -68 -29 -108t-72 -50q117 -22 117 -172q0 -97 -62 -149t-171 -52q-235 0 -238 181q0 9 6.5 11.5t24.5 2.5 q19 0 25 -2.5t6 -11.5q5 -64 42.5 -92.5t133.5 -28.5q166 0 166 143q0 75 -38.5 108t-117.5 33zM1257 1339l-749 -1327q-7 -14 -41 -14q-18 0 -24 5t-1 13l750 1327q8 15 41 15q18 0 23.5 -5.5t0.5 -13.5zM1075 231h295v398z" />
<glyph unicode="&#xbf;" horiz-adv-x="1069" d="M506 528l2 54q0 9 6 12.5t25 3.5q14 0 20.5 -2t8.5 -4.5t3 -9.5l2 -54q2 -61 -17.5 -110t-51.5 -82t-71.5 -62.5t-79 -59.5t-72.5 -64.5t-53.5 -85.5t-20.5 -115q0 -136 77.5 -201t243.5 -65q192 0 271 74.5t82 232.5q0 11 7 14.5t30 3.5q22 0 29 -3.5t7 -12.5 q-2 -191 -102 -285t-324 -94q-401 0 -401 336q0 70 20.5 125t53 91.5t72.5 67t80 58.5t73.5 59t55.5 76t24 102zM539 786q-28 0 -37.5 4.5t-9.5 18.5v152q0 14 9 18t38 4t38 -4t9 -18v-152q0 -14 -9.5 -18.5t-37.5 -4.5z" />
<glyph unicode="&#xc0;" horiz-adv-x="1138" d="M1030 -2q-23 0 -30.5 3.5t-10.5 14.5q-90 293 -127 410h-586q-78 -243 -126 -410q-3 -11 -10.5 -14.5t-30.5 -3.5q-25 0 -32.5 3.5t-4.5 14.5q85 297 215 679t235 644q3 11 12 15t35 4t35 -4t12 -15q106 -264 236 -646t215 -677q3 -11 -4.5 -14.5t-32.5 -3.5zM569 1270 q-119 -309 -272 -778h545q-129 395 -273 778zM567 1481l-344 164q-10 5 -10.5 10.5t10.5 27.5q10 21 17.5 24.5t15.5 -3.5l336 -180q11 -7 0 -29q-6 -12 -11 -15t-14 1z" />
<glyph unicode="&#xc1;" horiz-adv-x="1138" d="M1030 -2q-23 0 -30.5 3.5t-10.5 14.5q-90 293 -127 410h-586q-78 -243 -126 -410q-3 -11 -10.5 -14.5t-30.5 -3.5q-25 0 -32.5 3.5t-4.5 14.5q85 297 215 679t235 644q3 11 12 15t35 4t35 -4t12 -15q106 -264 236 -646t215 -677q3 -11 -4.5 -14.5t-32.5 -3.5zM569 1270 q-119 -309 -272 -778h545q-129 395 -273 778zM915 1645l-344 -164q-9 -4 -13.5 -1.5t-10.5 15.5q-11 22 0 29l336 180q8 7 15 3.5t17 -24.5q11 -22 10.5 -27.5t-10.5 -10.5z" />
<glyph unicode="&#xc2;" horiz-adv-x="1138" d="M1030 -2q-23 0 -30.5 3.5t-10.5 14.5q-90 293 -127 410h-586q-78 -243 -126 -410q-3 -11 -10.5 -14.5t-30.5 -3.5q-25 0 -32.5 3.5t-4.5 14.5q85 297 215 679t235 644q3 11 12 15t35 4t35 -4t12 -15q106 -264 236 -646t215 -677q3 -11 -4.5 -14.5t-32.5 -3.5zM569 1270 q-119 -309 -272 -778h545q-129 395 -273 778zM571 1647l-172 -158q-12 -10 -41 -10q-26 0 -24 11q0 3 4 7l199 207q9 12 34 12q24 0 33 -12l197 -207q13 -13 -10 -17l-11 -1q-31 0 -41 10z" />
<glyph unicode="&#xc3;" horiz-adv-x="1138" d="M1030 -2q-23 0 -30.5 3.5t-10.5 14.5q-90 293 -127 410h-586q-78 -243 -126 -410q-3 -11 -10.5 -14.5t-30.5 -3.5q-25 0 -32.5 3.5t-4.5 14.5q85 297 215 679t235 644q3 11 12 15t35 4t35 -4t12 -15q106 -264 236 -646t215 -677q3 -11 -4.5 -14.5t-32.5 -3.5zM569 1270 q-119 -309 -272 -778h545q-129 395 -273 778zM797 1622v29q0 9 5.5 11.5t20.5 2.5q19 0 23 -3t4 -13l-2 -41q-5 -129 -119 -129q-59 0 -123 39l-108 67q-49 29 -86 29q-35 0 -51.5 -19t-16.5 -69v-31q0 -12 -27 -12q-20 0 -24 2.5t-4 11.5l2 43q5 129 121 129q25 0 50.5 -7 t36.5 -12.5t36 -19.5l106 -67q4 -2 13.5 -7.5t13.5 -7.5t12.5 -6t14.5 -5.5t14.5 -3t17.5 -1.5q36 0 53 20t17 70z" />
<glyph unicode="&#xc4;" horiz-adv-x="1138" d="M1030 -2q-23 0 -30.5 3.5t-10.5 14.5q-90 293 -127 410h-586q-78 -243 -126 -410q-3 -11 -10.5 -14.5t-30.5 -3.5q-25 0 -32.5 3.5t-4.5 14.5q85 297 215 679t235 644q3 11 12 15t35 4t35 -4t12 -15q106 -264 236 -646t215 -677q3 -11 -4.5 -14.5t-32.5 -3.5zM569 1270 q-119 -309 -272 -778h545q-129 395 -273 778zM748 1677q26 0 32 -3.5t6 -18.5v-146q0 -14 -6.5 -18t-31.5 -4q-26 0 -32.5 4t-6.5 18v146q0 15 6.5 18.5t32.5 3.5zM391 1677q26 0 32.5 -3.5t6.5 -18.5v-146q0 -14 -6.5 -18t-32.5 -4t-32.5 4t-6.5 18v146q0 15 6.5 18.5 t32.5 3.5z" />
<glyph unicode="&#xc5;" horiz-adv-x="1138" d="M1030 -2q-23 0 -30.5 3.5t-10.5 14.5q-90 293 -127 410h-586q-78 -243 -126 -410q-3 -11 -10.5 -14.5t-30.5 -3.5q-25 0 -32.5 3.5t-4.5 14.5q83 289 210 664.5t232 640.5q-108 23 -108 149q0 156 163 156q164 0 164 -156q0 -126 -110 -149q105 -262 232.5 -637.5 t211.5 -667.5q3 -11 -4.5 -14.5t-32.5 -3.5zM569 1270q-119 -309 -272 -778h545q-129 395 -273 778zM569 1362q62 0 88.5 26.5t26.5 81.5q0 56 -27 83.5t-88 27.5t-87.5 -27.5t-26.5 -83.5t26.5 -82t87.5 -26z" />
<glyph unicode="&#xc6;" horiz-adv-x="1736" d="M1571 1282h-619v-551h557q15 0 15 -35q0 -34 -15 -34h-557v-588h627q14 0 14 -37t-14 -37h-670q-35 0 -35 16v394h-559q-85 -167 -192 -394q-5 -11 -13.5 -14.5t-29.5 -3.5q-25 0 -33 4t-4 14q140 297 340.5 678.5t355.5 644.5q7 10 16.5 13.5t35.5 3.5h780 q9 0 11.5 -7.5t2.5 -29.5t-2.5 -29.5t-11.5 -7.5zM788 1286q-198 -344 -438 -809h524v809h-86z" />
<glyph unicode="&#xc7;" horiz-adv-x="1212" d="M582 -127h63q89 0 131.5 -27t42.5 -104t-42.5 -104t-131.5 -27h-176q-8 0 -10 5.5t-2 21.5v12.5t1.5 7.5t3.5 5t7 1h172q64 0 90.5 13.5t26.5 64.5q0 52 -26.5 66t-90.5 14h-106q-14 0 -20 6t-3 16l47 148q-230 23 -323 183.5t-93 504.5q0 369 112 528.5t384 159.5 q218 0 323.5 -95t108.5 -282q0 -9 -7 -12.5t-30 -3.5t-31 3.5t-8 12.5q-5 156 -89.5 230.5t-266.5 74.5q-232 0 -324 -136.5t-92 -479.5q0 -349 91.5 -485t334.5 -136q184 0 266.5 78t85.5 244q0 10 6.5 13t30.5 3t31.5 -3t7.5 -13q-3 -197 -105.5 -295t-322.5 -98h-39z" />
<glyph unicode="&#xc8;" d="M948 1282h-669v-551h608q14 0 14 -35q0 -34 -14 -34h-608v-588h677q15 0 15 -37t-15 -37h-720q-35 0 -35 16v1323q0 17 35 17h712q9 0 12 -7.5t3 -29.5t-3 -29.5t-12 -7.5zM664 1481l-345 164q-10 5 -10.5 10.5t10.5 27.5q10 21 17.5 24.5t15.5 -3.5l336 -180 q11 -7 0 -29q-6 -13 -10.5 -15.5t-13.5 1.5z" />
<glyph unicode="&#xc9;" d="M948 1282h-669v-551h608q14 0 14 -35q0 -34 -14 -34h-608v-588h677q15 0 15 -37t-15 -37h-720q-35 0 -35 16v1323q0 17 35 17h712q9 0 12 -7.5t3 -29.5t-3 -29.5t-12 -7.5zM928 1645l-344 -164q-9 -4 -14 -1t-11 15q-11 22 0 29l336 180q8 7 15.5 3.5t17.5 -24.5 q11 -22 10.5 -27.5t-10.5 -10.5z" />
<glyph unicode="&#xca;" d="M948 1282h-669v-551h608q14 0 14 -35q0 -34 -14 -34h-608v-588h677q15 0 15 -37t-15 -37h-720q-35 0 -35 16v1323q0 17 35 17h712q9 0 12 -7.5t3 -29.5t-3 -29.5t-12 -7.5zM584 1647l-172 -158q-13 -10 -41 -10q-27 0 -25 11q0 3 4 7l199 207q9 12 35 12q23 0 32 -12 l197 -207q13 -13 -8 -17l-12 -1q-31 0 -41 10z" />
<glyph unicode="&#xcb;" d="M948 1282h-669v-551h608q14 0 14 -35q0 -34 -14 -34h-608v-588h677q15 0 15 -37t-15 -37h-720q-35 0 -35 16v1323q0 17 35 17h712q9 0 12 -7.5t3 -29.5t-3 -29.5t-12 -7.5zM408 1677q26 0 32 -3.5t6 -18.5v-146q0 -14 -6.5 -18t-31.5 -4q-26 0 -32.5 4t-6.5 18v146 q0 15 6.5 18.5t32.5 3.5zM764 1677q26 0 32.5 -3.5t6.5 -18.5v-146q0 -14 -6.5 -18t-32.5 -4t-32.5 4t-6.5 18v146q0 15 6.5 18.5t32.5 3.5z" />
<glyph unicode="&#xcc;" horiz-adv-x="495" d="M248 -2q-23 0 -31 3.5t-8 14.5v1323q0 11 8 15t31 4q24 0 31.5 -4t7.5 -15v-1323q0 -11 -7.5 -14.5t-31.5 -3.5zM246 1481l-344 164q-10 5 -10.5 10.5t10.5 27.5q10 21 17 24.5t15 -3.5l336 -180q11 -7 0 -29q-6 -13 -10.5 -15.5t-13.5 1.5z" />
<glyph unicode="&#xcd;" horiz-adv-x="495" d="M248 -2q-23 0 -31 3.5t-8 14.5v1323q0 11 8 15t31 4q24 0 31.5 -4t7.5 -15v-1323q0 -11 -7.5 -14.5t-31.5 -3.5zM592 1645l-344 -164q-9 -4 -14 -1t-11 15q-11 22 0 29l336 180q8 7 15.5 3.5t17.5 -24.5q11 -22 10.5 -27.5t-10.5 -10.5z" />
<glyph unicode="&#xce;" horiz-adv-x="495" d="M248 -2q-23 0 -31 3.5t-8 14.5v1323q0 11 8 15t31 4q24 0 31.5 -4t7.5 -15v-1323q0 -11 -7.5 -14.5t-31.5 -3.5zM250 1647l-172 -158q-12 -10 -41 -10q-27 0 -25 11q0 3 4 7l199 207q9 12 35 12q24 0 33 -12l196 -207q13 -13 -8 -17q-5 -1 -12 -1q-31 0 -41 10z" />
<glyph unicode="&#xcf;" horiz-adv-x="495" d="M248 -2q-23 0 -31 3.5t-8 14.5v1323q0 11 8 15t31 4q24 0 31.5 -4t7.5 -15v-1323q0 -11 -7.5 -14.5t-31.5 -3.5zM70 1677q26 0 32.5 -3.5t6.5 -18.5v-146q0 -14 -6.5 -18t-32.5 -4t-32.5 4t-6.5 18v146q0 15 6.5 18.5t32.5 3.5zM426 1677q26 0 32.5 -3.5t6.5 -18.5v-146 q0 -14 -6.5 -18t-32.5 -4t-32.5 4t-6.5 18v146q0 15 6.5 18.5t32.5 3.5z" />
<glyph unicode="&#xd0;" horiz-adv-x="1280" d="M606 0h-366q-35 0 -35 16v598h-137q-9 0 -12 5.5t-3 23.5q0 19 3 24t12 5h137v667q0 17 35 17h366q289 0 410 -157.5t121 -520.5t-121 -520.5t-410 -157.5zM283 74h323q128 0 212.5 30.5t138.5 103t77 185.5t23 285t-23 285t-77 185.5t-138.5 103t-212.5 30.5h-323v-610 h340q9 0 10.5 -4.5t1.5 -24.5t-1.5 -24.5t-10.5 -4.5h-340v-540z" />
<glyph unicode="&#xd1;" horiz-adv-x="1314" d="M1077 1358q23 0 30 -4t7 -15v-1323q0 -11 -8.5 -14.5t-38.5 -3.5q-25 0 -33 3t-12 13l-746 1219v-1217q0 -11 -6.5 -14.5t-29.5 -3.5t-31 3.5t-8 14.5v1323q0 11 9.5 15t37.5 4q24 0 32.5 -3t14.5 -14l745 -1218v1216q0 11 7 15t30 4zM885 1622v29q0 9 5.5 11.5t20.5 2.5 q19 0 23 -3t4 -13l-2 -41q-5 -129 -119 -129q-59 0 -123 39l-108 67q-49 29 -86 29q-35 0 -51.5 -19t-16.5 -69v-31q0 -12 -26 -12q-20 0 -24.5 2.5t-4.5 11.5l2 43q5 129 121 129q25 0 50.5 -7t36.5 -12.5t36 -19.5l106 -67q4 -2 13.5 -7.5t13.5 -7.5t12.5 -6t14.5 -5.5 t14.5 -3t17.5 -1.5q36 0 53 20t17 70z" />
<glyph unicode="&#xd2;" horiz-adv-x="1282" d="M641 1368q272 0 385 -160t113 -530t-113 -530t-385 -160t-385 160t-113 530t113 530t385 160zM641 57q157 0 247 60.5t130.5 194t40.5 366.5t-40.5 366.5t-130.5 193.5t-247 60t-247 -60t-130.5 -193.5t-40.5 -366.5t40.5 -366.5t130.5 -194t247 -60.5zM639 1481 l-344 164q-10 5 -10.5 10.5t10.5 27.5q10 21 17.5 24.5t15.5 -3.5l336 -180q11 -7 0 -29q-6 -12 -11 -15t-14 1z" />
<glyph unicode="&#xd3;" horiz-adv-x="1282" d="M641 1368q272 0 385 -160t113 -530t-113 -530t-385 -160t-385 160t-113 530t113 530t385 160zM641 57q157 0 247 60.5t130.5 194t40.5 366.5t-40.5 366.5t-130.5 193.5t-247 60t-247 -60t-130.5 -193.5t-40.5 -366.5t40.5 -366.5t130.5 -194t247 -60.5zM987 1645 l-344 -164q-9 -4 -14 -1t-11 15q-11 22 0 29l336 180q8 7 15.5 3.5t17.5 -24.5q11 -22 10.5 -27.5t-10.5 -10.5z" />
<glyph unicode="&#xd4;" horiz-adv-x="1282" d="M641 1368q272 0 385 -160t113 -530t-113 -530t-385 -160t-385 160t-113 530t113 530t385 160zM641 57q157 0 247 60.5t130.5 194t40.5 366.5t-40.5 366.5t-130.5 193.5t-247 60t-247 -60t-130.5 -193.5t-40.5 -366.5t40.5 -366.5t130.5 -194t247 -60.5zM643 1647 l-172 -158q-13 -10 -41 -10q-26 0 -24 11q0 3 4 7l198 207q9 12 35 12q24 0 33 -12l196 -207q13 -13 -8 -17l-12 -1q-31 0 -41 10z" />
<glyph unicode="&#xd5;" horiz-adv-x="1282" d="M641 1368q272 0 385 -160t113 -530t-113 -530t-385 -160t-385 160t-113 530t113 530t385 160zM641 57q157 0 247 60.5t130.5 194t40.5 366.5t-40.5 366.5t-130.5 193.5t-247 60t-247 -60t-130.5 -193.5t-40.5 -366.5t40.5 -366.5t130.5 -194t247 -60.5zM868 1622v29 q0 9 5.5 11.5t21.5 2.5q19 0 23 -3t4 -13l-2 -41q-5 -129 -119 -129q-59 0 -123 39l-109 67q-49 29 -86 29q-34 0 -50.5 -19t-16.5 -69v-31q0 -12 -27 -12q-20 0 -24.5 2.5t-4.5 11.5l2 43q5 129 121 129q25 0 50.5 -7t36.5 -12.5t36 -19.5l107 -67q4 -2 13.5 -7.5 t13.5 -7.5t12.5 -6t14.5 -5.5t14.5 -3t17.5 -1.5q36 0 52.5 20t16.5 70z" />
<glyph unicode="&#xd6;" horiz-adv-x="1282" d="M641 1368q272 0 385 -160t113 -530t-113 -530t-385 -160t-385 160t-113 530t113 530t385 160zM641 57q157 0 247 60.5t130.5 194t40.5 366.5t-40.5 366.5t-130.5 193.5t-247 60t-247 -60t-130.5 -193.5t-40.5 -366.5t40.5 -366.5t130.5 -194t247 -60.5zM463 1677 q26 0 32.5 -3.5t6.5 -18.5v-146q0 -14 -6.5 -18t-32.5 -4t-32.5 4t-6.5 18v146q0 15 6.5 18.5t32.5 3.5zM819 1677q26 0 32.5 -3.5t6.5 -18.5v-146q0 -14 -6.5 -18t-32.5 -4t-32.5 4t-6.5 18v146q0 15 6.5 18.5t32.5 3.5z" />
<glyph unicode="&#xd7;" horiz-adv-x="1093" d="M842 291l-297 295l-295 -295q-10 -10 -35 12q-13 15 -15.5 22t3.5 13l295 295l-295 297q-5 8 -2 13t16 20q16 14 21 16.5t12 -2.5l295 -297l297 297q7 5 11.5 3t20.5 -17q14 -16 16.5 -20.5t-1.5 -12.5l-297 -297l297 -295q6 -6 3.5 -13t-15.5 -22q-25 -22 -35 -12z" />
<glyph unicode="&#xd8;" horiz-adv-x="1290" d="M645 1368q215 0 330 -100l88 141q6 9 13.5 11.5t27.5 2.5q13 0 20 -2t8 -5.5t-2 -8.5l-114 -182q127 -157 127 -547q0 -370 -113 -530t-385 -160q-218 0 -330 98l-88 -143q-7 -15 -41 -15q-12 0 -19 2t-8.5 6t1.5 9l114 184q-127 157 -127 549q0 370 113 530t385 160z M227 678q0 -339 90 -479l619 1001q-92 98 -291 98q-157 0 -247 -60t-130.5 -193.5t-40.5 -366.5zM645 57q157 0 247 60.5t130.5 194t40.5 366.5q0 337 -90 477l-619 -1001q94 -97 291 -97z" />
<glyph unicode="&#xd9;" horiz-adv-x="1290" d="M645 -12q-244 0 -348 114.5t-104 370.5v866q0 11 7.5 15t30.5 4q24 0 31.5 -4t7.5 -15v-862q0 -219 84.5 -316.5t290.5 -97.5t290.5 97.5t84.5 316.5v862q0 11 7.5 15t31.5 4q23 0 31 -4t8 -15v-866q0 -256 -104.5 -370.5t-348.5 -114.5zM664 1481l-345 164 q-10 5 -10.5 10.5t10.5 27.5q10 21 17.5 24.5t15.5 -3.5l336 -180q11 -7 0 -29q-6 -13 -10.5 -15.5t-13.5 1.5z" />
<glyph unicode="&#xda;" horiz-adv-x="1290" d="M645 -12q-244 0 -348 114.5t-104 370.5v866q0 11 7.5 15t30.5 4q24 0 31.5 -4t7.5 -15v-862q0 -219 84.5 -316.5t290.5 -97.5t290.5 97.5t84.5 316.5v862q0 11 7.5 15t31.5 4q23 0 31 -4t8 -15v-866q0 -256 -104.5 -370.5t-348.5 -114.5zM971 1645l-344 -164 q-9 -4 -14 -1t-11 15q-11 22 0 29l336 180q8 7 15.5 3.5t17.5 -24.5q11 -22 10.5 -27.5t-10.5 -10.5z" />
<glyph unicode="&#xdb;" horiz-adv-x="1290" d="M645 -12q-244 0 -348 114.5t-104 370.5v866q0 11 7.5 15t30.5 4q24 0 31.5 -4t7.5 -15v-862q0 -219 84.5 -316.5t290.5 -97.5t290.5 97.5t84.5 316.5v862q0 11 7.5 15t31.5 4q23 0 31 -4t8 -15v-866q0 -256 -104.5 -370.5t-348.5 -114.5zM647 1647l-172 -158 q-13 -10 -41 -10q-26 0 -24 11q0 3 4 7l198 207q9 12 35 12q24 0 33 -12l197 -207q13 -13 -10 -17l-11 -1q-31 0 -41 10z" />
<glyph unicode="&#xdc;" horiz-adv-x="1290" d="M645 -12q-244 0 -348 114.5t-104 370.5v866q0 11 7.5 15t30.5 4q24 0 31.5 -4t7.5 -15v-862q0 -219 84.5 -316.5t290.5 -97.5t290.5 97.5t84.5 316.5v862q0 11 7.5 15t31.5 4q23 0 31 -4t8 -15v-866q0 -256 -104.5 -370.5t-348.5 -114.5zM467 1677q26 0 32.5 -3.5 t6.5 -18.5v-146q0 -14 -6.5 -18t-32.5 -4t-32.5 4t-6.5 18v146q0 15 6.5 18.5t32.5 3.5zM823 1677q26 0 32.5 -3.5t6.5 -18.5v-146q0 -14 -6.5 -18t-32.5 -4t-32.5 4t-6.5 18v146q0 15 6.5 18.5t32.5 3.5z" />
<glyph unicode="&#xdd;" horiz-adv-x="1110" d="M952 1339q3 7 4 9t5 4.5t10.5 3t19.5 0.5q27 0 35.5 -4t3.5 -15q-89 -190 -214 -427.5t-222 -399.5v-494q0 -11 -8 -14.5t-31 -3.5q-24 0 -31.5 3.5t-7.5 14.5v494q-97 162 -222 399.5t-214 427.5q-5 11 3.5 15t35.5 4q23 0 28.5 -3t10.5 -14q173 -379 397 -757 q90 152 201.5 365t195.5 392zM901 1645l-344 -164q-9 -4 -14 -1t-11 15q-11 22 0 29l336 180q8 7 15.5 3.5t17.5 -24.5q11 -22 10.5 -27.5t-10.5 -10.5z" />
<glyph unicode="&#xde;" horiz-adv-x="1134" d="M571 373h-292v-357q0 -11 -7.5 -14.5t-31.5 -3.5q-23 0 -31 3.5t-8 14.5v1323q0 11 8 15t31 4q24 0 31.5 -4t7.5 -15v-221h292q235 0 338 -85.5t103 -287.5t-102.5 -287t-338.5 -85zM279 1044v-598h288q200 0 282.5 65t82.5 234q0 171 -82 235t-283 64h-288z" />
<glyph unicode="&#xdf;" horiz-adv-x="1273" d="M616 758q-7 0 -9.5 6.5t-2.5 26.5t2 26t10 6q182 11 268.5 73t86.5 210q0 250 -340 250q-189 0 -277 -72t-88 -229v-1041q0 -10 -7.5 -13t-31.5 -3q-22 0 -28 3t-6 13v1045q0 182 106.5 273t331.5 91q202 0 307.5 -80t105.5 -235q0 -158 -92 -234.5t-250 -82.5 q99 -9 174 -33.5t136.5 -73t94 -131t32.5 -197.5q0 -368 -330 -368q-305 0 -305 264q0 11 6.5 14.5t28.5 3.5q21 0 26.5 -3t7.5 -13q3 -103 57.5 -154t178.5 -51q136 0 195 76t59 231q0 87 -18.5 151t-51.5 107t-90 72t-124 45t-163 27z" />
<glyph unicode="&#xe0;" horiz-adv-x="1048" d="M252 721q0 -10 -6.5 -13t-30.5 -3q-23 0 -29 2.5t-6 13.5q3 272 348 272q186 0 269.5 -74t83.5 -229v-676q0 -10 -6.5 -13t-28.5 -3t-28.5 3t-6.5 13l-2 189q-36 -88 -133.5 -149.5t-231.5 -61.5q-153 0 -237 67t-84 197q0 134 78.5 198t251.5 64h354v168 q0 133 -65.5 189.5t-213.5 56.5q-140 0 -207.5 -51t-68.5 -160zM807 459h-350q-143 0 -201.5 -47t-58.5 -156q0 -203 252 -203q143 0 250.5 92.5t107.5 210.5v103zM555 1124l-330 160q-10 5 -10.5 11t10.5 28q11 19 19 23t16 -3l322 -176q11 -6 0 -28q-8 -14 -13 -16.5 t-14 1.5z" />
<glyph unicode="&#xe1;" horiz-adv-x="1048" d="M252 721q0 -10 -6.5 -13t-30.5 -3q-23 0 -29 2.5t-6 13.5q3 272 348 272q186 0 269.5 -74t83.5 -229v-676q0 -10 -6.5 -13t-28.5 -3t-28.5 3t-6.5 13l-2 189q-36 -88 -133.5 -149.5t-231.5 -61.5q-153 0 -237 67t-84 197q0 134 78.5 198t251.5 64h354v168 q0 133 -65.5 189.5t-213.5 56.5q-140 0 -207.5 -51t-68.5 -160zM807 459h-350q-143 0 -201.5 -47t-58.5 -156q0 -203 252 -203q143 0 250.5 92.5t107.5 210.5v103zM819 1284l-330 -160q-9 -4 -13.5 -1.5t-12.5 16.5q-11 22 0 28l321 176q8 7 16 3t19 -23q11 -22 10.5 -28 t-10.5 -11z" />
<glyph unicode="&#xe2;" horiz-adv-x="1048" d="M252 721q0 -10 -6.5 -13t-30.5 -3q-23 0 -29 2.5t-6 13.5q3 272 348 272q186 0 269.5 -74t83.5 -229v-676q0 -10 -6.5 -13t-28.5 -3t-28.5 3t-6.5 13l-2 189q-36 -88 -133.5 -149.5t-231.5 -61.5q-153 0 -237 67t-84 197q0 134 78.5 198t251.5 64h354v168 q0 133 -65.5 189.5t-213.5 56.5q-140 0 -207.5 -51t-68.5 -160zM807 459h-350q-143 0 -201.5 -47t-58.5 -156q0 -203 252 -203q143 0 250.5 92.5t107.5 210.5v103zM528 1298l-166 -157q-18 -15 -45 -15q-16 0 -20 7t4 14l195 209q7 10 32 10q24 0 31 -10l193 -209 q8 -7 3.5 -14t-20.5 -7q-27 0 -45 15z" />
<glyph unicode="&#xe3;" horiz-adv-x="1048" d="M252 721q0 -10 -6.5 -13t-30.5 -3q-23 0 -29 2.5t-6 13.5q3 272 348 272q186 0 269.5 -74t83.5 -229v-676q0 -10 -6.5 -13t-28.5 -3t-28.5 3t-6.5 13l-2 189q-36 -88 -133.5 -149.5t-231.5 -61.5q-153 0 -237 67t-84 197q0 134 78.5 198t251.5 64h354v168 q0 133 -65.5 189.5t-213.5 56.5q-140 0 -207.5 -51t-68.5 -160zM807 459h-350q-143 0 -201.5 -47t-58.5 -156q0 -203 252 -203q143 0 250.5 92.5t107.5 210.5v103zM741 1268v28q0 15 27 15q19 0 23 -3.5t4 -13.5l-2 -41q-5 -129 -113 -129q-55 0 -119 39l-110 68 q-49 29 -82 29q-31 0 -46.5 -19.5t-15.5 -69.5v-30q0 -13 -26 -13q-19 0 -24 3t-5 12l2 43q5 129 115 129q8 0 16 -0.5t16 -2.5t13.5 -3t14 -4.5t12 -4.5t13 -6t11 -5.5t11.5 -6.5l11 -6l109 -68q3 -1 13.5 -7.5t13.5 -8t12 -5.5t14 -5t13 -2.5t16 -1.5q32 0 47.5 20 t15.5 70z" />
<glyph unicode="&#xe4;" horiz-adv-x="1048" d="M252 721q0 -10 -6.5 -13t-30.5 -3q-23 0 -29 2.5t-6 13.5q3 272 348 272q186 0 269.5 -74t83.5 -229v-676q0 -10 -6.5 -13t-28.5 -3t-28.5 3t-6.5 13l-2 189q-36 -88 -133.5 -149.5t-231.5 -61.5q-153 0 -237 67t-84 197q0 134 78.5 198t251.5 64h354v168 q0 133 -65.5 189.5t-213.5 56.5q-140 0 -207.5 -51t-68.5 -160zM807 459h-350q-143 0 -201.5 -47t-58.5 -156q0 -203 252 -203q143 0 250.5 92.5t107.5 210.5v103zM352 1325q26 0 32.5 -3.5t6.5 -18.5v-144q0 -14 -6.5 -18t-32.5 -4t-32.5 4t-6.5 18v144q0 15 6.5 18.5 t32.5 3.5zM696 1325q26 0 32.5 -3.5t6.5 -18.5v-144q0 -14 -6.5 -18t-32.5 -4t-32.5 4t-6.5 18v144q0 15 6.5 18.5t32.5 3.5z" />
<glyph unicode="&#xe5;" horiz-adv-x="1048" d="M252 721q0 -10 -6.5 -13t-30.5 -3q-23 0 -29 2.5t-6 13.5q3 272 348 272q186 0 269.5 -74t83.5 -229v-676q0 -10 -6.5 -13t-28.5 -3t-28.5 3t-6.5 13l-2 189q-36 -88 -133.5 -149.5t-231.5 -61.5q-153 0 -237 67t-84 197q0 134 78.5 198t251.5 64h354v168 q0 133 -65.5 189.5t-213.5 56.5q-140 0 -207.5 -51t-68.5 -160zM807 459h-350q-143 0 -201.5 -47t-58.5 -156q0 -203 252 -203q143 0 250.5 92.5t107.5 210.5v103zM532 1434q164 0 164 -156q0 -154 -164 -154q-163 0 -163 154q0 156 163 156zM532 1169q62 0 88.5 26.5 t26.5 82.5t-27 83.5t-88 27.5t-87.5 -27.5t-26.5 -83.5t26.5 -82.5t87.5 -26.5z" />
<glyph unicode="&#xe6;" horiz-adv-x="1630" d="M1491 465h-637q3 -210 76.5 -311t236.5 -101q110 0 175.5 53.5t74.5 151.5q2 11 7.5 13.5t27.5 2.5q24 0 31 -3t6 -13q-10 -127 -96.5 -198.5t-225.5 -71.5q-138 0 -223 58t-123 177q-42 -114 -145.5 -172.5t-231.5 -58.5q-146 0 -233.5 69.5t-87.5 198.5q0 134 79 200 t251 66h329v160q0 129 -64 187.5t-202 58.5q-133 0 -198 -51.5t-66 -159.5q0 -10 -6.5 -13t-30.5 -3q-23 0 -29 2.5t-6 13.5q3 272 336 272q144 0 221 -50.5t101 -151.5q84 202 327 202q90 0 157.5 -31t107 -88t58.5 -129t19 -161v-80q0 -24 -3 -31.5t-13 -7.5zM782 467 h-325q-142 0 -201 -49t-59 -158q0 -106 70.5 -156.5t181.5 -50.5q139 0 236 86.5t97 216.5v111zM1165 928q-156 0 -230.5 -99t-80.5 -303h582v60q0 157 -65.5 249.5t-205.5 92.5z" />
<glyph unicode="&#xe7;" horiz-adv-x="1009" d="M463 -121h63q90 0 132 -26t42 -103t-42 -103t-132 -26h-176q-8 0 -10 5.5t-2 21.5v12.5t1.5 7.5t3.5 5t7 1h172q27 0 41 1t31.5 4.5t25.5 11.5t13.5 22.5t5.5 36.5q0 28 -7 44.5t-25 23.5t-34.5 8.5t-50.5 1.5h-106q-14 0 -20 6t-3 16l49 146q-172 24 -243.5 143.5 t-71.5 349.5q0 256 92.5 380t310.5 124q164 0 255 -70t96 -196q0 -11 -6.5 -14.5t-28.5 -3.5t-29.5 3.5t-7.5 12.5q-5 98 -76 149.5t-203 51.5q-183 0 -255 -104.5t-72 -332.5q0 -114 16 -192t54 -134t104 -82t164 -26q134 0 202 54.5t72 166.5q0 9 7 13t28 4q23 0 30 -4 t7 -15q-6 -140 -93 -213t-253 -73q-33 0 -47 2z" />
<glyph unicode="&#xe8;" horiz-adv-x="1036" d="M897 475h-696q2 -217 81 -319.5t263 -102.5q259 0 278 209q2 11 8 14t27 3q24 0 31 -3.5t6 -13.5q-11 -132 -100.5 -203t-249.5 -71q-218 0 -318 122t-100 375q0 256 98 382t312 126q102 0 176.5 -31t117 -88t62.5 -128.5t20 -161.5v-70q0 -24 -3 -31.5t-13 -7.5z M537 928q-173 0 -250.5 -94.5t-85.5 -296.5h641v49q0 342 -305 342zM561 1124l-330 160q-10 5 -10.5 11t10.5 28q11 19 19 23t16 -3l322 -176q11 -6 0 -28q-8 -14 -13 -16.5t-14 1.5z" />
<glyph unicode="&#xe9;" horiz-adv-x="1036" d="M897 475h-696q2 -217 81 -319.5t263 -102.5q259 0 278 209q2 11 8 14t27 3q24 0 31 -3.5t6 -13.5q-11 -132 -100.5 -203t-249.5 -71q-218 0 -318 122t-100 375q0 256 98 382t312 126q102 0 176.5 -31t117 -88t62.5 -128.5t20 -161.5v-70q0 -24 -3 -31.5t-13 -7.5z M537 928q-173 0 -250.5 -94.5t-85.5 -296.5h641v49q0 342 -305 342zM846 1284l-330 -160q-9 -4 -14 -1.5t-13 16.5q-11 22 0 28l322 176q8 7 16 3t19 -23q11 -22 10.5 -28t-10.5 -11z" />
<glyph unicode="&#xea;" horiz-adv-x="1036" d="M897 475h-696q2 -217 81 -319.5t263 -102.5q259 0 278 209q2 11 8 14t27 3q24 0 31 -3.5t6 -13.5q-11 -132 -100.5 -203t-249.5 -71q-218 0 -318 122t-100 375q0 256 98 382t312 126q102 0 176.5 -31t117 -88t62.5 -128.5t20 -161.5v-70q0 -24 -3 -31.5t-13 -7.5z M537 928q-173 0 -250.5 -94.5t-85.5 -296.5h641v49q0 342 -305 342zM532 1298l-165 -157q-18 -15 -45 -15q-16 0 -20.5 7t3.5 14l195 209q8 10 32 10t31 -10l193 -209q8 -7 3.5 -14t-20.5 -7q-27 0 -45 15z" />
<glyph unicode="&#xeb;" horiz-adv-x="1036" d="M897 475h-696q2 -217 81 -319.5t263 -102.5q259 0 278 209q2 11 8 14t27 3q24 0 31 -3.5t6 -13.5q-11 -132 -100.5 -203t-249.5 -71q-218 0 -318 122t-100 375q0 256 98 382t312 126q102 0 176.5 -31t117 -88t62.5 -128.5t20 -161.5v-70q0 -24 -3 -31.5t-13 -7.5z M537 928q-173 0 -250.5 -94.5t-85.5 -296.5h641v49q0 342 -305 342zM360 1325q26 0 32.5 -3.5t6.5 -18.5v-144q0 -14 -6.5 -18t-32.5 -4q-25 0 -31.5 4t-6.5 18v144q0 15 6 18.5t32 3.5zM702 1325q26 0 32.5 -3.5t6.5 -18.5v-144q0 -14 -6.5 -18t-32.5 -4q-25 0 -31.5 4 t-6.5 18v144q0 15 6 18.5t32 3.5z" />
<glyph unicode="&#xec;" horiz-adv-x="450" d="M188 14v953q0 9 8 12.5t29 3.5q23 0 30 -3.5t7 -12.5v-953q0 -10 -6.5 -13t-30.5 -3q-23 0 -30 3t-7 13zM217 1124l-330 160q-10 5 -10.5 11t10.5 28q11 19 19 23t16 -3l322 -176q11 -6 0 -28q-8 -14 -13 -16.5t-14 1.5z" />
<glyph unicode="&#xed;" horiz-adv-x="450" d="M188 14v953q0 9 8 12.5t29 3.5q23 0 30 -3.5t7 -12.5v-953q0 -10 -6.5 -13t-30.5 -3q-23 0 -30 3t-7 13zM565 1284l-329 -160q-9 -4 -14 -1.5t-13 16.5q-11 22 0 28l321 176q8 7 16 3t19 -23q11 -22 10.5 -28t-10.5 -11z" />
<glyph unicode="&#xee;" horiz-adv-x="450" d="M188 14v953q0 9 8 12.5t29 3.5q23 0 30 -3.5t7 -12.5v-953q0 -10 -6.5 -13t-30.5 -3q-23 0 -30 3t-7 13zM227 1298l-166 -157q-18 -15 -45 -15q-16 0 -20 7t4 14l195 209q7 10 32 10q23 0 31 -10l193 -209q8 -7 3.5 -14t-20.5 -7q-27 0 -45 15z" />
<glyph unicode="&#xef;" horiz-adv-x="450" d="M188 14v953q0 9 8 12.5t29 3.5q23 0 30 -3.5t7 -12.5v-953q0 -10 -6.5 -13t-30.5 -3q-23 0 -30 3t-7 13zM55 1325q26 0 32.5 -3.5t6.5 -18.5v-144q0 -14 -6.5 -18t-32.5 -4t-32.5 4t-6.5 18v144q0 15 6.5 18.5t32.5 3.5zM395 1325q26 0 32.5 -3.5t6.5 -18.5v-144 q0 -14 -6.5 -18t-32.5 -4t-32.5 4t-6.5 18v144q0 15 6.5 18.5t32.5 3.5z" />
<glyph unicode="&#xf0;" horiz-adv-x="1077" d="M961 1309l-148 -64q71 -103 102 -280t31 -451t-94 -400t-315 -126t-315.5 123.5t-94.5 377.5q0 256 94.5 380t315.5 124q135 0 220.5 -50.5t116.5 -145.5q-13 148 -41 251t-83 171l-224 -95q-11 -4 -15.5 -0.5t-10.5 19.5q-8 19 -7.5 25t9.5 10l205 86q-102 88 -283 88 q-10 0 -13 5.5t-3 24.5q0 20 3.5 25.5t12.5 5.5q232 0 350 -121l162 68q11 3 16 -0.5t11 -18.5q8 -19 7.5 -24t-9.5 -8zM537 55q185 0 259 104t74 330q0 227 -74.5 332t-258.5 105q-185 0 -259.5 -105t-74.5 -332q0 -226 74.5 -330t259.5 -104z" />
<glyph unicode="&#xf1;" horiz-adv-x="1126" d="M254 967l2 -191q35 86 128 151.5t234 65.5q159 0 247.5 -83t88.5 -251v-645q0 -10 -7 -13t-29 -3q-24 0 -30.5 3t-6.5 13v639q0 141 -69 206t-202 65q-156 0 -254 -96.5t-98 -223.5v-590q0 -10 -7 -13t-30 -3q-24 0 -30.5 3t-6.5 13v953q0 10 6.5 13t28.5 3t28.5 -3 t6.5 -13zM782 1268v28q0 15 27 15q19 0 23 -3.5t4 -13.5l-2 -41q-5 -129 -113 -129q-55 0 -119 39l-110 68q-49 29 -82 29q-31 0 -46.5 -19.5t-15.5 -69.5v-30q0 -13 -26 -13q-19 0 -24 3t-5 12l2 43q5 129 115 129q8 0 16 -0.5t16 -2.5t13.5 -3t14 -4.5t12 -4.5t13 -6 t11 -5.5t12.5 -6.5l10 -6l109 -68q3 -1 13.5 -7.5t13.5 -8t12 -5.5t14 -5t13 -2.5t16 -1.5q32 0 47.5 20t15.5 70z" />
<glyph unicode="&#xf2;" horiz-adv-x="1069" d="M535 993q220 0 313.5 -123.5t93.5 -380.5q0 -256 -93 -379.5t-314 -123.5t-314.5 123.5t-93.5 379.5t93.5 380t314.5 124zM535 53q185 0 258 104t73 332t-73 332.5t-258 104.5t-258.5 -104.5t-73.5 -332.5q0 -227 73 -331.5t259 -104.5zM545 1124l-330 160 q-10 5 -10.5 11t10.5 28q11 19 19 23t16 -3l321 -176q11 -6 0 -28q-8 -14 -12.5 -16.5t-13.5 1.5z" />
<glyph unicode="&#xf3;" horiz-adv-x="1069" d="M535 993q220 0 313.5 -123.5t93.5 -380.5q0 -256 -93 -379.5t-314 -123.5t-314.5 123.5t-93.5 379.5t93.5 380t314.5 124zM535 53q185 0 258 104t73 332t-73 332.5t-258 104.5t-258.5 -104.5t-73.5 -332.5q0 -227 73 -331.5t259 -104.5zM854 1284l-330 -160 q-9 -4 -13.5 -1.5t-12.5 16.5q-11 22 0 28l321 176q8 7 16 3t19 -23q11 -22 10.5 -28t-10.5 -11z" />
<glyph unicode="&#xf4;" horiz-adv-x="1069" d="M535 993q220 0 313.5 -123.5t93.5 -380.5q0 -256 -93 -379.5t-314 -123.5t-314.5 123.5t-93.5 379.5t93.5 380t314.5 124zM535 53q185 0 258 104t73 332t-73 332.5t-258 104.5t-258.5 -104.5t-73.5 -332.5q0 -227 73 -331.5t259 -104.5zM537 1298l-166 -157 q-18 -15 -45 -15q-16 0 -20.5 7t3.5 14l195 209q8 10 33 10q23 0 30 -10l193 -209q8 -7 3.5 -14t-20.5 -7q-27 0 -45 15z" />
<glyph unicode="&#xf5;" horiz-adv-x="1069" d="M535 993q220 0 313.5 -123.5t93.5 -380.5q0 -256 -93 -379.5t-314 -123.5t-314.5 123.5t-93.5 379.5t93.5 380t314.5 124zM535 53q185 0 258 104t73 332t-73 332.5t-258 104.5t-258.5 -104.5t-73.5 -332.5q0 -227 73 -331.5t259 -104.5zM754 1268v28q0 9 5.5 12t20.5 3 q19 0 23 -3.5t4 -13.5l-2 -41q-5 -129 -113 -129q-55 0 -119 39l-110 68q-49 29 -82 29q-31 0 -46.5 -19.5t-15.5 -69.5v-30q0 -13 -26 -13q-19 0 -24 3t-5 12l2 43q5 129 115 129q24 0 48.5 -7t34.5 -12.5t36 -19.5l108 -68q3 -1 13.5 -7.5t13.5 -8t12 -5.5t14 -5t13 -2.5 t16 -1.5q33 0 48.5 20t15.5 70z" />
<glyph unicode="&#xf6;" horiz-adv-x="1069" d="M535 993q220 0 313.5 -123.5t93.5 -380.5q0 -256 -93 -379.5t-314 -123.5t-314.5 123.5t-93.5 379.5t93.5 380t314.5 124zM535 53q185 0 258 104t73 332t-73 332.5t-258 104.5t-258.5 -104.5t-73.5 -332.5q0 -227 73 -331.5t259 -104.5zM362 1325q26 0 32.5 -3.5 t6.5 -18.5v-144q0 -14 -6.5 -18t-32.5 -4q-25 0 -31.5 4t-6.5 18v144q0 15 6 18.5t32 3.5zM707 1325q26 0 32 -3.5t6 -18.5v-144q0 -14 -6.5 -18t-31.5 -4q-26 0 -32.5 4t-6.5 18v144q0 15 6.5 18.5t32.5 3.5z" />
<glyph unicode="&#xf7;" horiz-adv-x="1093" d="M174 668h746q9 0 11.5 -7t2.5 -28q0 -35 -14 -35h-746q-14 0 -14 35q0 21 2.5 28t11.5 7zM547 201q-28 0 -37.5 4.5t-9.5 17.5v152q0 14 9 18t38 4t38 -4t9 -18v-152q0 -13 -9.5 -17.5t-37.5 -4.5zM547 864q-28 0 -37.5 4.5t-9.5 18.5v151q0 15 9 19t38 4t38 -4t9 -19 v-151q0 -14 -9.5 -18.5t-37.5 -4.5z" />
<glyph unicode="&#xf8;" horiz-adv-x="1073" d="M537 993q159 0 251 -65l74 110q8 13 39 13q18 0 23.5 -5.5t-0.5 -13.5l-95 -141q115 -118 115 -402q0 -256 -93 -379.5t-314 -123.5q-160 0 -252 65l-74 -108q-7 -15 -39 -15q-17 0 -22.5 7t0.5 14l92 139q-113 119 -113 401q0 256 93.5 380t314.5 124zM537 53 q185 0 258 104t73 332q0 236 -80 340l-469 -714q77 -62 218 -62zM205 489q0 -238 78 -339l469 714q-77 62 -215 62q-185 0 -258.5 -104.5t-73.5 -332.5z" />
<glyph unicode="&#xf9;" d="M860 14l-2 187q-15 -38 -39 -72t-62.5 -67.5t-98.5 -53.5t-134 -20q-163 0 -259.5 86t-96.5 264v629q0 10 7 13t30 3q24 0 30.5 -3t6.5 -13v-623q0 -287 290 -287q79 0 142.5 29t102 76t59 102.5t20.5 112.5v590q0 10 7.5 13t29.5 3q24 0 30.5 -3t6.5 -13v-953 q0 -10 -6.5 -13t-28.5 -3t-28.5 3t-6.5 13zM565 1124l-329 160q-10 5 -10.5 11t10.5 28q12 19 18.5 23t15.5 -3l322 -176q11 -6 0 -28q-8 -14 -13 -16.5t-14 1.5z" />
<glyph unicode="&#xfa;" d="M860 14l-2 187q-15 -38 -39 -72t-62.5 -67.5t-98.5 -53.5t-134 -20q-163 0 -259.5 86t-96.5 264v629q0 10 7 13t30 3q24 0 30.5 -3t6.5 -13v-623q0 -287 290 -287q79 0 142.5 29t102 76t59 102.5t20.5 112.5v590q0 10 7.5 13t29.5 3q24 0 30.5 -3t6.5 -13v-953 q0 -10 -6.5 -13t-28.5 -3t-28.5 3t-6.5 13zM870 1284l-329 -160q-9 -4 -14 -1.5t-13 16.5q-11 22 0 28l322 176q9 7 15.5 3t18.5 -23q11 -22 10.5 -28t-10.5 -11z" />
<glyph unicode="&#xfb;" d="M860 14l-2 187q-15 -38 -39 -72t-62.5 -67.5t-98.5 -53.5t-134 -20q-163 0 -259.5 86t-96.5 264v629q0 10 7 13t30 3q24 0 30.5 -3t6.5 -13v-623q0 -287 290 -287q79 0 142.5 29t102 76t59 102.5t20.5 112.5v590q0 10 7.5 13t29.5 3q24 0 30.5 -3t6.5 -13v-953 q0 -10 -6.5 -13t-28.5 -3t-28.5 3t-6.5 13zM557 1298l-166 -157q-18 -15 -45 -15q-16 0 -20 7t4 14l194 209q8 10 33 10q23 0 31 -10l192 -209q8 -7 4 -14t-20 -7q-27 0 -45 15z" />
<glyph unicode="&#xfc;" d="M860 14l-2 187q-15 -38 -39 -72t-62.5 -67.5t-98.5 -53.5t-134 -20q-163 0 -259.5 86t-96.5 264v629q0 10 7 13t30 3q24 0 30.5 -3t6.5 -13v-623q0 -287 290 -287q79 0 142.5 29t102 76t59 102.5t20.5 112.5v590q0 10 7.5 13t29.5 3q24 0 30.5 -3t6.5 -13v-953 q0 -10 -6.5 -13t-28.5 -3t-28.5 3t-6.5 13zM383 1325q26 0 32.5 -3.5t6.5 -18.5v-144q0 -14 -6.5 -18t-32.5 -4t-32.5 4t-6.5 18v144q0 15 6.5 18.5t32.5 3.5zM725 1325q26 0 32.5 -3.5t6.5 -18.5v-144q0 -14 -6.5 -18t-32.5 -4t-32.5 4t-6.5 18v144q0 15 6.5 18.5t32.5 3.5 z" />
<glyph unicode="&#xfd;" horiz-adv-x="978" d="M209 -317q38 0 69 12.5t54.5 32t48.5 60.5t44.5 80.5t49.5 108.5l8 23q-18 0 -24 12q-93 197 -203.5 470.5t-179.5 480.5q-3 12 3.5 16t31.5 4q23 0 31 -4t10 -14q67 -206 167.5 -462.5t188.5 -445.5q72 176 165 438t156 470q3 10 10 14t29 4q24 0 31.5 -4.5t3.5 -17.5 q-68 -231 -177.5 -529.5t-184.5 -466.5q-34 -79 -56 -124.5t-52.5 -94t-60 -72.5t-69 -39.5t-88.5 -15.5q-70 0 -113 16q-9 1 -10.5 6t-1.5 25t2.5 25.5t11.5 5.5q3 0 15.5 -3.5t36 -7t53.5 -3.5zM825 1284l-329 -160q-9 -4 -14 -1.5t-13 16.5q-11 22 0 28l322 176 q9 7 15.5 3t18.5 -23q11 -22 10.5 -28t-10.5 -11z" />
<glyph unicode="&#xfe;" horiz-adv-x="1126" d="M258 1403v-606q88 196 346 196q207 0 301 -126t94 -373q0 -252 -94 -380t-301 -128q-257 0 -346 194v-534q0 -10 -7.5 -13.5t-29.5 -3.5q-23 0 -30 3t-7 14v1757q0 10 7 13t30 3t30 -3t7 -13zM258 489q0 -224 78.5 -330t265.5 -106q175 0 248.5 107.5t73.5 333.5 q0 221 -73.5 326.5t-248.5 105.5q-187 0 -265.5 -106.5t-78.5 -330.5z" />
<glyph unicode="&#xff;" horiz-adv-x="978" d="M209 -317q38 0 69 12.5t54.5 32t48.5 60.5t44.5 80.5t49.5 108.5l8 23q-18 0 -24 12q-93 197 -203.5 470.5t-179.5 480.5q-3 12 3.5 16t31.5 4q23 0 31 -4t10 -14q67 -206 167.5 -462.5t188.5 -445.5q72 176 165 438t156 470q3 10 10 14t29 4q24 0 31.5 -4.5t3.5 -17.5 q-68 -231 -177.5 -529.5t-184.5 -466.5q-34 -79 -56 -124.5t-52.5 -94t-60 -72.5t-69 -39.5t-88.5 -15.5q-70 0 -113 16q-9 1 -10.5 6t-1.5 25t2.5 25.5t11.5 5.5q3 0 15.5 -3.5t36 -7t53.5 -3.5zM662 1325q26 0 32 -3.5t6 -18.5v-144q0 -14 -6.5 -18t-31.5 -4 q-26 0 -32.5 4t-6.5 18v144q0 15 6.5 18.5t32.5 3.5zM317 1325q26 0 32.5 -3.5t6.5 -18.5v-144q0 -14 -6.5 -18t-32.5 -4q-25 0 -31.5 4t-6.5 18v144q0 15 6 18.5t32 3.5z" />
<glyph unicode="&#x152;" horiz-adv-x="1781" d="M1616 1282h-633v-551h571q15 0 15 -35q0 -34 -15 -34h-571v-588h641q14 0 14 -37t-14 -37h-952q-288 0 -408.5 157.5t-120.5 520.5t120.5 520.5t408.5 157.5h944q9 0 11.5 -7.5t2.5 -29.5t-2.5 -29.5t-11.5 -7.5zM672 68h233v1220h-233q-167 0 -264.5 -59t-142 -191 t-44.5 -360t44.5 -360t142 -191t264.5 -59z" />
<glyph unicode="&#x153;" horiz-adv-x="1679" d="M1540 475h-637q2 -215 76 -318.5t238 -103.5q110 0 175 53.5t74 151.5q2 11 7.5 13.5t27.5 2.5q24 0 31 -3t6 -13q-10 -127 -96 -198.5t-225 -71.5q-142 0 -228 62.5t-123 189.5q-33 -129 -116.5 -191.5t-233.5 -62.5q-209 0 -299 123.5t-90 379.5t90 380t299 124 q149 0 233 -63.5t117 -192.5q75 256 344 256q92 0 160 -31t108 -88t59 -129t19 -161v-70q0 -24 -3 -31.5t-13 -7.5zM516 53q174 0 244.5 104.5t70.5 331.5t-70.5 332t-244.5 105t-243.5 -105t-69.5 -332t69.5 -331.5t243.5 -104.5zM1210 928q-154 0 -226.5 -95.5 t-80.5 -295.5h582v49q0 157 -66 249.5t-209 92.5z" />
<glyph unicode="&#x178;" horiz-adv-x="1110" d="M952 1339q3 7 4 9t5 4.5t10.5 3t19.5 0.5q27 0 35.5 -4t3.5 -15q-89 -190 -214 -427.5t-222 -399.5v-494q0 -11 -8 -14.5t-31 -3.5q-24 0 -31.5 3.5t-7.5 14.5v494q-97 162 -222 399.5t-214 427.5q-5 11 3.5 15t35.5 4q23 0 28.5 -3t10.5 -14q173 -379 397 -757 q90 152 201.5 365t195.5 392zM733 1677q26 0 32.5 -3.5t6.5 -18.5v-146q0 -14 -6.5 -18t-32.5 -4t-32.5 4t-6.5 18v146q0 15 6.5 18.5t32.5 3.5zM377 1677q26 0 32.5 -3.5t6.5 -18.5v-146q0 -14 -6.5 -18t-32.5 -4t-32.5 4t-6.5 18v146q0 15 6.5 18.5t32.5 3.5z" />
<glyph unicode="&#x2c6;" horiz-adv-x="638" d="M322 1298l-166 -157q-18 -15 -45 -15q-16 0 -20.5 7t3.5 14l195 209q7 10 33 10q22 0 30 -10l193 -209q8 -7 3.5 -14t-20.5 -7q-27 0 -45 15z" />
<glyph unicode="&#x2dc;" horiz-adv-x="638" d="M537 1268v28q0 9 5.5 12t20.5 3q19 0 23 -3.5t4 -13.5l-2 -41q-5 -129 -113 -129q-55 0 -119 39l-110 68q-49 29 -82 29q-31 0 -46.5 -19.5t-15.5 -69.5v-30q0 -13 -26 -13q-19 0 -24 3t-5 12l2 43q5 129 115 129q24 0 48.5 -7t34.5 -12.5t36 -19.5l108 -68 q3 -1 13.5 -7.5t13.5 -8t12 -5.5t14 -5t13 -2.5t16 -1.5q33 0 48.5 20t15.5 70z" />
<glyph unicode="&#x2000;" horiz-adv-x="858" />
<glyph unicode="&#x2001;" horiz-adv-x="1716" />
<glyph unicode="&#x2002;" horiz-adv-x="858" />
<glyph unicode="&#x2003;" horiz-adv-x="1716" />
<glyph unicode="&#x2004;" horiz-adv-x="572" />
<glyph unicode="&#x2005;" horiz-adv-x="429" />
<glyph unicode="&#x2006;" horiz-adv-x="286" />
<glyph unicode="&#x2007;" horiz-adv-x="286" />
<glyph unicode="&#x2008;" horiz-adv-x="214" />
<glyph unicode="&#x2009;" horiz-adv-x="343" />
<glyph unicode="&#x200a;" horiz-adv-x="95" />
<glyph unicode="&#x2010;" horiz-adv-x="794" d="M154 584h487q9 0 11.5 -7t2.5 -26q0 -21 -2.5 -27t-11.5 -6h-487q-9 0 -12 6.5t-3 26.5q0 19 3 26t12 7z" />
<glyph unicode="&#x2011;" horiz-adv-x="794" d="M154 584h487q9 0 11.5 -7t2.5 -26q0 -21 -2.5 -27t-11.5 -6h-487q-9 0 -12 6.5t-3 26.5q0 19 3 26t12 7z" />
<glyph unicode="&#x2012;" horiz-adv-x="794" d="M154 584h487q9 0 11.5 -7t2.5 -26q0 -21 -2.5 -27t-11.5 -6h-487q-9 0 -12 6.5t-3 26.5q0 19 3 26t12 7z" />
<glyph unicode="&#x2013;" horiz-adv-x="1036" d="M150 584h737q9 0 11.5 -7t2.5 -26q0 -21 -2.5 -27t-11.5 -6h-737q-9 0 -12 6.5t-3 26.5q0 19 3 26t12 7z" />
<glyph unicode="&#x2014;" horiz-adv-x="1441" d="M137 584h1168q9 0 11.5 -7t2.5 -26q0 -21 -2.5 -27t-11.5 -6h-1168q-9 0 -11.5 6t-2.5 27q0 19 2.5 26t11.5 7z" />
<glyph unicode="&#x2018;" horiz-adv-x="389" d="M203 1130v-116q0 -8 -6 -11.5t-29 -3.5q-22 0 -27.5 3.5t-5.5 11.5v119q0 206 150 282q9 5 14 2t12 -20q8 -18 7.5 -22t-9.5 -9q-106 -61 -106 -236z" />
<glyph unicode="&#x2019;" horiz-adv-x="389" d="M186 1282v117q0 8 6 11t29 3q22 0 27.5 -3t5.5 -11v-119q0 -207 -150 -283q-9 -5 -14 -1.5t-12 20.5q-8 18 -7.5 22t9.5 9q106 61 106 235z" />
<glyph unicode="&#x201a;" horiz-adv-x="389" d="M186 86v117q0 8 6 11t29 3q22 0 27.5 -3t5.5 -11v-119q0 -207 -150 -283q-9 -5 -14 -1.5t-12 20.5q-8 18 -7.5 21.5t9.5 8.5q106 61 106 236z" />
<glyph unicode="&#x201c;" horiz-adv-x="684" d="M203 1130v-116q0 -8 -6 -11.5t-29 -3.5q-22 0 -27.5 3.5t-5.5 11.5v119q0 206 150 282q9 5 14 2t12 -20q8 -18 7.5 -22t-9.5 -9q-106 -61 -106 -236zM498 1130v-116q0 -8 -6 -11.5t-29 -3.5q-22 0 -27.5 3.5t-5.5 11.5v119q0 206 150 282q9 5 14 2t12 -20q8 -18 7.5 -22 t-9.5 -9q-106 -61 -106 -236z" />
<glyph unicode="&#x201d;" horiz-adv-x="684" d="M186 1282v117q0 8 6 11t29 3q22 0 27.5 -3t5.5 -11v-119q0 -207 -150 -283q-9 -5 -14 -1.5t-12 20.5q-8 18 -7.5 22t9.5 9q106 61 106 235zM481 1282v117q0 8 6 11t29 3q22 0 27.5 -3t5.5 -11v-119q0 -207 -150 -283q-9 -5 -14 -1.5t-12 20.5q-8 18 -7.5 22t9.5 9 q106 61 106 235z" />
<glyph unicode="&#x201e;" horiz-adv-x="684" d="M186 86v117q0 8 6 11t29 3q22 0 27.5 -3t5.5 -11v-119q0 -207 -150 -283q-9 -5 -14 -1.5t-12 20.5q-8 18 -7.5 21.5t9.5 8.5q106 61 106 236zM481 86v117q0 8 6 11t29 3q22 0 27.5 -3t5.5 -11v-119q0 -207 -150 -283q-9 -5 -14 -1.5t-12 20.5q-8 18 -7.5 21.5t9.5 8.5 q106 61 106 236z" />
<glyph unicode="&#x2022;" horiz-adv-x="659" d="M330 395q-89 0 -113 26t-24 124q0 99 23.5 125t113.5 26t113.5 -26t23.5 -125q0 -98 -24 -124t-113 -26z" />
<glyph unicode="&#x2026;" horiz-adv-x="1241" d="M207 -2q-28 0 -37.5 4.5t-9.5 17.5v152q0 15 9 19t38 4t38 -4t9 -19v-152q0 -13 -9.5 -17.5t-37.5 -4.5zM621 -2q-28 0 -38 4.5t-10 17.5v152q0 15 9.5 19t38.5 4t38 -4t9 -19v-152q0 -13 -9.5 -17.5t-37.5 -4.5zM1034 -2q-28 0 -37.5 4.5t-9.5 17.5v152q0 15 9 19t38 4 t38 -4t9 -19v-152q0 -13 -9.5 -17.5t-37.5 -4.5z" />
<glyph unicode="&#x202f;" horiz-adv-x="343" />
<glyph unicode="&#x2039;" horiz-adv-x="573" d="M131 551q0 11 10 24l211 287q8 10 45 10q19 0 25 -4.5t0 -13.5l-223 -303l223 -303q6 -9 -0.5 -15t-24.5 -6q-37 0 -45 13l-211 284q-10 13 -10 27z" />
<glyph unicode="&#x203a;" horiz-adv-x="573" d="M442 551q0 -14 -10 -27l-211 -284q-8 -13 -45 -13q-18 0 -24.5 6t0.5 15l223 303l-223 303q-6 9 -0.5 13.5t24.5 4.5q37 0 45 -10l211 -287q10 -13 10 -24z" />
<glyph unicode="&#x205f;" horiz-adv-x="429" />
<glyph unicode="&#x20ac;" horiz-adv-x="1261" d="M684 516h-369q19 -249 111 -352t289 -103q177 0 254 76t80 238q0 10 6.5 13t29.5 3q24 0 30.5 -3t6.5 -13q-2 -195 -98.5 -291t-308.5 -96q-234 0 -345.5 124.5t-131.5 403.5h-148q-9 0 -10.5 5.5t-1.5 25.5q0 22 1.5 27.5t10.5 5.5h143q-2 31 -2 100q0 67 2 100h-143 q-9 0 -10.5 5.5t-1.5 27.5t1.5 27.5t10.5 5.5h148q22 277 130 399.5t334 122.5q412 0 418 -369q0 -11 -7 -14.5t-30 -3.5t-29.5 3.5t-6.5 14.5q-3 149 -86 222t-259 73q-189 0 -277.5 -101.5t-107.5 -346.5h465q9 0 12 -6.5t3 -26.5t-3 -26.5t-12 -6.5h-469q-2 -33 -2 -100 q0 -69 2 -100h371q9 0 11.5 -6t2.5 -27q0 -19 -2.5 -25t-11.5 -6z" />
<glyph unicode="&#x2122;" horiz-adv-x="1544" d="M760 1356q32 0 37 -13l258 -571l258 571q5 13 37 13q26 0 34.5 -2.5t8.5 -10.5v-729q0 -7 -5.5 -9.5t-23.5 -2.5q-19 0 -25 2.5t-6 9.5v650l-243 -535q-6 -14 -35 -14t-35 14l-244 535v-650q0 -7 -6 -9.5t-25 -2.5q-17 0 -22.5 2.5t-5.5 9.5v729q0 8 8.5 10.5t34.5 2.5z M573 1298h-215v-682q0 -8 -5.5 -11t-24.5 -3t-25 3t-6 11v682h-213q-7 0 -8.5 6t-1.5 23v14.5t1 8.5t3 5t6 1h489q7 0 9 -5.5t2 -23.5q0 -29 -11 -29z" />
<glyph unicode="&#x25fc;" horiz-adv-x="983" d="M0 983h983v-983h-983v983z" />
</font>
</defs>
</svg>
