<?xml version="1.0" standalone="no"?>
<!DOCTYPE svg PUBLIC "-//W3C//DTD SVG 1.1//EN" "http://www.w3.org/Graphics/SVG/1.1/DTD/svg11.dtd" >
<svg xmlns="http://www.w3.org/2000/svg" xmlns:xlink="http://www.w3.org/1999/xlink" version="1.1">
<metadata></metadata>
<defs>
<font id="frygiaxlight_italic" horiz-adv-x="1114" >
<font-face units-per-em="2048" ascent="1536" descent="-512" />
<missing-glyph horiz-adv-x="475" />
<glyph unicode="&#xfb01;" horiz-adv-x="1077" d="M895 1331q-98 23 -193 23q-160 0 -225 -60t-80 -215l-10 -98h528q24 0 31 -3t6 -13l-100 -951q0 -10 -8 -13t-31 -3t-29 2.5t-6 13.5l94 901h-491l-94 -901q0 -10 -8 -13t-31 -3t-29 2.5t-6 13.5l94 901h-174q-9 0 -10.5 6t0.5 25t5.5 26t12.5 7l174 2l11 102 q19 183 103.5 261.5t275.5 78.5q117 0 208 -26q19 -6 7 -39q-6 -19 -11.5 -24t-13.5 -3z" />
<glyph unicode="&#xfb02;" horiz-adv-x="1099" d="M397 1079l-10 -98h254q8 0 9 -5.5t0 -20.5q-1 -5 -1 -7q-2 -21 -4.5 -27t-11.5 -6h-252l-94 -901q0 -10 -8 -13t-31 -3t-29 2.5t-6 13.5l94 901h-174q-9 0 -10.5 6t0.5 25t5.5 26t12.5 7l174 2l11 102q19 184 102.5 262t273.5 78q168 0 275 -32q18 -5 18 -23l-123 -1169 q-8 -74 11.5 -101.5t85.5 -27.5h37q9 0 11 -7.5t-1 -27.5q-2 -21 -5 -28t-12 -7h-41q-101 0 -136.5 43.5t-24.5 146.5l121 1143q-94 21 -216 21q-160 0 -225 -60t-80 -215z" />
<glyph unicode="&#xfb03;" horiz-adv-x="1654" d="M893 981l10 102q19 183 103 261.5t274 78.5q120 0 211 -26q18 -6 6 -39q-6 -19 -11 -24t-13 -3q-98 23 -193 23q-160 0 -225 -60t-80 -215l-10 -98h528q24 0 31 -3t6 -13l-100 -951q0 -10 -8 -13t-31 -3t-29 2.5t-6 13.5l94 901h-492l-94 -901q0 -10 -8 -13t-31 -3 t-28.5 2.5t-5.5 13.5l94 901h-504l-94 -901q0 -10 -8 -13t-31 -3t-29 2.5t-6 13.5l94 901h-174q-9 0 -10.5 6t0.5 25t5.5 26t12.5 7l174 2l15 143q18 157 79 228t193 71q96 0 162 -28q9 -4 8 -10.5t-10 -26.5q-13 -29 -27 -23q-54 21 -131 21q-100 0 -145.5 -55t-57.5 -181 l-14 -139h506z" />
<glyph unicode="&#xfb04;" horiz-adv-x="1677" d="M893 981l10 102q19 183 103 261.5t274 78.5q167 0 274 -32q19 -5 19 -23l-123 -1169q-8 -74 11 -101.5t85 -27.5h37q9 0 11 -7.5t-1 -27.5q-2 -21 -4.5 -28t-11.5 -7h-41q-101 0 -137 43.5t-25 146.5l121 1143q-95 21 -215 21q-160 0 -225 -60t-80 -215l-10 -98h254 q8 0 9 -5.5t0 -20.5q-1 -5 -1 -7q-2 -20 -5 -26.5t-12 -6.5h-252l-94 -901q0 -10 -8 -13t-31 -3t-28.5 2.5t-5.5 13.5l94 901h-504l-94 -901q0 -10 -8 -13t-31 -3t-29 2.5t-6 13.5l94 901h-174q-9 0 -10.5 6t0.5 25t5.5 26t12.5 7l174 2l15 143q18 157 79 228t193 71 q96 0 162 -28q9 -4 8 -10.5t-10 -26.5q-13 -29 -27 -23q-54 21 -131 21q-100 0 -145.5 -55t-57.5 -181l-14 -139h506z" />
<glyph horiz-adv-x="0" />
<glyph horiz-adv-x="682" />
<glyph unicode=" "  horiz-adv-x="475" />
<glyph unicode="&#x09;" horiz-adv-x="475" />
<glyph unicode="&#xa0;" horiz-adv-x="475" />
<glyph unicode="!" horiz-adv-x="512" d="M252 383q-19 0 -24 3t-3 13l84 938q0 12 10 16.5t35 4.5q27 0 36.5 -4.5t6.5 -16.5l-112 -938q-2 -10 -8 -13t-25 -3zM213 -2q-28 0 -36 4.5t-7 17.5l14 152q1 15 10.5 19t38.5 4t38 -4t8 -19l-15 -152q-1 -13 -12 -17.5t-39 -4.5z" />
<glyph unicode="&#x22;" horiz-adv-x="684" d="M219 940l37 457q1 10 8.5 13t32.5 3t31.5 -3t5.5 -13l-58 -457q-2 -14 -30 -14q-16 0 -22 2.5t-5 11.5zM520 936l37 457q1 10 8.5 13t32.5 3t31.5 -3t5.5 -13l-57 -457q-2 -14 -31 -14q-16 0 -22 2.5t-5 11.5z" />
<glyph unicode="#" horiz-adv-x="1191" d="M625 12l118 379h-395l-119 -379q-1 -9 -8 -11.5t-26 -2.5t-23.5 2.5t-3.5 11.5l119 379h-185q-13 0 -10 29t17 29h196l119 374h-184q-14 0 -11 29t17 29h196l119 379q1 9 8.5 11.5t26.5 2.5t24.5 -2.5t2.5 -11.5l-121 -379h397l119 379q1 9 8.5 11.5t26.5 2.5t24 -2.5 t2 -11.5l-121 -379h187q11 0 8 -29t-14 -29h-199l-117 -374h187q11 0 8 -29t-14 -29h-199l-119 -379q-1 -9 -8.5 -11.5t-26.5 -2.5t-23.5 2.5t-2.5 11.5zM483 823l-116 -374h395l119 374h-398z" />
<glyph unicode="$" horiz-adv-x="1159" d="M528 -186q-24 0 -30 3.5t-4 14.5l16 158q-200 6 -300.5 91t-80.5 253q0 10 6.5 13t30.5 3q23 0 29 -2.5t6 -13.5q-26 -267 319 -279l64 604q-86 24 -145 49.5t-111 64.5t-77.5 94t-25.5 128q0 365 428 371l19 158q0 11 7.5 14.5t31.5 3.5q22 0 28 -3.5t6 -14.5l-18 -160 q165 -11 247 -88.5t66 -247.5q0 -9 -8 -12.5t-31 -3.5q-22 0 -27 3t-5 13q12 135 -48 197.5t-208 70.5l-60 -579q98 -28 160 -54.5t110.5 -64t69.5 -88.5t21 -121q0 -196 -110.5 -294.5t-319.5 -104.5l-17 -158q-2 -11 -9 -14.5t-30 -3.5zM938 387q0 108 -67 160.5 t-226 95.5l-61 -588q354 10 354 332zM299 997q0 -47 14.5 -84t36.5 -62t62.5 -47t79.5 -36.5t100 -32.5l59 563q-79 -1 -139 -15t-110 -46.5t-76.5 -93t-26.5 -146.5z" />
<glyph unicode="%" horiz-adv-x="1564" d="M487 1364q234 0 234 -248q0 -56 -9.5 -107.5t-32 -101t-56 -86t-85 -58.5t-114.5 -22q-231 0 -231 242q0 57 9 109t30.5 102.5t54.5 87.5t84 59.5t116 22.5zM428 799q59 0 104 25.5t70.5 70t38 99t12.5 118.5q0 100 -40.5 147.5t-129.5 47.5q-62 0 -108 -27.5t-70.5 -75 t-35.5 -101t-11 -116.5q0 -97 41 -142.5t129 -45.5zM1319 1341l-948 -1329q-9 -14 -45 -14q-12 0 -18.5 2t-7 5.5t2.5 8.5l948 1329q13 15 45 15q28 0 26 -11q0 -3 -3 -6zM1198 614q234 0 234 -247q0 -56 -9.5 -107.5t-32 -101t-56 -86t-85 -58.5t-114.5 -22 q-232 0 -232 241q0 72 15.5 136.5t48 121t92 90t139.5 33.5zM1139 49q59 0 104 25.5t70.5 70t38 99t12.5 118.5q0 100 -40.5 147.5t-129.5 47.5q-50 0 -90 -18.5t-64.5 -48.5t-41 -72.5t-23 -86.5t-6.5 -93q0 -97 41 -143t129 -46z" />
<glyph unicode="&#x26;" horiz-adv-x="1363" d="M1239 68q15 6 21 -25q3 -18 1.5 -23t-10.5 -10q-41 -18 -102 -18q-89 0 -134.5 42t-56.5 132q-121 -178 -399 -178q-209 0 -316.5 91.5t-107.5 262.5q0 151 77.5 267t225.5 153q-80 16 -127 75t-47 162q0 176 109.5 272.5t300.5 96.5q193 0 270 -74t66 -221 q-1 -9 -8.5 -11.5t-30.5 -2.5t-28 2.5t-5 13.5q4 76 -17 122.5t-83 72.5t-172 26q-156 0 -240 -66t-84 -224q0 -107 55 -161t172 -54h121q11 0 8 -35q-3 -21 -6 -28t-10 -7h-119q-153 0 -250.5 -106.5t-97.5 -272.5q0 -141 87 -217t263 -76q188 0 290 88.5t116 229.5l37 354 h-154q-7 0 -8.5 7.5t0.5 27.5q3 35 16 35h422q14 0 8 -35q-3 -35 -16 -35h-197l-37 -361q-2 -21 -8 -39t-18 -43t-17 -38q-12 -32 -41 -74q-2 16 -2 57q0 9 5 82l71 17q-6 -59 -6 -101q0 -91 30.5 -128.5t92.5 -37.5q45 0 90 13z" />
<glyph unicode="'" horiz-adv-x="380" d="M219 940l37 457q1 10 8.5 13t32.5 3t31.5 -3t5.5 -13l-58 -457q-2 -14 -30 -14q-16 0 -22 2.5t-5 11.5z" />
<glyph unicode="(" horiz-adv-x="671" d="M170 152q0 172 16 343.5t53 341.5t91.5 299t139 209t187.5 80h35q9 0 10.5 -6.5t-0.5 -23.5q-1 -19 -5 -25t-13 -6h-33q-86 0 -157.5 -81t-117 -208.5t-77 -292t-44.5 -324.5t-13 -313q0 -235 55 -347.5t178 -112.5h33q9 0 11.5 -6t0.5 -25q-3 -31 -18 -31h-35 q-156 0 -226.5 129.5t-70.5 399.5z" />
<glyph unicode=")" horiz-adv-x="671" d="M502 897q0 -121 -8 -243.5t-26 -249t-45 -239.5t-67 -213t-88.5 -172.5t-113.5 -114.5t-140 -42h-34q-9 0 -11 6.5t0 24.5q2 31 19 31h32q73 0 135 56t105.5 153t77 218.5t53.5 260.5t29.5 271.5t9.5 258.5q0 236 -55 348.5t-178 112.5h-33q-9 0 -11.5 6t-0.5 25 q2 17 5.5 23.5t12.5 6.5h35q156 0 226.5 -129t70.5 -399z" />
<glyph unicode="*" horiz-adv-x="1040" d="M256 1165l313 -127l19 353q0 18 39 18q22 0 28.5 -4t6.5 -14l-56 -353l338 127q11 5 16 -0.5t11 -29.5q4 -22 2.5 -30t-12.5 -11l-347 -93l191 -268q11 -13 -25 -37q-20 -15 -28.5 -16t-12.5 10l-157 291l-220 -291q-7 -11 -15 -10t-25 16q-29 22 -17 37l248 268l-326 93 q-11 3 -11.5 11t9.5 30q15 40 31 30z" />
<glyph unicode="+" horiz-adv-x="1093" d="M647 1020l-37 -354h344q9 0 11 -6t0 -27q-3 -33 -19 -33h-344l-37 -356q-2 -10 -9 -13.5t-28 -3.5q-20 0 -27 4t-5 13l36 356h-346q-8 0 -9 5.5t0 20.5q1 5 1 7q2 20 5 26.5t12 6.5h346l37 354q0 9 7.5 11.5t28.5 2.5q22 0 27.5 -2.5t5.5 -11.5z" />
<glyph unicode="," horiz-adv-x="413" d="M225 209q28 0 36.5 -5t4.5 -18q-61 -173 -219 -452q-9 -13 -37 -13q-14 0 -20.5 3.5t-3.5 11.5q143 283 188 448q3 17 11 21t40 4z" />
<glyph unicode="-" horiz-adv-x="794" d="M172 584h487q16 0 13 -33q-3 -20 -6.5 -26.5t-12.5 -6.5h-487q-9 0 -11 6.5t1 26.5q2 20 4.5 26.5t11.5 6.5z" />
<glyph unicode="." horiz-adv-x="413" d="M164 -2q-28 0 -36 4.5t-7 17.5l14 152q1 15 10.5 19t38.5 4t37.5 -4t7.5 -19l-14 -152q-1 -13 -12 -17.5t-39 -4.5z" />
<glyph unicode="/" horiz-adv-x="724" d="M793 1446l-736 -1598q-5 -10 -12 -13t-33 -3q-21 0 -26 3.5t0 12.5l735 1598q3 10 11 13t34 3q21 0 25.5 -3t1.5 -13z" />
<glyph unicode="0" horiz-adv-x="1146" d="M668 1286q196 0 285 -111t89 -348q0 -78 -4.5 -150.5t-19 -159t-37.5 -159t-62.5 -143t-91.5 -119t-128.5 -78.5t-168.5 -30q-197 0 -286.5 110t-89.5 348q0 78 4.5 150.5t19 159t37.5 159.5t62.5 143.5t92 119t129 78.5t169.5 30zM537 53q93 0 166.5 41t122 112 t80.5 171t45.5 211.5t13.5 240.5q0 204 -72 298t-234 94q-93 0 -166.5 -41.5t-122 -112t-80.5 -170.5t-45.5 -212t-13.5 -241q0 -204 72 -297.5t234 -93.5z" />
<glyph unicode="1" horiz-adv-x="765" d="M328 16l125 1174l-295 -94q-10 -3 -14.5 4.5t-2.5 23.5q3 22 6.5 29t12.5 10l358 119q21 6 21 -10l-133 -1256q0 -11 -8 -14.5t-33 -3.5q-23 0 -30 3.5t-7 14.5z" />
<glyph unicode="2" horiz-adv-x="1056" d="M623 1286q342 0 342 -291q0 -60 -12 -112.5t-30.5 -94.5t-52.5 -83t-67 -72t-86.5 -68t-97 -63.5t-111.5 -65.5q-75 -43 -123.5 -75.5t-100.5 -77.5t-81 -96.5t-35 -110.5l-2 -10h711q9 0 10.5 -6t-0.5 -25q-3 -22 -6 -28.5t-11 -6.5h-772q-11 0 -13 5.5t-1 25.5l4 32 q6 67 36.5 126t84 110.5t108.5 91t134 86.5q15 9 59 35t62.5 37.5t58.5 37.5t59 42t51 44t48.5 50.5t38 55t32 64t18 70t7.5 80.5q0 115 -65.5 169.5t-205.5 54.5q-91 0 -154 -18t-102.5 -55.5t-60 -88t-31.5 -123.5q0 -11 -8 -15t-31 -4q-21 0 -27.5 3.5t-6.5 13.5 q23 180 123 268t307 88z" />
<glyph unicode="3" horiz-adv-x="1060" d="M573 625h-139q-13 0 -10 34q3 21 6 28t10 7h142q142 0 220.5 78.5t78.5 231.5q0 109 -67.5 162t-211.5 53q-171 0 -247.5 -60.5t-96.5 -187.5q0 -10 -8 -13.5t-31 -3.5q-22 0 -28.5 3t-6.5 12q21 157 123.5 237t302.5 80q348 0 348 -276q0 -126 -57.5 -220.5 t-175.5 -127.5q91 -16 147 -83t56 -180q0 -196 -113 -303.5t-319 -107.5q-214 0 -311 81t-85 240q2 15 39 15q23 0 30 -3t5 -14q-8 -127 65.5 -189.5t256.5 -62.5q167 0 259.5 86t92.5 254q0 230 -275 230z" />
<glyph unicode="4" horiz-adv-x="1089" d="M735 -2q-23 0 -30 3.5t-7 14.5l33 308h-643q-8 0 -10 7.5t0 26.5q3 30 14 41l701 863q11 16 61 16q33 0 43.5 -3.5t9.5 -14.5l-92 -871h193q9 0 11.5 -6.5t0.5 -26.5q-1 -18 -5.5 -25t-13.5 -7h-192l-33 -308q0 -10 -9 -14t-32 -4zM166 389h573l86 811z" />
<glyph unicode="5" horiz-adv-x="1015" d="M532 713q-185 0 -303 -66q-15 -6 -41 -6q-18 0 -25 3t-7 13l110 596q3 11 9.5 15t27.5 4h596q8 0 10 -8t0 -27q-2 -20 -5.5 -27.5t-12.5 -7.5h-563l-90 -487q126 63 301 63q173 0 264.5 -83t91.5 -246q0 -133 -47.5 -235t-149.5 -164t-247 -62q-199 0 -288.5 80.5 t-78.5 240.5q2 9 8 12t29 3t29 -3t4 -14q-8 -125 64 -188.5t239 -63.5q178 0 269 105.5t91 292.5q0 260 -285 260z" />
<glyph unicode="6" horiz-adv-x="1073" d="M911 999q2 107 -64 162.5t-200 55.5q-77 0 -140 -26t-106.5 -74t-75 -107t-50.5 -133.5t-29.5 -143.5t-14.5 -147q47 83 156 133.5t236 50.5q335 0 335 -307q0 -220 -107 -348.5t-316 -128.5q-202 0 -292.5 113t-90.5 327q0 858 495 858q161 0 249.5 -74t84.5 -211 q-1 -10 -8 -13t-29 -3q-23 0 -29 2.5t-4 13.5zM227 494v-62q0 -184 70 -281.5t238 -97.5q95 0 164.5 32.5t109 90t58 128t18.5 155.5q0 126 -66 183.5t-207 57.5q-128 0 -232 -55t-153 -151z" />
<glyph unicode="7" horiz-adv-x="958" d="M203 18q237 519 651 1184h-661q-9 0 -11 7t0 28q3 35 19 35h735q8 0 9 -4.5t0 -17.5q-1 -2 -1 -3.5v-3.5q-2 -27 -14 -47q-397 -629 -649 -1180q-5 -18 -45 -18q-23 0 -29.5 4.5t-3.5 15.5z" />
<glyph unicode="8" horiz-adv-x="1105" d="M123 272q0 75 19.5 134.5t49.5 97t78.5 67.5t92.5 46t106 32q-55 17 -94 37t-75 52t-54.5 80t-18.5 112q0 175 113 265.5t307 90.5q177 0 265.5 -70t88.5 -198q0 -71 -17 -127.5t-43.5 -94t-68.5 -67.5t-83.5 -47t-96.5 -33q49 -14 85 -27.5t74 -37t61.5 -52t39 -72 t15.5 -98.5q0 -94 -34.5 -166.5t-96.5 -117.5t-144 -67.5t-182 -22.5q-191 0 -289 72.5t-98 211.5zM889 356q0 38 -9.5 70t-23 55t-39 43t-47 32.5t-58.5 26t-61.5 20.5t-66.5 18q-159 -40 -224 -73q-135 -69 -155 -214q-4 -28 -4 -58q0 -221 315 -221q74 0 137.5 15.5 t118 48.5t86 94t31.5 143zM301 934q0 -50 16 -89t39 -64.5t63 -46t74.5 -32t86.5 -24.5q46 11 77.5 20.5t71 24.5t65.5 32t53.5 42t43.5 55t26.5 71.5t10.5 90.5q0 207 -289 207q-71 0 -129.5 -15t-106.5 -47.5t-75 -89.5t-27 -135z" />
<glyph unicode="9" horiz-adv-x="1073" d="M213 272q-2 -107 64 -162t200 -55q91 0 163 39t115.5 99t74 146.5t44 168t19.5 176.5q-49 -83 -156.5 -132.5t-234.5 -49.5q-336 0 -336 307q0 220 107.5 348.5t316.5 128.5q202 0 292.5 -113t90.5 -327q0 -193 -26.5 -345t-83.5 -269.5t-154.5 -180.5t-231.5 -63 q-161 0 -249.5 73.5t-84.5 210.5q2 11 8.5 14t28.5 3q23 0 29 -3t4 -14zM897 776v64q0 184 -69.5 281.5t-237.5 97.5q-95 0 -164.5 -32.5t-109 -90t-58 -128t-18.5 -155.5q0 -126 65.5 -184t206.5 -58q128 0 232 54.5t153 150.5z" />
<glyph unicode=":" horiz-adv-x="454" d="M184 -2q-28 0 -36 4.5t-7 17.5l15 152q1 15 10.5 19t38.5 4t37.5 -4t7.5 -19l-14 -152q-1 -13 -12.5 -17.5t-39.5 -4.5zM266 784q-27 0 -36 4.5t-7 18.5l15 151q1 15 10.5 19t38.5 4t37.5 -4t7.5 -19l-15 -151q-1 -13 -12 -18t-39 -5z" />
<glyph unicode=";" horiz-adv-x="454" d="M266 784q-27 0 -36 4.5t-7 18.5l15 151q1 15 10.5 19t38.5 4t37.5 -4t7.5 -19l-15 -151q-1 -13 -12 -18t-39 -5zM238 209q28 0 36.5 -5t4.5 -18q-59 -168 -220 -452q-9 -13 -36 -13q-14 0 -21 3.5t-4 11.5q143 283 188 448q3 17 11.5 21t40.5 4z" />
<glyph unicode="&#x3c;" horiz-adv-x="1093" d="M209 639q4 34 16 41l672 481q11 6 16.5 2.5t14.5 -20.5q10 -15 10.5 -22t-8.5 -13l-654 -469l555 -469q7 -6 5.5 -13t-15.5 -24q-13 -16 -19 -19.5t-16 1.5l-569 481q-10 10 -8 43z" />
<glyph unicode="=" horiz-adv-x="1093" d="M184 485h746q9 0 10.5 -7t-0.5 -27q-3 -35 -18 -35h-746q-8 0 -10 8t0 27q1 20 5 27t13 7zM221 852h746q9 0 10.5 -7.5t-0.5 -27.5q-3 -35 -19 -35h-745q-8 0 -10 8t0 27q2 20 5.5 27.5t12.5 7.5z" />
<glyph unicode="&#x3e;" horiz-adv-x="1093" d="M885 637q-4 -33 -17 -41l-671 -481q-11 -6 -16.5 -2.5t-14.5 20.5q-10 15 -10.5 22t8.5 13l653 469l-555 469q-7 6 -5.5 13t15.5 24q13 16 19 19.5t16 -1.5l570 -481q10 -10 8 -43z" />
<glyph unicode="?" horiz-adv-x="1093" d="M578 453l-9 -54q-2 -10 -7.5 -13t-24.5 -3q-21 0 -26 3t-5 13l4 54q5 59 31 109t64 86t83 69.5t89 68.5t80 74.5t58.5 95.5t22.5 123q0 111 -72 165t-223 54q-192 0 -278 -74.5t-107 -232.5q0 -11 -8 -14.5t-31 -3.5q-22 0 -28.5 3.5t-6.5 12.5q22 191 133 285t334 94 q186 0 277.5 -73.5t91.5 -211.5q0 -76 -22 -137.5t-58 -103t-80 -76t-90 -66t-85.5 -64.5t-68.5 -79.5t-38 -103.5zM496 -2q-28 0 -36 4.5t-7 17.5l14 152q1 15 10.5 19t38.5 4t37.5 -4t7.5 -19l-14 -152q-1 -13 -12 -17.5t-39 -4.5z" />
<glyph unicode="@" horiz-adv-x="1773" d="M1137 518l39 375q-79 35 -205 35q-79 0 -138 -25t-94 -65.5t-55.5 -101t-27.5 -120.5t-7 -135q0 -121 49 -177t162 -56q116 0 189.5 65.5t87.5 204.5zM1110 -137h-238q-175 0 -298.5 27t-214 91t-134 174.5t-43.5 272.5q0 449 200 670t622 221q178 0 301 -32.5t197 -100 t106 -162.5t32 -229q0 -53 -2 -101t-9.5 -114t-20.5 -120.5t-37 -111.5t-56 -96t-81 -63.5t-109 -24.5q-100 0 -143 50t-41 144q-84 -176 -285 -176q-276 0 -276 299q0 82 10.5 152t38 138t71 116t114 77t163.5 29q150 0 256 -45q16 -8 16 -24l-51 -484q-22 -219 129 -219 q67 0 116 44.5t77.5 125t41.5 181t13 223.5q0 164 -53.5 263t-180.5 149t-344 50q-394 0 -570.5 -198.5t-176.5 -624.5q0 -121 26.5 -209.5t75.5 -146.5t128.5 -92t175 -48t225.5 -14h237q7 0 8.5 -6.5t-0.5 -23.5q-3 -31 -16 -31z" />
<glyph unicode="A" horiz-adv-x="1138" d="M987 -2q-22 0 -29 3.5t-10 14.5q-44 234 -84 410h-585q-72 -168 -170 -410q-3 -11 -11.5 -14.5t-31.5 -3.5q-24 0 -31 3.5t-4 14.5q120 301 289.5 682.5t300.5 640.5q5 11 14 15t35 4q27 0 35 -4t10 -15q79 -267 169 -649.5t142 -673.5q3 -10 -5.5 -14t-33.5 -4z M659 1272q-133 -274 -352 -780h543q-100 459 -191 780z" />
<glyph unicode="B" horiz-adv-x="1216" d="M305 662l-61 -592h350q70 0 129 10t112 35.5t90.5 64t59 99.5t21.5 139q0 130 -92 187t-277 57h-332zM715 1286h-342l-60 -555h340q82 0 147.5 17t118.5 53.5t82 102t29 155.5q0 118 -74 172.5t-241 54.5zM336 1356h387q383 0 383 -293q0 -301 -277 -363 q117 -19 186.5 -88t69.5 -194q0 -211 -129 -314.5t-362 -103.5h-399q-35 0 -35 16l139 1323q3 17 37 17z" />
<glyph unicode="C" horiz-adv-x="1212" d="M172 680q19 185 58.5 312.5t107.5 213t166.5 124t236.5 38.5q218 0 314 -95t78 -282q0 -9 -7 -12.5t-30 -3.5t-31 3.5t-8 12.5q12 156 -65 230.5t-259 74.5q-232 0 -338 -136.5t-143 -479.5q-12 -117 -12 -207q0 -226 85.5 -320t288.5 -94q184 0 274 78t111 244 q1 10 8 13t31 3t31 -3t6 -13q-24 -197 -136.5 -295t-332.5 -98q-241 0 -343.5 112.5t-102.5 368.5q0 94 12 211z" />
<glyph unicode="D" horiz-adv-x="1275" d="M244 74h323q128 0 215.5 30.5t149.5 103t96.5 185.5t52.5 285q11 96 11 188q0 228 -91.5 322t-306.5 94h-323zM561 0h-366q-35 0 -35 16l139 1323q3 17 37 17h366q250 0 359.5 -115.5t109.5 -374.5q0 -103 -10 -188q-37 -363 -174 -520.5t-426 -157.5z" />
<glyph unicode="E" d="M1040 1282h-669l-58 -551h609q15 0 10 -35q-3 -34 -19 -34h-608l-61 -588h678q15 0 10 -37q-3 -37 -17 -37h-720q-35 0 -35 16l139 1323q3 17 37 17h713q9 0 11 -7.5t-1 -29.5q-1 -21 -5.5 -29t-13.5 -8z" />
<glyph unicode="F" horiz-adv-x="1044" d="M305 662l-67 -646q0 -11 -8 -14.5t-33 -3.5q-23 0 -30 3.5t-7 14.5l139 1323q3 17 37 17h696q9 0 11 -7.5t-1 -29.5q-1 -22 -5 -29.5t-13 -7.5h-653l-58 -551h602q9 0 11.5 -6.5t-0.5 -28.5q-1 -20 -5.5 -27t-13.5 -7h-602z" />
<glyph unicode="G" horiz-adv-x="1249" d="M1085 645q20 0 26.5 -3.5t6.5 -14.5l-22 -209q-23 -216 -140.5 -323t-334.5 -107q-239 0 -349 120t-110 386q0 73 10 186q20 185 59 312t106.5 212.5t166.5 124.5t239 39q220 0 318.5 -90.5t83.5 -271.5q-2 -11 -9 -14t-30 -3q-24 0 -31 3.5t-6 13.5q12 149 -68 220.5 t-266 71.5q-119 0 -201 -32t-139.5 -107t-90.5 -190t-52 -289q-10 -117 -10 -186q0 -235 90.5 -336t294.5 -101q184 0 277.5 88t113.5 277l16 153h-354q-9 0 -11 6.5t1 28.5q2 20 5.5 27.5t12.5 7.5h397z" />
<glyph unicode="H" horiz-adv-x="1302" d="M1020 -2q-23 0 -30 3.5t-7 14.5l68 643h-746l-67 -643q0 -11 -8 -14.5t-33 -3.5q-23 0 -30 3.5t-7 14.5l139 1323q2 11 10 15t31 4q24 0 31.5 -4t5.5 -15l-64 -606h746l63 606q2 11 10 15t31 4q24 0 31.5 -4t5.5 -15l-139 -1323q0 -11 -8 -14.5t-33 -3.5z" />
<glyph unicode="I" horiz-adv-x="495" d="M205 -2q-23 0 -30 3.5t-7 14.5l139 1323q2 11 10 15t31 4q24 0 31.5 -4t5.5 -15l-139 -1323q0 -11 -8 -14.5t-33 -3.5z" />
<glyph unicode="J" horiz-adv-x="1040" d="M776 461l92 878q2 11 9.5 15t31.5 4q23 0 31 -4t6 -15l-92 -882q-13 -122 -40 -207t-75.5 -145t-121.5 -88.5t-175 -28.5q-172 0 -254 81t-82 246q0 31 3 68q2 9 10 12.5t31 3.5t29.5 -3.5t4.5 -12.5q-2 -20 -2 -61q0 -134 63 -197.5t201 -63.5q84 0 142.5 23.5 t96.5 74.5t59 123t32 179z" />
<glyph unicode="K" horiz-adv-x="1146" d="M1149 1337l-563 -618l442 -701q11 -16 -18 -19q-7 -1 -15 -1q-42 0 -55 16l-418 666h-215l-69 -664q0 -11 -8 -14.5t-33 -3.5q-23 0 -30 3.5t-7 14.5l139 1323q2 11 10 15t31 4q24 0 31.5 -4t5.5 -15l-62 -585h213l531 587q17 17 61 17q36 0 33 -14z" />
<glyph unicode="L" horiz-adv-x="1003" d="M377 1339l-133 -1265h637q9 0 11 -7.5t-1 -29.5q-2 -21 -5 -29t-12 -8h-679q-35 0 -35 18l139 1321q2 11 10 15t31 4q24 0 31.5 -4t5.5 -15z" />
<glyph unicode="M" horiz-adv-x="1581" d="M764 150q-24 0 -31 3.5t-10 14.5l-358 1079l-129 -1231q0 -11 -8 -14.5t-31 -3.5t-30 3.5t-7 14.5l139 1323q2 11 14 15t45 4q51 0 56 -19l360 -1091l590 1091q11 19 59 19q33 0 45.5 -4t10.5 -15l-140 -1323q0 -10 -9 -14t-32 -4q-22 0 -28 3.5t-6 14.5l131 1233 l-586 -1081q-6 -11 -13.5 -14.5t-31.5 -3.5z" />
<glyph unicode="N" horiz-adv-x="1314" d="M1178 1358q22 0 29 -4t5 -15l-139 -1323q0 -11 -9.5 -14.5t-39.5 -3.5q-24 0 -31 2.5t-12 13.5l-619 1221l-126 -1219q0 -11 -8 -14.5t-31 -3.5t-30 3.5t-7 14.5l139 1323q2 11 11.5 15t37.5 4q24 0 32 -3t13 -14l617 -1218l129 1216q2 11 9.5 15t29.5 4z" />
<glyph unicode="O" horiz-adv-x="1282" d="M743 1368q232 0 334.5 -114.5t102.5 -370.5q0 -85 -13 -205q-39 -370 -168 -530t-401 -160q-233 0 -335.5 115t-102.5 372q0 92 12 203q26 248 90 397t180.5 221t300.5 72zM604 57q232 0 340 138.5t143 482.5q13 123 13 205q0 225 -85 320t-280 95q-232 0 -339 -138 t-144 -482q-12 -114 -12 -203q0 -227 84.5 -322.5t279.5 -95.5z" />
<glyph unicode="P" horiz-adv-x="1163" d="M598 547h-305l-55 -531q0 -11 -8 -14.5t-33 -3.5q-23 0 -30 3.5t-7 14.5l139 1323q3 17 37 17h346q221 0 320.5 -75.5t99.5 -246.5q0 -24 -4 -82q-20 -217 -137.5 -311t-362.5 -94zM371 1282l-70 -661h301q209 0 302.5 71.5t113.5 259.5q4 54 4 74q0 144 -81 200t-269 56 h-301z" />
<glyph unicode="Q" horiz-adv-x="1282" d="M743 1368q232 0 334.5 -114.5t102.5 -370.5q0 -85 -13 -205q-37 -349 -153.5 -510t-354.5 -178q46 -86 155 -139t237 -56q9 0 11 -7.5t-1 -27.5q-2 -36 -19 -36q-146 0 -278.5 74t-192.5 190q-217 6 -314 121t-97 364q0 91 12 205q26 248 90 397t180.5 221t300.5 72z M604 57q232 0 340 138.5t143 482.5q13 123 13 205q0 225 -85 320t-280 95q-232 0 -339 -138t-144 -482q-12 -114 -12 -203q0 -227 84.5 -322.5t279.5 -95.5z" />
<glyph unicode="R" horiz-adv-x="1185" d="M580 588h-283l-59 -572q0 -11 -8 -14.5t-33 -3.5q-23 0 -30 3.5t-7 14.5l139 1323q3 17 37 17h350q216 0 314 -74.5t98 -237.5q0 -19 -4 -73q-29 -297 -306 -361q79 -29 124 -99.5t71 -188.5q28 -126 45 -306q1 -5 -1 -8.5t-12 -6.5t-28 -3q-24 0 -31 3.5t-10 14.5 q-8 117 -45 289q-15 71 -36.5 120t-57.5 87.5t-92.5 57t-134.5 18.5zM371 1282l-66 -625h305q197 0 292.5 71t113.5 243q4 50 4 67q0 135 -80 189.5t-264 54.5h-305z" />
<glyph unicode="S" horiz-adv-x="1167" d="M561 59q383 0 383 320q0 49 -14.5 86t-38.5 63t-68 48.5t-89 38t-116 34.5q-75 20 -128.5 39.5t-107.5 48.5t-87 64t-53.5 84.5t-20.5 111.5q0 191 117 281t330 90t305 -79.5t74 -258.5q0 -9 -7 -12.5t-30 -3.5t-31 3.5t-8 12.5q15 145 -58 205.5t-251 60.5 q-79 0 -140 -13t-113.5 -44.5t-81 -91.5t-28.5 -146q0 -52 18 -92t44 -66t78 -50.5t94.5 -39t119.5 -36.5q100 -29 162 -55t112.5 -64t72.5 -90t22 -125q0 -201 -123 -298t-346 -97q-219 0 -330.5 84.5t-93.5 261.5q0 10 6.5 13t30.5 3t31.5 -3t7.5 -13 q-13 -144 77.5 -209.5t278.5 -65.5z" />
<glyph unicode="T" horiz-adv-x="1052" d="M1055 1286h-398l-133 -1270q0 -10 -9 -14t-32 -4q-24 0 -30.5 3.5t-6.5 14.5l134 1270h-394q-9 0 -11.5 6.5t-0.5 28.5q3 22 6.5 28.5t12.5 6.5h868q9 0 11 -6.5t-1 -28.5q-2 -22 -4.5 -28.5t-11.5 -6.5z" />
<glyph unicode="U" horiz-adv-x="1290" d="M610 -12q-217 0 -316 89.5t-99 284.5q0 52 6 111l90 866q2 11 10 15t31 4q24 0 31.5 -4t5.5 -15l-90 -862q-7 -65 -7 -102q0 -163 78.5 -237.5t259.5 -74.5q205 0 299.5 97t118.5 317l90 862q2 11 9.5 15t31.5 4q23 0 31 -4t6 -15l-90 -866q-28 -258 -141 -371.5 t-355 -113.5z" />
<glyph unicode="V" horiz-adv-x="1130" d="M1116 1358q25 0 33 -4.5t4 -14.5q-114 -297 -282 -679.5t-300 -643.5q-5 -11 -14 -14.5t-35 -3.5q-25 0 -32.5 3.5t-12.5 14.5q-77 259 -164 641.5t-139 681.5q-2 11 7 15t34 4q24 0 30.5 -4t8.5 -15q43 -256 122 -606t156 -629q134 272 287 622t254 613q5 11 12.5 15 t30.5 4z" />
<glyph unicode="W" horiz-adv-x="1859" d="M1833 1358q24 0 32 -4t5 -15q-101 -294 -254 -681.5t-268 -641.5q-5 -11 -14.5 -14.5t-33.5 -3.5q-22 0 -29.5 4t-10.5 14q-131 548 -242 1229q-249 -665 -500 -1229q-6 -18 -45 -18q-24 0 -31 3.5t-12 14.5q-63 263 -134.5 651t-109.5 672q0 11 8.5 15t32.5 4 q22 0 28.5 -4t8.5 -15q64 -514 221 -1245q252 575 500 1245q5 11 13 15t32 4t31.5 -4t9.5 -15q111 -664 238 -1245q121 282 259.5 637t223.5 608q5 11 12 15t29 4z" />
<glyph unicode="X" horiz-adv-x="1175" d="M702 698l351 -680q5 -11 -3 -15.5t-32 -4.5q-26 0 -35.5 3t-13.5 13l-330 650h-49l-465 -650q-7 -16 -53 -16q-24 0 -30 4.5t-1 15.5l494 680l-347 639q-3 11 3.5 16t29.5 5q26 0 36.5 -3.5t14.5 -13.5l324 -610h51l453 610q7 10 18 13.5t37 3.5q24 0 30 -5t-1 -16z" />
<glyph unicode="Y" horiz-adv-x="1110" d="M1051 1339l1 2q7 12 18 14q7 1 22 1q38 0 39 -10q0 -4 -3 -9q-109 -190 -258.5 -427.5t-263.5 -399.5h-2l-51 -494q0 -10 -9 -14t-32 -4q-24 0 -30.5 3.5t-6.5 14.5l51 496q-80 162 -179.5 398t-168.5 427q-3 11 5.5 15t35.5 4q23 0 28.5 -3t8.5 -14q131 -371 317 -757 q265 379 478 757z" />
<glyph unicode="Z" d="M252 1356h809q10 0 12.5 -8t-0.5 -31q-3 -24 -12 -35l-887 -1210h766q9 0 12 -7t0 -28q-3 -37 -18 -37h-840q-10 0 -13 7.5t-1 29.5q2 19 12 35l887 1212h-735q-9 0 -11.5 7t-1.5 28q5 37 21 37z" />
<glyph unicode="[" horiz-adv-x="671" d="M141 -356l187 1761q0 9 6 12.5t24 3.5h301q9 0 11 -6t0 -24q-2 -19 -5 -25t-12 -6h-262l-174 -1671h266q8 0 9.5 -6t-0.5 -25q-2 -18 -5 -24.5t-12 -6.5h-305q-18 0 -23.5 3.5t-5.5 13.5z" />
<glyph unicode="\" horiz-adv-x="724" d="M553 -152l-399 1598q-3 9 3 12.5t27 3.5q26 0 32 -3t9 -13l400 -1598q2 -9 -4 -12.5t-27 -3.5q-26 0 -32.5 3t-8.5 13z" />
<glyph unicode="]" horiz-adv-x="671" d="M530 1405l-186 -1761q0 -17 -31 -17h-301q-8 0 -10 7t0 24q2 19 4.5 25t11.5 6h263l174 1671h-267q-8 0 -9 4.5t0 18.5q1 5 1 8q2 18 5 24t12 6h305q18 0 23 -3t5 -13z" />
<glyph unicode="^" horiz-adv-x="1093" d="M647 1360q22 0 28.5 -1.5t10.5 -10.5l293 -641q5 -11 -2.5 -15t-30.5 -4q-38 0 -45 17l-262 573l-381 -573q-12 -17 -49 -17q-33 0 -33 9l4 10l428 641q4 9 10.5 10.5t28.5 1.5z" />
<glyph unicode="_" horiz-adv-x="782" d="M711 -190h-760q-9 0 -11 5.5t-1 24.5q3 31 18 31h760q8 0 10 -7t0 -24q-2 -19 -4.5 -24.5t-11.5 -5.5z" />
<glyph unicode="`" horiz-adv-x="638" d="M549 1124l-313 160q-8 5 -8 12t12 27q14 19 21.5 23t14.5 -3l304 -176q7 -5 6.5 -10t-8.5 -18q-9 -14 -14.5 -16.5t-14.5 1.5z" />
<glyph unicode="a" horiz-adv-x="1048" d="M285 721q0 -10 -6.5 -13t-30.5 -3q-23 0 -29 2.5t-6 13.5q34 272 377 272q186 0 261 -74t60 -229l-71 -676q0 -10 -7 -13t-30 -3q-22 0 -27.5 2.5t-5.5 13.5l18 189q-46 -89 -147.5 -150t-234.5 -61q-142 0 -221 57.5t-79 169.5q0 153 95 226t264 73h354l19 168 q13 133 -46.5 189.5t-207.5 56.5q-140 0 -213 -51t-86 -160zM813 459h-350q-62 0 -110 -10.5t-88.5 -35.5t-62.5 -72.5t-22 -115.5q0 -89 62 -130.5t170 -41.5q143 0 261 92.5t130 210.5z" />
<glyph unicode="b" horiz-adv-x="1126" d="M362 1403l-63 -606q111 196 367 196q182 0 266 -98t84 -289q0 -50 -6 -112q-27 -252 -134.5 -380t-314.5 -128q-261 0 -328 198l-20 -170q0 -10 -7.5 -13t-29.5 -3t-27.5 2.5t-5.5 13.5l146 1389q1 10 8 13t31 3q22 0 28.5 -3t5.5 -13zM268 489q-6 -61 -6 -114 q0 -164 71 -243t232 -79q175 0 260 107.5t109 333.5q6 62 6 114q0 162 -66 240t-217 78q-187 0 -277 -106.5t-112 -330.5z" />
<glyph unicode="c" horiz-adv-x="1009" d="M586 926q-183 0 -266 -104.5t-107 -332.5q-8 -94 -8 -127q0 -160 68 -233.5t231 -73.5q265 0 299 221q0 17 37 17q22 0 28 -4t6 -15q-45 -286 -376 -286q-197 0 -283 91.5t-86 282.5q0 37 8 127q27 257 132 380.5t323 123.5q164 0 247.5 -70t75.5 -196q-2 -11 -8 -14.5 t-28 -3.5t-29.5 3.5t-5.5 12.5q5 99 -60.5 150t-197.5 51z" />
<glyph unicode="d" horiz-adv-x="1126" d="M831 14l17 172q-108 -200 -369 -200q-181 0 -264.5 97.5t-83.5 289.5q0 56 6 121q26 247 133 373t314 126q257 0 325 -196l64 606q1 10 9 13t30 3q24 0 30 -3t5 -13l-146 -1389q0 -10 -7.5 -13t-29.5 -3t-27.5 2.5t-5.5 13.5zM879 489q6 59 6 109q0 167 -71.5 247.5 t-233.5 80.5q-175 0 -260 -105.5t-107 -326.5q-6 -64 -6 -121q0 -162 65.5 -241t214.5 -79q187 0 277.5 106t114.5 330z" />
<glyph unicode="e" horiz-adv-x="1036" d="M905 475h-698q-4 -70 -4 -96q0 -165 72 -245.5t233 -80.5q259 0 301 209q3 11 9.5 14t27.5 3q24 0 31 -3.5t4 -13.5q-25 -132 -119.5 -203t-253.5 -71q-194 0 -286.5 95.5t-92.5 289.5q0 51 6 112q29 257 136.5 382.5t320.5 125.5q177 0 260.5 -90t83.5 -244 q0 -21 -4 -75l-6 -70q-3 -24 -7 -31.5t-14 -7.5zM592 928q-173 0 -260 -94.5t-117 -296.5h641l6 49q4 46 4 67q0 275 -274 275z" />
<glyph unicode="f" horiz-adv-x="692" d="M666 915h-285l-94 -901q0 -10 -8 -13t-31 -3t-29 2.5t-6 13.5l94 901h-174q-9 0 -10.5 6t0.5 25t5.5 26t12.5 7l174 2l15 143q18 156 82.5 227.5t199.5 71.5q92 0 158 -28q9 -4 8 -10.5t-10 -26.5q-13 -29 -27 -23q-54 21 -135 21q-103 0 -148 -54.5t-57 -181.5l-14 -139 h287q8 0 9 -5.5t0 -20.5q-1 -5 -1 -7q-2 -21 -4.5 -27t-11.5 -6z" />
<glyph unicode="g" horiz-adv-x="1060" d="M156 -94q-12 -116 60.5 -172t234.5 -56q66 0 121 12.5t102 40t73.5 78.5t26.5 121q0 187 -293 215q-178 0 -262 83t-84 249q0 43 6 92q22 213 125 318.5t303 105.5q77 0 138 -18l303 10q9 0 11 -6.5t-1 -26.5q-2 -20 -4.5 -26t-11.5 -6h-191q102 -86 102 -269 q0 -24 -4 -82q-35 -319 -262 -399q197 -59 197 -244q0 -161 -108 -236t-289 -75q-196 0 -287 72.5t-76 218.5q0 10 6.5 13t30.5 3q22 0 27.5 -2.5t5.5 -13.5zM487 211q166 0 248 86t103 272q4 58 4 82q0 142 -66 209.5t-213 67.5q-166 0 -247.5 -86.5t-100.5 -272.5 q-6 -46 -6 -88q0 -139 66 -204.5t212 -65.5z" />
<glyph unicode="h" horiz-adv-x="1126" d="M362 1403l-65 -623q21 38 52.5 73t77.5 68t110 52.5t137 19.5q160 0 242.5 -84t64.5 -256l-68 -639q0 -10 -8 -13t-31 -3t-28.5 2.5t-5.5 13.5l67 639q15 141 -46.5 206t-194.5 65q-156 0 -264 -96.5t-121 -223.5l-64 -590q0 -10 -8 -13t-31 -3t-29 2.5t-6 13.5l146 1389 q1 10 8 13t31 3q22 0 28.5 -3t5.5 -13z" />
<glyph unicode="i" horiz-adv-x="442" d="M143 14l101 953q2 9 10 12.5t29 3.5q23 0 29.5 -3.5t4.5 -12.5l-100 -953q0 -10 -7.5 -13t-31.5 -3q-22 0 -28.5 3t-6.5 13zM322 1364q27 0 32.5 -3.5t3.5 -19.5l-14 -149q-2 -15 -8.5 -19t-32.5 -4t-32.5 4t-4.5 19l15 149q2 15 8.5 19t32.5 4z" />
<glyph unicode="j" horiz-adv-x="466" d="M-100 -307l24 -5q25 -5 53 -5q61 0 94.5 17.5t55.5 70t33 155.5l108 1041q2 9 10 12.5t29 3.5q23 0 30 -3.5t5 -12.5l-109 -1043q-10 -94 -29 -154.5t-51 -93.5t-71 -45t-98 -12q-70 0 -93 10q-7 3 -8.5 7.5t0.5 23.5q2 20 5 26.5t12 6.5zM346 1364q27 0 33 -4t4 -19 l-14 -149q-2 -15 -8.5 -19t-32.5 -4t-33 4t-6 19l14 149q1 15 9 19t34 4z" />
<glyph unicode="k" horiz-adv-x="958" d="M362 1403l-88 -842h156l422 402q12 12 23.5 16t37.5 4q37 0 35 -13q-1 -4 -6 -9l-453 -433l365 -510q14 -17 -18 -19q-7 -1 -15 -1q-28 0 -37 3t-18 15l-342 480h-158l-49 -482q0 -10 -8 -13t-31 -3t-29 2.5t-6 13.5l146 1389q1 10 8 13t31 3q22 0 28.5 -3t5.5 -13z" />
<glyph unicode="l" horiz-adv-x="466" d="M334 70h39q9 0 11 -7.5t-1 -27.5q-2 -21 -4.5 -28t-11.5 -7h-41q-101 0 -138 43.5t-26 146.5l127 1211q2 9 10 12.5t29 3.5q23 0 29.5 -3.5t4.5 -12.5l-124 -1202q-8 -74 11.5 -101.5t84.5 -27.5z" />
<glyph unicode="m" horiz-adv-x="1712" d="M922 604v4l-64 -594q0 -10 -7.5 -13t-31.5 -3q-22 0 -28.5 3t-6.5 13l70 652q24 258 -215 258q-141 0 -243 -97t-115 -223l-64 -590q0 -10 -8 -13t-31 -3t-29 2.5t-6 13.5l101 953q1 10 8 13t29 3t27.5 -3t4.5 -13l-18 -191q40 86 129.5 151.5t216.5 65.5 q119 0 194.5 -57t88.5 -164q127 221 358 221q131 0 210 -63.5t79 -206.5q0 -19 -4 -59l-68 -650q0 -10 -7.5 -13t-31.5 -3q-22 0 -28.5 3t-6.5 13l70 652q24 258 -215 258q-143 0 -244 -97t-114 -223z" />
<glyph unicode="n" horiz-adv-x="1126" d="M313 967l-18 -191q20 39 51.5 75t77.5 69t111 53t139 20q160 0 242.5 -84t64.5 -256l-68 -639q0 -10 -8 -13t-31 -3t-28.5 2.5t-5.5 13.5l67 639q15 141 -46.5 206t-194.5 65q-156 0 -264 -96.5t-121 -223.5l-64 -590q0 -10 -8 -13t-31 -3t-29 2.5t-6 13.5l101 953 q1 10 8 13t29 3t27.5 -3t4.5 -13z" />
<glyph unicode="o" horiz-adv-x="1069" d="M596 993q192 0 277 -94t85 -285q0 -58 -6 -125q-27 -256 -133 -379.5t-327 -123.5q-192 0 -277.5 92.5t-85.5 283.5q0 37 8 127q27 257 133 380.5t326 123.5zM498 53q186 0 270.5 104.5t108.5 331.5q8 90 8 123q0 161 -68 237.5t-227 76.5q-185 0 -269 -104.5 t-108 -332.5q-8 -90 -8 -124q0 -160 68 -236t225 -76z" />
<glyph unicode="p" horiz-adv-x="1126" d="M313 967l-16 -176q108 202 369 202q182 0 266 -98t84 -289q0 -50 -6 -112q-27 -252 -134.5 -380t-314.5 -128q-255 0 -325 192l-58 -532q0 -10 -8.5 -13.5t-30.5 -3.5q-23 0 -29 3t-6 14l140 1321q1 10 8 13t29 3t27.5 -3t4.5 -13zM268 489q-6 -61 -6 -114 q0 -164 71 -243t232 -79q175 0 260 107.5t109 333.5q6 62 6 114q0 162 -66 240t-217 78q-187 0 -277 -106.5t-112 -330.5z" />
<glyph unicode="q" horiz-adv-x="1126" d="M823 -371q-22 0 -28.5 3t-6.5 14l58 536q-111 -196 -367 -196q-181 0 -264.5 97.5t-83.5 289.5q0 56 6 121q26 247 133 373t314 126q259 0 327 -202l21 176q1 10 8 13t29 3t27.5 -3t4.5 -13l-139 -1321q0 -10 -8 -13.5t-31 -3.5zM879 489q6 59 6 109q0 167 -71.5 247.5 t-233.5 80.5q-175 0 -260 -105.5t-107 -326.5q-6 -64 -6 -121q0 -162 65.5 -241t214.5 -79q187 0 277.5 106t114.5 330z" />
<glyph unicode="r" horiz-adv-x="696" d="M676 915q-171 0 -278 -93t-122 -242l-59 -566q0 -10 -8 -13t-31 -3t-29 2.5t-6 13.5l101 953q1 10 8 13t29 3t27.5 -3t4.5 -13l-20 -207q39 97 140 163t251 66q11 0 13 -7t-1 -30q-1 -23 -5 -30t-15 -7z" />
<glyph unicode="s" horiz-adv-x="978" d="M176 262q-9 -108 63 -158.5t230 -50.5q57 0 106.5 11t94 34.5t70.5 68t26 105.5q0 37 -11.5 64t-31 46t-55 34.5t-73.5 26t-97 22.5q-164 32 -244 90t-80 162q0 276 358 276q177 0 258 -63.5t68 -192.5q0 -10 -7 -13t-30 -3t-28 2.5t-7 13.5q9 98 -51 144.5t-205 46.5 q-55 0 -102 -9.5t-90 -31.5t-67.5 -64.5t-24.5 -101.5q0 -35 12.5 -61t32.5 -44.5t58 -34.5t77.5 -26.5t101.5 -24.5q80 -18 131.5 -36t94.5 -46t63 -69t21 -98q0 -293 -367 -293q-193 0 -287 70t-80 204q2 11 8 14t29 3q22 0 28.5 -3t6.5 -14z" />
<glyph unicode="t" horiz-adv-x="729" d="M662 915h-293l-70 -655q-4 -46 -4 -61q0 -78 32.5 -111t106.5 -33q76 0 137 25q7 4 11.5 -1.5t9.5 -21.5q4 -19 3 -24t-9 -10q-72 -31 -156 -31q-107 0 -158 47.5t-51 153.5q0 15 4 61l68 661h-160q-9 0 -10.5 6t0.5 25t5.5 26t12.5 7l160 2l29 266q0 9 7.5 13t29.5 4 t29 -3.5t7 -13.5l-28 -266h295q9 0 10.5 -7t-0.5 -26q-1 -20 -5 -26.5t-13 -6.5z" />
<glyph unicode="u" d="M819 14l19 187q-15 -30 -33.5 -57t-49 -56.5t-67 -50.5t-88.5 -35t-111 -14q-164 0 -255 87.5t-72 268.5l65 623q1 10 9 13t30 3q24 0 30 -3t5 -13l-65 -623q-16 -150 53.5 -218.5t206.5 -68.5q79 0 145.5 29t110 76t70 102.5t32.5 112.5l61 590q1 10 9 13t30 3 q24 0 30 -3t5 -13l-100 -953q0 -10 -7.5 -13t-29.5 -3t-27.5 2.5t-5.5 13.5z" />
<glyph unicode="v" horiz-adv-x="950" d="M901 983q24 0 31 -4.5t2 -15.5q-82 -206 -212 -478t-241 -473q-5 -14 -49 -14q-24 0 -33 2.5t-12 11.5q-70 201 -142.5 473t-109.5 478q-2 11 5.5 15.5t31.5 4.5q23 0 30 -4t9 -14q38 -200 102 -448t127 -439q107 201 224 448t194 439q5 10 12.5 14t30.5 4z" />
<glyph unicode="w" horiz-adv-x="1519" d="M1456 983q24 0 29.5 -3t3.5 -13q0 -3 -3.5 -14t-4.5 -13q-216 -542 -400 -928q-5 -14 -45 -14q-20 0 -26 2.5t-11 11.5q-95 398 -188 873q-149 -366 -373 -873q-7 -14 -41 -14q-22 0 -30 2.5t-11 11.5q-97 363 -202 928q-4 16 -4 27q1 7 3 9.5t9.5 4.5t23.5 2 q22 0 29.5 -4.5t9.5 -15.5q68 -415 178 -881q214 483 373 883q9 18 45 18q38 0 41 -18q71 -373 187 -883q156 338 364 881q5 11 13 15.5t30 4.5z" />
<glyph unicode="x" horiz-adv-x="954" d="M752 16l-250 463h-33l-348 -463q-7 -12 -15.5 -15t-33.5 -3q-16 0 -24 2.5t-9 7t2 10.5l375 494l-264 449q-5 11 2.5 16.5t31.5 5.5q25 0 31.5 -3.5t13.5 -16.5l242 -418h39l330 418q10 13 17 16.5t32 3.5q16 0 25 -2.5t10 -7.5t-4 -12l-359 -449l268 -494 q3 -6 1.5 -10.5t-10.5 -7t-25 -2.5q-24 0 -30.5 3t-14.5 15z" />
<glyph unicode="y" horiz-adv-x="978" d="M133 -317q48 0 84.5 16t72.5 57.5t64.5 87.5t75.5 133l10 23q-16 0 -22 12q-74 201 -155.5 473.5t-127.5 477.5q-2 12 5.5 16t31.5 4q23 0 31 -4t8 -14q43 -200 117 -456.5t143 -451.5q89 171 210 433t208 475q2 4 3.5 6.5t4.5 5t7 3.5t10.5 2t15.5 1q24 0 31.5 -4.5 t1.5 -17.5q-93 -230 -234 -528.5t-233 -467.5q-43 -79 -70 -124.5t-62.5 -94t-67 -72.5t-73 -39.5t-90.5 -15.5q-73 0 -110 16q-9 1 -11 6.5t0 24.5q3 20 6.5 25.5t12.5 5.5q3 0 14.5 -3.5t34.5 -7t53 -3.5z" />
<glyph unicode="z" horiz-adv-x="958" d="M879 922l-705 -859h617q9 0 10.5 -5.5t-0.5 -24.5t-5 -26t-12 -7h-694q-9 0 -10.5 6t0.5 23q3 20 6 24l711 865h-594q-9 0 -10.5 5.5t0.5 24.5q2 20 4.5 26.5t11.5 6.5h670q11 0 8 -33q0 -15 -8 -26z" />
<glyph unicode="{" horiz-adv-x="671" d="M70 524q3 20 6 26.5t12 6.5h53q72 0 108.5 79.5t57.5 270.5q24 225 47 306q40 143 136 186q50 22 120 22h60q9 0 10.5 -6.5t-0.5 -23.5q-2 -19 -4.5 -25t-11.5 -6h-58q-44 0 -76.5 -12t-54.5 -40t-36.5 -60t-24.5 -86.5t-16 -103.5t-14 -125q-1 -7 -1 -11t-0.5 -10 t-1.5 -11q-15 -134 -42 -218t-57 -117t-69 -42q96 -21 96 -229q0 -72 -8 -148q-20 -204 -20 -262q0 -101 33 -148.5t118 -47.5h57q8 0 9.5 -6t-0.5 -25q-2 -18 -5 -24.5t-12 -6.5h-59q-121 0 -168 63.5t-47 192.5q0 66 20 258q11 121 11 166q0 97 -24.5 141t-78.5 44h-53 q-9 0 -11.5 6.5t-0.5 25.5z" />
<glyph unicode="|" horiz-adv-x="585" d="M330 1403v-1798q0 -10 -7.5 -13.5t-29.5 -3.5q-23 0 -30 3t-7 14v1798q0 10 6.5 13t30.5 3q23 0 30 -3t7 -13z" />
<glyph unicode="}" horiz-adv-x="671" d="M602 524q-3 -20 -6 -26t-12 -6h-54q-72 0 -108 -79.5t-57 -271.5q-24 -225 -48 -307q-40 -143 -137 -185q-49 -22 -119 -22h-59q-8 0 -10 7t0 24q2 19 4.5 25t11.5 6h58q38 0 67.5 10.5t50 26.5t36.5 47.5t25.5 61t18 80t13 92.5t11.5 109q2 20 3 31q15 134 42 218 t57 117t69 42q-97 21 -97 230q0 62 9 147q20 204 20 262q0 101 -33 149t-118 48h-58q-8 0 -9 4.5t0 18.5q1 5 1 8q2 18 4.5 24t11.5 6h60q121 0 168 -63.5t47 -192.5q0 -56 -21 -258q-10 -110 -10 -166q0 -97 24.5 -140.5t78.5 -43.5h53q15 0 12 -33z" />
<glyph unicode="~" horiz-adv-x="1093" d="M504 647l149 -88q50 -29 92 -29q92 0 146 123q3 9 24 9q15 0 22 -5t3 -14q-39 -92 -88 -133t-113 -41q-56 0 -112 29l-150 88q-49 30 -92 30q-47 0 -81 -29.5t-62 -92.5q-6 -9 -27 -9q-17 0 -22.5 4t-2.5 13q39 92 88 134t113 42q59 0 113 -31z" />
<glyph unicode="&#xa1;" horiz-adv-x="512" d="M274 596q20 0 25.5 -3.5t3.5 -12.5l-84 -938q0 -12 -10.5 -16.5t-36.5 -4.5q-25 0 -34.5 4.5t-6.5 16.5l113 938q1 7 2.5 9.5t8 4.5t19.5 2zM295 786q-27 0 -36 4.5t-7 18.5l14 152q1 14 10.5 18t38.5 4t37.5 -4t7.5 -18l-14 -152q-1 -13 -12 -18t-39 -5z" />
<glyph unicode="&#xa2;" horiz-adv-x="1040" d="M514 -2q-22 0 -27.5 3t-5.5 13l17 160q-181 9 -259.5 101t-78.5 276q0 35 8 129q27 252 127.5 376.5t308.5 131.5l17 155q2 11 7.5 14t28.5 3t29 -3t4 -14l-16 -157q149 -7 222 -76t67 -188q-2 -11 -8.5 -15t-28.5 -4q-21 0 -29 4t-6 13q5 92 -51.5 142t-175.5 56 l-93 -876q126 6 194 60t83 161q2 9 9 12.5t28 3.5q23 0 30 -3.5t5 -14.5q-42 -275 -353 -287l-16 -160q0 -9 -7 -12.5t-30 -3.5zM236 553q0 -155 61.5 -229.5t210.5 -81.5l94 878q-175 -6 -254.5 -111t-103.5 -329q-8 -90 -8 -127z" />
<glyph unicode="&#xa3;" horiz-adv-x="1187" d="M137 0q-9 -6 -14.5 -1t-13.5 24q-11 20 -11.5 27.5t8.5 12.5q114 71 189.5 171.5t75.5 224.5q0 82 -47 200h-172q-9 0 -11 5.5t0 25.5q1 20 4.5 25.5t12.5 5.5h139q-45 113 -45 223q0 198 118.5 311t329.5 113q194 0 282.5 -75.5t88.5 -227.5q0 -41 -2 -61 q-2 -11 -9.5 -15t-29.5 -4q-23 0 -30 4t-5 15q14 152 -54 222t-245 70q-81 0 -146 -20t-114.5 -60.5t-76.5 -108t-27 -157.5q0 -106 49 -229h364q9 0 11.5 -5.5t1.5 -25.5q-1 -19 -5 -25t-14 -6h-333q40 -103 40 -194q0 -144 -96 -277q169 -129 365 -129q74 0 124 21 t79.5 65.5t45 98t25.5 135.5q2 11 9 14.5t30 3.5t30 -3.5t5 -14.5q-23 -194 -101.5 -290.5t-244.5 -96.5q-224 0 -414 141q-71 -77 -166 -133z" />
<glyph unicode="&#xa4;" horiz-adv-x="1130" d="M129 305l104 107q-55 104 -55 266t55 266l-104 107q-6 6 -3.5 12.5t15.5 19.5q15 14 21 16.5t12 -3.5l96 -97q95 115 295 115t295 -115l96 97q6 6 12 3.5t21 -16.5q13 -13 15.5 -19.5t-3.5 -12.5l-104 -107q55 -104 55 -266t-55 -266l104 -107q11 -11 -12 -33 q-15 -14 -21 -16t-12 4l-96 94q-95 -112 -295 -112t-295 112l-96 -94q-6 -6 -12 -4t-21 16q-23 22 -12 33zM565 303q166 0 241 92t75 283t-75 283t-241 92t-240.5 -92t-74.5 -283t74.5 -283t240.5 -92z" />
<glyph unicode="&#xa5;" horiz-adv-x="1134" d="M958 428h-350l-43 -412q0 -10 -9 -14t-32 -4q-24 0 -30.5 3.5t-6.5 14.5l43 412h-352q-7 0 -8.5 5.5t0.5 25.5q1 19 4.5 24.5t11.5 5.5h349q-41 83 -101 224h-233q-9 0 -11.5 5.5t0.5 24.5q1 20 4.5 25.5t12.5 5.5h203q-140 324 -222 563q-3 11 5.5 15t37.5 4 q23 0 30.5 -3t10.5 -14q120 -357 312 -784q106 159 242 383.5t233 400.5q6 11 13.5 14t31.5 3q42 0 42 -11l-3 -8q-154 -267 -342 -563h205q9 0 11 -5.5t1 -25.5q-3 -19 -6.5 -24.5t-12.5 -5.5h-237q-71 -114 -146 -224h351q9 0 10.5 -5t-0.5 -25q-1 -19 -5 -25t-14 -6z" />
<glyph unicode="&#xa6;" horiz-adv-x="585" d="M330 317v-712q0 -10 -7.5 -13.5t-29.5 -3.5q-23 0 -30 3t-7 14v712q0 11 7 14t30 3q22 0 29.5 -3.5t7.5 -13.5zM330 1403v-713q0 -10 -7 -13t-30 -3q-24 0 -30.5 3t-6.5 13v713q0 10 6.5 13t30.5 3q23 0 30 -3t7 -13z" />
<glyph unicode="&#xa7;" horiz-adv-x="1130" d="M193 -84q-8 -113 62.5 -172t229.5 -59q316 0 316 268q0 95 -60.5 142.5t-201.5 76.5q-87 18 -147 39t-111.5 55t-77 86t-25.5 123q0 140 72 225t201 115q-82 38 -123 97t-41 147q0 160 102.5 234.5t282.5 74.5q181 0 256.5 -71t60.5 -214q-1 -10 -8 -13t-29 -3 q-23 0 -29 3t-5 13q8 113 -48.5 166.5t-205.5 53.5q-306 0 -306 -242q0 -96 65.5 -143.5t219.5 -83.5q66 -15 111.5 -29.5t90.5 -37.5t71.5 -53t42.5 -74t16 -101q0 -288 -260 -346q79 -36 118 -92.5t39 -143.5q0 -166 -104 -252t-283 -86q-196 0 -287 78t-77 217q2 12 8 15 t29 3q21 0 28 -3.5t7 -12.5zM614 768l-55 12q-132 -6 -219.5 -82t-87.5 -215q0 -46 15 -82t38.5 -59.5t67 -43.5t86 -32.5t108.5 -27.5q21 -4 33 -9q141 6 221 81.5t80 228.5q0 46 -12.5 79.5t-33.5 56.5t-59.5 41t-79 29t-102.5 23z" />
<glyph unicode="&#xa8;" horiz-adv-x="638" d="M248 1325q26 0 31.5 -3.5t3.5 -18.5l-15 -144q-2 -14 -8.5 -18t-32.5 -4t-32.5 4t-4.5 18l15 144q1 15 8.5 18.5t34.5 3.5zM588 1325q26 0 31.5 -3.5t3.5 -18.5l-15 -144q-2 -14 -8.5 -18t-32.5 -4t-32.5 4t-4.5 18l15 144q1 15 8.5 18.5t34.5 3.5z" />
<glyph unicode="&#xa9;" horiz-adv-x="1589" d="M496 680q0 215 69.5 314.5t245.5 99.5q134 0 201.5 -59t70.5 -167q0 -12 -28 -12q-31 0 -31 12q-3 85 -53.5 125.5t-159.5 40.5q-147 0 -199.5 -80.5t-52.5 -273.5q0 -98 10.5 -161t39 -109t79 -66t129.5 -20q112 0 160 44t51 140q0 12 31 12q28 0 28 -12 q-3 -122 -67.5 -183t-202.5 -61q-94 0 -156.5 25t-98.5 79t-51 128.5t-15 183.5zM795 1368q330 0 474 -168t144 -522t-144 -522t-474 -168t-474.5 168.5t-144.5 521.5t144.5 521.5t474.5 168.5zM795 47q155 0 262 37.5t172.5 118t94 195.5t28.5 280t-28.5 280t-94 195.5 t-172.5 118t-262 37.5t-262 -37.5t-172.5 -118t-94 -195.5t-28.5 -280t28.5 -280t94 -195.5t172.5 -118t262 -37.5z" />
<glyph unicode="&#xaa;" horiz-adv-x="692" d="M569 1024h-211q-161 0 -161 -135q0 -54 35 -76t100 -22q86 0 155.5 54.5t75.5 123.5zM262 1194q-2 -12 -31 -12q-20 0 -25 2.5t-3 11.5q17 170 241 170q119 0 167.5 -48.5t37.5 -150.5l-41 -405q-2 -17 -33 -17q-18 0 -24.5 3.5t-5.5 13.5l10 104q-32 -55 -92 -90 t-144 -35q-87 0 -136.5 38.5t-49.5 109.5q0 94 61 140t168 46h213l11 96q7 78 -27 109t-121 31q-88 0 -129 -26t-47 -91z" />
<glyph unicode="&#xab;" horiz-adv-x="917" d="M147 551q0 7 13 24l241 287q7 10 45 10t23 -18l-254 -303l191 -303q6 -9 -1.5 -15t-25.5 -6q-38 0 -43 13l-182 284q-9 18 -7 27zM492 551q0 8 12 24l241 287q7 10 46 10q27 0 26 -10q0 -3 -4 -8l-254 -303l191 -303q6 -9 -1.5 -15t-25.5 -6q-38 0 -43 13l-182 284 q-8 16 -6 27z" />
<glyph unicode="&#xad;" horiz-adv-x="794" d="M172 584h487q16 0 13 -33q-3 -20 -6.5 -26.5t-12.5 -6.5h-487q-9 0 -11 6.5t1 26.5q2 20 4.5 26.5t11.5 6.5z" />
<glyph unicode="&#xae;" horiz-adv-x="1077" d="M539 1368q217 0 312 -109t95 -337t-95 -337.5t-312 -109.5t-312.5 109.5t-95.5 337.5t95.5 337t312.5 109zM539 524q195 0 275.5 95t80.5 303t-80.5 302.5t-275.5 94.5t-276 -94.5t-81 -302.5t81 -303t276 -95zM442 877v-203q0 -10 -26 -10q-25 0 -25 10v497q0 11 19 11 h137q94 0 139 -36t45 -114q0 -114 -108 -145q51 -27 79 -113q15 -49 25 -98q1 -7 -3.5 -10.5t-16.5 -3.5q-22 0 -25 10t-12 44t-15 50q-17 51 -41 79.5t-73 31.5h-99zM442 1135v-211h103q72 0 103.5 25.5t31.5 82.5q0 60 -29 81.5t-106 21.5h-103z" />
<glyph unicode="&#xaf;" horiz-adv-x="638" d="M643 1149h-491q-9 0 -11 6.5t0 24.5q3 30 19 30h491q9 0 11 -6t0 -24q-3 -31 -19 -31z" />
<glyph unicode="&#xb0;" horiz-adv-x="716" d="M459 1368q99 0 148.5 -48t49.5 -138q0 -116 -60.5 -188t-180.5 -72q-99 0 -150 48.5t-51 139.5q0 113 63 185.5t181 72.5zM418 971q91 0 140.5 55.5t49.5 155.5q0 70 -37.5 103.5t-115.5 33.5q-89 0 -140 -55t-51 -152q0 -73 37.5 -107t116.5 -34z" />
<glyph unicode="&#xb1;" horiz-adv-x="1093" d="M649 1044l-37 -354h344q9 0 11.5 -6.5t-0.5 -26.5q-2 -19 -5 -25.5t-12 -6.5h-346l-37 -357q0 -9 -7.5 -12.5t-29.5 -3.5q-20 0 -26 3.5t-6 12.5l37 357h-345q-9 0 -10.5 6.5t0.5 25.5q3 22 5.5 27.5t11.5 5.5h346l37 354q2 15 36 15q22 0 28.5 -3t4.5 -12zM131 61h760 q9 0 10.5 -5t-0.5 -25q-2 -19 -4.5 -25t-11.5 -6h-760q-9 0 -10.5 6t0.5 25q1 20 4 25t12 5z" />
<glyph unicode="&#xb2;" horiz-adv-x="659" d="M578 664h-445q-6 0 -7.5 4.5t-0.5 19.5l2 14q7 72 60.5 124.5t156.5 113.5q8 5 33.5 19.5t36.5 21t33.5 21t33.5 24.5t28.5 26t26.5 30.5t19 33t14 39t4 43.5q0 61 -35.5 87t-111.5 26q-92 0 -130.5 -32.5t-47.5 -107.5q-2 -12 -35 -12q-20 0 -26.5 3t-4.5 12 q22 194 250 194q103 0 155 -43.5t52 -126.5q0 -31 -8.5 -60t-18.5 -50.5t-33.5 -46t-39 -39t-50 -37t-51.5 -32.5t-57 -34q-43 -24 -66.5 -39t-52.5 -37.5t-45 -46.5t-22 -51h389q7 0 8.5 -6t-0.5 -25q-1 -20 -3.5 -25t-10.5 -5z" />
<glyph unicode="&#xb3;" horiz-adv-x="659" d="M401 999h-67q-11 0 -8 27t14 27h68q72 0 113.5 39t41.5 112q0 54 -36 79.5t-111 25.5q-92 0 -128.5 -26.5t-45.5 -90.5q-3 -8 -9 -10t-24 -2h-15t-8.5 1.5t-5.5 4t0 6.5q22 176 242 176q102 0 154.5 -44t52.5 -120q0 -61 -29.5 -110t-89.5 -68q48 -9 74 -45.5t26 -95.5 q0 -107 -67 -168.5t-183 -61.5q-121 0 -177 46t-48 135q2 14 33 14q19 0 24.5 -2.5t4.5 -11.5q-2 -65 32.5 -93t130.5 -28q80 0 132.5 42.5t52.5 123.5q0 63 -35.5 90.5t-108.5 27.5z" />
<glyph unicode="&#xb4;" horiz-adv-x="638" d="M586 1284l-346 -160q-15 -8 -25 15q-5 13 -5 18.5t7 9.5l340 176q10 7 17 3t16 -23q10 -22 8.5 -28t-12.5 -11z" />
<glyph unicode="&#xb6;" horiz-adv-x="1036" d="M979 1319h-92q-59 0 -85.5 -24t-33.5 -89l-133 -1265q-19 -183 -79.5 -252.5t-176.5 -69.5q-73 0 -100 10q-8 3 -9 8t0 25q2 31 19 31q2 0 12.5 -2t29 -4t40.5 -2q92 0 135.5 53.5t60.5 204.5l60 581h-82q-194 0 -268 58.5t-74 224.5q0 76 8 149q10 90 23.5 154t36.5 114 t53 80.5t76.5 50t102.5 27t134 7.5h350q8 0 10 -8t0 -27q-2 -20 -5.5 -27.5t-12.5 -7.5z" />
<glyph unicode="&#xb7;" horiz-adv-x="413" d="M211 446q-27 0 -36 4.5t-7 18.5l14 152q1 14 10.5 18t38.5 4t37.5 -4t7.5 -18l-14 -152q-1 -13 -12 -18t-39 -5z" />
<glyph unicode="&#xb8;" horiz-adv-x="638" d="M281 -121h63q82 0 123 -24t41 -86q0 -148 -191 -148h-176q-13 0 -10 27q2 16 4.5 21t11.5 5h172q27 0 44 2t38 10.5t32 28.5t11 52q0 39 -24.5 50t-83.5 11h-107q-29 0 -20 22l67 152q4 10 27 10q14 0 20.5 -3t2.5 -11z" />
<glyph unicode="&#xb9;" horiz-adv-x="659" d="M555 664h-381q-11 0 -8 30q3 31 14 31h162l61 561l-163 -45q-3 -1 -5.5 2t-3.5 10t0 17q3 27 13 30l213 64q18 5 18 -10l-67 -629h153q9 0 6 -31q-3 -30 -12 -30z" />
<glyph unicode="&#xba;" horiz-adv-x="724" d="M229 1053q-4 -50 -4 -70q0 -96 41.5 -142t134.5 -46q111 0 163.5 62.5t66.5 195.5q4 46 4 65q0 98 -41 144.5t-137 46.5q-110 0 -163 -62.5t-65 -193.5zM166 1053q16 157 85.5 235t211.5 78q124 0 179.5 -60t55.5 -182q0 -21 -4 -71q-18 -159 -87.5 -237.5t-211.5 -78.5 q-123 0 -178 59t-55 179q0 24 4 78z" />
<glyph unicode="&#xbb;" horiz-adv-x="917" d="M426 549q0 -9 -12 -25l-242 -286q-8 -11 -45 -11q-12 0 -19 2.5t-8 6.5t4 10l254 303l-190 303q-6 9 1 14.5t26 5.5q25 0 32.5 -2t10.5 -10l182 -285q8 -16 6 -26zM770 549q0 -9 -12 -25l-242 -286q-8 -11 -45 -11q-19 0 -24.5 5t2.5 14l253 303l-190 303q-6 9 1 14.5 t26 5.5q25 0 32.5 -2t10.5 -10l182 -285q8 -16 6 -26z" />
<glyph unicode="&#xbc;" horiz-adv-x="1617" d="M1358 -2q-19 0 -25 2.5t-6 11.5l16 162h-354q-11 0 -8 31q3 26 12 33l385 454q13 13 47 13q23 0 31.5 -2.5t7.5 -12.5l-49 -459h98q8 0 10 -5.5t1 -22.5q-2 -29 -17 -29h-98l-16 -162q0 -14 -35 -14zM1376 1339l-889 -1327q-7 -14 -43 -14q-16 0 -20.5 5t-1.5 13 l889 1327q10 15 43 15q12 0 18.5 -2.5t7 -7t-3.5 -9.5zM555 664h-381q-11 0 -8 30q3 31 14 31h162l61 561l-163 -45q-3 -1 -5.5 2t-3.5 10t0 17q3 27 13 30l213 64q18 5 18 -10l-67 -629h153q9 0 6 -31q-3 -30 -12 -30zM1057 231h295l43 398z" />
<glyph unicode="&#xbd;" horiz-adv-x="1617" d="M1464 0h-444q-10 0 -8 25l2 14q7 72 60 124t157 113q7 4 33.5 19.5t36.5 21.5t33.5 21t34 25t28.5 26t26.5 30.5t18.5 33t14 39t4 43.5q0 60 -35 86t-112 26q-92 0 -130.5 -32t-47.5 -107q-2 -12 -35 -12q-21 0 -26.5 2.5t-4.5 11.5q22 195 250 195q103 0 155 -43.5 t52 -126.5q0 -31 -8.5 -60t-18.5 -50.5t-33.5 -46t-39 -39t-50 -37t-51.5 -32.5t-57 -34q-42 -24 -66.5 -39t-53.5 -38t-45 -47t-22 -51h389q7 0 9 -5.5t0 -24.5q-1 -20 -4 -25.5t-11 -5.5zM1327 1339l-889 -1327q-7 -14 -43 -14q-16 0 -20.5 5t-1.5 13l889 1327 q10 15 43 15q12 0 18.5 -2.5t7 -7t-3.5 -9.5zM555 664h-381q-11 0 -8 30q3 31 14 31h162l61 561l-163 -45q-3 -1 -5.5 2t-3.5 10t0 17q3 27 13 30l213 64q18 5 18 -10l-67 -629h153q9 0 6 -31q-3 -30 -12 -30z" />
<glyph unicode="&#xbe;" horiz-adv-x="1617" d="M1358 -2q-19 0 -25 2.5t-6 11.5l16 162h-354q-11 0 -8 31q3 26 12 33l385 454q13 13 47 13q23 0 31.5 -2.5t7.5 -12.5l-49 -459h98q8 0 10 -5.5t1 -22.5q-2 -29 -17 -29h-98l-16 -162q0 -14 -35 -14zM401 999h-67q-11 0 -8 27t14 27h68q72 0 113.5 39t41.5 112 q0 54 -36 79.5t-111 25.5q-92 0 -128.5 -26.5t-45.5 -90.5q-3 -8 -9 -10t-24 -2h-15t-8.5 1.5t-5.5 4t0 6.5q22 176 242 176q102 0 154.5 -44t52.5 -120q0 -61 -29.5 -110t-89.5 -68q48 -9 74 -45.5t26 -95.5q0 -107 -67 -168.5t-183 -61.5q-121 0 -177 46t-48 135 q2 14 33 14q19 0 24.5 -2.5t4.5 -11.5q-2 -65 32.5 -93t130.5 -28q80 0 132.5 42.5t52.5 123.5q0 63 -35.5 90.5t-108.5 27.5zM1356 1339l-889 -1327q-7 -14 -43 -14q-16 0 -21 5t-2 13l889 1327q10 15 43 15q7 0 12.5 -1t8.5 -3t4.5 -4t0.5 -5t-3 -6zM1057 231h295l43 398z " />
<glyph unicode="&#xbf;" horiz-adv-x="1069" d="M518 528l8 54q2 10 8 13t25 3q21 0 26 -3t5 -13l-4 -54q-5 -59 -31 -109t-64 -86t-83 -69.5t-89 -68.5t-80 -74.5t-58.5 -95.5t-22.5 -123q0 -111 72 -165t223 -54q192 0 278 74.5t107 232.5q0 11 8 14.5t31 3.5q22 0 28 -3t6 -13q-22 -191 -133 -285t-334 -94 q-185 0 -276.5 73.5t-91.5 211.5q0 76 22 137.5t58 103t80 76t90 66t85.5 64.5t68.5 79.5t38 103.5zM578 786q-27 0 -36 4.5t-7 18.5l14 152q1 14 10.5 18t38.5 4t37.5 -4t7.5 -18l-14 -152q-1 -13 -12 -18t-39 -5z" />
<glyph unicode="&#xc0;" horiz-adv-x="1138" d="M987 -2q-22 0 -29 3.5t-10 14.5q-44 234 -84 410h-585q-72 -168 -170 -410q-3 -11 -11.5 -14.5t-31.5 -3.5q-24 0 -31 3.5t-4 14.5q120 301 289.5 682.5t300.5 640.5q5 11 14 15t35 4q27 0 35 -4t10 -15q79 -267 169 -649.5t142 -673.5q3 -10 -5.5 -14t-33.5 -4z M659 1272q-133 -274 -352 -780h543q-100 459 -191 780zM680 1481l-326 164q-10 5 -10 11.5t14 26.5q11 21 19 24.5t16 -3.5l318 -180q10 -7 -4 -29q-8 -12 -13 -15t-14 1z" />
<glyph unicode="&#xc1;" horiz-adv-x="1138" d="M987 -2q-22 0 -29 3.5t-10 14.5q-44 234 -84 410h-585q-72 -168 -170 -410q-3 -11 -11.5 -14.5t-31.5 -3.5q-24 0 -31 3.5t-4 14.5q120 301 289.5 682.5t300.5 640.5q5 11 14 15t35 4q27 0 35 -4t10 -15q79 -267 169 -649.5t142 -673.5q3 -10 -5.5 -14t-33.5 -4z M659 1272q-133 -274 -352 -780h543q-100 459 -191 780zM1047 1645l-363 -164q-9 -4 -13 -1t-9 15q-9 23 4 29l354 180q8 7 15.5 3t15.5 -24q8 -22 7 -27.5t-11 -10.5z" />
<glyph unicode="&#xc2;" horiz-adv-x="1138" d="M987 -2q-22 0 -29 3.5t-10 14.5q-44 234 -84 410h-585q-72 -168 -170 -410q-3 -11 -11.5 -14.5t-31.5 -3.5q-24 0 -31 3.5t-4 14.5q120 301 289.5 682.5t300.5 640.5q5 11 14 15t35 4q27 0 35 -4t10 -15q79 -267 169 -649.5t142 -673.5q3 -10 -5.5 -14t-33.5 -4z M659 1272q-133 -274 -352 -780h543q-100 459 -191 780zM702 1647l-188 -158q-15 -10 -43 -10q-11 0 -17 2.5t-6 6.5t5 9l221 207q9 12 37 12q21 0 30 -12l174 -207q13 -13 -9 -17q-5 -1 -13 -1q-32 0 -39 10z" />
<glyph unicode="&#xc3;" horiz-adv-x="1138" d="M987 -2q-22 0 -29 3.5t-10 14.5q-44 234 -84 410h-585q-72 -168 -170 -410q-3 -11 -11.5 -14.5t-31.5 -3.5q-24 0 -31 3.5t-4 14.5q120 301 289.5 682.5t300.5 640.5q5 11 14 15t35 4q27 0 35 -4t10 -15q79 -267 169 -649.5t142 -673.5q3 -10 -5.5 -14t-33.5 -4z M659 1272q-133 -274 -352 -780h543q-100 459 -191 780zM926 1622l2 29q1 9 7 11.5t21 2.5q19 0 23 -3t2 -13l-6 -41q-18 -129 -133 -129q-59 0 -119 39l-100 67q-45 29 -84 29q-35 0 -53.5 -19t-22.5 -69l-4 -31q0 -12 -27 -12q-20 0 -24.5 2.5t-4.5 11.5l9 43 q18 129 133 129q25 0 50 -7t35.5 -12.5t33.5 -19.5l100 -67q2 -1 14.5 -9t16 -9.5t13.5 -6t18.5 -5.5t19.5 -1q36 0 55 20t25 70z" />
<glyph unicode="&#xc4;" horiz-adv-x="1138" d="M987 -2q-22 0 -29 3.5t-10 14.5q-44 234 -84 410h-585q-72 -168 -170 -410q-3 -11 -11.5 -14.5t-31.5 -3.5q-24 0 -31 3.5t-4 14.5q120 301 289.5 682.5t300.5 640.5q5 11 14 15t35 4q27 0 35 -4t10 -15q79 -267 169 -649.5t142 -673.5q3 -10 -5.5 -14t-33.5 -4z M659 1272q-133 -274 -352 -780h543q-100 459 -191 780zM883 1677q26 0 31.5 -3.5t3.5 -18.5l-15 -146q-2 -14 -8.5 -18t-32.5 -4t-32.5 4t-4.5 18l15 146q1 15 8.5 18.5t34.5 3.5zM526 1677q26 0 31.5 -3.5t3.5 -18.5l-14 -146q-2 -14 -8.5 -18t-32.5 -4t-32.5 4t-4.5 18 l14 146q1 15 8.5 18.5t34.5 3.5z" />
<glyph unicode="&#xc5;" horiz-adv-x="1138" d="M987 -2q-22 0 -29 3.5t-10 14.5q-44 234 -84 410h-585q-72 -168 -170 -410q-3 -11 -11.5 -14.5t-31.5 -3.5q-24 0 -31 3.5t-4 14.5q119 300 285 674.5t296 632.5q-96 20 -96 129q0 77 47 125.5t135 48.5q76 0 113 -36t37 -101q0 -63 -33.5 -108t-95.5 -60 q78 -264 166 -639t141 -666q3 -10 -5.5 -14t-33.5 -4zM659 1272q-133 -274 -352 -780h543q-100 459 -191 780zM670 1362q59 0 94 34t35 95q0 90 -105 90q-59 0 -94 -35t-35 -96q0 -44 24.5 -66t80.5 -22z" />
<glyph unicode="&#xc6;" horiz-adv-x="1736" d="M1663 1282h-619l-57 -551h557q15 0 10 -35q-3 -34 -18 -34h-557l-61 -588h626q15 0 10 -37q-3 -37 -16 -37h-670q-20 0 -27 3.5t-7 12.5l40 394h-557q-87 -140 -235 -394q-8 -18 -45 -18q-25 0 -32 4t-3 14q169 294 410.5 676t425.5 647q8 10 17.5 13.5t35.5 3.5h780 q9 0 11 -7.5t-1 -29.5q-1 -22 -5 -29.5t-13 -7.5zM881 1286q-209 -306 -523 -809h523l86 809h-86z" />
<glyph unicode="&#xc7;" horiz-adv-x="1212" d="M526 -127h64q79 0 120.5 -25t41.5 -86q0 -151 -189 -151h-176q-13 0 -10 27q2 23 8 25q3 1 6 1h172q26 0 43.5 2.5t38.5 11t32 29t11 51.5q0 41 -25 52.5t-83 11.5h-107q-27 0 -18 22l61 148q-190 19 -273 132.5t-83 344.5q0 94 12 211q19 185 58.5 312.5t107.5 213 t166.5 124t236.5 38.5q218 0 314 -95t78 -282q0 -9 -7 -12.5t-30 -3.5t-31 3.5t-8 12.5q12 156 -65 230.5t-259 74.5q-232 0 -338 -136.5t-143 -479.5q-12 -117 -12 -207q0 -226 85.5 -320t288.5 -94q184 0 274 78t111 244q1 10 8 13t31 3t31 -3t6 -13q-24 -197 -136.5 -295 t-332.5 -98q-6 0 -18.5 1t-18.5 1z" />
<glyph unicode="&#xc8;" d="M1040 1282h-669l-58 -551h609q15 0 10 -35q-3 -34 -19 -34h-608l-61 -588h678q15 0 10 -37q-3 -37 -17 -37h-720q-35 0 -35 16l139 1323q3 17 37 17h713q9 0 11 -7.5t-1 -29.5q-1 -21 -5.5 -29t-13.5 -8zM776 1481l-325 164q-10 5 -10 11.5t14 26.5q11 21 18.5 24.5 t15.5 -3.5l318 -180q10 -7 -4 -29q-8 -12 -13 -15t-14 1z" />
<glyph unicode="&#xc9;" d="M1040 1282h-669l-58 -551h609q15 0 10 -35q-3 -34 -19 -34h-608l-61 -588h678q15 0 10 -37q-3 -37 -17 -37h-720q-35 0 -35 16l139 1323q3 17 37 17h713q9 0 11 -7.5t-1 -29.5q-1 -21 -5.5 -29t-13.5 -8zM1059 1645l-363 -164q-9 -4 -13 -1t-9 15q-9 23 4 29l354 180 q8 7 15.5 3t15.5 -24q8 -22 7 -27.5t-11 -10.5z" />
<glyph unicode="&#xca;" d="M1040 1282h-669l-58 -551h609q15 0 10 -35q-3 -34 -19 -34h-608l-61 -588h678q15 0 10 -37q-3 -37 -17 -37h-720q-35 0 -35 16l139 1323q3 17 37 17h713q9 0 11 -7.5t-1 -29.5q-1 -21 -5.5 -29t-13.5 -8zM715 1647l-189 -158q-15 -10 -43 -10q-11 0 -17 2.5t-6 6.5t5 9 l221 207q9 12 37 12q22 0 31 -12l174 -207q13 -13 -10 -17l-13 -1q-32 0 -39 10z" />
<glyph unicode="&#xcb;" d="M1040 1282h-669l-58 -551h609q15 0 10 -35q-3 -34 -19 -34h-608l-61 -588h678q15 0 10 -37q-3 -37 -17 -37h-720q-35 0 -35 16l139 1323q3 17 37 17h713q9 0 11 -7.5t-1 -29.5q-1 -21 -5.5 -29t-13.5 -8zM543 1677q26 0 31.5 -3.5t3.5 -18.5l-15 -146q-2 -14 -8.5 -18 t-32.5 -4t-32.5 4t-4.5 18l15 146q1 15 8.5 18.5t34.5 3.5zM899 1677q26 0 31.5 -3.5t3.5 -18.5l-14 -146q-2 -14 -8.5 -18t-32.5 -4t-32.5 4t-4.5 18l14 146q1 15 8.5 18.5t34.5 3.5z" />
<glyph unicode="&#xcc;" horiz-adv-x="495" d="M205 -2q-23 0 -30 3.5t-7 14.5l139 1323q2 11 10 15t31 4q24 0 31.5 -4t5.5 -15l-139 -1323q0 -11 -8 -14.5t-33 -3.5zM358 1481l-325 164q-10 5 -10 11.5t14 26.5q11 21 19 24.5t16 -3.5l317 -180q10 -7 -4 -29q-8 -12 -13 -15t-14 1z" />
<glyph unicode="&#xcd;" horiz-adv-x="495" d="M205 -2q-23 0 -30 3.5t-7 14.5l139 1323q2 11 10 15t31 4q24 0 31.5 -4t5.5 -15l-139 -1323q0 -11 -8 -14.5t-33 -3.5zM723 1645l-363 -164q-9 -4 -13 -1t-9 15q-9 23 4 29l354 180q8 7 15.5 3t15.5 -24q8 -22 7 -27.5t-11 -10.5z" />
<glyph unicode="&#xce;" horiz-adv-x="495" d="M205 -2q-23 0 -30 3.5t-7 14.5l139 1323q2 11 10 15t31 4q24 0 31.5 -4t5.5 -15l-139 -1323q0 -11 -8 -14.5t-33 -3.5zM381 1647l-188 -158q-15 -10 -43 -10q-11 0 -17.5 2.5t-6.5 6.5t5 9l221 207q9 12 37 12q22 0 31 -12l174 -207q13 -13 -10 -17l-13 -1q-31 0 -39 10z " />
<glyph unicode="&#xcf;" horiz-adv-x="495" d="M205 -2q-23 0 -30 3.5t-7 14.5l139 1323q2 11 10 15t31 4q24 0 31.5 -4t5.5 -15l-139 -1323q0 -11 -8 -14.5t-33 -3.5zM205 1677q26 0 31.5 -3.5t3.5 -18.5l-15 -146q-2 -14 -8.5 -18t-32.5 -4t-32.5 4t-4.5 18l15 146q1 15 8.5 18.5t34.5 3.5zM561 1677q26 0 31.5 -3.5 t3.5 -18.5l-14 -146q-2 -14 -8.5 -18t-32.5 -4t-32.5 4t-4.5 18l14 146q1 15 8.5 18.5t34.5 3.5z" />
<glyph unicode="&#xd0;" horiz-adv-x="1280" d="M565 0h-366q-35 0 -35 16l61 598h-135q-9 0 -11 5t1 24q1 20 4 24.5t12 4.5h135l72 667q3 17 37 17h367q250 0 359.5 -115.5t109.5 -374.5q0 -94 -11 -188q-37 -363 -174 -520.5t-426 -157.5zM248 74h323q128 0 215.5 30.5t149.5 103t96.5 185.5t52.5 285q11 96 11 188 q0 228 -91.5 322t-306.5 94h-323l-66 -610h342q9 0 11 -5t0 -24q-3 -20 -5.5 -24.5t-11.5 -4.5h-342z" />
<glyph unicode="&#xd1;" horiz-adv-x="1314" d="M1178 1358q22 0 29 -4t5 -15l-139 -1323q0 -11 -9.5 -14.5t-39.5 -3.5q-24 0 -31 2.5t-12 13.5l-619 1221l-126 -1219q0 -11 -8 -14.5t-31 -3.5t-30 3.5t-7 14.5l139 1323q2 11 11.5 15t37.5 4q24 0 32 -3t13 -14l617 -1218l129 1216q2 11 9.5 15t29.5 4zM1014 1622l2 29 q1 9 7 11.5t21 2.5q19 0 23 -3t2 -13l-6 -41q-18 -129 -133 -129q-59 0 -119 39l-100 67q-45 29 -84 29q-35 0 -53.5 -19t-22.5 -69l-4 -31q0 -12 -27 -12q-20 0 -24 2.5t-4 11.5l8 43q18 129 133 129q25 0 50 -7t35.5 -12.5t33.5 -19.5l100 -67q2 -1 14.5 -9t16 -9.5 t13.5 -6t18.5 -5.5t19.5 -1q36 0 55 20t25 70z" />
<glyph unicode="&#xd2;" horiz-adv-x="1282" d="M743 1368q232 0 334.5 -114.5t102.5 -370.5q0 -85 -13 -205q-39 -370 -168 -530t-401 -160q-233 0 -335.5 115t-102.5 372q0 92 12 203q26 248 90 397t180.5 221t300.5 72zM604 57q232 0 340 138.5t143 482.5q13 123 13 205q0 225 -85 320t-280 95q-232 0 -339 -138 t-144 -482q-12 -114 -12 -203q0 -227 84.5 -322.5t279.5 -95.5zM752 1481l-326 164q-10 5 -10 11.5t14 26.5q11 21 19 24.5t16 -3.5l317 -180q10 -7 -4 -29q-8 -13 -12.5 -15.5t-13.5 1.5z" />
<glyph unicode="&#xd3;" horiz-adv-x="1282" d="M743 1368q232 0 334.5 -114.5t102.5 -370.5q0 -85 -13 -205q-39 -370 -168 -530t-401 -160q-233 0 -335.5 115t-102.5 372q0 92 12 203q26 248 90 397t180.5 221t300.5 72zM604 57q232 0 340 138.5t143 482.5q13 123 13 205q0 225 -85 320t-280 95q-232 0 -339 -138 t-144 -482q-12 -114 -12 -203q0 -227 84.5 -322.5t279.5 -95.5zM1118 1645l-362 -164q-9 -4 -13.5 -1t-9.5 15q-9 23 4 29l355 180q9 7 15 3.5t15 -24.5q8 -22 7 -27.5t-11 -10.5z" />
<glyph unicode="&#xd4;" horiz-adv-x="1282" d="M743 1368q232 0 334.5 -114.5t102.5 -370.5q0 -85 -13 -205q-39 -370 -168 -530t-401 -160q-233 0 -335.5 115t-102.5 372q0 92 12 203q26 248 90 397t180.5 221t300.5 72zM604 57q232 0 340 138.5t143 482.5q13 123 13 205q0 225 -85 320t-280 95q-232 0 -339 -138 t-144 -482q-12 -114 -12 -203q0 -227 84.5 -322.5t279.5 -95.5zM774 1647l-188 -158q-15 -10 -43 -10q-11 0 -17.5 2.5t-6.5 6.5t5 9l221 207q9 12 37 12q22 0 31 -12l174 -207q13 -13 -9 -17q-5 -1 -13 -1q-32 0 -39 10z" />
<glyph unicode="&#xd5;" horiz-adv-x="1282" d="M743 1368q232 0 334.5 -114.5t102.5 -370.5q0 -85 -13 -205q-39 -370 -168 -530t-401 -160q-233 0 -335.5 115t-102.5 372q0 92 12 203q26 248 90 397t180.5 221t300.5 72zM604 57q232 0 340 138.5t143 482.5q13 123 13 205q0 225 -85 320t-280 95q-232 0 -339 -138 t-144 -482q-12 -114 -12 -203q0 -227 84.5 -322.5t279.5 -95.5zM997 1622l2 29q2 14 29 14q19 0 23 -3t2 -13l-6 -41q-18 -129 -134 -129q-58 0 -118 39l-101 67q-45 29 -84 29q-34 0 -52.5 -19t-22.5 -69l-5 -31q0 -12 -26 -12q-20 0 -24.5 2.5t-4.5 11.5l8 43 q18 129 133 129q25 0 50 -7t35.5 -12.5t33.5 -19.5l101 -67q2 -1 14.5 -9t16 -9.5t13.5 -6t18.5 -5.5t19.5 -1q35 0 54 20t25 70z" />
<glyph unicode="&#xd6;" horiz-adv-x="1282" d="M743 1368q232 0 334.5 -114.5t102.5 -370.5q0 -85 -13 -205q-39 -370 -168 -530t-401 -160q-233 0 -335.5 115t-102.5 372q0 92 12 203q26 248 90 397t180.5 221t300.5 72zM604 57q232 0 340 138.5t143 482.5q13 123 13 205q0 225 -85 320t-280 95q-232 0 -339 -138 t-144 -482q-12 -114 -12 -203q0 -227 84.5 -322.5t279.5 -95.5zM598 1677q26 0 31.5 -3.5t3.5 -18.5l-15 -146q-2 -14 -8.5 -18t-31.5 -4q-26 0 -32.5 4t-4.5 18l14 146q1 15 8.5 18.5t34.5 3.5zM954 1677q26 0 31.5 -3.5t3.5 -18.5l-14 -146q-2 -14 -8.5 -18t-32.5 -4 t-32.5 4t-4.5 18l14 146q1 15 8.5 18.5t34.5 3.5z" />
<glyph unicode="&#xd7;" horiz-adv-x="1093" d="M829 291l-266 295l-325 -295q-10 -11 -33 12q-12 15 -13.5 22t5.5 13l325 295l-264 297q-4 6 -0.5 12t18.5 21q19 15 23 17t12 -3l264 -297l328 297q7 5 12 2.5t19 -16.5q12 -16 14 -20.5t-4 -12.5l-328 -295l267 -297q8 -10 -17 -35q-27 -22 -37 -12z" />
<glyph unicode="&#xd8;" horiz-adv-x="1290" d="M748 1368q213 0 319 -100l102 141q9 14 43 14q13 0 19.5 -2t7.5 -5.5t-2 -8.5l-133 -182q80 -121 80 -342q0 -85 -13 -205q-39 -370 -168 -530t-401 -160q-215 0 -319 98l-103 -143q-10 -15 -43 -15q-29 0 -27 11q0 3 3 6l133 182q-82 115 -82 348q0 92 12 203 q26 248 90 397t181 221t301 72zM244 475q0 -183 53 -278l723 1003q-82 98 -281 98q-232 0 -339 -138t-144 -482q-12 -114 -12 -203zM608 57q232 0 340.5 138.5t143.5 482.5q12 114 12 205q0 176 -51 272l-725 -1003q85 -95 280 -95z" />
<glyph unicode="&#xd9;" horiz-adv-x="1290" d="M610 -12q-217 0 -316 89.5t-99 284.5q0 52 6 111l90 866q2 11 10 15t31 4q24 0 31.5 -4t5.5 -15l-90 -862q-7 -65 -7 -102q0 -163 78.5 -237.5t259.5 -74.5q205 0 299.5 97t118.5 317l90 862q2 11 9.5 15t31.5 4q23 0 31 -4t6 -15l-90 -866q-28 -258 -141 -371.5 t-355 -113.5zM776 1481l-325 164q-10 5 -10 11.5t14 26.5q11 21 18.5 24.5t15.5 -3.5l318 -180q10 -7 -4 -29q-8 -12 -13 -15t-14 1z" />
<glyph unicode="&#xda;" horiz-adv-x="1290" d="M610 -12q-217 0 -316 89.5t-99 284.5q0 52 6 111l90 866q2 11 10 15t31 4q24 0 31.5 -4t5.5 -15l-90 -862q-7 -65 -7 -102q0 -163 78.5 -237.5t259.5 -74.5q205 0 299.5 97t118.5 317l90 862q2 11 9.5 15t31.5 4q23 0 31 -4t6 -15l-90 -866q-28 -258 -141 -371.5 t-355 -113.5zM1102 1645l-363 -164q-9 -4 -13 -1t-9 15q-9 23 4 29l354 180q8 7 15.5 3t15.5 -24q8 -22 7 -27.5t-11 -10.5z" />
<glyph unicode="&#xdb;" horiz-adv-x="1290" d="M610 -12q-217 0 -316 89.5t-99 284.5q0 52 6 111l90 866q2 11 10 15t31 4q24 0 31.5 -4t5.5 -15l-90 -862q-7 -65 -7 -102q0 -163 78.5 -237.5t259.5 -74.5q205 0 299.5 97t118.5 317l90 862q2 11 9.5 15t31.5 4q23 0 31 -4t6 -15l-90 -866q-28 -258 -141 -371.5 t-355 -113.5zM778 1647l-188 -158q-15 -10 -43 -10q-11 0 -17.5 2.5t-6.5 6.5t5 9l222 207q9 12 36 12q22 0 31 -12l174 -207q13 -13 -9 -17q-5 -1 -13 -1q-31 0 -39 10z" />
<glyph unicode="&#xdc;" horiz-adv-x="1290" d="M610 -12q-217 0 -316 89.5t-99 284.5q0 52 6 111l90 866q2 11 10 15t31 4q24 0 31.5 -4t5.5 -15l-90 -862q-7 -65 -7 -102q0 -163 78.5 -237.5t259.5 -74.5q205 0 299.5 97t118.5 317l90 862q2 11 9.5 15t31.5 4q23 0 31 -4t6 -15l-90 -866q-28 -258 -141 -371.5 t-355 -113.5zM602 1677q26 0 31.5 -3.5t3.5 -18.5l-14 -146q-2 -14 -8.5 -18t-32.5 -4t-32.5 4t-4.5 18l14 146q1 15 8.5 18.5t34.5 3.5zM958 1677q26 0 31.5 -3.5t3.5 -18.5l-14 -146q-2 -14 -8.5 -18t-32.5 -4t-32.5 4t-4.5 18l14 146q1 15 8.5 18.5t34.5 3.5z" />
<glyph unicode="&#xdd;" horiz-adv-x="1110" d="M1051 1339l1 2q7 12 18 14q7 1 22 1q38 0 39 -10q0 -4 -3 -9q-109 -190 -258.5 -427.5t-263.5 -399.5h-2l-51 -494q0 -10 -9 -14t-32 -4q-24 0 -30.5 3.5t-6.5 14.5l51 496q-80 162 -179.5 398t-168.5 427q-3 11 5.5 15t35.5 4q23 0 28.5 -3t8.5 -14q131 -371 317 -757 q265 379 478 757zM1032 1645l-362 -164q-9 -4 -13.5 -1t-9.5 15q-9 23 4 29l355 180q9 7 15 3.5t15 -24.5q8 -22 7 -27.5t-11 -10.5z" />
<glyph unicode="&#xde;" horiz-adv-x="1134" d="M569 373h-295l-36 -357q0 -11 -8 -14.5t-33 -3.5q-23 0 -30 3.5t-7 14.5l114 1082l25 241q2 11 10 15t31 4q24 0 31.5 -4t5.5 -15l-23 -221h293q213 0 309.5 -69t96.5 -230q0 -20 -4 -74q-22 -202 -133.5 -287t-346.5 -85zM346 1044l-63 -598h288q200 0 290 65t108 234 q4 46 4 66q0 132 -78 182.5t-260 50.5h-289z" />
<glyph unicode="&#xdf;" horiz-adv-x="1273" d="M653 758q-7 0 -8.5 6.5t0.5 26.5q2 32 17 32q64 4 116 14t104 33t87 57.5t56.5 89.5t21.5 126q0 104 -79.5 158.5t-236.5 54.5q-189 0 -284.5 -72.5t-110.5 -228.5l-111 -1041q0 -10 -8.5 -13t-32.5 -3q-22 0 -27 2.5t-5 13.5l110 1045q19 183 134 273.5t339 90.5 q185 0 285 -73t100 -207q0 -164 -99 -252t-278 -100q90 -8 158 -29t123.5 -61.5t85 -109t29.5 -163.5q0 -70 -12 -132.5t-39.5 -119.5t-68.5 -98t-104.5 -65.5t-142.5 -24.5q-160 0 -228.5 68.5t-56.5 195.5q2 11 8.5 14.5t28.5 3.5q21 0 27 -3t8 -13q-8 -104 41 -154.5 t172 -50.5q80 0 138 30.5t90.5 85t47.5 120.5t15 147q0 69 -17 120t-48.5 85.5t-83.5 58.5t-113.5 38t-147.5 24z" />
<glyph unicode="&#xe0;" horiz-adv-x="1048" d="M285 721q0 -10 -6.5 -13t-30.5 -3q-23 0 -29 2.5t-6 13.5q34 272 377 272q186 0 261 -74t60 -229l-71 -676q0 -10 -7 -13t-30 -3q-22 0 -27.5 2.5t-5.5 13.5l18 189q-46 -89 -147.5 -150t-234.5 -61q-142 0 -221 57.5t-79 169.5q0 153 95 226t264 73h354l19 168 q13 133 -46.5 189.5t-207.5 56.5q-140 0 -213 -51t-86 -160zM813 459h-350q-62 0 -110 -10.5t-88.5 -35.5t-62.5 -72.5t-22 -115.5q0 -89 62 -130.5t170 -41.5q143 0 261 92.5t130 210.5zM631 1124l-314 160q-8 3 -8 11t13 28q14 19 21.5 23t14.5 -3l304 -176q11 -6 -3 -28 q-9 -14 -14 -16.5t-14 1.5z" />
<glyph unicode="&#xe1;" horiz-adv-x="1048" d="M285 721q0 -10 -6.5 -13t-30.5 -3q-23 0 -29 2.5t-6 13.5q34 272 377 272q186 0 261 -74t60 -229l-71 -676q0 -10 -7 -13t-30 -3q-22 0 -27.5 2.5t-5.5 13.5l18 189q-46 -89 -147.5 -150t-234.5 -61q-142 0 -221 57.5t-79 169.5q0 153 95 226t264 73h354l19 168 q13 133 -46.5 189.5t-207.5 56.5q-140 0 -213 -51t-86 -160zM813 459h-350q-62 0 -110 -10.5t-88.5 -35.5t-62.5 -72.5t-22 -115.5q0 -89 62 -130.5t170 -41.5q143 0 261 92.5t130 210.5zM911 1284l-346 -160q-9 -4 -13.5 -1.5t-10.5 16.5q-5 13 -5 18.5t7 9.5l340 176 q10 7 16.5 3t15.5 -23q10 -22 8.5 -28t-12.5 -11z" />
<glyph unicode="&#xe2;" horiz-adv-x="1048" d="M285 721q0 -10 -6.5 -13t-30.5 -3q-23 0 -29 2.5t-6 13.5q34 272 377 272q186 0 261 -74t60 -229l-71 -676q0 -10 -7 -13t-30 -3q-22 0 -27.5 2.5t-5.5 13.5l18 189q-46 -89 -147.5 -150t-234.5 -61q-142 0 -221 57.5t-79 169.5q0 153 95 226t264 73h354l19 168 q13 133 -46.5 189.5t-207.5 56.5q-140 0 -213 -51t-86 -160zM813 459h-350q-62 0 -110 -10.5t-88.5 -35.5t-62.5 -72.5t-22 -115.5q0 -89 62 -130.5t170 -41.5q143 0 261 92.5t130 210.5zM623 1298l-183 -157q-18 -15 -47 -15q-16 0 -19.5 7t5.5 14l217 209q8 10 35 10 q21 0 28 -10l170 -209q8 -7 3.5 -14t-21.5 -7q-25 0 -43 15z" />
<glyph unicode="&#xe3;" horiz-adv-x="1048" d="M285 721q0 -10 -6.5 -13t-30.5 -3q-23 0 -29 2.5t-6 13.5q34 272 377 272q186 0 261 -74t60 -229l-71 -676q0 -10 -7 -13t-30 -3q-22 0 -27.5 2.5t-5.5 13.5l18 189q-46 -89 -147.5 -150t-234.5 -61q-142 0 -221 57.5t-79 169.5q0 153 95 226t264 73h354l19 168 q13 133 -46.5 189.5t-207.5 56.5q-140 0 -213 -51t-86 -160zM813 459h-350q-62 0 -110 -10.5t-88.5 -35.5t-62.5 -72.5t-22 -115.5q0 -89 62 -130.5t170 -41.5q143 0 261 92.5t130 210.5zM834 1268l2 28q2 15 28 15q19 0 23 -3.5t2 -13.5l-6 -41q-18 -129 -127 -129 q-55 0 -115 39l-102 68q-45 29 -80 29q-31 0 -48.5 -19.5t-21.5 -69.5l-4 -30q0 -13 -29 -13q-13 0 -18.5 1.5t-6.5 4t-1 9.5l6 43q21 129 129 129q24 0 47.5 -7t33.5 -12.5t34 -19.5l102 -68q3 -2 12.5 -7.5t12.5 -7.5t11 -6t13.5 -5t13 -2.5t15.5 -1.5q32 0 50 20t24 70z " />
<glyph unicode="&#xe4;" horiz-adv-x="1048" d="M285 721q0 -10 -6.5 -13t-30.5 -3q-23 0 -29 2.5t-6 13.5q34 272 377 272q186 0 261 -74t60 -229l-71 -676q0 -10 -7 -13t-30 -3q-22 0 -27.5 2.5t-5.5 13.5l18 189q-46 -89 -147.5 -150t-234.5 -61q-142 0 -221 57.5t-79 169.5q0 153 95 226t264 73h354l19 168 q13 133 -46.5 189.5t-207.5 56.5q-140 0 -213 -51t-86 -160zM813 459h-350q-62 0 -110 -10.5t-88.5 -35.5t-62.5 -72.5t-22 -115.5q0 -89 62 -130.5t170 -41.5q143 0 261 92.5t130 210.5zM451 1325q26 0 31 -3.5t3 -18.5l-14 -144q-2 -14 -8.5 -18t-32.5 -4t-32.5 4t-4.5 18 l15 144q1 15 8.5 18.5t34.5 3.5zM795 1325q26 0 31 -3.5t3 -18.5l-14 -144q-2 -14 -8.5 -18t-32.5 -4t-32.5 4t-4.5 18l15 144q1 15 8.5 18.5t34.5 3.5z" />
<glyph unicode="&#xe5;" horiz-adv-x="1048" d="M285 721q0 -10 -6.5 -13t-30.5 -3q-23 0 -29 2.5t-6 13.5q34 272 377 272q186 0 261 -74t60 -229l-71 -676q0 -10 -7 -13t-30 -3q-22 0 -27.5 2.5t-5.5 13.5l18 189q-46 -89 -147.5 -150t-234.5 -61q-142 0 -221 57.5t-79 169.5q0 153 95 226t264 73h354l19 168 q13 133 -46.5 189.5t-207.5 56.5q-140 0 -213 -51t-86 -160zM813 459h-350q-62 0 -110 -10.5t-88.5 -35.5t-62.5 -72.5t-22 -115.5q0 -89 62 -130.5t170 -41.5q143 0 261 92.5t130 210.5zM641 1434q150 0 150 -129q0 -79 -46.5 -130t-136.5 -51q-149 0 -149 133 q0 77 47.5 127t134.5 50zM614 1169q60 0 93.5 34t33.5 97q0 89 -104 89q-59 0 -94 -35.5t-35 -96.5q0 -88 106 -88z" />
<glyph unicode="&#xe6;" horiz-adv-x="1630" d="M1497 465h-637q-4 -66 -4 -94q0 -161 65 -239.5t209 -78.5q110 0 181.5 53.5t91.5 151.5q1 10 8 13t29 3q24 0 30 -3t5 -13q-25 -127 -117 -198.5t-230 -71.5t-217.5 58.5t-107.5 178.5q-54 -114 -164 -173.5t-238 -59.5q-136 0 -215.5 62.5t-79.5 176.5q0 151 96.5 223 t264.5 72h330l16 160q13 128 -45 187t-197 59q-132 0 -202.5 -51.5t-83.5 -159.5q0 -10 -6.5 -13t-30.5 -3q-23 0 -29 2.5t-6 13.5q34 272 365 272q143 0 215 -49.5t86 -148.5q103 198 342 198q157 0 233 -90.5t76 -243.5q0 -21 -4 -75l-8 -80q-1 -23 -5.5 -31t-15.5 -8z M788 467h-325q-283 0 -283 -236q0 -91 64.5 -134.5t167.5 -43.5q139 0 246 86.5t120 216.5zM1221 928q-156 0 -240.5 -98.5t-114.5 -303.5h584l6 60q4 50 4 69q0 127 -58 200t-181 73z" />
<glyph unicode="&#xe7;" horiz-adv-x="1009" d="M408 -121h63q81 0 122.5 -24t41.5 -86q0 -148 -191 -148h-176q-13 0 -10 27q2 16 4.5 21t11.5 5h172q27 0 44 2t38 10.5t32 28.5t11 52q0 39 -24.5 50t-83.5 11h-107q-29 0 -20 22l63 146q-143 20 -206.5 110t-63.5 256q0 37 8 127q27 257 132 380.5t323 123.5 q164 0 247.5 -70t75.5 -196q-2 -11 -8 -14.5t-28 -3.5t-29.5 3.5t-5.5 12.5q5 99 -60.5 150t-197.5 51q-183 0 -266 -104.5t-107 -332.5q-8 -94 -8 -127q0 -160 68 -233.5t231 -73.5q265 0 299 221q0 17 37 17q22 0 28 -4t6 -15q-45 -286 -376 -286q-8 0 -24.5 1t-24.5 1z " />
<glyph unicode="&#xe8;" horiz-adv-x="1036" d="M905 475h-698q-4 -70 -4 -96q0 -165 72 -245.5t233 -80.5q259 0 301 209q3 11 9.5 14t27.5 3q24 0 31 -3.5t4 -13.5q-25 -132 -119.5 -203t-253.5 -71q-194 0 -286.5 95.5t-92.5 289.5q0 51 6 112q29 257 136.5 382.5t320.5 125.5q177 0 260.5 -90t83.5 -244 q0 -21 -4 -75l-6 -70q-3 -24 -7 -31.5t-14 -7.5zM592 928q-173 0 -260 -94.5t-117 -296.5h641l6 49q4 46 4 67q0 275 -274 275zM637 1124l-313 160q-8 5 -8 12t12 27q14 19 22 23t15 -3l303 -176q7 -5 6.5 -10t-8.5 -18q-9 -14 -14.5 -16.5t-14.5 1.5z" />
<glyph unicode="&#xe9;" horiz-adv-x="1036" d="M905 475h-698q-4 -70 -4 -96q0 -165 72 -245.5t233 -80.5q259 0 301 209q3 11 9.5 14t27.5 3q24 0 31 -3.5t4 -13.5q-25 -132 -119.5 -203t-253.5 -71q-194 0 -286.5 95.5t-92.5 289.5q0 51 6 112q29 257 136.5 382.5t320.5 125.5q177 0 260.5 -90t83.5 -244 q0 -21 -4 -75l-6 -70q-3 -24 -7 -31.5t-14 -7.5zM592 928q-173 0 -260 -94.5t-117 -296.5h641l6 49q4 46 4 67q0 275 -274 275zM938 1284l-346 -160q-15 -8 -25 15q-5 13 -5 18.5t7 9.5l340 176q10 7 17 3t16 -23q10 -22 8.5 -28t-12.5 -11z" />
<glyph unicode="&#xea;" horiz-adv-x="1036" d="M905 475h-698q-4 -70 -4 -96q0 -165 72 -245.5t233 -80.5q259 0 301 209q3 11 9.5 14t27.5 3q24 0 31 -3.5t4 -13.5q-25 -132 -119.5 -203t-253.5 -71q-194 0 -286.5 95.5t-92.5 289.5q0 51 6 112q29 257 136.5 382.5t320.5 125.5q177 0 260.5 -90t83.5 -244 q0 -21 -4 -75l-6 -70q-3 -24 -7 -31.5t-14 -7.5zM592 928q-173 0 -260 -94.5t-117 -296.5h641l6 49q4 46 4 67q0 275 -274 275zM627 1298l-183 -157q-18 -15 -47 -15q-16 0 -19.5 7t5.5 14l217 209q8 10 35 10q21 0 29 -10l170 -209q8 -7 3 -14t-22 -7q-25 0 -43 15z" />
<glyph unicode="&#xeb;" horiz-adv-x="1036" d="M905 475h-698q-4 -70 -4 -96q0 -165 72 -245.5t233 -80.5q259 0 301 209q3 11 9.5 14t27.5 3q24 0 31 -3.5t4 -13.5q-25 -132 -119.5 -203t-253.5 -71q-194 0 -286.5 95.5t-92.5 289.5q0 51 6 112q29 257 136.5 382.5t320.5 125.5q177 0 260.5 -90t83.5 -244 q0 -21 -4 -75l-6 -70q-3 -24 -7 -31.5t-14 -7.5zM592 928q-173 0 -260 -94.5t-117 -296.5h641l6 49q4 46 4 67q0 275 -274 275zM459 1325q26 0 31.5 -3.5t3.5 -18.5l-15 -144q-2 -14 -8.5 -18t-32.5 -4t-32.5 4t-4.5 18l15 144q1 15 8.5 18.5t34.5 3.5zM801 1325 q26 0 31.5 -3.5t3.5 -18.5l-15 -144q-2 -14 -8.5 -18t-32.5 -4t-32.5 4t-4.5 18l15 144q1 15 8.5 18.5t34.5 3.5z" />
<glyph unicode="&#xec;" horiz-adv-x="450" d="M147 14l101 953q2 9 10 12.5t29 3.5q23 0 30 -3.5t5 -12.5l-101 -953q0 -10 -7.5 -13t-31.5 -3q-22 0 -28.5 3t-6.5 13zM293 1124l-313 160q-8 5 -8 12t12 27q14 19 21.5 23t14.5 -3l304 -176q7 -5 6.5 -10t-8.5 -18q-9 -14 -14.5 -16.5t-14.5 1.5z" />
<glyph unicode="&#xed;" horiz-adv-x="450" d="M147 14l101 953q2 9 10 12.5t29 3.5q23 0 30 -3.5t5 -12.5l-101 -953q0 -10 -7.5 -13t-31.5 -3q-22 0 -28.5 3t-6.5 13zM657 1284l-346 -160q-9 -4 -13.5 -1.5t-10.5 16.5q-5 13 -5 18.5t7 9.5l340 176q10 7 17 3t16 -23q9 -22 8 -28t-13 -11z" />
<glyph unicode="&#xee;" horiz-adv-x="450" d="M147 14l101 953q2 9 10 12.5t29 3.5q23 0 30 -3.5t5 -12.5l-101 -953q0 -10 -7.5 -13t-31.5 -3q-22 0 -28.5 3t-6.5 13zM322 1298l-183 -157q-18 -15 -47 -15q-16 0 -19.5 7t5.5 14l217 209q7 10 35 10q20 0 28 -10l170 -209q8 -7 3.5 -14t-21.5 -7q-25 0 -43 15z" />
<glyph unicode="&#xef;" horiz-adv-x="450" d="M147 14l101 953q2 9 10 12.5t29 3.5q23 0 30 -3.5t5 -12.5l-101 -953q0 -10 -7.5 -13t-31.5 -3q-22 0 -28.5 3t-6.5 13zM154 1325q26 0 31 -3.5t3 -18.5l-14 -144q-2 -14 -8.5 -18t-32.5 -4t-32.5 4t-4.5 18l15 144q1 15 8.5 18.5t34.5 3.5zM494 1325q26 0 31 -3.5 t3 -18.5l-14 -144q-2 -14 -8.5 -18t-32.5 -4t-32.5 4t-4.5 18l15 144q1 15 8.5 18.5t34.5 3.5z" />
<glyph unicode="&#xf0;" horiz-adv-x="1077" d="M1057 1309l-156 -64q78 -128 78 -393q0 -148 -21 -338q-30 -275 -136.5 -400.5t-327.5 -125.5q-192 0 -277.5 93t-85.5 284q0 57 6 124q27 256 133.5 380t327.5 124q135 0 216 -50.5t101 -145.5q2 150 -14.5 252.5t-64.5 169.5l-234 -95q-11 -4 -15 -0.5t-9 19.5 q-6 19 -4.5 24.5t10.5 10.5l215 86q-91 88 -275 88q-10 0 -12.5 5.5t-1.5 24.5q3 20 7 25.5t13 5.5q232 0 338 -121l168 68q11 3 16 -0.5t9 -18.5q6 -19 5.5 -24t-9.5 -8zM500 55q185 0 271 104t110 330q6 65 6 121q0 162 -68 239t-227 77q-184 0 -269.5 -105t-109.5 -332 q-6 -64 -6 -122q0 -161 67.5 -236.5t225.5 -75.5z" />
<glyph unicode="&#xf1;" horiz-adv-x="1126" d="M313 967l-18 -191q20 39 51.5 75t77.5 69t111 53t139 20q160 0 242.5 -84t64.5 -256l-68 -639q0 -10 -8 -13t-31 -3t-28.5 2.5t-5.5 13.5l67 639q15 141 -46.5 206t-194.5 65q-156 0 -264 -96.5t-121 -223.5l-64 -590q0 -10 -8 -13t-31 -3t-29 2.5t-6 13.5l101 953 q1 10 8 13t29 3t27.5 -3t4.5 -13zM874 1268l3 28q1 9 7 12t21 3q19 0 23 -3.5t2 -13.5l-6 -41q-18 -129 -127 -129q-55 0 -115 39l-102 68q-45 29 -80 29q-31 0 -48.5 -19.5t-21.5 -69.5l-4 -30q0 -13 -29 -13q-13 0 -18.5 1.5t-6.5 4t-1 9.5l6 43q21 129 129 129 q24 0 47.5 -7t33.5 -12.5t34 -19.5l102 -68q3 -2 12.5 -7.5t12.5 -7.5t11 -6t13.5 -5t13 -2.5t15.5 -1.5q32 0 49.5 20t23.5 70z" />
<glyph unicode="&#xf2;" horiz-adv-x="1069" d="M596 993q192 0 277 -94t85 -285q0 -58 -6 -125q-27 -256 -133 -379.5t-327 -123.5q-192 0 -277.5 92.5t-85.5 283.5q0 37 8 127q27 257 133 380.5t326 123.5zM498 53q186 0 270.5 104.5t108.5 331.5q8 90 8 123q0 161 -68 237.5t-227 76.5q-185 0 -269 -104.5 t-108 -332.5q-8 -90 -8 -124q0 -160 68 -236t225 -76zM621 1124l-314 160q-9 5 -9 12t13 27q14 19 22 23t15 -3l303 -176q7 -5 6.5 -10t-8.5 -18q-9 -14 -14 -16.5t-14 1.5z" />
<glyph unicode="&#xf3;" horiz-adv-x="1069" d="M596 993q192 0 277 -94t85 -285q0 -58 -6 -125q-27 -256 -133 -379.5t-327 -123.5q-192 0 -277.5 92.5t-85.5 283.5q0 37 8 127q27 257 133 380.5t326 123.5zM498 53q186 0 270.5 104.5t108.5 331.5q8 90 8 123q0 161 -68 237.5t-227 76.5q-185 0 -269 -104.5 t-108 -332.5q-8 -90 -8 -124q0 -160 68 -236t225 -76zM946 1284l-346 -160q-15 -8 -25 15q-8 21 3 28l340 176q10 7 16.5 3t15.5 -23q10 -22 8.5 -28t-12.5 -11z" />
<glyph unicode="&#xf4;" horiz-adv-x="1069" d="M596 993q192 0 277 -94t85 -285q0 -58 -6 -125q-27 -256 -133 -379.5t-327 -123.5q-192 0 -277.5 92.5t-85.5 283.5q0 37 8 127q27 257 133 380.5t326 123.5zM498 53q186 0 270.5 104.5t108.5 331.5q8 90 8 123q0 161 -68 237.5t-227 76.5q-185 0 -269 -104.5 t-108 -332.5q-8 -90 -8 -124q0 -160 68 -236t225 -76zM631 1298l-182 -157q-18 -15 -48 -15q-16 0 -19.5 7t5.5 14l217 209q8 10 35 10q21 0 29 -10l170 -209q8 -7 3 -14t-22 -7q-25 0 -43 15z" />
<glyph unicode="&#xf5;" horiz-adv-x="1069" d="M596 993q192 0 277 -94t85 -285q0 -58 -6 -125q-27 -256 -133 -379.5t-327 -123.5q-192 0 -277.5 92.5t-85.5 283.5q0 37 8 127q27 257 133 380.5t326 123.5zM498 53q186 0 270.5 104.5t108.5 331.5q8 90 8 123q0 161 -68 237.5t-227 76.5q-185 0 -269 -104.5 t-108 -332.5q-8 -90 -8 -124q0 -160 68 -236t225 -76zM846 1268l2 28q2 15 29 15q19 0 22.5 -3.5t1.5 -13.5l-6 -41q-18 -129 -127 -129q-55 0 -115 39l-102 68q-45 29 -80 29q-31 0 -48.5 -19.5t-21.5 -69.5l-4 -30q0 -13 -28 -13q-19 0 -23 2.5t-4 12.5l6 43 q21 129 129 129q24 0 47.5 -7t33.5 -12.5t34 -19.5l102 -68q3 -2 12.5 -7.5t12.5 -7.5t11 -6t13.5 -5t13 -2.5t15.5 -1.5q32 0 50 20t24 70z" />
<glyph unicode="&#xf6;" horiz-adv-x="1069" d="M596 993q192 0 277 -94t85 -285q0 -58 -6 -125q-27 -256 -133 -379.5t-327 -123.5q-192 0 -277.5 92.5t-85.5 283.5q0 37 8 127q27 257 133 380.5t326 123.5zM498 53q186 0 270.5 104.5t108.5 331.5q8 90 8 123q0 161 -68 237.5t-227 76.5q-185 0 -269 -104.5 t-108 -332.5q-8 -90 -8 -124q0 -160 68 -236t225 -76zM461 1325q26 0 31.5 -3.5t3.5 -18.5l-15 -144q-2 -14 -8.5 -18t-32.5 -4t-32.5 4t-4.5 18l15 144q1 15 8.5 18.5t34.5 3.5zM805 1325q26 0 31.5 -3.5t3.5 -18.5l-15 -144q-2 -14 -8.5 -18t-32.5 -4t-32 4t-4 18l14 144 q1 15 8.5 18.5t34.5 3.5z" />
<glyph unicode="&#xf7;" horiz-adv-x="1093" d="M203 668h745q9 0 10.5 -7.5t-0.5 -27.5q-3 -35 -18 -35h-745q-14 0 -11 35t19 35zM524 201q-28 0 -36 4.5t-7 17.5l15 152q1 14 10.5 18t38.5 4t37.5 -4t7.5 -18l-15 -152q-1 -13 -12 -17.5t-39 -4.5zM594 864q-27 0 -36 4.5t-7 18.5l14 151q1 15 10.5 19t38.5 4t37.5 -4 t7.5 -19l-14 -151q-1 -13 -12 -18t-39 -5z" />
<glyph unicode="&#xf8;" horiz-adv-x="1073" d="M598 993q161 0 246 -67l86 112q8 13 39 13q18 0 22.5 -5.5t-2.5 -13.5l-108 -141q80 -92 80 -277q0 -46 -7 -125q-27 -256 -133 -379.5t-327 -123.5q-162 0 -248 65l-82 -108q-10 -15 -41 -15q-18 0 -23 7t2 14l107 139q-78 89 -78 274q0 37 8 127q27 257 133 380.5 t326 123.5zM500 53q186 0 270.5 104.5t108.5 331.5q8 90 8 123q0 144 -53 217l-543 -716q69 -60 209 -60zM207 365q0 -144 49 -215l545 714q-71 62 -209 62q-185 0 -269 -104.5t-108 -332.5q-8 -90 -8 -124z" />
<glyph unicode="&#xf9;" d="M819 14l19 187q-15 -30 -33.5 -57t-49 -56.5t-67 -50.5t-88.5 -35t-111 -14q-164 0 -255 87.5t-72 268.5l65 623q1 10 9 13t30 3q24 0 30 -3t5 -13l-65 -623q-16 -150 53.5 -218.5t206.5 -68.5q79 0 145.5 29t110 76t70 102.5t32.5 112.5l61 590q1 10 9 13t30 3 q24 0 30 -3t5 -13l-100 -953q0 -10 -7.5 -13t-29.5 -3t-27.5 2.5t-5.5 13.5zM641 1124l-313 160q-8 5 -8 12t12 27q14 19 22 23t15 -3l303 -176q7 -5 6.5 -10t-8.5 -18q-9 -14 -14.5 -16.5t-14.5 1.5z" />
<glyph unicode="&#xfa;" d="M819 14l19 187q-15 -30 -33.5 -57t-49 -56.5t-67 -50.5t-88.5 -35t-111 -14q-164 0 -255 87.5t-72 268.5l65 623q1 10 9 13t30 3q24 0 30 -3t5 -13l-65 -623q-16 -150 53.5 -218.5t206.5 -68.5q79 0 145.5 29t110 76t70 102.5t32.5 112.5l61 590q1 10 9 13t30 3 q24 0 30 -3t5 -13l-100 -953q0 -10 -7.5 -13t-29.5 -3t-27.5 2.5t-5.5 13.5zM963 1284l-347 -160q-9 -4 -13.5 -1.5t-10.5 16.5q-5 13 -5 18.5t7 9.5l340 176q10 7 17 3t16 -23q10 -22 8.5 -28t-12.5 -11z" />
<glyph unicode="&#xfb;" d="M819 14l19 187q-15 -30 -33.5 -57t-49 -56.5t-67 -50.5t-88.5 -35t-111 -14q-164 0 -255 87.5t-72 268.5l65 623q1 10 9 13t30 3q24 0 30 -3t5 -13l-65 -623q-16 -150 53.5 -218.5t206.5 -68.5q79 0 145.5 29t110 76t70 102.5t32.5 112.5l61 590q1 10 9 13t30 3 q24 0 30 -3t5 -13l-100 -953q0 -10 -7.5 -13t-29.5 -3t-27.5 2.5t-5.5 13.5zM651 1298l-182 -157q-18 -15 -47 -15q-16 0 -19.5 7t5.5 14l217 209q7 10 34 10q21 0 29 -10l170 -209q8 -7 3.5 -14t-21.5 -7q-25 0 -43 15z" />
<glyph unicode="&#xfc;" d="M819 14l19 187q-15 -30 -33.5 -57t-49 -56.5t-67 -50.5t-88.5 -35t-111 -14q-164 0 -255 87.5t-72 268.5l65 623q1 10 9 13t30 3q24 0 30 -3t5 -13l-65 -623q-16 -150 53.5 -218.5t206.5 -68.5q79 0 145.5 29t110 76t70 102.5t32.5 112.5l61 590q1 10 9 13t30 3 q24 0 30 -3t5 -13l-100 -953q0 -10 -7.5 -13t-29.5 -3t-27.5 2.5t-5.5 13.5zM481 1325q26 0 31.5 -3.5t3.5 -18.5l-14 -144q-2 -14 -8.5 -18t-32.5 -4t-32.5 4t-4.5 18l14 144q1 15 8.5 18.5t34.5 3.5zM823 1325q26 0 31.5 -3.5t3.5 -18.5l-14 -144q-2 -14 -8.5 -18 t-32.5 -4t-32.5 4t-4.5 18l14 144q1 15 8.5 18.5t34.5 3.5z" />
<glyph unicode="&#xfd;" horiz-adv-x="978" d="M133 -317q48 0 84.5 16t72.5 57.5t64.5 87.5t75.5 133l10 23q-16 0 -22 12q-74 201 -155.5 473.5t-127.5 477.5q-2 12 5.5 16t31.5 4q23 0 31 -4t8 -14q43 -200 117 -456.5t143 -451.5q89 171 210 433t208 475q2 4 3.5 6.5t4.5 5t7 3.5t10.5 2t15.5 1q24 0 31.5 -4.5 t1.5 -17.5q-93 -230 -234 -528.5t-233 -467.5q-43 -79 -70 -124.5t-62.5 -94t-67 -72.5t-73 -39.5t-90.5 -15.5q-73 0 -110 16q-9 1 -11 6.5t0 24.5q3 20 6.5 25.5t12.5 5.5q3 0 14.5 -3.5t34.5 -7t53 -3.5zM918 1284l-347 -160q-9 -4 -13.5 -1.5t-10.5 16.5q-5 13 -5 18.5 t7 9.5l340 176q10 7 17 3t16 -23q10 -22 8.5 -28t-12.5 -11z" />
<glyph unicode="&#xfe;" horiz-adv-x="1126" d="M362 1403l-63 -606q111 196 367 196q182 0 266 -98t84 -289q0 -50 -6 -112q-27 -252 -134.5 -380t-314.5 -128q-255 0 -325 192l-58 -532q0 -10 -8.5 -13.5t-30.5 -3.5q-23 0 -29 3t-6 14l185 1757q1 10 9 13t30 3t28.5 -3t5.5 -13zM268 489q-6 -61 -6 -114 q0 -164 71 -243t232 -79q175 0 260 107.5t109 333.5q6 62 6 114q0 162 -66 240t-217 78q-187 0 -277 -106.5t-112 -330.5z" />
<glyph unicode="&#xff;" horiz-adv-x="978" d="M133 -317q48 0 84.5 16t72.5 57.5t64.5 87.5t75.5 133l10 23q-16 0 -22 12q-74 201 -155.5 473.5t-127.5 477.5q-2 12 5.5 16t31.5 4q23 0 31 -4t8 -14q43 -200 117 -456.5t143 -451.5q89 171 210 433t208 475q2 4 3.5 6.5t4.5 5t7 3.5t10.5 2t15.5 1q24 0 31.5 -4.5 t1.5 -17.5q-93 -230 -234 -528.5t-233 -467.5q-43 -79 -70 -124.5t-62.5 -94t-67 -72.5t-73 -39.5t-90.5 -15.5q-73 0 -110 16q-9 1 -11 6.5t0 24.5q3 20 6.5 25.5t12.5 5.5q3 0 14.5 -3.5t34.5 -7t53 -3.5zM760 1325q26 0 31.5 -3.5t3.5 -18.5l-15 -144q-2 -14 -8.5 -18 t-32.5 -4t-32.5 4t-4.5 18l15 144q1 15 8.5 18.5t34.5 3.5zM416 1325q26 0 31.5 -3.5t3.5 -18.5l-15 -144q-2 -14 -8.5 -18t-32.5 -4t-32.5 4t-4.5 18l15 144q1 15 8.5 18.5t34.5 3.5z" />
<glyph unicode="&#x152;" horiz-adv-x="1781" d="M1708 1282h-633l-57 -551h571q15 0 10 -35q-3 -34 -18 -34h-571l-62 -588h641q15 0 10 -37q-3 -37 -16 -37h-952q-249 0 -359 116.5t-110 377.5q0 71 10 184q39 364 174 521t422 157h948q9 0 11 -7.5t-1 -29.5q-1 -22 -5 -29.5t-13 -7.5zM637 68h231l129 1220h-231 q-168 0 -271.5 -59t-162 -191t-82.5 -360q-10 -113 -10 -184q0 -231 92.5 -328.5t304.5 -97.5z" />
<glyph unicode="&#x153;" horiz-adv-x="1679" d="M1548 475h-639q-4 -70 -4 -98q0 -165 65 -244.5t210 -79.5q110 0 181 53.5t91 151.5q1 10 8 13t29 3q24 0 30 -3t5 -13q-25 -127 -118 -198.5t-232 -71.5q-278 0 -324 250q-47 -127 -138 -189.5t-239 -62.5q-181 0 -262.5 92.5t-81.5 281.5q0 39 8 129q27 256 129.5 380 t311.5 124q147 0 225 -63t100 -191q100 254 369 254q159 0 233 -89.5t74 -241.5q0 -24 -4 -78l-6 -70q-3 -24 -7 -31.5t-14 -7.5zM479 53q175 0 257 105t106 331q8 90 8 125q0 159 -65 235.5t-214 76.5q-174 0 -254 -104.5t-104 -332.5q-8 -94 -8 -129q0 -158 63.5 -232.5 t210.5 -74.5zM1266 928q-154 0 -236 -95.5t-112 -295.5h581l6 49q4 50 4 69q0 126 -58.5 199.5t-184.5 73.5z" />
<glyph unicode="&#x178;" horiz-adv-x="1110" d="M1051 1339l1 2q7 12 18 14q7 1 22 1q38 0 39 -10q0 -4 -3 -9q-109 -190 -258.5 -427.5t-263.5 -399.5h-2l-51 -494q0 -10 -9 -14t-32 -4q-24 0 -30.5 3.5t-6.5 14.5l51 496q-80 162 -179.5 398t-168.5 427q-3 11 5.5 15t35.5 4q23 0 28.5 -3t8.5 -14q131 -371 317 -757 q265 379 478 757zM868 1677q26 0 31.5 -3.5t3.5 -18.5l-14 -146q-2 -14 -8.5 -18t-32.5 -4t-32.5 4t-4.5 18l14 146q1 15 8.5 18.5t34.5 3.5zM512 1677q26 0 31.5 -3.5t3.5 -18.5l-15 -146q-2 -14 -8.5 -18t-31.5 -4q-26 0 -32.5 4t-4.5 18l14 146q1 15 8.5 18.5t34.5 3.5z " />
<glyph unicode="&#x2c6;" horiz-adv-x="638" d="M416 1298l-183 -157q-18 -15 -47 -15q-16 0 -19.5 7t5.5 14l217 209q7 10 35 10q22 0 29 -10l170 -209q8 -7 3 -14t-22 -7q-25 0 -43 15z" />
<glyph unicode="&#x2dc;" horiz-adv-x="638" d="M629 1268l2 28q1 9 7 12t21 3q19 0 23 -3.5t2 -13.5l-6 -41q-18 -129 -127 -129q-55 0 -115 39l-102 68q-45 29 -80 29q-31 0 -48.5 -19.5t-21.5 -69.5l-4 -30q0 -13 -28 -13q-19 0 -23 2.5t-4 12.5l6 43q21 129 129 129q24 0 47.5 -7t33.5 -12.5t34 -19.5l102 -68 q3 -2 12.5 -7.5t12.5 -7.5t11 -6t13.5 -5t13 -2.5t15.5 -1.5q33 0 50.5 20t23.5 70z" />
<glyph unicode="&#x2000;" horiz-adv-x="858" />
<glyph unicode="&#x2001;" horiz-adv-x="1716" />
<glyph unicode="&#x2002;" horiz-adv-x="858" />
<glyph unicode="&#x2003;" horiz-adv-x="1716" />
<glyph unicode="&#x2004;" horiz-adv-x="572" />
<glyph unicode="&#x2005;" horiz-adv-x="429" />
<glyph unicode="&#x2006;" horiz-adv-x="286" />
<glyph unicode="&#x2007;" horiz-adv-x="286" />
<glyph unicode="&#x2008;" horiz-adv-x="214" />
<glyph unicode="&#x2009;" horiz-adv-x="343" />
<glyph unicode="&#x200a;" horiz-adv-x="95" />
<glyph unicode="&#x2010;" horiz-adv-x="794" d="M172 584h487q16 0 13 -33q-3 -20 -6.5 -26.5t-12.5 -6.5h-487q-9 0 -11 6.5t1 26.5q2 20 4.5 26.5t11.5 6.5z" />
<glyph unicode="&#x2011;" horiz-adv-x="794" d="M172 584h487q16 0 13 -33q-3 -20 -6.5 -26.5t-12.5 -6.5h-487q-9 0 -11 6.5t1 26.5q2 20 4.5 26.5t11.5 6.5z" />
<glyph unicode="&#x2012;" horiz-adv-x="794" d="M172 584h487q16 0 13 -33q-3 -20 -6.5 -26.5t-12.5 -6.5h-487q-9 0 -11 6.5t1 26.5q2 20 4.5 26.5t11.5 6.5z" />
<glyph unicode="&#x2013;" horiz-adv-x="1036" d="M168 584h737q16 0 13 -33q-3 -20 -6.5 -26.5t-12.5 -6.5h-737q-9 0 -11 6.5t1 26.5q2 20 4.5 26.5t11.5 6.5z" />
<glyph unicode="&#x2014;" horiz-adv-x="1441" d="M156 584h1167q15 0 12 -33q-3 -21 -6 -27t-12 -6h-1167q-9 0 -11.5 6.5t0.5 26.5q2 19 5 26t12 7z" />
<glyph unicode="&#x2018;" horiz-adv-x="389" d="M281 1130l-13 -116q-1 -6 -3 -8.5t-10 -4.5t-24 -2q-22 0 -27 3.5t-3 11.5l12 119q20 207 178 282q10 5 15.5 2t9.5 -20q6 -18 5.5 -22t-9.5 -9q-113 -61 -131 -236z" />
<glyph unicode="&#x2019;" horiz-adv-x="389" d="M279 1282l12 117q1 6 3 8.5t10 4t24 1.5q22 0 27 -3t3 -11l-12 -119q-21 -208 -178 -283q-10 -5 -15.5 -1.5t-9.5 20.5q-6 18 -5.5 22t9.5 9q115 61 132 235z" />
<glyph unicode="&#x201a;" horiz-adv-x="389" d="M154 86l12 117q1 6 3 8.5t10 4t24 1.5q22 0 27 -3t3 -11l-12 -119q-21 -208 -178 -283q-10 -5 -15.5 -1.5t-9.5 20.5q-6 18 -5 21.5t10 8.5q113 61 131 236z" />
<glyph unicode="&#x201c;" horiz-adv-x="684" d="M281 1130l-13 -116q-1 -6 -3 -8.5t-10 -4.5t-24 -2q-22 0 -27 3.5t-3 11.5l12 119q20 207 178 282q10 5 15.5 2t9.5 -20q6 -18 5.5 -22t-9.5 -9q-113 -61 -131 -236zM575 1130l-12 -116q-1 -6 -3 -8.5t-10 -4.5t-24 -2q-22 0 -27 3.5t-3 11.5l12 119q20 207 178 282 q10 5 15.5 2t9.5 -20q6 -18 5.5 -22t-9.5 -9q-115 -61 -132 -236z" />
<glyph unicode="&#x201d;" horiz-adv-x="684" d="M279 1282l12 117q1 6 3 8.5t10 4t24 1.5q22 0 27 -3t3 -11l-12 -119q-21 -208 -178 -283q-10 -5 -15.5 -1.5t-9.5 20.5q-6 18 -5.5 22t9.5 9q115 61 132 235zM573 1282l13 117q1 6 3 8.5t10 4t24 1.5q22 0 27 -3t3 -11l-12 -119q-21 -208 -178 -283q-10 -5 -15.5 -1.5 t-9.5 20.5q-6 18 -5.5 22t9.5 9q114 61 131 235z" />
<glyph unicode="&#x201e;" horiz-adv-x="684" d="M154 86l12 117q1 6 3 8.5t10 4t24 1.5q22 0 27 -3t3 -11l-12 -119q-21 -208 -178 -283q-10 -5 -15.5 -1.5t-9.5 20.5q-6 18 -5 21.5t10 8.5q113 61 131 236zM446 86l13 117q1 6 3 8.5t10 4t24 1.5q22 0 27 -3t3 -11l-12 -119q-21 -208 -178 -283q-10 -5 -15.5 -1.5 t-9.5 20.5q-6 18 -5.5 21.5t9.5 8.5q113 61 131 236z" />
<glyph unicode="&#x2022;" horiz-adv-x="659" d="M330 395q-76 0 -101.5 16.5t-25.5 73.5q0 14 4 60q10 99 36.5 125t116.5 26q75 0 100 -16.5t25 -71.5q0 -13 -4 -63q-9 -98 -35.5 -124t-115.5 -26z" />
<glyph unicode="&#x2026;" horiz-adv-x="1241" d="M164 -2q-28 0 -36 4.5t-7 17.5l14 152q1 15 10.5 19t38.5 4t37.5 -4t7.5 -19l-14 -152q-1 -13 -12 -17.5t-39 -4.5zM578 -2q-28 0 -36 4.5t-7 17.5l14 152q1 15 10.5 19t38.5 4t37.5 -4t7.5 -19l-14 -152q-1 -13 -12 -17.5t-39 -4.5zM991 -2q-28 0 -36 4.5t-7 17.5 l15 152q1 15 10.5 19t38.5 4t37.5 -4t7.5 -19l-15 -152q-1 -13 -12 -17.5t-39 -4.5z" />
<glyph unicode="&#x202f;" horiz-adv-x="343" />
<glyph unicode="&#x2039;" horiz-adv-x="573" d="M147 551q0 7 13 24l241 287q7 10 45 10t23 -18l-254 -303l191 -303q6 -9 -1.5 -15t-25.5 -6q-38 0 -43 13l-182 284q-9 18 -7 27z" />
<glyph unicode="&#x203a;" horiz-adv-x="573" d="M426 549q0 -9 -12 -25l-242 -286q-8 -11 -45 -11q-12 0 -19 2.5t-8 6.5t4 10l254 303l-190 303q-6 9 1 14.5t26 5.5q25 0 32.5 -2t10.5 -10l182 -285q8 -16 6 -26z" />
<glyph unicode="&#x205f;" horiz-adv-x="429" />
<glyph unicode="&#x20ac;" horiz-adv-x="1261" d="M696 516h-368v-41q0 -226 81.5 -320t270.5 -94q177 0 261.5 75.5t105.5 238.5q0 10 7 13t31 3q23 0 29 -2.5t6 -13.5q-22 -196 -126 -291.5t-316 -95.5q-226 0 -328 115t-102 370v43h-146q-9 0 -10 6t2 25q2 21 4 27t11 6h141q2 29 10 100q10 92 12 100h-141 q-9 0 -10.5 6.5t0.5 26.5q4 30 10 32q2 1 6 1h146q50 277 169 399.5t345 122.5q211 0 306.5 -94t80.5 -275q-2 -11 -9 -14.5t-30 -3.5t-30 3.5t-5 14.5q12 149 -62.5 222t-250.5 73q-189 0 -289.5 -101.5t-145.5 -346.5h467q9 0 11.5 -6.5t-0.5 -26.5q-2 -20 -5 -26.5 t-12 -6.5h-471q-2 -8 -12 -100q-8 -71 -10 -100h372q9 0 11.5 -6.5t1.5 -26.5q-3 -19 -6.5 -25t-12.5 -6z" />
<glyph unicode="&#x2122;" horiz-adv-x="1544" d="M860 1356q32 0 35 -13l199 -571l317 571q8 13 39 13q26 0 34.5 -2.5t6.5 -10.5l-76 -729q0 -12 -31 -12q-18 0 -23 2t-5 10l67 648l-299 -533q-8 -14 -37 -14t-32 14l-189 537l-67 -652q0 -12 -33 -12q-17 0 -22 2t-5 10l76 729q2 8 10.5 10.5t34.5 2.5zM668 1298h-215 l-72 -682q0 -14 -33 -14q-19 0 -24 3t-5 11l72 682h-213q-7 0 -7.5 7t1.5 22q2 27 8 28q1 1 4 1h490q7 0 8.5 -6t-0.5 -23q-3 -29 -14 -29z" />
<glyph unicode="&#x25fc;" horiz-adv-x="983" d="M0 983h983v-983h-983v983z" />
</font>
</defs>
</svg>
