<?xml version="1.0" standalone="no"?>
<!DOCTYPE svg PUBLIC "-//W3C//DTD SVG 1.1//EN" "http://www.w3.org/Graphics/SVG/1.1/DTD/svg11.dtd" >
<svg xmlns="http://www.w3.org/2000/svg" xmlns:xlink="http://www.w3.org/1999/xlink" version="1.1">
<metadata></metadata>
<defs>
<font id="frygiahairline_italic" horiz-adv-x="1081" >
<font-face units-per-em="2048" ascent="1536" descent="-512" />
<missing-glyph horiz-adv-x="491" />
<glyph unicode="&#xfb01;" horiz-adv-x="1019" d="M899 1378q-89 27 -219 27q-164 0 -231.5 -71.5t-86.5 -243.5l-12 -119h524q9 0 9 -4l-101 -963q0 -4 -6 -4t-6 4l100 954h-520l-100 -954q0 -4 -6 -4t-6 4l100 954h-205q-4 0 -4 7q0 6 4 6h205l14 121q9 88 28.5 147t57.5 100t96.5 59.5t145.5 18.5q117 0 227 -28 q5 -2 0 -9q-2 -5 -8 -2z" />
<glyph unicode="&#xfb02;" horiz-adv-x="1040" d="M362 1090l-12 -119h262q4 0 4 -6q0 -7 -4 -7h-262l-100 -954q0 -4 -6 -4t-6 4l100 954h-205q-4 0 -4 7q0 6 4 6h205l14 121q9 90 28 147.5t58.5 99.5t102.5 60t159 18q134 0 220 -22q8 -3 8 -9l-127 -1202q-10 -96 12 -134t102 -38h43q5 0 5 -6t-5 -6h-45 q-83 0 -109.5 42t-15.5 140l127 1202q-72 21 -215 21q-93 0 -154.5 -17.5t-99 -58t-56 -96t-28.5 -143.5z" />
<glyph unicode="&#xfb03;" horiz-adv-x="1560" d="M879 971l14 121q9 88 28.5 147t57.5 100t96.5 59.5t145.5 18.5q117 0 227 -28q4 -2 0 -9q-2 -5 -8 -2q-89 27 -219 27q-164 0 -231.5 -71.5t-86.5 -243.5l-12 -119h524q8 0 8 -4l-100 -963q0 -4 -6 -4t-6 4l100 954h-520l-100 -954q0 -4 -7 -4q-6 0 -6 4l101 954h-529 l-100 -954q0 -4 -6 -4t-6 4l100 954h-205q-4 0 -4 7q0 6 4 6h205l18 162q14 146 70.5 215t179.5 69q90 0 150 -22q4 -2 2 -9q-5 -5 -8 -2q-52 21 -144 21q-118 0 -170.5 -66.5t-66.5 -208.5l-19 -159h529z" />
<glyph unicode="&#xfb04;" horiz-adv-x="1581" d="M879 971l14 121q9 90 28 147.5t58.5 99.5t102.5 60t159 18q133 0 219 -22q8 -3 8 -9l-127 -1202q-10 -96 12.5 -134t102.5 -38h43q4 0 4 -6t-4 -6h-45q-83 0 -109.5 42t-15.5 140l127 1202q-72 21 -215 21q-93 0 -154.5 -17.5t-99 -58t-56 -96t-28.5 -143.5l-12 -119h262 q4 0 4 -6q0 -7 -4 -7h-262l-100 -954q0 -4 -7 -4q-6 0 -6 4l101 954h-529l-100 -954q0 -4 -6 -4t-6 4l100 954h-205q-4 0 -4 7q0 6 4 6h205l18 162q14 146 70.5 215t179.5 69q90 0 150 -22q4 -2 2 -9q-5 -5 -8 -2q-52 21 -144 21q-118 0 -170.5 -66.5t-66.5 -208.5l-19 -159 h529z" />
<glyph horiz-adv-x="0" />
<glyph horiz-adv-x="682" />
<glyph unicode=" "  horiz-adv-x="491" />
<glyph unicode="&#x09;" horiz-adv-x="491" />
<glyph unicode="&#xa0;" horiz-adv-x="491" />
<glyph unicode="!" horiz-adv-x="462" d="M229 383q-6 0 -6 4l101 965q0 4 8 4t8 -4l-104 -965q0 -4 -7 -4zM190 0q-6 0 -6 4l17 162q0 4 6 4t6 -4l-16 -162q0 -4 -7 -4z" />
<glyph unicode="&#x22;" horiz-adv-x="634" d="M225 930l43 473q0 6 13 6q7 0 7.5 -1t0.5 -5l-56 -473q0 -4 -4 -4t-4 4zM508 924l43 473q0 6 12 6q7 0 7.5 -1t0.5 -5l-55 -473q0 -4 -4 -4t-4 4z" />
<glyph unicode="#" horiz-adv-x="1171" d="M623 4l139 410h-455l-139 -410q-2 -4 -6 -4t-5.5 0.5t-0.5 3.5l139 410h-199q-4 0 -4 6t4 6h203l143 422h-198q-4 0 -4 6q3 6 6 6h200l142 410q2 4 8 4t4 -4l-139 -410h452l142 410q2 4 8 4t4 -4l-139 -410h198q5 0 2 -6q0 -6 -4 -6h-200l-146 -422h199q4 0 4 -6t-4 -6 h-203l-139 -410q-2 -4 -8 -4t-4 4zM457 848l-146 -422h455l143 422h-452z" />
<glyph unicode="$" horiz-adv-x="1146" d="M524 -184q-6 0 -6 4l19 172q-207 5 -308.5 89.5t-83.5 252.5q0 4 7 4q6 0 6 -4q-18 -164 79 -245.5t302 -84.5l71 678q-73 21 -123 38.5t-101 45.5t-80.5 60t-48.5 79.5t-19 106.5q0 348 421 348h21l18 176q2 4 9 4q6 0 4 -4l-19 -178q169 -6 247.5 -71t78.5 -200 q0 -19 -4 -59q0 -4 -6 -4q-7 0 -7 4q5 58 5 62q0 130 -74.5 190.5t-239.5 65.5l-69 -654q1 0 4.5 -1t5.5 -1q78 -22 129.5 -41t98.5 -44.5t73.5 -56t41.5 -72t15 -95.5q0 -389 -436 -389h-6l-19 -172q0 -4 -6 -4zM557 4q422 0 422 377q0 66 -21 112t-69.5 80t-106.5 56.5 t-153 48.5q-6 0 -8 2l-70 -676h6zM250 1010q0 -57 18 -101t45.5 -74.5t78 -57t97.5 -43t121 -38.5l70 652h-21q-409 0 -409 -338z" />
<glyph unicode="%" horiz-adv-x="1552" d="M481 1360q211 0 211 -242q0 -66 -14 -128t-44 -119t-85.5 -91.5t-130.5 -34.5q-209 0 -209 236q0 68 13 130t42.5 120.5t85 93.5t131.5 35zM418 758q70 0 122.5 31.5t82 85t43.5 115.5t14 132q0 115 -49 170.5t-150 55.5q-71 0 -124 -32t-81.5 -86.5t-41.5 -117 t-13 -133.5q0 -221 197 -221zM1307 1352l-988 -1348q-2 -4 -10 -4q-6 0 -4 4l987 1348q2 4 11 4q6 0 4 -4zM1192 608q211 0 211 -241q0 -66 -14 -128t-44.5 -119t-86 -91.5t-130.5 -34.5q-208 0 -208 235q0 68 13 130t42.5 120.5t85 93.5t131.5 35zM1128 6q57 0 102.5 21 t75 56.5t49 83.5t28 98.5t8.5 105.5q0 115 -49 170t-150 55q-71 0 -124 -32t-81.5 -86.5t-41.5 -117t-13 -133.5q0 -221 196 -221z" />
<glyph unicode="&#x26;" horiz-adv-x="1323" d="M1225 18q4 0 4 -6q0 -4 -4 -6q-35 -10 -92 -10q-74 0 -111 47.5t-37 153.5v43q-46 -113 -158.5 -180.5t-279.5 -67.5q-197 0 -300.5 85.5t-103.5 250.5q0 169 87 293t251 155q-89 8 -140.5 64.5t-51.5 169.5q0 163 93.5 254.5t268.5 91.5q91 0 152.5 -18t96 -54.5 t47 -86.5t7.5 -120q0 -4 -6 -4t-6 4q6 91 -17.5 147.5t-90.5 87.5t-185 31q-161 0 -254.5 -83.5t-93.5 -251.5q0 -116 62 -171t188 -55h151q5 0 5 -6t-5 -6h-151q-118 0 -209 -60.5t-138.5 -160t-47.5 -219.5q0 -162 100 -244t293 -82q204 0 321.5 98t133.5 254l43 414h-179 q-4 0 -4 6t4 6h408q4 0 4 -6t-4 -6h-217l-43 -414q-6 -35 -15 -71q-4 -66 -4 -86q0 -102 34.5 -146.5t103.5 -44.5q24 0 44.5 2.5t32 5t13.5 2.5z" />
<glyph unicode="'" horiz-adv-x="348" d="M225 930l43 473q0 6 13 6q7 0 7.5 -1t0.5 -5l-56 -473q0 -4 -4 -4t-4 4z" />
<glyph unicode="(" horiz-adv-x="643" d="M182 143q0 167 16 339.5t52 343.5t87.5 303t129 214t170.5 82h37q5 0 2 -6q0 -6 -4 -6h-35q-90 0 -165.5 -82t-125.5 -213.5t-85 -300.5t-50.5 -339.5t-15.5 -334.5q0 -260 61.5 -384t194.5 -124h34q5 0 2 -6q0 -6 -4 -6h-37q-136 0 -200 127.5t-64 392.5z" />
<glyph unicode=")" horiz-adv-x="643" d="M461 905q0 -167 -16 -339.5t-52 -343.5t-87.5 -303t-129 -214t-170.5 -82h-37q-5 0 -2 6q0 6 4 6h35q90 0 166 82t126 213.5t85 300.5t50.5 339.5t15.5 334.5q0 260 -61.5 384t-194.5 124h-35q-5 0 -2 6q0 6 4 6h37q136 0 200 -127.5t64 -392.5z" />
<glyph unicode="*" horiz-adv-x="1032" d="M238 1147l340 -123l32 375q0 6 13 6q7 0 7.5 -1t0.5 -5l-45 -375l364 123q3 2 5 0.5t3 -8.5q2 -10 -4 -13l-368 -110l192 -295q3 -5 -4 -10q-9 -7 -12 -2l-182 299l-244 -299q-4 -4 -12 2q-7 7 -5 10l256 295l-346 110q-4 2 0 13q5 10 9 8z" />
<glyph unicode="+" d="M612 1026l-41 -391h371q4 0 4 -6t-6 -6h-371l-41 -392q0 -4 -6 -4t-6 4l41 392h-369q-4 0 -4 6t4 6h369l43 391q0 4 6 4t6 -4z" />
<glyph unicode="," horiz-adv-x="356" d="M203 197q4 0 4 -7q-63 -194 -211 -464q-2 -5 -6 -5q-6 0 -6 5q142 261 209 464q0 7 10 7z" />
<glyph unicode="-" horiz-adv-x="782" d="M164 555h487q4 0 4 -6q-3 -6 -6 -6h-485q-4 0 -4 6t4 6z" />
<glyph unicode="." horiz-adv-x="356" d="M137 0q-6 0 -6 4l16 162q0 4 7 4q6 0 6 -4l-17 -162q0 -4 -6 -4z" />
<glyph unicode="/" horiz-adv-x="724" d="M788 1458l-788 -1622q-2 -4 -8 -4t-4 4l788 1622q2 4 8 4t4 -4z" />
<glyph unicode="0" horiz-adv-x="1138" d="M662 1282q189 0 276.5 -111t87.5 -348q0 -77 -5 -149t-19 -157.5t-36.5 -158t-61.5 -141.5t-90 -117.5t-124.5 -78t-163.5 -29.5q-189 0 -276.5 111t-87.5 348q0 77 5 149t19 157t36.5 157.5t61.5 142t90 118t124.5 78t163.5 29.5zM528 4q87 0 158.5 28t121 74.5t87 114 t60 138t36 155t18.5 157.5t5 152q0 230 -84.5 338.5t-267.5 108.5q-87 0 -158.5 -28.5t-121 -75.5t-87.5 -115t-60.5 -139t-36.5 -155.5t-19 -157t-5 -150.5q0 -232 85 -338.5t269 -106.5z" />
<glyph unicode="1" horiz-adv-x="831" d="M381 4l131 1258l-313 -129q-6 -3 -6 4q0 4 4 6l321 133q8 4 8 -4l-133 -1268q0 -4 -6 -4t-6 4z" />
<glyph unicode="2" horiz-adv-x="1040" d="M606 1282q326 0 326 -272q0 -95 -30.5 -174.5t-93 -145.5t-128 -114t-164.5 -107q-55 -32 -86.5 -51t-80.5 -51t-77.5 -55.5t-64 -58t-55.5 -66t-36 -71t-20 -81.5l-2 -23h762q4 0 4 -6t-4 -6h-766q-8 0 -8 4l2 31q5 43 21.5 83.5t37 73t56 67.5t65 59.5t78.5 57t81 51.5 t87 52q71 42 122 76t109 85.5t94 102.5t60.5 120.5t24.5 146.5q0 260 -314 260q-106 0 -180 -23t-118.5 -70.5t-67.5 -106.5t-35 -144q0 -4 -6 -4t-6 4q12 87 36 148.5t70 110t122.5 73t184.5 24.5z" />
<glyph unicode="3" horiz-adv-x="1048" d="M596 655h-152q-4 0 -4 7q0 6 4 6h156q145 0 237.5 92t92.5 248q0 262 -324 262q-198 0 -287 -76t-110 -231q0 -5 -6 -5t-6 5q21 160 113.5 239.5t295.5 79.5q336 0 336 -274q0 -132 -72.5 -229.5t-203.5 -116.5q109 -16 176 -83.5t67 -189.5q0 -186 -113.5 -291.5 t-308.5 -105.5q-210 0 -297 81.5t-75 241.5q0 4 6 4t6 -4q-12 -155 72 -233t290 -78q178 0 293 98.5t115 282.5q0 131 -79 200.5t-222 69.5z" />
<glyph unicode="4" horiz-adv-x="1073" d="M737 0q-6 0 -6 4l35 328h-674q-4 0 -4 6t2 8l766 926q4 6 12 6q9 0 9 -6l-99 -928h219q4 0 4 -6t-4 -6h-219l-35 -328q0 -4 -6 -4zM104 344h662l96 918z" />
<glyph unicode="5" horiz-adv-x="1003" d="M508 752q-95 0 -180.5 -23.5t-137.5 -54.5q-8 -4 -12 -4q-6 0 -6 4l115 592q3 8 8 8h598q4 0 4 -6t-6 -6h-594l-113 -580q132 82 326 82q373 0 373 -318q0 -204 -109.5 -329t-318.5 -125q-200 0 -286.5 81.5t-74.5 241.5q0 4 6 4t6 -4q-12 -156 71.5 -233.5t279.5 -77.5 t304.5 121t108.5 324q0 155 -90 229t-272 74z" />
<glyph unicode="6" horiz-adv-x="1064" d="M946 999q2 129 -73.5 200t-227.5 71q-80 0 -146.5 -25.5t-113 -68t-83 -104t-59 -125.5t-37.5 -141t-21.5 -143.5t-8.5 -138.5q55 107 176 168.5t269 61.5q157 0 240 -74.5t83 -222.5q0 -209 -107 -337t-307 -128q-196 0 -282 110t-86 334q0 148 15.5 272t51.5 232 t91 182.5t138 117t189 42.5q157 0 235 -75t76 -208q0 -4 -6 -4t-6 4zM174 504v-72q0 -217 83 -322.5t273 -105.5q83 0 151 24t114 66t77.5 99.5t45.5 123t14 138.5q0 286 -314 286q-146 0 -268 -63t-176 -174z" />
<glyph unicode="7" horiz-adv-x="946" d="M207 4q241 508 702 1258h-710q-4 0 -4 6t4 6h725q4 0 4 -6l-6 -13q-425 -678 -701 -1251q-2 -4 -8 -4q-4 0 -5.5 0.5t-0.5 3.5z" />
<glyph unicode="8" horiz-adv-x="1093" d="M131 260q0 50 8.5 93t27.5 76.5t39.5 60t53.5 48.5t61 37.5t71 30t73 23.5t78 22q-56 14 -94.5 27t-81.5 37t-69 53t-43 74t-17 102q0 165 109 251.5t292 86.5q170 0 255 -64.5t85 -185.5q0 -64 -14 -115t-44 -88.5t-62 -64t-82.5 -48t-90.5 -34.5t-100 -29h1l1 -1h1h1h1 l1 -1h1q154 -39 216 -73q133 -73 133 -228q0 -178 -120 -268t-318 -90q-187 0 -280 68.5t-93 199.5zM930 350q0 50 -13.5 90t-40 68.5t-56 49t-73.5 36.5t-80 26t-87 23q-11 3 -17 4q-169 -46 -238 -82q-150 -78 -176 -230q-6 -35 -6 -75q0 -256 363 -256q85 0 157.5 18 t134.5 56.5t97 108t35 163.5zM250 946q0 -41 9.5 -76t24 -60t40 -47t49 -36t60 -28t63.5 -22.5t69 -19.5q43 12 68 19t64 20t63 24.5t55.5 29t51 36t41 44t33 54t19 65.5t7.5 79q0 242 -328 242q-78 0 -145.5 -18t-123 -55t-88 -101.5t-32.5 -149.5z" />
<glyph unicode="9" horiz-adv-x="1064" d="M170 274q-2 -129 73.5 -199.5t227.5 -70.5q80 0 146 25.5t113 68t83.5 103.5t58.5 125t37.5 141t22 143.5t8.5 139.5q-55 -107 -176 -168.5t-268 -61.5q-157 0 -240.5 74.5t-83.5 222.5q0 209 107 337t307 128q196 0 282 -110t86 -334q0 -148 -15.5 -272t-51.5 -232 t-91 -182.5t-138 -117t-189 -42.5q-157 0 -235 74.5t-76 207.5q0 5 6 5t6 -5zM942 842q0 217 -83 322.5t-273 105.5q-83 0 -151 -24t-114 -66t-77.5 -99.5t-45.5 -123t-14 -138.5q0 -287 314 -287q147 0 267.5 62.5t174.5 175.5q2 25 2 72z" />
<glyph unicode=":" horiz-adv-x="389" d="M154 0q-7 0 -7 4l17 162q0 4 6 4t6 -4l-16 -162q0 -4 -6 -4zM238 801q-7 0 -7 4l17 162q0 4 6 4t6 -4l-16 -162q0 -4 -6 -4z" />
<glyph unicode=";" horiz-adv-x="389" d="M242 801q-6 0 -6 4l16 162q0 4 6 4t6 -4l-16 -162q0 -4 -6 -4zM211 197q4 0 4 -7q-63 -194 -211 -464q-2 -5 -6 -5q-6 0 -6 5q142 261 209 464q0 7 10 7z" />
<glyph unicode="&#x3c;" d="M229 641l3 3q2 4 4 5l651 490q5 3 8 0t0 -6l-655 -492l551 -491q3 -4 0 -7t-9 0l-549 490q-4 2 -4 8z" />
<glyph unicode="=" d="M176 461h746q4 0 4 -6t-6 -6h-746q-2 0 -2 6t4 6zM211 811h745q5 0 5 -6t-7 -6h-745q-2 0 -2 6t4 6z" />
<glyph unicode="&#x3e;" d="M852 641q0 -1 -2 -4t-4 -4l-651 -490q-6 -3 -9 0q-4 3 0 7l656 491l-551 492q-3 3 0 6t8 0l549 -490q4 -2 4 -8z" />
<glyph unicode="?" d="M555 442l-6 -55q0 -4 -6 -4t-6 4l6 55q7 61 35 111.5t67.5 85.5t86 68.5t91.5 69t82 77t59.5 102.5t22.5 136q0 260 -344 260q-115 0 -196.5 -25t-131 -75.5t-76 -114.5t-38.5 -154q0 -4 -6 -4q-7 0 -7 4q12 92 39.5 158.5t79 118.5t135.5 78t201 26q175 0 265.5 -68.5 t90.5 -205.5q0 -76 -22.5 -138t-59.5 -104.5t-82 -78.5t-91.5 -69t-86 -68t-67.5 -83.5t-35 -106.5zM504 0q-6 0 -6 4l16 162q0 4 6 4t6 -4l-16 -162q0 -4 -6 -4z" />
<glyph unicode="@" horiz-adv-x="1753" d="M1145 473l47 459q-95 35 -227 35q-89 0 -154.5 -28t-104 -72.5t-61.5 -113t-31 -138t-8 -158.5q0 -136 53.5 -199t180.5 -63q121 0 205 67t100 211zM1090 -137h-203q-142 0 -246.5 15.5t-192 53t-141.5 101t-83 160t-29 229.5q0 442 191 663.5t603 221.5q174 0 294 -32.5 t191 -100t101.5 -161.5t30.5 -227q0 -137 -15.5 -246t-48.5 -194t-90 -130.5t-135 -45.5q-96 0 -139.5 55t-36.5 172q-25 -100 -105 -157.5t-196 -57.5q-131 0 -188.5 68t-57.5 209q0 68 5.5 125t19 119.5t40.5 109.5t66.5 86t100 59.5t137.5 20.5q128 0 237 -37q7 -2 4 -8 l-51 -502q-4 -40 -4 -61q0 -90 38.5 -139.5t131.5 -49.5q74 0 128 45.5t85.5 129.5t46 190.5t14.5 240.5q0 131 -30 222.5t-99.5 156.5t-187 96t-289.5 31q-405 0 -592.5 -218t-187.5 -654q0 -131 29 -226t82 -156.5t139 -98.5t189 -51.5t243 -14.5h203q4 0 4 -6t-6 -6z" />
<glyph unicode="A" horiz-adv-x="1118" d="M991 0q-4 0 -6 4q-53 254 -100 451h-639q-108 -240 -195 -451q-2 -4 -8 -4t-4 4q122 299 302.5 697t309.5 651q2 4 8 4q7 0 9 -4q74 -246 170.5 -642.5t158.5 -705.5q1 -3 -0.5 -3.5t-5.5 -0.5zM657 1341q-163 -325 -407 -874h633q-126 534 -226 874z" />
<glyph unicode="B" horiz-adv-x="1204" d="M256 688l-72 -676h400q77 0 143.5 12.5t127 41t103.5 73t68 112t25 152.5q0 285 -404 285h-391zM727 1343h-403l-68 -643h395q430 0 430 383q0 131 -84.5 195.5t-269.5 64.5zM322 1356h409q187 0 274 -68.5t87 -204.5q0 -173 -82 -269t-258 -120q146 -16 228.5 -83 t82.5 -203q0 -205 -126.5 -306.5t-350.5 -101.5h-406q-8 0 -8 4l141 1348q0 4 9 4z" />
<glyph unicode="C" horiz-adv-x="1212" d="M180 682q39 359 167 520.5t386 161.5q213 0 307.5 -94t79.5 -279q0 -4 -6 -4t-6 4q14 180 -76 270.5t-299 90.5q-253 0 -378 -158t-162 -512q-13 -124 -13 -205q0 -250 98.5 -361.5t327.5 -111.5q208 0 314 94t131 287q0 4 6 4t6 -4q-25 -198 -135 -295.5t-324 -97.5 q-234 0 -335 114.5t-101 370.5q0 94 12 205z" />
<glyph unicode="D" horiz-adv-x="1265" d="M184 12h365q273 0 408.5 156t172.5 510q11 116 11 178q0 257 -108 372t-345 115h-364zM549 0h-369q-8 0 -8 4l141 1348q0 4 9 4h368q240 0 351.5 -119t111.5 -379q0 -70 -10 -180q-37 -358 -176.5 -518t-417.5 -160z" />
<glyph unicode="E" horiz-adv-x="1097" d="M1036 1343h-712l-68 -643h655q4 0 4 -6t-4 -6h-655l-72 -676h721q4 0 4 -6t-4 -6h-725q-8 0 -8 4l141 1348q0 4 9 4h716q4 0 4 -6q0 -7 -6 -7z" />
<glyph unicode="F" horiz-adv-x="1040" d="M256 688l-72 -684q0 -4 -6 -4t-6 4l141 1348q0 4 9 4h700q4 0 4 -6q0 -7 -6 -7h-696l-68 -643h651q4 0 4 -6t-4 -6h-651z" />
<glyph unicode="G" horiz-adv-x="1241" d="M1087 616q9 0 9 -6l-21 -200q-21 -204 -135.5 -311t-323.5 -107q-234 0 -340 121t-106 383q0 73 10 186q39 360 167 521t390 161q217 0 311 -89.5t82 -270.5q0 -5 -6 -5t-6 5q12 175 -78 261.5t-303 86.5q-258 0 -382.5 -157.5t-161.5 -512.5q-11 -125 -11 -188 q0 -255 103 -372.5t333 -117.5q400 0 445 410l20 190h-397q-4 0 -4 6t4 6h401z" />
<glyph unicode="H" horiz-adv-x="1286" d="M1026 0q-6 0 -6 4l72 684h-836l-72 -684q0 -4 -6 -4t-6 4l141 1348q0 4 6 4q7 0 7 -4l-70 -652h836l69 652q0 4 6 4q7 0 7 -4l-142 -1348q0 -4 -6 -4z" />
<glyph unicode="I" horiz-adv-x="454" d="M186 0q-6 0 -6 4l142 1348q0 4 6 4t6 -4l-141 -1348q0 -4 -7 -4z" />
<glyph unicode="J" horiz-adv-x="1032" d="M821 453l94 899q0 4 7 4q6 0 6 -4l-94 -901q-26 -240 -113 -349.5t-277 -109.5q-167 0 -244 80.5t-77 246.5q0 43 2 68q0 4 6 4t6 -4q-2 -23 -2 -63q0 -164 74 -242t237 -78q94 0 160 27t109.5 84.5t68 138.5t37.5 199z" />
<glyph unicode="K" horiz-adv-x="1126" d="M1118 1350l-586 -631l457 -713q6 -6 -2 -6q-6 0 -10 4l-455 709h-264l-74 -709q0 -4 -6 -4t-6 4l141 1348q0 4 6 4q7 0 7 -4l-66 -627h264l582 627q4 4 10 4q8 0 2 -6z" />
<glyph unicode="L" horiz-adv-x="1003" d="M326 1352l-142 -1340h693q4 0 4 -6t-4 -6h-697q-8 0 -8 4l141 1348q0 4 6 4q7 0 7 -4z" />
<glyph unicode="M" horiz-adv-x="1556" d="M752 150q-7 0 -9 4l-419 1179l-140 -1329q0 -4 -6 -4t-6 4l141 1348q0 4 9 4q8 0 10 -4l420 -1186l673 1186q2 4 11 4q8 0 8 -4l-141 -1348q0 -4 -7 -4q-6 0 -6 4l137 1325l-667 -1175q-2 -4 -8 -4z" />
<glyph unicode="N" horiz-adv-x="1298" d="M1180 1356q6 0 6 -4l-142 -1348q0 -4 -8 -4t-10 4l-702 1331l-140 -1331q0 -4 -6 -4t-6 4l141 1348q0 4 9 4q8 0 10 -4l700 -1336l142 1336q0 4 6 4z" />
<glyph unicode="O" horiz-adv-x="1269" d="M735 1364q223 0 323.5 -116t100.5 -369q0 -90 -12 -201q-37 -363 -165 -524.5t-390 -161.5q-223 0 -322.5 117t-99.5 372q0 107 10 197q39 363 166 524.5t389 161.5zM594 4q256 0 380 158t161 516q12 111 12 201q0 249 -96.5 361t-315.5 112q-256 0 -380.5 -158 t-161.5 -516q-13 -117 -13 -199q0 -249 97.5 -362t316.5 -113z" />
<glyph unicode="P" horiz-adv-x="1150" d="M592 586h-348l-60 -582q0 -4 -6 -4t-6 4l141 1348q0 4 9 4h350q218 0 314.5 -70t96.5 -235q0 -22 -4 -80q-22 -211 -134 -298t-353 -87zM324 1343l-78 -745h344q236 0 345.5 84t131.5 289q4 29 4 78q0 160 -94.5 227t-308.5 67h-344z" />
<glyph unicode="Q" horiz-adv-x="1269" d="M735 1364q223 0 323.5 -116t100.5 -369q0 -90 -12 -201q-37 -361 -163.5 -522t-385.5 -164q53 -111 174.5 -181t267.5 -73q4 0 4 -6t-6 -6q-93 0 -184 32.5t-163.5 94t-106.5 139.5q-219 3 -316.5 119.5t-97.5 369.5q0 107 10 197q39 363 166 524.5t389 161.5zM594 4 q256 0 380 158t161 516q12 111 12 201q0 249 -96.5 361t-315.5 112q-256 0 -380.5 -158t-161.5 -516q-13 -117 -13 -199q0 -249 97.5 -362t316.5 -113z" />
<glyph unicode="R" horiz-adv-x="1163" d="M598 614h-350l-64 -610q0 -4 -6 -4t-6 4l141 1348q0 4 9 4h354q209 0 303 -69t94 -228q0 -20 -4 -74q-20 -174 -111.5 -263t-267.5 -104q125 -11 184 -81t84 -207q24 -135 39 -324q2 -6 -6 -6q-6 0 -8 6q-17 206 -37 320q-14 76 -35 125.5t-59.5 88.5t-100.5 56.5 t-153 17.5zM324 1343l-76 -716h350q218 0 328.5 84t130.5 274q4 54 4 74q0 153 -92 218.5t-297 65.5h-348z" />
<glyph unicode="S" horiz-adv-x="1163" d="M561 4q428 0 428 373q0 65 -22 112.5t-71.5 82t-108.5 57.5t-154 49q-78 22 -130 40t-107.5 46.5t-88 61t-53.5 80.5t-21 108q0 346 431 346q188 0 277 -65.5t89 -207.5q0 -19 -4 -59q0 -4 -6 -4t-6 4q4 40 4 59q0 137 -85 199t-269 62q-418 0 -418 -334 q0 -48 12.5 -87.5t39.5 -70t57.5 -53.5t80 -44t92.5 -35.5t109 -33.5q98 -28 158.5 -52.5t111 -60t72.5 -84t22 -116.5q0 -385 -442 -385q-217 0 -326.5 85.5t-91.5 256.5q0 4 6 4q7 0 7 -4q-18 -167 87 -248.5t320 -81.5z" />
<glyph unicode="T" horiz-adv-x="1040" d="M1049 1343h-424l-140 -1339q0 -4 -6 -4t-6 4l139 1339h-422q-4 0 -4 7q0 6 4 6h861q4 0 4 -6q0 -7 -6 -7z" />
<glyph unicode="U" horiz-adv-x="1265" d="M594 -8q-205 0 -299 87.5t-94 278.5q0 50 6 109l94 885q0 4 6 4t6 -4l-92 -883q-6 -62 -6 -113q0 -185 89 -268.5t288 -83.5q227 0 334.5 109t134.5 356l92 883q0 4 6 4t6 -4l-94 -885q-27 -252 -136.5 -363.5t-340.5 -111.5z" />
<glyph unicode="V" horiz-adv-x="1101" d="M1114 1356q6 0 4 -6q-119 -304 -296 -702.5t-304 -643.5q-2 -4 -8 -4t-8 4q-77 244 -170 642.5t-148 703.5q-2 6 4 6q7 0 9 -4q56 -307 146.5 -699t166.5 -639q126 248 300 640t296 698q2 4 8 4z" />
<glyph unicode="W" horiz-adv-x="1892" d="M1894 1356q6 0 4 -4q-107 -294 -270 -692.5t-280 -655.5q-2 -4 -9 -4l-8 4q-74 282 -159.5 670.5t-127.5 664.5q-107 -282 -274 -673.5t-293 -661.5l-8 -4q-6 0 -8 4q-66 265 -145.5 663t-122.5 685q-2 4 4 4t8 -4q43 -284 121 -678t143 -660q129 278 296.5 671.5 t270.5 666.5q4 4 8 4q7 0 11 -4q43 -270 127.5 -661.5t156.5 -676.5q121 273 282.5 666t264.5 672q2 4 8 4z" />
<glyph unicode="X" horiz-adv-x="1175" d="M651 698l391 -692q3 -6 -4 -6q-8 0 -10 4l-389 688h-45l-528 -688q-2 -4 -11 -4q-7 0 -4 6l535 692l-387 652q-3 6 4 6q8 0 10 -4l383 -647h45l522 647q2 4 11 4q7 0 4 -6z" />
<glyph unicode="Y" horiz-adv-x="1097" d="M1090 1350q2 4 8 4t4 -4q-117 -201 -268 -436.5t-267 -395.5l-53 -514q0 -4 -6 -4t-6 4l53 514q-83 161 -184.5 396.5t-173.5 435.5q-2 4 4 4t8 -4q76 -204 176 -439.5t178 -382.5q110 152 262 389.5t265 432.5z" />
<glyph unicode="Z" horiz-adv-x="1110" d="M248 1356h813q4 0 4 -8l-4 -9l-961 -1327h834q4 0 4 -6t-4 -6h-844q-4 0 -4 8q0 4 2 6l961 1329h-801q-4 0 -4 7q0 6 4 6z" />
<glyph unicode="[" horiz-adv-x="643" d="M154 -369l186 1786q0 4 8 4h287q4 0 4 -6t-4 -6h-283l-186 -1769h291q4 0 4 -7q0 -6 -4 -6h-297q-6 0 -6 4z" />
<glyph unicode="\" horiz-adv-x="724" d="M606 -164l-448 1622q0 4 6 4t6 -4l448 -1622q2 -4 -4 -4t-8 4z" />
<glyph unicode="]" horiz-adv-x="643" d="M489 1417l-186 -1786q0 -4 -8 -4h-287q-4 0 -4 6q0 7 4 7h283l186 1769h-291q-4 0 -4 6t4 6h297q6 0 6 -4z" />
<glyph unicode="^" d="M641 1356q6 0 8 -4l299 -660q2 -4 -4 -4t-8 4l-297 651l-432 -651q-2 -4 -8 -4t-4 4l438 660q2 4 8 4z" />
<glyph unicode="_" horiz-adv-x="761" d="M700 -141h-749q-4 0 -4 6t4 6h751q5 0 5 -6t-7 -6z" />
<glyph unicode="`" horiz-adv-x="614" d="M549 1124l-318 156q-6 3 -2 12q4 8 11 4l315 -159q4 -2 0 -9q-3 -6 -6 -4z" />
<glyph unicode="a" horiz-adv-x="1036" d="M240 713q0 -4 -7 -4q-6 0 -6 4q15 139 104 202.5t257 63.5q172 0 244 -69t55 -226l-72 -680q0 -4 -6 -4t-6 4l26 256q-37 -112 -157 -188t-269 -76q-131 0 -208.5 53.5t-77.5 165.5q0 283 346 283h391l20 188q15 151 -53.5 216t-234.5 65q-162 0 -247.5 -60t-98.5 -194z M852 485h-389q-334 0 -334 -270q0 -107 75 -157t202 -50q165 0 291 94.5t141 239.5z" />
<glyph unicode="b" horiz-adv-x="1114" d="M315 1413l-82 -768q43 165 143.5 249.5t272.5 84.5q180 0 260 -93.5t80 -277.5q0 -58 -6 -123q-26 -245 -128 -369t-310 -124q-175 0 -256.5 87t-87.5 257l-33 -332q0 -4 -6 -4t-6 4l147 1409q0 4 6 4t6 -4zM217 485q-6 -62 -6 -114q0 -182 78.5 -274.5t257.5 -92.5 q204 0 302 120.5t122 360.5q8 86 8 123q0 178 -78 268.5t-254 90.5q-204 0 -304 -121t-126 -361z" />
<glyph unicode="c" horiz-adv-x="999" d="M580 967q-203 0 -298.5 -120t-121.5 -362q-6 -67 -6 -127q0 -179 77.5 -266.5t262.5 -87.5q304 0 346 281q0 4 6 4t6 -4q-43 -293 -356 -293q-192 0 -274.5 90t-82.5 272q0 37 8 131q26 247 125.5 370.5t309.5 123.5q160 0 237.5 -69.5t71.5 -192.5q0 -4 -6 -4t-6 4 q6 119 -69.5 184.5t-229.5 65.5z" />
<glyph unicode="d" horiz-adv-x="1114" d="M864 4l33 326q-43 -167 -142 -252.5t-272 -85.5q-182 0 -262 94t-80 279q0 55 6 120q26 244 129 369t312 125q176 0 256.5 -88.5t85.5 -261.5l82 784q0 4 6 4t6 -4l-147 -1409q0 -4 -7 -4q-6 0 -6 4zM913 485q7 75 7 121q0 180 -78.5 270.5t-255.5 90.5 q-204 0 -302 -120.5t-124 -361.5q-6 -65 -6 -118q0 -180 77 -271.5t254 -91.5q204 0 304 120.5t124 360.5z" />
<glyph unicode="e" horiz-adv-x="1028" d="M899 502h-737q-2 -6 -2 -17q-6 -62 -6 -112q0 -184 81.5 -276.5t266.5 -92.5q298 0 346 266q2 4 8 4t4 -4q-52 -278 -360 -278q-189 0 -274 96t-85 283q0 53 6 114q26 243 131 368.5t312 125.5q168 0 248 -86t80 -238q0 -9 -5 -67l-8 -78q-3 -8 -6 -8zM588 967 q-196 0 -296.5 -114.5t-129.5 -338.5h731l8 74q4 46 4 67q0 147 -77 229.5t-240 82.5z" />
<glyph unicode="f" horiz-adv-x="684" d="M678 958h-328l-100 -954q0 -4 -6 -4t-6 4l100 954h-205q-4 0 -4 7q0 6 4 6h205l18 162q14 146 70.5 215t179.5 69q90 0 150 -22q4 -2 2 -9q-2 -5 -8 -2q-61 21 -144 21q-118 0 -170.5 -66.5t-66.5 -208.5l-19 -159h328q4 0 4 -6q0 -7 -4 -7z" />
<glyph unicode="g" horiz-adv-x="1024" d="M106 -86q-15 -146 64 -214.5t262 -68.5q72 0 132 15t110.5 47.5t79 91t28.5 137.5q0 113 -81.5 165t-235.5 60q-168 0 -247 81t-79 245q0 57 4 90q22 209 121 312.5t289 103.5q36 0 98 -8h314q4 0 4 -6q0 -7 -4 -7h-267q179 -60 179 -303q0 -51 -5 -92 q-21 -191 -102.5 -293t-237.5 -120q263 -30 263 -228q0 -153 -97.5 -228t-263.5 -75q-190 0 -272.5 72t-67.5 223q0 4 6 4t6 -4zM467 160q186 0 279 99t114 304q6 49 6 92q0 158 -75.5 235t-239.5 77q-185 0 -279 -99.5t-116 -304.5q-4 -62 -4 -88q0 -161 75 -238t240 -77z " />
<glyph unicode="h" horiz-adv-x="1114" d="M315 1413l-73 -706q37 110 149 191t273 81q156 0 233 -81.5t59 -248.5l-67 -645q0 -4 -6 -4t-6 4l67 647q17 161 -56.5 238.5t-223.5 77.5q-177 0 -297.5 -102.5t-133.5 -239.5l-65 -621q0 -4 -6 -4t-6 4l147 1409q0 4 6 4t6 -4z" />
<glyph unicode="i" horiz-adv-x="405" d="M156 4l100 963q0 4 6 4t6 -4l-100 -963q0 -4 -6 -4t-6 4zM303 1356q6 0 6 -4l-18 -164q0 -4 -6 -4t-6 4l18 164q0 4 6 4z" />
<glyph unicode="j" horiz-adv-x="438" d="M-119 -356q2 0 13 -3t33 -6.5t50 -3.5q94 0 139 60.5t62 220.5l111 1055q0 4 6 4t6 -4l-111 -1055q-17 -164 -66.5 -228.5t-148.5 -64.5q-70 0 -94 12q-4 2 -4 7q0 6 4 6zM336 1356q6 0 6 -4l-18 -164q0 -4 -7 -4q-6 0 -6 4l19 164q0 4 6 4z" />
<glyph unicode="k" horiz-adv-x="929" d="M315 1413l-94 -887h199l471 441q4 4 10 4q10 0 4 -6l-475 -445l385 -514q6 -6 -4 -6q-6 0 -10 4l-383 510h-197l-53 -510q0 -4 -6 -4t-6 4l147 1409q0 4 6 4t6 -4z" />
<glyph unicode="l" horiz-adv-x="425" d="M301 12h43q4 0 4 -6t-4 -6h-45q-83 0 -109.5 42t-15.5 140l129 1227q0 4 6 4t6 -4l-129 -1225q-10 -96 12.5 -134t102.5 -38z" />
<glyph unicode="m" horiz-adv-x="1703" d="M891 645l-68 -641q0 -4 -6 -4t-6 4l70 668q29 295 -250 295q-85 0 -158.5 -28t-122 -74.5t-78.5 -103t-36 -116.5l-68 -641q0 -4 -6 -4t-6 4l100 963q0 4 6 4t6 -4l-24 -240q16 46 47.5 88.5t78 80t114.5 60.5t147 23q131 0 198.5 -64.5t67.5 -191.5q39 108 140 182 t249 74q266 0 266 -250q0 -19 -4 -59l-69 -666q0 -4 -6 -4q-7 0 -7 4l70 668q29 295 -250 295q-85 0 -158.5 -28t-122 -74.5t-78.5 -103t-36 -116.5z" />
<glyph unicode="n" horiz-adv-x="1114" d="M268 967l-26 -260q37 110 149 191t273 81q156 0 233 -81.5t59 -248.5l-67 -645q0 -4 -6 -4t-6 4l67 647q17 161 -56.5 238.5t-223.5 77.5q-177 0 -297.5 -102.5t-133.5 -239.5l-65 -621q0 -4 -6 -4t-6 4l100 963q0 4 6 4t6 -4z" />
<glyph unicode="o" horiz-adv-x="1056" d="M588 979q182 0 263 -93.5t81 -277.5q0 -58 -6 -123q-26 -245 -127.5 -369t-311.5 -124q-183 0 -264.5 94t-81.5 279q0 55 6 120q26 245 128.5 369.5t312.5 124.5zM487 4q205 0 303.5 120t122.5 361q9 97 9 123q0 178 -78.5 268.5t-255.5 90.5q-205 0 -303.5 -120.5 t-124.5 -361.5q-6 -62 -6 -118q0 -181 77.5 -272t255.5 -91z" />
<glyph unicode="p" horiz-adv-x="1114" d="M268 967l-35 -322q43 165 143.5 249.5t272.5 84.5q180 0 260 -93.5t80 -277.5q0 -58 -6 -123q-26 -245 -128 -369t-310 -124q-175 0 -256.5 87t-87.5 257l-72 -701q0 -4 -6 -4t-6 4l139 1332q0 4 6 4t6 -4zM217 485q-6 -62 -6 -114q0 -182 78.5 -274.5t257.5 -92.5 q204 0 302 120.5t122 360.5q8 86 8 123q0 178 -78 268.5t-254 90.5q-204 0 -304 -121t-126 -361z" />
<glyph unicode="q" horiz-adv-x="1114" d="M831 -369q-6 0 -6 4l72 695q-43 -167 -142 -252.5t-272 -85.5q-182 0 -262 94t-80 279q0 55 6 120q26 244 129 369t312 125q176 0 256.5 -88.5t85.5 -261.5l35 338q0 4 6 4t6 -4l-139 -1332q0 -4 -7 -4zM913 485q7 75 7 121q0 180 -78.5 270.5t-255.5 90.5 q-204 0 -302 -120.5t-124 -361.5q-6 -65 -6 -118q0 -180 77 -271.5t254 -91.5q204 0 304 120.5t124 360.5z" />
<glyph unicode="r" horiz-adv-x="663" d="M653 963q-183 0 -295.5 -104.5t-128.5 -266.5l-61 -588q0 -4 -6 -4t-6 4l100 963q0 4 6 4t6 -4l-28 -277q36 120 142.5 202.5t272.5 82.5q2 0 2 -6t-4 -6z" />
<glyph unicode="s" horiz-adv-x="962" d="M125 270q-26 -266 332 -266q50 0 96 7.5t91 26.5t78 48t53 74.5t20 103.5q0 95 -67.5 143t-227.5 82q-169 35 -243.5 87t-74.5 149q0 70 26.5 120.5t75 79t107 41.5t131.5 13q169 0 245 -63.5t64 -186.5q0 -4 -6 -4t-6 4q12 119 -61 178.5t-238 59.5q-325 0 -325 -242 q0 -93 70.5 -140t236.5 -83q165 -35 235 -86.5t70 -153.5q0 -69 -28 -122t-77 -84.5t-111.5 -47.5t-135.5 -16q-180 0 -267.5 69t-74.5 209q0 4 6 4t6 -4z" />
<glyph unicode="t" horiz-adv-x="716" d="M662 958h-334l-74 -712q-4 -50 -4 -66q0 -91 39.5 -132.5t128.5 -41.5q86 0 155 29q6 3 9 -2q2 -5 -2 -8q-72 -31 -162 -31q-94 0 -137 44.5t-43 141.5q0 18 4 64l75 714h-184q-4 0 -4 7q0 6 4 6h184l31 284q0 5 6 5t6 -5l-30 -284h332q4 0 4 -6q0 -7 -4 -7z" />
<glyph unicode="u" horiz-adv-x="1101" d="M852 4l27 260q-36 -111 -140 -191.5t-254 -80.5q-162 0 -243.5 87t-63.5 259l66 629q0 4 6 4t6 -4l-66 -627q-18 -168 60.5 -252t234.5 -84q83 0 156.5 29t124 77t82.5 109t39 127l65 621q0 4 6 4q7 0 7 -4l-101 -963q0 -4 -6 -4t-6 4z" />
<glyph unicode="v" horiz-adv-x="925" d="M895 971q8 0 6 -6q-93 -220 -228 -496.5t-243 -464.5q-2 -4 -8 -4t-8 4q-71 192 -149 469t-122 492q-1 4 0.5 5t6.5 1q4 0 6 -4q42 -209 118.5 -482.5t147.5 -472.5q107 188 240 461t227 494q2 4 6 4z" />
<glyph unicode="w" horiz-adv-x="1527" d="M1487 971q4 0 4 -4q0 -3 -6 -15q-224 -535 -426 -948q-2 -4 -8 -4q-7 0 -9 4q-117 446 -221 946q-155 -371 -418 -946q-2 -4 -8 -4t-8 4q-108 381 -229 948q0 2 -1 8t-1 7q0 4 4 4q6 0 8 -4q81 -418 227 -953q295 652 420 953q2 4 8 4t8 -4q83 -412 220 -953 q208 430 428 953q2 4 8 4z" />
<glyph unicode="x" horiz-adv-x="946" d="M799 4l-297 502h-35l-401 -502q-2 -4 -11 -4q-7 0 -4 6l406 506l-295 453q-3 6 4 6q8 0 10 -4l293 -449h33l387 449q2 4 10 4q7 0 4 -6l-389 -453l299 -506q3 -6 -4 -6q-8 0 -10 4z" />
<glyph unicode="y" horiz-adv-x="950" d="M125 -369q38 0 72.5 17t63 42.5t61.5 75t59 94.5t65 120l11 22v2q-79 198 -169.5 476t-140.5 485q-1 4 0.5 5t6.5 1q4 0 6 -4q53 -214 140 -488t163 -465q280 547 455 953q2 4 6 4q8 0 6 -6q-101 -245 -242 -535t-231 -461q-39 -74 -65.5 -120t-60.5 -95t-63.5 -75 t-66.5 -43t-78 -17q-72 0 -121 21q-4 2 -4 6q3 6 6 6q2 0 16 -5t42 -10.5t63 -5.5z" />
<glyph unicode="z" horiz-adv-x="937" d="M852 954l-756 -942h670q4 0 4 -6t-4 -6h-680q-4 0 -4 8q0 4 2 6l758 944h-639q-4 0 -4 7q0 6 4 6h649q4 0 4 -8q0 -5 -4 -9z" />
<glyph unicode="{" horiz-adv-x="643" d="M70 524q0 6 4 6h59q83 0 127 97t64 284q24 224 41 296q36 150 123 193q44 21 102 21h49q4 0 4 -6t-4 -6h-49q-128 0 -182 -112q-36 -77 -58 -273q-2 -20 -6 -62l-6 -53q-39 -373 -176 -385q104 -8 104 -239q0 -73 -8 -146q-25 -221 -25 -282q0 -107 37.5 -162t132.5 -55 h50q4 0 4 -7q0 -6 -4 -6h-52q-101 0 -140.5 59t-39.5 175q0 27 2.5 63t5 64t7.5 75t8 74q8 73 8 150q0 114 -28 172.5t-93 58.5h-57q-4 0 -4 6z" />
<glyph unicode="|" horiz-adv-x="536" d="M274 1413v-1819q0 -4 -6 -4t-6 4v1819q0 4 6 4t6 -4z" />
<glyph unicode="}" horiz-adv-x="643" d="M573 524q0 -6 -4 -6h-59q-83 0 -127 -97t-64 -284q-24 -224 -41 -296q-36 -150 -123 -193q-43 -21 -102 -21h-49q-4 0 -4 6q0 7 4 7h49q128 0 182 112q36 77 58 273q2 20 6 61l6 53q39 373 176 385q-104 8 -104 240q0 72 8 145q25 221 25 283q0 107 -37.5 162t-132.5 55 h-50q-4 0 -4 6t4 6h52q101 0 140.5 -58.5t39.5 -174.5q0 -27 -2.5 -63t-5 -64t-7.5 -75.5t-8 -74.5q-8 -73 -8 -149q0 -114 28 -173t93 -59h57q4 0 4 -6z" />
<glyph unicode="~" d="M492 621l141 -82q58 -33 100 -33q55 0 93 32.5t71 104.5q2 4 8 4t4 -4q-37 -79 -76 -114t-100 -35q-51 0 -106 34l-142 82q-58 33 -100 33q-55 0 -93 -32.5t-71 -104.5q-2 -4 -8 -4t-4 4q37 79 76 114t100 35q52 0 107 -34z" />
<glyph unicode="&#xa1;" horiz-adv-x="462" d="M252 588q6 0 4 -4l-98 -965q0 -4 -8 -4q-9 0 -9 4l103 965q2 4 8 4zM274 801q-6 0 -6 4l17 162q0 4 6 4t6 -4l-16 -162q0 -4 -7 -4z" />
<glyph unicode="&#xa2;" horiz-adv-x="1028" d="M508 0q-6 0 -6 4l16 180q-191 1 -273.5 95t-82.5 280q0 59 6 123q26 246 130.5 372t319.5 126h7l18 172q0 4 6 4t6 -4l-18 -172q157 -4 234 -73t71 -189q-2 -5 -8 -5t-4 5q6 114 -68.5 179.5t-224.5 69.5l-105 -970q315 0 357 280q0 4 6 4t6 -4q-46 -293 -371 -293 l-16 -180q0 -4 -6 -4zM616 1167q-209 0 -309.5 -122t-126.5 -363q-6 -64 -6 -121q0 -181 79.5 -272t266.5 -92l105 970h-9z" />
<glyph unicode="&#xa3;" horiz-adv-x="1167" d="M94 0q-3 -1 -6 2q-3 5 0 8q293 184 293 428q0 43 -11 90.5t-21.5 74.5t-33.5 81h-178q-4 0 -4 6t4 6h172q-61 150 -61 258q0 192 115.5 301t318.5 109q189 0 272.5 -73.5t83.5 -223.5q0 -20 -4 -66q0 -4 -6 -4t-6 4q4 46 4 68q0 143 -80.5 213t-263.5 70 q-187 0 -303.5 -102.5t-116.5 -297.5q0 -48 10 -97t21 -79.5t31 -79.5h393q4 0 4 -6t-4 -6h-387q20 -47 31.5 -77.5t21.5 -76t10 -88.5q0 -146 -102 -272q237 -166 416 -166q50 0 91 10t70 27t52 45t37.5 56.5t26 71t17.5 79t13 88.5q0 4 6 4t6 -4q-9 -74 -20 -125.5 t-33.5 -105t-55.5 -85.5t-86 -52.5t-124 -20.5q-99 0 -196 41.5t-228 126.5q-73 -88 -189 -160z" />
<glyph unicode="&#xa4;" horiz-adv-x="1114" d="M135 283l113 112q-64 107 -64 283t64 283l-113 112q-4 4 0 8t8 0l111 -110q90 141 303 141q210 0 303 -141l111 110q4 4 8 0t0 -8l-113 -112q64 -107 64 -283t-64 -283l113 -112q5 -5 0 -9q-4 -4 -8 0l-111 111q-93 -141 -303 -141q-213 0 -303 141l-111 -111q-4 -4 -8 0 q-5 4 0 9zM557 256q361 0 361 422t-361 422q-360 0 -360 -422t360 -422z" />
<glyph unicode="&#xa5;" horiz-adv-x="1122" d="M940 449h-369l-45 -445q0 -4 -6 -4t-6 4l45 445h-364q-5 0 -5 6t5 6h366l2 16q-53 105 -117 256h-239q-4 0 -4 6q3 6 6 6h231q-131 302 -239 605q-2 4 4 4t8 -4q75 -206 179.5 -459t178.5 -404q111 161 270.5 416.5t268.5 446.5q2 4 8 4t4 -4q-179 -309 -368 -605h233 q5 0 2 -6q0 -6 -4 -6h-240q-138 -210 -170 -256l-2 -16h367q4 0 4 -6t-4 -6z" />
<glyph unicode="&#xa6;" horiz-adv-x="536" d="M274 328v-734q0 -4 -6 -4t-6 4v734q0 4 6 4t6 -4zM274 1413v-733q0 -4 -6 -4t-6 4v733q0 4 6 4t6 -4z" />
<glyph unicode="&#xa7;" horiz-adv-x="1114" d="M150 -82q-14 -140 67.5 -213.5t257.5 -73.5q74 0 135.5 17.5t110.5 53.5t76.5 97.5t27.5 143.5q0 108 -67.5 165.5t-220.5 90.5q-172 36 -256 99.5t-84 182.5q0 151 91.5 237.5t248.5 100.5q-121 34 -177.5 89.5t-56.5 158.5q0 152 95.5 224.5t263.5 72.5q172 0 238 -71 t52 -214q0 -4 -6 -4t-6 4q14 138 -48.5 205.5t-229.5 67.5q-57 0 -105.5 -8t-94 -28.5t-77.5 -52t-51 -81.5t-19 -115q0 -60 19.5 -102.5t64 -71.5t98 -47t138.5 -37q163 -36 233 -93t70 -175q0 -160 -85 -250t-239 -101q118 -34 171 -90t53 -153q0 -159 -96 -243.5 t-269 -84.5q-181 0 -265.5 77.5t-70.5 221.5q2 4 6 4t6 -0.5t1 -3.5zM631 797q-41 7 -64 14q-72 -2 -135 -22.5t-113.5 -59.5t-80 -102t-29.5 -142q0 -115 81 -176.5t249 -97.5l45 -10q155 3 248.5 88.5t93.5 249.5q0 113 -68.5 168.5t-226.5 89.5z" />
<glyph unicode="&#xa8;" horiz-adv-x="614" d="M231 1303q7 0 7 -5l-17 -161q0 -4 -6 -4t-6 4l16 161q0 5 6 5zM571 1303q7 0 7 -5l-17 -161q0 -4 -6 -4t-6 4l16 161q0 5 6 5z" />
<glyph unicode="&#xa9;" horiz-adv-x="1589" d="M502 680q0 103 14 175t48 127.5t94.5 82.5t150.5 27q132 0 197.5 -58t70.5 -162q0 -2 -6 -2t-6 2q-9 207 -256 207q-70 0 -122 -17.5t-85 -49.5t-52.5 -82.5t-27.5 -110t-8 -139.5q0 -81 7.5 -140.5t27.5 -111t54 -83t87.5 -49t128.5 -17.5q128 0 187 57.5t65 175.5 q0 4 6 4t6 -4q-6 -121 -68 -182.5t-196 -61.5q-95 0 -158 26.5t-97.5 82.5t-48 127.5t-13.5 175.5zM795 1364q321 0 465.5 -170.5t144.5 -515.5t-144.5 -515.5t-465.5 -170.5t-466 170.5t-145 515.5t145 515.5t466 170.5zM795 4q317 0 457.5 167t140.5 507t-140.5 507 t-457.5 167t-457.5 -167t-140.5 -507t140.5 -507t457.5 -167z" />
<glyph unicode="&#xaa;" horiz-adv-x="671" d="M600 1049h-246q-89 0 -145.5 -41.5t-56.5 -126.5q0 -63 45 -93t122 -30q103 0 183.5 61t89.5 152zM219 1198q0 -4 -6 -4t-6 4q9 88 64 127t161 39q109 0 157 -44t38 -142l-45 -424q0 -4 -7 -4q-6 0 -6 4l17 157q-24 -70 -99.5 -118t-167.5 -48q-83 0 -132.5 33.5 t-49.5 102.5q0 89 59.5 134.5t157.5 45.5h248l12 119q9 92 -35 132t-147 40q-101 0 -152.5 -35.5t-60.5 -118.5z" />
<glyph unicode="&#xab;" horiz-adv-x="868" d="M156 549q0 4 2 6l254 309q2 4 8 4t4 -4l-258 -315l190 -316q2 -4 -4 -4t-8 4l-188 310v6zM496 549q0 4 2 6l254 309q2 4 8 4t4 -4l-258 -315l190 -316q2 -4 -4 -4t-8 4l-188 310v6z" />
<glyph unicode="&#xad;" horiz-adv-x="782" d="M164 555h487q4 0 4 -6q-3 -6 -6 -6h-485q-4 0 -4 6t4 6z" />
<glyph unicode="&#xae;" horiz-adv-x="1064" d="M532 1364q208 0 301 -109.5t93 -332.5q0 -224 -93 -333.5t-301 -109.5t-300.5 109.5t-92.5 333.5t92.5 333t300.5 109zM532 492q203 0 292 105.5t89 324.5t-89 324.5t-292 105.5q-202 0 -291 -105.5t-89 -324.5t89 -324.5t291 -105.5zM532 893h-116v-223q0 -4 -6 -4 q-7 0 -7 4v508q0 4 9 4h127q89 0 129.5 -33.5t40.5 -110.5q0 -123 -123 -141q42 -7 66 -32.5t36 -73.5q13 -56 23 -127q0 -5 -6 -5q-7 0 -7 5q-13 93 -20 122q-14 56 -46.5 81.5t-99.5 25.5zM416 1169v-264h121q81 0 120 31.5t39 101.5q0 74 -36.5 102.5t-122.5 28.5h-121z " />
<glyph unicode="&#xaf;" horiz-adv-x="614" d="M625 1157h-475q-5 0 -5 6t7 6h475q2 0 2 -6t-4 -6z" />
<glyph unicode="&#xb0;" horiz-adv-x="696" d="M449 1364q184 0 184 -176q0 -108 -59.5 -181t-170.5 -73q-184 0 -184 176q0 107 60 180.5t170 73.5zM406 946q99 0 157 67t58 175q0 164 -172 164q-98 0 -158 -66.5t-60 -173.5q0 -166 175 -166z" />
<glyph unicode="&#xb1;" d="M614 1034l-41 -391h369q4 0 4 -6t-4 -6h-371l-41 -391q0 -4 -6 -4t-6 4l41 391h-371q-4 0 -4 6t6 6h369l43 391q0 4 6 4t6 -4zM123 12h754q4 0 4 -6t-4 -6h-754q-4 0 -4 6t4 6z" />
<glyph unicode="&#xb2;" horiz-adv-x="634" d="M553 664h-418q-4 0 -4 8l2 12q2 23 11.5 45.5t19 39t32 37.5t34.5 31.5t44 31.5t43 28t48 29q48 28 81.5 52.5t68.5 59.5t53 78.5t18 93.5q0 142 -170 142q-109 0 -155.5 -45t-57.5 -136q0 -4 -8 -4q-5 0 -5 4q11 96 61.5 144.5t164.5 48.5q182 0 182 -152 q0 -96 -59.5 -164.5t-167.5 -132.5q-102 -58 -160.5 -111.5t-65.5 -119.5l-2 -8h410q4 0 4 -6t-4 -6z" />
<glyph unicode="&#xb3;" horiz-adv-x="634" d="M410 1020h-84q-2 0 -2 6t2 6h84q79 0 128.5 50t49.5 135q0 135 -174 135q-107 0 -154.5 -39.5t-58.5 -120.5q-2 -4 -8 -4q-4 0 -5 0.5t0 3.5q11 86 62.5 129t163.5 43q186 0 186 -150q0 -69 -36.5 -122t-106.5 -66q125 -21 125 -147q0 -99 -63.5 -159.5t-170.5 -60.5 q-115 0 -163 44.5t-42 132.5q2 4 7 4q4 0 5.5 -0.5t0.5 -3.5q-5 -83 39.5 -123.5t154.5 -40.5q94 0 156.5 54t62.5 153q0 70 -41.5 105.5t-117.5 35.5z" />
<glyph unicode="&#xb4;" horiz-adv-x="614" d="M567 1280l-350 -156q-3 -2 -6 4t2 9l350 159q6 3 10 -4q2 -8 -6 -12z" />
<glyph unicode="&#xb6;" horiz-adv-x="1024" d="M922 1372h-82q-59 0 -84.5 -24.5t-32.5 -90.5l-141 -1345q-17 -164 -66.5 -228.5t-148.5 -64.5q-73 0 -97 12q-4 2 -4 7q0 6 4 6q2 0 13.5 -3t34 -6.5t51.5 -3.5q94 0 138.5 60.5t61.5 220.5l68 637h-102q-175 0 -247.5 62t-72.5 227q0 31 8 129q13 126 39 205.5 t75 127.5t116 66t170 18h299q4 0 4 -6t-4 -6z" />
<glyph unicode="&#xb7;" horiz-adv-x="356" d="M184 455q-6 0 -6 4l17 162q0 4 6 4t6 -4l-17 -162q0 -4 -6 -4z" />
<glyph unicode="&#xb8;" horiz-adv-x="614" d="M231 -133h101q73 0 108 -18.5t35 -71.5q0 -74 -44.5 -102.5t-123.5 -28.5h-162q-4 0 -4 6t4 6h164q154 0 154 119q0 48 -32.5 63t-100.5 15h-107q-10 0 -4 10l62 135q2 6 6 6t5.5 -0.5t0.5 -3.5z" />
<glyph unicode="&#xb9;" horiz-adv-x="634" d="M524 664h-344q-4 0 -4 6t4 6h172l70 665l-168 -61q-3 -1 -3.5 0.5t-0.5 5.5t4 6l176 66q6 3 6 -4l-71 -678h159q4 0 4 -6t-4 -6z" />
<glyph unicode="&#xba;" horiz-adv-x="700" d="M184 1053q-4 -58 -4 -78q0 -110 48.5 -165.5t158.5 -55.5q128 0 190 74.5t78 224.5q4 54 4 71q0 113 -48 170.5t-160 57.5q-129 0 -191 -75t-76 -224zM172 1053q16 155 81 233t198 78q117 0 169 -60t52 -178q0 -19 -4 -73q-18 -155 -83 -233.5t-198 -78.5 q-115 0 -167 59.5t-52 174.5q0 49 4 78z" />
<glyph unicode="&#xbb;" horiz-adv-x="868" d="M373 549q0 -4 -2 -6l-254 -310q-2 -4 -8 -4q-4 0 -5 0.5t0 3.5l258 316l-190 315q-2 4 4 4t8 -4l189 -309v-6zM713 549q0 -4 -2 -6l-254 -310q-2 -4 -8 -4q-4 0 -5 0.5t0 3.5l258 316l-190 315q-2 4 4 4t8 -4l189 -309v-6z" />
<glyph unicode="&#xbc;" horiz-adv-x="1576" d="M1309 0q-6 0 -6 4l16 178h-365q-2 0 -2 8q2 7 6 11l412 493q2 4 10 4q6 0 6 -4l-53 -499h119q4 0 4 -7q0 -6 -4 -6h-119l-18 -178q0 -4 -6 -4zM967 195h354l51 483zM1337 1352l-925 -1348q-2 -4 -9 -4q-4 0 -5.5 0.5t-0.5 3.5l926 1348q2 4 8 4q4 0 5.5 -0.5t0.5 -3.5z M524 664h-344q-4 0 -4 6t4 6h172l70 665l-168 -61q-3 -1 -3.5 0.5t-0.5 5.5t4 6l176 66q6 3 6 -4l-71 -678h159q4 0 4 -6t-4 -6z" />
<glyph unicode="&#xbd;" horiz-adv-x="1576" d="M1423 0h-417q-5 0 -5 8l3 12q3 32 19 62.5t33.5 50.5t55 48t57 40t66.5 41q48 28 82 52.5t68.5 59.5t52.5 79t18 94q0 141 -170 141q-109 0 -155.5 -44.5t-57.5 -135.5q0 -4 -8 -4q-4 0 -4 4q11 96 61 144t164 48q182 0 182 -151q0 -96 -59.5 -164.5t-167.5 -132.5 q-101 -57 -159.5 -111t-65.5 -121l-2 -8h409q4 0 4 -6t-4 -6zM1305 1352l-926 -1348q-2 -4 -8 -4q-4 0 -5.5 0.5t-0.5 3.5l925 1348q2 4 8 4q4 0 6 -0.5t1 -3.5zM524 664h-344q-4 0 -4 6t4 6h172l70 665l-168 -61q-3 -1 -3.5 0.5t-0.5 5.5t4 6l176 66q6 3 6 -4l-71 -678h159 q4 0 4 -6t-4 -6z" />
<glyph unicode="&#xbe;" horiz-adv-x="1576" d="M1309 0q-6 0 -6 4l16 178h-365q-2 0 -2 8q2 7 6 11l412 493q2 4 10 4q6 0 6 -4l-53 -499h119q4 0 4 -7q0 -6 -4 -6h-119l-18 -178q0 -4 -6 -4zM967 195h354l51 483zM410 1020h-84q-2 0 -2 6t2 6h84q79 0 128.5 50t49.5 135q0 135 -174 135q-107 0 -154.5 -39.5 t-58.5 -120.5q-2 -4 -8 -4q-4 0 -5 0.5t0 3.5q11 86 62.5 129t163.5 43q186 0 186 -150q0 -69 -36.5 -122t-106.5 -66q125 -21 125 -147q0 -99 -63.5 -159.5t-170.5 -60.5q-115 0 -163 44.5t-42 132.5q2 4 7 4q4 0 5.5 -0.5t0.5 -3.5q-5 -83 39.5 -123.5t154.5 -40.5 q94 0 156.5 54t62.5 153q0 70 -41.5 105.5t-117.5 35.5zM1317 1352l-926 -1348q-2 -4 -8 -4q-4 0 -5.5 0.5t-0.5 3.5l926 1348q2 4 8 4q4 0 5.5 -0.5t0.5 -3.5z" />
<glyph unicode="&#xbf;" horiz-adv-x="1048" d="M516 528l6 56q0 4 6 4q7 0 7 -4l-7 -56q-7 -61 -35 -111.5t-67.5 -85.5t-86 -68t-91.5 -68.5t-82 -77t-59.5 -102.5t-22.5 -136q0 -260 344 -260q115 0 196.5 25t131 75.5t76 114.5t38.5 154q0 4 7 4q6 0 6 -4q-12 -92 -39.5 -158.5t-79 -118.5t-135.5 -78t-201 -26 q-175 0 -265.5 68.5t-90.5 205.5q0 76 22.5 138t59.5 104t82 78.5t91.5 69.5t86 67.5t67.5 83t35 106.5zM551 801q-6 0 -6 4l16 162q0 4 6 4t6 -4l-16 -162q0 -4 -6 -4z" />
<glyph unicode="&#xc0;" horiz-adv-x="1118" d="M991 0q-4 0 -6 4q-53 254 -100 451h-639q-108 -240 -195 -451q-2 -4 -8 -4t-4 4q122 299 302.5 697t309.5 651q2 4 8 4q7 0 9 -4q74 -246 170.5 -642.5t158.5 -705.5q1 -3 -0.5 -3.5t-5.5 -0.5zM657 1341q-163 -325 -407 -874h633q-126 534 -226 874zM662 1493l-330 160 q-7 4 -2 12q4 7 10 4l328 -164q3 -2 0 -8t-6 -4z" />
<glyph unicode="&#xc1;" horiz-adv-x="1118" d="M991 0q-4 0 -6 4q-53 254 -100 451h-639q-108 -240 -195 -451q-2 -4 -8 -4t-4 4q122 299 302.5 697t309.5 651q2 4 8 4q7 0 9 -4q74 -246 170.5 -642.5t158.5 -705.5q1 -3 -0.5 -3.5t-5.5 -0.5zM657 1341q-163 -325 -407 -874h633q-126 534 -226 874zM1049 1653 l-363 -160q-3 -2 -6 4q-2 4 2 6l362 166q7 4 11 -4q2 -9 -6 -12z" />
<glyph unicode="&#xc2;" horiz-adv-x="1118" d="M991 0q-4 0 -6 4q-53 254 -100 451h-639q-108 -240 -195 -451q-2 -4 -8 -4t-4 4q122 299 302.5 697t309.5 651q2 4 8 4q7 0 9 -4q74 -246 170.5 -642.5t158.5 -705.5q1 -3 -0.5 -3.5t-5.5 -0.5zM657 1341q-163 -325 -407 -874h633q-126 534 -226 874zM698 1696l-225 -201 q-4 -4 -10 -4t-2 4l229 213q4 4 8 4q5 0 9 -4l180 -213q4 -4 -2 -4q-7 0 -11 4z" />
<glyph unicode="&#xc3;" horiz-adv-x="1118" d="M991 0q-4 0 -6 4q-53 254 -100 451h-639q-108 -240 -195 -451q-2 -4 -8 -4t-4 4q122 299 302.5 697t309.5 651q2 4 8 4q7 0 9 -4q74 -246 170.5 -642.5t158.5 -705.5q1 -3 -0.5 -3.5t-5.5 -0.5zM657 1341q-163 -325 -407 -874h633q-126 534 -226 874zM938 1610l4 32 q0 5 6 5t6 -5l-4 -32q-11 -119 -106 -119q-55 0 -113 39l-102 72q-56 36 -109 36q-41 0 -64.5 -24t-29.5 -82l-4 -33q0 -4 -6 -4t-6 4l4 33q14 119 106 119q54 0 113 -39l104 -72q54 -37 109 -37q41 0 63.5 24t28.5 83z" />
<glyph unicode="&#xc4;" horiz-adv-x="1118" d="M991 0q-4 0 -6 4q-53 254 -100 451h-639q-108 -240 -195 -451q-2 -4 -8 -4t-4 4q122 299 302.5 697t309.5 651q2 4 8 4q7 0 9 -4q74 -246 170.5 -642.5t158.5 -705.5q1 -3 -0.5 -3.5t-5.5 -0.5zM657 1341q-163 -325 -407 -874h633q-126 534 -226 874zM870 1671q7 0 7 -4 l-17 -162q0 -4 -6 -4t-6 4l16 162q0 4 6 4zM514 1671q6 0 6 -4l-16 -162q0 -4 -6 -4t-6 4l16 162q0 4 6 4z" />
<glyph unicode="&#xc5;" horiz-adv-x="1118" d="M991 0q-4 0 -6 4q-53 254 -100 451h-639q-108 -240 -195 -451q-2 -4 -8 -4t-4 4q119 293 298 688.5t310 653.5q-129 3 -129 120q0 75 46 122.5t124 47.5q141 0 141 -118q0 -80 -41.5 -124.5t-117.5 -47.5q74 -246 169 -639.5t158 -702.5q1 -3 -0.5 -3.5t-5.5 -0.5z M657 1341q-163 -325 -407 -874h633q-126 534 -226 874zM659 1358q72 0 115 40.5t43 114.5q0 111 -129 111q-71 0 -114.5 -41.5t-43.5 -114.5q0 -56 30 -83t99 -27z" />
<glyph unicode="&#xc6;" horiz-adv-x="1699" d="M1638 1343h-651l-67 -643h593q5 0 5 -6t-5 -6h-593l-72 -676h659q4 0 4 -6t-4 -6h-663q-8 0 -8 4l45 434h-594q-155 -250 -264 -434q-2 -4 -9 -4q-6 0 -4 4q173 297 428.5 695.5t435.5 652.5q2 4 9 4h757q5 0 5 -6q0 -7 -7 -7zM881 1343q-231 -327 -586 -892h586l94 892 h-94z" />
<glyph unicode="&#xc7;" horiz-adv-x="1212" d="M494 -137h104q72 0 111 -20.5t39 -75.5q0 -134 -173 -134h-167q-5 0 -5 7q0 6 5 6h167q158 0 158 118q0 52 -33.5 69t-101.5 17h-113q-9 0 -6 9l66 135q-202 12 -289.5 127t-87.5 356q0 94 12 205q39 359 167 520.5t386 161.5q213 0 307.5 -94t79.5 -279q0 -4 -6 -4t-6 4 q14 180 -76 270.5t-299 90.5q-253 0 -378 -158t-162 -512q-13 -124 -13 -205q0 -235 86.5 -348t284.5 -125q0 2 4 2t6 -2h45q208 0 314 94t131 287q0 4 6 4t6 -4q-25 -198 -135 -295.5t-324 -97.5q-33 0 -47 2z" />
<glyph unicode="&#xc8;" horiz-adv-x="1097" d="M1036 1343h-712l-68 -643h655q4 0 4 -6t-4 -6h-655l-72 -676h721q4 0 4 -6t-4 -6h-725q-8 0 -8 4l141 1348q0 4 9 4h716q4 0 4 -6q0 -7 -6 -7zM762 1493l-330 160q-7 4 -2 12q4 7 10 4l328 -164q3 -2 0 -8t-6 -4z" />
<glyph unicode="&#xc9;" horiz-adv-x="1097" d="M1036 1343h-712l-68 -643h655q4 0 4 -6t-4 -6h-655l-72 -676h721q4 0 4 -6t-4 -6h-725q-8 0 -8 4l141 1348q0 4 9 4h716q4 0 4 -6q0 -7 -6 -7zM1067 1653l-362 -160q-4 -2 -7 4q-2 4 2 6l363 166q6 3 10 -4q3 -3 1 -6l-1 -3l-3 -2z" />
<glyph unicode="&#xca;" horiz-adv-x="1097" d="M1036 1343h-712l-68 -643h655q4 0 4 -6t-4 -6h-655l-72 -676h721q4 0 4 -6t-4 -6h-725q-8 0 -8 4l141 1348q0 4 9 4h716q4 0 4 -6q0 -7 -6 -7zM717 1696l-225 -201q-4 -4 -11 -4q-6 0 -2 4l230 213q4 4 8 4t8 -4l180 -213q4 -4 -2 -4t-10 4z" />
<glyph unicode="&#xcb;" horiz-adv-x="1097" d="M1036 1343h-712l-68 -643h655q4 0 4 -6t-4 -6h-655l-72 -676h721q4 0 4 -6t-4 -6h-725q-8 0 -8 4l141 1348q0 4 9 4h716q4 0 4 -6q0 -7 -6 -7zM532 1671q7 0 7 -4l-17 -162q0 -4 -6 -4t-6 4l16 162q0 4 6 4zM889 1671q6 0 6 -4l-16 -162q0 -4 -7 -4q-6 0 -6 4l17 162 q0 4 6 4z" />
<glyph unicode="&#xcc;" horiz-adv-x="454" d="M186 0q-6 0 -6 4l142 1348q0 4 6 4t6 -4l-141 -1348q0 -4 -7 -4zM350 1493l-330 160q-7 4 -2 12q4 8 11 4l327 -164q3 -2 0 -8t-6 -4z" />
<glyph unicode="&#xcd;" horiz-adv-x="454" d="M186 0q-6 0 -6 4l142 1348q0 4 6 4t6 -4l-141 -1348q0 -4 -7 -4zM696 1653l-362 -160q-3 -2 -6 4q-2 4 2 6l362 166q6 3 10 -4q3 -3 2 -6l-2 -3l-3 -2z" />
<glyph unicode="&#xce;" horiz-adv-x="454" d="M186 0q-6 0 -6 4l142 1348q0 4 6 4t6 -4l-141 -1348q0 -4 -7 -4zM367 1696l-226 -201q-4 -4 -10 -4t-2 4l229 213q4 4 9 4q4 0 8 -4l180 -213q4 -4 -2 -4t-10 4z" />
<glyph unicode="&#xcf;" horiz-adv-x="454" d="M186 0q-6 0 -6 4l142 1348q0 4 6 4t6 -4l-141 -1348q0 -4 -7 -4zM182 1671q6 0 6 -4l-16 -162q0 -4 -6 -4t-6 4l16 162q0 4 6 4zM539 1671q6 0 6 -4l-17 -162q0 -4 -6 -4t-6 4l16 162q0 4 7 4z" />
<glyph unicode="&#xd0;" horiz-adv-x="1269" d="M553 0h-369q-8 0 -8 4l66 633h-150q-4 0 -4 6t4 6h152l73 703q0 4 9 4h368q240 0 351.5 -119t111.5 -379q0 -70 -10 -180q-37 -358 -176.5 -518t-417.5 -160zM188 12h365q273 0 409 156t173 510q10 105 10 178q0 257 -108 372t-345 115h-364l-74 -694h408q4 0 4 -6t-7 -6 h-405z" />
<glyph unicode="&#xd1;" horiz-adv-x="1298" d="M1180 1356q6 0 6 -4l-142 -1348q0 -4 -8 -4t-10 4l-702 1331l-140 -1331q0 -4 -6 -4t-6 4l141 1348q0 4 9 4q8 0 10 -4l700 -1336l142 1336q0 4 6 4zM1028 1610l4 32q0 5 6 5t6 -5l-4 -32q-11 -119 -106 -119q-55 0 -113 39l-102 72q-56 36 -109 36q-41 0 -64.5 -24 t-29.5 -82l-4 -33q0 -4 -6 -4t-6 4l4 33q14 119 106 119q54 0 113 -39l104 -72q54 -37 109 -37q41 0 63.5 24t28.5 83z" />
<glyph unicode="&#xd2;" horiz-adv-x="1269" d="M735 1364q223 0 323.5 -116t100.5 -369q0 -90 -12 -201q-37 -363 -165 -524.5t-390 -161.5q-223 0 -322.5 117t-99.5 372q0 107 10 197q39 363 166 524.5t389 161.5zM594 4q256 0 380 158t161 516q12 111 12 201q0 249 -96.5 361t-315.5 112q-256 0 -380.5 -158 t-161.5 -516q-13 -117 -13 -199q0 -249 97.5 -362t316.5 -113zM758 1493l-330 160q-7 4 -2 12q4 7 10 4l328 -164q3 -2 0 -8t-6 -4z" />
<glyph unicode="&#xd3;" horiz-adv-x="1269" d="M735 1364q223 0 323.5 -116t100.5 -369q0 -90 -12 -201q-37 -363 -165 -524.5t-390 -161.5q-223 0 -322.5 117t-99.5 372q0 107 10 197q39 363 166 524.5t389 161.5zM594 4q256 0 380 158t161 516q12 111 12 201q0 249 -96.5 361t-315.5 112q-256 0 -380.5 -158 t-161.5 -516q-13 -117 -13 -199q0 -249 97.5 -362t316.5 -113zM1104 1653l-363 -160q-3 -2 -6 4q-2 4 2 6l363 166q6 3 10 -4q3 -3 2 -6l-2 -3l-3 -2z" />
<glyph unicode="&#xd4;" horiz-adv-x="1269" d="M735 1364q223 0 323.5 -116t100.5 -369q0 -90 -12 -201q-37 -363 -165 -524.5t-390 -161.5q-223 0 -322.5 117t-99.5 372q0 107 10 197q39 363 166 524.5t389 161.5zM594 4q256 0 380 158t161 516q12 111 12 201q0 249 -96.5 361t-315.5 112q-256 0 -380.5 -158 t-161.5 -516q-13 -117 -13 -199q0 -249 97.5 -362t316.5 -113zM774 1696l-225 -201q-4 -4 -10 -4t-2 4l229 213q4 4 8 4t8 -4l181 -213q4 -4 -2 -4q-7 0 -11 4z" />
<glyph unicode="&#xd5;" horiz-adv-x="1269" d="M735 1364q223 0 323.5 -116t100.5 -369q0 -90 -12 -201q-37 -363 -165 -524.5t-390 -161.5q-223 0 -322.5 117t-99.5 372q0 107 10 197q39 363 166 524.5t389 161.5zM594 4q256 0 380 158t161 516q12 111 12 201q0 249 -96.5 361t-315.5 112q-256 0 -380.5 -158 t-161.5 -516q-13 -117 -13 -199q0 -249 97.5 -362t316.5 -113zM1014 1610l4 32q0 5 6 5t6 -5l-4 -32q-11 -119 -106 -119q-54 0 -113 39l-102 72q-56 36 -109 36q-41 0 -64.5 -24t-29.5 -82l-4 -33q0 -4 -6 -4q-7 0 -7 4l4 33q14 119 107 119q54 0 113 -39l104 -72 q54 -37 109 -37q41 0 63.5 24t28.5 83z" />
<glyph unicode="&#xd6;" horiz-adv-x="1269" d="M735 1364q223 0 323.5 -116t100.5 -369q0 -90 -12 -201q-37 -363 -165 -524.5t-390 -161.5q-223 0 -322.5 117t-99.5 372q0 107 10 197q39 363 166 524.5t389 161.5zM594 4q256 0 380 158t161 516q12 111 12 201q0 249 -96.5 361t-315.5 112q-256 0 -380.5 -158 t-161.5 -516q-13 -117 -13 -199q0 -249 97.5 -362t316.5 -113zM590 1671q6 0 6 -4l-16 -162q0 -4 -7 -4q-6 0 -6 4l17 162q0 4 6 4zM946 1671q6 0 6 -4l-16 -162q0 -4 -6 -4t-6 4l16 162q0 4 6 4z" />
<glyph unicode="&#xd7;" d="M850 299l-287 319l-352 -319q-4 -2 -8 2q-3 6 -2 8l352 320l-285 319q-1 3 4 8q6 3 9 2l284 -319l355 319q4 2 8 -2q3 -5 0 -8l-355 -319l287 -320q2 -4 -2 -8q-5 -3 -8 -2z" />
<glyph unicode="&#xd8;" horiz-adv-x="1277" d="M739 1364q231 0 334 -129l129 178q2 4 8 4t4 -4l-137 -184q86 -117 86 -350q0 -90 -12 -201q-37 -363 -165 -524.5t-390 -161.5q-232 0 -332 127l-129 -176q-4 -4 -10 -4t-2 4l135 186q-84 118 -84 352q0 107 10 197q39 363 166 524.5t389 161.5zM266 137l799 1090 q-98 125 -326 125q-256 0 -380.5 -158t-161.5 -516q-13 -117 -13 -199q0 -230 82 -342zM598 4q256 0 380 158t161 516q12 111 12 201q0 227 -80 340l-801 -1090q99 -125 328 -125z" />
<glyph unicode="&#xd9;" horiz-adv-x="1265" d="M594 -8q-205 0 -299 87.5t-94 278.5q0 50 6 109l94 885q0 4 6 4t6 -4l-92 -883q-6 -62 -6 -113q0 -185 89 -268.5t288 -83.5q227 0 334.5 109t134.5 356l92 883q0 4 6 4t6 -4l-94 -885q-27 -252 -136.5 -363.5t-340.5 -111.5zM756 1493l-330 160q-7 4 -2 12q4 7 10 4 l328 -164q3 -2 0 -8t-6 -4z" />
<glyph unicode="&#xda;" horiz-adv-x="1265" d="M594 -8q-205 0 -299 87.5t-94 278.5q0 50 6 109l94 885q0 4 6 4t6 -4l-92 -883q-6 -62 -6 -113q0 -185 89 -268.5t288 -83.5q227 0 334.5 109t134.5 356l92 883q0 4 6 4t6 -4l-94 -885q-27 -252 -136.5 -363.5t-340.5 -111.5zM1102 1653l-363 -160q-3 -2 -6 4q-2 4 2 6 l363 166q6 3 10 -4q3 -3 2 -6l-2 -3l-3 -2z" />
<glyph unicode="&#xdb;" horiz-adv-x="1265" d="M594 -8q-205 0 -299 87.5t-94 278.5q0 50 6 109l94 885q0 4 6 4t6 -4l-92 -883q-6 -62 -6 -113q0 -185 89 -268.5t288 -83.5q227 0 334.5 109t134.5 356l92 883q0 4 6 4t6 -4l-94 -885q-27 -252 -136.5 -363.5t-340.5 -111.5zM772 1696l-225 -201q-4 -4 -10 -4t-2 4 l229 213q4 4 8 4t8 -4l181 -213q4 -4 -3 -4q-6 0 -10 4z" />
<glyph unicode="&#xdc;" horiz-adv-x="1265" d="M594 -8q-205 0 -299 87.5t-94 278.5q0 50 6 109l94 885q0 4 6 4t6 -4l-92 -883q-6 -62 -6 -113q0 -185 89 -268.5t288 -83.5q227 0 334.5 109t134.5 356l92 883q0 4 6 4t6 -4l-94 -885q-27 -252 -136.5 -363.5t-340.5 -111.5zM588 1671q6 0 6 -4l-16 -162q0 -4 -7 -4 q-6 0 -6 4l17 162q0 4 6 4zM944 1671q6 0 6 -4l-16 -162q0 -4 -6 -4t-6 4l16 162q0 4 6 4z" />
<glyph unicode="&#xdd;" horiz-adv-x="1097" d="M1090 1350q2 4 8 4t4 -4q-117 -201 -268 -436.5t-267 -395.5l-53 -514q0 -4 -6 -4t-6 4l53 514q-83 161 -184.5 396.5t-173.5 435.5q-2 4 4 4t8 -4q76 -204 176 -439.5t178 -382.5q110 152 262 389.5t265 432.5zM1018 1653l-363 -160q-3 -2 -6 4q-2 4 2 6l363 166 q6 3 10 -4q3 -3 2 -6l-2 -3l-3 -2z" />
<glyph unicode="&#xde;" horiz-adv-x="1126" d="M565 422h-338l-43 -418q0 -4 -6 -4t-6 4l115 1098l26 250q0 4 6 4q7 0 7 -4l-27 -242h338q209 0 301 -61.5t92 -214.5q0 -18 -4 -68q-21 -193 -126 -268.5t-335 -75.5zM299 1098l-70 -664h336q226 0 327.5 72t121.5 260q4 50 4 68q0 147 -89 205.5t-294 58.5h-336z" />
<glyph unicode="&#xdf;" horiz-adv-x="1236" d="M670 784q-4 0 -4 9q0 8 6 8q84 4 153 24t127 59.5t90.5 108t32.5 160.5q0 121 -88 186.5t-258 65.5q-414 0 -450 -346l-111 -1055q0 -4 -6 -4t-6 4l110 1057q39 356 463 356q174 0 265 -68.5t93 -193.5q0 -175 -105 -264.5t-300 -97.5q79 -9 139.5 -23.5t113.5 -41.5 t86.5 -66t53 -97t19.5 -133q0 -91 -18 -167t-57 -139t-109 -98.5t-165 -35.5q-288 0 -260 262q0 4 7 4q6 0 6 -4q-27 -250 250 -250q89 0 155 33.5t104 94t56 134.5t18 164q0 92 -27.5 157t-84 104t-127 60t-172.5 33z" />
<glyph unicode="&#xe0;" horiz-adv-x="1036" d="M240 713q0 -4 -7 -4q-6 0 -6 4q15 139 104 202.5t257 63.5q172 0 244 -69t55 -226l-72 -680q0 -4 -6 -4t-6 4l26 256q-37 -112 -157 -188t-269 -76q-131 0 -208.5 53.5t-77.5 165.5q0 283 346 283h391l20 188q15 151 -53.5 216t-234.5 65q-162 0 -247.5 -60t-98.5 -194z M852 485h-389q-334 0 -334 -270q0 -107 75 -157t202 -50q165 0 291 94.5t141 239.5zM596 1124l-317 156q-7 3 -3 12q4 8 11 4l315 -159q4 -2 0 -9q-3 -6 -6 -4z" />
<glyph unicode="&#xe1;" horiz-adv-x="1036" d="M240 713q0 -4 -7 -4q-6 0 -6 4q15 139 104 202.5t257 63.5q172 0 244 -69t55 -226l-72 -680q0 -4 -6 -4t-6 4l26 256q-37 -112 -157 -188t-269 -76q-131 0 -208.5 53.5t-77.5 165.5q0 283 346 283h391l20 188q15 151 -53.5 216t-234.5 65q-162 0 -247.5 -60t-98.5 -194z M852 485h-389q-334 0 -334 -270q0 -107 75 -157t202 -50q165 0 291 94.5t141 239.5zM940 1280l-350 -156q-3 -2 -6 4t2 9l350 159q6 3 10 -4q2 -8 -6 -12z" />
<glyph unicode="&#xe2;" horiz-adv-x="1036" d="M240 713q0 -4 -7 -4q-6 0 -6 4q15 139 104 202.5t257 63.5q172 0 244 -69t55 -226l-72 -680q0 -4 -6 -4t-6 4l26 256q-37 -112 -157 -188t-269 -76q-131 0 -208.5 53.5t-77.5 165.5q0 283 346 283h391l20 188q15 151 -53.5 216t-234.5 65q-162 0 -247.5 -60t-98.5 -194z M852 485h-389q-334 0 -334 -270q0 -107 75 -157t202 -50q165 0 291 94.5t141 239.5zM616 1323l-215 -197q-4 -4 -10 -4t-2 4l221 209q4 4 8 4q5 0 9 -4l172 -209q4 -4 -2 -4q-7 0 -11 4z" />
<glyph unicode="&#xe3;" horiz-adv-x="1036" d="M240 713q0 -4 -7 -4q-6 0 -6 4q15 139 104 202.5t257 63.5q172 0 244 -69t55 -226l-72 -680q0 -4 -6 -4t-6 4l26 256q-37 -112 -157 -188t-269 -76q-131 0 -208.5 53.5t-77.5 165.5q0 283 346 283h391l20 188q15 151 -53.5 216t-234.5 65q-162 0 -247.5 -60t-98.5 -194z M852 485h-389q-334 0 -334 -270q0 -107 75 -157t202 -50q165 0 291 94.5t141 239.5zM850 1241l4 33q0 4 6 4t6 -4l-4 -33q-6 -64 -31.5 -91.5t-70.5 -27.5q-50 0 -109 39l-102 72q-57 37 -105 37q-40 0 -62 -24t-28 -83l-2 -33q0 -4 -6 -4t-6 4l2 33q7 64 32.5 91.5 t69.5 27.5q50 0 109 -39l104 -72q56 -36 105 -36q40 0 61 23.5t27 82.5z" />
<glyph unicode="&#xe4;" horiz-adv-x="1036" d="M240 713q0 -4 -7 -4q-6 0 -6 4q15 139 104 202.5t257 63.5q172 0 244 -69t55 -226l-72 -680q0 -4 -6 -4t-6 4l26 256q-37 -112 -157 -188t-269 -76q-131 0 -208.5 53.5t-77.5 165.5q0 283 346 283h391l20 188q15 151 -53.5 216t-234.5 65q-162 0 -247.5 -60t-98.5 -194z M852 485h-389q-334 0 -334 -270q0 -107 75 -157t202 -50q165 0 291 94.5t141 239.5zM442 1303q7 0 7 -5l-17 -161q0 -4 -6 -4t-6 4l16 161q0 5 6 5zM782 1303q6 0 6 -5l-16 -161q0 -4 -6 -4t-6 4l16 161q0 5 6 5z" />
<glyph unicode="&#xe5;" horiz-adv-x="1036" d="M240 713q0 -4 -7 -4q-6 0 -6 4q15 139 104 202.5t257 63.5q172 0 244 -69t55 -226l-72 -680q0 -4 -6 -4t-6 4l26 256q-37 -112 -157 -188t-269 -76q-131 0 -208.5 53.5t-77.5 165.5q0 283 346 283h391l20 188q15 151 -53.5 216t-234.5 65q-162 0 -247.5 -60t-98.5 -194z M852 485h-389q-334 0 -334 -270q0 -107 75 -157t202 -50q165 0 291 94.5t141 239.5zM625 1411q137 0 137 -119q0 -79 -43.5 -125.5t-124.5 -46.5q-139 0 -139 123q0 76 45.5 122t124.5 46zM596 1133q70 0 112 42t42 117q0 107 -127 107q-71 0 -113.5 -42.5t-42.5 -115.5 q0 -108 129 -108z" />
<glyph unicode="&#xe6;" horiz-adv-x="1617" d="M1489 494h-660v-9q-6 -61 -6 -118q0 -179 75.5 -271t240.5 -92q258 0 301 246q2 4 8 4t4 -4q-21 -122 -101 -190t-214 -68q-164 0 -241.5 88.5t-82.5 259.5q-9 -80 -50 -146.5t-101 -109t-130 -65.5t-141 -23q-126 0 -200 53.5t-74 163.5q0 147 87.5 220t246.5 73h368 l21 180q15 151 -48 216t-219 65q-157 0 -238.5 -60t-94.5 -194q0 -4 -7 -4q-6 0 -6 4q15 139 100 202.5t248 63.5q146 0 212.5 -54.5t66.5 -176.5q0 -20 -4 -60l-6 -47q39 166 130 252t245 86q146 0 216 -83t70 -230q0 -24 -4 -82l-8 -82q0 -8 -4 -8zM819 494h-366 q-145 0 -234.5 -66.5t-89.5 -214.5q0 -105 71.5 -155t192.5 -50q156 0 275.5 94.5t134.5 239.5zM1217 967q-177 0 -268 -116t-118 -345h650l8 78q4 29 4 82q0 142 -67 221.5t-209 79.5z" />
<glyph unicode="&#xe7;" horiz-adv-x="999" d="M358 -133h101q73 0 108 -18.5t35 -71.5q0 -74 -44.5 -102.5t-123.5 -28.5h-162q-4 0 -4 6t4 6h164q154 0 154 119q0 48 -32.5 63t-100.5 15h-107q-10 0 -4 10l60 133q-143 20 -205 108t-62 248q0 37 8 131q26 247 125.5 370.5t309.5 123.5q160 0 237.5 -69.5t71.5 -192.5 q0 -4 -6 -4t-6 4q6 119 -69.5 184.5t-229.5 65.5q-203 0 -298.5 -120t-121.5 -362q-6 -67 -6 -127q0 -179 77.5 -266.5t262.5 -87.5q304 0 346 281q0 4 6 4t6 -4q-43 -293 -356 -293q-41 0 -78 6z" />
<glyph unicode="&#xe8;" horiz-adv-x="1028" d="M899 502h-737q-2 -6 -2 -17q-6 -62 -6 -112q0 -184 81.5 -276.5t266.5 -92.5q298 0 346 266q2 4 8 4t4 -4q-52 -278 -360 -278q-189 0 -274 96t-85 283q0 53 6 114q26 243 131 368.5t312 125.5q168 0 248 -86t80 -238q0 -9 -5 -67l-8 -78q-3 -8 -6 -8zM588 967 q-196 0 -296.5 -114.5t-129.5 -338.5h731l8 74q4 46 4 67q0 147 -77 229.5t-240 82.5zM621 1124l-318 156q-6 3 -2 12q4 7 10 4l316 -159q4 -2 0 -9q-3 -6 -6 -4z" />
<glyph unicode="&#xe9;" horiz-adv-x="1028" d="M899 502h-737q-2 -6 -2 -17q-6 -62 -6 -112q0 -184 81.5 -276.5t266.5 -92.5q298 0 346 266q2 4 8 4t4 -4q-52 -278 -360 -278q-189 0 -274 96t-85 283q0 53 6 114q26 243 131 368.5t312 125.5q168 0 248 -86t80 -238q0 -9 -5 -67l-8 -78q-3 -8 -6 -8zM588 967 q-196 0 -296.5 -114.5t-129.5 -338.5h731l8 74q4 46 4 67q0 147 -77 229.5t-240 82.5zM924 1280l-351 -156q-3 -2 -6 4t2 9l351 159q6 3 10 -4q2 -8 -6 -12z" />
<glyph unicode="&#xea;" horiz-adv-x="1028" d="M899 502h-737q-2 -6 -2 -17q-6 -62 -6 -112q0 -184 81.5 -276.5t266.5 -92.5q298 0 346 266q2 4 8 4t4 -4q-52 -278 -360 -278q-189 0 -274 96t-85 283q0 53 6 114q26 243 131 368.5t312 125.5q168 0 248 -86t80 -238q0 -9 -5 -67l-8 -78q-3 -8 -6 -8zM588 967 q-196 0 -296.5 -114.5t-129.5 -338.5h731l8 74q4 46 4 67q0 147 -77 229.5t-240 82.5zM621 1323l-215 -197q-4 -4 -11 -4q-6 0 -2 4l221 209q4 4 9 4q4 0 8 -4l172 -209q4 -4 -2 -4t-10 4z" />
<glyph unicode="&#xeb;" horiz-adv-x="1028" d="M899 502h-737q-2 -6 -2 -17q-6 -62 -6 -112q0 -184 81.5 -276.5t266.5 -92.5q298 0 346 266q2 4 8 4t4 -4q-52 -278 -360 -278q-189 0 -274 96t-85 283q0 53 6 114q26 243 131 368.5t312 125.5q168 0 248 -86t80 -238q0 -9 -5 -67l-8 -78q-3 -8 -6 -8zM588 967 q-196 0 -296.5 -114.5t-129.5 -338.5h731l8 74q4 46 4 67q0 147 -77 229.5t-240 82.5zM446 1303q7 0 7 -5l-17 -161q0 -4 -6 -4t-6 4l16 161q0 5 6 5zM786 1303q7 0 7 -5l-17 -161q0 -4 -6 -4t-6 4l16 161q0 5 6 5z" />
<glyph unicode="&#xec;" horiz-adv-x="413" d="M160 4l100 963q0 4 6 4t6 -4l-100 -963q0 -4 -6 -4t-6 4zM287 1124l-318 156q-6 3 -2 12q4 7 10 4l316 -159q4 -2 0 -9q-3 -6 -6 -4z" />
<glyph unicode="&#xed;" horiz-adv-x="413" d="M160 4l100 963q0 4 6 4t6 -4l-100 -963q0 -4 -6 -4t-6 4zM631 1280l-350 -156q-4 -2 -7 4t2 9l351 159q6 3 10 -4q2 -8 -6 -12z" />
<glyph unicode="&#xee;" horiz-adv-x="413" d="M160 4l100 963q0 4 6 4t6 -4l-100 -963q0 -4 -6 -4t-6 4zM305 1323l-215 -197q-4 -4 -10 -4t-2 4l221 209q4 4 8 4t8 -4l172 -209q4 -4 -2 -4t-10 4z" />
<glyph unicode="&#xef;" horiz-adv-x="413" d="M160 4l100 963q0 4 6 4t6 -4l-100 -963q0 -4 -6 -4t-6 4zM131 1303q6 0 6 -5l-16 -161q0 -4 -6 -4t-6 4l16 161q0 5 6 5zM471 1303q6 0 6 -5l-16 -161q0 -4 -6 -4t-6 4l16 161q0 5 6 5z" />
<glyph unicode="&#xf0;" horiz-adv-x="1060" d="M1028 1348l-174 -74q94 -128 94 -426q0 -148 -22 -363q-26 -245 -128.5 -369t-312.5 -124q-183 0 -263.5 94t-80.5 279q0 55 6 120q26 245 129.5 369.5t313.5 124.5q165 0 244.5 -73.5t97.5 -213.5q0 24 1 73.5t1 74.5q0 147 -18.5 252t-73.5 176l-269 -113q-7 -4 -10 2 q-3 5 2 8l266 113q-95 119 -305 119q-4 0 -4 6q3 6 6 6q219 0 318 -125l174 74q8 4 10 0q4 -7 -2 -10zM487 4q205 0 303.5 120t122.5 361q9 97 9 123q0 178 -78.5 268.5t-255.5 90.5q-205 0 -303.5 -120.5t-124.5 -361.5q-6 -62 -6 -118q0 -181 77.5 -272t255.5 -91z" />
<glyph unicode="&#xf1;" horiz-adv-x="1114" d="M268 967l-26 -260q37 110 149 191t273 81q156 0 233 -81.5t59 -248.5l-67 -645q0 -4 -6 -4t-6 4l67 647q17 161 -56.5 238.5t-223.5 77.5q-177 0 -297.5 -102.5t-133.5 -239.5l-65 -621q0 -4 -6 -4t-6 4l100 963q0 4 6 4t6 -4zM889 1241l4 33q0 4 6 4t6 -4l-4 -33 q-6 -64 -31.5 -91.5t-70.5 -27.5q-51 0 -109 39l-102 72q-57 37 -105 37q-40 0 -62 -24t-28 -83l-2 -33q0 -4 -6 -4t-6 4l2 33q7 64 32.5 91.5t69.5 27.5q51 0 109 -39l104 -72q56 -36 105 -36q40 0 61 23.5t27 82.5z" />
<glyph unicode="&#xf2;" horiz-adv-x="1056" d="M588 979q182 0 263 -93.5t81 -277.5q0 -58 -6 -123q-26 -245 -127.5 -369t-311.5 -124q-183 0 -264.5 94t-81.5 279q0 55 6 120q26 245 128.5 369.5t312.5 124.5zM487 4q205 0 303.5 120t122.5 361q9 97 9 123q0 178 -78.5 268.5t-255.5 90.5q-205 0 -303.5 -120.5 t-124.5 -361.5q-6 -62 -6 -118q0 -181 77.5 -272t255.5 -91zM627 1124l-318 156q-6 3 -2 12q4 7 10 4l316 -159q4 -2 0 -9q-3 -6 -6 -4z" />
<glyph unicode="&#xf3;" horiz-adv-x="1056" d="M588 979q182 0 263 -93.5t81 -277.5q0 -58 -6 -123q-26 -245 -127.5 -369t-311.5 -124q-183 0 -264.5 94t-81.5 279q0 55 6 120q26 245 128.5 369.5t312.5 124.5zM487 4q205 0 303.5 120t122.5 361q9 97 9 123q0 178 -78.5 268.5t-255.5 90.5q-205 0 -303.5 -120.5 t-124.5 -361.5q-6 -62 -6 -118q0 -181 77.5 -272t255.5 -91zM930 1280l-350 -156q-4 -2 -7 4t2 9l351 159q6 3 10 -4q2 -8 -6 -12z" />
<glyph unicode="&#xf4;" horiz-adv-x="1056" d="M588 979q182 0 263 -93.5t81 -277.5q0 -58 -6 -123q-26 -245 -127.5 -369t-311.5 -124q-183 0 -264.5 94t-81.5 279q0 55 6 120q26 245 128.5 369.5t312.5 124.5zM487 4q205 0 303.5 120t122.5 361q9 97 9 123q0 178 -78.5 268.5t-255.5 90.5q-205 0 -303.5 -120.5 t-124.5 -361.5q-6 -62 -6 -118q0 -181 77.5 -272t255.5 -91zM627 1323l-215 -197q-4 -4 -11 -4q-6 0 -2 4l222 209q4 4 8 4t8 -4l172 -209q4 -4 -2 -4t-10 4z" />
<glyph unicode="&#xf5;" horiz-adv-x="1056" d="M588 979q182 0 263 -93.5t81 -277.5q0 -58 -6 -123q-26 -245 -127.5 -369t-311.5 -124q-183 0 -264.5 94t-81.5 279q0 55 6 120q26 245 128.5 369.5t312.5 124.5zM487 4q205 0 303.5 120t122.5 361q9 97 9 123q0 178 -78.5 268.5t-255.5 90.5q-205 0 -303.5 -120.5 t-124.5 -361.5q-6 -62 -6 -118q0 -181 77.5 -272t255.5 -91zM860 1241l4 33q0 4 6 4q7 0 7 -4l-5 -33q-6 -64 -31.5 -91.5t-70.5 -27.5q-50 0 -108 39l-103 72q-57 37 -104 37q-40 0 -62 -24t-28 -83l-3 -33q0 -4 -6 -4t-6 4l2 33q7 64 32.5 91.5t70.5 27.5q49 0 108 -39 l105 -72q56 -36 104 -36q40 0 61 23.5t27 82.5z" />
<glyph unicode="&#xf6;" horiz-adv-x="1056" d="M588 979q182 0 263 -93.5t81 -277.5q0 -58 -6 -123q-26 -245 -127.5 -369t-311.5 -124q-183 0 -264.5 94t-81.5 279q0 55 6 120q26 245 128.5 369.5t312.5 124.5zM487 4q205 0 303.5 120t122.5 361q9 97 9 123q0 178 -78.5 268.5t-255.5 90.5q-205 0 -303.5 -120.5 t-124.5 -361.5q-6 -62 -6 -118q0 -181 77.5 -272t255.5 -91zM453 1303q6 0 6 -5l-17 -161q0 -4 -6 -4t-6 4l16 161q0 5 7 5zM793 1303q6 0 6 -5l-17 -161q0 -4 -6 -4t-6 4l16 161q0 5 7 5z" />
<glyph unicode="&#xf7;" d="M193 635h745q4 0 4 -6t-6 -6h-746q-2 0 -2 6t5 6zM522 227q-6 0 -6 4l16 162q0 4 7 4q6 0 6 -4l-17 -162q0 -4 -6 -4zM590 860q-6 0 -6 4l16 162q0 4 6 4t6 -4l-16 -162q0 -4 -6 -4z" />
<glyph unicode="&#xf8;" horiz-adv-x="1064" d="M592 979q174 0 260 -92l111 141q2 4 8 4t4 -4l-117 -147q78 -89 78 -273q0 -58 -6 -123q-26 -245 -127 -369t-311 -124q-179 0 -263 90l-108 -139q-4 -4 -10 -4t-2 4l114 147q-78 89 -78 275q0 45 7 120q26 245 128 369.5t312 124.5zM158 367q0 -185 73 -269l615 779 q-81 90 -254 90q-205 0 -303.5 -120.5t-124.5 -361.5q-6 -62 -6 -118zM492 4q205 0 303.5 120t122.5 361q8 86 8 123q0 177 -76 262l-612 -778q79 -88 254 -88z" />
<glyph unicode="&#xf9;" horiz-adv-x="1101" d="M852 4l27 260q-36 -111 -140 -191.5t-254 -80.5q-162 0 -243.5 87t-63.5 259l66 629q0 4 6 4t6 -4l-66 -627q-18 -168 60.5 -252t234.5 -84q83 0 156.5 29t124 77t82.5 109t39 127l65 621q0 4 6 4q7 0 7 -4l-101 -963q0 -4 -6 -4t-6 4zM629 1124l-318 156q-6 3 -2 12 q4 7 10 4l316 -159q4 -2 0 -9q-3 -6 -6 -4z" />
<glyph unicode="&#xfa;" horiz-adv-x="1101" d="M852 4l27 260q-36 -111 -140 -191.5t-254 -80.5q-162 0 -243.5 87t-63.5 259l66 629q0 4 6 4t6 -4l-66 -627q-18 -168 60.5 -252t234.5 -84q83 0 156.5 29t124 77t82.5 109t39 127l65 621q0 4 6 4q7 0 7 -4l-101 -963q0 -4 -6 -4t-6 4zM952 1280l-350 -156q-3 -2 -6 4 t2 9l350 159q6 3 10 -4q2 -8 -6 -12z" />
<glyph unicode="&#xfb;" horiz-adv-x="1101" d="M852 4l27 260q-36 -111 -140 -191.5t-254 -80.5q-162 0 -243.5 87t-63.5 259l66 629q0 4 6 4t6 -4l-66 -627q-18 -168 60.5 -252t234.5 -84q83 0 156.5 29t124 77t82.5 109t39 127l65 621q0 4 6 4q7 0 7 -4l-101 -963q0 -4 -6 -4t-6 4zM649 1323l-215 -197q-4 -4 -10 -4 t-2 4l221 209q4 4 8 4t8 -4l172 -209q4 -4 -2 -4t-10 4z" />
<glyph unicode="&#xfc;" horiz-adv-x="1101" d="M852 4l27 260q-36 -111 -140 -191.5t-254 -80.5q-162 0 -243.5 87t-63.5 259l66 629q0 4 6 4t6 -4l-66 -627q-18 -168 60.5 -252t234.5 -84q83 0 156.5 29t124 77t82.5 109t39 127l65 621q0 4 6 4q7 0 7 -4l-101 -963q0 -4 -6 -4t-6 4zM475 1303q6 0 6 -5l-16 -161 q0 -4 -6 -4t-6 4l16 161q0 5 6 5zM815 1303q6 0 6 -5l-16 -161q0 -4 -6 -4t-6 4l16 161q0 5 6 5z" />
<glyph unicode="&#xfd;" horiz-adv-x="950" d="M125 -369q38 0 72.5 17t63 42.5t61.5 75t59 94.5t65 120l11 22v2q-79 198 -169.5 476t-140.5 485q-1 4 0.5 5t6.5 1q4 0 6 -4q53 -214 140 -488t163 -465q280 547 455 953q2 4 6 4q8 0 6 -6q-101 -245 -242 -535t-231 -461q-39 -74 -65.5 -120t-60.5 -95t-63.5 -75 t-66.5 -43t-78 -17q-72 0 -121 21q-4 2 -4 6q3 6 6 6q2 0 16 -5t42 -10.5t63 -5.5zM897 1280l-350 -156q-3 -2 -6 4t2 9l350 159q6 3 10 -4q2 -8 -6 -12z" />
<glyph unicode="&#xfe;" horiz-adv-x="1114" d="M315 1413l-82 -768q43 165 143.5 249.5t272.5 84.5q180 0 260 -93.5t80 -277.5q0 -58 -6 -123q-26 -246 -126.5 -369.5t-311.5 -123.5q-175 0 -256.5 87t-87.5 257l-72 -701q0 -4 -6 -4t-6 4l186 1778q0 4 6 4t6 -4zM217 485q-6 -62 -6 -114q0 -182 78.5 -274.5 t257.5 -92.5q204 0 302 120.5t122 360.5q8 86 8 123q0 178 -78 268.5t-254 90.5q-204 0 -304 -121t-126 -361z" />
<glyph unicode="&#xff;" horiz-adv-x="950" d="M125 -369q38 0 72.5 17t63 42.5t61.5 75t59 94.5t65 120l11 22v2q-79 198 -169.5 476t-140.5 485q-1 4 0.5 5t6.5 1q4 0 6 -4q53 -214 140 -488t163 -465q280 547 455 953q2 4 6 4q8 0 6 -6q-101 -245 -242 -535t-231 -461q-39 -74 -65.5 -120t-60.5 -95t-63.5 -75 t-66.5 -43t-78 -17q-72 0 -121 21q-4 2 -4 6q3 6 6 6q2 0 16 -5t42 -10.5t63 -5.5zM739 1303q6 0 6 -5l-16 -161q0 -4 -6 -4t-6 4l16 161q0 5 6 5zM399 1303q7 0 7 -5l-17 -161q0 -4 -6 -4t-6 4l16 161q0 5 6 5z" />
<glyph unicode="&#x152;" horiz-adv-x="1732" d="M1671 1343h-651l-68 -643h594q4 0 4 -6t-4 -6h-594l-71 -676h659q4 0 4 -6t-4 -6h-905q-242 0 -353.5 120.5t-111.5 383.5q0 69 10 174q38 358 178 518t418 160h897q4 0 4 -6q0 -7 -6 -7zM635 12h233l140 1331h-234q-273 0 -408.5 -155.5t-172.5 -509.5 q-11 -116 -11 -178q0 -257 108 -372.5t345 -115.5z" />
<glyph unicode="&#x153;" horiz-adv-x="1648" d="M1520 494h-660v-9q-6 -61 -6 -118q0 -179 75 -271t240 -92q258 0 301 246q2 4 9 4q6 0 4 -4q-21 -122 -101.5 -190t-214.5 -68q-173 0 -250 96.5t-75 286.5q-35 -192 -126.5 -287.5t-266.5 -95.5q-164 0 -237 91t-73 269q0 39 8 133q26 245 120 369.5t286 124.5 q166 0 239.5 -91t73.5 -270v-22q37 190 128 286.5t255 96.5q146 0 216.5 -83.5t70.5 -229.5q0 -24 -4 -82l-8 -82q0 -8 -4 -8zM451 4q190 0 281.5 120t115.5 361q8 94 8 131q0 174 -71.5 262.5t-233.5 88.5q-187 0 -276 -120t-115 -362q-8 -94 -8 -131q0 -174 69.5 -262 t229.5 -88zM1247 967q-177 0 -267.5 -116t-117.5 -345h649l9 78q4 29 4 82q0 142 -67.5 221.5t-209.5 79.5z" />
<glyph unicode="&#x178;" horiz-adv-x="1097" d="M1090 1350q2 4 8 4t4 -4q-117 -201 -268 -436.5t-267 -395.5l-53 -514q0 -4 -6 -4t-6 4l53 514q-83 161 -184.5 396.5t-173.5 435.5q-2 4 4 4t8 -4q76 -204 176 -439.5t178 -382.5q110 152 262 389.5t265 432.5zM860 1671q6 0 6 -4l-16 -162q0 -4 -6 -4t-6 4l16 162 q0 4 6 4zM504 1671q6 0 6 -4l-16 -162q0 -4 -7 -4q-6 0 -6 4l17 162q0 4 6 4z" />
<glyph unicode="&#x2c6;" horiz-adv-x="614" d="M406 1323l-216 -197q-4 -4 -10 -4t-2 4l221 209q4 4 9 4q4 0 8 -4l172 -209q4 -4 -2 -4q-7 0 -11 4z" />
<glyph unicode="&#x2dc;" horiz-adv-x="614" d="M639 1241l4 33q0 4 6 4t6 -4l-4 -33q-6 -64 -31.5 -91.5t-70.5 -27.5q-51 0 -109 39l-102 72q-57 37 -105 37q-40 0 -62 -24t-28 -83l-2 -33q0 -4 -6 -4t-6 4l2 33q7 64 32.5 91.5t69.5 27.5q51 0 109 -39l104 -72q56 -36 105 -36q40 0 61 23.5t27 82.5z" />
<glyph unicode="&#x2000;" horiz-adv-x="856" />
<glyph unicode="&#x2001;" horiz-adv-x="1712" />
<glyph unicode="&#x2002;" horiz-adv-x="856" />
<glyph unicode="&#x2003;" horiz-adv-x="1712" />
<glyph unicode="&#x2004;" horiz-adv-x="570" />
<glyph unicode="&#x2005;" horiz-adv-x="428" />
<glyph unicode="&#x2006;" horiz-adv-x="285" />
<glyph unicode="&#x2007;" horiz-adv-x="285" />
<glyph unicode="&#x2008;" horiz-adv-x="214" />
<glyph unicode="&#x2009;" horiz-adv-x="342" />
<glyph unicode="&#x200a;" horiz-adv-x="95" />
<glyph unicode="&#x2010;" horiz-adv-x="782" d="M164 555h487q4 0 4 -6q-3 -6 -6 -6h-485q-4 0 -4 6t4 6z" />
<glyph unicode="&#x2011;" horiz-adv-x="782" d="M164 555h487q4 0 4 -6q-3 -6 -6 -6h-485q-4 0 -4 6t4 6z" />
<glyph unicode="&#x2012;" horiz-adv-x="782" d="M164 555h487q4 0 4 -6q-3 -6 -6 -6h-485q-4 0 -4 6t4 6z" />
<glyph unicode="&#x2013;" horiz-adv-x="1024" d="M164 555h729q4 0 4 -6q-3 -6 -6 -6h-729q-2 0 -2 6t4 6z" />
<glyph unicode="&#x2014;" horiz-adv-x="1413" d="M164 555h1118q4 0 4 -6q-3 -6 -6 -6h-1118q-5 0 -2 6q0 6 4 6z" />
<glyph unicode="&#x2018;" horiz-adv-x="356" d="M229 1141l-14 -133q0 -4 -6 -4t-6 4l14 133q23 202 156 270q3 2 6 -4q3 -3 -2 -6q-67 -36 -103.5 -106t-44.5 -154z" />
<glyph unicode="&#x2019;" horiz-adv-x="356" d="M297 1272l14 133q0 4 6 4q7 0 7 -4l-15 -133q-23 -204 -155 -271q-4 -2 -7 5q-3 3 3 6q67 36 103 106t44 154z" />
<glyph unicode="&#x201a;" horiz-adv-x="356" d="M172 72l14 133q0 4 7 4q6 0 6 -4l-15 -133q-23 -204 -155 -271q-3 -2 -6 4q-4 4 2 7q67 36 103 106t44 154z" />
<glyph unicode="&#x201c;" horiz-adv-x="626" d="M229 1141l-14 -133q0 -4 -6 -4t-6 4l14 133q23 202 156 270q3 2 6 -4q3 -3 -2 -6q-67 -36 -103.5 -106t-44.5 -154zM500 1141l-15 -133q0 -4 -6 -4t-6 4l14 133q23 202 156 270q3 2 6 -4q3 -3 -2 -6q-67 -36 -103 -106t-44 -154z" />
<glyph unicode="&#x201d;" horiz-adv-x="626" d="M297 1272l14 133q0 4 6 4q7 0 7 -4l-15 -133q-23 -204 -155 -271q-4 -2 -7 5q-3 3 3 6q67 36 103 106t44 154zM567 1272l15 133q0 4 6 4t6 -4l-14 -133q-23 -203 -156 -271q-3 -1 -6 5q-3 3 2 6q67 36 103 106t44 154z" />
<glyph unicode="&#x201e;" horiz-adv-x="626" d="M172 72l14 133q0 4 7 4q6 0 6 -4l-15 -133q-23 -204 -155 -271q-3 -2 -6 4q-4 4 2 7q67 36 103 106t44 154zM440 72l15 133q0 4 6 4t6 -4l-14 -133q-23 -203 -156 -271q-3 -2 -6 4q-4 4 2 7q67 36 103 106t44 154z" />
<glyph unicode="&#x2022;" horiz-adv-x="626" d="M315 418q-58 0 -78 14t-20 60q0 31 2 49q9 79 32 101t91 22q57 0 77.5 -14t20.5 -58q0 -11 -4 -51q-7 -78 -30 -100.5t-91 -22.5z" />
<glyph unicode="&#x2026;" horiz-adv-x="1069" d="M137 0q-6 0 -6 4l16 162q0 4 7 4q6 0 6 -4l-17 -162q0 -4 -6 -4zM494 0q-7 0 -7 4l17 162q0 4 6 4t6 -4l-16 -162q0 -4 -6 -4zM850 0q-6 0 -6 4l16 162q0 4 6 4t6 -4l-16 -162q0 -4 -6 -4z" />
<glyph unicode="&#x202f;" horiz-adv-x="342" />
<glyph unicode="&#x2039;" horiz-adv-x="528" d="M156 549q0 4 2 6l254 309q2 4 8 4t4 -4l-258 -315l190 -316q2 -4 -4 -4t-8 4l-188 310v6z" />
<glyph unicode="&#x203a;" horiz-adv-x="528" d="M373 549q0 -4 -2 -6l-254 -310q-2 -4 -8 -4q-4 0 -5 0.5t0 3.5l258 316l-190 315q-2 4 4 4t8 -4l189 -309v-6z" />
<glyph unicode="&#x205f;" horiz-adv-x="428" />
<glyph unicode="&#x20ac;" horiz-adv-x="1245" d="M674 549h-408v-66q0 -250 94.5 -364.5t298.5 -114.5q197 0 298 93t126 288q0 4 7 4q6 0 6 -4q-25 -199 -131 -296t-308 -97q-209 0 -305 118t-96 375v64h-162q-4 0 -4 6t4 6h162q4 81 10 121q3 29 17 121h-162q-4 0 -4 6t4 6h164q50 285 169 417t328 132q402 0 371 -373 q0 -4 -6 -4t-6 4q28 361 -359 361q-205 0 -322.5 -129t-164.5 -408h528q4 0 4 -6t-4 -6h-530q-7 -45 -14 -121q-8 -54 -11 -121h406q4 0 4 -6t-4 -6z" />
<glyph unicode="&#x2122;" horiz-adv-x="1536" d="M821 1356q8 0 10 -4l234 -652l369 652q2 4 10 4t8 -4l-78 -742q0 -4 -6 -4t-6 4l74 719l-363 -641q-2 -4 -8 -4t-8 4l-234 647l-75 -725q0 -4 -7 -4q-6 0 -6 4l78 742q0 4 8 4zM664 1343h-232l-76 -733q0 -4 -6 -4t-6 4l76 733h-230q-4 0 -4 7q0 6 4 6h476q4 0 4 -6 q0 -7 -6 -7z" />
<glyph unicode="&#x25fc;" horiz-adv-x="972" d="M0 973h973v-973h-973v973z" />
</font>
</defs>
</svg>
