<?xml version="1.0" standalone="no"?>
<!DOCTYPE svg PUBLIC "-//W3C//DTD SVG 1.1//EN" "http://www.w3.org/Graphics/SVG/1.1/DTD/svg11.dtd" >
<svg xmlns="http://www.w3.org/2000/svg" xmlns:xlink="http://www.w3.org/1999/xlink" version="1.1">
<metadata></metadata>
<defs>
<font id="frygiaheavy" horiz-adv-x="1167" >
<font-face units-per-em="2048" ascent="1536" descent="-512" />
<missing-glyph horiz-adv-x="440" />
<glyph unicode="&#xfb01;" horiz-adv-x="1267" d="M874 1165q-12 0 -78.5 10.5t-115.5 10.5q-57 0 -92.5 -9t-53.5 -29.5t-24 -45.5t-6 -66v-20h487q74 0 107 -4.5t43 -15t10 -33.5v-916q0 -23 -10.5 -33t-42.5 -14t-107 -4q-106 0 -133 9t-27 42v703h-319v-703q0 -33 -27.5 -42t-134.5 -9q-106 0 -133 9t-27 42v703h-104 q-30 0 -37.5 21t-7.5 108q0 61 3.5 86t12 33.5t29.5 9.5l104 8v22q0 210 105.5 306t327.5 96q145 0 245 -27q31 -11 41.5 -34t10.5 -87q0 -82 -9.5 -104.5t-36.5 -22.5z" />
<glyph unicode="&#xfb02;" horiz-adv-x="1316" d="M504 1036v-20h143q28 0 35.5 -23t7.5 -110t-7.5 -110t-35.5 -23h-135v-703q0 -33 -27.5 -42t-134.5 -9q-106 0 -133 9t-27 42v703h-104q-30 0 -37.5 21t-7.5 108q0 61 3.5 86t12 33.5t29.5 9.5l104 8v22q0 214 112.5 308t375.5 94q229 0 407 -47q38 -10 55 -22.5 t17 -39.5v-1007q0 -29 10.5 -39.5t38.5 -10.5h21q33 0 43 -24.5t10 -114.5q0 -87 -12.5 -112t-55.5 -25h-98q-160 0 -218 57t-58 215v904q-78 12 -144 12q-61 0 -99.5 -9t-58 -29.5t-26 -45.5t-6.5 -66z" />
<glyph unicode="&#xfb03;" horiz-adv-x="1914" d="M838 1016v22q0 211 104.5 306.5t327.5 95.5q148 0 243 -27q33 -11 43.5 -34t10.5 -87q0 -82 -9.5 -104.5t-37.5 -22.5q-12 0 -78 10.5t-115 10.5q-58 0 -93.5 -9t-54 -29.5t-24.5 -45.5t-6 -66v-20h489q74 0 107 -4.5t43 -15t10 -33.5v-916q0 -23 -10.5 -33t-42.5 -14 t-107 -4q-74 0 -106 4t-42.5 14t-10.5 33v703h-322v-703q0 -23 -10.5 -33t-42.5 -14t-107 -4q-74 0 -106 4t-42.5 14t-10.5 33v703h-326v-703q0 -33 -27.5 -42t-134.5 -9q-106 0 -133 9t-27 42v703h-104q-30 0 -37.5 21t-7.5 108q0 61 3.5 86t12 33.5t29.5 9.5l104 8v69 q0 194 86.5 274.5t251.5 80.5q102 0 160 -21q22 -7 32 -18.5t13.5 -38.5t-0.5 -72q-3 -79 -15 -102t-40 -21q-6 0 -34 3.5t-46 3.5q-49 0 -71.5 -24.5t-22.5 -76.5v-57h334z" />
<glyph unicode="&#xfb04;" horiz-adv-x="1961" d="M838 1016v22q0 214 112 308t375 94q228 0 406 -47q39 -10 56 -22.5t17 -39.5v-1007q0 -29 10 -39.5t39 -10.5h21q33 0 42 -24t9 -115q0 -89 -11.5 -113t-55.5 -24h-99q-160 0 -217 57t-57 215v904q-78 12 -144 12q-61 0 -99.5 -9t-58.5 -29t-27 -45.5t-7 -66.5v-20h145 q28 0 35.5 -23t7.5 -110t-7.5 -110t-35.5 -23h-137v-703q0 -23 -10.5 -33t-42.5 -14t-107 -4q-74 0 -106 4t-42.5 14t-10.5 33v703h-326v-703q0 -33 -27.5 -42t-134.5 -9q-106 0 -133 9t-27 42v703h-104q-30 0 -37.5 21t-7.5 108q0 61 3.5 86t12 33.5t29.5 9.5l104 8v69 q0 194 86.5 274.5t251.5 80.5q102 0 160 -21q22 -7 32 -18.5t13.5 -38.5t-0.5 -72q-3 -79 -15 -102t-40 -21q-6 0 -34 3.5t-46 3.5q-49 0 -71.5 -24.5t-22.5 -76.5v-57h334z" />
<glyph horiz-adv-x="0" />
<glyph horiz-adv-x="682" />
<glyph unicode=" "  horiz-adv-x="440" />
<glyph unicode="&#x09;" horiz-adv-x="440" />
<glyph unicode="&#xa0;" horiz-adv-x="440" />
<glyph unicode="!" horiz-adv-x="618" d="M309 483q-60 0 -88.5 5t-38 15.5t-10.5 33.5l-45 763q-2 38 32 50t150 12t150.5 -12t32.5 -50l-46 -763q-2 -33 -26.5 -43.5t-110.5 -10.5zM309 -4q-81 0 -116 4.5t-47.5 15.5t-12.5 37v236q0 28 12 40t47 16.5t117 4.5q81 0 115.5 -4.5t46.5 -16.5t12 -40v-236 q0 -26 -12 -37t-46.5 -15.5t-115.5 -4.5z" />
<glyph unicode="&#x22;" horiz-adv-x="827" d="M109 965l-21 413q-2 28 21 36.5t110 8.5t110 -8.5t21 -36.5l-22 -413q-2 -27 -20.5 -34t-88.5 -7t-89 7.5t-21 33.5zM498 965l-21 413q-2 28 21 36.5t110 8.5t110 -8.5t21 -36.5l-22 -413q-2 -27 -20.5 -34t-88.5 -7t-89 7.5t-21 33.5z" />
<glyph unicode="#" horiz-adv-x="1320" d="M690 37l39 268h-235l-39 -268q-5 -27 -27 -34t-104 -7q-57 0 -82.5 4.5t-30.5 12t-2 24.5l39 268h-133q-24 0 -31.5 20t-7.5 91t7.5 90.5t31.5 19.5h166l30 217h-131q-25 0 -32 19t-7 92t7 92t32 19h162l41 268q5 27 27 34t104 7q57 0 82.5 -4.5t31 -12t3.5 -24.5 l-39 -268h233l41 268q3 27 25 34t106 7q56 0 81.5 -4t31 -12t2.5 -25l-39 -268h133q24 0 31.5 -20t7.5 -91t-7.5 -91t-31.5 -20h-166l-32 -217h133q25 0 32 -19t7 -91q0 -73 -7 -92t-32 -19h-166l-39 -268q-3 -27 -25 -34t-106 -7q-56 0 -81 4.5t-30.5 12t-3.5 24.5z M762 526l31 217h-234l-33 -217h236z" />
<glyph unicode="$" horiz-adv-x="1202" d="M602 -190q-94 0 -117.5 7.5t-23.5 37.5v131q-380 40 -383 366q0 46 30 59t142 13q73 0 104.5 -4.5t42 -16t11.5 -38.5q1 -57 44 -82t134 -25q101 0 146.5 24.5t45.5 90.5q0 43 -35.5 74t-74 46t-131.5 43q-6 2 -9.5 3t-9 3t-10.5 3q-145 46 -202 75q-180 90 -211 268 q-7 41 -7 85q0 178 86.5 276t286.5 121v131q0 30 23.5 37.5t117.5 7.5q93 0 116 -7.5t23 -37.5v-135q178 -25 257 -115t81 -243q0 -32 -12 -46t-46.5 -20t-113.5 -6q-72 0 -102.5 4.5t-41 16t-11.5 38.5q-2 53 -38 78t-124 25q-98 0 -131 -27t-33 -86q0 -34 17.5 -60 t70 -52.5t85.5 -39t127 -43.5q5 -2 9 -3.5t8 -2.5q141 -48 187 -72q121 -62 162 -174q24 -69 24 -163q0 -171 -86.5 -267t-288.5 -120v-133q0 -30 -23 -37.5t-116 -7.5z" />
<glyph unicode="%" horiz-adv-x="1718" d="M408 1368q161 0 239 -84.5t78 -253.5t-78 -253.5t-239 -84.5q-163 0 -241.5 84.5t-78.5 253.5t78.5 253.5t241.5 84.5zM408 877q47 0 65.5 34t18.5 119q0 86 -18.5 121t-65.5 35t-65.5 -35t-18.5 -121q0 -85 18.5 -119t65.5 -34zM1313 664q161 0 239 -84.5t78 -253.5 t-78 -253.5t-239 -84.5q-163 0 -241.5 84.5t-78.5 253.5t78.5 253.5t241.5 84.5zM1313 170q47 0 64.5 35t17.5 121t-17.5 119.5t-64.5 33.5t-65.5 -34t-18.5 -119q0 -86 18.5 -121t65.5 -35zM1323 1305l-680 -1260q-12 -23 -21.5 -31t-37.5 -13t-88 -5q-76 0 -96 11t-5 42 l682 1262q12 22 20.5 30t37 13.5t88.5 5.5q75 0 95 -12t5 -43z" />
<glyph unicode="&#x26;" horiz-adv-x="1439" d="M1325 266q29 0 40 -25.5t15 -107.5q3 -63 -5.5 -86.5t-35.5 -34.5q-43 -24 -143 -24q-155 0 -219 98q-148 -106 -350 -106q-265 0 -399 101.5t-134 299.5q0 124 50 210.5t135 117.5q-77 38 -117.5 112t-40.5 172q0 383 495 383q245 0 367 -89t125 -281q0 -48 -34.5 -62 t-135.5 -14q-87 0 -113 12t-26 51q-1 65 -41.5 91t-130.5 26q-92 0 -137.5 -33.5t-45.5 -113.5q0 -88 37.5 -121t132.5 -33h37q26 0 34.5 -21t8.5 -90q0 -68 -8.5 -89t-34.5 -21h-33q-102 0 -152 -38.5t-50 -125.5q0 -92 51.5 -134t171.5 -42q148 0 211 53t63 154v133h-82 q-26 0 -33 20t-7 90t7 90.5t33 20.5h490q26 0 33.5 -20.5t7.5 -90.5q0 -69 -7.5 -89.5t-33.5 -20.5h-137v-178q0 -84 16 -118t55 -34q12 0 36 4t34 4z" />
<glyph unicode="'" horiz-adv-x="438" d="M109 965l-21 413q-2 28 21 36.5t110 8.5t110 -8.5t21 -36.5l-22 -413q-2 -27 -20.5 -34t-88.5 -7t-89 7.5t-21 33.5z" />
<glyph unicode="(" horiz-adv-x="772" d="M123 524q0 451 112.5 676t368.5 225h55q29 0 38.5 -21.5t9.5 -100.5q0 -81 -8 -102t-37 -21h-23q-120 0 -166.5 -148t-46.5 -508t46.5 -507.5t166.5 -147.5h23q29 0 37 -21t8 -102q0 -79 -9.5 -101t-38.5 -22h-55q-256 0 -368.5 225t-112.5 676z" />
<glyph unicode=")" horiz-adv-x="772" d="M649 524q0 -451 -112.5 -676t-368.5 -225h-55q-29 0 -38 22t-9 101q0 81 8 102t37 21h22q120 0 166.5 147.5t46.5 507.5t-46.5 508t-166.5 148h-22q-29 0 -37 21t-8 102q0 79 9 100.5t38 21.5h55q256 0 368.5 -225t112.5 -676z" />
<glyph unicode="*" horiz-adv-x="1064" d="M207 1221l246 -117l-41 268q-3 27 19 37t101 10t101.5 -10t19.5 -37l-41 -268l246 117q25 10 40.5 -8.5t39.5 -92.5q15 -53 18 -80.5t-4 -38t-26 -12.5l-267 -39l185 -196q21 -17 7 -39t-81 -68q-63 -44 -90 -49t-35 20l-113 238l-112 -238q-8 -25 -35 -20t-90 49 q-67 46 -81 68t7 39l185 196l-267 39q-19 2 -26 12.5t-4 38t18 80.5q24 74 39.5 92.5t40.5 8.5z" />
<glyph unicode="+" d="M717 1053v-285h282q20 0 28.5 -8.5t12.5 -35t4 -85.5t-4 -85.5t-12.5 -35t-28.5 -8.5h-282v-285q0 -30 -23 -38.5t-110 -8.5t-110 8.5t-23 38.5v285h-281q-30 0 -38.5 22t-8.5 107t8.5 107t38.5 22h281v285q0 30 23 38.5t110 8.5t110 -8.5t23 -38.5z" />
<glyph unicode="," horiz-adv-x="546" d="M301 348q97 0 127 -11.5t27 -51.5q-3 -70 -78 -260.5t-119 -253.5q-24 -32 -56 -39.5t-102 -7.5q-61 0 -78 14.5t-4 62.5q27 82 53.5 216.5t37.5 258.5q3 33 16.5 46.5t51 19.5t124.5 6z" />
<glyph unicode="-" horiz-adv-x="847" d="M141 692h568q20 0 28.5 -9t12.5 -36t4 -88t-4 -88t-12.5 -36t-28.5 -9h-568q-30 0 -39.5 23t-9.5 110t9.5 110t39.5 23z" />
<glyph unicode="." horiz-adv-x="546" d="M274 -4q-81 0 -116 4.5t-47.5 15.5t-12.5 37v236q0 28 12 40t47 16.5t117 4.5q81 0 116 -4.5t47 -16.5t12 -40v-236q0 -26 -12 -37t-47 -15.5t-116 -4.5z" />
<glyph unicode="/" horiz-adv-x="761" d="M745 1409l-423 -1526q-9 -34 -34.5 -42.5t-129.5 -8.5q-98 0 -124 11t-18 44l426 1526q6 23 16 31.5t41.5 13t104.5 4.5q52 0 81.5 -2.5t45 -8.5t17 -16.5t-2.5 -25.5z" />
<glyph unicode="0" horiz-adv-x="1216" d="M608 1290q272 0 395 -157t123 -498t-123 -498t-395 -157t-395 157t-123 498t123 498t395 157zM608 262q104 0 142 80.5t38 292.5t-38 292.5t-142 80.5t-142 -80.5t-38 -292.5t38 -292.5t142 -80.5z" />
<glyph unicode="1" horiz-adv-x="874" d="M326 51v899l-199 -39q-34 -6 -44.5 22.5t-10.5 123.5q0 91 8.5 115t40.5 30l457 88q41 8 60 -3.5t19 -45.5v-1190q0 -25 -10.5 -36t-44 -16t-110.5 -5q-78 0 -112 5t-44 15.5t-10 36.5z" />
<glyph unicode="2" horiz-adv-x="1112" d="M563 1290q119 0 207 -29t139.5 -82t76 -120t24.5 -150q0 -81 -21 -148t-63.5 -120.5t-87 -92t-111.5 -83.5q-30 -20 -90 -54t-104.5 -63.5t-69.5 -58.5h514q22 0 31 -9.5t12.5 -38t3.5 -96.5q0 -69 -3.5 -98t-12.5 -38t-31 -9h-850q-32 0 -40.5 23.5t-8.5 119.5v41 q0 39 10.5 75.5t24.5 65t44 60.5t53.5 53.5t69 53t75 50.5t85.5 54q116 72 155 109q83 77 83 178q0 66 -30 95.5t-93 29.5q-69 0 -102 -27.5t-39 -93.5q-1 -26 -12 -38.5t-44.5 -18t-103.5 -5.5q-104 0 -135 14t-31 60q1 205 122 298t353 93z" />
<glyph unicode="3" horiz-adv-x="1099" d="M506 518h-109q-26 0 -33.5 21t-7.5 102q0 79 7.5 100t33.5 21h113q90 0 125 29t35 104q0 63 -35.5 91t-106.5 28q-133 0 -139 -88q-2 -27 -13 -38.5t-44 -17.5t-103 -6q-104 0 -134 13.5t-29 60.5q4 189 122.5 270.5t350.5 81.5q458 0 458 -366q0 -203 -159 -279 q178 -63 178 -287q0 -185 -120.5 -281.5t-354.5 -96.5q-239 0 -361 80.5t-125 269.5q-1 47 29.5 61.5t132.5 14.5q70 0 103.5 -6.5t44 -18.5t12.5 -39q6 -86 155 -86q152 0 152 135q0 68 -43.5 97.5t-134.5 29.5z" />
<glyph unicode="4" horiz-adv-x="1177" d="M795 -4q-78 0 -110.5 4.5t-43 15t-10.5 35.5v234h-531q-31 0 -40 24t-9 109q0 65 9 93t34 58l486 664q22 29 55.5 37t138.5 8q119 0 153 -10.5t34 -44.5v-664h124q33 0 41.5 -23.5t8.5 -113.5q0 -91 -8.5 -114t-41.5 -23h-124v-234q0 -25 -11 -35.5t-44 -15t-111 -4.5z M346 559h295v406z" />
<glyph unicode="5" horiz-adv-x="1089" d="M512 578q-85 0 -176 -27q-49 -16 -135 -16q-63 2 -87.5 16t-21.5 55l37 611q2 33 28.5 43t118.5 10h611q21 0 30 -9t13 -39t4 -98q0 -67 -4 -96t-13 -38t-30 -9h-461l-12 -201q81 31 190 31q89 0 161 -21.5t127.5 -66.5t85.5 -122t30 -181q0 -440 -465 -440 q-472 0 -477 346q0 47 30 61t133 14q70 0 103 -6t44 -17.5t13 -37.5q3 -45 35.5 -66.5t101.5 -21.5q150 0 150 168q0 83 -41 120.5t-123 37.5z" />
<glyph unicode="6" horiz-adv-x="1155" d="M723 954q-3 45 -32 61.5t-93 16.5q-96 0 -137 -69t-49 -222q90 66 247 66q73 0 132 -10.5t113.5 -37t91.5 -69.5t59 -112t22 -160q0 -92 -26.5 -169t-80.5 -138.5t-146.5 -96t-215.5 -34.5q-143 0 -244.5 41t-162 122t-88 189.5t-27.5 253.5q0 367 120 535.5t396 168.5 q195 0 309.5 -79t118.5 -240q2 -44 -27.5 -58t-128.5 -14q-66 0 -97 4.5t-42 15.5t-12 35zM592 242q96 0 136 42t40 128q0 89 -39 127.5t-135 38.5q-112 0 -186 -56q1 -57 5.5 -96t16 -76.5t31.5 -59.5t52.5 -35t78.5 -13z" />
<glyph unicode="7" horiz-adv-x="1054" d="M154 61q52 209 185 474t275 446h-499q-32 0 -40.5 23.5t-8.5 119.5q0 97 8.5 121.5t40.5 24.5h821q30 0 38.5 -24.5t8.5 -119.5q0 -84 -37 -135q-129 -181 -253 -453t-185 -485q-10 -38 -45 -48.5t-152 -10.5q-76 0 -112 7.5t-44 20.5t-1 39z" />
<glyph unicode="8" horiz-adv-x="1169" d="M84 350q0 209 192 295q-170 83 -170 275q0 370 480 370q477 0 477 -370q0 -191 -172 -273q91 -43 142.5 -112.5t51.5 -184.5q0 -370 -499 -370q-502 0 -502 370zM760 360q0 76 -45.5 118.5t-130.5 70.5q-84 -28 -129 -70.5t-45 -118.5q0 -122 176 -122q174 0 174 122z M428 911q0 -64 40.5 -102t117.5 -66q76 28 116.5 66t40.5 102q0 65 -36.5 94t-120.5 29q-85 0 -121.5 -29t-36.5 -94z" />
<glyph unicode="9" horiz-adv-x="1155" d="M428 315q3 -45 32 -61t93 -16q95 0 136 68.5t50 221.5q-88 -65 -247 -65q-73 0 -132 10.5t-113.5 37t-91.5 69.5t-59 112t-22 160q0 92 26.5 169t80.5 138.5t146.5 96t215.5 34.5q143 0 244.5 -41t162 -122t88 -189.5t27.5 -253.5q0 -367 -120 -535.5t-396 -168.5 q-195 0 -309.5 79t-118.5 240q-2 44 27 58t128 14q66 0 97 -5t42.5 -16t12.5 -35zM559 1028q-96 0 -136 -42t-40 -128q0 -89 39 -127.5t135 -38.5q116 0 186 53q-1 56 -5.5 96t-16.5 77.5t-32 60t-52.5 36t-77.5 13.5z" />
<glyph unicode=":" horiz-adv-x="595" d="M299 -4q-81 0 -116 4.5t-47.5 15.5t-12.5 37v236q0 28 12 40t47 16.5t117 4.5q81 0 115.5 -4.5t46.5 -16.5t12 -40v-236q0 -26 -12 -37t-46.5 -15.5t-115.5 -4.5zM299 672q-81 0 -116 4.5t-47.5 15.5t-12.5 37v236q0 28 12 40t47 16.5t117 4.5q81 0 115.5 -4.5 t46.5 -16.5t12 -40v-236q0 -26 -12 -37t-46.5 -15.5t-115.5 -4.5z" />
<glyph unicode=";" horiz-adv-x="595" d="M299 672q-81 0 -116 4.5t-47.5 15.5t-12.5 37v236q0 28 12 40t47 16.5t117 4.5q81 0 115.5 -4.5t46.5 -16.5t12 -40v-236q0 -26 -12 -37t-46.5 -15.5t-115.5 -4.5zM315 348q97 0 127 -11.5t27 -51.5q-3 -70 -78 -260.5t-119 -253.5q-24 -32 -56 -39.5t-101 -7.5 q-61 0 -78 14.5t-4 62.5q26 81 52.5 215.5t37.5 259.5q3 33 16.5 46.5t51 19.5t124.5 6z" />
<glyph unicode="&#x3c;" d="M115 637q0 76 6 100t29 39l698 436q23 14 45 -2.5t65 -83.5q45 -70 52 -96t-15 -39l-571 -354l571 -352q22 -13 15 -39t-52 -96q-43 -68 -65 -84.5t-45 -2.5l-698 437q-23 13 -29 37.5t-6 99.5z" />
<glyph unicode="=" d="M174 532h821q20 0 28.5 -8.5t12.5 -35t4 -85.5t-4 -85.5t-12.5 -35t-28.5 -8.5h-821q-30 0 -38.5 22t-8.5 107t8.5 107t38.5 22zM174 993h821q20 0 28.5 -8.5t12.5 -35t4 -85.5t-4 -85.5t-12.5 -35t-28.5 -8.5h-821q-30 0 -38.5 22t-8.5 107t8.5 107t38.5 22z" />
<glyph unicode="&#x3e;" d="M1053 637q0 -75 -6 -99.5t-29 -37.5l-699 -437q-23 -14 -45 2.5t-65 84.5q-45 70 -52 96t15 39l571 352l-571 354q-22 13 -15 39t52 96q43 67 65 83.5t45 2.5l699 -436q23 -15 29 -39t6 -100z" />
<glyph unicode="?" horiz-adv-x="1155" d="M711 555l-2 -33q-2 -23 -11.5 -32.5t-38.5 -14t-96 -4.5t-96.5 5t-37.5 14t-9 32l-4 43q-4 50 16 92.5t52.5 70t71 56.5t72.5 54t56.5 61t22.5 78q0 61 -33 89t-101 28q-74 0 -109.5 -28t-39.5 -95q-3 -38 -32 -50t-130 -12q-104 0 -135 14t-31 60q1 205 124.5 299 t361.5 94q121 0 211.5 -28.5t142.5 -79.5t77 -113.5t25 -136.5q0 -76 -23 -135.5t-58 -93.5t-76.5 -64.5t-77.5 -51.5t-62 -51.5t-30 -66.5zM563 -4q-81 0 -116 4.5t-47.5 15.5t-12.5 37v236q0 28 12 40t47 16.5t117 4.5q81 0 115.5 -4.5t46.5 -16.5t12 -40v-236 q0 -26 -12 -37t-46.5 -15.5t-115.5 -4.5z" />
<glyph unicode="@" horiz-adv-x="1845" d="M1057 575v201q-57 17 -113 17q-84 0 -113.5 -44t-29.5 -157q0 -103 27.5 -147t93.5 -44q135 0 135 174zM1208 -152h-282q-154 0 -274 23t-220 77t-165.5 140.5t-101.5 216t-36 301.5q0 397 202 578.5t607 181.5q284 0 457 -81t249 -242t76 -420q0 -243 -87.5 -349 t-254.5 -106q-200 0 -248 141q-32 -63 -98.5 -97t-154.5 -34q-173 0 -261 97.5t-88 316.5q0 229 91 326.5t319 97.5q194 0 326 -64q25 -11 35 -24.5t10 -38.5v-432q0 -66 15 -95.5t58 -29.5q70 0 92.5 59t22.5 232q0 110 -12 190.5t-40 142t-69.5 101.5t-106 65t-144 35 t-187.5 10q-157 0 -261.5 -25.5t-179.5 -89t-109 -172.5t-34 -274q0 -137 25 -235.5t69.5 -161t117.5 -99t158 -50t202 -13.5h291q21 0 27.5 -20t6.5 -80q0 -59 -8 -79t-35 -20z" />
<glyph unicode="A" horiz-adv-x="1280" d="M1077 -4q-117 0 -151 11.5t-41 55.5q-2 11 -51 236h-390q-33 -150 -49 -236q-7 -44 -41.5 -55.5t-152.5 -11.5q-103 0 -132.5 12t-21.5 49q58 255 171.5 645.5t197.5 600.5q14 35 55.5 46t167.5 11q128 0 169.5 -11t55.5 -46q82 -209 195.5 -599t173.5 -647 q8 -37 -21.5 -49t-134.5 -12zM639 1016q-82 -277 -125 -445h250q-61 237 -125 445z" />
<glyph unicode="B" horiz-adv-x="1265" d="M469 559v-285h176q102 0 147.5 31.5t45.5 112.5q0 80 -48 110.5t-153 30.5h-168zM618 1079h-149v-252h152q85 0 127.5 29.5t42.5 99.5q0 68 -41.5 95.5t-131.5 27.5zM305 1356h332q254 0 376 -88.5t122 -270.5q0 -104 -44.5 -177t-117.5 -105q211 -64 211 -307 q0 -205 -123 -306.5t-383 -101.5h-373q-80 0 -114.5 4.5t-46 15t-11.5 35.5v1243q0 25 11 36.5t47 16.5t114 5z" />
<glyph unicode="C" horiz-adv-x="1271" d="M94 678q0 371 135.5 534.5t444.5 163.5q247 0 376 -115t132 -325q0 -47 -30.5 -59.5t-137.5 -12.5q-103 0 -133 12t-33 50q-3 77 -43 115t-129 38q-91 0 -140 -35t-71.5 -121t-22.5 -245t22.5 -245t71.5 -121.5t140 -35.5q89 0 131 39.5t47 122.5q1 26 12.5 38.5t46 18 t105.5 5.5q106 0 137.5 -12.5t30.5 -57.5q-3 -220 -131 -335t-381 -115q-309 0 -444.5 163.5t-135.5 534.5z" />
<glyph unicode="D" horiz-adv-x="1294" d="M473 293h139q132 0 186 84t54 301q0 216 -54 300.5t-186 84.5h-139v-770zM612 0h-307q-80 0 -114.5 4.5t-46 15t-11.5 35.5v1243q0 25 11 36.5t47 16.5t114 5h307q316 0 452 -158t136 -520t-136 -520t-452 -158z" />
<glyph unicode="E" d="M1010 1067h-539v-231h463q32 0 40.5 -24t8.5 -120t-8.5 -119.5t-40.5 -23.5h-463v-260h549q21 0 30.5 -9.5t14 -39.5t4.5 -95q0 -96 -9 -120.5t-40 -24.5h-715q-80 0 -114.5 4.5t-46 15t-11.5 35.5v1243q0 25 11 36.5t47 16.5t114 5h705q21 0 30.5 -9.5t14 -40t4.5 -96.5 q0 -95 -9 -119t-40 -24z" />
<glyph unicode="F" horiz-adv-x="1101" d="M473 520v-471q0 -24 -11 -34.5t-46 -15.5t-113 -5q-79 0 -114 5t-45.5 15.5t-10.5 34.5v1249q0 25 11 36.5t47 16.5t114 5h690q21 0 30.5 -9.5t14 -40t4.5 -96.5q0 -95 -9 -119t-40 -24h-524v-258h457q32 0 40.5 -24t8.5 -121q0 -96 -8.5 -120t-40.5 -24h-455z" />
<glyph unicode="G" horiz-adv-x="1316" d="M1061 745q95 0 121 -18.5t26 -75.5v-211q0 -231 -134.5 -345.5t-385.5 -114.5q-315 0 -454.5 164t-139.5 534q0 371 137 534.5t447 163.5q252 0 381 -105t131 -300q0 -43 -32 -56.5t-136 -13.5q-70 0 -104.5 5t-47.5 16.5t-14 35.5q-3 127 -174 127q-93 0 -145 -36.5 t-75.5 -124t-23.5 -246.5q0 -233 56 -320.5t198 -87.5q100 0 146.5 41t46.5 125v49h-189q-30 0 -37.5 21t-7.5 108q0 88 7.5 109.5t37.5 21.5h365z" />
<glyph unicode="H" horiz-adv-x="1372" d="M1071 -4q-81 0 -115 4.5t-44.5 15t-10.5 35.5v494h-428v-494q0 -25 -11 -35.5t-45 -15t-114 -4.5q-81 0 -115 4.5t-44.5 15t-10.5 35.5v1254q0 25 10.5 35.5t44.5 15t115 4.5q80 0 114 -4.5t45 -15t11 -35.5v-465h428v465q0 25 10.5 35.5t44.5 15t115 4.5q80 0 114 -4.5 t45 -15t11 -35.5v-1254q0 -25 -11 -35.5t-45 -15t-114 -4.5z" />
<glyph unicode="I" horiz-adv-x="614" d="M307 -6q-78 0 -113 5t-46 15.5t-11 34.5v1256q0 25 11 35.5t45 15t114 4.5t114 -4.5t45 -15t11 -35.5v-1256q0 -24 -11 -34.5t-46 -15.5t-113 -5z" />
<glyph unicode="J" horiz-adv-x="1107" d="M637 485v820q0 25 11 35.5t45 15t114 4.5t114 -4.5t45 -15t11 -35.5v-832q0 -96 -13.5 -170t-46 -136.5t-85.5 -102.5t-133.5 -62t-188.5 -22q-453 0 -453 436q-1 48 29 60.5t139 12.5q71 0 105.5 -6t46 -18t12.5 -37q3 -76 29 -108.5t94 -32.5q74 0 99.5 43t25.5 155z " />
<glyph unicode="K" horiz-adv-x="1306" d="M1233 1282l-406 -580l424 -628q33 -49 -27 -65q-45 -13 -153 -13q-87 0 -128.5 10.5t-63.5 42.5l-334 504h-72v-502q0 -25 -11 -35.5t-45 -15t-114 -4.5q-81 0 -115 4.5t-44.5 15t-10.5 35.5v1254q0 25 10.5 35.5t44.5 15t115 4.5q80 0 114 -4.5t45 -15t11 -35.5v-461h68 l325 473q20 25 61 34t128 9q182 0 191 -41q3 -15 -13 -37z" />
<glyph unicode="L" horiz-adv-x="1052" d="M473 1305v-1016h457q21 0 30.5 -9.5t14 -39.5t4.5 -95q0 -96 -9 -120.5t-40 -24.5h-625q-80 0 -114.5 4.5t-46 15t-11.5 35.5v1250q0 25 10.5 35.5t44.5 15t115 4.5q80 0 114 -4.5t45 -15t11 -35.5z" />
<glyph unicode="M" horiz-adv-x="1730" d="M864 141q-89 0 -115.5 9t-35.5 38l-244 758v-895q0 -25 -11 -35.5t-44.5 -15t-112.5 -4.5q-80 0 -113.5 4.5t-44 15t-10.5 35.5v1247q0 27 17.5 39.5t69.5 18.5t163 6q143 0 191.5 -11t60.5 -46l229 -738l236 738q10 35 57.5 46t188.5 11q112 0 164.5 -6t69.5 -18.5 t17 -39.5v-1247q0 -25 -10.5 -35.5t-44 -15t-112.5 -4.5q-80 0 -113.5 4.5t-44 15t-10.5 35.5v895l-244 -758q-9 -29 -37 -38t-117 -9z" />
<glyph unicode="N" horiz-adv-x="1396" d="M1096 1360q80 0 114 -4.5t45 -15t11 -35.5v-1252q0 -25 -12 -36t-51 -16t-128 -5q-92 0 -124 9.5t-46 37.5l-432 752v-744q0 -25 -11 -35.5t-45 -15t-114 -4.5q-81 0 -115 4.5t-44.5 15t-10.5 35.5v1252q0 26 11.5 36.5t50 15.5t127.5 5q92 0 124 -9.5t46 -37.5l434 -758 v750q0 25 11 35.5t45 15t114 4.5z" />
<glyph unicode="O" horiz-adv-x="1359" d="M680 1376q314 0 450 -163t136 -535t-136 -535t-450 -163t-450 163t-136 535t136 535t450 163zM680 270q136 0 187 86.5t51 321.5q0 160 -22.5 247t-73 123.5t-142.5 36.5t-142.5 -36.5t-73 -123.5t-22.5 -247q0 -235 51 -321.5t187 -86.5z" />
<glyph unicode="P" horiz-adv-x="1239" d="M633 440h-160v-389q0 -25 -11 -35.5t-45 -15t-114 -4.5q-81 0 -115 4.5t-44.5 15t-10.5 35.5v1247q0 25 11 36.5t47 16.5t114 5h328q277 0 398.5 -107.5t121.5 -349.5q0 -243 -121.5 -351t-398.5 -108zM473 1067v-336h150q102 0 143 36t41 132q0 93 -43 130.5t-141 37.5 h-150z" />
<glyph unicode="Q" horiz-adv-x="1359" d="M680 1376q314 0 450 -163t136 -535q0 -288 -80.5 -448.5t-257.5 -217.5q86 -24 207 -24q30 0 38.5 -25t8.5 -123q0 -68 -4 -98t-13 -39.5t-30 -9.5q-167 0 -318 77t-246 216q-253 25 -365 189t-112 503q0 372 136 535t450 163zM680 270q136 0 187 86.5t51 321.5 q0 160 -22.5 247t-73 123.5t-142.5 36.5t-142.5 -36.5t-73 -123.5t-22.5 -247q0 -235 51 -321.5t187 -86.5z" />
<glyph unicode="R" horiz-adv-x="1257" d="M530 492h-57v-441q0 -25 -11 -35.5t-45 -15t-114 -4.5q-81 0 -115 4.5t-44.5 15t-10.5 35.5v1247q0 25 11 36.5t47 16.5t114 5h318q277 0 399.5 -104.5t122.5 -333.5q0 -263 -223 -363q79 -50 137 -145q85 -137 123 -336q4 -27 1 -44.5t-43.5 -26.5t-135.5 -9 q-69 0 -103.5 5.5t-47 16t-17.5 31.5q-27 143 -82 252q-84 190 -224 193zM473 1071v-307h139q105 0 146 30t41 121q0 86 -42.5 121t-144.5 35h-139z" />
<glyph unicode="S" horiz-adv-x="1191" d="M582 258q100 0 143 24.5t43 90.5q0 27 -12.5 48.5t-28.5 35.5t-52.5 29.5t-63.5 24.5t-81 26l-9 3t-8 2.5t-9 2.5q-146 46 -206 76q-177 92 -205 276q-5 36 -5 76q0 102 25.5 175t83 125t154.5 77.5t237 25.5q133 0 227 -24.5t149.5 -73.5t80.5 -115t26 -155 q0 -32 -12 -46t-46.5 -20t-113.5 -6q-72 0 -103 4.5t-41.5 16t-11.5 38.5q-2 54 -36 78.5t-121 24.5q-97 0 -128.5 -26.5t-31.5 -86.5q0 -68 92 -117q52 -27 221 -84q139 -48 184 -72q121 -62 160 -177q23 -67 23 -160q0 -99 -26.5 -170t-86.5 -123t-162.5 -77t-250.5 -25 q-262 0 -381 95.5t-121 276.5q0 46 30 59t142 13q73 0 104.5 -4.5t42 -16t11.5 -38.5q1 -58 41.5 -82.5t132.5 -24.5z" />
<glyph unicode="T" horiz-adv-x="1142" d="M1040 1063h-299v-1012q0 -25 -10.5 -35.5t-44.5 -15t-115 -4.5q-80 0 -114 4.5t-45 15t-11 35.5v1012h-299q-31 0 -40 24.5t-9 120.5q0 67 4.5 98t14 40.5t30.5 9.5h938q31 0 40.5 -26t9.5 -122q0 -67 -5 -97.5t-14.5 -39t-30.5 -8.5z" />
<glyph unicode="U" horiz-adv-x="1351" d="M676 -20q-296 0 -423.5 126.5t-127.5 411.5v787q0 25 10.5 35.5t44.5 15t115 4.5q80 0 114 -4.5t45 -15t11 -35.5v-773q0 -136 45 -189.5t166 -53.5t166 53.5t45 189.5v773q0 25 11 35.5t45 15t114 4.5t114 -4.5t45 -15t11 -35.5v-787q0 -285 -127.5 -411.5 t-423.5 -126.5z" />
<glyph unicode="V" horiz-adv-x="1280" d="M1079 1360h29t27 -0.5t25 -1.5t21.5 -3t19 -4.5t15 -6t11.5 -8t6.5 -10.5t2.5 -13.5t-3 -16.5q-59 -247 -178.5 -639.5t-200.5 -605.5q-9 -24 -28 -35t-60.5 -15.5t-126.5 -4.5q-123 0 -162 10.5t-51 44.5q-82 211 -202 603.5t-179 641.5q0 9 -2 16.5t2.5 13.5t7 10.5 t11.5 8t15.5 6t19 4.5t22 3t24.5 1.5t27 0.5h29q82 0 118.5 -5t53 -18.5t22.5 -44.5q72 -338 244 -907q172 569 244 907q9 44 44 56t152 12z" />
<glyph unicode="W" horiz-adv-x="2025" d="M1798 1360q108 0 139.5 -12t24.5 -52q-54 -260 -156.5 -649t-175.5 -596q-7 -24 -24.5 -35t-57.5 -15.5t-121 -4.5q-84 0 -122.5 5t-52 15t-21.5 35q-79 248 -217 813q-118 -485 -219 -813q-8 -25 -22 -35t-52.5 -15t-122.5 -5q-81 0 -121 4.5t-57.5 15.5t-24.5 35 q-73 204 -173.5 591.5t-155.5 653.5q-9 40 23 52t140 12q111 0 143.5 -12t41.5 -56q58 -340 192 -882q150 578 213 882q5 32 19 44.5t51.5 18t124.5 5.5t123.5 -5.5t50 -18t18.5 -44.5q65 -311 213 -880q131 527 195 880q5 31 20 44.5t50 18.5t114 5z" />
<glyph unicode="X" horiz-adv-x="1335" d="M942 696l336 -622q10 -23 8 -38t-25.5 -24t-62 -12.5t-102.5 -3.5q-88 0 -129.5 9.5t-57.5 41.5l-241 465l-242 -465q-16 -32 -57.5 -41.5t-128.5 -9.5q-160 0 -184 29q-14 17 3 49l334 622l-323 586q-27 48 17 64q40 14 163 14q86 0 127.5 -9.5t60.5 -41.5l230 -430 l229 430q19 32 60.5 41.5t127.5 9.5q158 0 184 -26q16 -17 -3 -52z" />
<glyph unicode="Y" horiz-adv-x="1241" d="M840 1303q10 25 25 36t52.5 16t118.5 5q145 0 162 -28q8 -12 -2 -34q-57 -137 -183.5 -391.5t-221.5 -419.5v-438q0 -25 -11 -35.5t-45 -15t-114 -4.5t-114 4.5t-45 15t-11 35.5v438q-96 164 -223.5 418.5t-184.5 392.5q-5 12 -5 20.5t5.5 15.5t17 12t31 8t47.5 4.5 t66 1.5q80 0 117.5 -5t52.5 -16t24 -36q71 -201 222 -525q136 298 219 525z" />
<glyph unicode="Z" horiz-adv-x="1204" d="M164 1356h872q22 0 31.5 -10.5t13.5 -41t4 -98.5q0 -97 -32 -147l-529 -766h529q21 0 30.5 -9.5t14 -40t4.5 -96.5q0 -98 -9 -122.5t-40 -24.5h-908q-32 0 -40.5 24.5t-8.5 122.5q0 97 33 148l533 768h-498q-32 0 -40.5 24t-8.5 121q0 68 4 98t13.5 40t31.5 10z" />
<glyph unicode="[" horiz-adv-x="772" d="M168 -317v1683q0 35 29.5 45t142.5 10h305q29 0 38 -22t9 -101q0 -81 -7.5 -101.5t-37.5 -20.5h-184v-1303h184q29 0 37 -21t8 -102q0 -79 -9 -101t-38 -22h-305q-78 0 -114 5t-47 16t-11 35z" />
<glyph unicode="\" horiz-adv-x="761" d="M440 -117l-424 1526q-2 10 -3 18t4 14t14 10t26.5 6.5t41.5 3.5t59 1q73 0 104.5 -4.5t41 -13t15.5 -31.5l426 -1526q8 -33 -17.5 -44t-123.5 -11q-104 0 -129.5 8.5t-34.5 42.5z" />
<glyph unicode="]" horiz-adv-x="772" d="M604 1366v-1683q0 -24 -11 -35t-47 -16t-114 -5h-305q-29 0 -38 22t-9 101q0 81 8 102t37 21h184v1303h-184q-30 0 -37.5 20.5t-7.5 101.5q0 79 9 101t38 22h305q113 0 142.5 -10t29.5 -45z" />
<glyph unicode="^" d="M584 1370q68 0 102.5 -4.5t47.5 -12.5t22 -26l315 -594q21 -36 -13 -47q-29 -10 -126 -10q-92 0 -122 10t-44 41l-182 367l-181 -367q-16 -31 -46 -41t-121 -10q-128 0 -144 20q-10 12 4 37l316 594q14 26 44.5 34.5t127.5 8.5z" />
<glyph unicode="_" horiz-adv-x="856" d="M836 -328h-818q-22 0 -27 17t-5 84t5 83.5t27 16.5h818q23 0 27.5 -16t4.5 -84t-4.5 -84.5t-27.5 -16.5z" />
<glyph unicode="`" horiz-adv-x="782" d="M526 1126l-350 148q-16 7 -20.5 17t3 35t31.5 71q35 68 54 83.5t39 2.5l325 -205q21 -12 20.5 -29t-26.5 -65q-25 -48 -38.5 -58t-37.5 0z" />
<glyph unicode="a" horiz-adv-x="1101" d="M424 709q0 -23 -8.5 -32t-38 -13.5t-98.5 -4.5q-102 0 -129 11t-27 55q0 311 430 311q127 0 214 -24t136.5 -73t70.5 -114.5t21 -156.5v-621q0 -23 -10 -33t-41 -14t-104 -4t-104.5 4t-41.5 14t-10 33l-2 70q-81 -131 -289 -131q-167 0 -243 79.5t-76 206.5 q0 161 91.5 231t295.5 70h219v78q0 75 -26 102t-109 27q-67 0 -94 -17t-27 -54zM680 385h-174q-72 0 -100.5 -21t-28.5 -69q0 -43 27 -61.5t88 -18.5q87 0 137.5 37t50.5 100v33z" />
<glyph unicode="b" horiz-adv-x="1200" d="M436 1368v-450q90 118 281 118q195 0 295 -128t100 -400q0 -273 -100.5 -400.5t-296.5 -127.5q-192 0 -283 122l-4 -55q-2 -23 -12.5 -33t-41.5 -14t-102 -4q-73 0 -104 4t-41 14t-10 33v1321q0 23 10.5 33.5t43 15t105.5 4.5t106 -4.5t43.5 -15t10.5 -33.5zM436 508 q0 -147 40 -206.5t140 -59.5q95 0 132.5 59.5t37.5 206.5t-37.5 206.5t-132.5 59.5q-100 0 -140 -59.5t-40 -206.5z" />
<glyph unicode="c" horiz-adv-x="1083" d="M571 768q-93 0 -127 -56.5t-34 -203.5t35 -203.5t128 -56.5q64 0 90.5 21t28.5 61q3 36 27.5 47.5t114.5 11.5q114 0 142 -11t28 -56q-1 -74 -24.5 -134t-72.5 -108t-134.5 -74t-201.5 -26q-252 0 -369.5 129.5t-117.5 398.5t117 398.5t368 129.5q94 0 167 -17 t120.5 -46.5t78.5 -73t44.5 -92t15.5 -107.5q1 -44 -27.5 -54.5t-140.5 -10.5q-63 0 -93 6t-38.5 17t-9.5 36q-2 38 -28 56t-87 18z" />
<glyph unicode="d" horiz-adv-x="1200" d="M772 47l-4 57q-90 -124 -283 -124q-197 0 -298 128t-101 400t101 400t296 128q189 0 281 -121v453q0 23 10 33.5t43 15t107 4.5q73 0 105.5 -4.5t43 -15t10.5 -33.5v-1321q0 -23 -10.5 -33t-41.5 -14t-103 -4t-103.5 4t-41.5 14t-11 33zM764 508q0 146 -41 206t-139 60 q-95 0 -133.5 -59.5t-38.5 -206.5t38.5 -206.5t133.5 -59.5q98 0 139 60t41 206z" />
<glyph unicode="e" horiz-adv-x="1103" d="M969 434h-566q8 -116 49 -164.5t132 -48.5q58 0 89.5 21t33.5 53q1 24 8 33.5t36.5 14.5t98.5 5q104 0 130 -11t26 -56q0 -128 -107.5 -214.5t-316.5 -86.5q-258 0 -378 129.5t-120 398.5q0 268 118 398t367 130q230 0 341.5 -123.5t111.5 -339.5v-49q0 -55 -9.5 -72.5 t-43.5 -17.5zM575 793q-81 0 -119.5 -43.5t-49.5 -139.5h311v25q0 75 -31.5 116.5t-110.5 41.5z" />
<glyph unicode="f" horiz-adv-x="780" d="M686 750h-174v-703q0 -33 -27.5 -42t-134.5 -9q-106 0 -133 9t-27 42v703h-104q-30 0 -37.5 21t-7.5 108q0 61 3.5 86t12 33.5t29.5 9.5l104 8v61q0 109 24 182t73.5 112t110 54t147.5 15q113 0 178 -25q32 -11 41 -35t6 -94q-4 -79 -16.5 -102t-40.5 -21q-14 1 -46 6 t-51 5q-59 0 -85.5 -24.5t-26.5 -80.5v-53h182q28 0 35.5 -23t7.5 -110t-7.5 -110t-35.5 -23z" />
<glyph unicode="g" horiz-adv-x="1189" d="M408 -59q0 -45 36 -66.5t115 -21.5q97 0 136.5 28t39.5 103q0 68 -37 99.5t-123 43.5h-16q-241 0 -353 112.5t-112 342.5t111.5 342t353.5 112q148 0 248 -47l289 43q31 5 41 -17.5t10 -105.5q0 -82 -7.5 -102.5t-37.5 -20.5h-109q31 -91 31 -204q0 -240 -147 -359 q153 -81 153 -280q0 -166 -109 -249t-356 -83q-242 0 -348 79t-106 234q0 45 26.5 56.5t126.5 11.5q67 0 96.5 -4t38.5 -14t9 -33zM559 377q88 0 124 47.5t36 157.5t-36 157t-124 47q-87 0 -122.5 -47t-35.5 -157t35.5 -157.5t122.5 -47.5z" />
<glyph unicode="h" horiz-adv-x="1191" d="M436 1368v-471q37 58 114 98.5t185 40.5q175 0 260.5 -90t85.5 -276v-623q0 -23 -10 -33t-42 -14t-107 -4q-106 0 -133 9t-27 42v567q0 78 -35.5 113t-108.5 35q-86 0 -134 -48t-48 -134v-533q0 -33 -27 -42t-133 -9q-74 0 -106 4t-42.5 14t-10.5 33v1321q0 23 10.5 33.5 t43 15t105.5 4.5t106 -4.5t43.5 -15t10.5 -33.5z" />
<glyph unicode="i" horiz-adv-x="550" d="M117 47v920q0 24 10.5 34t42.5 14.5t106 4.5t106 -4t43 -14.5t11 -34.5v-920q0 -33 -27 -42t-133 -9q-74 0 -106 4t-42.5 14t-10.5 33zM276 1413q77 0 110.5 -6t44.5 -19.5t11 -46.5v-129q0 -48 -27 -59.5t-139 -11.5q-80 0 -112.5 5t-43.5 18.5t-11 47.5v129 q0 33 10.5 46.5t44.5 19.5t112 6z" />
<glyph unicode="j" horiz-adv-x="571" d="M6 -98q7 0 28.5 -2t33.5 -2q38 0 54.5 20.5t16.5 85.5v963q0 24 11 34t43.5 14.5t107.5 4.5q74 0 106 -4t43 -14.5t11 -34.5v-987q0 -94 -14 -160t-38.5 -106.5t-66 -63.5t-87.5 -31t-112 -8q-94 0 -137 16q-33 9 -42 32.5t-9 100.5q0 93 9.5 117.5t41.5 24.5zM301 1413 q77 0 110.5 -6t44.5 -19.5t11 -46.5v-129q0 -48 -27 -59.5t-139 -11.5q-80 0 -112.5 5t-44 18.5t-11.5 47.5v129q0 33 11 46.5t45 19.5t112 6z" />
<glyph unicode="k" horiz-adv-x="1132" d="M436 1368v-692h62l235 301q18 26 54.5 34.5t121.5 8.5q176 0 183 -37q3 -14 -13 -35l-323 -403l340 -479q33 -45 -34 -60q-45 -10 -142 -10q-79 0 -115.5 8.5t-54.5 34.5l-254 373h-60v-365q0 -24 -11 -34.5t-43 -14.5t-106 -4t-106 4.5t-42.5 14.5t-10.5 34v1321 q0 23 10.5 33.5t43 15t105.5 4.5t106 -4.5t43.5 -15t10.5 -33.5z" />
<glyph unicode="l" horiz-adv-x="593" d="M485 274h19q34 0 43.5 -24t9.5 -115q0 -88 -12 -112.5t-56 -24.5h-98q-160 0 -217 57t-57 215v1098q0 23 10.5 33.5t43 15t105.5 4.5t106 -4.5t43.5 -15t10.5 -33.5v-1044q0 -29 10 -39.5t39 -10.5z" />
<glyph unicode="m" horiz-adv-x="1773" d="M1047 590v-543q0 -23 -10.5 -33t-42.5 -14t-107 -4q-74 0 -106 4t-42 14t-10 33v578q0 74 -33.5 105.5t-99.5 31.5q-76 0 -120 -46t-44 -126v-543q0 -23 -11 -33t-43 -14t-106 -4t-106 4t-42.5 14t-10.5 33v920q0 24 10.5 34t42 14.5t104.5 4.5q70 0 102 -4.5t41.5 -14.5 t10.5 -32l4 -76q36 61 107 102t180 41q223 0 295 -149q112 149 317 149q168 0 252 -85t84 -263v-641q0 -23 -10.5 -33t-42.5 -14t-107 -4q-74 0 -106 4t-43 14t-11 33v578q0 74 -33.5 105.5t-99.5 31.5q-77 0 -120 -46t-43 -126z" />
<glyph unicode="n" horiz-adv-x="1183" d="M424 969l4 -78q35 60 112.5 102.5t188.5 42.5q175 0 259.5 -90t84.5 -276v-623q0 -23 -10.5 -33t-42.5 -14t-107 -4q-74 0 -106 4t-42.5 14t-10.5 33v567q0 78 -34.5 113t-107.5 35q-86 0 -133 -48t-47 -134v-533q0 -23 -11 -33t-43 -14t-106 -4t-106 4t-42.5 14 t-10.5 33v920q0 24 10.5 34t42 14.5t104.5 4.5q70 0 102 -4.5t41.5 -14.5t10.5 -32z" />
<glyph unicode="o" horiz-adv-x="1148" d="M573 1036q255 0 372.5 -129t117.5 -399t-117.5 -399t-372.5 -129q-254 0 -371.5 129t-117.5 399t117.5 399t371.5 129zM573 240q95 0 130.5 59t35.5 209q0 149 -35.5 208.5t-130.5 59.5t-129 -59t-34 -209q0 -151 34 -209.5t129 -58.5z" />
<glyph unicode="p" horiz-adv-x="1196" d="M424 967l4 -60q92 129 285 129q195 0 295 -128t100 -400q0 -273 -100.5 -400.5t-296.5 -127.5q-190 0 -279 114v-416q0 -23 -11 -33t-43 -14t-106 -4t-106 4t-42.5 14t-10.5 33v1289q0 24 10 34t41 14.5t104 4.5q101 0 127 -9.5t29 -43.5zM432 508q0 -147 40 -206.5 t140 -59.5q95 0 132.5 59.5t37.5 206.5t-37.5 206.5t-132.5 59.5q-100 0 -140 -59.5t-40 -206.5z" />
<glyph unicode="q" horiz-adv-x="1196" d="M924 -373q-75 0 -107 4t-42.5 14t-10.5 33v418q-91 -116 -279 -116q-197 0 -298 128t-101 400t101 400t296 128q192 0 283 -129l6 60q1 23 11 33t41.5 15t103.5 5t103 -4.5t41.5 -14.5t10.5 -34v-1289q0 -23 -10.5 -33t-42.5 -14t-106 -4zM764 508q0 146 -41 206t-139 60 q-95 0 -133.5 -59.5t-38.5 -206.5t38.5 -206.5t133.5 -59.5q98 0 139 60t41 206z" />
<glyph unicode="r" horiz-adv-x="825" d="M725 707q-137 0 -215 -57.5t-78 -168.5v-434q0 -23 -11 -33t-43 -14t-106 -4t-106 4t-42.5 14t-10.5 33v920q0 24 10.5 34t42 14.5t104.5 4.5q70 0 102 -4.5t41.5 -14.5t10.5 -32l4 -133q34 78 113 135t184 57q40 0 50.5 -27.5t10.5 -132.5q0 -74 -5 -106.5t-17 -43.5 t-39 -11z" />
<glyph unicode="s" horiz-adv-x="1007" d="M358 276q0 -34 29 -49.5t100 -15.5q79 0 107.5 17t28.5 55q0 31 -24.5 52.5t-49 30.5t-94.5 29q-8 3 -12.5 4t-11.5 3t-13 4q-39 11 -61.5 18t-59 19.5t-58.5 25t-50.5 31t-45 40.5t-33 50t-23.5 63.5t-7 77.5q0 158 95 231.5t327 73.5q117 0 196.5 -18t125 -55.5 t64.5 -87t19 -119.5q0 -42 -26 -54t-123 -12q-91 0 -114 9t-23 42q0 34 -25.5 49t-87.5 15q-68 0 -92.5 -17t-24.5 -55q0 -30 25 -52t49 -31t87 -28q4 -2 6.5 -2.5t6 -1.5t6.5 -2q154 -43 199 -63q105 -46 140 -132q22 -55 22 -136q0 -77 -21 -131.5t-70.5 -94.5t-135 -59.5 t-211.5 -19.5q-122 0 -205.5 18.5t-131 56t-67.5 87t-20 118.5q0 42 27.5 55t123.5 13q89 0 113 -10t24 -42z" />
<glyph unicode="t" horiz-adv-x="849" d="M729 750h-229v-406q0 -86 78 -86q29 0 63.5 10.5t36.5 10.5q26 5 44 -14t42 -83q22 -64 22 -88q0 -30 -30 -51q-32 -26 -98.5 -41.5t-149.5 -15.5q-182 0 -254 80.5t-72 261.5v422h-106q-20 0 -28 8.5t-11.5 34t-3.5 86.5t3.5 86t11.5 33.5t28 9.5l119 8v223 q0 32 26 40.5t127 8.5q102 0 127 -8t25 -41v-223h229q28 0 35.5 -23t7.5 -110t-7.5 -110t-35.5 -23z" />
<glyph unicode="u" horiz-adv-x="1165" d="M741 47l-4 78q-37 -62 -110 -103.5t-183 -41.5q-340 0 -340 380v607q0 24 10.5 34t42.5 14.5t107 4.5q74 0 106 -4t43 -14.5t11 -34.5v-564q0 -79 33 -114t106 -35q84 0 127 46.5t43 133.5v533q0 24 10.5 34t42.5 14.5t107 4.5q74 0 106 -4t43 -14.5t11 -34.5v-920 q0 -33 -27 -42t-131 -9q-72 0 -103 4.5t-40.5 14t-10.5 32.5z" />
<glyph unicode="v" horiz-adv-x="1095" d="M887 1020q80 0 118 -6t48 -19t4 -39q-46 -173 -145 -456.5t-173 -454.5q-12 -30 -48 -39.5t-144 -9.5q-107 0 -143 9.5t-48 39.5q-75 170 -173.5 454t-143.5 457q-11 38 21 51t149 13q64 0 96 -3.5t45.5 -12.5t16.5 -27q63 -303 180 -678q99 318 182 678q3 18 16.5 27 t45.5 12.5t96 3.5z" />
<glyph unicode="w" horiz-adv-x="1683" d="M1468 1020q100 0 130 -9.5t30 -35.5q0 -19 -2 -29q-34 -172 -108.5 -446t-137.5 -457q-9 -29 -43 -39t-139 -10q-73 0 -110.5 5t-53 15t-22.5 31q-56 160 -170 582q-130 -462 -170 -582q-11 -30 -46 -40.5t-141 -10.5q-105 0 -139 10t-43 39q-63 179 -137 452.5 t-109 450.5q-2 10 -2 31q0 25 30.5 34t129.5 9q94 0 124 -9t34 -38q60 -357 129 -666q107 375 178 668q8 28 37 36.5t125 8.5t125 -8.5t37 -36.5q62 -266 176 -664q63 283 131 662q5 29 34 38t123 9z" />
<glyph unicode="x" horiz-adv-x="1130" d="M725 49l-162 336l-160 -336q-17 -32 -53.5 -42.5t-124.5 -10.5q-174 0 -178 41q-1 11 8 26l242 457l-242 432q-27 44 44 59q44 9 132 9q81 0 118 -9t50 -36l162 -324h4l164 324q15 27 51 36t117 9q181 0 184 -43q1 -11 -8 -25l-242 -432l242 -457q26 -44 -42 -58 q-43 -9 -128 -9q-88 0 -125.5 10.5t-52.5 42.5z" />
<glyph unicode="y" horiz-adv-x="1101" d="M291 -111q74 0 110.5 26t61.5 93q-48 4 -67.5 14t-28.5 33q-76 168 -178.5 450.5t-147.5 450.5q-12 39 20.5 51.5t145.5 12.5q64 0 96 -3.5t45.5 -12.5t16.5 -27q71 -308 192 -672q132 442 180 672q3 18 16.5 27t45.5 12.5t96 3.5q107 0 140 -11t30 -42 q-59 -235 -155.5 -522.5t-190.5 -499.5q-5 -12 -15 -34q-19 -45 -29.5 -67t-31 -59t-38 -56t-47 -44t-61.5 -36.5t-76.5 -20.5t-98.5 -9q-131 0 -158 16q-20 12 -24.5 37t-4.5 84q0 63 5.5 93t15.5 38.5t32 8.5q10 0 42 -3.5t61 -3.5z" />
<glyph unicode="z" horiz-adv-x="993" d="M858 741l-405 -475h421q29 0 36.5 -22.5t7.5 -110.5t-7.5 -110.5t-36.5 -22.5h-759q-29 0 -37 21t-8 102q0 58 7.5 83.5t28.5 51.5l418 492h-393q-29 0 -37 23t-8 110t8 110t37 23h731q29 0 36 -20.5t7 -100.5q0 -62 -8.5 -90t-38.5 -64z" />
<glyph unicode="{" horiz-adv-x="772" d="M41 524q0 78 9.5 100.5t39.5 22.5h39q43 0 59.5 52.5t16.5 203.5q0 103 4.5 165.5t26.5 138t63.5 116.5t119 69.5t189.5 28.5h64q30 0 39.5 -21t9.5 -100q0 -80 -8.5 -101t-36.5 -21h-49q-77 0 -99 -65t-22 -271q0 -270 -141 -318q141 -48 141 -317q0 -206 22 -271 t99 -65h49q28 0 36.5 -21.5t8.5 -101.5q0 -79 -9.5 -100t-39.5 -21h-64q-112 0 -189.5 28.5t-119 69.5t-63.5 116.5t-26.5 138t-4.5 165.5q0 151 -16.5 203.5t-59.5 52.5h-39q-30 0 -39.5 22.5t-9.5 100.5z" />
<glyph unicode="|" horiz-adv-x="702" d="M500 1370v-1732q0 -22 -9.5 -32t-41 -15t-99.5 -5q-67 0 -98 5t-40 15t-9 32v1732q0 32 25 41.5t122 9.5q68 0 99.5 -4.5t41 -14.5t9.5 -32z" />
<glyph unicode="}" horiz-adv-x="772" d="M731 524q0 -78 -9.5 -100.5t-39.5 -22.5h-39q-43 0 -59.5 -52.5t-16.5 -203.5q0 -103 -4.5 -165.5t-26.5 -138t-63.5 -116.5t-119 -69.5t-189.5 -28.5h-64q-30 0 -39.5 21t-9.5 100q0 80 8.5 101.5t36.5 21.5h49q77 0 99 65t22 271q0 268 142 317q-142 49 -142 318 q0 206 -22 271t-99 65h-49q-28 0 -36.5 21t-8.5 101q0 79 9.5 100t39.5 21h64q112 0 189.5 -28.5t119 -69.5t63.5 -116.5t26.5 -138t4.5 -165.5q0 -151 16.5 -203.5t59.5 -52.5h39q30 0 39.5 -22.5t9.5 -100.5z" />
<glyph unicode="~" d="M541 719l149 -76q53 -27 80 -27q70 0 96 97q5 21 23 26.5t84 5.5q65 0 84 -10.5t10 -46.5q-15 -64 -37 -114t-57 -94t-88 -67.5t-121 -23.5q-69 0 -137 35l-150 76q-48 26 -80 26q-37 0 -59.5 -23t-36.5 -73q-5 -21 -22.5 -27t-81.5 -6q-66 0 -85 11t-12 47 q16 64 38.5 114t58 94t88.5 67.5t121 23.5q67 0 135 -35z" />
<glyph unicode="&#xa1;" horiz-adv-x="618" d="M309 532q86 0 110.5 -10t26.5 -43l46 -764q2 -37 -32 -49t-151 -12q-116 0 -150 12t-32 49l45 764q1 23 10.5 33.5t37.5 15t89 4.5zM309 666q-81 0 -116 4.5t-47.5 15.5t-12.5 37v235q0 28 12 40t47 17t117 5q81 0 116 -5t46.5 -17t11.5 -40v-235q0 -26 -12 -37 t-46.5 -15.5t-115.5 -4.5z" />
<glyph unicode="&#xa2;" horiz-adv-x="1077" d="M575 -4q-91 0 -113 7t-22 38v123q-183 34 -269.5 161t-86.5 357t86.5 358t269.5 160v125q0 31 22.5 39t112.5 8q92 0 115 -8t23 -39v-125q287 -49 297 -323q1 -32 -11.5 -45.5t-45.5 -18t-111 -4.5q-63 0 -93 6t-39 17t-10 36q-2 38 -30 56t-90 18q-96 0 -133 -57 t-37 -203q0 -145 38 -202.5t134 -57.5q122 0 125 82q3 36 27.5 47.5t113.5 11.5q114 0 142 -11t28 -56q-2 -130 -75 -218t-230 -114v-123q0 -31 -22.5 -38t-115.5 -7z" />
<glyph unicode="&#xa3;" horiz-adv-x="1232" d="M270 0q-33 -17 -58.5 5.5t-66.5 98.5q-20 37 -30 58t-16.5 44.5t-0.5 38t25 23.5q58 30 97.5 94.5t39.5 137.5q0 36 -6 71h-137q-26 0 -32.5 19.5t-6.5 95.5q0 77 6.5 96t32.5 19h59q-35 103 -35 182q0 190 120.5 291.5t367.5 101.5q242 0 357.5 -91t117.5 -281 q0 -51 -30 -64.5t-134 -13.5q-99 0 -128.5 11t-31.5 48q-3 107 -153 107q-156 0 -156 -129q0 -75 25 -162h274q25 0 32 -20t7 -95q0 -74 -7 -94.5t-32 -20.5h-207q8 -62 8 -92q0 -89 -39 -178q98 -31 177 -31q67 0 95 30.5t30 105.5q2 36 31.5 46.5t129.5 10.5 q102 0 133 -14.5t31 -63.5q0 -113 -28.5 -192.5t-81 -122t-114.5 -60.5t-140 -18q-205 0 -396 110q-64 -67 -129 -102z" />
<glyph unicode="&#xa4;" horiz-adv-x="1181" d="M106 326l80 80q-51 105 -51 270t51 270l-80 80q-14 13 -5 32t53 64q44 43 62.5 52t33.5 -5l74 -75q106 59 268 59q163 0 266 -59l76 75q13 14 31.5 5t64.5 -52q43 -46 52 -64.5t-5 -31.5l-80 -80q52 -107 52 -270t-52 -270l80 -80q14 -13 4.5 -32.5t-51.5 -64.5 q-46 -43 -64.5 -52t-31.5 5l-76 74q-105 -57 -266 -57q-160 0 -268 57l-74 -74q-15 -14 -33.5 -5t-62.5 52q-43 45 -52.5 64.5t4.5 32.5zM592 461q97 0 139.5 49.5t42.5 165.5t-42.5 165.5t-139.5 49.5q-99 0 -141.5 -49.5t-42.5 -165.5t42.5 -165.5t141.5 -49.5z" />
<glyph unicode="&#xa5;" horiz-adv-x="1220" d="M1065 317h-283v-268q0 -25 -11 -35.5t-45.5 -15t-115.5 -4.5q-80 0 -114 4.5t-45 15t-11 35.5v268h-284q-24 0 -30.5 18.5t-6.5 88.5q0 72 6.5 90t30.5 18h256l-54 105h-202q-24 0 -30.5 18.5t-6.5 87.5q0 71 6.5 90t30.5 19h96q-141 296 -199 446q-15 36 17 48 q34 14 145 14q113 0 143.5 -9.5t42.5 -47.5q73 -206 209 -512q134 309 209 512q9 26 23 37t49 15.5t115 4.5q39 0 67.5 -1.5t48 -5t30.5 -8t15.5 -12t4 -16t-4.5 -19.5q-75 -194 -198 -446h96q25 0 31 -18.5t6 -90.5q0 -71 -6 -88.5t-31 -17.5h-201l-55 -105h256 q25 0 31 -17.5t6 -90.5q0 -71 -6 -89t-31 -18z" />
<glyph unicode="&#xa6;" horiz-adv-x="702" d="M500 315v-677q0 -22 -9.5 -32t-41 -15t-99.5 -5q-67 0 -98 5t-40 15t-9 32v677q0 22 9 32t40 15t98 5q68 0 99.5 -5t41 -15t9.5 -32zM500 1370v-678q0 -22 -9.5 -32t-41 -14.5t-99.5 -4.5q-97 0 -122 9.5t-25 41.5v678q0 32 25 41.5t122 9.5q68 0 99.5 -4.5t41 -14.5 t9.5 -32z" />
<glyph unicode="&#xa7;" horiz-adv-x="1196" d="M397 -68q3 -45 37.5 -67.5t118.5 -22.5q96 0 131 29.5t35 101.5q0 61 -49 90t-185 64q-69 17 -115 32.5t-99.5 44.5t-85 65t-53 93.5t-21.5 131.5q0 204 172 282q-127 101 -127 262q0 166 106.5 252t345.5 86q119 0 202.5 -19.5t131.5 -58.5t69 -91t21 -124 q0 -30 -10 -43t-39.5 -18.5t-97.5 -5.5q-63 0 -90 4.5t-35.5 14t-9.5 32.5q-2 41 -33 61.5t-103 20.5q-147 0 -147 -105q0 -67 54 -106t171 -72q155 -43 212 -71q125 -62 156 -183q11 -45 11 -100q0 -196 -145 -276q100 -90 100 -261q0 -176 -106.5 -267t-354.5 -91 q-104 0 -182.5 14.5t-128.5 39.5t-81 63t-43.5 82t-12.5 100q0 44 24.5 56t120.5 12q63 0 91 -5t35.5 -14.5t8.5 -32.5zM784 496q0 32 -13.5 56.5t-27 39t-54.5 30t-59 20.5t-78 20q-3 1 -5 1.5t-5 1t-5 1.5q-59 -14 -96.5 -51.5t-37.5 -90.5q0 -30 13.5 -54.5t31 -40 t53.5 -31t62 -23.5t74 -21q8 -4 14 -4q133 23 133 146z" />
<glyph unicode="&#xa8;" horiz-adv-x="782" d="M176 1401q99 0 126.5 -13t27.5 -63v-115q0 -49 -28 -62t-126 -13q-101 0 -127 14t-26 68v108q0 50 26.5 63t126.5 13zM606 1401q99 0 126.5 -13t27.5 -63v-115q0 -49 -28 -62t-126 -13q-101 0 -127 14t-26 68v108q0 50 26.5 63t126.5 13z" />
<glyph unicode="&#xa9;" horiz-adv-x="1626" d="M494 676q0 204 78 296.5t251 92.5q143 0 219 -66.5t78 -187.5q0 -29 -18 -37t-80 -8q-61 0 -78.5 7.5t-17.5 31.5q-3 44 -26 66t-73 22q-75 0 -104 -46.5t-29 -170.5q0 -126 29 -171.5t104 -45.5q100 0 103 94q0 22 17 29.5t77 7.5q61 0 79.5 -7t18.5 -34 q0 -127 -75.5 -194.5t-223.5 -67.5q-173 0 -251 92.5t-78 296.5zM813 1374q355 0 516.5 -166.5t161.5 -529.5q0 -364 -161 -530t-517 -166q-357 0 -518.5 166t-161.5 530q0 363 161.5 529.5t518.5 166.5zM813 147q271 0 385.5 120t114.5 411t-114.5 409.5t-385.5 118.5 q-182 0 -290 -50.5t-160 -166t-52 -311.5q0 -291 115.5 -411t386.5 -120z" />
<glyph unicode="&#xaa;" horiz-adv-x="761" d="M449 963h-107q-45 0 -62.5 -12t-17.5 -44q0 -28 17.5 -38.5t54.5 -10.5q52 0 83.5 21t31.5 61v23zM293 1163q0 -21 -14 -25.5t-80 -4.5q-68 0 -85.5 7t-17.5 36q0 96 64.5 147t212.5 51q159 0 220.5 -57t61.5 -178v-387q0 -24 -17 -30.5t-85 -6.5q-67 0 -83.5 6.5 t-18.5 30.5l-2 45q-57 -88 -183 -88q-103 0 -150.5 51t-47.5 133q0 101 57 144.5t186 43.5h138v47q0 46 -15.5 62t-66.5 16q-40 0 -57 -10.5t-17 -32.5z" />
<glyph unicode="&#xab;" horiz-adv-x="1214" d="M86 565q0 45 23 78l167 242q20 28 51.5 35.5t123.5 7.5q150 0 150 -36q-1 -9 -7 -18l-219 -309l219 -309q25 -37 -44 -48q-35 -5 -99 -5q-92 0 -123.5 7.5t-51.5 35.5l-167 241q-23 33 -23 78zM590 565q0 47 22 78l168 242q20 28 51 35.5t123 7.5q151 0 151 -36 q0 -8 -7 -18l-219 -309l219 -309q25 -38 -47 -48q-35 -5 -97 -5q-92 0 -123 7.5t-51 35.5l-168 241q-22 31 -22 78z" />
<glyph unicode="&#xad;" horiz-adv-x="847" d="M141 692h568q20 0 28.5 -9t12.5 -36t4 -88t-4 -88t-12.5 -36t-28.5 -9h-568q-30 0 -39.5 23t-9.5 110t9.5 110t39.5 23z" />
<glyph unicode="&#xae;" horiz-adv-x="1136" d="M569 1372q240 0 349.5 -114.5t109.5 -352.5q0 -239 -109.5 -354t-349.5 -115t-350 115t-110 354q0 238 110 352.5t350 114.5zM569 565q180 0 251 77t71 263q0 184 -71.5 261t-250.5 77t-251 -77t-72 -261q0 -186 71.5 -263t251.5 -77zM559 834h-29v-146q0 -12 -12 -16 t-51 -4q-40 0 -52 4t-12 16v430q0 10 10.5 14.5t43.5 4.5h129q99 0 142.5 -37t43.5 -117q0 -90 -78 -127q26 -16 43 -39q39 -53 45 -125q2 -13 -10 -17.5t-55 -4.5q-34 0 -44.5 4t-13.5 16q-10 52 -24 80q-25 64 -76 64zM530 1030v-100h54q38 0 52.5 10.5t14.5 38.5 q0 30 -14 40.5t-53 10.5h-54z" />
<glyph unicode="&#xaf;" horiz-adv-x="782" d="M688 1147h-596q-24 0 -29.5 16t-5.5 86t6 87.5t29 17.5h596q23 0 29 -17.5t6 -87.5t-5.5 -86t-29.5 -16z" />
<glyph unicode="&#xb0;" horiz-adv-x="765" d="M383 1372q287 0 287 -278q0 -139 -70.5 -209t-216.5 -70q-289 0 -289 279q0 278 289 278zM383 977q63 0 90 27.5t27 89.5q0 61 -27.5 88.5t-89.5 27.5t-89.5 -27.5t-27.5 -88.5q0 -62 27 -89.5t90 -27.5z" />
<glyph unicode="&#xb1;" d="M717 1225v-271h282q20 0 28.5 -8.5t12.5 -35t4 -85.5t-4 -85.5t-12.5 -35t-28.5 -8.5h-282v-270q0 -20 -9 -28.5t-36 -12.5t-88 -4t-88 4t-36 12.5t-9 28.5v270h-281q-30 0 -38.5 22t-8.5 107t8.5 107t38.5 22h281v271q0 30 23 38.5t110 8.5t110 -8.5t23 -38.5zM170 260 h829q28 0 36.5 -22.5t8.5 -108.5q0 -59 -4 -85.5t-12.5 -35t-28.5 -8.5h-829q-30 0 -38.5 22t-8.5 107q0 86 8.5 108.5t38.5 22.5z" />
<glyph unicode="&#xb2;" horiz-adv-x="741" d="M621 651h-508q-19 0 -25 14.5t-6 71.5v25q0 29 11 55t24.5 44t41.5 40t45.5 32.5t54 32t50.5 29.5q61 36 93 68.5t32 77.5q0 67 -67 67q-38 0 -57.5 -14.5t-20.5 -50.5q-2 -24 -19.5 -30.5t-79.5 -6.5t-81.5 8.5t-18.5 34.5q0 120 72 174.5t211 54.5q137 0 199.5 -60 t62.5 -161q0 -48 -14.5 -88t-43.5 -71t-55.5 -51t-66.5 -44q-15 -10 -62 -37t-65 -41h293q17 0 21.5 -14t4.5 -74q0 -58 -4.5 -72t-21.5 -14z" />
<glyph unicode="&#xb3;" horiz-adv-x="741" d="M348 946h-57q-16 0 -20.5 11.5t-4.5 56.5q0 47 4.5 57t20.5 10h61q50 0 69 15.5t19 56.5q0 33 -19.5 46t-58.5 13t-57.5 -10.5t-19.5 -34.5q-2 -22 -18 -28t-79 -6q-64 0 -82 8t-18 37q1 107 72.5 154.5t208.5 47.5q136 0 203 -55t67 -156q0 -109 -90 -151 q100 -34 100 -158q0 -106 -70.5 -162.5t-207.5 -56.5q-141 0 -214.5 47.5t-74.5 153.5q-1 29 17 37t81 8q64 0 80.5 -6.5t18.5 -30.5q6 -41 86 -41q44 0 65 16.5t21 53.5t-24 52t-79 15z" />
<glyph unicode="&#xb4;" horiz-adv-x="782" d="M604 1274l-352 -148q-23 -10 -36 0t-38 58q-26 49 -27 65t21 29l326 205q20 13 38.5 -2.5t53.5 -83.5q24 -46 31.5 -71t3 -35t-20.5 -17z" />
<glyph unicode="&#xb6;" horiz-adv-x="1206" d="M1108 1130h-100q-68 0 -90.5 -22t-22.5 -90v-1034q0 -93 -15 -160t-40.5 -107.5t-68.5 -64t-89.5 -31.5t-112.5 -8q-81 0 -135 16q-33 9 -43 33t-10 100q0 92 10.5 117t42.5 25q8 0 29.5 -2t30.5 -2q44 0 64 23.5t20 90.5v416h-21q-131 0 -215.5 21.5t-142 77t-81.5 148 t-24 236.5q0 190 46.5 295t144 147t272.5 42h551q29 0 37 -23t8 -110q0 -88 -8 -111t-37 -23z" />
<glyph unicode="&#xb7;" horiz-adv-x="546" d="M274 377q-81 0 -116 4.5t-47.5 15.5t-12.5 37v236q0 28 12 40t47 16.5t117 4.5q81 0 116 -4.5t47 -16.5t12 -40v-236q0 -26 -12 -37t-47 -15.5t-116 -4.5z" />
<glyph unicode="&#xb8;" horiz-adv-x="782" d="M446 -84h9q117 0 168 -33.5t51 -140.5q0 -58 -13.5 -96t-43.5 -58t-67.5 -28t-94.5 -9h-211q-17 0 -21 12.5t-4 63.5q0 50 4 62t21 12h202q31 2 42.5 10t11.5 31q0 24 -14 32.5t-52 8.5h-106q-42 0 -57.5 8.5t-8.5 30.5l55 176q4 15 18 18.5t64 3.5q45 0 57 -4.5t9 -21.5 z" />
<glyph unicode="&#xb9;" horiz-adv-x="741" d="M610 651h-458q-19 0 -24 14t-5 72q0 59 5 73.5t24 14.5h133v351l-123 -21q-20 -5 -26.5 12t-6.5 76q0 55 5.5 70t23.5 18l284 47q45 9 45 -26v-527h123q18 0 22.5 -14.5t4.5 -73.5q0 -57 -4.5 -71.5t-22.5 -14.5z" />
<glyph unicode="&#xba;" horiz-adv-x="796" d="M297 1040q0 -92 21 -127.5t79 -35.5t79.5 35.5t21.5 127.5q0 91 -21.5 127.5t-79.5 36.5q-57 0 -78.5 -36.5t-21.5 -127.5zM86 1040q0 172 73 253t238 81t238.5 -81.5t73.5 -252.5q0 -172 -73.5 -252.5t-238.5 -80.5t-238 80t-73 253z" />
<glyph unicode="&#xbb;" horiz-adv-x="1214" d="M625 565q0 -45 -23 -78l-168 -241q-20 -28 -51 -35.5t-123 -7.5q-150 0 -150 34q0 8 7 19l219 309l-219 309q-26 37 47 48q36 6 96 6q92 0 123 -7.5t51 -35.5l168 -242q23 -33 23 -78zM1128 565q0 -47 -22 -78l-168 -241q-20 -28 -51 -35.5t-123 -7.5q-150 0 -150 34 q0 8 7 19l219 309l-219 309q-26 37 47 48q36 6 96 6q92 0 123 -7.5t51 -35.5l168 -242q22 -31 22 -78z" />
<glyph unicode="&#xbc;" horiz-adv-x="1740" d="M1411 1305l-686 -1260q-12 -23 -20 -31t-35.5 -13t-87.5 -5q-75 0 -94.5 11t-4.5 42l688 1262q12 23 20 30.5t36.5 13t87.5 5.5q39 0 61.5 -2.5t33 -9.5t10.5 -17t-9 -26zM1468 -2q-66 0 -83 6.5t-17 28.5v135h-307q-20 0 -25.5 13t-5.5 65q0 35 4 50t17 32l288 370 q14 18 34 22.5t85 4.5q71 0 91 -6t20 -27v-360h71q19 0 24 -14t5 -68q0 -55 -5 -68.5t-24 -13.5h-71v-135q0 -22 -17 -28.5t-84 -6.5zM610 647h-458q-19 0 -24 14t-5 72q0 59 5 73.5t24 14.5h133v350l-123 -20q-20 -5 -26.5 12t-6.5 76q0 55 5.5 70t23.5 18l284 47 q45 9 45 -26v-527h123q18 0 22.5 -14.5t4.5 -73.5q0 -57 -4.5 -71.5t-22.5 -14.5zM1208 332h170v211z" />
<glyph unicode="&#xbd;" horiz-adv-x="1740" d="M1358 1305l-686 -1260q-12 -23 -20.5 -31t-36 -13t-87.5 -5q-75 0 -94 11t-4 42l688 1262q12 23 20 30.5t36.5 13t87.5 5.5q39 0 61.5 -2.5t33 -9.5t10.5 -17t-9 -26zM1620 -12h-508q-19 0 -25 14.5t-6 71.5v24q0 29 11 55t24.5 44t42 40t45.5 33t54.5 32.5t50.5 29.5 q61 36 93 68t32 77q0 68 -68 68q-38 0 -57.5 -15t-20.5 -51q-2 -24 -19 -30.5t-79 -6.5t-81.5 8.5t-18.5 34.5q0 121 72 175.5t210 54.5q137 0 199.5 -60t62.5 -161q0 -48 -14.5 -88t-43.5 -71t-55.5 -51t-66.5 -44q-15 -10 -62 -37t-65 -41h293q18 0 22.5 -14.5t4.5 -73.5 q0 -57 -4.5 -71.5t-22.5 -14.5zM610 647h-458q-19 0 -24 14t-5 72q0 59 5 73.5t24 14.5h133v350l-123 -20q-20 -5 -26.5 12t-6.5 76q0 55 5.5 70t23.5 18l284 47q45 9 45 -26v-527h123q18 0 22.5 -14.5t4.5 -73.5q0 -57 -4.5 -71.5t-22.5 -14.5z" />
<glyph unicode="&#xbe;" horiz-adv-x="1740" d="M1382 1305l-686 -1260q-12 -23 -20 -31t-35.5 -13t-87.5 -5q-75 0 -94 11t-4 42l688 1262q12 23 20 30.5t36 13t87 5.5q39 0 61.5 -2.5t33 -9.5t10.5 -17t-9 -26zM348 942h-57q-16 0 -20.5 11.5t-4.5 56.5q0 47 4.5 57t20.5 10h61q50 0 69 15.5t19 56.5q0 33 -19.5 46 t-58.5 13t-57.5 -10.5t-19.5 -34.5q-1 -16 -7.5 -22.5t-26 -9.5t-63.5 -3q-63 0 -81.5 8.5t-18.5 37.5q1 107 72.5 154.5t208.5 47.5q136 0 203 -55t67 -156q0 -109 -90 -151q100 -34 100 -158q0 -106 -70.5 -162.5t-207.5 -56.5q-141 0 -214.5 47.5t-74.5 153.5 q-1 29 17 37t81 8q64 0 80.5 -6.5t18.5 -30.5q6 -41 86 -41q45 0 65.5 16.5t20.5 52.5q0 38 -24 53t-79 15zM1468 -2q-66 0 -83 6.5t-17 28.5v135h-307q-20 0 -25.5 13t-5.5 65q0 35 4 50t17 32l288 370q14 18 34 22.5t85 4.5q71 0 91 -6t20 -27v-360h71q19 0 24 -14t5 -68 q0 -55 -5 -68.5t-24 -13.5h-71v-135q0 -22 -17 -28.5t-84 -6.5zM1208 332h170v211z" />
<glyph unicode="&#xbf;" horiz-adv-x="1140" d="M442 461l4 33q3 32 26.5 40.5t117.5 8.5q68 0 97 -4.5t37.5 -13t10.5 -31.5l4 -43q3 -51 -17 -93.5t-52 -70t-70.5 -56.5t-72 -53.5t-56 -60.5t-22.5 -78q0 -62 32 -89.5t101 -27.5q74 0 109.5 28t39.5 95q1 25 12 37t44.5 18t103.5 6q106 0 136.5 -14t29.5 -61 q-1 -204 -124.5 -297.5t-361.5 -93.5q-121 0 -211.5 28.5t-142.5 79t-77 112.5t-25 136q0 66 17.5 119t45 87.5t61.5 62t68.5 49t63.5 42t48.5 47t22.5 58.5zM592 666q-81 0 -116 4.5t-47.5 15.5t-12.5 37v235q0 28 12 40t47 17t117 5q81 0 116 -5t46.5 -17t11.5 -40v-235 q0 -26 -12 -37t-46.5 -15.5t-115.5 -4.5z" />
<glyph unicode="&#xc0;" horiz-adv-x="1280" d="M1077 -4q-117 0 -151 11.5t-41 55.5q-2 11 -51 236h-390q-33 -150 -49 -236q-7 -44 -41.5 -55.5t-152.5 -11.5q-103 0 -132.5 12t-21.5 49q58 255 171.5 645.5t197.5 600.5q14 35 55.5 46t167.5 11q128 0 169.5 -11t55.5 -46q82 -209 195.5 -599t173.5 -647 q8 -37 -21.5 -49t-134.5 -12zM625 1456l-371 135q-17 7 -22 17t1.5 37t28.5 77q23 49 39 72t28.5 25t24.5 -7l348 -196q22 -12 22 -29.5t-24 -68.5q-24 -50 -36.5 -61t-38.5 -1zM639 1016q-82 -277 -125 -445h250q-61 237 -125 445z" />
<glyph unicode="&#xc1;" horiz-adv-x="1280" d="M1077 -4q-117 0 -151 11.5t-41 55.5q-2 11 -51 236h-390q-33 -150 -49 -236q-7 -44 -41.5 -55.5t-152.5 -11.5q-103 0 -132.5 12t-21.5 49q58 255 171.5 645.5t197.5 600.5q14 35 55.5 46t167.5 11q128 0 169.5 -11t55.5 -46q82 -209 195.5 -599t173.5 -647 q8 -37 -21.5 -49t-134.5 -12zM1028 1591l-373 -135q-24 -10 -36.5 1t-36.5 61q-26 52 -26 69t24 29l346 196q22 14 40.5 -2t53.5 -88q32 -72 32 -96.5t-24 -34.5zM639 1016q-82 -277 -125 -445h250q-61 237 -125 445z" />
<glyph unicode="&#xc2;" horiz-adv-x="1280" d="M1077 -4q-117 0 -151 11.5t-41 55.5q-2 11 -51 236h-390q-33 -150 -49 -236q-7 -44 -41.5 -55.5t-152.5 -11.5q-103 0 -132.5 12t-21.5 49q58 255 171.5 645.5t197.5 600.5q14 35 55.5 46t167.5 11q128 0 169.5 -11t55.5 -46q82 -209 195.5 -599t173.5 -647 q8 -37 -21.5 -49t-134.5 -12zM641 1577l-100 -94q-21 -20 -42.5 -26.5t-72.5 -6.5q-110 0 -107 29q1 8 7 16l182 217q19 26 42.5 34.5t90.5 8.5q66 0 89 -8.5t42 -34.5l184 -217q27 -34 -44 -42l-58 -3q-50 0 -71 6.5t-42 26.5zM639 1016q-82 -277 -125 -445h250 q-61 237 -125 445z" />
<glyph unicode="&#xc3;" horiz-adv-x="1280" d="M1077 -4q-117 0 -151 11.5t-41 55.5q-2 11 -51 236h-390q-33 -150 -49 -236q-7 -44 -41.5 -55.5t-152.5 -11.5q-103 0 -132.5 12t-21.5 49q58 255 171.5 645.5t197.5 600.5q14 35 55.5 46t167.5 11q128 0 169.5 -11t55.5 -46q82 -209 195.5 -599t173.5 -647 q8 -37 -21.5 -49t-134.5 -12zM801 1673l2 25q2 24 16.5 30.5t73.5 6.5q55 0 72 -7t16 -30l-4 -74q-10 -178 -182 -174q-62 0 -146 41l-90 49q-24 12 -43 12q-18 0 -27 -9t-10 -32v-26q-2 -22 -17.5 -28.5t-72.5 -6.5q-55 0 -73 7t-17 30l4 72q13 176 186 176q64 0 144 -43 l88 -47q27 -15 45 -15q35 0 35 43zM639 1016q-82 -277 -125 -445h250q-61 237 -125 445z" />
<glyph unicode="&#xc4;" horiz-adv-x="1280" d="M1077 -4q-117 0 -151 11.5t-41 55.5q-2 11 -51 236h-390q-33 -150 -49 -236q-7 -44 -41.5 -55.5t-152.5 -11.5q-103 0 -132.5 12t-21.5 49q58 255 171.5 645.5t197.5 600.5q14 35 55.5 46t167.5 11q128 0 169.5 -11t55.5 -46q82 -209 195.5 -599t173.5 -647 q8 -37 -21.5 -49t-134.5 -12zM862 1724q98 0 125 -13t27 -62v-117q0 -49 -27.5 -62.5t-124.5 -13.5q-100 0 -125.5 14.5t-25.5 69.5v109q0 49 26 62t125 13zM420 1724q98 0 124.5 -13t26.5 -62v-117q0 -49 -27 -62.5t-124 -13.5q-100 0 -126 14.5t-26 69.5v109q0 49 26.5 62 t125.5 13zM639 1016q-82 -277 -125 -445h250q-61 237 -125 445z" />
<glyph unicode="&#xc5;" horiz-adv-x="1280" d="M1077 -4q-117 0 -151 11.5t-41 55.5q-2 11 -51 236h-390q-33 -150 -49 -236q-7 -44 -41.5 -55.5t-152.5 -11.5q-103 0 -132.5 12t-21.5 49q58 255 171.5 645.5t197.5 600.5q7 17 14 24q-22 49 -22 115q0 215 231 215t231 -215q0 -64 -22 -113q12 -16 16 -26 q82 -209 195.5 -599t173.5 -647q8 -37 -21.5 -49t-134.5 -12zM639 1016q-82 -277 -125 -445h250q-61 237 -125 445zM639 1362q86 0 86 80t-86 80t-86 -80t86 -80z" />
<glyph unicode="&#xc6;" horiz-adv-x="1921" d="M1761 1067h-491v-231h416q23 0 33 -9t14 -38.5t4 -96.5t-4 -96t-14 -38t-33 -9h-416v-260h504q21 0 30.5 -9.5t14 -39.5t4.5 -95q0 -96 -9 -120.5t-40 -24.5h-668q-81 0 -116 4.5t-46.5 15t-11.5 35.5v256h-436q-71 -165 -101 -248q-17 -44 -54 -55.5t-155 -11.5 q-96 0 -127 12t-16 49q120 289 286.5 648.5t293.5 590.5q15 26 33 37t61.5 17t130.5 6h913q32 0 41.5 -25.5t9.5 -120.5q0 -66 -4.5 -96t-14.5 -38.5t-32 -8.5zM846 1075q-92 -189 -225 -477h311v477h-86z" />
<glyph unicode="&#xc7;" horiz-adv-x="1271" d="M684 -82h8q60 0 97.5 -6t69 -24t45.5 -54.5t14 -93.5q0 -116 -54.5 -156.5t-173.5 -40.5h-217q-17 0 -20.5 12t-3.5 66q0 52 3.5 63t20.5 11h211q30 1 41.5 11t11.5 34q0 25 -14 34t-51 9h-111q-43 0 -58 8t-9 31l51 166q-238 31 -344.5 195t-106.5 495 q0 371 135.5 534.5t444.5 163.5q247 0 376 -115t132 -325q0 -47 -30.5 -59.5t-137.5 -12.5q-103 0 -133 12t-33 50q-3 77 -43 115t-129 38q-91 0 -140 -35t-71.5 -121t-22.5 -245t22.5 -245t71.5 -121.5t140 -35.5q89 0 131 39.5t47 122.5q1 26 12.5 38.5t46 18t105.5 5.5 q106 0 137.5 -12.5t30.5 -57.5q-3 -215 -125.5 -329.5t-364.5 -120.5z" />
<glyph unicode="&#xc8;" d="M1010 1067h-539v-231h463q32 0 40.5 -24t8.5 -120t-8.5 -119.5t-40.5 -23.5h-463v-260h549q21 0 30.5 -9.5t14 -39.5t4.5 -95q0 -96 -9 -120.5t-40 -24.5h-715q-80 0 -114.5 4.5t-46 15t-11.5 35.5v1243q0 25 11 36.5t47 16.5t114 5h705q21 0 30.5 -9.5t14 -40t4.5 -96.5 q0 -95 -9 -119t-40 -24zM618 1456l-370 135q-17 7 -22 17t1.5 37t28.5 77q23 49 39 72t28.5 25t24.5 -7l348 -196q22 -12 22 -29.5t-24 -68.5q-24 -50 -37 -61t-39 -1z" />
<glyph unicode="&#xc9;" d="M1010 1067h-539v-231h463q32 0 40.5 -24t8.5 -120t-8.5 -119.5t-40.5 -23.5h-463v-260h549q21 0 30.5 -9.5t14 -39.5t4.5 -95q0 -96 -9 -120.5t-40 -24.5h-715q-80 0 -114.5 4.5t-46 15t-11.5 35.5v1243q0 25 11 36.5t47 16.5t114 5h705q21 0 30.5 -9.5t14 -40t4.5 -96.5 q0 -95 -9 -119t-40 -24zM934 1591l-373 -135q-24 -10 -37 1t-37 61q-26 52 -26 69t24 29l346 196q22 14 41 -2.5t54 -87.5q32 -72 32 -96.5t-24 -34.5z" />
<glyph unicode="&#xca;" d="M1010 1067h-539v-231h463q32 0 40.5 -24t8.5 -120t-8.5 -119.5t-40.5 -23.5h-463v-260h549q21 0 30.5 -9.5t14 -39.5t4.5 -95q0 -96 -9 -120.5t-40 -24.5h-715q-80 0 -114.5 4.5t-46 15t-11.5 35.5v1243q0 25 11 36.5t47 16.5t114 5h705q21 0 30.5 -9.5t14 -40t4.5 -96.5 q0 -95 -9 -119t-40 -24zM604 1577l-100 -94q-21 -20 -42.5 -26.5t-72.5 -6.5q-110 0 -107 29q1 8 7 16l182 217q19 26 42.5 34.5t90.5 8.5q66 0 89 -8.5t42 -34.5l185 -217q26 -33 -42 -42q-24 -3 -61 -3q-50 0 -70 6.5t-42 26.5z" />
<glyph unicode="&#xcb;" d="M1010 1067h-539v-231h463q32 0 40.5 -24t8.5 -120t-8.5 -119.5t-40.5 -23.5h-463v-260h549q21 0 30.5 -9.5t14 -39.5t4.5 -95q0 -96 -9 -120.5t-40 -24.5h-715q-80 0 -114.5 4.5t-46 15t-11.5 35.5v1243q0 25 11 36.5t47 16.5t114 5h705q21 0 30.5 -9.5t14 -40t4.5 -96.5 q0 -95 -9 -119t-40 -24zM385 1724q98 0 125 -13t27 -62v-117q0 -49 -27.5 -62.5t-124.5 -13.5q-100 0 -126 14.5t-26 69.5v109q0 49 26.5 62t125.5 13zM827 1724q98 0 125 -13t27 -62v-117q0 -49 -27.5 -62.5t-124.5 -13.5q-100 0 -125.5 14.5t-25.5 69.5v109q0 49 26 62 t125 13z" />
<glyph unicode="&#xcc;" horiz-adv-x="614" d="M307 -6q-78 0 -113 5t-46 15.5t-11 34.5v1256q0 25 11 35.5t45 15t114 4.5t114 -4.5t45 -15t11 -35.5v-1256q0 -24 -11 -34.5t-46 -15.5t-113 -5zM291 1456l-371 135q-17 7 -22 17t1.5 37t28.5 77q23 49 39 72t28.5 25t24.5 -7l349 -196q22 -12 22 -29.5t-24 -68.5 q-24 -50 -37 -61t-39 -1z" />
<glyph unicode="&#xcd;" horiz-adv-x="614" d="M307 -6q-78 0 -113 5t-46 15.5t-11 34.5v1256q0 25 11 35.5t45 15t114 4.5t114 -4.5t45 -15t11 -35.5v-1256q0 -24 -11 -34.5t-46 -15.5t-113 -5zM694 1591l-372 -135q-24 -10 -37 1t-37 61q-26 52 -26 69t24 29l346 196q22 14 40.5 -2t53.5 -88q32 -72 32 -96.5 t-24 -34.5z" />
<glyph unicode="&#xce;" horiz-adv-x="614" d="M307 -6q-78 0 -113 5t-46 15.5t-11 34.5v1256q0 25 11 35.5t45 15t114 4.5t114 -4.5t45 -15t11 -35.5v-1256q0 -24 -11 -34.5t-46 -15.5t-113 -5zM307 1577l-100 -94q-21 -20 -42.5 -26.5t-72.5 -6.5q-110 0 -107 29q1 8 7 16l182 217q19 26 42.5 34.5t90.5 8.5 q66 0 89 -8.5t42 -34.5l185 -217q26 -33 -42 -42q-24 -3 -61 -3q-50 0 -70 6.5t-42 26.5z" />
<glyph unicode="&#xcf;" horiz-adv-x="614" d="M307 -6q-78 0 -113 5t-46 15.5t-11 34.5v1256q0 25 11 35.5t45 15t114 4.5t114 -4.5t45 -15t11 -35.5v-1256q0 -24 -11 -34.5t-46 -15.5t-113 -5zM86 1724q98 0 125 -13t27 -62v-117q0 -49 -27.5 -62.5t-124.5 -13.5q-100 0 -126 14.5t-26 69.5v109q0 49 26.5 62 t125.5 13zM528 1724q98 0 125 -13t27 -62v-117q0 -49 -27.5 -62.5t-124.5 -13.5q-100 0 -125.5 14.5t-25.5 69.5v109q0 49 26 62t125 13z" />
<glyph unicode="&#xd0;" horiz-adv-x="1298" d="M616 0h-307q-80 0 -114.5 4.5t-46 15t-11.5 35.5v496h-78q-23 0 -28.5 16.5t-5.5 87.5q0 69 5.5 86t28.5 17h78v540q0 25 11 36.5t47 16.5t114 5h307q316 0 452 -158t136 -520t-136 -520t-452 -158zM477 293h139q132 0 186 84t54 301q0 216 -54 300.5t-186 84.5h-139 v-305h156q23 0 29 -17t6 -86q0 -70 -6 -87t-29 -17h-156v-258z" />
<glyph unicode="&#xd1;" horiz-adv-x="1396" d="M1096 1360q80 0 114 -4.5t45 -15t11 -35.5v-1252q0 -25 -12 -36t-51 -16t-128 -5q-92 0 -124 9.5t-46 37.5l-432 752v-744q0 -25 -11 -35.5t-45 -15t-114 -4.5q-81 0 -115 4.5t-44.5 15t-10.5 35.5v1252q0 26 11.5 36.5t50 15.5t127.5 5q92 0 124 -9.5t46 -37.5l434 -758 v750q0 25 11 35.5t45 15t114 4.5zM858 1673l2 25q2 24 16.5 30.5t73.5 6.5q55 0 72 -7t16 -30l-4 -74q-10 -178 -182 -174q-61 0 -145 41l-91 49q-24 12 -43 12q-18 0 -26.5 -9t-9.5 -32v-26q-2 -22 -17.5 -28.5t-73.5 -6.5q-55 0 -73 7t-17 30l4 72q13 176 187 176 q63 0 143 -43l88 -47q27 -15 45 -15q35 0 35 43z" />
<glyph unicode="&#xd2;" horiz-adv-x="1359" d="M680 1376q314 0 450 -163t136 -535t-136 -535t-450 -163t-450 163t-136 535t136 535t450 163zM680 270q136 0 187 86.5t51 321.5q0 160 -22.5 247t-73 123.5t-142.5 36.5t-142.5 -36.5t-73 -123.5t-22.5 -247q0 -235 51 -321.5t187 -86.5zM674 1456l-371 135 q-17 7 -22 17t1.5 37t28.5 77q23 49 39 72t28.5 25t24.5 -7l349 -196q22 -12 22 -29.5t-24 -68.5q-24 -50 -37 -61t-39 -1z" />
<glyph unicode="&#xd3;" horiz-adv-x="1359" d="M680 1376q314 0 450 -163t136 -535t-136 -535t-450 -163t-450 163t-136 535t136 535t450 163zM680 270q136 0 187 86.5t51 321.5q0 160 -22.5 247t-73 123.5t-142.5 36.5t-142.5 -36.5t-73 -123.5t-22.5 -247q0 -235 51 -321.5t187 -86.5zM1057 1591l-373 -135 q-24 -10 -37 1t-37 61q-26 52 -26 69t24 29l346 196q22 14 41 -2.5t54 -87.5q32 -72 32 -96.5t-24 -34.5z" />
<glyph unicode="&#xd4;" horiz-adv-x="1359" d="M680 1376q314 0 450 -163t136 -535t-136 -535t-450 -163t-450 163t-136 535t136 535t450 163zM680 270q136 0 187 86.5t51 321.5q0 160 -22.5 247t-73 123.5t-142.5 36.5t-142.5 -36.5t-73 -123.5t-22.5 -247q0 -235 51 -321.5t187 -86.5zM680 1577l-100 -94 q-21 -20 -42.5 -26.5t-72.5 -6.5q-110 0 -107 29q1 8 7 16l182 217q19 26 42.5 34.5t90.5 8.5q66 0 89 -8.5t42 -34.5l184 -217q27 -34 -44 -42l-58 -3q-50 0 -71 6.5t-42 26.5z" />
<glyph unicode="&#xd5;" horiz-adv-x="1359" d="M680 1376q314 0 450 -163t136 -535t-136 -535t-450 -163t-450 163t-136 535t136 535t450 163zM680 270q136 0 187 86.5t51 321.5q0 160 -22.5 247t-73 123.5t-142.5 36.5t-142.5 -36.5t-73 -123.5t-22.5 -247q0 -235 51 -321.5t187 -86.5zM840 1673l2 25q2 24 16.5 30.5 t73.5 6.5q55 0 72 -7t16 -30l-4 -74q-10 -178 -182 -174q-62 0 -146 41l-90 49q-24 12 -43 12q-18 0 -27 -9t-10 -32v-26q-2 -22 -17.5 -28.5t-72.5 -6.5q-55 0 -73 7t-17 30l4 72q13 176 186 176q64 0 144 -43l88 -47q27 -15 45 -15q35 0 35 43z" />
<glyph unicode="&#xd6;" horiz-adv-x="1359" d="M680 1376q314 0 450 -163t136 -535t-136 -535t-450 -163t-450 163t-136 535t136 535t450 163zM680 270q136 0 187 86.5t51 321.5q0 160 -22.5 247t-73 123.5t-142.5 36.5t-142.5 -36.5t-73 -123.5t-22.5 -247q0 -235 51 -321.5t187 -86.5zM459 1724q98 0 124.5 -13 t26.5 -62v-117q0 -49 -27 -62.5t-124 -13.5q-100 0 -126 14.5t-26 69.5v109q0 49 26.5 62t125.5 13zM901 1724q98 0 125 -13t27 -62v-117q0 -49 -27.5 -62.5t-124.5 -13.5q-100 0 -125.5 14.5t-25.5 69.5v109q0 49 26 62t125 13z" />
<glyph unicode="&#xd7;" d="M827 209l-243 244l-242 -242q-21 -23 -43 -13.5t-84 70.5q-61 63 -71 86t12 41l241 244l-241 244q-22 18 -12 41t71 84t84 71t43 -12l242 -242l243 244q18 21 41.5 10.5t85.5 -71.5q61 -62 71 -84t-11 -41l-244 -244l244 -244q21 -20 11 -41.5t-71 -85.5 q-63 -60 -85.5 -70t-41.5 11z" />
<glyph unicode="&#xd8;" horiz-adv-x="1368" d="M684 1376q144 0 244 -33l26 46q14 28 39.5 36.5t114.5 8.5q124 0 124 -33q0 -8 -5 -17l-99 -165q142 -164 142 -541q0 -372 -136 -535t-450 -163q-137 0 -242 30l-28 -51q-14 -28 -39.5 -36.5t-114.5 -8.5q-123 0 -123 32q0 7 6 17l97 172q-142 164 -142 543 q0 372 136 535t450 163zM446 678q0 -113 13 -199l334 588q-46 18 -109 18q-92 0 -142.5 -36.5t-73 -123.5t-22.5 -247zM684 270q136 0 187 86.5t51 321.5q0 110 -13 196l-331 -587q41 -17 106 -17z" />
<glyph unicode="&#xd9;" horiz-adv-x="1351" d="M676 -20q-296 0 -423.5 126.5t-127.5 411.5v787q0 25 10.5 35.5t44.5 15t115 4.5q80 0 114 -4.5t45 -15t11 -35.5v-773q0 -136 45 -189.5t166 -53.5t166 53.5t45 189.5v773q0 25 11 35.5t45 15t114 4.5t114 -4.5t45 -15t11 -35.5v-787q0 -285 -127.5 -411.5 t-423.5 -126.5zM657 1456l-370 135q-17 7 -22 17t1.5 37t28.5 77q23 49 39 72t28.5 25t24.5 -7l348 -196q22 -12 22 -29.5t-24 -68.5q-24 -50 -37 -61t-39 -1z" />
<glyph unicode="&#xda;" horiz-adv-x="1351" d="M676 -20q-296 0 -423.5 126.5t-127.5 411.5v787q0 25 10.5 35.5t44.5 15t115 4.5q80 0 114 -4.5t45 -15t11 -35.5v-773q0 -136 45 -189.5t166 -53.5t166 53.5t45 189.5v773q0 25 11 35.5t45 15t114 4.5t114 -4.5t45 -15t11 -35.5v-787q0 -285 -127.5 -411.5 t-423.5 -126.5zM1061 1591l-373 -135q-24 -10 -37 1t-37 61q-26 52 -26 69t24 29l346 196q22 14 41 -2.5t54 -87.5q32 -72 32 -96.5t-24 -34.5z" />
<glyph unicode="&#xdb;" horiz-adv-x="1351" d="M676 -20q-296 0 -423.5 126.5t-127.5 411.5v787q0 25 10.5 35.5t44.5 15t115 4.5q80 0 114 -4.5t45 -15t11 -35.5v-773q0 -136 45 -189.5t166 -53.5t166 53.5t45 189.5v773q0 25 11 35.5t45 15t114 4.5t114 -4.5t45 -15t11 -35.5v-787q0 -285 -127.5 -411.5 t-423.5 -126.5zM676 1577l-101 -94q-21 -20 -42.5 -26.5t-71.5 -6.5q-137 0 -101 45l183 217q19 26 42.5 34.5t90.5 8.5q66 0 89 -8.5t42 -34.5l184 -217q27 -34 -44 -42l-58 -3q-50 0 -71 6.5t-42 26.5z" />
<glyph unicode="&#xdc;" horiz-adv-x="1351" d="M676 -20q-296 0 -423.5 126.5t-127.5 411.5v787q0 25 10.5 35.5t44.5 15t115 4.5q80 0 114 -4.5t45 -15t11 -35.5v-773q0 -136 45 -189.5t166 -53.5t166 53.5t45 189.5v773q0 25 11 35.5t45 15t114 4.5t114 -4.5t45 -15t11 -35.5v-787q0 -285 -127.5 -411.5 t-423.5 -126.5zM455 1724q98 0 124.5 -13t26.5 -62v-117q0 -49 -27 -62.5t-124 -13.5q-100 0 -126 14.5t-26 69.5v109q0 49 26.5 62t125.5 13zM897 1724q98 0 125 -13t27 -62v-117q0 -49 -27.5 -62.5t-124.5 -13.5q-100 0 -126 14.5t-26 69.5v109q0 49 26.5 62t125.5 13z " />
<glyph unicode="&#xdd;" horiz-adv-x="1241" d="M838 1303q10 25 25 36t52.5 16t118.5 5q145 0 162 -28q8 -12 -2 -34q-57 -136 -184 -390.5t-222 -420.5v-438q0 -25 -11 -35.5t-45 -15t-114 -4.5t-113.5 4.5t-44.5 15t-11 35.5v438q-96 164 -223.5 418.5t-184.5 392.5q-5 12 -5 20.5t5.5 15.5t17 12t31 8t47.5 4.5 t66 1.5q80 0 117.5 -5t52.5 -16t24 -36q74 -210 221 -525q141 309 220 525zM1010 1591l-373 -135q-24 -10 -37 1t-37 61q-26 52 -26 69t24 29l346 196q22 14 40.5 -2t53.5 -88q22 -50 28.5 -77t1.5 -37t-21 -17z" />
<glyph unicode="&#xde;" horiz-adv-x="1224" d="M618 287h-145v-236q0 -25 -11 -35.5t-45 -15t-114 -4.5q-81 0 -115 4.5t-44.5 15t-10.5 35.5v1254q0 25 10.5 35.5t44.5 15t115 4.5q80 0 114 -4.5t45 -15t11 -35.5v-144h145q275 0 396 -105.5t121 -332.5t-121 -331.5t-396 -104.5zM473 870v-295h135q99 0 139.5 34 t40.5 114q0 78 -42.5 112.5t-137.5 34.5h-135z" />
<glyph unicode="&#xdf;" horiz-adv-x="1460" d="M698 633q-27 0 -35 21.5t-8 99.5t8 99t35 21q163 3 227 35.5t64 124.5q0 152 -264 152q-87 0 -144 -15t-88 -47.5t-43 -73.5t-12 -102v-901q0 -24 -10.5 -33.5t-41.5 -13.5t-107 -4q-75 0 -106 3.5t-41.5 13.5t-10.5 34v879q0 264 141 389t465 125q569 0 569 -365 q0 -144 -76 -219.5t-208 -91.5q86 -12 149 -35.5t114.5 -67t78 -115.5t26.5 -171q0 -191 -98.5 -293t-323.5 -102q-115 0 -193.5 19.5t-122 58.5t-61.5 88t-18 116q0 30 10 43t39 18t97 5q63 0 90 -4.5t35.5 -14t9.5 -33.5q3 -71 106 -71q68 0 95.5 43t27.5 123 q0 67 -16.5 112t-58.5 79t-115.5 51t-184.5 20z" />
<glyph unicode="&#xe0;" horiz-adv-x="1101" d="M424 709q0 -23 -8.5 -32t-38 -13.5t-98.5 -4.5q-102 0 -129 11t-27 55q0 311 430 311q127 0 214 -24t136.5 -73t70.5 -114.5t21 -156.5v-621q0 -23 -10 -33t-41 -14t-104 -4t-104.5 4t-41.5 14t-10 33l-2 70q-81 -131 -289 -131q-167 0 -243 79.5t-76 206.5 q0 161 91.5 231t295.5 70h219v78q0 75 -26 102t-109 27q-67 0 -94 -17t-27 -54zM680 385h-174q-72 0 -100.5 -21t-28.5 -69q0 -43 27 -61.5t88 -18.5q87 0 137.5 37t50.5 100v33zM553 1126l-350 148q-16 7 -20.5 17t3 35t31.5 71q35 68 53.5 83.5t38.5 2.5l326 -205 q21 -12 20.5 -29t-26.5 -65q-25 -48 -38.5 -58t-37.5 0z" />
<glyph unicode="&#xe1;" horiz-adv-x="1101" d="M424 709q0 -23 -8.5 -32t-38 -13.5t-98.5 -4.5q-102 0 -129 11t-27 55q0 311 430 311q127 0 214 -24t136.5 -73t70.5 -114.5t21 -156.5v-621q0 -23 -10 -33t-41 -14t-104 -4t-104.5 4t-41.5 14t-10 33l-2 70q-81 -131 -289 -131q-167 0 -243 79.5t-76 206.5 q0 161 91.5 231t295.5 70h219v78q0 75 -26 102t-109 27q-67 0 -94 -17t-27 -54zM680 385h-174q-72 0 -100.5 -21t-28.5 -69q0 -43 27 -61.5t88 -18.5q87 0 137.5 37t50.5 100v33zM899 1274l-352 -148q-23 -10 -36 0t-38 58q-26 49 -27 65t21 29l326 205q20 13 38.5 -2.5 t53.5 -83.5q24 -46 31.5 -71t3 -35t-20.5 -17z" />
<glyph unicode="&#xe2;" horiz-adv-x="1101" d="M424 709q0 -23 -8.5 -32t-38 -13.5t-98.5 -4.5q-102 0 -129 11t-27 55q0 311 430 311q127 0 214 -24t136.5 -73t70.5 -114.5t21 -156.5v-621q0 -23 -10 -33t-41 -14t-104 -4t-104.5 4t-41.5 14t-10 33l-2 70q-81 -131 -289 -131q-167 0 -243 79.5t-76 206.5 q0 161 91.5 231t295.5 70h219v78q0 75 -26 102t-109 27q-67 0 -94 -17t-27 -54zM680 385h-174q-72 0 -100.5 -21t-28.5 -69q0 -43 27 -61.5t88 -18.5q87 0 137.5 37t50.5 100v33zM551 1266l-102 -105q-21 -21 -42 -27t-73 -6q-109 0 -108 27q0 7 7 16l185 230q14 17 24 24.5 t36.5 13t72.5 5.5q65 0 88 -9t43 -34l186 -230q25 -32 -39 -40q-24 -3 -63 -3q-52 0 -72 6t-41 27z" />
<glyph unicode="&#xe3;" horiz-adv-x="1101" d="M424 709q0 -23 -8.5 -32t-38 -13.5t-98.5 -4.5q-102 0 -129 11t-27 55q0 311 430 311q127 0 214 -24t136.5 -73t70.5 -114.5t21 -156.5v-621q0 -23 -10 -33t-41 -14t-104 -4t-104.5 4t-41.5 14t-10 33l-2 70q-81 -131 -289 -131q-167 0 -243 79.5t-76 206.5 q0 161 91.5 231t295.5 70h219v78q0 75 -26 102t-109 27q-67 0 -94 -17t-27 -54zM680 385h-174q-72 0 -100.5 -21t-28.5 -69q0 -43 27 -61.5t88 -18.5q87 0 137.5 37t50.5 100v33zM702 1350v26q2 22 17.5 28.5t73.5 6.5q55 0 72 -7t16 -30l-4 -71q-10 -177 -179 -177 q-59 0 -139 43l-90 48q-22 14 -39 14q-28 0 -31 -43v-25q-2 -22 -17.5 -28.5t-72.5 -6.5q-55 0 -73 7t-17 30l4 72q13 178 180 174q56 0 140 -41l88 -49q27 -12 39 -12q29 0 32 41z" />
<glyph unicode="&#xe4;" horiz-adv-x="1101" d="M424 709q0 -23 -8.5 -32t-38 -13.5t-98.5 -4.5q-102 0 -129 11t-27 55q0 311 430 311q127 0 214 -24t136.5 -73t70.5 -114.5t21 -156.5v-621q0 -23 -10 -33t-41 -14t-104 -4t-104.5 4t-41.5 14t-10 33l-2 70q-81 -131 -289 -131q-167 0 -243 79.5t-76 206.5 q0 161 91.5 231t295.5 70h219v78q0 75 -26 102t-109 27q-67 0 -94 -17t-27 -54zM680 385h-174q-72 0 -100.5 -21t-28.5 -69q0 -43 27 -61.5t88 -18.5q87 0 137.5 37t50.5 100v33zM336 1401q99 0 126 -13t27 -63v-115q0 -49 -27.5 -62t-125.5 -13q-101 0 -127.5 14t-26.5 68 v108q0 50 27 63t127 13zM766 1401q99 0 126.5 -13t27.5 -63v-115q0 -49 -28 -62t-126 -13q-101 0 -127.5 14t-26.5 68v108q0 50 27 63t127 13z" />
<glyph unicode="&#xe5;" horiz-adv-x="1101" d="M424 709q0 -23 -8.5 -32t-38 -13.5t-98.5 -4.5q-102 0 -129 11t-27 55q0 311 430 311q127 0 214 -24t136.5 -73t70.5 -114.5t21 -156.5v-621q0 -23 -10 -33t-41 -14t-104 -4t-104.5 4t-41.5 14t-10 33l-2 70q-81 -131 -289 -131q-167 0 -243 79.5t-76 206.5 q0 161 91.5 231t295.5 70h219v78q0 75 -26 102t-109 27q-67 0 -94 -17t-27 -54zM680 385h-174q-72 0 -100.5 -21t-28.5 -69q0 -43 27 -61.5t88 -18.5q87 0 137.5 37t50.5 100v33zM551 1513q211 0 211 -196q0 -199 -211 -199t-211 199q0 196 211 196zM551 1243q40 0 59 17.5 t19 56.5t-19 56.5t-59 17.5t-59 -17.5t-19 -56.5t19 -56.5t59 -17.5z" />
<glyph unicode="&#xe6;" horiz-adv-x="1703" d="M1567 428h-561q9 -113 49.5 -160t128.5 -47q59 0 89 20.5t32 53.5q2 25 9.5 34t36.5 14t97 5q105 0 131.5 -11t26.5 -56q-2 -128 -109 -214.5t-309 -86.5q-234 0 -352 143q-142 -139 -394 -139q-368 0 -368 297q0 158 92.5 227.5t292.5 69.5h209v73q0 77 -22.5 103 t-104.5 26q-66 0 -91.5 -17t-25.5 -54q0 -23 -8.5 -32t-38 -13.5t-98.5 -4.5q-102 0 -129 11t-27 55q0 148 98 229.5t324 81.5t325 -106q115 106 316 106q217 0 325.5 -124.5t108.5 -338.5v-55q0 -54 -9.5 -72t-43.5 -18zM1178 793q-84 0 -123.5 -45t-48.5 -144h311v31 q0 75 -30.5 116.5t-108.5 41.5zM668 395h-168q-69 0 -96 -20.5t-27 -73.5q0 -45 26 -66.5t86 -21.5q86 0 132.5 37.5t46.5 101.5v43z" />
<glyph unicode="&#xe7;" horiz-adv-x="1083" d="M567 -84h8q117 0 168.5 -33.5t51.5 -140.5q0 -58 -14 -96t-44 -58t-67.5 -28t-94.5 -9h-210q-17 0 -21 12.5t-4 63.5q0 50 4 62t21 12h202q31 2 42.5 10t11.5 31q0 24 -14 32.5t-52 8.5h-106q-42 0 -57.5 8.5t-8.5 30.5l53 168q-181 32 -266.5 159.5t-85.5 358.5 q0 269 117 398.5t368 129.5q94 0 167 -17t120.5 -46.5t78.5 -73t44.5 -92t15.5 -107.5q1 -44 -27.5 -54.5t-140.5 -10.5q-63 0 -93 6t-38.5 17t-9.5 36q-2 38 -28 56t-87 18q-93 0 -127 -56.5t-34 -203.5t35 -203.5t128 -56.5q64 0 90.5 21t28.5 61q3 36 27.5 47.5 t114.5 11.5q114 0 142 -11t28 -56q-1 -73 -23.5 -132.5t-71 -107t-131.5 -74.5t-196 -28z" />
<glyph unicode="&#xe8;" horiz-adv-x="1103" d="M969 434h-566q8 -116 49 -164.5t132 -48.5q58 0 89.5 21t33.5 53q1 24 8 33.5t36.5 14.5t98.5 5q104 0 130 -11t26 -56q0 -128 -107.5 -214.5t-316.5 -86.5q-258 0 -378 129.5t-120 398.5q0 268 118 398t367 130q230 0 341.5 -123.5t111.5 -339.5v-49q0 -55 -9.5 -72.5 t-43.5 -17.5zM565 1126l-350 148q-16 7 -20.5 17t3 35t31.5 71q35 68 54 83.5t39 2.5l325 -205q21 -12 20.5 -29t-26.5 -65q-25 -48 -38.5 -58t-37.5 0zM575 793q-81 0 -119.5 -43.5t-49.5 -139.5h311v25q0 75 -31.5 116.5t-110.5 41.5z" />
<glyph unicode="&#xe9;" horiz-adv-x="1103" d="M969 434h-566q8 -116 49 -164.5t132 -48.5q58 0 89.5 21t33.5 53q1 24 8 33.5t36.5 14.5t98.5 5q104 0 130 -11t26 -56q0 -128 -107.5 -214.5t-316.5 -86.5q-258 0 -378 129.5t-120 398.5q0 268 118 398t367 130q230 0 341.5 -123.5t111.5 -339.5v-49q0 -55 -9.5 -72.5 t-43.5 -17.5zM889 1274l-352 -148q-23 -10 -36 0t-38 58q-26 49 -27 65t21 29l325 205q20 13 38.5 -2.5t53.5 -83.5q24 -46 31.5 -71t3.5 -35t-20 -17zM575 793q-81 0 -119.5 -43.5t-49.5 -139.5h311v25q0 75 -31.5 116.5t-110.5 41.5z" />
<glyph unicode="&#xea;" horiz-adv-x="1103" d="M969 434h-566q8 -116 49 -164.5t132 -48.5q58 0 89.5 21t33.5 53q1 24 8 33.5t36.5 14.5t98.5 5q104 0 130 -11t26 -56q0 -128 -107.5 -214.5t-316.5 -86.5q-258 0 -378 129.5t-120 398.5q0 268 118 398t367 130q230 0 341.5 -123.5t111.5 -339.5v-49q0 -55 -9.5 -72.5 t-43.5 -17.5zM551 1266l-102 -105q-21 -21 -42 -27t-73 -6q-109 0 -108 27q0 7 7 16l185 230q14 17 24 24.5t36.5 13t72.5 5.5q65 0 88 -9t43 -34l186 -230q25 -32 -39 -40q-24 -3 -63 -3q-52 0 -72 6t-41 27zM575 793q-81 0 -119.5 -43.5t-49.5 -139.5h311v25 q0 75 -31.5 116.5t-110.5 41.5z" />
<glyph unicode="&#xeb;" horiz-adv-x="1103" d="M969 434h-566q8 -116 49 -164.5t132 -48.5q58 0 89.5 21t33.5 53q1 24 8 33.5t36.5 14.5t98.5 5q104 0 130 -11t26 -56q0 -128 -107.5 -214.5t-316.5 -86.5q-258 0 -378 129.5t-120 398.5q0 268 118 398t367 130q230 0 341.5 -123.5t111.5 -339.5v-49q0 -55 -9.5 -72.5 t-43.5 -17.5zM766 1401q99 0 126.5 -13t27.5 -63v-115q0 -49 -28 -62t-126 -13q-101 0 -127.5 14t-26.5 68v108q0 50 27 63t127 13zM338 1401q99 0 126.5 -13t27.5 -63v-115q0 -49 -28 -62t-126 -13q-101 0 -127.5 14t-26.5 68v108q0 50 27 63t127 13zM575 793 q-81 0 -119.5 -43.5t-49.5 -139.5h311v25q0 75 -31.5 116.5t-110.5 41.5z" />
<glyph unicode="&#xec;" horiz-adv-x="550" d="M117 47v922q0 23 10.5 33.5t43 15t105.5 4.5t106 -4.5t43.5 -15t10.5 -33.5v-922q0 -24 -11 -34.5t-43 -14.5t-106 -4t-106 4.5t-42.5 14.5t-10.5 34zM279 1126l-351 148q-16 7 -20 17t3.5 35t31.5 71q35 68 53.5 83.5t38.5 2.5l325 -205q21 -12 20.5 -29t-26.5 -65 q-25 -48 -38 -58t-37 0z" />
<glyph unicode="&#xed;" horiz-adv-x="550" d="M117 47v922q0 23 10.5 33.5t43 15t105.5 4.5t106 -4.5t43.5 -15t10.5 -33.5v-922q0 -24 -11 -34.5t-43 -14.5t-106 -4t-106 4.5t-42.5 14.5t-10.5 34zM623 1274l-353 -148q-23 -10 -35.5 0t-37.5 58q-26 50 -27.5 65t20.5 29l326 205q20 13 38.5 -2.5t53.5 -83.5 q24 -46 31.5 -71t3.5 -35t-20 -17z" />
<glyph unicode="&#xee;" horiz-adv-x="550" d="M117 47v922q0 23 10.5 33.5t43 15t105.5 4.5t106 -4.5t43.5 -15t10.5 -33.5v-922q0 -24 -11 -34.5t-43 -14.5t-106 -4t-106 4.5t-42.5 14.5t-10.5 34zM276 1266l-102 -105q-21 -21 -42 -27t-73 -6q-108 0 -107 27q0 7 7 16l184 230q14 17 24 24.5t36.5 13t72.5 5.5 q65 0 88.5 -9t43.5 -34l186 -230q25 -32 -39 -40q-24 -3 -63 -3q-52 0 -72 6t-41 27z" />
<glyph unicode="&#xef;" horiz-adv-x="550" d="M117 47v922q0 23 10.5 33.5t43 15t105.5 4.5t106 -4.5t43.5 -15t10.5 -33.5v-922q0 -24 -11 -34.5t-43 -14.5t-106 -4t-106 4.5t-42.5 14.5t-10.5 34zM61 1401q99 0 126.5 -13t27.5 -63v-115q0 -49 -28 -62t-126 -13q-101 0 -127 14t-26 68v108q0 50 26.5 63t126.5 13z M492 1401q99 0 126 -13t27 -63v-115q0 -49 -27.5 -62t-125.5 -13q-101 0 -127.5 14t-26.5 68v108q0 50 27 63t127 13z" />
<glyph unicode="&#xf0;" horiz-adv-x="1097" d="M979 1235l-94 -47q72 -116 98.5 -282t26.5 -390q0 -288 -110 -412t-355 -124q-241 0 -351 118t-110 371t107.5 372.5t336.5 119.5q96 0 164 -35q-12 87 -41 147l-139 -69q-18 -8 -26 -0.5t-29 47.5q-15 30 -19.5 43t-1.5 21.5t17 14.5l88 44q-62 24 -152 24 q-25 0 -31 18.5t-6 94.5q0 78 6 96t35 18q257 0 400 -127l127 64q16 9 24.5 0.5t28.5 -49.5q22 -42 23 -54.5t-17 -23.5zM545 229q85 0 117 53.5t32 186.5q0 134 -32 188t-117 54t-116.5 -54t-31.5 -188q0 -133 31.5 -186.5t116.5 -53.5z" />
<glyph unicode="&#xf1;" horiz-adv-x="1183" d="M424 969l4 -78q35 60 112.5 102.5t188.5 42.5q175 0 259.5 -90t84.5 -276v-623q0 -23 -10.5 -33t-42.5 -14t-107 -4q-74 0 -106 4t-42.5 14t-10.5 33v567q0 78 -34.5 113t-107.5 35q-86 0 -133 -48t-47 -134v-533q0 -23 -11 -33t-43 -14t-106 -4t-106 4t-42.5 14 t-10.5 33v920q0 24 10.5 34t42 14.5t104.5 4.5q70 0 102 -4.5t41.5 -14.5t10.5 -32zM743 1350v26q2 22 17.5 28.5t73.5 6.5q55 0 72 -7t16 -30l-4 -71q-10 -177 -179 -177q-59 0 -139 43l-90 48q-22 14 -39 14q-28 0 -31 -43v-25q-2 -22 -17.5 -28.5t-72.5 -6.5q-55 0 -73 7 t-17 30l4 72q13 178 180 174q56 0 140 -41l88 -49q27 -12 39 -12q29 0 32 41z" />
<glyph unicode="&#xf2;" horiz-adv-x="1148" d="M573 1036q255 0 372.5 -129t117.5 -399t-117.5 -399t-372.5 -129q-254 0 -371.5 129t-117.5 399t117.5 399t371.5 129zM573 240q95 0 130.5 59t35.5 209q0 149 -35.5 208.5t-130.5 59.5t-129 -59t-34 -209q0 -151 34 -209.5t129 -58.5zM588 1126l-350 148q-16 7 -20.5 17 t3 35t31.5 71q35 68 53.5 83.5t38.5 2.5l326 -205q21 -12 20.5 -29t-26.5 -65q-25 -48 -38.5 -58t-37.5 0z" />
<glyph unicode="&#xf3;" horiz-adv-x="1148" d="M573 1036q255 0 372.5 -129t117.5 -399t-117.5 -399t-372.5 -129q-254 0 -371.5 129t-117.5 399t117.5 399t371.5 129zM573 240q95 0 130.5 59t35.5 209q0 149 -35.5 208.5t-130.5 59.5t-129 -59t-34 -209q0 -151 34 -209.5t129 -58.5zM911 1274l-352 -148q-23 -10 -36 0 t-38 58q-26 49 -27 65t21 29l326 205q20 13 38.5 -2.5t53.5 -83.5q24 -46 31.5 -71t3 -35t-20.5 -17z" />
<glyph unicode="&#xf4;" horiz-adv-x="1148" d="M573 1036q255 0 372.5 -129t117.5 -399t-117.5 -399t-372.5 -129q-254 0 -371.5 129t-117.5 399t117.5 399t371.5 129zM573 240q95 0 130.5 59t35.5 209q0 149 -35.5 208.5t-130.5 59.5t-129 -59t-34 -209q0 -151 34 -209.5t129 -58.5zM573 1266l-102 -105 q-21 -21 -42 -27t-73 -6q-108 0 -107 27q0 7 7 16l184 230q14 17 24 24.5t36.5 13t72.5 5.5q65 0 88.5 -9t43.5 -34l186 -230q25 -31 -38 -40q-25 -3 -65 -3q-51 0 -71 6t-41 27z" />
<glyph unicode="&#xf5;" horiz-adv-x="1148" d="M573 1036q255 0 372.5 -129t117.5 -399t-117.5 -399t-372.5 -129q-254 0 -371.5 129t-117.5 399t117.5 399t371.5 129zM573 240q95 0 130.5 59t35.5 209q0 149 -35.5 208.5t-130.5 59.5t-129 -59t-34 -209q0 -151 34 -209.5t129 -58.5zM725 1350v26q2 22 17.5 28.5 t72.5 6.5q55 0 72 -7t16 -30l-4 -71q-10 -177 -178 -177q-59 0 -139 43l-90 48q-22 14 -39 14q-28 0 -31 -43v-25q-2 -22 -17.5 -28.5t-72.5 -6.5q-55 0 -73 7t-17 30l4 72q13 178 180 174q55 0 139 -41l88 -49q27 -12 39 -12q30 0 33 41z" />
<glyph unicode="&#xf6;" horiz-adv-x="1148" d="M573 1036q255 0 372.5 -129t117.5 -399t-117.5 -399t-372.5 -129q-254 0 -371.5 129t-117.5 399t117.5 399t371.5 129zM573 240q95 0 130.5 59t35.5 209q0 149 -35.5 208.5t-130.5 59.5t-129 -59t-34 -209q0 -151 34 -209.5t129 -58.5zM360 1401q99 0 126.5 -13t27.5 -63 v-115q0 -49 -28 -62t-126 -13q-101 0 -127 14t-26 68v108q0 50 26.5 63t126.5 13zM788 1401q99 0 126.5 -13t27.5 -63v-115q0 -49 -28 -62t-126 -13q-101 0 -127 14t-26 68v108q0 50 26.5 63t126.5 13z" />
<glyph unicode="&#xf7;" d="M174 768h821q20 0 28.5 -8.5t12.5 -35t4 -85.5t-4 -85.5t-12.5 -35t-28.5 -8.5h-821q-30 0 -38.5 22t-8.5 107t8.5 107t38.5 22zM584 37q-81 0 -116 4.5t-47.5 15.5t-12.5 37v236q0 28 12 40t47 16.5t117 4.5q81 0 115.5 -4.5t46.5 -16.5t12 -40v-236q0 -26 -12 -37 t-46.5 -15.5t-115.5 -4.5zM584 887q-81 0 -116 4.5t-47.5 15.5t-12.5 37v236q0 28 12 40t47 16.5t117 4.5q81 0 115.5 -4.5t46.5 -16.5t12 -40v-236q0 -26 -12 -37t-46.5 -15.5t-115.5 -4.5z" />
<glyph unicode="&#xf8;" horiz-adv-x="1157" d="M578 1036q102 0 188 -22l14 26q13 22 35 29.5t90 7.5q97 0 97 -27q0 -6 -5 -14l-65 -112q135 -129 135 -416q0 -270 -117 -399t-372 -129q-101 0 -177 18l-24 -43q-13 -22 -35 -29.5t-90 -7.5q-97 0 -97 26q0 6 5 15l71 125q-143 125 -143 424q0 269 118 398.5t372 129.5 zM414 508q0 -82 8 -129l221 387q-30 10 -65 10q-95 0 -129.5 -59t-34.5 -209zM578 240q95 0 130 59t35 209q0 64 -6 110l-215 -372q24 -6 56 -6z" />
<glyph unicode="&#xf9;" horiz-adv-x="1165" d="M741 47l-4 78q-37 -62 -110 -103.5t-183 -41.5q-340 0 -340 380v607q0 24 10.5 34t42.5 14.5t107 4.5q74 0 106 -4t43 -14.5t11 -34.5v-564q0 -79 33 -114t106 -35q84 0 127 46.5t43 133.5v533q0 24 10.5 34t42.5 14.5t107 4.5q74 0 106 -4t43 -14.5t11 -34.5v-920 q0 -33 -27 -42t-131 -9q-72 0 -103 4.5t-40.5 14t-10.5 32.5zM557 1126l-350 148q-16 7 -20.5 17t3 35t31.5 71q35 68 53.5 83.5t38.5 2.5l326 -205q21 -12 20.5 -29t-26.5 -65q-25 -48 -38.5 -58t-37.5 0z" />
<glyph unicode="&#xfa;" horiz-adv-x="1165" d="M741 47l-4 78q-37 -62 -110 -103.5t-183 -41.5q-340 0 -340 380v607q0 24 10.5 34t42.5 14.5t107 4.5q74 0 106 -4t43 -14.5t11 -34.5v-564q0 -79 33 -114t106 -35q84 0 127 46.5t43 133.5v533q0 24 10.5 34t42.5 14.5t107 4.5q74 0 106 -4t43 -14.5t11 -34.5v-920 q0 -33 -27 -42t-131 -9q-72 0 -103 4.5t-40.5 14t-10.5 32.5zM958 1274l-352 -148q-23 -10 -36 0t-38 58q-26 49 -27 65t21 29l326 205q20 13 38.5 -2.5t53.5 -83.5q24 -46 31.5 -71t3 -35t-20.5 -17z" />
<glyph unicode="&#xfb;" horiz-adv-x="1165" d="M741 47l-4 78q-37 -62 -110 -103.5t-183 -41.5q-340 0 -340 380v607q0 24 10.5 34t42.5 14.5t107 4.5q74 0 106 -4t43 -14.5t11 -34.5v-564q0 -79 33 -114t106 -35q84 0 127 46.5t43 133.5v533q0 24 10.5 34t42.5 14.5t107 4.5q74 0 106 -4t43 -14.5t11 -34.5v-920 q0 -33 -27 -42t-131 -9q-72 0 -103 4.5t-40.5 14t-10.5 32.5zM584 1266l-103 -105q-21 -21 -41.5 -27t-72.5 -6q-109 0 -108 27q0 7 7 16l185 230q14 17 24 24.5t36.5 13t72.5 5.5q65 0 88 -9t43 -34l186 -230q25 -32 -39 -40q-24 -3 -63 -3q-52 0 -72 6t-41 27z" />
<glyph unicode="&#xfc;" horiz-adv-x="1165" d="M741 47l-4 78q-37 -62 -110 -103.5t-183 -41.5q-340 0 -340 380v607q0 24 10.5 34t42.5 14.5t107 4.5q74 0 106 -4t43 -14.5t11 -34.5v-564q0 -79 33 -114t106 -35q84 0 127 46.5t43 133.5v533q0 24 10.5 34t42.5 14.5t107 4.5q74 0 106 -4t43 -14.5t11 -34.5v-920 q0 -33 -27 -42t-131 -9q-72 0 -103 4.5t-40.5 14t-10.5 32.5zM369 1401q99 0 126 -13t27 -63v-115q0 -49 -27.5 -62t-125.5 -13q-101 0 -127.5 14t-26.5 68v108q0 50 27 63t127 13zM797 1401q99 0 126 -13t27 -63v-115q0 -49 -27.5 -62t-125.5 -13q-101 0 -127.5 14 t-26.5 68v108q0 50 27 63t127 13z" />
<glyph unicode="&#xfd;" horiz-adv-x="1101" d="M291 -111q74 0 110.5 26t61.5 93q-48 4 -67.5 14t-28.5 33q-76 168 -178.5 450.5t-147.5 450.5q-12 39 20.5 51.5t145.5 12.5q64 0 96 -3.5t45.5 -12.5t16.5 -27q71 -308 192 -672q132 442 180 672q3 18 16.5 27t45.5 12.5t96 3.5q107 0 140 -11t30 -42 q-59 -235 -155.5 -522.5t-190.5 -499.5q-5 -12 -15 -34q-19 -45 -29.5 -67t-31 -59t-38 -56t-47 -44t-61.5 -36.5t-76.5 -20.5t-98.5 -9q-131 0 -158 16q-20 12 -24.5 37t-4.5 84q0 63 5.5 93t15.5 38.5t32 8.5q10 0 42 -3.5t61 -3.5zM852 1274l-352 -148q-23 -10 -36 0 t-38 58q-26 49 -27 65t21 29l325 205q20 13 39 -2.5t54 -83.5q24 -46 31.5 -71t3 -35t-20.5 -17z" />
<glyph unicode="&#xfe;" horiz-adv-x="1200" d="M436 1368v-457q93 125 281 125q195 0 295 -128t100 -400q0 -273 -100.5 -400.5t-296.5 -127.5q-190 0 -279 114v-416q0 -33 -27 -42t-133 -9q-74 0 -106 4t-42.5 14t-10.5 33v1690q0 23 10.5 33.5t43 15t105.5 4.5t106 -4.5t43.5 -15t10.5 -33.5zM436 508 q0 -147 40 -206.5t140 -59.5q95 0 132.5 59.5t37.5 206.5t-37.5 206.5t-132.5 59.5q-100 0 -140 -59.5t-40 -206.5z" />
<glyph unicode="&#xff;" horiz-adv-x="1101" d="M291 -111q74 0 110.5 26t61.5 93q-48 4 -67.5 14t-28.5 33q-76 168 -178.5 450.5t-147.5 450.5q-12 39 20.5 51.5t145.5 12.5q64 0 96 -3.5t45.5 -12.5t16.5 -27q71 -308 192 -672q132 442 180 672q3 18 16.5 27t45.5 12.5t96 3.5q107 0 140 -11t30 -42 q-59 -235 -155.5 -522.5t-190.5 -499.5q-5 -12 -15 -34q-19 -45 -29.5 -67t-31 -59t-38 -56t-47 -44t-61.5 -36.5t-76.5 -20.5t-98.5 -9q-131 0 -158 16q-20 12 -24.5 37t-4.5 84q0 63 5.5 93t15.5 38.5t32 8.5q10 0 42 -3.5t61 -3.5zM766 1401q99 0 126.5 -13t27.5 -63 v-115q0 -49 -28 -62t-126 -13q-101 0 -127.5 14t-26.5 68v108q0 50 27 63t127 13zM336 1401q99 0 126 -13t27 -63v-115q0 -49 -27.5 -62t-125.5 -13q-101 0 -127.5 14t-26.5 68v108q0 50 27 63t127 13z" />
<glyph unicode="&#x152;" horiz-adv-x="1820" d="M1661 1067h-485v-231h409q23 0 33 -9t14 -38.5t4 -96.5t-4 -96t-14 -38t-33 -9h-409v-260h497q21 0 30.5 -9.5t14 -39.5t4.5 -95q0 -96 -9 -120.5t-40 -24.5h-968q-316 0 -452 158t-136 520t136 520t452 158h956q32 0 41.5 -25.5t9.5 -120.5q0 -66 -4.5 -96t-14.5 -38.5 t-32 -8.5zM705 293h145v770h-145q-132 0 -186 -84.5t-54 -300.5q0 -217 54 -301t186 -84z" />
<glyph unicode="&#x153;" horiz-adv-x="1730" d="M1595 434h-561q8 -116 48 -164.5t130 -48.5q57 0 88 20.5t33 53.5q1 24 8.5 33.5t37 14.5t98.5 5q104 0 129.5 -11t25.5 -56q0 -128 -106.5 -214.5t-308.5 -86.5q-215 0 -330 118q-109 -118 -328 -118q-241 0 -358 130.5t-117 397.5q0 270 114 399t361 129 q210 0 324 -123q117 123 329 123q217 0 327 -124.5t110 -338.5v-49q0 -54 -10 -72t-44 -18zM569 240q93 0 127.5 59t34.5 209q0 149 -35 208.5t-127 59.5t-125.5 -59.5t-33.5 -208.5q0 -151 33.5 -209.5t125.5 -58.5zM1204 793q-82 0 -120.5 -43.5t-47.5 -139.5h307v25 q0 76 -30 117t-109 41z" />
<glyph unicode="&#x178;" horiz-adv-x="1241" d="M840 1303q10 25 25 36t52.5 16t118.5 5q145 0 162 -28q8 -12 -2 -34q-57 -137 -183.5 -391.5t-221.5 -419.5v-438q0 -25 -11 -35.5t-45 -15t-114 -4.5t-114 4.5t-45 15t-11 35.5v438q-96 164 -223.5 418.5t-184.5 392.5q-5 12 -5 20.5t5.5 15.5t17 12t31 8t47.5 4.5 t66 1.5q80 0 117.5 -5t52.5 -16t24 -36q71 -201 222 -525q136 298 219 525zM842 1724q98 0 124.5 -13t26.5 -62v-117q0 -49 -27 -62.5t-124 -13.5q-100 0 -126 14.5t-26 69.5v109q0 49 26.5 62t125.5 13zM399 1724q98 0 125 -13t27 -62v-117q0 -49 -27.5 -62.5t-124.5 -13.5 q-100 0 -125.5 14.5t-25.5 69.5v109q0 49 26 62t125 13z" />
<glyph unicode="&#x2c6;" horiz-adv-x="782" d="M391 1266l-102 -105q-21 -21 -42 -27t-73 -6q-108 0 -107 27q0 7 7 16l184 230q14 17 24 24.5t36.5 13t72.5 5.5q65 0 88 -9t43 -34l187 -230q25 -31 -38 -40q-25 -3 -65 -3q-51 0 -71 6t-41 27z" />
<glyph unicode="&#x2dc;" horiz-adv-x="782" d="M543 1350v26q2 22 17.5 28.5t72.5 6.5q55 0 72 -7t16 -30l-4 -71q-10 -177 -178 -177q-60 0 -140 43l-90 48q-22 14 -39 14q-27 0 -30 -43v-25q-2 -22 -17.5 -28.5t-72.5 -6.5q-55 0 -73.5 7t-17.5 30l4 72q13 178 181 174q55 0 139 -41l88 -49q27 -12 39 -12q30 0 33 41 z" />
<glyph unicode="&#x2000;" horiz-adv-x="909" />
<glyph unicode="&#x2001;" horiz-adv-x="1819" />
<glyph unicode="&#x2002;" horiz-adv-x="909" />
<glyph unicode="&#x2003;" horiz-adv-x="1819" />
<glyph unicode="&#x2004;" horiz-adv-x="606" />
<glyph unicode="&#x2005;" horiz-adv-x="454" />
<glyph unicode="&#x2006;" horiz-adv-x="303" />
<glyph unicode="&#x2007;" horiz-adv-x="303" />
<glyph unicode="&#x2008;" horiz-adv-x="227" />
<glyph unicode="&#x2009;" horiz-adv-x="363" />
<glyph unicode="&#x200a;" horiz-adv-x="101" />
<glyph unicode="&#x2010;" horiz-adv-x="847" d="M141 692h568q20 0 28.5 -9t12.5 -36t4 -88t-4 -88t-12.5 -36t-28.5 -9h-568q-30 0 -39.5 23t-9.5 110t9.5 110t39.5 23z" />
<glyph unicode="&#x2011;" horiz-adv-x="847" d="M141 692h568q20 0 28.5 -9t12.5 -36t4 -88t-4 -88t-12.5 -36t-28.5 -9h-568q-30 0 -39.5 23t-9.5 110t9.5 110t39.5 23z" />
<glyph unicode="&#x2012;" horiz-adv-x="847" d="M141 692h568q20 0 28.5 -9t12.5 -36t4 -88t-4 -88t-12.5 -36t-28.5 -9h-568q-30 0 -39.5 23t-9.5 110t9.5 110t39.5 23z" />
<glyph unicode="&#x2013;" horiz-adv-x="1114" d="M141 692h834q20 0 28.5 -9t12.5 -36t4 -88t-4 -88t-12.5 -36t-28.5 -9h-834q-30 0 -39.5 23t-9.5 110t9.5 110t39.5 23z" />
<glyph unicode="&#x2014;" horiz-adv-x="1544" d="M141 692h1264q20 0 28.5 -9t12.5 -36t4 -88t-4 -88t-12.5 -36t-28.5 -9h-1264q-30 0 -39.5 23t-9.5 110t9.5 110t39.5 23z" />
<glyph unicode="&#x2018;" horiz-adv-x="462" d="M340 1063v-78q0 -18 -7.5 -26.5t-34 -13.5t-81.5 -5t-81.5 5t-34 13.5t-7.5 26.5v84q0 245 240 352q19 12 36.5 0.5t39.5 -57.5q26 -54 25 -70t-23 -32q-72 -53 -72 -199z" />
<glyph unicode="&#x2019;" horiz-adv-x="462" d="M123 1298v78q0 18 7.5 26.5t34 13.5t81.5 5t81.5 -5t34 -13.5t7.5 -26.5v-84q0 -245 -240 -352q-19 -12 -36.5 -0.5t-39.5 57.5q-26 54 -25 70.5t23 32.5q72 53 72 198z" />
<glyph unicode="&#x201a;" horiz-adv-x="462" d="M123 111v77q0 18 7.5 26.5t34 13.5t81.5 5t81.5 -5t34 -13.5t7.5 -26.5v-84q0 -245 -240 -352q-21 -11 -37 0.5t-39 57.5q-26 54 -25 70t23 32q72 53 72 199z" />
<glyph unicode="&#x201c;" horiz-adv-x="858" d="M340 1063v-78q0 -18 -7.5 -26.5t-34 -13.5t-81.5 -5t-81.5 5t-34 13.5t-7.5 26.5v84q0 245 240 352q19 12 36.5 0.5t39.5 -57.5q26 -54 25 -70t-23 -32q-72 -53 -72 -199zM735 1063v-78q0 -18 -7.5 -26.5t-34 -13.5t-81.5 -5t-81.5 5t-34 13.5t-7.5 26.5v84 q0 245 240 352q19 12 36.5 0.5t39.5 -57.5q26 -54 25 -70t-23 -32q-72 -53 -72 -199z" />
<glyph unicode="&#x201d;" horiz-adv-x="858" d="M123 1298v78q0 18 7.5 26.5t34 13.5t81.5 5t81.5 -5t34 -13.5t7.5 -26.5v-84q0 -245 -240 -352q-19 -12 -36.5 -0.5t-39.5 57.5q-26 54 -25 70.5t23 32.5q72 53 72 198zM518 1298v78q0 18 7.5 26.5t34 13.5t81.5 5t81.5 -5t34 -13.5t7.5 -26.5v-84q0 -245 -240 -352 q-19 -12 -36 -0.5t-39 57.5q-26 54 -25.5 70.5t22.5 32.5q72 53 72 198z" />
<glyph unicode="&#x201e;" horiz-adv-x="858" d="M123 111v77q0 18 7.5 26.5t34 13.5t81.5 5t81.5 -5t34 -13.5t7.5 -26.5v-84q0 -245 -240 -352q-21 -11 -37 0.5t-39 57.5q-26 54 -25 70t23 32q72 53 72 199zM518 111v77q0 18 7.5 26.5t34 13.5t81.5 5t81.5 -5t34 -13.5t7.5 -26.5v-84q0 -245 -240 -352 q-21 -11 -36.5 0.5t-38.5 57.5q-26 54 -25.5 70t22.5 32q72 53 72 199z" />
<glyph unicode="&#x2022;" horiz-adv-x="759" d="M381 305q-67 0 -109.5 6.5t-73 22t-45.5 47t-21.5 74t-6.5 110.5t6.5 110.5t21.5 74t45.5 47t73 22t109.5 6.5t109.5 -6.5t73 -22t45.5 -47t21.5 -74t6.5 -110.5t-6.5 -110.5t-21.5 -74t-45.5 -47t-73 -22t-109.5 -6.5z" />
<glyph unicode="&#x2026;" horiz-adv-x="1642" d="M274 -4q-81 0 -116 4.5t-47.5 15.5t-12.5 37v240q0 27 11.5 39t47.5 17t117 5q80 0 116 -5t48.5 -17t12.5 -39v-240q0 -26 -12.5 -37t-48 -15.5t-116.5 -4.5zM821 -4q-81 0 -116 4.5t-47.5 15.5t-12.5 37v240q0 27 11.5 39t47.5 17t117 5q80 0 116 -5t48 -17t12 -39v-240 q0 -26 -12.5 -37t-47.5 -15.5t-116 -4.5zM1368 -4q-81 0 -116 4.5t-47.5 15.5t-12.5 37v240q0 27 12 39t48 17t116 5q81 0 117.5 -5t48.5 -17t12 -39v-240q0 -26 -12.5 -37t-48 -15.5t-117.5 -4.5z" />
<glyph unicode="&#x202f;" horiz-adv-x="363" />
<glyph unicode="&#x2039;" horiz-adv-x="710" d="M86 565q0 45 23 78l167 242q20 28 51.5 35.5t123.5 7.5q150 0 150 -36q-1 -9 -7 -18l-219 -309l219 -309q25 -37 -44 -48q-35 -5 -99 -5q-92 0 -123.5 7.5t-51.5 35.5l-167 241q-23 33 -23 78z" />
<glyph unicode="&#x203a;" horiz-adv-x="710" d="M625 565q0 -45 -23 -78l-168 -241q-20 -28 -51 -35.5t-123 -7.5q-150 0 -150 34q0 8 7 19l219 309l-219 309q-26 37 47 48q36 6 96 6q92 0 123 -7.5t51 -35.5l168 -242q23 -33 23 -78z" />
<glyph unicode="&#x205f;" horiz-adv-x="454" />
<glyph unicode="&#x20ac;" horiz-adv-x="1331" d="M707 440h-183q21 -96 70.5 -134t144.5 -38q167 0 174 133q3 38 32 50t128 12q102 0 133 -13t31 -59q-3 -200 -128.5 -305.5t-373.5 -105.5q-254 0 -384 108.5t-167 351.5h-106q-21 0 -27 16t-6 79t6 78.5t27 15.5h92v49v47h-92q-21 0 -27 16.5t-6 77.5q0 63 6 79.5 t27 16.5h106q37 242 168 351.5t383 109.5q247 0 372.5 -105.5t127.5 -303.5q1 -46 -29 -59t-133 -13q-69 0 -102 5.5t-45 17.5t-13 38q-5 64 -46 97.5t-128 33.5q-95 0 -144.5 -38t-70.5 -134h240q21 0 27 -16.5t6 -79.5q0 -61 -6 -77.5t-27 -16.5h-258v-47v-49h201 q19 0 24.5 -15.5t5.5 -78.5t-5.5 -79t-24.5 -16z" />
<glyph unicode="&#x2122;" horiz-adv-x="1746" d="M932 1356q85 0 113 -6.5t34 -26.5l129 -379l133 379q6 20 34 26.5t112 6.5q97 0 126 -7t29 -30v-715q0 -22 -17.5 -28.5t-86.5 -6.5t-86.5 6.5t-17.5 28.5v479q-99 -297 -125 -366q-9 -31 -99 -31q-91 0 -100 31l-123 362v-475q0 -22 -18.5 -28.5t-87.5 -6.5t-87 6.5 t-18 28.5v715q0 23 30 30t126 7zM631 1167h-170v-563q0 -22 -19 -28.5t-90 -6.5q-69 0 -87.5 6.5t-18.5 28.5v563h-164q-21 0 -27 17t-6 78t5.5 77.5t27.5 16.5h549q22 0 27.5 -16.5t5.5 -77.5t-6 -78t-27 -17z" />
<glyph unicode="&#x25fc;" horiz-adv-x="1024" d="M0 1024h1024v-1024h-1024v1024z" />
</font>
</defs>
</svg>
