<?xml version="1.0" standalone="no"?>
<!DOCTYPE svg PUBLIC "-//W3C//DTD SVG 1.1//EN" "http://www.w3.org/Graphics/SVG/1.1/DTD/svg11.dtd" >
<svg xmlns="http://www.w3.org/2000/svg" xmlns:xlink="http://www.w3.org/1999/xlink" version="1.1">
<metadata></metadata>
<defs>
<font id="frygiaheavy_italic" horiz-adv-x="1167" >
<font-face units-per-em="2048" ascent="1536" descent="-512" />
<missing-glyph horiz-adv-x="440" />
<glyph unicode="&#xfb01;" horiz-adv-x="1267" d="M954 1165q-12 0 -77.5 10.5t-114.5 10.5q-109 0 -146 -34t-45 -116l-4 -20h484q107 0 135.5 -10t23.5 -43l-96 -916q-2 -23 -12.5 -33t-42.5 -14t-105 -4q-106 0 -134 9t-25 42l73 703h-321l-72 -703q-2 -23 -12.5 -32.5t-43 -14t-106.5 -4.5q-106 0 -134 9t-25 42 l73 703h-100q-23 0 -32 10t-9 43q0 27 6 76q9 89 16.5 108.5t36.5 20.5l111 8l2 22q23 212 133 307t332 95q152 0 252 -27q30 -11 37 -34t0 -87q-9 -83 -19.5 -105t-38.5 -22z" />
<glyph unicode="&#xfb02;" horiz-adv-x="1316" d="M571 1036l-4 -20h140q21 0 29.5 -11.5t8.5 -48.5q0 -42 -4 -73q-9 -90 -17.5 -111.5t-35.5 -21.5h-141l-72 -703q-2 -23 -12.5 -32.5t-43 -14t-106.5 -4.5q-106 0 -134 9t-25 42l73 703h-100q-23 0 -32 10t-9 43q0 27 6 76q9 89 16.5 108.5t36.5 20.5l111 8l2 22 q24 216 140 309t378 93q240 0 414 -47q37 -10 52.5 -22.5t12.5 -39.5l-104 -1007q-5 -30 2.5 -40t34.5 -10h20q26 0 36.5 -13t10.5 -52q0 -43 -4 -74q-9 -90 -21 -113.5t-54 -23.5h-95q-141 0 -200.5 44t-59.5 159q0 19 4 69l95 904q-78 12 -142 12q-82 0 -126.5 -18 t-59.5 -47.5t-21 -84.5z" />
<glyph unicode="&#xfb03;" horiz-adv-x="1914" d="M903 1016l2 22q23 212 134 307t333 95q154 0 248 -27q31 -11 38.5 -34t0.5 -87q-6 -57 -13.5 -84.5t-16.5 -35t-27 -7.5q-12 0 -78 10.5t-115 10.5q-109 0 -146.5 -34t-45.5 -116l-3 -20h484q74 0 107.5 -4.5t44 -15t8.5 -33.5l-97 -916q-2 -23 -12.5 -32.5t-43 -14 t-106.5 -4.5q-106 0 -133 9t-24 42l71 703h-319l-74 -703q-2 -23 -12 -32.5t-42 -14t-105 -4.5q-106 0 -134.5 9t-25.5 42l73 703h-327l-72 -703q-2 -23 -12.5 -32.5t-43 -14t-106.5 -4.5q-106 0 -134 9t-25 42l73 703h-100q-23 0 -32 10t-9 43q0 27 6 76q9 89 16.5 108.5 t36.5 20.5l111 8l6 69q22 195 114 275t255 80q110 0 164 -21q23 -8 32 -20t9 -37q0 -26 -9 -72q-13 -79 -26.5 -102t-40.5 -21l-36 4t-44 3q-95 0 -107 -101l-6 -57h336z" />
<glyph unicode="&#xfb04;" horiz-adv-x="1961" d="M903 1016l2 22q16 144 71 231t164 129t285 42q236 0 410 -47q39 -10 55 -22.5t13 -39.5l-107 -1007q-3 -30 4.5 -40t36.5 -10h18q26 0 37 -13t11 -52q0 -35 -5 -74q-9 -90 -21.5 -113.5t-55.5 -23.5h-92q-143 0 -203 44t-60 159q0 19 4 69l95 904q-74 12 -142 12 q-61 0 -100.5 -9t-61.5 -29.5t-31 -45.5t-13 -66l-3 -20h140q22 0 30.5 -10.5t8.5 -44.5q0 -20 -7 -78q-9 -91 -16.5 -112t-34.5 -21h-141l-74 -703q-2 -23 -12 -32.5t-42 -14t-105 -4.5q-106 0 -134.5 9t-25.5 42l73 703h-327l-72 -703q-2 -23 -12.5 -32.5t-43 -14 t-106.5 -4.5q-106 0 -134 9t-25 42l73 703h-100q-23 0 -32 10t-9 43q0 27 6 76q9 89 16.5 108.5t36.5 20.5l111 8l6 69q22 195 114 275t255 80q99 0 164 -21q23 -8 32 -20t9 -37q0 -26 -9 -72q-13 -79 -26.5 -102t-40.5 -21l-36 4t-44 3q-95 0 -107 -101l-6 -57h336z" />
<glyph horiz-adv-x="0" />
<glyph horiz-adv-x="682" />
<glyph unicode=" "  horiz-adv-x="440" />
<glyph unicode="&#x09;" horiz-adv-x="440" />
<glyph unicode="&#xa0;" horiz-adv-x="440" />
<glyph unicode="!" horiz-adv-x="618" d="M324 483q-88 0 -115 10.5t-25 43.5l37 763q2 26 14.5 38t50 18t117.5 6q117 0 153 -12.5t30 -49.5l-125 -763q-5 -34 -28.5 -44t-108.5 -10zM270 -4q-81 0 -116.5 4.5t-47.5 15.5t-10 37l27 236q2 29 13.5 40.5t46 16t116.5 4.5q117 0 147 -10.5t25 -50.5l-25 -236 q-2 -26 -14 -37t-46.5 -15.5t-115.5 -4.5z" />
<glyph unicode="&#x22;" horiz-adv-x="827" d="M168 965l22 413q1 19 9.5 27.5t37 13t89.5 4.5t88.5 -4.5t34.5 -13t4 -27.5l-66 -413q-5 -27 -23.5 -34t-87.5 -7q-71 0 -90 7.5t-18 33.5zM557 965l23 413q1 19 9.5 27.5t36.5 13t89 4.5t88.5 -4.5t34.5 -13t4 -27.5l-66 -413q-5 -27 -23 -34t-87 -7q-71 0 -90.5 7.5 t-18.5 33.5z" />
<glyph unicode="#" horiz-adv-x="1320" d="M653 37l68 268h-238l-67 -268q-6 -27 -28 -34t-105 -7q-56 0 -81.5 4t-30.5 12t-1 25l68 268h-132q-18 0 -25 9.5t-7 39.5q0 8 4 62q7 73 15.5 91.5t31.5 18.5h170l53 217h-131q-18 0 -25.5 10t-7.5 40q0 7 4 61q7 73 15.5 92t32.5 19h167l68 268q5 19 14.5 26.5t35 11 t83.5 3.5q56 0 82 -4t31.5 -12t1.5 -25l-68 -268h234q66 259 69 268q6 27 27.5 34t103.5 7q57 0 83 -4t31 -12t1 -25l-67 -268h129q20 0 27 -9.5t7 -40.5q0 -7 -4 -61q-7 -73 -15.5 -92t-31.5 -19h-170l-53 -217h129q20 0 27.5 -9t7.5 -40q0 -7 -4 -61q-7 -73 -15.5 -92 t-31.5 -19h-168l-68 -268q-6 -27 -28.5 -34t-104.5 -7q-57 0 -82.5 4t-30 12t-0.5 25zM594 743l-55 -217h235l55 217h-235z" />
<glyph unicode="$" horiz-adv-x="1202" d="M543 -190q-95 0 -119 8t-21 37l13 133q-374 47 -342 364q3 33 15.5 46.5t47.5 19.5t113 6q73 0 104 -4.5t41 -16t8 -38.5q-4 -57 36.5 -82t133.5 -25q201 0 201 127q0 60 -70 96q-39 20 -180 64q-41 13 -71.5 23.5t-72.5 29.5t-72 39t-62.5 50.5t-52.5 65t-33 82 t-13 101.5q0 207 105 310t309 124l14 131q3 30 26.5 37.5t117.5 7.5q95 0 118.5 -8t20.5 -37l-16 -137q172 -27 243.5 -116.5t59.5 -239.5q-4 -32 -18 -46.5t-49.5 -20t-114.5 -5.5q-103 0 -127.5 10t-22.5 49q5 53 -28 78t-121 25q-83 0 -130 -25.5t-47 -95.5 q0 -62 74 -104q43 -25 206 -83q9 -3 17 -6q45 -16 72.5 -26.5t67 -29t64 -36.5t52 -45.5t42.5 -58.5t25.5 -73.5t10.5 -92.5q0 -208 -107.5 -310.5t-312.5 -123.5l-14 -133q-2 -21 -11 -29.5t-36.5 -12t-93.5 -3.5z" />
<glyph unicode="%" horiz-adv-x="1718" d="M500 1368q145 0 221 -72t76 -206q0 -86 -18.5 -155.5t-58 -125t-108.5 -86.5t-163 -31q-145 0 -221 72.5t-76 206.5q0 86 18.5 155t58 125t108.5 86.5t163 30.5zM457 877q104 0 104 215q0 51 -17 72.5t-55 21.5q-102 0 -102 -217q0 -49 16.5 -70.5t53.5 -21.5zM1419 1305 l-815 -1260q-14 -23 -23.5 -31t-37.5 -13t-88 -5q-98 0 -106 22q-3 11 9 31l813 1262q17 23 25 30t37 13t88 6q101 0 107 -25q3 -11 -9 -30zM1331 664q145 0 221 -72.5t76 -208.5q0 -85 -19 -154t-58.5 -124.5t-108.5 -86t-162 -30.5q-146 0 -221.5 71t-75.5 205 q0 86 18.5 155.5t57.5 126t108.5 87.5t163.5 31zM1288 170q32 0 54.5 21.5t32.5 57t14 68t4 68.5q0 52 -16.5 73t-55.5 21q-104 0 -104 -215q0 -50 17 -72t54 -22z" />
<glyph unicode="&#x26;" horiz-adv-x="1439" d="M1311 266q24 0 32.5 -14.5t8.5 -56.5q0 -37 -2 -62q-1 -63 -12 -86.5t-40 -34.5q-46 -24 -131 -24q-167 0 -223 96q-149 -104 -354 -104q-247 0 -373.5 92.5t-126.5 271.5q0 74 21.5 142.5t73 130t126.5 92.5q-129 67 -129 256q0 107 38 186.5t108 128.5t163 72.5 t209 23.5q246 0 367.5 -90t103.5 -280q-4 -48 -40 -62t-136 -14q-87 0 -112.5 12t-20.5 51q4 65 -33 91t-127 26q-200 0 -200 -182q0 -67 33.5 -93t117.5 -26h39q27 0 34 -21.5t1 -89.5q-8 -70 -16.5 -90t-34.5 -20h-35q-98 0 -160.5 -48t-62.5 -149q0 -75 48.5 -109 t158.5 -34q148 0 216 53t79 154l14 133h-80q-27 0 -33.5 20.5t0.5 89.5q8 71 16.5 91t32.5 20h490q27 0 34 -21.5t1 -89.5q-8 -70 -17 -90t-35 -20h-139l-16 -154q-4 -30 -8 -43v-43q0 -48 15 -69t46 -21q10 0 35 4t35 4z" />
<glyph unicode="'" horiz-adv-x="438" d="M168 965l22 413q1 19 9.5 27.5t37 13t89.5 4.5t88.5 -4.5t34.5 -13t4 -27.5l-66 -413q-5 -27 -23.5 -34t-87.5 -7q-71 0 -90 7.5t-18 33.5z" />
<glyph unicode="(" horiz-adv-x="772" d="M119 229q0 150 13.5 290.5t41 277t75 248.5t111 198t153 134t196.5 48h55q23 0 32 -10.5t9 -44.5q0 -38 -4 -67q-8 -82 -16.5 -102.5t-36.5 -20.5h-23q-67 0 -120.5 -60t-87.5 -157.5t-57 -228.5t-32.5 -264.5t-9.5 -274.5q0 -174 37.5 -250t126.5 -76h22q22 0 30.5 -10 t8.5 -45q0 -10 -4 -68q-9 -81 -19 -102t-40 -21h-56q-211 0 -308 152t-97 454z" />
<glyph unicode=")" horiz-adv-x="772" d="M653 819q0 -150 -13.5 -290.5t-41 -277t-75 -248.5t-111 -198t-153 -134t-196.5 -48h-55q-23 0 -32 10.5t-9 44.5q0 39 4 68q7 81 16.5 102t37.5 21h22q67 0 120.5 60t87.5 157.5t57 228.5t32.5 264.5t9.5 274.5q0 174 -37.5 250t-126.5 76h-22q-22 0 -30.5 10t-8.5 45 q0 10 4 68q9 80 19.5 101t40.5 21h55q211 0 308 -152t97 -454z" />
<glyph unicode="*" horiz-adv-x="1064" d="M295 1221l231 -117l-12 268q-2 26 22 36.5t103 10.5q55 0 81.5 -5t33 -14.5t2.5 -27.5l-72 -268l260 117q25 10 39.5 -8.5t30.5 -92.5q8 -47 8 -80q0 -28 -7.5 -38.5t-25.5 -12.5l-272 -39l166 -196q17 -16 0.5 -39t-86.5 -68q-46 -30 -72.5 -41t-38.5 -8t-18 20l-88 238 l-138 -238q-11 -25 -36.5 -20t-83.5 49q-63 46 -74.5 67t10.5 40l207 196l-264 39q-18 2 -23.5 12.5t0 38.5t25.5 80q31 74 49 92.5t43 8.5z" />
<glyph unicode="+" d="M786 1053l-30 -285h276q22 0 31.5 -12t9.5 -49q0 -10 -4 -68q-9 -88 -17.5 -108.5t-35.5 -20.5h-287l-29 -285q-3 -30 -25.5 -38.5t-109.5 -8.5q-88 0 -112 8.5t-21 38.5l29 285h-275q-24 0 -33.5 11.5t-9.5 49.5q0 10 4 68q9 86 19 107.5t39 21.5h282l31 285 q3 22 11.5 30.5t35 12.5t88.5 4q88 0 112 -8.5t21 -38.5z" />
<glyph unicode="," horiz-adv-x="546" d="M291 348q97 0 127.5 -11.5t23.5 -51.5q-10 -69 -104.5 -259.5t-144.5 -254.5q-20 -23 -44.5 -33.5t-46 -12t-69.5 -1.5q-60 0 -77 15t1 62q33 79 72 213.5t65 261.5q8 33 21.5 46.5t51.5 19.5t124 6z" />
<glyph unicode="-" horiz-adv-x="847" d="M166 692h567q23 0 33 -12t10 -49q0 -25 -6 -72q-9 -89 -18 -111t-37 -22h-568q-24 0 -33.5 12t-9.5 51q0 8 1 18.5t2 25.5t2 26q11 91 19.5 112t37.5 21z" />
<glyph unicode="." horiz-adv-x="546" d="M236 -4q-117 0 -147.5 10t-27.5 47l27 236q2 29 13.5 40.5t46 16t116.5 4.5q117 0 147 -10.5t25 -50.5l-24 -236q-2 -26 -14 -37t-46.5 -15.5t-115.5 -4.5z" />
<glyph unicode="/" horiz-adv-x="761" d="M852 1409l-586 -1526q-9 -25 -18.5 -33.5t-40 -13t-103.5 -4.5q-52 0 -81.5 2.5t-45 9t-17 17t2.5 26.5l586 1526q8 23 18 31.5t41.5 13t104.5 4.5q52 0 81 -2.5t45 -8.5t17 -16.5t-4 -25.5z" />
<glyph unicode="0" horiz-adv-x="1216" d="M686 1290q238 0 355.5 -124t117.5 -378q0 -86 -6.5 -163.5t-24 -160.5t-45.5 -152t-73.5 -132t-104.5 -106t-142 -68.5t-183 -25.5q-239 0 -356.5 123.5t-117.5 377.5q0 86 6.5 163.5t24.5 160.5t46 152t73 132t104.5 106.5t142.5 69t183 25.5zM594 262q55 0 96.5 35 t66 89t40 128t21 142t5.5 141q0 115 -34.5 163t-116.5 48q-67 0 -114.5 -48t-71.5 -131t-34 -169.5t-10 -186.5q0 -114 35 -162.5t117 -48.5z" />
<glyph unicode="1" horiz-adv-x="874" d="M289 51l94 899l-203 -39q-25 -5 -35 8t-10 52q0 31 6 86q6 63 13.5 92t17.5 39t33 14l467 88q41 8 58.5 -3.5t14.5 -45.5l-124 -1190q-2 -26 -13 -36.5t-45 -15.5t-110 -5q-77 0 -111 5t-44.5 16t-8.5 36z" />
<glyph unicode="2" horiz-adv-x="1112" d="M641 1290q215 0 319.5 -91.5t104.5 -250.5q0 -155 -84 -268t-248 -215q-32 -20 -96 -54t-111 -63.5t-75 -58.5h510q24 0 33.5 -11.5t9.5 -48.5q0 -19 -7 -84q-11 -102 -19 -123.5t-38 -21.5h-848q-26 0 -36.5 11.5t-10.5 49.5q0 29 6 82l4 41q4 39 18 75t31.5 65t50.5 61 t59.5 54t75 53t80.5 50.5t91 53.5q117 69 159 104q108 92 109 211q0 51 -28 74t-85 23q-68 0 -103.5 -27.5t-45.5 -93.5q-6 -38 -35.5 -50t-130.5 -12q-104 0 -135 14t-25 60q23 206 146.5 298.5t353.5 92.5z" />
<glyph unicode="3" horiz-adv-x="1099" d="M520 518h-106q-20 0 -28.5 9.5t-8.5 39.5q0 25 6 74q7 81 15.5 101t33.5 20h113q178 0 178 156q0 96 -129 96q-135 0 -150 -88q-6 -27 -17 -38.5t-43.5 -17.5t-102.5 -6q-104 0 -134 13.5t-24 60.5q24 190 143.5 271t349.5 81q215 0 327 -84t112 -237q0 -225 -191 -324 q70 -26 111 -87.5t41 -156.5q0 -209 -136.5 -315t-367.5 -106q-238 0 -359.5 81.5t-105.5 268.5q3 33 17 48.5t47.5 21.5t103.5 6q102 0 130 -12.5t26 -51.5q-2 -43 33 -64.5t112 -21.5q75 0 121.5 39.5t46.5 116.5q0 57 -39.5 81.5t-124.5 24.5z" />
<glyph unicode="4" horiz-adv-x="1177" d="M758 -4q-111 0 -139 9.5t-25 45.5l22 234h-524q-24 0 -33.5 12t-9.5 49q0 41 4 72q7 65 19.5 93t40.5 58l555 664q26 29 58 37t136 8q118 0 154 -10.5t31 -44.5l-70 -664h121q24 0 33.5 -12.5t9.5 -50.5q0 -43 -4 -74q-9 -93 -18 -115t-40 -22h-131l-24 -234 q-2 -25 -13.5 -35.5t-44 -15t-108.5 -4.5zM365 559h292l43 406z" />
<glyph unicode="5" horiz-adv-x="1083" d="M535 590q-103 0 -185 -29q-60 -16 -131 -14q-64 1 -86 16t-16 51l98 603q6 34 31.5 43.5t113.5 9.5h609q23 0 32 -12t9 -50q0 -42 -4 -75q-11 -95 -20 -117.5t-38 -22.5h-471l-37 -219q81 35 193 35q176 0 274.5 -83.5t98.5 -256.5q0 -230 -126 -359.5t-372 -129.5 q-222 0 -340 82t-102 260q1 31 13.5 45t43.5 20t98 6q68 0 100 -6t42 -17.5t10 -35.5q-2 -47 31 -70.5t106 -23.5q174 0 174 211q0 71 -35 105t-114 34z" />
<glyph unicode="6" horiz-adv-x="1155" d="M782 954q1 45 -26 61.5t-90 16.5q-177 0 -228 -297q97 72 256 72q65 0 121 -10.5t106 -35t85.5 -62.5t56 -96.5t20.5 -133.5q0 -233 -135.5 -361t-369.5 -128q-244 0 -361 126.5t-117 356.5q0 145 19 267t62.5 227t109.5 178t165.5 114t225.5 41q128 0 221.5 -32.5 t146.5 -105.5t44 -181q-3 -30 -15.5 -44.5t-45.5 -21t-101 -6.5q-96 0 -124 10.5t-26 44.5zM418 520v-86q0 -97 35 -144.5t125 -47.5q100 0 147 56t47 153q0 68 -36 97.5t-122 29.5q-114 0 -196 -58z" />
<glyph unicode="7" horiz-adv-x="1054" d="M117 61q73 208 235 472.5t322 447.5h-494q-25 0 -34 11.5t-9 51.5q0 45 4 80q11 100 20 123t40 23h821q23 0 33 -12t10 -48q0 -28 -6 -84q-11 -87 -51 -135q-148 -182 -301 -454t-234 -484q-11 -27 -28 -38.5t-54.5 -16t-118.5 -4.5q-75 0 -111.5 7t-44.5 22t1 38z" />
<glyph unicode="8" horiz-adv-x="1169" d="M78 311q0 71 17.5 128t51 97.5t74 68t92.5 48.5q-153 78 -153 240q0 106 38 184t108 124t160 67.5t202 21.5q218 0 335 -86.5t117 -245.5q0 -127 -56.5 -201.5t-156.5 -117.5q174 -83 174 -260q0 -88 -27 -157t-74 -114t-114.5 -74t-145 -41.5t-169.5 -12.5 q-236 0 -354.5 86.5t-118.5 244.5zM758 383q0 63 -39 101.5t-111 66.5q-98 -30 -150 -75.5t-52 -129.5q0 -108 161 -108q78 0 134.5 34t56.5 111zM481 895q0 -54 33.5 -89t97.5 -63q90 30 138.5 72.5t48.5 116.5q0 53 -35 77.5t-113 24.5q-73 0 -121.5 -32.5t-48.5 -106.5z " />
<glyph unicode="9" horiz-adv-x="1155" d="M420 315q-1 -45 26 -61t91 -16q176 0 227 297q-95 -72 -256 -72q-65 0 -121 10.5t-106 35t-85.5 62.5t-56 96.5t-20.5 133.5q0 233 136 361t370 128q244 0 360.5 -126.5t116.5 -356.5q0 -145 -19 -267t-62.5 -227t-109.5 -178t-165.5 -114t-225.5 -41q-95 0 -171.5 19 t-133.5 56.5t-85 100t-21 143.5q3 31 15 45t45 20.5t101 6.5q95 0 123.5 -11t26.5 -45zM784 836q0 97 -34.5 144.5t-124.5 47.5q-100 0 -147.5 -56t-47.5 -153q0 -68 36 -97.5t122 -29.5q114 0 194 56q2 29 2 88z" />
<glyph unicode=":" horiz-adv-x="595" d="M260 -4q-81 0 -116.5 4.5t-47.5 15.5t-10 37l27 236q2 29 13.5 40.5t46 16t116.5 4.5q117 0 147 -10.5t25 -50.5l-25 -236q-2 -26 -14 -37t-46.5 -15.5t-115.5 -4.5zM330 672q-81 0 -116.5 4.5t-47.5 15.5t-10 37l26 236q2 29 13.5 40.5t46 16t116.5 4.5q117 0 147 -10.5 t25 -50.5l-24 -236q-2 -26 -14 -37t-46.5 -15.5t-115.5 -4.5z" />
<glyph unicode=";" horiz-adv-x="595" d="M330 672q-81 0 -116.5 4.5t-47.5 15.5t-10 37l26 236q2 29 13.5 40.5t46 16t116.5 4.5q117 0 147 -10.5t25 -50.5l-24 -236q-2 -26 -14 -37t-46.5 -15.5t-115.5 -4.5zM305 348q98 0 128.5 -11.5t23.5 -51.5q-10 -69 -105 -259.5t-145 -254.5q-20 -23 -44.5 -33.5t-46 -12 t-69.5 -1.5q-60 0 -77 15t1 62q34 80 73.5 214.5t64.5 260.5q8 33 21.5 46.5t51 19.5t123.5 6z" />
<glyph unicode="&#x3c;" d="M139 637q7 74 16.5 99t34.5 40l744 436q24 14 44.5 -2.5t57.5 -83.5q38 -70 42 -96t-21 -39l-608 -354l534 -352q21 -12 12 -39t-61 -96q-51 -68 -75.5 -84.5t-45.5 -2.5l-653 437q-14 9 -19.5 21.5t-5.5 37.5q0 8 4 78z" />
<glyph unicode="=" d="M190 532h822q21 0 29 -9t8 -40q0 -19 -7 -80q-9 -85 -19 -107t-40 -22h-819q-23 0 -32 11t-9 45q0 24 6 73q9 84 20 106.5t41 22.5zM236 993h821q21 0 29 -9t8 -40q0 -19 -7 -80q-9 -85 -19 -107t-40 -22h-819q-23 0 -32 11t-9 45q0 23 6 73q9 84 20.5 106.5t41.5 22.5z " />
<glyph unicode="&#x3e;" d="M1028 639q-7 -74 -16.5 -99t-34.5 -40l-744 -437q-24 -14 -44.5 3t-57.5 84q-38 70 -41.5 96t21.5 39l608 354l-535 352q-21 12 -12 39t61 96q50 68 75 84t46 2l654 -436q14 -9 19 -21t5 -38q0 -8 -4 -78z" />
<glyph unicode="?" horiz-adv-x="1155" d="M729 555l-8 -33q-4 -24 -13.5 -33t-38.5 -13.5t-96 -4.5t-96.5 4.5t-37.5 14t-7 32.5v43q2 44 21 81.5t49 64t65.5 51t71 48.5t64.5 50t47 61t18 76q0 51 -29.5 74t-91.5 23q-75 0 -114.5 -28.5t-49.5 -94.5q-6 -39 -33.5 -50.5t-127.5 -11.5q-106 0 -137 14t-27 60 q23 206 150.5 299.5t363.5 93.5q221 0 327.5 -90t106.5 -239q0 -79 -25.5 -141.5t-64.5 -100t-86 -71t-88.5 -57t-73 -55t-39.5 -67.5zM524 -4q-81 0 -116.5 4.5t-47.5 15.5t-10 37l27 236q2 29 13.5 40.5t46 16t116.5 4.5q117 0 147 -10.5t25 -50.5l-25 -236 q-2 -26 -14 -37t-46.5 -15.5t-115.5 -4.5z" />
<glyph unicode="@" horiz-adv-x="1845" d="M1075 575l21 201q-53 17 -111 17q-42 0 -73.5 -15.5t-49.5 -40t-28.5 -61t-13.5 -71t-3 -77.5q0 -67 24.5 -97t80.5 -30q135 0 153 174zM1153 -152h-276q-176 0 -307 32t-229 103t-148 191.5t-50 290.5q0 442 220 671.5t663 229.5q379 0 552 -148t173 -460 q0 -590 -399 -590q-96 0 -157 38.5t-75 102.5q-37 -63 -103 -97t-153 -34q-319 0 -319 328q0 95 13 170t45 140t83 108t129 67.5t180 24.5q200 0 328 -64q42 -20 39 -63l-47 -432q-4 -41 -1.5 -69t17.5 -42t45 -14q39 0 67.5 30.5t44.5 74.5t25.5 106t12 112.5t2.5 106.5 q0 120 -27 198t-90.5 124t-156.5 64.5t-236 18.5q-342 0 -495.5 -162t-153.5 -532q0 -104 22.5 -179t63.5 -122.5t107 -75.5t143 -38.5t182 -10.5h291q19 0 25.5 -21.5t0.5 -78.5q-6 -60 -15 -79.5t-36 -19.5z" />
<glyph unicode="A" horiz-adv-x="1280" d="M1040 -4q-119 0 -153.5 11.5t-38.5 55.5q-10 107 -27 236h-387q-43 -128 -74 -236q-12 -44 -46 -55.5t-150 -11.5q-105 0 -134.5 12t-17.5 49q80 248 235.5 640.5t262.5 605.5q19 35 59.5 46t165.5 11q127 0 170.5 -11.5t52.5 -45.5q60 -210 133 -600t105 -646 q5 -38 -23.5 -49.5t-132.5 -11.5zM705 1014q-99 -243 -173 -443h250q-48 296 -77 443z" />
<glyph unicode="B" horiz-adv-x="1265" d="M485 559l-28 -285h174q211 0 211 168q0 65 -46.5 91t-142.5 26h-168zM688 1079h-147l-27 -252h152q78 0 131 34t53 114q0 57 -39.5 80.5t-122.5 23.5zM403 1356h328q469 0 469 -328q0 -100 -49 -184.5t-145 -128.5q88 -28 135 -98t47 -173q0 -115 -39.5 -201.5t-113 -139 t-171 -78t-219.5 -25.5h-379q-114 0 -143.5 9.5t-26.5 45.5l131 1243q3 26 14.5 36.5t47 16t114.5 5.5z" />
<glyph unicode="C" horiz-adv-x="1271" d="M123 678q40 374 185.5 536t451.5 162q249 0 373.5 -116t105.5 -324q-4 -47 -35.5 -59.5t-138.5 -12.5q-103 0 -133.5 12t-28.5 50q5 76 -31 114.5t-124 38.5q-91 0 -144 -35t-84.5 -121t-48.5 -245q-10 -102 -10 -158q0 -138 46.5 -191t156.5 -53q88 0 135 39.5t59 122.5 q4 26 16.5 38t46.5 18t105 6q106 0 138 -12.5t26 -57.5q-54 -450 -545 -450q-273 0 -401.5 127.5t-128.5 406.5q0 85 8 164z" />
<glyph unicode="D" horiz-adv-x="1294" d="M461 293h139q132 0 195 84t86 301q8 65 8 133q0 137 -49 194.5t-158 57.5h-141zM582 0h-316q-114 0 -143.5 9.5t-26.5 45.5l131 1243q2 26 13.5 37t47.5 16t115 5h302q279 0 405.5 -122.5t126.5 -395.5q0 -46 -8 -160q-35 -363 -184.5 -520.5t-462.5 -157.5z" />
<glyph unicode="E" d="M1083 1067h-542l-25 -231h459q25 0 35 -11.5t10 -50.5q0 -30 -6 -82q-11 -100 -19.5 -121.5t-40.5 -21.5h-467l-28 -260h545q24 0 34.5 -13t10.5 -53q0 -20 -7 -78q-11 -100 -19.5 -122.5t-39.5 -22.5h-715q-80 0 -115 4.5t-47 15t-10 35.5l131 1243q3 26 14 36.5 t45.5 16t112.5 5.5h705q24 0 34.5 -13t10.5 -53q0 -30 -6 -80q-6 -67 -13 -96t-16.5 -38t-30.5 -9z" />
<glyph unicode="F" horiz-adv-x="1101" d="M485 520l-49 -471q-3 -25 -14 -35t-45.5 -15t-112.5 -5q-79 0 -114.5 4.5t-46 15.5t-7.5 35l131 1249q3 26 14 36.5t45.5 16t112.5 5.5h693q24 0 33.5 -13t9.5 -55q0 -9 -1 -20.5t-2 -28.5t-2 -29q-7 -69 -13.5 -96.5t-15.5 -37t-30 -9.5h-530l-27 -258h453 q25 0 35 -12.5t10 -51.5q0 -29 -6 -81q-11 -99 -20 -121.5t-40 -22.5h-461z" />
<glyph unicode="G" horiz-adv-x="1337" d="M1100 760q104 0 133.5 -22t21.5 -85l-20 -211q-26 -232 -175.5 -347t-402.5 -115q-287 0 -417.5 128.5t-130.5 403.5q0 68 10 166q40 372 193 535t468 163q256 0 377.5 -108t106.5 -303q-6 -48 -42 -63t-149 -15q-109 0 -144 12.5t-30 48.5q3 55 -30 83t-113 28 q-83 0 -133 -34t-80.5 -116t-46.5 -231q-1 -17 -6 -70t-5 -78q0 -129 44.5 -181t148.5 -52q90 0 143.5 38t59.5 101l4 27h-164q-27 0 -37 14t-10 49q0 34 6 86q14 114 21 130q11 18 38 18h361z" />
<glyph unicode="H" horiz-adv-x="1372" d="M1032 -4q-115 0 -144 9.5t-24 45.5l51 494h-428l-51 -494q-3 -26 -14 -36t-45 -14.5t-113 -4.5q-115 0 -144 9.5t-24 45.5l131 1254q3 26 13.5 36t44 14.5t112.5 4.5q115 0 145 -10t25 -45l-49 -465h428l49 465q3 26 13.5 36t44 14.5t112.5 4.5q115 0 145 -10t25 -45 l-131 -1254q-3 -26 -14 -36t-45 -14.5t-113 -4.5z" />
<glyph unicode="I" horiz-adv-x="614" d="M270 -6q-80 0 -115.5 5t-46 15.5t-8.5 34.5l133 1256q2 26 12.5 36t44 14.5t113.5 4.5q114 0 143.5 -9.5t26.5 -45.5l-133 -1256q-2 -25 -12.5 -35t-45 -15t-112.5 -5z" />
<glyph unicode="J" horiz-adv-x="1107" d="M647 485l86 820q2 26 13 36t45 14.5t114 4.5t114 -4.5t45 -15t9 -35.5l-88 -832q-10 -98 -30 -170.5t-57 -135.5t-91.5 -103t-136 -62t-189.5 -22q-219 0 -322.5 97.5t-103.5 272.5q0 20 4 66q4 49 34 61t138 12q103 0 133.5 -12.5t28.5 -48.5q-5 -75 17.5 -108t89.5 -33 q75 0 105.5 43.5t41.5 154.5z" />
<glyph unicode="K" horiz-adv-x="1306" d="M1327 1282l-469 -580l359 -628q26 -47 -24 -64q-45 -14 -157 -14q-88 0 -128.5 10.5t-59.5 42.5l-283 504h-78l-51 -502q-2 -25 -13.5 -35.5t-45 -15t-113.5 -4.5t-114 4.5t-45 15t-9 35.5l131 1254q3 26 13.5 36t44 14.5t112.5 4.5q115 0 145 -10t25 -45l-49 -461h74 l377 473q23 26 61 34.5t123 8.5q182 0 189 -41q2 -15 -15 -37z" />
<glyph unicode="L" horiz-adv-x="1052" d="M567 1305l-106 -1016h452q24 0 34.5 -13t10.5 -53q0 -29 -6 -78q-11 -100 -19.5 -122.5t-37.5 -22.5h-627q-80 0 -115 4.5t-47 15t-10 35.5l131 1250q3 26 13.5 36t44 14.5t112.5 4.5q115 0 145 -10t25 -45z" />
<glyph unicode="M" horiz-adv-x="1730" d="M844 141q-90 0 -119 9.5t-35 37.5l-166 760l-92 -897q-2 -26 -13 -36t-44.5 -14.5t-112.5 -4.5q-80 0 -113.5 4.5t-44 15t-8.5 35.5l131 1247q3 28 20 40t68.5 18t163.5 6q143 0 193 -11t57 -46l154 -738l311 738q15 36 61 46.5t187 10.5q84 0 132.5 -2.5t76.5 -10.5 t36.5 -19.5t6.5 -31.5l-133 -1247q-2 -26 -12.5 -36t-44 -14.5t-113.5 -4.5q-113 0 -141 9.5t-25 45.5l94 893l-324 -756q-9 -21 -20 -29.5t-40 -13t-91 -4.5z" />
<glyph unicode="N" horiz-adv-x="1396" d="M1190 1360q116 0 145.5 -9.5t24.5 -45.5l-131 -1252q-2 -26 -13.5 -36.5t-50 -15.5t-127.5 -5q-93 0 -126 10t-44 37l-356 756l-76 -748q-2 -25 -13.5 -35.5t-45 -15t-113.5 -4.5t-114 4.5t-45 15t-9 35.5l131 1252q3 26 14.5 36.5t50 15.5t126.5 5q92 0 125.5 -10 t44.5 -37l354 -756l78 748q3 26 13.5 36t44 14.5t112.5 4.5z" />
<glyph unicode="O" horiz-adv-x="1359" d="M770 1376q278 0 405.5 -126.5t127.5 -405.5q0 -78 -9 -166q-37 -373 -184.5 -535.5t-460.5 -162.5q-279 0 -406.5 127t-127.5 407q0 85 8 164q26 251 97.5 402t204.5 223.5t345 72.5zM666 270q136 0 195.5 86.5t84.5 321.5q10 102 10 160q0 139 -46 193t-158 54 q-136 0 -196 -86t-85 -321q-10 -102 -10 -160q0 -139 47 -193.5t158 -54.5z" />
<glyph unicode="P" horiz-adv-x="1239" d="M649 440h-172l-41 -389q-3 -25 -14.5 -35.5t-46 -15t-113.5 -4.5q-115 0 -143 9.5t-23 45.5l131 1247q3 26 14.5 36.5t47 16t114.5 5.5h318q255 0 372 -89.5t117 -287.5q0 -26 -4 -80q-23 -243 -152 -351t-405 -108zM543 1067l-35 -336h149q102 0 147.5 35.5t55.5 128.5 q2 14 2 37q0 74 -40 104.5t-130 30.5h-149z" />
<glyph unicode="Q" horiz-adv-x="1359" d="M770 1376q278 0 405.5 -126.5t127.5 -405.5q0 -78 -9 -166q-30 -293 -124 -453t-277 -215q76 -22 197 -22q23 0 31.5 -11t8.5 -47q0 -31 -6 -90q-10 -97 -21.5 -122t-43.5 -25q-166 0 -309.5 77t-223.5 216q-214 25 -312.5 152t-98.5 376q0 85 8 164q26 251 97.5 402 t204.5 223.5t345 72.5zM666 270q136 0 195.5 86.5t84.5 321.5q10 102 10 160q0 139 -46 193t-158 54q-136 0 -196 -86t-85 -321q-10 -102 -10 -160q0 -139 47 -193.5t158 -54.5z" />
<glyph unicode="R" horiz-adv-x="1257" d="M539 492h-58l-45 -441q-2 -25 -14 -35.5t-46 -15t-114 -4.5q-81 0 -114.5 4.5t-43.5 15t-8 35.5l131 1247q3 26 14.5 36.5t46.5 16t113 5.5h318q253 0 368 -88.5t115 -278.5q0 -21 -4 -71q-22 -262 -260 -363q75 -50 123 -145q74 -147 86 -336q3 -20 1 -35t-16.5 -25 t-55 -15t-113.5 -5q-68 0 -101 5.5t-43.5 15.5t-13.5 32q-12 145 -55 252q-29 88 -82.5 140t-128.5 53zM543 1071l-33 -307h141q105 0 148.5 30t52.5 121q2 12 2 33q0 67 -40 95t-132 28h-139z" />
<glyph unicode="S" horiz-adv-x="1191" d="M567 258q42 0 72.5 4.5t62 16.5t48 39t16.5 67q0 29 -15 51t-51.5 41t-69 31t-96.5 32q-11 3 -16 5q-48 16 -71.5 24t-70 28t-72 37.5t-60 48.5t-52.5 65.5t-31.5 83.5t-13.5 106q0 438 535 438q261 0 366 -93t89 -275q-4 -32 -18 -46t-48.5 -20t-112.5 -6 q-103 0 -129 10t-24 49q5 54 -27 78.5t-119 24.5q-172 0 -172 -125q0 -25 13.5 -46.5t36.5 -38.5t59.5 -34t76 -32t93.5 -34q8 -3 12 -4q49 -17 73 -26t66 -28t63.5 -35.5t50 -45t42.5 -59.5t24.5 -75t10.5 -97q0 -233 -142 -335.5t-415 -102.5q-264 0 -379.5 96.5 t-97.5 275.5q3 33 15.5 46.5t47.5 19.5t113 6q73 0 104 -4.5t41 -16t8 -38.5q-4 -58 34 -82.5t130 -24.5z" />
<glyph unicode="T" horiz-adv-x="1142" d="M1114 1063h-303l-106 -1012q-2 -26 -13 -36t-44.5 -14.5t-112.5 -4.5q-116 0 -144.5 9.5t-25.5 45.5l106 1012h-293q-25 0 -35 12t-10 51q0 30 6 82q9 99 19 123.5t41 24.5h936q25 0 35 -13.5t10 -56.5q0 -12 -4 -78q-7 -69 -13.5 -97.5t-16.5 -38t-32 -9.5z" />
<glyph unicode="U" horiz-adv-x="1351" d="M645 -20q-266 0 -390 103.5t-124 328.5q0 50 6 106l82 787q3 26 13.5 36t44 14.5t112.5 4.5q115 0 145 -10t25 -45l-82 -773q-4 -54 -4 -69q0 -94 43.5 -134t147.5 -40q121 0 172 54t63 189l82 773q3 26 13.5 36t44 14.5t112.5 4.5q116 0 145.5 -9.5t24.5 -45.5l-82 -787 q-30 -287 -165 -412.5t-429 -125.5z" />
<glyph unicode="V" horiz-adv-x="1280" d="M1174 1360q22 0 37 -0.5t33.5 -1t30 -2.5t23.5 -5t18.5 -8t11 -11.5t4.5 -15.5t-5 -20q-87 -254 -247 -645.5t-263 -599.5q-18 -35 -55.5 -45t-159.5 -10q-85 0 -127 4.5t-60.5 16t-23.5 34.5q-60 208 -138.5 599.5t-113.5 645.5q-6 40 25 52t131 12q118 0 154 -12 t40 -56q34 -339 148 -907q241 591 340 907q10 31 26 44.5t53 18.5t118 5z" />
<glyph unicode="W" horiz-adv-x="2025" d="M1892 1360q109 0 142.5 -12t21.5 -52q-75 -242 -220.5 -634.5t-242.5 -610.5q-10 -24 -26.5 -35t-55.5 -15.5t-120 -4.5q-85 0 -124 5t-53.5 15.5t-19.5 34.5q-58 286 -133 813q-160 -468 -301 -813q-11 -25 -25 -35t-52 -15t-122 -5q-81 0 -121 4.5t-57.5 16t-22.5 34.5 q-50 210 -112 601t-88 644q-4 41 26.5 52.5t137.5 11.5q113 0 146 -12t36 -56q20 -316 100 -880q226 617 305 880q10 33 23.5 45t50 17.5t123.5 5.5q88 0 125.5 -5t51 -18.5t15.5 -44.5q27 -298 121 -882q171 484 285 882q10 31 25.5 44.5t49.5 18.5t111 5z" />
<glyph unicode="X" horiz-adv-x="1335" d="M973 696l270 -622q19 -46 -20 -62t-164 -16q-89 0 -131.5 10t-55.5 41l-194 465l-289 -465q-19 -32 -59.5 -41.5t-128.5 -9.5q-163 0 -184 30q-12 17 8 48l399 622l-260 586q-7 16 -8.5 27.5t5 20.5t19.5 14.5t37 9t54.5 5t74.5 1.5q87 0 129.5 -10t56.5 -41l185 -430 l276 430q22 32 62 41.5t125 9.5q162 0 187 -26q16 -17 -7 -52z" />
<glyph unicode="Y" horiz-adv-x="1241" d="M936 1303q13 26 27.5 36.5t51 15.5t115.5 5q151 0 165 -29q6 -13 -5 -33q-70 -136 -224 -389.5t-267 -419.5l-45 -440q-2 -26 -13 -36t-45 -14.5t-114 -4.5t-114 4.5t-45 15t-9 35.5l45 438q-78 167 -179 421.5t-143 389.5q-7 24 2.5 36.5t46.5 19t113 6.5 q117 0 152.5 -10.5t44.5 -46.5q65 -257 163 -525q171 302 277 525z" />
<glyph unicode="Z" horiz-adv-x="1204" d="M258 1356h875q23 0 33 -13t10 -51q0 -21 -7 -86q-9 -96 -47 -147l-610 -766h522q25 0 36 -13t11 -55q0 -29 -6 -78q-11 -102 -19.5 -124.5t-39.5 -22.5h-905q-26 0 -37 13t-11 53q0 20 7 81q10 99 49 148l610 768h-491q-25 0 -35 12t-10 51q0 30 6 82q10 100 20 124 t39 24z" />
<glyph unicode="[" horiz-adv-x="772" d="M94 -317l176 1683q2 25 13 35t45.5 15t111.5 5h305q25 0 35.5 -11.5t10.5 -49.5q0 -7 -1 -16.5t-2 -23t-2 -22.5q-8 -83 -16 -102.5t-35 -19.5h-190l-137 -1303h180q23 0 32 -11.5t9 -47.5q0 -10 -4 -64q-9 -82 -19 -102.5t-39 -20.5h-305q-112 0 -142.5 10.5t-25.5 45.5 z" />
<glyph unicode="\" horiz-adv-x="761" d="M387 -117l-258 1526q-5 32 21 42.5t124 10.5q73 0 103 -4.5t38 -13t13 -31.5l258 -1526q4 -23 -4.5 -34t-40 -16t-100.5 -5q-73 0 -103.5 4.5t-39 13.5t-11.5 33z" />
<glyph unicode="]" horiz-adv-x="772" d="M678 1366l-176 -1683q-2 -25 -13 -35.5t-45.5 -15.5t-111.5 -5h-305q-25 0 -35 12t-10 50q0 11 4 61q8 83 16 103t35 20h190l138 1303h-181q-23 0 -32 11.5t-9 47.5q0 9 4 63q9 82 19 102.5t39 20.5h305q112 0 142.5 -10.5t25.5 -44.5z" />
<glyph unicode="^" d="M682 1370q98 0 129.5 -8.5t42.5 -34.5l252 -594q6 -12 7 -20.5t-3.5 -15t-14.5 -10.5t-28 -6.5t-41.5 -3.5t-58.5 -1q-65 0 -98 5t-46.5 15t-21.5 31l-144 367l-219 -367q-14 -22 -27.5 -31.5t-46 -14.5t-96.5 -5q-128 0 -144 21q-9 12 7 36l379 594q11 18 24 26 t46.5 12.5t101.5 4.5z" />
<glyph unicode="_" horiz-adv-x="856" d="M766 -328h-815q-23 0 -29 17.5t0 83.5q6 68 11.5 84t25.5 16h817q22 0 27 -17t0 -83q-6 -71 -11 -86t-26 -15z" />
<glyph unicode="`" horiz-adv-x="782" d="M602 1126l-334 148q-15 7 -19 16t5.5 34t38.5 71q42 68 61 82.5t39 1.5l301 -205q21 -12 20.5 -28t-30.5 -64q-31 -47 -45 -56.5t-37 0.5z" />
<glyph unicode="a" horiz-adv-x="1101" d="M455 709q-2 -23 -10 -32t-37 -13.5t-97 -4.5q-103 0 -130 11t-23 55q6 57 23 103t51 85.5t83.5 66t123 41.5t167.5 15q225 0 322.5 -77.5t97.5 -235.5q0 -22 -4 -72l-64 -604q-2 -24 -11.5 -33t-40.5 -13.5t-103 -4.5q-104 0 -131 9t-25 42l4 70q-90 -131 -291 -131 q-154 0 -228.5 73.5t-74.5 188.5q0 91 30.5 155t88.5 100.5t132 53t171 16.5h219l9 78q8 75 -15 102t-106 27q-67 0 -96.5 -17t-34.5 -54zM680 385h-176q-139 0 -139 -98q0 -37 25.5 -54.5t82.5 -17.5q87 0 142 37t61 100z" />
<glyph unicode="b" horiz-adv-x="1200" d="M537 1368l-48 -444q97 112 281 112q358 0 358 -422q0 -67 -4 -106q-26 -273 -136.5 -400.5t-305.5 -127.5q-199 0 -281 131l-10 -64q-4 -24 -14 -33t-41 -13.5t-103 -4.5q-103 0 -129.5 9t-23.5 42l137 1321q3 24 13.5 33.5t43.5 14.5t105 5q105 0 134 -10t24 -43z M446 508q-4 -31 -4 -86q0 -97 37 -138.5t121 -41.5q95 0 139.5 59.5t59.5 206.5q4 66 4 90q0 95 -34 135.5t-112 40.5q-100 0 -148 -60t-63 -206z" />
<glyph unicode="c" horiz-adv-x="1083" d="M610 768q-94 0 -133.5 -56.5t-54.5 -203.5q-6 -56 -6 -96q0 -90 32 -127t109 -37q116 0 129 82q3 25 12 36t38 17t91 6q115 0 144.5 -11t23.5 -56q-41 -342 -454 -342q-229 0 -340 105.5t-111 322.5q0 48 6 100q25 270 151 399t378 129q116 0 199 -25.5t128.5 -72.5 t63.5 -106t12 -132q-4 -44 -32.5 -54.5t-139.5 -10.5q-91 0 -116 11.5t-23 47.5q2 38 -22 56t-85 18z" />
<glyph unicode="d" horiz-adv-x="1212" d="M729 53l-2 27q-95 -100 -264 -100q-180 0 -280.5 109t-100.5 329q0 44 6 96q23 256 141.5 389t309.5 133t272 -116l47 442q3 26 13 36t43.5 14.5t115.5 4.5q41 0 68 -0.5t48.5 -3t32.5 -6t18.5 -10t9 -15t-0.5 -20.5l-137 -1309q-2 -26 -12 -36.5t-44.5 -15.5t-113.5 -5 t-114 5t-45 15.5t-11 36.5zM768 508q6 50 6 86q0 88 -33.5 123t-109.5 35q-89 0 -133.5 -54.5t-57.5 -183.5q-6 -44 -6 -82q0 -93 33.5 -130.5t110.5 -37.5q92 0 133.5 53t56.5 191z" />
<glyph unicode="e" horiz-adv-x="1103" d="M973 434h-567v-22q0 -103 37 -147t122 -44q57 0 90.5 21t38.5 53q5 25 12.5 34t36.5 14t97 5q106 0 131.5 -11t21.5 -56q-7 -62 -36 -114.5t-80.5 -95t-135 -67t-190.5 -24.5q-233 0 -347 106t-114 324q0 46 6 98q27 270 153 399t374 129q211 0 316 -104.5t105 -284.5 q0 -24 -4 -74l-6 -49q-5 -55 -16 -72.5t-45 -17.5zM614 793q-83 0 -126 -43.5t-62 -139.5h313l2 25q2 12 2 33q0 125 -129 125z" />
<glyph unicode="f" horiz-adv-x="780" d="M727 750h-178l-74 -703q-2 -23 -12.5 -32.5t-43 -14t-106.5 -4.5q-106 0 -134 9t-25 42l73 703h-100q-23 0 -32 10t-9 43q0 27 6 76q9 89 16.5 108.5t36.5 20.5l111 8l6 61q9 88 31.5 152.5t54 104.5t78.5 64t98.5 33t120.5 9q46 0 103 -8.5t81 -16.5q23 -8 32 -20t9 -37 q0 -31 -8 -72q-11 -79 -26 -102t-43 -21q-14 1 -46 6t-51 5q-58 0 -87.5 -24.5t-35.5 -80.5l-6 -53h178q22 0 30.5 -10.5t8.5 -44.5q0 -29 -6 -78q-9 -91 -16.5 -112t-34.5 -21z" />
<glyph unicode="g" horiz-adv-x="1202" d="M387 -49q-4 -40 23 -56t96 -16q100 0 133 28.5t33 119.5q0 51 -29 71.5t-106 26.5q-221 1 -329 94t-108 281q0 13 2 39t2 41q27 233 147.5 343.5t364.5 110.5q164 0 263 -45l309 47q22 2 30.5 -11t8.5 -48q0 -14 -4 -76q-7 -89 -17.5 -111t-42.5 -22h-114q8 -41 8 -98 q0 -55 -4 -88q-24 -224 -162 -344q106 -70 106 -234q0 -110 -35 -187.5t-102.5 -121.5t-155.5 -64t-206 -20q-253 0 -355.5 77.5t-87.5 243.5q6 48 37.5 60t140.5 12q74 0 105.5 -4.5t41 -14.5t7.5 -34zM559 399q77 0 111.5 39.5t44.5 143.5q4 46 4 61q0 64 -27.5 90.5 t-91.5 26.5q-75 0 -110.5 -40t-47.5 -140q-4 -40 -4 -56q0 -69 28.5 -97t92.5 -28z" />
<glyph unicode="h" horiz-adv-x="1191" d="M537 1368l-50 -473q42 60 119.5 100.5t186.5 40.5q321 0 321 -309q0 -18 -4 -68l-66 -612q-2 -23 -12.5 -32.5t-42.5 -14t-106 -4.5q-106 0 -133.5 9t-24.5 42l59 567q7 79 -23.5 113.5t-103.5 34.5q-88 0 -140.5 -48t-61.5 -134l-56 -533q-2 -23 -12.5 -32.5t-42.5 -14 t-106 -4.5q-106 0 -133.5 9t-24.5 42l137 1321q3 24 13.5 33.5t43.5 14.5t105 5q105 0 134 -10t24 -43z" />
<glyph unicode="i" horiz-adv-x="550" d="M80 47l96 920q3 35 29 44t131 9q107 0 135 -9.5t25 -43.5l-97 -920q-2 -23 -12.5 -32.5t-42.5 -14t-106 -4.5q-106 0 -133.5 9t-24.5 42zM377 1413q79 0 113 -5.5t44.5 -20t6.5 -46.5l-13 -129q-3 -34 -14.5 -47t-43.5 -18.5t-112 -5.5q-114 0 -141 12t-22 59l12 129 q4 34 15 47t44 19t111 6z" />
<glyph unicode="j" horiz-adv-x="571" d="M-45 -98q7 0 27.5 -2t31.5 -2q40 0 58.5 20.5t25.5 85.5l101 963q3 25 13 34.5t42 14t106 4.5q107 0 135 -9.5t25 -43.5l-104 -987q-8 -79 -22.5 -137.5t-37.5 -99t-50 -66.5t-65.5 -40.5t-78.5 -20t-94 -5.5q-99 0 -142 16q-23 6 -33 20t-10 46q0 23 6 67q9 92 21.5 117 t44.5 25zM401 1413q79 0 113 -5.5t44.5 -20t6.5 -46.5l-12 -129q-3 -34 -14.5 -47t-43.5 -18.5t-112 -5.5t-113.5 5t-44.5 19t-8 47l14 129q3 33 14 46.5t44.5 19.5t111.5 6z" />
<glyph unicode="k" horiz-adv-x="1132" d="M537 1368l-72 -692h70l266 301q24 25 59 34t117 9q178 0 177 -40q0 -13 -17 -32l-367 -403l291 -479q26 -42 -21 -57q-41 -13 -149 -13q-81 0 -119.5 9t-52.5 34l-215 373h-68l-37 -365q-2 -24 -12.5 -34t-42 -14.5t-106.5 -4.5q-74 0 -106.5 4t-43 14.5t-8.5 34.5 l137 1321q3 24 13.5 33.5t43.5 14.5t105 5q105 0 134 -10t24 -43z" />
<glyph unicode="l" horiz-adv-x="593" d="M469 274h20q26 0 36 -12t10 -51q0 -37 -5 -76q-9 -90 -21.5 -113.5t-55.5 -23.5h-95q-141 0 -200.5 44t-59.5 159q0 19 4 69l115 1098q3 24 13.5 33.5t43.5 14.5t105 5q105 0 134 -10t24 -43l-109 -1044q-3 -29 5 -39.5t36 -10.5z" />
<glyph unicode="m" horiz-adv-x="1773" d="M1067 590l-57 -543q-2 -23 -12.5 -33t-42.5 -14t-105 -4q-106 0 -133.5 9t-24.5 42l60 578q7 74 -22 105.5t-95 31.5q-78 0 -126.5 -46t-57.5 -126l-56 -543q-2 -23 -12.5 -32.5t-43 -14t-106.5 -4.5q-106 0 -133 9t-24 42l96 920q2 24 12.5 34t41.5 14.5t104 4.5 q101 0 128 -9.5t25 -41.5l-4 -76q100 143 291 143q228 0 291 -149q124 149 321 149q155 0 234.5 -72t79.5 -227q0 -21 -4 -71l-66 -619q-2 -23 -12.5 -33t-42.5 -14t-105 -4q-107 0 -134.5 9t-24.5 42l61 578q7 74 -23 105.5t-96 31.5q-78 0 -126 -46t-56 -126z" />
<glyph unicode="n" horiz-adv-x="1183" d="M483 969l-4 -78q43 62 119 103.5t186 41.5q160 0 240 -76t80 -237q0 -22 -4 -76l-64 -600q-2 -23 -12.5 -32.5t-43 -14t-106.5 -4.5q-106 0 -133 9t-24 42l59 567q7 79 -22.5 113.5t-102.5 34.5q-87 0 -139 -47.5t-61 -134.5l-56 -533q-2 -23 -12.5 -32.5t-43 -14 t-106.5 -4.5q-106 0 -133 9t-24 42l96 920q2 24 12.5 34t41.5 14.5t104 4.5q101 0 128 -9.5t25 -41.5z" />
<glyph unicode="o" horiz-adv-x="1148" d="M629 1036q230 0 341 -104t111 -318q0 -50 -6 -106q-28 -271 -154.5 -399.5t-379.5 -128.5q-230 0 -340.5 102.5t-110.5 316.5q0 51 6 109q27 271 153.5 399.5t379.5 128.5zM557 240q95 0 136.5 59t56.5 209q6 56 6 100q0 91 -32 129.5t-110 38.5q-95 0 -137 -59.5 t-57 -208.5q-6 -59 -6 -100q0 -91 32.5 -129.5t110.5 -38.5z" />
<glyph unicode="p" horiz-adv-x="1196" d="M483 967l-2 -52q103 121 285 121q360 0 360 -420q0 -50 -6 -108q-26 -273 -136 -400.5t-306 -127.5q-198 0 -279 124l-43 -426q-2 -23 -12.5 -32.5t-42.5 -14t-106 -4.5q-106 0 -133.5 9t-24.5 42l135 1289q2 25 12 34.5t41 14t103 4.5q71 0 103 -4.5t42 -15t10 -33.5z M442 508q-4 -31 -4 -86q0 -97 37 -138.5t121 -41.5q95 0 139.5 59.5t59.5 206.5q4 66 4 90q0 95 -34 135.5t-112 40.5q-100 0 -148 -60t-63 -206z" />
<glyph unicode="q" horiz-adv-x="1196" d="M846 -373q-106 0 -133.5 9t-24.5 42l41 406q-98 -104 -274 -104q-363 0 -363 417q0 49 6 111q26 273 135.5 400.5t303.5 127.5q199 0 282 -141l12 72q3 24 12.5 33.5t40.5 14.5t101 5q105 0 133 -9.5t25 -43.5l-135 -1289q-2 -23 -13 -33t-43 -14t-106 -4zM774 508 q6 46 6 84q0 98 -36.5 140t-120.5 42q-95 0 -140.5 -60t-58.5 -206q-6 -50 -6 -88q0 -96 34.5 -137t112.5 -41q100 0 147 60t62 206z" />
<glyph unicode="r" horiz-adv-x="825" d="M758 707q-138 0 -223 -57.5t-95 -168.5l-45 -434q-3 -24 -13.5 -33t-42.5 -13.5t-106 -4.5q-106 0 -134 9t-23 42l96 920q2 24 12.5 34t41.5 14.5t104 4.5q101 0 128 -9.5t25 -41.5l-10 -133q43 78 128.5 135t191.5 57q29 0 39 -11.5t10 -51.5q0 -35 -6 -97 q-10 -106 -24 -133.5t-54 -27.5z" />
<glyph unicode="s" horiz-adv-x="1007" d="M344 276q-3 -34 24.5 -49.5t98.5 -15.5q31 0 52.5 2.5t44.5 10.5t34.5 25.5t11.5 43.5q0 39 -35 58.5t-124 45.5q-20 6 -31 9q-52 14 -90 28t-82 38.5t-71 54t-45.5 74.5t-18.5 101q0 78 21.5 136.5t58.5 96t94 60.5t121 32t147 9q117 0 197 -19t123.5 -57t59.5 -87.5 t9 -116.5q-3 -42 -31 -54t-127 -12q-89 0 -111.5 9t-19.5 42q5 34 -18.5 49t-85.5 15q-26 0 -44.5 -2.5t-39 -10t-31 -25t-10.5 -44.5q0 -21 11 -36.5t34.5 -27t49 -20.5t64.5 -20q7 -2 11 -3q40 -12 60.5 -18.5t55 -18t52.5 -20.5t44 -23.5t39.5 -28t30.5 -33.5t25 -42 t13.5 -50t5.5 -60q0 -102 -31.5 -170.5t-95.5 -105.5t-143 -51.5t-191 -14.5q-121 0 -204.5 19t-129 57t-62.5 87.5t-10 116.5q3 29 15 42.5t44 19.5t99 6q89 0 112.5 -10t18.5 -42z" />
<glyph unicode="t" horiz-adv-x="849" d="M770 750h-233l-43 -406q-9 -86 69 -86q29 0 65.5 10.5t37.5 10.5q26 5 41.5 -13.5t33.5 -83.5q13 -57 13 -80q0 -37 -35 -59q-77 -57 -238 -57q-164 0 -236.5 64t-72.5 202q0 22 4 76l43 422h-102q-22 0 -30.5 10t-8.5 43q0 27 6 76q9 89 16.5 108.5t36.5 20.5l121 8 l25 223q3 23 13.5 32.5t40 13t99.5 3.5q55 0 83 -1.5t46 -7t21.5 -14.5t1.5 -26l-25 -223h225q21 0 30 -12.5t9 -49.5q0 -9 -4 -71q-9 -90 -17.5 -111.5t-35.5 -21.5z" />
<glyph unicode="u" horiz-adv-x="1165" d="M705 47l4 78q-103 -145 -299 -145q-157 0 -234.5 79.5t-77.5 243.5q0 55 4 86l62 578q2 25 12 34.5t41.5 14t106.5 4.5q106 0 134 -9.5t25 -43.5l-59 -564q-7 -79 22.5 -114t100.5 -35q85 0 132.5 46.5t55.5 133.5l58 533q2 25 12 34.5t41.5 14t105.5 4.5q107 0 136 -9.5 t24 -43.5l-96 -920q-2 -23 -12.5 -33t-42.5 -14t-105 -4q-102 0 -127.5 9t-23.5 42z" />
<glyph unicode="v" horiz-adv-x="1095" d="M946 1020q61 0 96.5 -3t54.5 -10.5t21.5 -20t-2.5 -30.5q-68 -179 -196 -461.5t-220 -449.5q-14 -30 -49 -39.5t-141 -9.5q-109 0 -145.5 9.5t-47.5 39.5q-56 172 -124 455.5t-95 455.5q-5 26 4.5 39t47.5 19t118 6q94 0 125.5 -8.5t34.5 -34.5q33 -309 109 -678 q157 381 254 678q6 27 34.5 35t120.5 8z" />
<glyph unicode="w" horiz-adv-x="1683" d="M1528 1020q101 0 133 -9.5t29 -35.5l-7 -29q-40 -157 -141.5 -418t-200.5 -485q-8 -20 -22 -29.5t-51 -14.5t-109 -5q-105 0 -141.5 10.5t-42.5 40.5q-41 148 -111 580q-12 -32 -56 -147.5t-64 -167t-53 -131t-58 -134.5q-9 -21 -24.5 -31t-52.5 -15t-110 -5 q-105 0 -139.5 10t-40.5 39q-45 185 -90.5 459t-58.5 444q-2 10 -2 31q3 26 31.5 34.5t127.5 8.5q95 0 126 -9t32 -38q23 -355 60 -666q118 292 249 668q6 20 19 28.5t44 12.5t97 4q97 0 128 -8.5t34 -36.5q44 -345 106 -666q108 329 201 664q8 30 36.5 38.5t121.5 8.5z" />
<glyph unicode="x" horiz-adv-x="1130" d="M688 49l-127 336l-194 -336q-19 -32 -55.5 -42.5t-123.5 -10.5q-176 0 -179 41q0 11 9 26l291 457l-196 432q-22 43 42 58q44 10 136 10q82 0 120 -9t48 -36l129 -324h4l199 324q17 27 51 36t114 9q187 0 186 -45q-1 -10 -9 -23l-289 -432l194 -457q16 -41 -33 -55 q-42 -12 -141 -12q-89 0 -126.5 11t-49.5 42z" />
<glyph unicode="y" horiz-adv-x="1101" d="M238 -111q74 0 112.5 26t69.5 93q-46 4 -64 14t-26 33q-55 160 -126.5 442.5t-103.5 458.5q-8 40 23 52t143 12q94 0 125.5 -8.5t34.5 -34.5q36 -298 121 -676q195 471 252 676q8 27 35.5 35t119.5 8q114 0 148 -13t20 -51q-67 -175 -201.5 -486t-246.5 -542 q-57 -118 -108 -182.5t-129 -99.5t-193 -35q-94 0 -140 14q-23 6 -32 21t-9 51q0 9 2 30.5t3 28.5q6 63 14.5 93t19.5 38.5t33 8.5q11 0 43 -3.5t60 -3.5z" />
<glyph unicode="z" horiz-adv-x="993" d="M895 741l-457 -475h418q22 0 30.5 -10.5t8.5 -44.5q0 -29 -6 -78q-11 -104 -19 -119q-7 -14 -30 -14h-762q-23 0 -32 11t-9 46q0 39 4 66q6 58 15.5 83.5t33.5 51.5l471 492h-389q-23 0 -32 11t-9 46q0 27 6 76q9 91 17 112t36 21h732q23 0 32 -10.5t9 -44.5q0 -7 -1 -17 t-2 -24.5t-2 -24.5q-6 -61 -18 -89.5t-45 -64.5z" />
<glyph unicode="{" horiz-adv-x="772" d="M53 524q9 77 21.5 100t42.5 23h39q42 0 63.5 52t38.5 204q6 56 11 93.5t14.5 86.5t21 81.5t30 71t41.5 63.5t56 50.5t73.5 39.5t93.5 23t116 9h65q22 0 30.5 -10t8.5 -43q0 -39 -4 -68q-9 -81 -19 -101.5t-38 -20.5h-49q-77 0 -106.5 -65t-51.5 -271q-28 -270 -174 -318 q112 -39 112 -231q0 -55 -4 -86q-14 -144 -14 -195q0 -81 22 -111t78 -30h50q21 0 28.5 -10t7.5 -43q0 -8 -4 -70q-9 -79 -20.5 -100t-42.5 -21h-64q-108 0 -181 24t-111 71t-53 103.5t-15 135.5q0 52 12 184q10 98 10 144q0 63 -14 87.5t-45 24.5h-39q-23 0 -32 11.5 t-9 46.5q0 11 4 65z" />
<glyph unicode="|" horiz-adv-x="702" d="M500 1370v-1732q0 -22 -9.5 -32t-41 -15t-99.5 -5q-67 0 -98 5t-40 15t-9 32v1732q0 32 25 41.5t122 9.5q68 0 99.5 -4.5t41 -14.5t9.5 -32z" />
<glyph unicode="}" horiz-adv-x="772" d="M719 524q-9 -77 -21.5 -100t-42.5 -23h-39q-42 0 -63.5 -52t-38.5 -204q-6 -56 -11 -93.5t-14.5 -86.5t-21 -81.5t-30 -71t-41.5 -63.5t-56 -50.5t-73.5 -39.5t-93.5 -23t-116 -9h-65q-22 0 -30.5 10.5t-8.5 43.5q0 38 4 67q9 81 19 102t38 21h49q77 0 106.5 65t51.5 271 q28 269 174 317q-112 39 -112 232q0 55 4 86q14 144 14 194q0 81 -22 111.5t-78 30.5h-49q-21 0 -29 10t-8 43q0 7 4 69q9 79 20.5 100t42.5 21h64q108 0 181 -24t111 -71t53 -103.5t15 -135.5q0 -52 -12 -184q-10 -98 -10 -143q0 -64 14 -88.5t45 -24.5h39q23 0 32 -11 t9 -46q0 -12 -4 -66z" />
<glyph unicode="~" d="M575 719l142 -76q49 -27 76 -27q36 0 60.5 23t45.5 74q6 21 24 26.5t83 5.5q66 0 85 -10.5t7 -46.5q-100 -299 -336 -299q-67 0 -131 35l-144 76q-45 26 -75 26q-37 0 -61.5 -22.5t-45.5 -73.5q-8 -21 -25 -27t-81 -6q-65 0 -85 11t-8 47q100 299 336 299q65 0 133 -35z " />
<glyph unicode="&#xa1;" horiz-adv-x="618" d="M317 532q87 0 113.5 -10.5t24.5 -42.5l-35 -764q-1 -26 -14.5 -38t-51.5 -17.5t-118 -5.5q-118 0 -152.5 12t-28.5 49l125 764q3 23 13 33.5t37.5 15t86.5 4.5zM340 666q-81 0 -116.5 4.5t-47.5 15.5t-10 37l27 235q2 29 13.5 40.5t46 16.5t116.5 5q116 0 146.5 -11 t25.5 -51l-25 -235q-2 -26 -14 -37t-46.5 -15.5t-115.5 -4.5z" />
<glyph unicode="&#xa2;" horiz-adv-x="1077" d="M539 -4q-94 0 -117.5 7.5t-20.5 37.5l13 127q-305 61 -305 418q0 26 4 96q24 235 122.5 362t288.5 156l13 125q2 22 11 31t35.5 12.5t90.5 3.5q92 0 116 -8t21 -39l-14 -127q281 -53 264 -321q-4 -46 -32.5 -57t-139.5 -11q-91 0 -116 11.5t-23 47.5q2 38 -24 56t-89 18 q-96 0 -139 -57t-60 -203q-4 -66 -4 -88q0 -94 35 -133t115 -39q65 0 96 21t39 61q6 37 29 48t112 11q115 0 143.5 -11t24.5 -56q-35 -290 -340 -334l-12 -121q-3 -31 -24 -38t-113 -7z" />
<glyph unicode="&#xa3;" horiz-adv-x="1232" d="M227 0q-34 -18 -56 4.5t-56 99.5q-11 26 -16.5 39.5t-12.5 33.5t-7.5 31t1 24t9 21.5t20.5 14.5q73 36 117 111t44 168v24h-131q-20 0 -27.5 10.5t-7.5 41.5q0 7 1 16.5t2 23t2 23.5q8 81 14 98t31 17h63q-16 66 -16 133q0 215 141 328.5t377 113.5q243 0 354 -91.5 t94 -280.5q-4 -52 -33 -65t-130 -13q-102 0 -133.5 11.5t-28.5 47.5q6 107 -144 107q-83 0 -126.5 -46t-43.5 -135q0 -46 11 -110h268q20 0 28.5 -10.5t8.5 -42.5q0 -35 -4 -62q-8 -78 -15 -96.5t-32 -18.5h-213q2 -14 2 -41q0 -110 -58 -229q85 -31 170 -31q68 0 100.5 31 t41.5 105q3 25 15.5 36t44.5 16t101 5q103 0 133.5 -14.5t26.5 -63.5q-12 -114 -46.5 -193t-88 -121.5t-115 -60.5t-139.5 -18q-205 0 -393 110q-66 -60 -148 -102z" />
<glyph unicode="&#xa4;" horiz-adv-x="1181" d="M106 326l80 80q-51 105 -51 270t51 270l-80 80q-14 13 -5 32t53 64q43 43 62.5 52t33.5 -5l74 -75q106 59 268 59q163 0 266 -59l76 75q13 14 32 5t64 -52q43 -45 52 -64t-5 -32l-80 -80q52 -107 52 -270t-52 -270l80 -80q15 -12 5.5 -32t-52.5 -65q-45 -43 -64 -52 t-32 5l-76 74q-105 -57 -266 -57q-160 0 -268 57l-74 -74q-14 -14 -33.5 -5t-62.5 52q-43 45 -52.5 64.5t4.5 32.5zM592 461q97 0 139.5 49.5t42.5 165.5t-42.5 165.5t-139.5 49.5q-99 0 -141.5 -49.5t-42.5 -165.5t42.5 -165.5t141.5 -49.5z" />
<glyph unicode="&#xa5;" horiz-adv-x="1220" d="M1061 317h-289l-27 -268q-2 -25 -13.5 -35.5t-45 -15t-113.5 -4.5q-114 0 -143.5 9.5t-26.5 45.5l27 268h-278q-24 0 -30 18.5t1 88.5q6 75 12 91.5t29 16.5h262l-43 105h-199q-24 0 -29.5 17.5t1.5 88.5q8 75 14 92t29 17h100q-117 325 -152 446q-7 24 1 36t45.5 19 t115.5 7q81 0 117 -4.5t51 -15.5t21 -37q61 -233 153 -512q181 329 262 512q13 27 26.5 37.5t48 15t114.5 4.5q153 0 166 -30q5 -12 -6 -32q-85 -170 -246 -446h92q20 0 27.5 -9.5t7.5 -39.5q0 -6 -4 -60q-8 -73 -14 -89.5t-29 -16.5h-207l-66 -105h252q24 0 30.5 -18.5 t0.5 -89.5q-8 -73 -14.5 -90t-30.5 -17z" />
<glyph unicode="&#xa6;" horiz-adv-x="702" d="M500 315v-677q0 -22 -9.5 -32t-41 -15t-99.5 -5q-67 0 -98 5t-40 15t-9 32v677q0 22 9 32t40 15t98 5q68 0 99.5 -5t41 -15t9.5 -32zM500 1370v-678q0 -22 -9.5 -32t-41 -14.5t-99.5 -4.5q-97 0 -122 9.5t-25 41.5v678q0 32 25 41.5t122 9.5q68 0 99.5 -4.5t41 -14.5 t9.5 -32z" />
<glyph unicode="&#xa7;" horiz-adv-x="1196" d="M348 -68q-2 -44 30.5 -67t115.5 -23q40 0 70.5 6t57 21t40.5 44t14 71q0 54 -45.5 80.5t-173.5 62.5q-74 20 -127.5 43t-105 60.5t-78.5 95t-27 133.5q0 235 209 319q-109 95 -109 232q0 99 36 171.5t102 114t150 61t189 19.5q234 0 328 -74t80 -219q-5 -44 -30 -55.5 t-122 -11.5q-64 0 -91 4t-34.5 14t-5.5 33q2 42 -27 62t-102 20q-39 0 -71 -8t-59 -35.5t-27 -73.5q0 -59 50.5 -97t155.5 -69q48 -14 77.5 -23.5t70.5 -25.5t65.5 -32t52.5 -40t43 -51t25 -64.5t10 -82.5q0 -227 -182 -314q82 -79 82 -210q0 -209 -130 -307.5t-366 -98.5 q-129 0 -217.5 21t-134 62t-62 93.5t-9.5 122.5q3 31 13 43.5t40 18.5t98 6q62 0 90 -5t35.5 -15t5.5 -32zM797 510q0 29 -12.5 51t-29.5 36.5t-52 27.5t-61 20t-75 19q-63 -13 -107 -53.5t-44 -102.5q0 -27 12.5 -48.5t29 -35.5t50 -28t57 -21.5t68.5 -20.5l12 -4 q65 13 108.5 53.5t43.5 106.5z" />
<glyph unicode="&#xa8;" horiz-adv-x="782" d="M276 1401q100 0 128 -13t22 -63l-12 -115q-4 -49 -31 -62t-125 -13q-101 0 -128 14.5t-21 67.5l12 108q4 51 30 63.5t125 12.5zM707 1401q100 0 127.5 -13t21.5 -63l-12 -115q-4 -49 -31 -62t-125 -13q-101 0 -128 14.5t-21 67.5l12 108q4 51 30.5 63.5t125.5 12.5z" />
<glyph unicode="&#xa9;" horiz-adv-x="1626" d="M494 676q0 204 78 296.5t251 92.5q143 0 219 -66.5t78 -187.5q0 -29 -18 -37t-80 -8q-61 0 -78.5 7.5t-17.5 31.5q-3 44 -26 66t-73 22q-75 0 -104 -46.5t-29 -170.5q0 -126 29 -171.5t104 -45.5q100 0 103 94q0 22 17 29.5t77 7.5q61 0 79.5 -7t18.5 -34 q-2 -128 -76.5 -195t-222.5 -67q-173 0 -251 92.5t-78 296.5zM813 1374q355 0 516.5 -166.5t161.5 -529.5q0 -364 -161 -530t-517 -166q-357 0 -518.5 166t-161.5 530q0 363 161.5 529.5t518.5 166.5zM813 147q271 0 385.5 120t114.5 411t-114.5 409.5t-385.5 118.5 q-182 0 -290 -50.5t-160 -166t-52 -311.5q0 -291 115.5 -411t386.5 -120z" />
<glyph unicode="&#xaa;" horiz-adv-x="761" d="M506 963h-107q-84 0 -84 -62q0 -25 16 -34t52 -9q51 0 85 21t38 61v23zM375 1163q-3 -21 -16 -25.5t-78 -4.5q-69 0 -87.5 7t-15.5 36q11 97 77.5 147.5t213.5 50.5q158 0 216.5 -61.5t45.5 -184.5l-39 -376q-1 -17 -7 -24t-26 -10t-67 -3q-69 0 -88 7t-17 30l5 45 q-67 -88 -183 -88q-96 0 -143 47t-47 118q0 111 68 159t194 48h139l4 47q5 47 -8 62.5t-63 15.5q-75 0 -78 -43z" />
<glyph unicode="&#xab;" horiz-adv-x="1214" d="M104 565q6 46 31 78l191 242q23 28 53.5 35.5t122.5 7.5q150 0 150 -35q0 -8 -9 -19l-250 -309l187 -309q17 -35 -39 -46q-36 -7 -107 -7q-93 0 -125 7.5t-49 35.5l-141 241q-20 34 -15 78zM608 565q6 46 31 78l190 242q23 28 54 35.5t123 7.5q150 0 150 -35q0 -8 -9 -19 l-250 -309l186 -309q17 -35 -38 -46q-35 -7 -107 -7q-93 0 -125 7.5t-49 35.5l-141 241q-20 34 -15 78z" />
<glyph unicode="&#xad;" horiz-adv-x="847" d="M166 692h567q23 0 33 -12t10 -49q0 -25 -6 -72q-9 -89 -18 -111t-37 -22h-568q-24 0 -33.5 12t-9.5 51q0 8 1 18.5t2 25.5t2 26q11 91 19.5 112t37.5 21z" />
<glyph unicode="&#xae;" horiz-adv-x="1136" d="M569 1372q240 0 349.5 -114.5t109.5 -352.5q0 -239 -109.5 -354t-349.5 -115t-350 115t-110 354q0 238 110 352.5t350 114.5zM569 565q180 0 251 77t71 263q0 184 -71.5 261t-250.5 77t-251 -77t-72 -261q0 -186 71.5 -263t251.5 -77zM559 834h-29v-146q0 -12 -12 -16 t-51 -4q-40 0 -52 4t-12 16v430q0 10 10.5 14.5t43.5 4.5h129q99 0 142.5 -37t43.5 -117q0 -90 -78 -127q26 -16 43 -39q39 -53 45 -125q2 -13 -10 -17.5t-55 -4.5q-34 0 -44.5 4t-13.5 16q-10 52 -24 80q-25 64 -76 64zM530 1030v-100h54q38 0 52.5 10.5t14.5 38.5 q0 30 -14 40.5t-53 10.5h-54z" />
<glyph unicode="&#xaf;" horiz-adv-x="782" d="M772 1147h-596q-25 0 -30 15.5t1 86.5q8 74 13.5 89.5t27.5 15.5h596q24 0 29.5 -17t-0.5 -88q-8 -73 -13 -87.5t-28 -14.5z" />
<glyph unicode="&#xb0;" horiz-adv-x="765" d="M475 1372q133 0 201.5 -62t68.5 -177q0 -151 -76 -234.5t-233 -83.5q-132 0 -201 62.5t-69 177.5q0 150 75.5 233.5t233.5 83.5zM442 977q65 0 99 36t34 105q0 92 -106 92q-64 0 -98.5 -37t-34.5 -102q0 -94 106 -94z" />
<glyph unicode="&#xb1;" d="M805 1225l-29 -271h277q22 0 31.5 -12t9.5 -49q0 -10 -4 -68q-9 -86 -18.5 -107.5t-37.5 -21.5h-284l-29 -270q-3 -29 -25 -37t-108 -8q-89 0 -113.5 8.5t-21.5 36.5l28 270h-274q-23 0 -33 12t-10 50q0 9 4 67q9 86 18 107.5t37 21.5h285l29 271q2 21 10.5 30t35 13 t87.5 4q90 0 114 -8.5t21 -38.5zM152 260h827q22 0 31.5 -12t9.5 -49q0 -12 -4 -70q-9 -88 -17.5 -108.5t-35.5 -20.5h-828q-25 0 -35 12t-10 51q0 12 4 66q9 87 19 109t39 22z" />
<glyph unicode="&#xb2;" horiz-adv-x="741" d="M653 651h-510q-20 0 -26 15.5t0 70.5l2 25q3 29 16.5 55t30 44.5t46 39.5t50 32.5t56.5 31.5t53 30q30 16 46 26.5t42.5 31.5t39.5 46t13 54q0 55 -61 55q-38 0 -58 -14.5t-26 -50.5q-3 -24 -19 -30.5t-78 -6.5q-63 0 -84 8.5t-18 34.5q13 122 85.5 175.5t209.5 53.5 q128 0 191 -55t63 -149q0 -88 -54.5 -150t-156.5 -121q-19 -12 -67.5 -38t-67.5 -40h291q18 0 22.5 -14t-0.5 -74q-1 -9 -3 -24q-5 -43 -9 -52.5t-19 -9.5z" />
<glyph unicode="&#xb3;" horiz-adv-x="741" d="M406 946h-54q-18 0 -21 10.5t1 57.5q4 48 8.5 57.5t19.5 9.5h64q44 0 70 17t26 63q0 51 -71 51q-77 0 -82 -45q-5 -23 -20 -28.5t-77 -5.5q-63 0 -83 8.5t-17 36.5q15 108 86.5 155t206.5 47q127 0 193.5 -50.5t66.5 -141.5q0 -118 -111 -170q88 -30 88 -139 q0 -116 -82.5 -177t-211.5 -61q-142 0 -214 47.5t-63 153.5q1 29 18.5 37t79.5 8q64 0 81.5 -6.5t17.5 -30.5q0 -41 82 -41q41 0 67.5 19.5t26.5 60.5q0 32 -22.5 44.5t-73.5 12.5z" />
<glyph unicode="&#xb4;" horiz-adv-x="782" d="M696 1274l-368 -148q-23 -10 -35.5 0.5t-32.5 57.5q-20 49 -19.5 65t23.5 29l348 205q20 13 37.5 -2.5t46.5 -83.5q26 -71 25 -92t-25 -31z" />
<glyph unicode="&#xb6;" horiz-adv-x="1071" d="M1176 1180h-119q-68 0 -96 -21.5t-35 -87.5l-109 -1038q-11 -102 -39.5 -177t-66 -120t-90.5 -72t-105.5 -36t-118.5 -9q-68 0 -84 2q-28 6 -32.5 22t2.5 85q9 71 17 87.5t36 16.5h57q53 0 82.5 15.5t50 62.5t29.5 137l45 399h-8q-109 0 -178 6.5t-123 23.5t-81.5 49.5 t-40.5 79.5t-13 120q0 70 16 201q11 113 22 179.5t35 127t55 89.5t88.5 51t128.5 28t183 6h504q31 0 39.5 -22t1.5 -93q-14 -86 -20 -97q-9 -15 -33 -15z" />
<glyph unicode="&#xb7;" horiz-adv-x="546" d="M274 377q-81 0 -116.5 4.5t-47.5 15.5t-10 37l27 236q2 29 13.5 40.5t46 16t116.5 4.5q117 0 147 -10.5t25 -50.5l-24 -236q-2 -26 -14.5 -37t-47 -15.5t-115.5 -4.5z" />
<glyph unicode="&#xb8;" horiz-adv-x="782" d="M395 -84h11q101 0 150.5 -31t49.5 -114q0 -120 -55 -168.5t-184 -51.5h-211q-18 0 -21.5 12.5t2.5 63.5q6 52 10.5 63t20.5 11h203q59 0 59 51q0 18 -12.5 24.5t-44.5 6.5h-109q-42 0 -57 8.5t-6 30.5l73 176q6 15 20 18.5t62 3.5q47 0 58.5 -4.5t7.5 -21.5z" />
<glyph unicode="&#xb9;" horiz-adv-x="741" d="M639 651h-459q-18 0 -22 13.5t2 72.5q6 61 11.5 74.5t23.5 13.5h135l37 351l-123 -21q-22 -5 -27 12.5t2 75.5q6 57 12 71t25 17l289 47q24 5 34 -1.5t9 -24.5l-56 -527h121q18 0 22 -14t-1 -74q-8 -62 -12.5 -74t-22.5 -12z" />
<glyph unicode="&#xba;" horiz-adv-x="796" d="M365 1040l-5 -63q0 -54 20 -77t66 -23q59 0 83.5 35t35.5 128q4 40 4 58q0 57 -20.5 81.5t-67.5 24.5q-57 0 -82 -36.5t-34 -127.5zM154 1042q18 174 95 253t240 79q150 0 220.5 -67t70.5 -205q0 -16 -4 -66q-15 -171 -95 -250t-245 -79q-148 0 -217 66.5t-69 203.5 q0 19 4 65z" />
<glyph unicode="&#xbb;" horiz-adv-x="1214" d="M606 565q-6 -46 -31 -78l-190 -241q-23 -28 -53.5 -35.5t-122.5 -7.5q-150 0 -150 34q0 8 9 19l249 309l-186 309q-18 36 41 47q35 7 104 7q93 0 125.5 -8t49.5 -35l141 -242q20 -33 14 -78zM1110 565q-6 -46 -31 -78l-190 -241q-23 -28 -53.5 -35.5t-122.5 -7.5 q-151 0 -151 34q0 9 9 19l250 309l-186 309q-18 36 41 47q35 7 104 7q93 0 125 -7.5t49 -35.5l142 -242q20 -33 14 -78z" />
<glyph unicode="&#xbc;" horiz-adv-x="1740" d="M1507 1305l-821 -1260q-14 -24 -21.5 -31t-34.5 -12.5t-87 -5.5q-38 0 -60.5 2.5t-34 8.5t-11 16.5t8.5 25.5l820 1262q2 3 8.5 12.5t8.5 11t8 8t11.5 7.5t15 4t22 3.5t29.5 1.5t40 1q101 0 107 -25q3 -11 -9 -30zM1432 -2q-67 0 -86 6.5t-17 28.5l14 135h-303 q-21 0 -26 13t0 65q3 35 8 50t20 32l330 370q14 18 32.5 22.5t82.5 4.5q71 0 92.5 -6.5t19.5 -26.5l-38 -360h67q20 0 25.5 -15t1.5 -67q-6 -57 -11.5 -69.5t-23.5 -12.5h-76l-14 -135q-2 -23 -17.5 -29t-80.5 -6zM639 647h-459q-18 0 -22 13.5t2 72.5q6 61 11.5 74.5 t23.5 13.5h135l37 350l-123 -20q-22 -5 -27 12.5t2 75.5q6 57 12 71t25 17l289 47q24 5 34 -1.5t9 -24.5l-56 -527h121q18 0 22 -14t-1 -74q-8 -62 -12.5 -74t-22.5 -12zM1202 332h168l23 211z" />
<glyph unicode="&#xbd;" horiz-adv-x="1740" d="M1454 1305l-821 -1260q-11 -19 -15.5 -24.5t-19.5 -13.5t-39 -9.5t-70 -1.5q-38 0 -60 2.5t-34 8.5t-11 16.5t9 25.5l819 1262q1 2 8.5 12.5t8.5 11t8 7.5t12 7.5t15 4.5t22.5 4t29.5 1t40 1q101 0 107 -25q3 -11 -9 -30zM1581 -12h-510q-20 0 -26.5 15.5t-0.5 70.5l3 24 q3 29 16.5 55t29.5 44.5t46 40t49.5 33t56.5 32t53 29.5q31 17 46.5 26.5t42.5 30.5t40 46t13 54q0 56 -62 56q-38 0 -58 -15t-26 -51q-3 -24 -19 -30.5t-77 -6.5q-63 0 -84 8.5t-18 34.5q13 122 85.5 176t209.5 54q128 0 191 -55.5t63 -149.5q0 -87 -54.5 -149t-156.5 -121 q-20 -12 -69 -38t-67 -40h291q19 0 23.5 -14t-0.5 -74q-1 -9 -3 -24q-5 -43 -9 -52.5t-19 -9.5zM639 647h-459q-18 0 -22 13.5t2 72.5q6 61 11.5 74.5t23.5 13.5h135l37 350l-123 -20q-22 -5 -27 12.5t2 75.5q6 57 12 71t25 17l289 47q24 5 34 -1.5t9 -24.5l-56 -527h121 q18 0 22 -14t-1 -74q-8 -62 -12.5 -74t-22.5 -12z" />
<glyph unicode="&#xbe;" horiz-adv-x="1740" d="M1479 1305l-822 -1260q-14 -24 -21.5 -31t-34.5 -12.5t-87 -5.5q-38 0 -60 2.5t-34 8.5t-11 16.5t9 25.5l819 1262q2 3 8.5 12.5t8.5 11t8 8t11.5 7.5t15 4t22 3.5t29.5 1.5t40 1q103 0 108 -26q1 -11 -9 -29zM406 942h-54q-18 0 -21 10.5t1 57.5q4 48 8.5 57.5t19.5 9.5 h64q44 0 70 17t26 63q0 51 -71 51q-77 0 -82 -45q-5 -23 -20 -29t-77 -6q-63 0 -83 8.5t-17 37.5q15 108 86.5 155t206.5 47q127 0 193.5 -50.5t66.5 -141.5q0 -118 -111 -170q41 -14 64.5 -50t23.5 -90q0 -116 -82.5 -176.5t-211.5 -60.5q-142 0 -214 47.5t-63 153.5 q1 29 18.5 37t79.5 8q64 0 81.5 -6.5t17.5 -30.5q0 -41 82 -41q41 0 67.5 19.5t26.5 60.5q0 32 -22.5 44.5t-73.5 12.5zM1432 -2q-67 0 -86 6.5t-17 28.5l14 135h-303q-21 0 -26 13t0 65q3 35 8 50t20 32l330 370q14 18 32.5 22.5t82.5 4.5q71 0 92.5 -6.5t19.5 -26.5 l-38 -360h67q20 0 25.5 -15t1.5 -67q-6 -57 -11.5 -69.5t-23.5 -12.5h-76l-14 -135q-2 -23 -17.5 -29t-80.5 -6zM1202 332h168l23 211z" />
<glyph unicode="&#xbf;" horiz-adv-x="1140" d="M449 461l8 33q4 23 13.5 31.5t38 13t95.5 4.5q97 0 120 -8.5t21 -40.5v-43q-2 -44 -21 -81.5t-49 -64.5t-65.5 -52t-70.5 -49.5t-64 -50.5t-47 -61t-18 -76q0 -49 29 -71.5t91 -22.5q75 0 114.5 28.5t49.5 94.5q4 26 15 37.5t44.5 17.5t102.5 6q106 0 137 -14t27 -61 q-23 -205 -150.5 -298t-363.5 -93q-221 0 -327.5 90t-106.5 239q0 79 25.5 141.5t64.5 100t86 71t88.5 57t73 55t39.5 67.5zM621 666q-117 0 -147.5 10t-27.5 47l27 235q2 29 13.5 40.5t46 16.5t116.5 5q116 0 146.5 -11t25.5 -51l-24 -235q-2 -26 -14 -37t-46.5 -15.5 t-115.5 -4.5z" />
<glyph unicode="&#xc0;" horiz-adv-x="1280" d="M1040 -4q-119 0 -153.5 11.5t-38.5 55.5q-10 107 -27 236h-387q-43 -128 -74 -236q-12 -44 -46 -55.5t-150 -11.5q-105 0 -134.5 12t-17.5 49q80 248 235.5 640.5t262.5 605.5q19 35 59.5 46t165.5 11q127 0 170.5 -11.5t52.5 -45.5q60 -210 133 -600t105 -646 q5 -38 -23.5 -49.5t-132.5 -11.5zM735 1456l-356 135q-16 7 -20.5 16.5t4 36t36.5 76.5q28 49 46 71t30.5 24t24.5 -7l325 -196q22 -11 21.5 -28t-29.5 -68q-29 -50 -43 -60t-39 0zM705 1014q-99 -243 -173 -443h250q-48 296 -77 443z" />
<glyph unicode="&#xc1;" horiz-adv-x="1280" d="M1040 -4q-119 0 -153.5 11.5t-38.5 55.5q-10 107 -27 236h-387q-43 -128 -74 -236q-12 -44 -46 -55.5t-150 -11.5q-105 0 -134.5 12t-17.5 49q80 248 235.5 640.5t262.5 605.5q19 35 59.5 46t165.5 11q127 0 170.5 -11.5t52.5 -45.5q60 -210 133 -600t105 -646 q5 -38 -23.5 -49.5t-132.5 -11.5zM1153 1591l-387 -135q-25 -10 -37 1t-31 61q-19 53 -17 69.5t26 28.5l368 196q22 14 39 -2.5t45 -87.5q23 -77 21 -99t-27 -32zM705 1014q-99 -243 -173 -443h250q-48 296 -77 443z" />
<glyph unicode="&#xc2;" horiz-adv-x="1280" d="M1040 -4q-119 0 -153.5 11.5t-38.5 55.5q-10 107 -27 236h-387q-43 -128 -74 -236q-12 -44 -46 -55.5t-150 -11.5q-105 0 -134.5 12t-17.5 49q80 248 235.5 640.5t262.5 605.5q19 35 59.5 46t165.5 11q127 0 170.5 -11.5t52.5 -45.5q60 -210 133 -600t105 -646 q5 -38 -23.5 -49.5t-132.5 -11.5zM764 1577l-111 -94q-24 -21 -42.5 -27t-67.5 -6q-120 0 -110 33q2 6 7 12l207 217q18 19 26 25t33.5 12t71.5 6q67 0 92 -9t41 -34l160 -217q23 -34 -42 -42q-23 -3 -58 -3q-51 0 -74.5 7t-42.5 26zM705 1014q-99 -243 -173 -443h250 q-48 296 -77 443z" />
<glyph unicode="&#xc3;" horiz-adv-x="1280" d="M1040 -4q-119 0 -153.5 11.5t-38.5 55.5q-10 107 -27 236h-387q-43 -128 -74 -236q-12 -44 -46 -55.5t-150 -11.5q-105 0 -134.5 12t-17.5 49q80 248 235.5 640.5t262.5 605.5q19 35 59.5 46t165.5 11q127 0 170.5 -11.5t52.5 -45.5q60 -210 133 -600t105 -646 q5 -38 -23.5 -49.5t-132.5 -11.5zM936 1673l2 25q3 17 8.5 23.5t23 10t58.5 3.5q56 0 75 -7t15 -30l-12 -74q-30 -178 -199 -174q-63 0 -143 41l-84 49q-24 12 -43 12q-36 0 -41 -41l-2 -26q-5 -23 -18.5 -29t-69.5 -6q-57 0 -76.5 7t-15.5 30l12 72q30 176 203 176 q64 0 139 -43l84 -47q24 -15 43 -15q35 0 41 43zM705 1014q-99 -243 -173 -443h250q-48 296 -77 443z" />
<glyph unicode="&#xc4;" horiz-adv-x="1280" d="M1040 -4q-119 0 -153.5 11.5t-38.5 55.5q-10 107 -27 236h-387q-43 -128 -74 -236q-12 -44 -46 -55.5t-150 -11.5q-105 0 -134.5 12t-17.5 49q80 248 235.5 640.5t262.5 605.5q19 35 59.5 46t165.5 11q127 0 170.5 -11.5t52.5 -45.5q60 -210 133 -600t105 -646 q5 -38 -23.5 -49.5t-132.5 -11.5zM995 1724q100 0 128 -13t22 -62l-12 -117q-5 -50 -31.5 -63t-124.5 -13q-100 0 -126.5 15t-21.5 69l13 109q3 35 14.5 49.5t40.5 20t98 5.5zM553 1724q100 0 127.5 -13t21.5 -62l-12 -117q-5 -50 -31 -63t-124 -13q-100 0 -126.5 15 t-21.5 69l12 109q3 35 14.5 49.5t41 20t98.5 5.5zM705 1014q-99 -243 -173 -443h250q-48 296 -77 443z" />
<glyph unicode="&#xc5;" horiz-adv-x="1280" d="M1040 -4q-119 0 -153.5 11.5t-38.5 55.5q-10 107 -27 236h-387q-43 -128 -74 -236q-12 -44 -46 -55.5t-150 -11.5q-105 0 -134.5 12t-17.5 49q80 248 235.5 640.5t262.5 605.5q9 17 22 28q-16 40 -16 86q0 112 61.5 176t184.5 64q105 0 163 -49.5t58 -137.5 q0 -85 -37 -143l12 -24q60 -210 133 -600t105 -646q5 -38 -23.5 -49.5t-132.5 -11.5zM705 1014q-99 -243 -173 -443h250q-48 296 -77 443zM741 1362q93 0 93 94q0 66 -78 66q-41 0 -66.5 -22t-25.5 -70q0 -68 77 -68z" />
<glyph unicode="&#xc6;" horiz-adv-x="1921" d="M1837 1067h-498l-22 -231h409q26 0 37 -12t11 -50q0 -21 -7 -82q-11 -99 -19.5 -121t-39.5 -22h-422l-26 -260h497q24 0 34.5 -13t10.5 -53q0 -29 -6 -78q-10 -99 -19.5 -122t-39.5 -23h-668q-115 0 -146 10t-26 45l27 256h-439q-77 -145 -127 -248q-20 -44 -56 -55.5 t-155 -11.5q-97 0 -128 12t-11 49q144 279 350 642t359 597q17 26 35 37t61 17t129 6h916q24 0 34.5 -13t10.5 -53q0 -22 -7 -80q-9 -96 -19 -119.5t-40 -23.5zM915 1075q-113 -192 -274 -477h311l49 477h-86z" />
<glyph unicode="&#xc7;" horiz-adv-x="1271" d="M633 -82h10q106 0 156.5 -32.5t50.5 -118.5q0 -116 -57.5 -170t-186.5 -54h-217q-18 0 -22.5 12.5t0.5 65.5q1 9 2 24q3 35 6 42.5t18 7.5h211q31 0 47.5 12t16.5 43q0 19 -13 26t-45 7h-108q-44 0 -60.5 8.5t-7.5 30.5l70 168q-200 28 -294.5 155t-94.5 369q0 85 8 164 q40 374 185.5 536t451.5 162q249 0 373.5 -116t105.5 -324q-4 -47 -35.5 -59.5t-138.5 -12.5q-103 0 -133.5 12t-28.5 50q5 76 -31 114.5t-124 38.5q-91 0 -144 -35t-84.5 -121t-48.5 -245q-10 -102 -10 -158q0 -138 46.5 -191t156.5 -53q88 0 135 39.5t59 122.5 q4 26 16.5 38t46.5 18t105 6q106 0 138 -12.5t26 -57.5q-27 -219 -158 -333t-379 -117z" />
<glyph unicode="&#xc8;" d="M1083 1067h-542l-25 -231h459q25 0 35 -11.5t10 -50.5q0 -30 -6 -82q-11 -100 -19.5 -121.5t-40.5 -21.5h-467l-28 -260h545q24 0 34.5 -13t10.5 -53q0 -20 -7 -78q-11 -100 -19.5 -122.5t-39.5 -22.5h-715q-80 0 -115 4.5t-47 15t-10 35.5l131 1243q3 26 14 36.5 t45.5 16t112.5 5.5h705q24 0 34.5 -13t10.5 -53q0 -30 -6 -80q-6 -67 -13 -96t-16.5 -38t-30.5 -9zM729 1456l-356 135q-16 7 -20.5 16.5t4 36t36.5 76.5q28 49 46 71t30.5 24t24.5 -7l325 -196q22 -11 21.5 -28t-29.5 -68q-29 -50 -43 -60t-39 0z" />
<glyph unicode="&#xc9;" d="M1083 1067h-542l-25 -231h459q25 0 35 -11.5t10 -50.5q0 -30 -6 -82q-11 -100 -19.5 -121.5t-40.5 -21.5h-467l-28 -260h545q24 0 34.5 -13t10.5 -53q0 -20 -7 -78q-11 -100 -19.5 -122.5t-39.5 -22.5h-715q-80 0 -115 4.5t-47 15t-10 35.5l131 1243q3 26 14 36.5 t45.5 16t112.5 5.5h705q24 0 34.5 -13t10.5 -53q0 -30 -6 -80q-6 -67 -13 -96t-16.5 -38t-30.5 -9zM1059 1591l-387 -135q-25 -10 -37 1t-31 61q-20 53 -18 69.5t26 28.5l369 196q22 14 39 -2.5t45 -87.5q23 -77 21 -99t-27 -32z" />
<glyph unicode="&#xca;" d="M1083 1067h-542l-25 -231h459q25 0 35 -11.5t10 -50.5q0 -30 -6 -82q-11 -100 -19.5 -121.5t-40.5 -21.5h-467l-28 -260h545q24 0 34.5 -13t10.5 -53q0 -20 -7 -78q-11 -100 -19.5 -122.5t-39.5 -22.5h-715q-80 0 -115 4.5t-47 15t-10 35.5l131 1243q3 26 14 36.5 t45.5 16t112.5 5.5h705q24 0 34.5 -13t10.5 -53q0 -30 -6 -80q-6 -67 -13 -96t-16.5 -38t-30.5 -9zM727 1577l-111 -94q-24 -21 -42.5 -27t-67.5 -6q-120 0 -110 33q2 6 7 12l207 217q18 19 26 25t33.5 12t71.5 6q67 0 92 -9t41 -34l160 -217q23 -34 -42 -42q-23 -3 -58 -3 q-51 0 -74.5 7t-42.5 26z" />
<glyph unicode="&#xcb;" d="M1083 1067h-542l-25 -231h459q25 0 35 -11.5t10 -50.5q0 -30 -6 -82q-11 -100 -19.5 -121.5t-40.5 -21.5h-467l-28 -260h545q24 0 34.5 -13t10.5 -53q0 -20 -7 -78q-11 -100 -19.5 -122.5t-39.5 -22.5h-715q-80 0 -115 4.5t-47 15t-10 35.5l131 1243q3 26 14 36.5 t45.5 16t112.5 5.5h705q24 0 34.5 -13t10.5 -53q0 -30 -6 -80q-6 -67 -13 -96t-16.5 -38t-30.5 -9zM518 1724q100 0 128 -13t22 -62l-13 -117q-5 -50 -31 -63t-124 -13q-100 0 -126.5 15t-21.5 69l13 109q3 35 14.5 49.5t40.5 20t98 5.5zM961 1724q100 0 127.5 -13t21.5 -62 l-12 -117q-5 -50 -31.5 -63t-124.5 -13q-100 0 -126 15t-21 69l12 109q3 35 14.5 49.5t41 20t98.5 5.5z" />
<glyph unicode="&#xcc;" horiz-adv-x="614" d="M270 -6q-80 0 -115.5 5t-46 15.5t-8.5 34.5l133 1256q2 26 12.5 36t44 14.5t113.5 4.5q114 0 143.5 -9.5t26.5 -45.5l-133 -1256q-2 -25 -12.5 -35t-45 -15t-112.5 -5zM401 1456l-356 135q-16 7 -20.5 16.5t4.5 36t37 76.5q41 71 62 88t38 0l326 -196q22 -11 21 -27.5 t-30 -68.5q-29 -50 -43 -60t-39 0z" />
<glyph unicode="&#xcd;" horiz-adv-x="614" d="M270 -6q-80 0 -115.5 5t-46 15.5t-8.5 34.5l133 1256q2 26 12.5 36t44 14.5t113.5 4.5q114 0 143.5 -9.5t26.5 -45.5l-133 -1256q-2 -25 -12.5 -35t-45 -15t-112.5 -5zM819 1591l-387 -135q-24 -10 -36 1t-31 61q-20 53 -18 69.5t26 28.5l368 196q22 14 39 -2.5t45 -87.5 q23 -77 21 -99t-27 -32z" />
<glyph unicode="&#xce;" horiz-adv-x="614" d="M270 -6q-80 0 -115.5 5t-46 15.5t-8.5 34.5l133 1256q2 26 12.5 36t44 14.5t113.5 4.5q114 0 143.5 -9.5t26.5 -45.5l-133 -1256q-2 -25 -12.5 -35t-45 -15t-112.5 -5zM430 1577l-111 -94q-24 -21 -42.5 -27t-67.5 -6q-120 0 -110 33q2 6 7 12l207 217q18 19 26 25 t33.5 12t71.5 6q67 0 92.5 -9t41.5 -34l159 -217q23 -34 -42 -42q-23 -3 -58 -3q-51 0 -74.5 7t-42.5 26z" />
<glyph unicode="&#xcf;" horiz-adv-x="614" d="M270 -6q-80 0 -115.5 5t-46 15.5t-8.5 34.5l133 1256q2 26 12.5 36t44 14.5t113.5 4.5q114 0 143.5 -9.5t26.5 -45.5l-133 -1256q-2 -25 -12.5 -35t-45 -15t-112.5 -5zM219 1724q100 0 128 -13t22 -62l-13 -117q-5 -50 -31 -63t-124 -13q-100 0 -126.5 15t-21.5 69 l13 109q3 35 14.5 49.5t40.5 20t98 5.5zM662 1724q100 0 127.5 -13t21.5 -62l-12 -117q-5 -50 -31.5 -63t-124.5 -13q-100 0 -126 15t-21 69l12 109q3 35 14.5 49.5t41 20t98.5 5.5z" />
<glyph unicode="&#xd0;" horiz-adv-x="1298" d="M586 0h-316q-114 0 -143.5 9.5t-26.5 45.5l52 496h-72q-24 0 -29 16.5t0 87.5q8 73 13.5 88t27.5 15h82l57 540q3 37 33 47.5t144 10.5h301q279 0 405.5 -122.5t126.5 -395.5q0 -46 -8 -160q-35 -363 -184.5 -520.5t-462.5 -157.5zM465 293h139q132 0 195 84t86 301 q8 65 8 133q0 137 -49 194.5t-158 57.5h-141l-33 -305h154q24 0 29.5 -17t-1.5 -86q-6 -72 -12 -88t-29 -16h-161z" />
<glyph unicode="&#xd1;" horiz-adv-x="1396" d="M1190 1360q116 0 145.5 -9.5t24.5 -45.5l-131 -1252q-2 -26 -13.5 -36.5t-50 -15.5t-127.5 -5q-93 0 -126 10t-44 37l-356 756l-76 -748q-2 -25 -13.5 -35.5t-45 -15t-113.5 -4.5t-114 4.5t-45 15t-9 35.5l131 1252q3 26 14.5 36.5t50 15.5t126.5 5q92 0 125.5 -10 t44.5 -37l354 -756l78 748q3 26 13.5 36t44 14.5t112.5 4.5zM993 1673l2 25q3 17 8.5 23.5t23 10t58.5 3.5q56 0 75.5 -7.5t15.5 -29.5l-13 -74q-30 -178 -198 -174q-64 0 -144 41l-84 49q-24 12 -43 12q-36 0 -41 -41l-2 -26q-5 -23 -18.5 -29t-69.5 -6q-57 0 -76.5 7 t-15.5 30l12 72q30 176 203 176q64 0 139 -43l84 -47q24 -15 43 -15q35 0 41 43z" />
<glyph unicode="&#xd2;" horiz-adv-x="1359" d="M770 1376q278 0 405.5 -126.5t127.5 -405.5q0 -78 -9 -166q-37 -373 -184.5 -535.5t-460.5 -162.5q-279 0 -406.5 127t-127.5 407q0 85 8 164q26 251 97.5 402t204.5 223.5t345 72.5zM666 270q136 0 195.5 86.5t84.5 321.5q10 102 10 160q0 139 -46 193t-158 54 q-136 0 -196 -86t-85 -321q-10 -102 -10 -160q0 -139 47 -193.5t158 -54.5zM784 1456l-356 135q-16 7 -20.5 16.5t4.5 36t37 76.5q41 71 62 88t38 0l325 -196q22 -11 21.5 -28t-29.5 -68q-29 -50 -43 -60t-39 0z" />
<glyph unicode="&#xd3;" horiz-adv-x="1359" d="M770 1376q278 0 405.5 -126.5t127.5 -405.5q0 -78 -9 -166q-37 -373 -184.5 -535.5t-460.5 -162.5q-279 0 -406.5 127t-127.5 407q0 85 8 164q26 251 97.5 402t204.5 223.5t345 72.5zM666 270q136 0 195.5 86.5t84.5 321.5q10 102 10 160q0 139 -46 193t-158 54 q-136 0 -196 -86t-85 -321q-10 -102 -10 -160q0 -139 47 -193.5t158 -54.5zM1182 1591l-387 -135q-25 -10 -37 1t-31 61q-20 53 -18 69.5t26 28.5l369 196q22 14 39 -2.5t45 -87.5q23 -77 21 -99t-27 -32z" />
<glyph unicode="&#xd4;" horiz-adv-x="1359" d="M770 1376q278 0 405.5 -126.5t127.5 -405.5q0 -78 -9 -166q-37 -373 -184.5 -535.5t-460.5 -162.5q-279 0 -406.5 127t-127.5 407q0 85 8 164q26 251 97.5 402t204.5 223.5t345 72.5zM666 270q136 0 195.5 86.5t84.5 321.5q10 102 10 160q0 139 -46 193t-158 54 q-136 0 -196 -86t-85 -321q-10 -102 -10 -160q0 -139 47 -193.5t158 -54.5zM803 1577l-111 -94q-24 -21 -42.5 -27t-67.5 -6q-120 0 -110 33q2 6 7 12l207 217q18 19 26 25t33.5 12t71.5 6q67 0 92 -9t41 -34l160 -217q23 -34 -42 -42q-23 -3 -58 -3q-51 0 -74.5 7t-42.5 26 z" />
<glyph unicode="&#xd5;" horiz-adv-x="1359" d="M770 1376q278 0 405.5 -126.5t127.5 -405.5q0 -78 -9 -166q-37 -373 -184.5 -535.5t-460.5 -162.5q-279 0 -406.5 127t-127.5 407q0 85 8 164q26 251 97.5 402t204.5 223.5t345 72.5zM666 270q136 0 195.5 86.5t84.5 321.5q10 102 10 160q0 139 -46 193t-158 54 q-136 0 -196 -86t-85 -321q-10 -102 -10 -160q0 -139 47 -193.5t158 -54.5zM975 1673l2 25q3 17 8.5 23.5t23 10t58.5 3.5q56 0 75 -7t15 -30l-12 -74q-30 -178 -199 -174q-63 0 -143 41l-84 49q-24 12 -43 12q-36 0 -41 -41l-2 -26q-5 -23 -18.5 -29t-69.5 -6 q-57 0 -76.5 7t-15.5 30l12 72q30 176 203 176q64 0 139 -43l84 -47q24 -15 43 -15q35 0 41 43z" />
<glyph unicode="&#xd6;" horiz-adv-x="1359" d="M770 1376q278 0 405.5 -126.5t127.5 -405.5q0 -78 -9 -166q-37 -373 -184.5 -535.5t-460.5 -162.5q-279 0 -406.5 127t-127.5 407q0 85 8 164q26 251 97.5 402t204.5 223.5t345 72.5zM666 270q136 0 195.5 86.5t84.5 321.5q10 102 10 160q0 139 -46 193t-158 54 q-136 0 -196 -86t-85 -321q-10 -102 -10 -160q0 -139 47 -193.5t158 -54.5zM592 1724q100 0 127.5 -13t21.5 -62l-12 -117q-5 -50 -31.5 -63t-124.5 -13q-100 0 -126 15t-21 69l12 109q3 35 14.5 49.5t41 20t98.5 5.5zM1034 1724q100 0 128 -13t22 -62l-13 -117 q-5 -50 -31 -63t-124 -13q-100 0 -126.5 15t-21.5 69l13 109q3 35 14.5 49.5t40.5 20t98 5.5z" />
<glyph unicode="&#xd7;" d="M807 209l-217 244l-268 -242q-22 -23 -43.5 -13t-77.5 70q-54 63 -61.5 85.5t16.5 41.5l268 244l-217 244q-20 19 -8 41t80 84q69 61 92.5 71t40.5 -12l217 -244l270 246q20 21 42 10.5t77 -71.5q54 -62 62 -84t-15 -41l-270 -246l217 -242q20 -19 8 -41.5t-80 -85.5 q-69 -61 -92 -70.5t-41 11.5z" />
<glyph unicode="&#xd8;" horiz-adv-x="1368" d="M774 1376q145 0 252 -35l33 48q14 21 23.5 28t38.5 12t91 5q124 0 124 -32q-1 -9 -7 -18l-119 -172q97 -132 97 -368q0 -78 -9 -166q-37 -373 -184.5 -535.5t-460.5 -162.5q-135 0 -247 32l-37 -53q-13 -20 -23.5 -28t-40 -12.5t-90.5 -4.5q-126 0 -126 31q0 8 7 18 l119 178q-96 125 -96 373q0 85 8 164q26 251 97.5 402t204.5 223.5t345 72.5zM465 518v-39l397 590q-39 16 -106 16q-136 0 -196 -86t-85 -321q-10 -102 -10 -160zM670 270q136 0 195.5 86.5t84.5 321.5q11 112 11 160q0 6 -1.5 17t-1.5 17l-393 -585q41 -17 105 -17z" />
<glyph unicode="&#xd9;" horiz-adv-x="1351" d="M645 -20q-266 0 -390 103.5t-124 328.5q0 50 6 106l82 787q3 26 13.5 36t44 14.5t112.5 4.5q115 0 145 -10t25 -45l-82 -773q-4 -54 -4 -69q0 -94 43.5 -134t147.5 -40q121 0 172 54t63 189l82 773q3 26 13.5 36t44 14.5t112.5 4.5q116 0 145.5 -9.5t24.5 -45.5l-82 -787 q-30 -287 -165 -412.5t-429 -125.5zM768 1456l-356 135q-16 7 -20.5 16.5t4 36t36.5 76.5q41 71 62 88t38 0l326 -196q22 -11 21.5 -28t-29.5 -68q-29 -50 -43 -60t-39 0z" />
<glyph unicode="&#xda;" horiz-adv-x="1351" d="M645 -20q-266 0 -390 103.5t-124 328.5q0 50 6 106l82 787q3 26 13.5 36t44 14.5t112.5 4.5q115 0 145 -10t25 -45l-82 -773q-4 -54 -4 -69q0 -94 43.5 -134t147.5 -40q121 0 172 54t63 189l82 773q3 26 13.5 36t44 14.5t112.5 4.5q116 0 145.5 -9.5t24.5 -45.5l-82 -787 q-30 -287 -165 -412.5t-429 -125.5zM1186 1591l-387 -135q-25 -10 -37 1t-31 61q-20 53 -18 69.5t26 28.5l369 196q22 14 39 -2.5t45 -87.5q23 -77 21 -99t-27 -32z" />
<glyph unicode="&#xdb;" horiz-adv-x="1351" d="M645 -20q-266 0 -390 103.5t-124 328.5q0 50 6 106l82 787q3 26 13.5 36t44 14.5t112.5 4.5q115 0 145 -10t25 -45l-82 -773q-4 -54 -4 -69q0 -94 43.5 -134t147.5 -40q121 0 172 54t63 189l82 773q3 26 13.5 36t44 14.5t112.5 4.5q116 0 145.5 -9.5t24.5 -45.5l-82 -787 q-30 -287 -165 -412.5t-429 -125.5zM799 1577l-111 -94q-24 -21 -42.5 -27t-67.5 -6q-120 0 -110 33q2 6 7 12l207 217q18 19 26 25t33.5 12t71.5 6q67 0 92 -9t41 -34l160 -217q23 -34 -42 -42q-23 -3 -58 -3q-51 0 -74.5 7t-42.5 26z" />
<glyph unicode="&#xdc;" horiz-adv-x="1351" d="M645 -20q-266 0 -390 103.5t-124 328.5q0 50 6 106l82 787q3 26 13.5 36t44 14.5t112.5 4.5q115 0 145 -10t25 -45l-82 -773q-4 -54 -4 -69q0 -94 43.5 -134t147.5 -40q121 0 172 54t63 189l82 773q3 26 13.5 36t44 14.5t112.5 4.5q116 0 145.5 -9.5t24.5 -45.5l-82 -787 q-30 -287 -165 -412.5t-429 -125.5zM588 1724q100 0 127.5 -13t21.5 -62l-12 -117q-5 -50 -31.5 -63t-124.5 -13q-100 0 -126 15t-21 69l12 109q3 35 14.5 49.5t41 20t98.5 5.5zM1030 1724q100 0 128 -13t22 -62l-13 -117q-5 -50 -31 -63t-124 -13q-100 0 -126.5 15 t-21.5 69l13 109q3 35 14.5 49.5t40.5 20t98 5.5z" />
<glyph unicode="&#xdd;" horiz-adv-x="1241" d="M934 1303q13 26 27.5 36.5t51 15.5t115.5 5q151 0 165 -29q6 -13 -5 -33q-70 -136 -224 -389.5t-267 -419.5l-45 -440q-2 -26 -13 -36t-45 -14.5t-114 -4.5t-114 4.5t-45 15t-9 35.5l45 438q-78 167 -179 421.5t-143 389.5q-7 24 2.5 36.5t46.5 19t113 6.5 q117 0 152.5 -10.5t44.5 -46.5q65 -257 163 -525q171 302 277 525zM1135 1591l-387 -135q-25 -10 -37 1t-31 61q-20 53 -18 69.5t26 28.5l369 196q22 14 39 -2.5t45 -87.5q23 -77 21 -99t-27 -32z" />
<glyph unicode="&#xde;" horiz-adv-x="1224" d="M616 287h-155l-25 -236q-2 -25 -13.5 -35.5t-45 -15t-113.5 -4.5t-114 4.5t-45 15t-9 35.5l99 936l32 318q3 26 13.5 36t44 14.5t112.5 4.5q115 0 145 -10t25 -45l-16 -144h141q253 0 367.5 -88t114.5 -276q0 -7 -5 -74q-22 -228 -150.5 -332t-402.5 -104zM522 870 l-30 -295h135q99 0 143 34t53 114q2 10 2 27q0 64 -40 92t-128 28h-135z" />
<glyph unicode="&#xdf;" horiz-adv-x="1460" d="M727 633q-20 0 -28.5 10.5t-8.5 42.5q0 39 4 68q8 81 15.5 100.5t33.5 19.5q34 1 52.5 1.5t56.5 4.5t61.5 10.5t53.5 19.5t47.5 31t30 46t12.5 64q0 68 -59.5 101.5t-188.5 33.5q-87 0 -145.5 -15t-92.5 -47.5t-50.5 -73.5t-22.5 -102l-97 -901q-2 -24 -12.5 -33.5 t-41 -13.5t-105.5 -4q-107 0 -134 8.5t-24 42.5l90 868q28 272 178 398.5t473 126.5q262 0 403.5 -88t141.5 -250q0 -142 -84 -227.5t-237 -110.5q158 -22 244.5 -100.5t86.5 -235.5q0 -214 -115.5 -331t-342.5 -117q-222 0 -305 72t-68 210q3 31 13.5 43.5t39.5 17.5t98 5 q88 0 110.5 -9.5t20.5 -42.5q-2 -34 21.5 -52.5t77.5 -18.5q76 0 109.5 61t33.5 150q0 74 -29 119.5t-106.5 71.5t-210.5 26z" />
<glyph unicode="&#xe0;" horiz-adv-x="1101" d="M455 709q-2 -23 -10 -32t-37 -13.5t-97 -4.5q-103 0 -130 11t-23 55q6 57 23 103t51 85.5t83.5 66t123 41.5t167.5 15q225 0 322.5 -77.5t97.5 -235.5q0 -22 -4 -72l-64 -604q-2 -24 -11.5 -33t-40.5 -13.5t-103 -4.5q-104 0 -131 9t-25 42l4 70q-90 -131 -291 -131 q-154 0 -228.5 73.5t-74.5 188.5q0 91 30.5 155t88.5 100.5t132 53t171 16.5h219l9 78q8 75 -15 102t-106 27q-67 0 -96.5 -17t-34.5 -54zM680 385h-176q-139 0 -139 -98q0 -37 25.5 -54.5t82.5 -17.5q87 0 142 37t61 100zM629 1126l-334 148q-15 7 -19 16t5 34t38 71 q42 68 61.5 82.5t39.5 1.5l301 -205q21 -12 20.5 -28t-30.5 -64q-31 -47 -45 -56.5t-37 0.5z" />
<glyph unicode="&#xe1;" horiz-adv-x="1101" d="M455 709q-2 -23 -10 -32t-37 -13.5t-97 -4.5q-103 0 -130 11t-23 55q6 57 23 103t51 85.5t83.5 66t123 41.5t167.5 15q225 0 322.5 -77.5t97.5 -235.5q0 -22 -4 -72l-64 -604q-2 -24 -11.5 -33t-40.5 -13.5t-103 -4.5q-104 0 -131 9t-25 42l4 70q-90 -131 -291 -131 q-154 0 -228.5 73.5t-74.5 188.5q0 91 30.5 155t88.5 100.5t132 53t171 16.5h219l9 78q8 75 -15 102t-106 27q-67 0 -96.5 -17t-34.5 -54zM680 385h-176q-139 0 -139 -98q0 -37 25.5 -54.5t82.5 -17.5q87 0 142 37t61 100zM991 1274l-368 -148q-23 -10 -35.5 0.5t-32.5 57.5 q-20 49 -19.5 65t23.5 29l348 205q20 13 37.5 -2.5t46.5 -83.5q26 -71 25 -92t-25 -31z" />
<glyph unicode="&#xe2;" horiz-adv-x="1101" d="M455 709q-2 -23 -10 -32t-37 -13.5t-97 -4.5q-103 0 -130 11t-23 55q6 57 23 103t51 85.5t83.5 66t123 41.5t167.5 15q225 0 322.5 -77.5t97.5 -235.5q0 -22 -4 -72l-64 -604q-2 -24 -11.5 -33t-40.5 -13.5t-103 -4.5q-104 0 -131 9t-25 42l4 70q-90 -131 -291 -131 q-154 0 -228.5 73.5t-74.5 188.5q0 91 30.5 155t88.5 100.5t132 53t171 16.5h219l9 78q8 75 -15 102t-106 27q-67 0 -96.5 -17t-34.5 -54zM680 385h-176q-139 0 -139 -98q0 -37 25.5 -54.5t82.5 -17.5q87 0 142 37t61 100zM641 1266l-113 -105q-23 -21 -42 -27t-70 -6 q-111 0 -110 26q1 8 9 17l209 230q16 18 24.5 25t34.5 12.5t72 5.5q66 0 91 -9.5t42 -33.5l162 -230q20 -32 -39 -40q-24 -3 -63 -3q-52 0 -74 6.5t-41 26.5z" />
<glyph unicode="&#xe3;" horiz-adv-x="1101" d="M455 709q-2 -23 -10 -32t-37 -13.5t-97 -4.5q-103 0 -130 11t-23 55q6 57 23 103t51 85.5t83.5 66t123 41.5t167.5 15q225 0 322.5 -77.5t97.5 -235.5q0 -22 -4 -72l-64 -604q-2 -24 -11.5 -33t-40.5 -13.5t-103 -4.5q-104 0 -131 9t-25 42l4 70q-90 -131 -291 -131 q-154 0 -228.5 73.5t-74.5 188.5q0 91 30.5 155t88.5 100.5t132 53t171 16.5h219l9 78q8 75 -15 102t-106 27q-67 0 -96.5 -17t-34.5 -54zM680 385h-176q-139 0 -139 -98q0 -37 25.5 -54.5t82.5 -17.5q87 0 142 37t61 100zM801 1350l6 26q3 23 16.5 29t69.5 6q57 0 75.5 -7 t14.5 -30l-10 -71q-32 -177 -195 -177q-64 0 -139 43l-84 48q-22 14 -37 14q-29 0 -35 -43l-4 -25q-3 -23 -17.5 -29t-72.5 -6q-56 0 -74.5 7t-15.5 30l12 72q32 178 195 174q59 0 139 -41l84 -49q24 -12 37 -12q30 0 35 41z" />
<glyph unicode="&#xe4;" horiz-adv-x="1101" d="M455 709q-2 -23 -10 -32t-37 -13.5t-97 -4.5q-103 0 -130 11t-23 55q6 57 23 103t51 85.5t83.5 66t123 41.5t167.5 15q225 0 322.5 -77.5t97.5 -235.5q0 -22 -4 -72l-64 -604q-2 -24 -11.5 -33t-40.5 -13.5t-103 -4.5q-104 0 -131 9t-25 42l4 70q-90 -131 -291 -131 q-154 0 -228.5 73.5t-74.5 188.5q0 91 30.5 155t88.5 100.5t132 53t171 16.5h219l9 78q8 75 -15 102t-106 27q-67 0 -96.5 -17t-34.5 -54zM680 385h-176q-139 0 -139 -98q0 -37 25.5 -54.5t82.5 -17.5q87 0 142 37t61 100zM436 1401q100 0 128 -13t22 -63l-13 -115 q-5 -50 -31 -62.5t-124 -12.5q-101 0 -128.5 14.5t-21.5 67.5l13 108q4 51 30 63.5t125 12.5zM866 1401q100 0 128 -13t22 -63l-12 -115q-4 -49 -31 -62t-125 -13q-101 0 -128.5 14.5t-21.5 67.5l13 108q4 51 30 63.5t125 12.5z" />
<glyph unicode="&#xe5;" horiz-adv-x="1101" d="M455 709q-2 -23 -10 -32t-37 -13.5t-97 -4.5q-103 0 -130 11t-23 55q6 57 23 103t51 85.5t83.5 66t123 41.5t167.5 15q225 0 322.5 -77.5t97.5 -235.5q0 -22 -4 -72l-64 -604q-2 -24 -11.5 -33t-40.5 -13.5t-103 -4.5q-104 0 -131 9t-25 42l4 70q-90 -131 -291 -131 q-154 0 -228.5 73.5t-74.5 188.5q0 91 30.5 155t88.5 100.5t132 53t171 16.5h219l9 78q8 75 -15 102t-106 27q-67 0 -96.5 -17t-34.5 -54zM680 385h-176q-139 0 -139 -98q0 -37 25.5 -54.5t82.5 -17.5q87 0 142 37t61 100zM662 1513q96 0 147 -45t51 -125q0 -102 -58 -163.5 t-169 -61.5q-96 0 -147.5 44t-51.5 126q0 101 58.5 163t169.5 62zM639 1243q38 0 62 21t24 65q0 62 -70 62q-37 0 -61.5 -21t-24.5 -65q0 -62 70 -62z" />
<glyph unicode="&#xe6;" horiz-adv-x="1703" d="M1571 428h-561q-3 -113 32 -160t123 -47q58 0 90.5 20.5t38.5 53.5q3 25 10 34t36 14t98 5q105 0 131 -11t22 -56q-13 -129 -123 -215t-311 -86q-237 0 -344 145q-154 -141 -405 -141q-183 0 -267 72.5t-84 193.5q0 328 416 328h215l6 73q8 77 -12 103t-102 26 q-66 0 -93 -17t-32 -54q-2 -23 -10 -32t-37 -13.5t-97 -4.5q-103 0 -130 11t-23 55q7 72 33 126.5t77 97.5t135 65t199 22q224 0 318 -104q123 104 317 104q199 0 302 -104.5t103 -284.5q0 -24 -4 -74l-6 -55q-5 -54 -16 -72t-45 -18zM1219 793q-84 0 -127 -44.5t-64 -144.5 h309l4 31v35q0 59 -27 91t-95 32zM668 395h-168q-135 0 -135 -110q0 -72 104 -72q86 0 137.5 37.5t57.5 101.5z" />
<glyph unicode="&#xe7;" horiz-adv-x="1083" d="M516 -84h10q102 0 151.5 -31t49.5 -114q0 -120 -55.5 -168.5t-184.5 -51.5h-211q-18 0 -21 12.5t3 63.5q6 52 10.5 63t20.5 11h203q59 0 59 51q0 18 -12.5 24.5t-44.5 6.5h-109q-42 0 -57 8.5t-6 30.5l71 172q-303 58 -303 414q0 48 6 100q25 270 151 399t378 129 q116 0 199 -25.5t128.5 -72.5t63.5 -106t12 -132q-4 -44 -32.5 -54.5t-139.5 -10.5q-91 0 -116 11.5t-23 47.5q2 38 -22 56t-85 18q-94 0 -133.5 -56.5t-54.5 -203.5q-6 -56 -6 -96q0 -90 32 -127t109 -37q116 0 129 82q3 25 12 36t38 17t91 6q115 0 144.5 -11t23.5 -56 q-41 -342 -454 -342h-4z" />
<glyph unicode="&#xe8;" horiz-adv-x="1103" d="M973 434h-567v-22q0 -103 37 -147t122 -44q57 0 90.5 21t38.5 53q5 25 12.5 34t36.5 14t97 5q106 0 131.5 -11t21.5 -56q-7 -62 -36 -114.5t-80.5 -95t-135 -67t-190.5 -24.5q-233 0 -347 106t-114 324q0 46 6 98q27 270 153 399t374 129q211 0 316 -104.5t105 -284.5 q0 -24 -4 -74l-6 -49q-5 -55 -16 -72.5t-45 -17.5zM641 1126l-334 148q-15 7 -19 16t5.5 34t38.5 71q42 68 61 82.5t39 1.5l301 -205q21 -12 20.5 -28t-30.5 -64q-31 -47 -45 -56.5t-37 0.5zM614 793q-83 0 -126 -43.5t-62 -139.5h313l2 25q2 12 2 33q0 125 -129 125z" />
<glyph unicode="&#xe9;" horiz-adv-x="1103" d="M973 434h-567v-22q0 -103 37 -147t122 -44q57 0 90.5 21t38.5 53q5 25 12.5 34t36.5 14t97 5q106 0 131.5 -11t21.5 -56q-7 -62 -36 -114.5t-80.5 -95t-135 -67t-190.5 -24.5q-233 0 -347 106t-114 324q0 46 6 98q27 270 153 399t374 129q211 0 316 -104.5t105 -284.5 q0 -24 -4 -74l-6 -49q-5 -55 -16 -72.5t-45 -17.5zM981 1274l-369 -148q-23 -10 -35 0t-32 58q-20 49 -19.5 65t23.5 29l348 205q20 13 37.5 -2.5t46.5 -83.5q26 -71 25 -92t-25 -31zM614 793q-83 0 -126 -43.5t-62 -139.5h313l2 25q2 12 2 33q0 125 -129 125z" />
<glyph unicode="&#xea;" horiz-adv-x="1103" d="M973 434h-567v-22q0 -103 37 -147t122 -44q57 0 90.5 21t38.5 53q5 25 12.5 34t36.5 14t97 5q106 0 131.5 -11t21.5 -56q-7 -62 -36 -114.5t-80.5 -95t-135 -67t-190.5 -24.5q-233 0 -347 106t-114 324q0 46 6 98q27 270 153 399t374 129q211 0 316 -104.5t105 -284.5 q0 -24 -4 -74l-6 -49q-5 -55 -16 -72.5t-45 -17.5zM641 1266l-113 -105q-23 -21 -42 -27t-70 -6q-111 0 -110 26q1 8 9 17l209 230q16 18 24.5 25t34.5 12.5t72 5.5q66 0 91 -9.5t42 -33.5l162 -230q20 -32 -39 -40q-24 -3 -63 -3q-52 0 -74 6.5t-41 26.5zM614 793 q-83 0 -126 -43.5t-62 -139.5h313l2 25q2 12 2 33q0 125 -129 125z" />
<glyph unicode="&#xeb;" horiz-adv-x="1103" d="M973 434h-567v-22q0 -103 37 -147t122 -44q57 0 90.5 21t38.5 53q5 25 12.5 34t36.5 14t97 5q106 0 131.5 -11t21.5 -56q-7 -62 -36 -114.5t-80.5 -95t-135 -67t-190.5 -24.5q-233 0 -347 106t-114 324q0 46 6 98q27 270 153 399t374 129q211 0 316 -104.5t105 -284.5 q0 -24 -4 -74l-6 -49q-5 -55 -16 -72.5t-45 -17.5zM866 1401q100 0 128 -13t22 -63l-12 -115q-4 -49 -31 -62t-125 -13q-101 0 -128.5 14.5t-21.5 67.5l13 108q4 51 30 63.5t125 12.5zM438 1401q100 0 128 -13t22 -63l-13 -115q-5 -50 -31 -62.5t-124 -12.5 q-101 0 -128.5 14.5t-21.5 67.5l13 108q4 51 30 63.5t125 12.5zM614 793q-83 0 -126 -43.5t-62 -139.5h313l2 25q2 12 2 33q0 125 -129 125z" />
<glyph unicode="&#xec;" horiz-adv-x="550" d="M80 47l96 922q3 34 29.5 43.5t130.5 9.5q74 0 107.5 -4.5t44 -15t8.5 -33.5l-97 -922q-2 -24 -12.5 -34t-42 -14.5t-106.5 -4.5q-74 0 -106.5 4t-43 14.5t-8.5 34.5zM354 1126l-334 148q-15 7 -19 16t5.5 34t38.5 71q42 68 61 82.5t39 1.5l301 -205q21 -12 20.5 -28 t-30.5 -64q-31 -47 -45 -56.5t-37 0.5z" />
<glyph unicode="&#xed;" horiz-adv-x="550" d="M80 47l96 922q3 34 29.5 43.5t130.5 9.5q74 0 107.5 -4.5t44 -15t8.5 -33.5l-97 -922q-2 -24 -12.5 -34t-42 -14.5t-106.5 -4.5q-74 0 -106.5 4t-43 14.5t-8.5 34.5zM715 1274l-369 -148q-23 -10 -35 0t-32 58q-20 49 -19.5 65t23.5 29l348 205q20 13 37.5 -2.5 t46.5 -83.5q26 -71 25 -92t-25 -31z" />
<glyph unicode="&#xee;" horiz-adv-x="550" d="M80 47l96 922q3 34 29.5 43.5t130.5 9.5q74 0 107.5 -4.5t44 -15t8.5 -33.5l-97 -922q-2 -24 -12.5 -34t-42 -14.5t-106.5 -4.5q-74 0 -106.5 4t-43 14.5t-8.5 34.5zM367 1266l-113 -105q-22 -21 -42 -27t-71 -6q-110 0 -109 26q0 7 9 17l209 230q16 18 24.5 25 t34.5 12.5t72 5.5q66 0 91 -9.5t42 -33.5l162 -230q20 -32 -39 -40q-25 -3 -64 -3q-52 0 -73.5 6.5t-40.5 26.5z" />
<glyph unicode="&#xef;" horiz-adv-x="550" d="M80 47l96 922q3 34 29.5 43.5t130.5 9.5q74 0 107.5 -4.5t44 -15t8.5 -33.5l-97 -922q-2 -24 -12.5 -34t-42 -14.5t-106.5 -4.5q-74 0 -106.5 4t-43 14.5t-8.5 34.5zM162 1401q100 0 127.5 -13t21.5 -63l-12 -115q-4 -49 -31 -62t-125 -13q-101 0 -128 14.5t-21 67.5 l12 108q4 51 30.5 63.5t125.5 12.5zM592 1401q100 0 127.5 -13t21.5 -63l-12 -115q-4 -49 -31 -62t-125 -13q-101 0 -128 14.5t-21 67.5l12 108q4 51 30.5 63.5t125.5 12.5z" />
<glyph unicode="&#xf0;" horiz-adv-x="1097" d="M1067 1235l-98 -47q71 -137 71 -379q0 -140 -18 -293q-31 -289 -150 -412.5t-360 -123.5q-217 0 -321.5 96t-104.5 295q0 45 6 98q26 253 143 372.5t338 119.5q117 0 175 -39q-3 91 -27 149l-146 -67q-18 -8 -24.5 -1t-24.5 48q-18 42 -18 56t20 23l93 44q-55 24 -148 24 q-25 0 -29.5 18t2.5 95q9 77 18 95.5t38 18.5q255 0 385 -127l133 64q18 9 26.5 0t22.5 -49q18 -42 18 -55.5t-20 -22.5zM528 229q85 0 122.5 53.5t51.5 186.5q7 58 7 88q0 83 -31 118.5t-100 35.5q-85 0 -123 -54t-52 -188q-4 -66 -4 -86q0 -83 29.5 -118.5t99.5 -35.5z " />
<glyph unicode="&#xf1;" horiz-adv-x="1183" d="M483 969l-4 -78q43 62 119 103.5t186 41.5q160 0 240 -76t80 -237q0 -22 -4 -76l-64 -600q-2 -23 -12.5 -32.5t-43 -14t-106.5 -4.5q-106 0 -133 9t-24 42l59 567q7 79 -22.5 113.5t-102.5 34.5q-87 0 -139 -47.5t-61 -134.5l-56 -533q-2 -23 -12.5 -32.5t-43 -14 t-106.5 -4.5q-106 0 -133 9t-24 42l96 920q2 24 12.5 34t41.5 14.5t104 4.5q101 0 128 -9.5t25 -41.5zM842 1350l6 26q3 23 16.5 29t69.5 6q57 0 75.5 -7t14.5 -30l-10 -71q-32 -177 -195 -177q-64 0 -139 43l-84 48q-22 14 -37 14q-29 0 -35 -43l-4 -25q-3 -23 -17.5 -29 t-72.5 -6q-56 0 -74.5 7t-15.5 30l12 72q32 178 195 174q59 0 139 -41l84 -49q24 -12 37 -12q30 0 35 41z" />
<glyph unicode="&#xf2;" horiz-adv-x="1148" d="M629 1036q230 0 341 -104t111 -318q0 -50 -6 -106q-28 -271 -154.5 -399.5t-379.5 -128.5q-230 0 -340.5 102.5t-110.5 316.5q0 51 6 109q27 271 153.5 399.5t379.5 128.5zM557 240q95 0 136.5 59t56.5 209q6 56 6 100q0 91 -32 129.5t-110 38.5q-95 0 -137 -59.5 t-57 -208.5q-6 -59 -6 -100q0 -91 32.5 -129.5t110.5 -38.5zM664 1126l-334 148q-15 7 -19 16t5 34t38 71q42 68 61.5 82.5t39.5 1.5l301 -205q21 -12 20 -28t-31 -64q-31 -48 -44.5 -57t-36.5 1z" />
<glyph unicode="&#xf3;" horiz-adv-x="1148" d="M629 1036q230 0 341 -104t111 -318q0 -50 -6 -106q-28 -271 -154.5 -399.5t-379.5 -128.5q-230 0 -340.5 102.5t-110.5 316.5q0 51 6 109q27 271 153.5 399.5t379.5 128.5zM557 240q95 0 136.5 59t56.5 209q6 56 6 100q0 91 -32 129.5t-110 38.5q-95 0 -137 -59.5 t-57 -208.5q-6 -59 -6 -100q0 -91 32.5 -129.5t110.5 -38.5zM1004 1274l-369 -148q-23 -10 -35.5 0.5t-32.5 57.5q-20 49 -19.5 65t23.5 29l349 205q20 13 37.5 -2.5t46.5 -83.5q26 -71 25 -92t-25 -31z" />
<glyph unicode="&#xf4;" horiz-adv-x="1148" d="M629 1036q230 0 341 -104t111 -318q0 -50 -6 -106q-28 -271 -154.5 -399.5t-379.5 -128.5q-230 0 -340.5 102.5t-110.5 316.5q0 51 6 109q27 271 153.5 399.5t379.5 128.5zM557 240q95 0 136.5 59t56.5 209q6 56 6 100q0 91 -32 129.5t-110 38.5q-95 0 -137 -59.5 t-57 -208.5q-6 -59 -6 -100q0 -91 32.5 -129.5t110.5 -38.5zM664 1266l-113 -105q-22 -21 -42 -27t-71 -6q-110 0 -109 26q0 7 9 17l209 230q16 18 24.5 25t34.5 12.5t72 5.5q66 0 91 -9.5t42 -33.5l162 -230q20 -32 -39 -40q-25 -3 -64 -3q-52 0 -73.5 6.5t-40.5 26.5z" />
<glyph unicode="&#xf5;" horiz-adv-x="1148" d="M629 1036q230 0 341 -104t111 -318q0 -50 -6 -106q-28 -271 -154.5 -399.5t-379.5 -128.5q-230 0 -340.5 102.5t-110.5 316.5q0 51 6 109q27 271 153.5 399.5t379.5 128.5zM557 240q95 0 136.5 59t56.5 209q6 56 6 100q0 91 -32 129.5t-110 38.5q-95 0 -137 -59.5 t-57 -208.5q-6 -59 -6 -100q0 -91 32.5 -129.5t110.5 -38.5zM823 1350l6 26q3 23 16.5 29t69.5 6q57 0 76 -7t15 -30l-11 -71q-32 -177 -194 -177q-64 0 -139 43l-84 48q-22 14 -37 14q-29 0 -35 -43l-4 -25q-3 -23 -17.5 -29t-72.5 -6q-56 0 -74.5 7t-15.5 30l12 72 q32 178 194 174q60 0 140 -41l84 -49q24 -12 36 -12q30 0 35 41z" />
<glyph unicode="&#xf6;" horiz-adv-x="1148" d="M629 1036q230 0 341 -104t111 -318q0 -50 -6 -106q-28 -271 -154.5 -399.5t-379.5 -128.5q-230 0 -340.5 102.5t-110.5 316.5q0 51 6 109q27 271 153.5 399.5t379.5 128.5zM557 240q95 0 136.5 59t56.5 209q6 56 6 100q0 91 -32 129.5t-110 38.5q-95 0 -137 -59.5 t-57 -208.5q-6 -59 -6 -100q0 -91 32.5 -129.5t110.5 -38.5zM461 1401q100 0 127.5 -13t21.5 -63l-12 -115q-4 -49 -31 -62t-125 -13q-101 0 -128 14.5t-21 67.5l12 108q4 51 30.5 63.5t125.5 12.5zM889 1401q100 0 127.5 -13t21.5 -63l-12 -115q-4 -49 -31 -62t-125 -13 q-101 0 -128 14.5t-21 67.5l12 108q4 51 30.5 63.5t125.5 12.5z" />
<glyph unicode="&#xf7;" d="M213 768h821q21 0 29 -9t8 -40q0 -27 -6 -80q-9 -85 -19 -107t-40 -22h-820q-23 0 -32 10.5t-9 44.5q0 16 7 74q9 84 20 106.5t41 22.5zM549 37q-81 0 -116.5 4.5t-47.5 15.5t-10 37l26 236q2 29 14 40.5t46.5 16t116.5 4.5q117 0 147 -10.5t25 -50.5l-25 -236 q-2 -26 -14 -37t-46.5 -15.5t-115.5 -4.5zM639 887q-81 0 -116.5 4.5t-47.5 15.5t-10 37l27 236q2 29 13.5 40.5t46 16t116.5 4.5q117 0 147 -10.5t25 -50.5l-25 -236q-2 -26 -14 -37t-46.5 -15.5t-115.5 -4.5z" />
<glyph unicode="&#xf8;" horiz-adv-x="1157" d="M633 1036q111 0 196 -24l19 28q10 16 19 22.5t33 10.5t71 4q100 0 100 -26q0 -7 -6 -15l-80 -116q100 -103 100 -306q0 -50 -6 -106q-28 -271 -154.5 -399.5t-379.5 -128.5q-109 0 -185 20l-30 -45q-10 -16 -19 -22.5t-33 -10.5t-71 -4q-100 0 -100 26q1 7 6 15l86 129 q-105 105 -105 311q0 51 6 109q27 271 153.5 399.5t379.5 128.5zM418 408v-29l264 389q-21 8 -64 8q-95 0 -137 -59.5t-57 -208.5q-6 -59 -6 -100zM561 240q95 0 136.5 59t56.5 209q6 56 6 100v8l-254 -370q24 -6 55 -6z" />
<glyph unicode="&#xf9;" horiz-adv-x="1165" d="M705 47l4 78q-103 -145 -299 -145q-157 0 -234.5 79.5t-77.5 243.5q0 55 4 86l62 578q2 25 12 34.5t41.5 14t106.5 4.5q106 0 134 -9.5t25 -43.5l-59 -564q-7 -79 22.5 -114t100.5 -35q85 0 132.5 46.5t55.5 133.5l58 533q2 25 12 34.5t41.5 14t105.5 4.5q107 0 136 -9.5 t24 -43.5l-96 -920q-2 -23 -12.5 -33t-42.5 -14t-105 -4q-102 0 -127.5 9t-23.5 42zM633 1126l-334 148q-15 7 -19 16t5.5 34t38.5 71q42 68 61 82.5t39 1.5l301 -205q21 -12 20.5 -28t-30.5 -64q-31 -47 -45 -56.5t-37 0.5z" />
<glyph unicode="&#xfa;" horiz-adv-x="1165" d="M705 47l4 78q-103 -145 -299 -145q-157 0 -234.5 79.5t-77.5 243.5q0 55 4 86l62 578q2 25 12 34.5t41.5 14t106.5 4.5q106 0 134 -9.5t25 -43.5l-59 -564q-7 -79 22.5 -114t100.5 -35q85 0 132.5 46.5t55.5 133.5l58 533q2 25 12 34.5t41.5 14t105.5 4.5q107 0 136 -9.5 t24 -43.5l-96 -920q-2 -23 -12.5 -33t-42.5 -14t-105 -4q-102 0 -127.5 9t-23.5 42zM1051 1274l-369 -148q-23 -10 -35.5 0.5t-32.5 57.5q-20 49 -19.5 65t23.5 29l349 205q20 13 37.5 -2.5t46.5 -83.5q26 -71 25 -92t-25 -31z" />
<glyph unicode="&#xfb;" horiz-adv-x="1165" d="M705 47l4 78q-103 -145 -299 -145q-157 0 -234.5 79.5t-77.5 243.5q0 55 4 86l62 578q2 25 12 34.5t41.5 14t106.5 4.5q106 0 134 -9.5t25 -43.5l-59 -564q-7 -79 22.5 -114t100.5 -35q85 0 132.5 46.5t55.5 133.5l58 533q2 25 12 34.5t41.5 14t105.5 4.5q107 0 136 -9.5 t24 -43.5l-96 -920q-2 -23 -12.5 -33t-42.5 -14t-105 -4q-102 0 -127.5 9t-23.5 42zM674 1266l-113 -105q-23 -21 -42 -27t-70 -6q-111 0 -110 26q1 8 9 17l209 230q16 18 24.5 25t34.5 12.5t72 5.5q66 0 91 -9.5t42 -33.5l162 -230q20 -32 -39 -40q-24 -3 -63 -3 q-52 0 -74 6.5t-41 26.5z" />
<glyph unicode="&#xfc;" horiz-adv-x="1165" d="M705 47l4 78q-103 -145 -299 -145q-157 0 -234.5 79.5t-77.5 243.5q0 55 4 86l62 578q2 25 12 34.5t41.5 14t106.5 4.5q106 0 134 -9.5t25 -43.5l-59 -564q-7 -79 22.5 -114t100.5 -35q85 0 132.5 46.5t55.5 133.5l58 533q2 25 12 34.5t41.5 14t105.5 4.5q107 0 136 -9.5 t24 -43.5l-96 -920q-2 -23 -12.5 -33t-42.5 -14t-105 -4q-102 0 -127.5 9t-23.5 42zM469 1401q100 0 127.5 -13t21.5 -63l-12 -115q-5 -50 -31 -62.5t-124 -12.5q-101 0 -128.5 14.5t-21.5 67.5l12 108q4 51 30.5 63.5t125.5 12.5zM897 1401q100 0 128 -13t22 -63l-13 -115 q-5 -50 -31 -62.5t-124 -12.5q-101 0 -128.5 14.5t-21.5 67.5l12 108q4 51 30.5 63.5t125.5 12.5z" />
<glyph unicode="&#xfd;" horiz-adv-x="1101" d="M238 -111q74 0 112.5 26t69.5 93q-46 4 -64 14t-26 33q-55 160 -126.5 442.5t-103.5 458.5q-8 40 23 52t143 12q94 0 125.5 -8.5t34.5 -34.5q36 -298 121 -676q195 471 252 676q8 27 35.5 35t119.5 8q114 0 148 -13t20 -51q-67 -175 -201.5 -486t-246.5 -542 q-57 -118 -108 -182.5t-129 -99.5t-193 -35q-94 0 -140 14q-23 6 -32 21t-9 51q0 9 2 30.5t3 28.5q6 63 14.5 93t19.5 38.5t33 8.5q11 0 43 -3.5t60 -3.5zM944 1274l-369 -148q-23 -10 -35 0t-32 58q-20 49 -19.5 65t23.5 29l348 205q20 13 37.5 -2.5t46.5 -83.5 q26 -71 25 -92t-25 -31z" />
<glyph unicode="&#xfe;" horiz-adv-x="1200" d="M537 1368l-48 -446q99 114 281 114q358 0 358 -422q0 -69 -4 -106q-26 -274 -135 -401t-305 -127q-197 0 -278 124l-46 -426q-2 -23 -12.5 -32.5t-42.5 -14t-106 -4.5q-106 0 -133.5 9t-24.5 42l176 1690q3 24 13.5 33.5t43.5 14.5t105 5q105 0 134 -10t24 -43zM446 508 q-4 -31 -4 -86q0 -97 37 -138.5t121 -41.5q95 0 139.5 59.5t59.5 206.5q4 66 4 90q0 95 -34 135.5t-112 40.5q-100 0 -148 -60t-63 -206z" />
<glyph unicode="&#xff;" horiz-adv-x="1101" d="M238 -111q74 0 112.5 26t69.5 93q-46 4 -64 14t-26 33q-55 160 -126.5 442.5t-103.5 458.5q-8 40 23 52t143 12q94 0 125.5 -8.5t34.5 -34.5q36 -298 121 -676q195 471 252 676q8 27 35.5 35t119.5 8q114 0 148 -13t20 -51q-67 -175 -201.5 -486t-246.5 -542 q-57 -118 -108 -182.5t-129 -99.5t-193 -35q-94 0 -140 14q-23 6 -32 21t-9 51q0 9 2 30.5t3 28.5q6 63 14.5 93t19.5 38.5t33 8.5q11 0 43 -3.5t60 -3.5zM866 1401q100 0 128 -13t22 -63l-12 -115q-4 -49 -31 -62t-125 -13q-101 0 -128.5 14.5t-21.5 67.5l13 108 q4 51 30 63.5t125 12.5zM436 1401q100 0 128 -13t22 -63l-13 -115q-5 -50 -31 -62.5t-124 -12.5q-101 0 -128.5 14.5t-21.5 67.5l13 108q4 51 30 63.5t125 12.5z" />
<glyph unicode="&#x152;" horiz-adv-x="1888" d="M1800 1040h-469l-20 -192h385q23 0 33 -16t10 -54q0 -32 -6 -88q-13 -121 -21 -139q-14 -20 -43 -21h-391l-23 -215h471q50 0 50 -82q0 -24 -7 -75q-8 -77 -15 -107t-16.5 -40.5t-31.5 -10.5h-985q-285 0 -413 124.5t-128 403.5q0 79 8 150q32 361 186 519.5t472 158.5 h977q27 0 37 -18.5t10 -59.5q0 -18 -4 -80q-6 -71 -14 -104.5t-19 -43.5t-33 -10zM745 317h146l78 721h-148q-118 0 -176 -81t-80 -279q-8 -94 -8 -125q0 -128 44.5 -182t143.5 -54z" />
<glyph unicode="&#x153;" horiz-adv-x="1730" d="M1597 436h-565q-4 -121 34.5 -171t131.5 -50q59 0 93 21t40 57q5 23 11.5 31t34.5 13t93 5q71 0 100 -4t39 -16.5t7 -42.5q-13 -128 -122 -213.5t-302 -85.5q-222 0 -328 122q-119 -122 -346 -122q-424 0 -424 417q0 53 6 111q28 273 149 399.5t363 126.5q213 0 320 -123 q126 123 346 123q189 0 290 -103t101 -278q0 -22 -4 -80l-6 -49q-5 -53 -16.5 -70.5t-45.5 -17.5zM553 227q97 0 140 63t61 218q6 56 6 98q0 97 -34.5 138.5t-115.5 41.5q-97 0 -140 -62.5t-58 -215.5q-6 -62 -6 -102q0 -96 34 -137.5t113 -41.5zM1249 801 q-86 0 -130.5 -46.5t-65.5 -152.5h325l2 31q0 7 1 21t1 20q0 61 -30 94t-103 33z" />
<glyph unicode="&#x178;" horiz-adv-x="1241" d="M936 1303q13 26 27.5 36.5t51 15.5t115.5 5q151 0 165 -29q6 -13 -5 -33q-70 -136 -224 -389.5t-267 -419.5l-45 -440q-2 -26 -13 -36t-45 -14.5t-114 -4.5t-114 4.5t-45 15t-9 35.5l45 438q-78 167 -179 421.5t-143 389.5q-7 24 2.5 36.5t46.5 19t113 6.5 q117 0 152.5 -10.5t44.5 -46.5q65 -257 163 -525q171 302 277 525zM975 1724q100 0 127.5 -13t21.5 -62l-12 -117q-5 -50 -31.5 -63t-124.5 -13q-100 0 -126 15t-21 69l12 109q3 35 14.5 49.5t41 20t98.5 5.5zM532 1724q100 0 128 -13t22 -62l-12 -117q-5 -50 -31.5 -63 t-124.5 -13q-100 0 -126 15t-21 69l12 109q3 35 14.5 49.5t40.5 20t98 5.5z" />
<glyph unicode="&#x2c6;" horiz-adv-x="782" d="M481 1266l-112 -105q-22 -21 -42 -27t-71 -6q-110 0 -109 26q0 7 9 17l209 230q16 18 24.5 25t34.5 12.5t72 5.5q66 0 91 -9.5t42 -33.5l162 -230q20 -32 -39 -40q-25 -3 -64 -3q-52 0 -74 6.5t-41 26.5z" />
<glyph unicode="&#x2dc;" horiz-adv-x="782" d="M641 1350l6 26q3 23 16.5 29t69.5 6q57 0 75.5 -7t14.5 -30l-10 -71q-32 -177 -195 -177q-64 0 -139 43l-84 48q-22 14 -37 14q-28 0 -34 -43l-5 -25q-3 -23 -17.5 -29t-72.5 -6q-56 0 -74.5 7t-15.5 30l13 72q32 178 194 174q59 0 139 -41l84 -49q24 -12 37 -12 q30 0 35 41z" />
<glyph unicode="&#x2000;" horiz-adv-x="909" />
<glyph unicode="&#x2001;" horiz-adv-x="1818" />
<glyph unicode="&#x2002;" horiz-adv-x="909" />
<glyph unicode="&#x2003;" horiz-adv-x="1818" />
<glyph unicode="&#x2004;" horiz-adv-x="606" />
<glyph unicode="&#x2005;" horiz-adv-x="454" />
<glyph unicode="&#x2006;" horiz-adv-x="303" />
<glyph unicode="&#x2007;" horiz-adv-x="303" />
<glyph unicode="&#x2008;" horiz-adv-x="227" />
<glyph unicode="&#x2009;" horiz-adv-x="363" />
<glyph unicode="&#x200a;" horiz-adv-x="101" />
<glyph unicode="&#x2010;" horiz-adv-x="847" d="M166 692h567q23 0 33 -12t10 -49q0 -25 -6 -72q-9 -89 -18 -111t-37 -22h-568q-24 0 -33.5 12t-9.5 51q0 8 1 18.5t2 25.5t2 26q11 91 19.5 112t37.5 21z" />
<glyph unicode="&#x2011;" horiz-adv-x="847" d="M166 692h567q23 0 33 -12t10 -49q0 -25 -6 -72q-9 -89 -18 -111t-37 -22h-568q-24 0 -33.5 12t-9.5 51q0 8 1 18.5t2 25.5t2 26q11 91 19.5 112t37.5 21z" />
<glyph unicode="&#x2012;" horiz-adv-x="847" d="M166 692h567q23 0 33 -12t10 -49q0 -25 -6 -72q-9 -89 -18 -111t-37 -22h-568q-24 0 -33.5 12t-9.5 51q0 8 1 18.5t2 25.5t2 26q11 91 19.5 112t37.5 21z" />
<glyph unicode="&#x2013;" horiz-adv-x="1114" d="M166 692h833q23 0 33 -12t10 -49q0 -25 -6 -72q-9 -89 -18 -111t-37 -22h-834q-24 0 -33.5 12t-9.5 51q0 8 1 18.5t2 25.5t2 26q11 91 19.5 112t37.5 21z" />
<glyph unicode="&#x2014;" horiz-adv-x="1544" d="M166 692h1264q23 0 33 -12t10 -49q0 -18 -7 -72q-9 -89 -18 -111t-37 -22h-1264q-24 0 -33.5 12t-9.5 51q0 8 1 18.5t2 25.5t2 26q11 91 19.5 112t37.5 21z" />
<glyph unicode="&#x2018;" horiz-adv-x="462" d="M410 1063l-9 -78q-2 -27 -24 -36t-101 -9q-80 0 -101.5 9.5t-18.5 35.5l8 84q24 245 278 352q20 12 36 0t34 -57q20 -54 17 -69.5t-27 -32.5q-76 -51 -92 -199z" />
<glyph unicode="&#x2019;" horiz-adv-x="462" d="M217 1298l8 78q2 27 24 36t101 9q80 0 102 -9.5t19 -35.5l-8 -84q-24 -245 -279 -352q-20 -12 -35.5 -0.5t-33.5 57.5q-20 54 -17 70t27 33q76 51 92 198z" />
<glyph unicode="&#x201a;" horiz-adv-x="462" d="M94 111l8 77q2 27 24 36t101 9q80 0 102 -9.5t19 -35.5l-8 -84q-24 -245 -279 -352q-21 -11 -36 0.5t-33 57.5q-20 54 -17 69.5t27 32.5q76 51 92 199z" />
<glyph unicode="&#x201c;" horiz-adv-x="858" d="M410 1063l-9 -78q-2 -27 -24 -36t-101 -9q-80 0 -101.5 9.5t-18.5 35.5l8 84q24 245 278 352q20 12 36 0t34 -57q20 -54 17 -69.5t-27 -32.5q-76 -51 -92 -199zM805 1063l-8 -78q-2 -27 -24 -36t-101 -9q-80 0 -102 9.5t-19 35.5l8 84q24 245 279 352q20 12 35.5 0.5 t33.5 -57.5q20 -54 17 -69.5t-27 -32.5q-76 -51 -92 -199z" />
<glyph unicode="&#x201d;" horiz-adv-x="858" d="M217 1298l8 78q2 27 24 36t101 9q80 0 102 -9.5t19 -35.5l-8 -84q-24 -245 -279 -352q-20 -12 -35.5 -0.5t-33.5 57.5q-20 54 -17 70t27 33q76 51 92 198zM612 1298l9 78q2 27 23.5 36t100.5 9q80 0 102 -9.5t19 -35.5l-8 -84q-24 -245 -278 -352q-20 -12 -36 0t-34 57 q-20 54 -17 70t27 33q76 51 92 198z" />
<glyph unicode="&#x201e;" horiz-adv-x="858" d="M94 111l8 77q2 27 24 36t101 9q80 0 102 -9.5t19 -35.5l-8 -84q-24 -245 -279 -352q-21 -11 -36 0.5t-33 57.5q-20 54 -17 69.5t27 32.5q76 51 92 199zM487 111l9 77q2 27 24 36t101 9q80 0 101.5 -9.5t18.5 -35.5l-8 -84q-24 -245 -278 -352q-21 -11 -36.5 0.5 t-33.5 57.5q-20 54 -17 69.5t27 32.5q76 51 92 199z" />
<glyph unicode="&#x2022;" horiz-adv-x="759" d="M371 305q-138 0 -187 33.5t-49 134.5q0 37 6 92q8 68 19 110.5t29.5 74t51 47t75.5 22t110 6.5q137 0 185 -32.5t48 -133.5q0 -38 -6 -94q-9 -86 -23 -133t-46.5 -77.5t-80.5 -40t-132 -9.5z" />
<glyph unicode="&#x2026;" horiz-adv-x="1642" d="M236 -4q-117 0 -147.5 10t-27.5 47l25 240q2 28 14 39.5t47.5 16.5t116.5 5q116 0 147.5 -11t28.5 -50l-26 -240q-2 -26 -14.5 -37t-47.5 -15.5t-116 -4.5zM784 -4q-118 0 -148.5 10t-27.5 47l27 240q2 28 14 39.5t47 16.5t115 5q117 0 148 -11t28 -50l-26 -240 q-2 -26 -14.5 -37t-47 -15.5t-115.5 -4.5zM1331 -4q-117 0 -148 10t-28 47l27 240q2 28 14 39.5t47.5 16.5t116.5 5q116 0 146.5 -11t27.5 -50l-25 -240q-2 -26 -14.5 -37t-47.5 -15.5t-116 -4.5z" />
<glyph unicode="&#x202f;" horiz-adv-x="363" />
<glyph unicode="&#x2039;" horiz-adv-x="710" d="M104 565q6 46 31 78l191 242q23 28 53.5 35.5t122.5 7.5q150 0 150 -35q0 -8 -9 -19l-250 -309l187 -309q17 -35 -39 -46q-36 -7 -107 -7q-93 0 -125 7.5t-49 35.5l-141 241q-20 34 -15 78z" />
<glyph unicode="&#x203a;" horiz-adv-x="710" d="M606 565q-6 -46 -31 -78l-190 -241q-23 -28 -53.5 -35.5t-122.5 -7.5q-150 0 -150 34q0 8 9 19l249 309l-186 309q-18 36 41 47q35 7 104 7q93 0 125.5 -8t49.5 -35l141 -242q20 -33 14 -78z" />
<glyph unicode="&#x205f;" horiz-adv-x="454" />
<glyph unicode="&#x20ac;" horiz-adv-x="1331" d="M717 440h-187q10 -97 55.5 -134.5t139.5 -37.5q165 0 188 133q6 38 35 50t127 12q103 0 134.5 -13t25.5 -59q-49 -411 -533 -411q-253 0 -376 109.5t-136 350.5h-102q-22 0 -28.5 17t-0.5 78q8 67 12.5 80.5t24.5 13.5h97l6 49q0 15 4 47h-86q-21 0 -27 17t0 77 q6 66 11.5 81t25.5 15h109q57 242 196 351.5t391 109.5q249 0 369.5 -106.5t101.5 -302.5q-4 -47 -33 -59.5t-131 -12.5q-99 0 -129 12t-30 49q2 65 -35 98t-125 33q-93 0 -147.5 -38t-85.5 -134h235q22 0 28.5 -17.5t0.5 -78.5q-8 -65 -13.5 -79.5t-25.5 -14.5h-264l-4 -47 q-5 -45 -5 -49h195q21 0 27.5 -17t-0.5 -77q-6 -66 -11.5 -80.5t-23.5 -14.5z" />
<glyph unicode="&#x2122;" horiz-adv-x="1746" d="M1028 1356q84 0 114 -6.5t34 -26.5l90 -377l172 377q9 21 35.5 27t109.5 6q97 0 128 -7t28 -30l-74 -715q-3 -23 -19.5 -29t-84.5 -6q-70 0 -89.5 6.5t-17.5 28.5l49 477q-112 -258 -162 -364q-7 -16 -27 -23.5t-71 -7.5q-94 0 -100 31l-84 362l-49 -475 q-3 -22 -20.5 -28.5t-86.5 -6.5q-70 0 -89 6.5t-17 28.5l75 715q3 23 31.5 30t124.5 7zM717 1167h-176l-58 -563q-3 -23 -20.5 -29t-87.5 -6t-90 6.5t-17 28.5l58 563h-158q-23 0 -28.5 17.5t1.5 77.5q5 63 10 78.5t25 15.5h551q22 0 27.5 -17t-0.5 -77q-8 -76 -15 -86 q-7 -9 -22 -9z" />
<glyph unicode="&#x25fc;" horiz-adv-x="1024" d="M0 1024h1024v-1024h-1024v1024z" />
</font>
</defs>
</svg>
