<?xml version="1.0" standalone="no"?>
<!DOCTYPE svg PUBLIC "-//W3C//DTD SVG 1.1//EN" "http://www.w3.org/Graphics/SVG/1.1/DTD/svg11.dtd" >
<svg xmlns="http://www.w3.org/2000/svg" xmlns:xlink="http://www.w3.org/1999/xlink" version="1.1">
<metadata></metadata>
<defs>
<font id="frygialight" horiz-adv-x="1101" >
<font-face units-per-em="2048" ascent="1536" descent="-512" />
<missing-glyph horiz-adv-x="464" />
<glyph unicode="&#xfb01;" horiz-adv-x="1112" d="M821 1307q-92 18 -196 18q-162 0 -217.5 -52.5t-55.5 -199.5v-86h525q35 0 46 -4.5t11 -19.5v-940q0 -17 -10 -21t-47 -4t-47.5 4t-10.5 21v866h-467v-866q0 -17 -10 -21t-45 -4q-38 0 -47.5 4t-9.5 21v866h-154q-13 0 -16.5 8.5t-3.5 38.5t3.5 39.5t16.5 9.5l154 2v92 q0 188 84.5 268t291.5 80q120 0 218 -24q13 -5 16 -14t-2 -39q-4 -29 -10 -37.5t-17 -5.5z" />
<glyph unicode="&#xfb02;" horiz-adv-x="1134" d="M352 1073v-86h230q13 0 16.5 -9.5t3.5 -39.5t-3.5 -39.5t-16.5 -9.5h-230v-866q0 -17 -10 -21t-45 -4q-38 0 -47.5 4t-9.5 21v866h-154q-13 0 -16.5 8.5t-3.5 38.5t3.5 39.5t16.5 9.5l154 2v92q0 188 85.5 268t292.5 80q172 0 289 -34q27 -9 27 -33v-1151q0 -61 20 -83 t76 -22h33q13 0 16.5 -10t3.5 -43q0 -32 -3.5 -41.5t-16.5 -9.5h-45q-113 0 -156 44t-43 153v1112q-90 16 -194 16q-161 0 -217 -53t-56 -199z" />
<glyph unicode="&#xfb03;" horiz-adv-x="1705" d="M834 987v92q0 188 84.5 268t291.5 80q119 0 217 -24q13 -5 16.5 -14t-1.5 -39q-4 -29 -10 -37.5t-17 -5.5q-92 18 -198 18q-161 0 -216 -52.5t-55 -199.5v-86h522q37 0 48.5 -4.5t11.5 -19.5v-940q0 -17 -10.5 -21t-47.5 -4t-47 4t-10 21v866h-467v-866q0 -17 -10 -21 t-45 -4q-38 0 -47.5 4t-9.5 21v866h-482v-866q0 -17 -10 -21t-45 -4q-38 0 -47.5 4t-9.5 21v866h-154q-13 0 -16.5 8.5t-3.5 38.5t3.5 39.5t16.5 9.5l154 2v129q0 162 61.5 234.5t204.5 72.5q98 0 168 -28q11 -6 11.5 -17t-9.5 -39q-10 -25 -18 -31t-19 -3q-49 18 -121 18 q-92 0 -129 -48.5t-37 -164.5v-123h482z" />
<glyph unicode="&#xfb04;" horiz-adv-x="1728" d="M834 987v92q0 188 85.5 268t292.5 80q172 0 289 -34q27 -9 27 -33v-1151q0 -61 20 -83t76 -22h33q13 0 16.5 -10t3.5 -43q0 -32 -3.5 -41.5t-16.5 -9.5h-45q-114 0 -156.5 44t-42.5 153v1112q-90 16 -194 16q-161 0 -217 -53t-56 -199v-86h230q13 0 16.5 -9.5t3.5 -39.5 t-3.5 -39.5t-16.5 -9.5h-230v-866q0 -17 -10 -21t-45 -4q-38 0 -47.5 4t-9.5 21v866h-482v-866q0 -17 -10 -21t-45 -4q-38 0 -47.5 4t-9.5 21v866h-154q-13 0 -16.5 8.5t-3.5 38.5t3.5 39.5t16.5 9.5l154 2v129q0 162 61.5 234.5t204.5 72.5q98 0 168 -28q11 -6 11.5 -17 t-9.5 -39q-10 -25 -18 -31t-19 -3q-49 18 -121 18q-92 0 -129 -48.5t-37 -164.5v-123h482z" />
<glyph horiz-adv-x="0" />
<glyph horiz-adv-x="682" />
<glyph unicode=" "  horiz-adv-x="464" />
<glyph unicode="&#x09;" horiz-adv-x="464" />
<glyph unicode="&#xa0;" horiz-adv-x="464" />
<glyph unicode="!" horiz-adv-x="542" d="M270 383q-30 0 -37.5 5t-7.5 20l-22 921q-1 17 13 23t54 6q41 0 56 -6t14 -23l-23 -921q0 -14 -9 -19.5t-38 -5.5zM270 -2q-44 0 -58.5 6.5t-14.5 28.5v143q0 24 13 29.5t60 5.5t61.5 -5.5t14.5 -29.5v-143q0 -22 -15 -28.5t-61 -6.5z" />
<glyph unicode="&#x22;" horiz-adv-x="714" d="M154 948l-13 445q0 15 10.5 19.5t45.5 4.5t46 -4.5t11 -19.5l-12 -445q0 -14 -8.5 -18t-36.5 -4q-26 0 -34.5 4t-8.5 18zM473 946l-12 445q0 15 10 19.5t45 4.5t46 -4.5t11 -19.5l-12 -445q0 -14 -8.5 -18t-36.5 -4q-26 0 -34.5 4t-8.5 18z" />
<glyph unicode="#" horiz-adv-x="1204" d="M662 18l67 359h-352l-68 -359q-1 -13 -11 -16.5t-40 -3.5t-38 3.5t-5 16.5l68 359h-177q-10 0 -14 9t-4 32q0 43 18 43h193l68 350h-177q-12 0 -15 8.5t-3 32.5q0 26 3 34.5t15 8.5h193l68 358q1 13 12 17t41 4q29 0 37 -3.5t6 -17.5l-70 -358h352l70 358q1 13 11 17 t40 4t38 -4t7 -17l-69 -358h176q10 0 13 -8.5t3 -34.5q0 -24 -3 -32.5t-13 -8.5h-193l-67 -350h176q18 0 18 -43q0 -23 -4 -32t-14 -9h-193l-67 -359q-3 -13 -12 -16.5t-39 -3.5t-38 3.5t-7 16.5zM461 811l-68 -350h352l68 350h-352z" />
<glyph unicode="$" horiz-adv-x="1167" d="M592 -186q-38 0 -47.5 4.5t-9.5 21.5v146q-197 11 -302 94t-106 254q0 15 11 19.5t48 4.5q35 0 45.5 -4.5t10.5 -19.5q3 -235 301 -250v561q-74 20 -127 40t-106 51.5t-85.5 70t-52.5 95.5t-20 128q0 167 88 250.5t295 89.5v146q0 17 9.5 21.5t47.5 4.5q37 0 47 -4.5 t10 -21.5v-150q175 -12 259 -92.5t85 -245.5q0 -14 -10.5 -19t-46.5 -5q-35 0 -45 5t-10 19q-1 116 -58.5 171.5t-181.5 66.5v-535q88 -25 144 -46t107.5 -51.5t79.5 -68.5t44 -91.5t16 -125.5q0 -172 -89.5 -262t-293.5 -100v-146q0 -17 -10 -21.5t-47 -4.5zM915 348 q0 118 -62.5 173.5t-211.5 96.5v-534q149 9 211.5 72t62.5 192zM266 1034q0 -62 17.5 -106.5t57 -75.5t85 -51t117.5 -41v510q-152 -4 -214.5 -59t-62.5 -177z" />
<glyph unicode="%" horiz-adv-x="1572" d="M391 1366q138 0 203 -77.5t65 -235.5q0 -160 -65 -238t-203 -78q-140 0 -205 78t-65 238q0 158 65 235.5t205 77.5zM391 819q93 0 133.5 54.5t40.5 179.5q0 123 -40.5 177t-133.5 54q-94 0 -135 -54t-41 -177q0 -125 41 -179.5t135 -54.5zM1184 618q138 0 203 -77.5 t65 -237.5q0 -158 -65 -235.5t-203 -77.5q-140 0 -205.5 77.5t-65.5 235.5q0 160 65.5 237.5t205.5 77.5zM1184 72q93 0 133.5 54t40.5 177q0 125 -40.5 179.5t-133.5 54.5q-95 0 -135.5 -54.5t-40.5 -179.5q0 -124 40.5 -177.5t135.5 -53.5zM1229 1335l-783 -1317 q-9 -13 -20 -16.5t-45 -3.5q-18 0 -27.5 2.5t-10.5 7.5t3 12l782 1317q7 13 19 17t45 4q19 0 29 -3t11 -8t-3 -12z" />
<glyph unicode="&#x26;" horiz-adv-x="1390" d="M1280 102q10 4 18.5 -5t16.5 -31q9 -28 8 -38t-12 -16q-53 -22 -127 -22q-159 0 -209 145q-112 -151 -365 -151q-475 0 -475 411q0 142 65 236t171 123q-87 23 -137 93.5t-50 188.5q0 164 96.5 250t305.5 86q205 0 296 -75.5t93 -225.5q0 -14 -10.5 -18t-46.5 -4 q-34 0 -43 4.5t-11 19.5q-5 101 -65 149t-213 48q-151 0 -217 -56.5t-66 -179.5q0 -129 54.5 -184t183.5 -55h98q11 0 14.5 -10.5t3.5 -39.5q0 -30 -3.5 -39.5t-14.5 -9.5h-94q-133 0 -211 -76t-78 -219q0 -152 87 -236.5t267 -84.5q178 0 260 81t82 212v323h-137 q-11 0 -14.5 9.5t-3.5 39.5q0 29 3.5 39.5t14.5 10.5h432q11 0 15 -10.5t4 -39.5q0 -30 -4 -39.5t-15 -9.5h-182v-360q0 -100 13.5 -154t40 -74t73.5 -20q53 0 88 14z" />
<glyph unicode="'" horiz-adv-x="399" d="M156 948l-13 445q0 15 10.5 19.5t45.5 4.5t46 -4.5t11 -19.5l-12 -445q0 -14 -8.5 -18t-36.5 -4q-26 0 -34.5 4t-8.5 18z" />
<glyph unicode="(" horiz-adv-x="692" d="M172 524q0 186 11.5 325.5t39 251t72 181.5t110 106.5t154.5 36.5h35q13 0 16.5 -8.5t3.5 -36.5q0 -30 -3.5 -38.5t-16.5 -8.5h-31q-157 0 -219.5 -194.5t-62.5 -614.5t62.5 -614.5t219.5 -194.5h31q13 0 16.5 -8.5t3.5 -38.5q0 -28 -3.5 -36.5t-16.5 -8.5h-35 q-89 0 -154.5 36.5t-110 106.5t-72 181.5t-39 251t-11.5 325.5z" />
<glyph unicode=")" horiz-adv-x="692" d="M520 524q0 -186 -11.5 -325.5t-39 -251t-72 -181.5t-110 -106.5t-154.5 -36.5h-35q-13 0 -16.5 8.5t-3.5 36.5q0 30 3.5 38.5t16.5 8.5h31q157 0 220 194.5t63 614.5t-63 614.5t-220 194.5h-31q-13 0 -16.5 8.5t-3.5 38.5q0 28 3.5 36.5t16.5 8.5h35q89 0 154.5 -36.5 t110 -106.5t72 -181.5t39 -251t11.5 -325.5z" />
<glyph unicode="*" horiz-adv-x="1048" d="M186 1180l310 -133l-27 337q-2 14 9.5 20.5t45.5 6.5q33 0 45.5 -6.5t10.5 -20.5l-29 -337l309 133q14 6 23.5 -3.5t19.5 -43.5q10 -32 8.5 -44.5t-16.5 -17.5l-326 -78l219 -252q10 -10 3.5 -21.5t-33.5 -31.5q-27 -21 -40.5 -23.5t-21.5 11.5l-172 287l-174 -287 q-7 -14 -19.5 -11.5t-39.5 23.5q-28 20 -34.5 31.5t3.5 21.5l219 252l-325 78q-17 5 -19 17.5t10 44.5q10 34 19 43.5t22 3.5z" />
<glyph unicode="+" d="M604 1016v-332h328q12 0 16 -10t4 -41q0 -29 -4 -39t-16 -10h-328v-332q0 -14 -10.5 -19.5t-42.5 -5.5q-31 0 -42 5.5t-11 19.5v332h-328q-12 0 -15 9.5t-3 39.5q0 32 3 41.5t15 9.5h328v332q0 12 10.5 16t42.5 4q33 0 43 -4t10 -16z" />
<glyph unicode="," horiz-adv-x="450" d="M260 217q44 0 58 -6.5t8 -28.5q-48 -175 -176 -442q-8 -19 -54 -19q-22 0 -33 5t-8 16q102 297 123 444q3 20 16.5 25.5t65.5 5.5z" />
<glyph unicode="-" horiz-adv-x="804" d="M158 600h489q13 0 17 -9t4 -40t-3.5 -39t-17.5 -8h-489q-13 0 -17 8.5t-4 38.5t4.5 39.5t16.5 9.5z" />
<glyph unicode="." horiz-adv-x="450" d="M225 -2q-44 0 -58.5 6.5t-14.5 28.5v143q0 24 13 29.5t60 5.5t61.5 -5.5t14.5 -29.5v-143q0 -22 -15 -28.5t-61 -6.5z" />
<glyph unicode="/" horiz-adv-x="724" d="M686 1438l-532 -1581q-5 -15 -17 -20t-53 -5q-34 0 -42 5.5t-3 19.5l532 1581q5 15 16.5 19.5t53.5 4.5q34 0 42 -5t3 -19z" />
<glyph unicode="0" horiz-adv-x="1155" d="M578 1288q240 0 341 -155t101 -496q0 -343 -101 -498t-341 -155q-241 0 -343 155t-102 498q0 341 102.5 496t342.5 155zM578 84q180 0 250.5 127t70.5 426q0 298 -70.5 424.5t-250.5 126.5t-251 -127t-71 -424q0 -299 71 -426t251 -127z" />
<glyph unicode="1" horiz-adv-x="808" d="M375 25v1130l-271 -82q-14 -4 -19 6t-5 35q0 36 3.5 47t16.5 15l363 110q31 9 31 -14v-1247q0 -17 -11.5 -22t-48.5 -5t-48 5t-11 22z" />
<glyph unicode="2" horiz-adv-x="1067" d="M537 1288q391 0 391 -354q0 -44 -6.5 -84t-15.5 -71.5t-28.5 -63.5t-35 -54t-45.5 -49t-49 -42.5t-57.5 -40.5t-60 -37.5t-66 -38.5t-66.5 -39q-122 -73 -188 -144.5t-66 -167.5v-2h678q12 0 16 -10t4 -39q0 -31 -4 -41t-16 -10h-777q-15 0 -18.5 8.5t-3.5 40.5v33 q0 84 37.5 157.5t95 126.5t147.5 111q34 23 85.5 53.5t84.5 51t73.5 49t66 56.5t49 64.5t34.5 82t11 100.5q0 130 -63 192t-207 62q-156 0 -220 -60.5t-69 -191.5q0 -16 -10 -21.5t-45 -5.5q-33 0 -44.5 5.5t-11.5 19.5q3 183 98.5 268.5t301.5 85.5z" />
<glyph unicode="3" horiz-adv-x="1067" d="M532 608h-131q-11 0 -14.5 10t-3.5 39t3.5 39.5t14.5 10.5h136q134 0 191.5 57t57.5 188q0 123 -63 180.5t-207 57.5q-153 0 -218.5 -53.5t-70.5 -161.5q0 -16 -9.5 -20.5t-45.5 -4.5q-33 0 -44 4.5t-11 18.5q6 315 399 315q389 0 389 -330q0 -241 -182 -296 q215 -52 215 -308q0 -179 -104 -274.5t-304 -95.5q-422 0 -428 321q0 14 11 18.5t45 4.5q36 0 45.5 -4.5t9.5 -20.5q5 -109 78 -164t239 -55q289 0 289 272q0 134 -75 193t-212 59z" />
<glyph unicode="4" horiz-adv-x="1099" d="M776 -2q-37 0 -48 5t-11 22v292h-621q-13 0 -17.5 12.5t-4.5 43.5q0 42 14 61l571 819q9 15 28 20t63 5q53 0 69.5 -4.5t16.5 -22.5v-835h178q13 0 16.5 -9t3.5 -40t-3.5 -40.5t-16.5 -9.5h-178v-292q0 -17 -11.5 -22t-48.5 -5zM201 416h518v747z" />
<glyph unicode="5" horiz-adv-x="1021" d="M494 690q-164 0 -269 -55q-19 -8 -55 -8q-30 0 -40.5 4t-10.5 18l43 596q2 15 13 21t42 6h594q13 0 16.5 -10t3.5 -41q0 -32 -3.5 -42t-16.5 -10h-545l-35 -440q109 57 273 57q397 0 397 -395q0 -195 -100 -301t-309 -106q-395 0 -404 321q0 14 11 18.5t44 4.5 q36 0 46 -5t10 -20q5 -108 74.5 -163.5t218.5 -55.5q154 0 222 74.5t68 230.5q0 152 -68.5 226.5t-219.5 74.5z" />
<glyph unicode="6" horiz-adv-x="1077" d="M811 1001q-15 187 -256 187q-59 0 -106 -17t-79 -44t-55.5 -70.5t-36.5 -87.5t-20.5 -104.5t-9.5 -111t-2 -116.5q41 67 130.5 105t198.5 38q197 0 290 -96.5t93 -290.5q0 -409 -397 -409q-102 0 -177 27.5t-123 77t-77.5 128.5t-41 171t-11.5 214q0 191 19.5 316 t68 210.5t130 122.5t206.5 37q164 0 262 -73t105 -216q0 -13 -11 -17.5t-45 -4.5q-36 0 -45.5 4.5t-9.5 19.5zM561 82q82 0 138.5 21.5t87.5 64t44 96.5t13 129q0 152 -63 220.5t-214 68.5q-115 0 -199.5 -45.5t-119.5 -126.5q3 -78 12.5 -137.5t31 -116t55 -93.5t88 -59 t126.5 -22z" />
<glyph unicode="7" horiz-adv-x="966" d="M242 27q89 267 222.5 569t276.5 573h-632q-12 0 -16.5 11t-4.5 41q0 29 4.5 40t16.5 11h741q12 0 15 -9t3 -36q0 -34 -16 -70q-318 -609 -492 -1132q-4 -17 -17.5 -22t-49.5 -5q-35 0 -45.5 6t-5.5 23z" />
<glyph unicode="8" horiz-adv-x="1114" d="M129 326q0 77 20 134t58.5 94t80.5 59t101 40q-52 18 -90 40.5t-71.5 58t-50.5 90t-17 125.5q0 321 397 321q395 0 395 -321q0 -71 -17 -125.5t-50.5 -90t-71.5 -58t-90 -40.5q59 -18 101.5 -40t81.5 -59t59 -94t20 -134q0 -168 -107 -255t-321 -87q-428 0 -428 342z M866 326q0 59 -18 104t-43.5 72.5t-71 50t-82 33t-94.5 24.5q-41 -9 -68.5 -16.5t-63 -20.5t-58.5 -26.5t-47.5 -35t-39 -47t-23.5 -61t-9 -77.5q0 -123 75.5 -182.5t233.5 -59.5t233.5 59.5t75.5 182.5zM274 965q0 -67 21.5 -115t64.5 -78t86.5 -46.5t108.5 -31.5 q52 12 88 23.5t76 33t63.5 48t39.5 69t16 97.5q0 117 -66.5 172t-214.5 55t-215.5 -55t-67.5 -172z" />
<glyph unicode="9" horiz-adv-x="1077" d="M262 270q15 -186 256 -186q59 0 105.5 17t78.5 44t55 71t36 87.5t21 104t10.5 110.5t2.5 117q-42 -67 -132 -105t-197 -38q-197 0 -290 96.5t-93 290.5q0 409 397 409q102 0 177 -27.5t123 -77t77.5 -128.5t41 -171t11.5 -214q0 -191 -19.5 -316t-68 -210.5t-130 -122.5 t-206.5 -37q-164 0 -261.5 72.5t-104.5 215.5q0 14 11 18.5t44 4.5q36 0 45.5 -4.5t9.5 -20.5zM512 1190q-82 0 -138.5 -21.5t-87.5 -64t-44 -96.5t-13 -129q0 -152 63 -220.5t214 -68.5q113 0 197.5 45.5t121.5 126.5q-4 98 -19 169.5t-48.5 133t-95 93.5t-150.5 32z" />
<glyph unicode=":" horiz-adv-x="491" d="M246 -2q-45 0 -59.5 6.5t-14.5 28.5v143q0 24 13.5 29.5t60.5 5.5t61.5 -5.5t14.5 -29.5v-143q0 -22 -15 -28.5t-61 -6.5zM246 776q-45 0 -59.5 6.5t-14.5 28.5v143q0 24 13.5 29.5t60.5 5.5t61.5 -5.5t14.5 -29.5v-143q0 -22 -15 -28.5t-61 -6.5z" />
<glyph unicode=";" horiz-adv-x="491" d="M246 776q-45 0 -59.5 6.5t-14.5 28.5v143q0 24 13.5 29.5t60.5 5.5t61.5 -5.5t14.5 -29.5v-143q0 -22 -15 -28.5t-61 -6.5zM276 217q44 0 58 -6.5t8 -28.5q-48 -175 -176 -442q-8 -19 -53 -19q-22 0 -33 5t-8 16q102 297 123 444q3 21 16 26t65 5z" />
<glyph unicode="&#x3c;" d="M172 637q0 36 3.5 46.5t14.5 18.5l635 476q12 9 21 3.5t28 -32.5q20 -26 21.5 -36.5t-10.5 -18.5l-606 -457l606 -457q13 -7 11 -18t-22 -37q-19 -27 -28 -32.5t-21 3.5l-635 475q-11 8 -14.5 19t-3.5 47z" />
<glyph unicode="=" d="M178 496h746q13 0 16.5 -10t3.5 -42q0 -30 -3.5 -39.5t-16.5 -9.5h-746q-12 0 -16 10t-4 39q0 31 4 41.5t16 10.5zM178 872h746q13 0 16.5 -9.5t3.5 -41.5q0 -30 -3.5 -39.5t-16.5 -9.5h-746q-12 0 -16 10t-4 39q0 31 4 41t16 10z" />
<glyph unicode="&#x3e;" d="M930 637q0 -36 -3.5 -47t-15.5 -19l-635 -475q-12 -9 -21 -3.5t-28 32.5q-20 25 -21.5 36.5t11.5 18.5l606 457l-606 457q-13 8 -11.5 19t21.5 36q19 27 28 32.5t21 -3.5l635 -476q12 -8 15.5 -18.5t3.5 -46.5z" />
<glyph unicode="?" horiz-adv-x="1103" d="M586 459l-2 -51q-2 -15 -10.5 -20t-38.5 -5q-32 0 -41 5t-11 20l-2 51q-3 60 15.5 109t50 82.5t70.5 63.5t78.5 60t72.5 63t53.5 81.5t20.5 107.5q0 123 -68 182.5t-221 59.5q-170 0 -243.5 -66t-76.5 -207q0 -16 -10 -21t-47 -5q-34 0 -45.5 5t-11.5 19 q2 194 107.5 286.5t326.5 92.5q412 0 412 -346q0 -68 -20 -122t-52.5 -90t-72 -67t-79.5 -59t-73.5 -58t-56 -73.5t-25.5 -97.5zM535 -2q-45 0 -59.5 6.5t-14.5 28.5v143q0 24 13.5 29.5t60.5 5.5t61 -5.5t14 -29.5v-143q0 -23 -14.5 -29t-60.5 -6z" />
<glyph unicode="@" horiz-adv-x="1785" d="M1116 549v325q-74 33 -194 33q-149 0 -203.5 -71.5t-54.5 -255.5q0 -166 49 -236t172 -70q112 0 171.5 69t59.5 206zM1182 -137h-260q-194 0 -330.5 35.5t-235 118.5t-145.5 225.5t-47 351.5q0 202 45.5 342.5t141 227t234 125t333.5 38.5q165 0 286 -27.5t202.5 -80.5 t130.5 -138.5t70 -191.5t21 -250q0 -186 -30.5 -292t-87.5 -146.5t-154 -40.5q-104 0 -153 46.5t-60 135.5q-34 -78 -104 -119t-167 -41q-158 0 -234.5 94.5t-76.5 303.5q0 223 81 322t280 99q164 0 268 -53q17 -7 22 -14t5 -19v-479q0 -196 131 -196q70 0 108 33.5 t56 119.5t18 246q0 112 -11.5 195.5t-39.5 153t-73 115.5t-113.5 78t-160.5 46t-214 14q-177 0 -295.5 -30.5t-202 -104.5t-121 -199t-37.5 -313q0 -129 17.5 -228t55.5 -170.5t90.5 -119t129.5 -76t164.5 -40t202.5 -11.5h260q10 0 13 -8t3 -35q0 -26 -3 -34.5t-13 -8.5z " />
<glyph unicode="A" horiz-adv-x="1155" d="M1028 -2q-36 0 -47 5t-16 22q-56 194 -115 383h-547q-36 -115 -113 -383q-5 -17 -16 -22t-47 -5q-39 0 -51 5t-8 22q82 295 205.5 665.5t230.5 640.5q6 17 19 22t55 5t54.5 -4.5t18.5 -22.5q107 -270 230.5 -640.5t205.5 -665.5q4 -17 -8 -22t-51 -5zM578 1219 q-120 -322 -242 -711h483q-153 473 -241 711z" />
<glyph unicode="B" horiz-adv-x="1224" d="M315 645v-541h316q184 0 265 65.5t81 207.5q0 151 -90 209.5t-281 58.5h-291zM614 1251h-299v-503h303q165 0 237.5 63.5t72.5 196.5q0 128 -73 185.5t-241 57.5zM246 1356h372q223 0 327 -85.5t104 -256.5q0 -132 -53 -205.5t-160 -103.5q264 -47 264 -328 q0 -185 -108 -281t-353 -96h-393q-30 0 -41.5 5.5t-11.5 19.5v1306q0 14 11.5 19.5t41.5 5.5z" />
<glyph unicode="C" horiz-adv-x="1212" d="M137 680q0 189 25.5 316.5t85 213.5t155.5 124t240 38q221 0 327.5 -95.5t108.5 -285.5q0 -14 -10.5 -19t-46.5 -5t-47.5 5t-11.5 19q-3 140 -79.5 207.5t-240.5 67.5q-111 0 -182 -28t-116.5 -97.5t-64 -179t-18.5 -281.5q0 -231 35.5 -356.5t118 -179.5t233.5 -54 q168 0 241.5 69.5t76.5 219.5q0 15 11 19.5t46 4.5q37 0 49 -4.5t12 -19.5q-3 -199 -106.5 -297t-329.5 -98q-147 0 -245 38t-157.5 124.5t-84.5 214.5t-25 319z" />
<glyph unicode="D" horiz-adv-x="1282" d="M315 109h295q161 0 248 52.5t124.5 173.5t37.5 343t-37.5 343t-124.5 173.5t-248 52.5h-295v-1138zM610 0h-364q-30 0 -41.5 5.5t-11.5 19.5v1306q0 14 11.5 19.5t41.5 5.5h364q152 0 254 -38t164.5 -122.5t89.5 -209t27 -308.5t-27 -308.5t-89.5 -209t-164.5 -122.5 t-254 -38z" />
<glyph unicode="E" horiz-adv-x="1126" d="M956 1245h-641v-495h578q13 0 17.5 -10.5t4.5 -43.5q0 -31 -5 -42t-17 -11h-578v-532h650q12 0 17 -11.5t5 -44.5t-5 -44t-17 -11h-719q-30 0 -41.5 5.5t-11.5 19.5v1306q0 14 11.5 19.5t41.5 5.5h710q14 0 18.5 -11t4.5 -45q0 -33 -4.5 -44t-18.5 -11z" />
<glyph unicode="F" horiz-adv-x="1048" d="M315 643v-618q0 -17 -11.5 -22t-49.5 -5q-37 0 -49 5t-12 22v1306q0 14 11.5 19.5t41.5 5.5h692q14 0 18.5 -11t4.5 -45q0 -33 -4.5 -44t-18.5 -11h-623v-495h568q14 0 18 -10t4 -44q0 -32 -4.5 -42.5t-17.5 -10.5h-568z" />
<glyph unicode="G" horiz-adv-x="1255" d="M1051 662q32 0 42.5 -6t10.5 -21v-213q0 -438 -438 -438q-280 0 -404.5 161t-124.5 535q0 188 25.5 315t85 213.5t156.5 125t241 38.5q221 0 333 -92t114 -272q0 -15 -12 -21t-48 -6q-35 0 -47 6t-12 21q-2 130 -82.5 194t-245.5 64q-111 0 -183 -28.5t-117.5 -98.5 t-64 -179.5t-18.5 -279.5q0 -169 22 -281.5t72 -181.5t124.5 -98t185.5 -29q168 0 243.5 80.5t75.5 257.5v129h-326q-14 0 -18 10t-4 43q0 32 4 42t18 10h392z" />
<glyph unicode="H" horiz-adv-x="1314" d="M1061 -2q-37 0 -48.5 5t-11.5 22v616h-686v-616q0 -17 -11.5 -22t-49.5 -5q-37 0 -49 5t-12 22v1306q0 17 12 22t49 5q38 0 49.5 -5t11.5 -22v-579h686v579q0 17 11.5 22t48.5 5q38 0 49.5 -5t11.5 -22v-1306q0 -17 -11.5 -22t-49.5 -5z" />
<glyph unicode="I" horiz-adv-x="520" d="M260 -2q-37 0 -48 5t-11 22v1306q0 17 11 22t48 5q39 0 50.5 -5t11.5 -22v-1306q0 -17 -11.5 -22t-50.5 -5z" />
<glyph unicode="J" horiz-adv-x="1046" d="M739 467v864q0 17 11.5 22t50.5 5q37 0 48 -5t11 -22v-870q0 -247 -87.5 -362t-297.5 -115q-192 0 -283.5 98t-93.5 297q0 15 12 21t48 6q35 0 46 -5.5t11 -21.5q3 -147 64.5 -216t197.5 -69q150 0 206 86.5t56 286.5z" />
<glyph unicode="K" horiz-adv-x="1159" d="M1071 1329l-475 -610l496 -692q18 -24 -27 -28q-9 -1 -21 -1q-43 0 -60 5t-28 20l-454 639h-187v-637q0 -17 -11.5 -22t-49.5 -5q-37 0 -49 5t-12 22v1306q0 17 12 22t49 5q38 0 49.5 -5t11.5 -22v-559h187l430 561q10 15 29 20t61 5q59 0 53 -22z" />
<glyph unicode="L" horiz-adv-x="1003" d="M315 1331v-1222h596q13 0 18 -11.5t5 -44.5q0 -31 -5 -42t-18 -11h-665q-30 0 -41.5 6t-11.5 21v1304q0 17 12 22t49 5q38 0 49.5 -5t11.5 -22z" />
<glyph unicode="M" horiz-adv-x="1595" d="M799 150q-37 0 -49 5t-17 21l-422 1020v-1171q0 -17 -10.5 -22t-46.5 -5q-37 0 -49 5t-12 22v1306q0 17 18 22t72 5q46 0 65 -5t25 -22l424 -1034l426 1034q6 17 25 22t65 5q54 0 72 -5t18 -22v-1306q0 -17 -12 -22t-50 -5q-36 0 -46.5 5t-10.5 22v1171l-422 -1020 q-5 -16 -16.5 -21t-46.5 -5z" />
<glyph unicode="N" horiz-adv-x="1325" d="M1073 1358q37 0 48.5 -5t11.5 -22v-1306q0 -17 -13.5 -22t-60.5 -5q-39 0 -51 3.5t-19 18.5l-678 1145v-1140q0 -17 -10.5 -22t-46.5 -5q-37 0 -49 5t-12 22v1306q0 17 13.5 22t59.5 5q38 0 50.5 -4t21.5 -19l678 -1145v1141q0 17 10 22t47 5z" />
<glyph unicode="O" horiz-adv-x="1290" d="M645 1372q280 0 394 -159.5t114 -534.5t-114 -534.5t-394 -159.5q-279 0 -393.5 160t-114.5 534t114.5 534t393.5 160zM645 90q146 0 228 53.5t119.5 180t37.5 354.5t-37.5 354.5t-119.5 180t-228 53.5t-227.5 -53.5t-118.5 -180t-37 -354.5t37 -354.5t118.5 -180 t227.5 -53.5z" />
<glyph unicode="P" horiz-adv-x="1171" d="M590 528h-275v-503q0 -17 -11.5 -22t-49.5 -5q-37 0 -49 5t-12 22v1306q0 14 11.5 19.5t41.5 5.5h344q249 0 358 -97t109 -317t-109.5 -317t-357.5 -97zM315 1247v-612h273q191 0 267.5 65t76.5 242q0 176 -76.5 240.5t-267.5 64.5h-273z" />
<glyph unicode="Q" horiz-adv-x="1292" d="M645 1372q280 0 394 -159.5t114 -534.5q0 -339 -93.5 -500.5t-314.5 -187.5q52 -71 155.5 -115.5t215.5 -46.5q14 0 19.5 -10.5t5.5 -42.5t-5.5 -41.5t-19.5 -9.5q-145 0 -279 72.5t-210 187.5q-267 4 -378.5 165.5t-111.5 528.5q0 374 114.5 534t393.5 160zM645 90 q146 0 228 53.5t119.5 180t37.5 354.5t-37.5 354.5t-119.5 180t-228 53.5t-227.5 -53.5t-118.5 -180t-37 -354.5t37 -354.5t118.5 -180t227.5 -53.5z" />
<glyph unicode="R" horiz-adv-x="1200" d="M559 571h-244v-546q0 -17 -11.5 -22t-49.5 -5q-37 0 -49 5t-12 22v1306q0 14 11.5 19.5t41.5 5.5h348q244 0 351.5 -94.5t107.5 -300.5q0 -293 -267 -361q79 -27 129.5 -95.5t90.5 -189.5q45 -129 84 -290q1 -8 -1.5 -13t-17.5 -9.5t-43 -4.5q-38 0 -52.5 5.5t-17.5 19.5 q-28 135 -75 268q-22 69 -47 116.5t-62.5 86.5t-90.5 58t-124 19zM315 1247v-575h275q183 0 261.5 64.5t78.5 224.5q0 163 -76 224.5t-264 61.5h-275z" />
<glyph unicode="S" horiz-adv-x="1173" d="M592 88q172 0 247.5 62t75.5 196q0 53 -14 93t-37.5 68t-66.5 51t-89 38.5t-118 34.5q-85 21 -142.5 40.5t-119 52t-98 71.5t-60 98.5t-23.5 134.5q0 173 99 258.5t321 85.5q216 0 321.5 -80.5t106.5 -261.5q0 -15 -10.5 -19.5t-46.5 -4.5q-37 0 -48 4.5t-11 19.5 q0 129 -74 183.5t-234 54.5q-163 0 -233 -54.5t-70 -179.5q0 -41 9 -74.5t22.5 -58.5t39.5 -46.5t51 -36.5t67.5 -31t77 -26.5t90.5 -25.5q94 -26 151 -46.5t112 -51.5t83.5 -69t45.5 -93t17 -129q0 -181 -103.5 -271.5t-338.5 -90.5q-459 0 -465 350q0 15 11 19.5t48 4.5 q36 0 47 -4.5t11 -19.5q3 -246 348 -246z" />
<glyph unicode="T" horiz-adv-x="1062" d="M967 1249h-375v-1224q0 -17 -11.5 -22t-48.5 -5q-38 0 -49.5 5t-11.5 22v1224h-375q-12 0 -17 10.5t-5 43.5q0 32 4.5 42.5t17.5 10.5h871q14 0 18 -10t4 -43q0 -34 -4 -44t-18 -10z" />
<glyph unicode="U" horiz-adv-x="1296" d="M647 -16q-250 0 -356.5 116.5t-106.5 376.5v854q0 17 11.5 22t48.5 5q38 0 49.5 -5t11.5 -22v-848q0 -208 76 -297.5t266 -89.5q191 0 267.5 89.5t76.5 297.5v848q0 17 11.5 22t48.5 5q38 0 49.5 -5t11.5 -22v-854q0 -260 -107 -376.5t-358 -116.5z" />
<glyph unicode="V" horiz-adv-x="1146" d="M1020 1358q39 0 50 -5t7 -22q-84 -301 -205.5 -670.5t-224.5 -635.5q-6 -17 -19.5 -22t-54.5 -5t-54 5t-19 22q-102 263 -224 632t-208 674q-3 17 9.5 22t51.5 5q38 0 49.5 -5t16.5 -22q179 -639 380 -1181q215 588 381 1181q5 18 15.5 22.5t48.5 4.5z" />
<glyph unicode="W" horiz-adv-x="1837" d="M1692 1358q39 0 50.5 -5t8.5 -22q-63 -281 -168.5 -661.5t-193.5 -644.5q-6 -17 -19.5 -22t-52.5 -5q-36 0 -48.5 5.5t-17.5 21.5q-162 501 -333 1151q-165 -643 -330 -1151q-5 -16 -18 -21.5t-50 -5.5q-38 0 -50.5 5t-18.5 22q-88 257 -193.5 637t-171.5 669 q-3 17 9.5 22t51.5 5q36 0 47.5 -5t14.5 -22q112 -517 311 -1179q180 589 334 1179q3 17 15 22t51 5q38 0 50.5 -5t16.5 -22q141 -550 330 -1179q185 604 313 1179q5 17 15.5 22t46.5 5z" />
<glyph unicode="X" horiz-adv-x="1173" d="M698 698l400 -671q5 -10 2.5 -16.5t-15.5 -9.5t-38 -3q-41 0 -57 4.5t-23 20.5l-361 620h-39l-360 -620q-7 -16 -23 -20.5t-57 -4.5q-25 0 -38 3t-15.5 9.5t2.5 16.5l399 671l-391 631q-6 16 4 22.5t47 6.5q42 0 56.5 -4t23.5 -21l354 -583h35l354 583q9 17 24 21t58 4 q36 0 47 -7t3 -22z" />
<glyph unicode="Y" horiz-adv-x="1120" d="M924 1331q8 18 17 22.5t46 4.5q44 0 57 -6t7 -23q-84 -182 -208.5 -421t-221.5 -404v-479q0 -17 -11.5 -22t-48.5 -5q-38 0 -49.5 5t-11.5 22v479q-96 165 -220 404t-210 421q-6 17 6.5 23t56.5 6q37 0 47.5 -4.5t16.5 -22.5q170 -384 364 -721q201 355 363 721z" />
<glyph unicode="Z" horiz-adv-x="1116" d="M154 1356h807q15 0 19.5 -12t4.5 -48q0 -32 -12 -53l-719 -1137h721q14 0 19 -10t5 -43q0 -32 -5 -42.5t-19 -10.5h-838q-15 0 -19.5 11.5t-4.5 45.5t12 52l719 1140h-690q-13 0 -18 11t-5 43q0 31 5 42t18 11z" />
<glyph unicode="[" horiz-adv-x="692" d="M211 -348v1745q0 14 9.5 19t37.5 5h309q12 0 15.5 -9t3.5 -36q0 -29 -3.5 -38t-15.5 -9h-254v-1610h256q12 0 15.5 -9t3.5 -38q0 -27 -3.5 -36t-15.5 -9h-311q-28 0 -37.5 5.5t-9.5 19.5z" />
<glyph unicode="\" horiz-adv-x="724" d="M571 -143l-532 1581q-5 14 3 19t42 5q42 0 53.5 -4.5t16.5 -19.5l532 -1581q5 -14 -3 -19.5t-42 -5.5q-41 0 -53 5t-17 20z" />
<glyph unicode="]" horiz-adv-x="692" d="M481 1397v-1745q0 -14 -9.5 -19.5t-37.5 -5.5h-311q-12 0 -15.5 9t-3.5 36q0 29 3.5 38t15.5 9h256v1610h-254q-12 0 -15.5 9t-3.5 38q0 27 3.5 36t15.5 9h309q28 0 37.5 -5t9.5 -19z" />
<glyph unicode="^" d="M551 1364q33 0 43.5 -3t17.5 -15l353 -631q13 -21 -19 -25q-12 -2 -31 -2q-34 0 -49 5t-24 20l-291 524l-291 -524q-9 -15 -24 -20t-50 -5q-53 0 -53 15q0 5 4 12l355 631q6 12 16 15t43 3z" />
<glyph unicode="_" horiz-adv-x="796" d="M782 -221h-768q-12 0 -16 9t-4 38q0 26 4 35.5t16 9.5h768q12 0 16.5 -9.5t4.5 -35.5q0 -29 -4.5 -38t-16.5 -9z" />
<glyph unicode="`" horiz-adv-x="655" d="M471 1126l-324 160q-14 8 -14.5 17t17.5 40q19 29 28.5 34.5t22.5 -3.5l311 -184q10 -8 10 -15.5t-10 -27.5q-12 -20 -20 -23.5t-21 2.5z" />
<glyph unicode="a" horiz-adv-x="1056" d="M283 725q0 -14 -12 -19.5t-46 -5.5q-36 0 -44.5 4.5t-8.5 22.5q0 277 356 277q196 0 281.5 -77.5t85.5 -236.5v-670q0 -15 -10 -18.5t-45 -3.5t-44.5 3.5t-9.5 18.5l-2 150q-39 -78 -127 -130t-213 -52q-163 0 -246 70t-83 202q0 138 81.5 206.5t256.5 68.5h327v151 q0 122 -57.5 171.5t-192.5 49.5q-128 0 -187.5 -43.5t-59.5 -138.5zM780 444h-323q-127 0 -177.5 -42.5t-50.5 -141.5q0 -178 222 -178q138 0 233.5 79t95.5 193v90z" />
<glyph unicode="b" horiz-adv-x="1136" d="M291 1395v-553q94 162 325 162q206 0 302 -126t96 -378q0 -263 -95.5 -389.5t-302.5 -126.5q-238 0 -331 170v-134q0 -15 -10.5 -18.5t-45.5 -3.5q-34 0 -43.5 3.5t-9.5 18.5v1375q0 17 9.5 20.5t47.5 3.5q36 0 47 -4t11 -20zM291 494q0 -214 70.5 -312t240.5 -98 q162 0 227.5 97.5t65.5 318.5q0 209 -66 306t-227 97q-169 0 -240 -98t-71 -311z" />
<glyph unicode="c" horiz-adv-x="1024" d="M543 903q-169 0 -235 -96t-66 -313q0 -219 66.5 -314.5t240.5 -95.5q240 0 246 186q0 14 11 19.5t44 5.5q35 0 45 -5.5t10 -21.5q-4 -139 -95.5 -211.5t-260.5 -72.5q-231 0 -328.5 122.5t-97.5 387.5q0 262 97 386t323 124q165 0 259 -71.5t99 -199.5q0 -16 -10 -21 t-45 -5q-33 0 -45.5 5t-12.5 19q-3 84 -66 128t-179 44z" />
<glyph unicode="d" horiz-adv-x="1136" d="M852 20l-2 130q-93 -166 -328 -166q-208 0 -303.5 126.5t-95.5 389.5q0 252 96 378t303 126q227 0 324 -160v551q0 16 10.5 20t48.5 4q37 0 47.5 -3.5t10.5 -20.5v-1375q0 -15 -10.5 -18.5t-45.5 -3.5t-45 3.5t-10 18.5zM846 494q0 213 -71 311t-240 98q-161 0 -227 -97 t-66 -306q0 -221 65.5 -318.5t227.5 -97.5q170 0 240.5 98t70.5 312z" />
<glyph unicode="e" horiz-adv-x="1050" d="M905 463h-667q3 -197 76.5 -288t240.5 -91q231 0 244 174q2 14 12.5 19.5t42.5 5.5q37 0 47 -5t8 -22q-6 -129 -98 -200.5t-256 -71.5q-226 0 -329 122t-103 379q0 265 100.5 392t321.5 127q385 0 385 -422v-60q0 -36 -5 -47.5t-20 -11.5zM545 903q-157 0 -227.5 -82.5 t-79.5 -267.5h581v47q0 143 -62 223t-212 80z" />
<glyph unicode="f" horiz-adv-x="698" d="M610 889h-258v-866q0 -17 -10 -21t-45 -4q-38 0 -47.5 4t-9.5 21v866h-154q-13 0 -16.5 8.5t-3.5 38.5t3.5 39.5t16.5 9.5l154 2v133q0 162 61.5 234.5t206.5 72.5q102 0 168 -30q12 -4 12.5 -15t-10.5 -39q-9 -25 -16.5 -32t-18.5 -2q-59 18 -123 18q-94 0 -131 -48.5 t-37 -164.5v-127h258q12 0 15.5 -9.5t3.5 -39.5t-3.5 -39.5t-15.5 -9.5z" />
<glyph unicode="g" horiz-adv-x="1085" d="M242 -98q0 -193 288 -193q140 0 208.5 47t68.5 158q0 106 -74.5 157t-214.5 72q-208 0 -303.5 106.5t-95.5 323.5t95 324t302 107q93 0 166 -25l293 16q13 0 17.5 -10t4.5 -41q0 -29 -4.5 -39t-17.5 -10h-160q103 -109 103 -324q0 -304 -201 -391q203 -70 203 -266 q0 -151 -96.5 -226t-293.5 -75q-198 0 -298.5 73t-100.5 214q0 17 9 21.5t46 4.5q33 0 44.5 -5t11.5 -19zM518 240q152 0 219.5 81t67.5 250q0 172 -68 254t-221 82q-152 0 -217.5 -80.5t-65.5 -253.5q0 -172 66 -252.5t219 -80.5z" />
<glyph unicode="h" horiz-adv-x="1134" d="M291 1395v-572q36 73 123.5 127t218.5 54q160 0 249 -85t89 -257v-639q0 -17 -10.5 -21t-47.5 -4q-38 0 -47.5 4t-9.5 21v630q0 128 -60.5 187t-181.5 59q-145 0 -234 -85.5t-89 -209.5v-581q0 -17 -11 -21t-47 -4q-38 0 -47.5 4t-9.5 21v1372q0 17 9.5 20.5t47.5 3.5 q36 0 47 -4t11 -20z" />
<glyph unicode="i" horiz-adv-x="468" d="M176 23v944q0 14 12.5 19t47.5 5q34 0 45.5 -5t11.5 -19v-944q0 -17 -10 -21t-47 -4t-48.5 4t-11.5 21zM236 1370q42 0 51.5 -5.5t9.5 -29.5v-141q0 -23 -10 -29t-51 -6q-43 0 -53.5 6t-10.5 29v141q0 23 10.5 29t53.5 6z" />
<glyph unicode="j" horiz-adv-x="489" d="M-20 -274q1 0 24.5 -4.5t46.5 -4.5q58 0 88 17.5t45 69t15 151.5v1012q0 14 11.5 19t45.5 5t45.5 -5t11.5 -19v-1016q0 -101 -14.5 -167t-46.5 -102t-74 -49.5t-106 -13.5t-92 8q-13 4 -16 11.5t-3 37.5t3.5 40t15.5 10zM256 1370q42 0 52.5 -6t10.5 -29v-141 q0 -23 -11 -29t-52 -6q-42 0 -54 6t-12 29v141q0 23 11.5 29t54.5 6z" />
<glyph unicode="k" horiz-adv-x="976" d="M291 1395v-811h133l344 377q15 19 31 24.5t57 5.5q61 0 56 -21q-1 -6 -7 -12l-387 -423l400 -508q21 -24 -26 -28q-10 -1 -22 -1q-44 0 -58.5 4.5t-27.5 22.5l-364 460h-129v-462q0 -17 -11 -21t-47 -4q-38 0 -47.5 4t-9.5 21v1372q0 17 9.5 20.5t47.5 3.5q36 0 47 -4 t11 -20z" />
<glyph unicode="l" horiz-adv-x="493" d="M387 104h35q13 0 17.5 -10.5t4.5 -42.5q0 -31 -4.5 -41t-17.5 -10h-45q-113 0 -157 44.5t-44 152.5v1198q0 14 12.5 19t47.5 5q34 0 45.5 -5t11.5 -19v-1186q0 -61 19.5 -83t74.5 -22z" />
<glyph unicode="m" horiz-adv-x="1720" d="M285 967l2 -154q33 75 119 133t202 58q231 0 291 -205q48 90 136.5 147.5t205.5 57.5q147 0 231 -80.5t84 -253.5v-647q0 -17 -10 -21t-47 -4t-47 4t-10 21v639q0 237 -215 237q-126 0 -212 -82t-91 -201v-593q0 -17 -10.5 -21t-47.5 -4t-47 4t-10 21v639q0 237 -215 237 q-128 0 -215.5 -86.5t-87.5 -208.5v-581q0 -17 -11 -21t-47 -4q-38 0 -47.5 4t-9.5 21v944q0 15 9.5 19.5t43.5 4.5t45 -4.5t11 -19.5z" />
<glyph unicode="n" horiz-adv-x="1134" d="M285 967l2 -154q36 77 124 134t222 57q161 0 249.5 -84t88.5 -256v-641q0 -17 -10.5 -21t-47.5 -4q-38 0 -47.5 4t-9.5 21v630q0 129 -60.5 187.5t-181.5 58.5q-146 0 -234.5 -85t-88.5 -210v-581q0 -17 -11 -21t-47 -4q-38 0 -47.5 4t-9.5 21v944q0 15 9.5 19.5 t43.5 4.5t45 -4.5t11 -19.5z" />
<glyph unicode="o" horiz-adv-x="1089" d="M545 1004q226 0 323 -124t97 -386q0 -263 -96.5 -386.5t-323.5 -123.5q-228 0 -325 123.5t-97 386.5q0 262 97 386t325 124zM545 84q170 0 236.5 96t66.5 314t-66.5 313.5t-236.5 95.5t-236.5 -95.5t-66.5 -313.5t66.5 -314t236.5 -96z" />
<glyph unicode="p" horiz-adv-x="1136" d="M285 967v-133q93 170 331 170q206 0 302 -126t96 -382q0 -259 -96 -385.5t-302 -126.5q-233 0 -325 159v-489q0 -17 -11 -21t-47 -4q-38 0 -47.5 4t-9.5 21v1313q0 15 9.5 19.5t43.5 4.5t45 -4.5t11 -19.5zM291 494q0 -214 70.5 -312t240.5 -98q162 0 227.5 97.5 t65.5 314.5q0 213 -65.5 310t-227.5 97q-169 0 -240 -98t-71 -311z" />
<glyph unicode="q" horiz-adv-x="1136" d="M905 -371q-37 0 -48 4t-11 21v487q-98 -157 -326 -157q-206 0 -301.5 126.5t-95.5 385.5q0 256 95.5 382t301.5 126q236 0 330 -168l2 131q0 15 10.5 19.5t44.5 4.5t45 -4.5t11 -19.5v-1313q0 -17 -10.5 -21t-47.5 -4zM846 494q0 213 -71 311t-240 98q-162 0 -227.5 -97 t-65.5 -310q0 -217 65.5 -314.5t227.5 -97.5q170 0 240.5 98t70.5 312z" />
<glyph unicode="r" horiz-adv-x="718" d="M641 885q-163 0 -256.5 -85.5t-93.5 -224.5v-552q0 -17 -11 -21t-47 -4q-38 0 -47.5 4t-9.5 21v944q0 15 9.5 19.5t43.5 4.5t45 -4.5t11 -19.5l2 -179q36 90 126.5 150.5t227.5 60.5q15 0 20 -11t5 -46q0 -36 -5 -46.5t-20 -10.5z" />
<glyph unicode="s" horiz-adv-x="993" d="M225 258q5 -92 71.5 -134t211.5 -42q134 0 192 41.5t58 128.5q0 91 -61.5 131.5t-204.5 67.5q-91 17 -152 37.5t-110.5 53t-73 81t-23.5 116.5q0 133 85 199t263 66q180 0 269.5 -64.5t89.5 -198.5q0 -14 -11.5 -19t-44.5 -5q-36 0 -44.5 4t-10.5 22q-3 83 -60.5 122.5 t-187.5 39.5q-124 0 -180.5 -37.5t-56.5 -122.5q0 -38 12.5 -66.5t32 -47t59 -34.5t76.5 -26t102 -24q52 -11 86.5 -20t74 -22t64.5 -27.5t49 -36t37.5 -47.5t22 -61.5t8.5 -78.5q0 -130 -84 -200t-276 -70q-199 0 -297 71t-98 201q0 17 9.5 22t45.5 5q32 0 43 -5.5 t14 -19.5z" />
<glyph unicode="t" horiz-adv-x="737" d="M612 889h-270v-619q0 -102 30.5 -142t106.5 -40q74 0 121 23q10 6 19 -3.5t18 -33.5q9 -28 8 -37t-12 -14q-64 -33 -160 -33q-133 0 -189.5 62t-56.5 210v627h-143q-12 0 -16.5 9t-4.5 38t4.5 39t16.5 10l143 2v254q0 14 12 19.5t46 5.5t45.5 -5.5t11.5 -19.5v-254h270 q13 0 17 -9.5t4 -39.5t-4 -39.5t-17 -9.5z" />
<glyph unicode="u" horiz-adv-x="1122" d="M838 20l-4 152q-16 -36 -40 -66.5t-60.5 -59.5t-92 -45.5t-123.5 -16.5q-167 0 -262.5 88.5t-95.5 265.5v629q0 15 11.5 19.5t47.5 4.5q35 0 46 -4.5t11 -19.5v-619q0 -135 66 -198.5t195 -63.5q139 0 216.5 87.5t77.5 211.5v582q0 15 11 19.5t47 4.5q35 0 46 -4.5 t11 -19.5v-947q0 -15 -10 -18.5t-45 -3.5q-34 0 -43.5 3.5t-9.5 18.5z" />
<glyph unicode="v" horiz-adv-x="968" d="M846 991q37 0 47.5 -6t5.5 -24q-59 -204 -156 -472.5t-184 -470.5q-4 -13 -19.5 -16.5t-56.5 -3.5q-39 0 -54 3.5t-19 16.5q-87 202 -184 470.5t-156 472.5q-5 18 6 24t49 6q35 0 47.5 -6.5t17.5 -21.5q55 -199 135.5 -436t157.5 -423q78 190 161 427.5t138 431.5 q5 15 17 21.5t47 6.5z" />
<glyph unicode="w" horiz-adv-x="1517" d="M1372 989q37 0 47.5 -4.5t10.5 -17.5q0 -15 -7 -33q-156 -566 -280 -916q-4 -13 -19 -16.5t-51 -3.5q-33 0 -43 3.5t-14 16.5q-132 387 -258 826q-119 -416 -256 -826q-4 -13 -15 -16.5t-45 -3.5q-36 0 -49.5 3.5t-17.5 16.5q-120 331 -281 916q-8 20 -8 33t10.5 17.5 t46.5 4.5q37 0 50 -6.5t16 -24.5q96 -403 231 -823q164 508 252 828q5 14 18 20t48 6q36 0 49 -6t16 -20q113 -399 252 -826q135 418 234 821q3 18 15 24.5t48 6.5z" />
<glyph unicode="x" horiz-adv-x="962" d="M762 25l-268 438h-27l-266 -438q-10 -19 -22 -23t-52 -4q-24 0 -37.5 3.5t-16 10t2.5 15.5l303 485l-295 446q-8 16 4.5 24.5t48.5 8.5q39 0 51 -5.5t23 -24.5l256 -402h29l258 402q13 20 23.5 25t49.5 5q24 0 38 -4t17 -11.5t-3 -17.5l-295 -446l303 -485 q15 -23 -26 -28q-11 -1 -25 -1q-40 0 -52 4t-22 23z" />
<glyph unicode="y" horiz-adv-x="997" d="M215 -283q38 0 67 9.5t51 25.5t45 51t41.5 71.5t47.5 102.5l8 23q-34 0 -39 18q-89 192 -193.5 462t-172.5 481q-5 18 6 24t49 6q36 0 48.5 -6.5t14.5 -21.5q62 -199 152.5 -444t171.5 -433q74 182 159.5 431t141.5 446q3 15 14.5 21.5t44.5 6.5q37 0 49 -7t7 -26 q-56 -211 -162.5 -503.5t-196.5 -493.5q-30 -68 -49.5 -107.5t-45 -84t-48.5 -68t-53.5 -45t-66.5 -29.5t-81 -8q-58 0 -106 12q-12 3 -15.5 12t-3.5 38q0 30 4 38.5t17 8.5q3 0 14.5 -3t32.5 -5.5t47 -2.5z" />
<glyph unicode="z" horiz-adv-x="970" d="M838 901l-580 -807h578q12 0 16 -9t4 -38t-4 -38t-16 -9h-703q-12 0 -15 8t-3 35q0 26 8 37l582 813h-553q-13 0 -17 8.5t-4 38.5t4 38.5t17 8.5h673q12 0 15.5 -9.5t3.5 -35.5q0 -31 -6 -41z" />
<glyph unicode="{" horiz-adv-x="692" d="M57 524q0 30 4 39.5t17 9.5h51q44 0 68.5 28.5t35.5 100t11 203.5q0 63 0.5 100.5t3 90t8 83t15 69.5t23 61.5t34 46.5t47.5 36.5t63 20.5t80 8h66q12 0 15 -9t3 -36q0 -30 -3 -38.5t-15 -8.5h-64q-25 0 -45.5 -4t-36.5 -14t-28.5 -20.5t-22 -32t-15.5 -38t-10.5 -48.5 t-6.5 -55t-3.5 -66.5t-1.5 -72.5v-83q0 -187 -31 -268.5t-90 -102.5q59 -21 90 -102t31 -268q0 -90 1 -134.5t5.5 -105t15.5 -88t29.5 -57t47.5 -40t71 -10.5h64q12 0 15 -8.5t3 -38.5q0 -27 -3 -36t-15 -9h-66q-44 0 -80 8t-63 20.5t-47.5 36.5t-34 46.5t-23 61.5t-15 69.5 t-8 83t-3 90t-0.5 100.5q0 132 -11 203.5t-35.5 100t-68.5 28.5h-51q-13 0 -17 9.5t-4 39.5z" />
<glyph unicode="|" horiz-adv-x="618" d="M367 1395v-1782q0 -17 -10.5 -21t-47.5 -4t-47 4t-10 21v1782q0 17 10 20.5t47 3.5t47.5 -3.5t10.5 -20.5z" />
<glyph unicode="}" horiz-adv-x="692" d="M635 524q0 -30 -4 -39.5t-17 -9.5h-51q-44 0 -68 -29t-35 -100t-11 -203q0 -63 -0.5 -101t-3.5 -90t-8 -82.5t-14.5 -69.5t-23.5 -61.5t-34.5 -46.5t-47.5 -36.5t-63 -20.5t-80 -8h-65q-12 0 -15.5 9t-3.5 36q0 29 3.5 38t15.5 9h63q42 0 71 10.5t47.5 40t29.5 57 t15.5 88t5.5 105t1 134.5q0 187 31 268t90 102q-59 21 -90 102.5t-31 268.5v83t-1.5 72.5t-3.5 66.5t-6.5 55t-10.5 48.5t-15.5 38t-22 32t-28.5 20.5t-36.5 14t-45.5 4h-63q-12 0 -15.5 9t-3.5 38q0 27 3.5 36t15.5 9h65q44 0 80 -8t63 -20.5t47.5 -36.5t34.5 -46.5 t23.5 -61.5t14.5 -69.5t8 -82.5t3.5 -90t0.5 -101q0 -132 11 -203t35 -100t68 -29h51q13 0 17 -9.5t4 -39.5z" />
<glyph unicode="~" d="M481 664l168 -93q45 -26 88 -26q85 0 125 114q3 11 33 11q50 0 41 -27q-58 -190 -199 -190q-62 0 -116 26l-168 92q-48 29 -88 29q-81 0 -123 -115q-6 -12 -33 -12q-26 0 -36 6.5t-5 20.5q56 192 197 192q65 0 116 -28z" />
<glyph unicode="&#xa1;" horiz-adv-x="542" d="M270 604q30 0 38.5 -5t8.5 -19l23 -922q1 -18 -14 -24.5t-56 -6.5q-40 0 -54 6.5t-13 24.5l22 922q0 15 7.5 19.5t37.5 4.5zM270 776q-44 0 -58.5 6.5t-14.5 28.5v143q0 24 13 29.5t60 5.5t61.5 -5.5t14.5 -29.5v-143q0 -22 -15 -28.5t-61 -6.5z" />
<glyph unicode="&#xa2;" horiz-adv-x="1050" d="M563 -2q-36 0 -45.5 4.5t-9.5 20.5v149q-203 15 -290 138t-87 370q0 249 88 374t289 138v147q0 14 10 19.5t45 5.5q34 0 43.5 -5.5t9.5 -19.5v-147q145 -12 225 -81.5t83 -184.5q0 -16 -10 -21.5t-44 -5.5t-45.5 5.5t-11.5 19.5q-5 70 -57 113.5t-146 52.5v-818 q200 15 209 181q0 14 10.5 19t44.5 5t45 -5.5t11 -20.5q-5 -126 -85 -198t-229 -81v-149q0 -15 -9.5 -20t-43.5 -5zM250 680q0 -203 59 -299.5t207 -108.5v818q-148 -12 -207 -108t-59 -302z" />
<glyph unicode="&#xa3;" horiz-adv-x="1200" d="M207 0q-12 -8 -20.5 -1t-26.5 38q-20 30 -21.5 43.5t11.5 19.5q86 56 147 143.5t61 186.5q0 97 -57 213h-164q-13 0 -16.5 8t-3.5 39t3.5 39t16.5 8h117q-59 125 -59 269q0 176 106 271t315 95q215 0 313.5 -92t98.5 -276q0 -16 -11 -21.5t-46 -5.5q-36 0 -48 6t-12 21 q-2 134 -70 198t-225 64q-151 0 -226 -63.5t-75 -196.5q0 -121 68 -269h348q13 0 17 -8.5t4 -38.5t-4 -38.5t-17 -8.5h-303q47 -106 47 -211q0 -128 -65 -233q150 -103 342 -103q65 0 107.5 17t66.5 54t34 87t11 125q0 16 11.5 21.5t47.5 5.5q35 0 46 -5.5t11 -21.5 q0 -200 -78 -293.5t-255 -93.5q-113 0 -217.5 34.5t-186.5 92.5q-56 -64 -143 -119z" />
<glyph unicode="&#xa4;" horiz-adv-x="1140" d="M127 322l98 98q-49 95 -49 258q0 161 49 256l-98 100q-10 8 -6 19t26 32q22 22 31.5 26t18.5 -5l88 -88q96 96 286 96q183 0 285 -94l88 86q9 9 18 5t33 -26q21 -21 25 -32t-4 -19l-98 -100q49 -101 49 -256q0 -157 -49 -258l98 -98q8 -8 4 -19.5t-25 -32.5 q-23 -22 -32.5 -25.5t-18.5 5.5l-88 86q-98 -94 -285 -94q-192 0 -286 94l-88 -86q-9 -9 -18.5 -5.5t-31.5 25.5q-22 21 -26 32.5t6 19.5zM571 334q153 0 219 81.5t66 262.5t-66 262.5t-219 81.5q-154 0 -219 -81.5t-65 -262.5t65 -262.5t219 -81.5z" />
<glyph unicode="&#xa5;" horiz-adv-x="1142" d="M971 414h-340v-389q0 -17 -11.5 -22t-48.5 -5q-38 0 -49.5 5t-11.5 22v389h-342q-12 0 -15 8t-3 39t3 39t15 8h332q-40 70 -105 192h-231q-12 0 -16.5 9t-4.5 39t4 38.5t17 8.5h182q-167 320 -264 534q-6 17 7.5 23t57.5 6q38 0 49 -4.5t19 -22.5q139 -329 356 -731 q223 421 357 731q6 18 17 22.5t48 4.5q45 0 58.5 -6t7.5 -23q-97 -214 -264 -534h182q13 0 16.5 -8t3.5 -39t-3.5 -39.5t-16.5 -8.5h-232l-104 -192h330q14 0 18 -8.5t4 -38.5t-4 -38.5t-18 -8.5z" />
<glyph unicode="&#xa6;" horiz-adv-x="618" d="M365 311v-700q0 -15 -10.5 -19t-45.5 -4t-45 4t-10 19v700q0 15 10 19t45 4t45.5 -4t10.5 -19zM365 1397v-701q0 -15 -10.5 -18.5t-45.5 -3.5q-36 0 -45.5 3.5t-9.5 18.5v701q0 15 9.5 18.5t45.5 3.5q35 0 45.5 -3.5t10.5 -18.5z" />
<glyph unicode="&#xa7;" horiz-adv-x="1140" d="M270 -86q13 -199 291 -199q144 0 206 48.5t62 158.5t-58.5 158.5t-207.5 77.5q-56 11 -93.5 20t-84 24.5t-77 32t-62 42.5t-49.5 57.5t-29.5 75t-11.5 96.5q0 241 202 309q-155 85 -155 272q0 285 370 285q367 0 367 -287q0 -15 -10 -19.5t-45 -4.5t-44.5 4.5t-11.5 19.5 q-5 97 -62 143t-194 46q-134 0 -197 -45t-63 -137q0 -104 64.5 -156t222.5 -90q158 -37 214 -61q118 -51 153 -157q18 -55 18 -128q0 -241 -199 -305q154 -83 154 -275q0 -145 -88 -223t-291 -78q-204 0 -303.5 78t-99.5 215q0 17 9.5 22t45.5 5q32 0 43 -5.5t14 -19.5z M565 748q-25 2 -55 10q-242 -14 -242 -246q0 -38 8.5 -68t21 -52.5t38 -41t47.5 -30.5t62.5 -24.5t70 -20t82.5 -19.5q22 -4 35 -8q126 6 182.5 64t56.5 186q0 31 -4.5 57t-11 46t-20.5 37t-26.5 29.5t-35.5 23t-41 17.5t-50 15t-55 13t-63 12z" />
<glyph unicode="&#xa8;" horiz-adv-x="655" d="M156 1341q41 0 51 -5.5t10 -28.5v-133q0 -22 -10.5 -28.5t-50.5 -6.5t-51 6.5t-11 28.5v133q0 23 10 28.5t52 5.5zM500 1341q41 0 51 -5.5t10 -28.5v-133q0 -22 -10.5 -28.5t-50.5 -6.5t-51 6.5t-11 28.5v133q0 23 10 28.5t52 5.5z" />
<glyph unicode="&#xa9;" horiz-adv-x="1591" d="M494 680q0 221 69.5 317.5t247.5 96.5q266 0 272 -228q0 -12 -8.5 -15t-34.5 -3q-27 0 -35 3t-8 15q-3 76 -47 113t-139 37q-133 0 -181 -73.5t-48 -262.5q0 -192 48 -265t183 -73q99 0 141.5 38.5t44.5 123.5q0 20 45 20q41 0 41 -20q-2 -121 -67 -181.5t-205 -60.5 q-181 0 -250 97t-69 321zM795 1370q171 0 290.5 -41.5t193 -129t107 -215t33.5 -306.5t-33.5 -306.5t-107 -215t-193 -129t-290.5 -41.5t-290 41.5t-193 129t-107 215t-33 306.5t33 306.5t107 215t193 129t290 41.5zM795 68q153 0 256 34.5t165 111.5t88.5 188.5t26.5 275.5 t-26.5 275.5t-88.5 188.5t-165 111.5t-256 34.5q-152 0 -254.5 -34.5t-165 -111.5t-89 -188.5t-26.5 -275.5t26.5 -275.5t89 -188.5t165 -111.5t254.5 -34.5z" />
<glyph unicode="&#xaa;" horiz-adv-x="706" d="M489 1014h-194q-68 0 -95.5 -23.5t-27.5 -75.5q0 -59 30.5 -81.5t92.5 -22.5q79 0 136.5 43t57.5 107v53zM205 1192q0 -11 -8.5 -14.5t-34.5 -3.5q-30 0 -37.5 3.5t-7.5 16.5q0 90 57 131t174 41q124 0 179 -48.5t55 -146.5v-403q0 -17 -8 -21t-35 -4q-29 0 -38 4t-9 21 v82q-26 -49 -78.5 -81t-130.5 -32q-201 0 -201 174q0 86 48.5 128t162.5 42h196v84q0 69 -33 96t-108 27q-78 0 -110.5 -21.5t-32.5 -74.5z" />
<glyph unicode="&#xab;" horiz-adv-x="944" d="M127 551q0 22 14 39l201 270q6 10 19 13.5t49 3.5q20 0 30.5 -3.5t12 -9t-3.5 -12.5l-226 -301l226 -299q5 -8 3.5 -13.5t-12 -8.5t-30.5 -3q-38 0 -50 3t-18 14l-201 268q-14 17 -14 39zM471 551q0 22 14 39l201 270q6 10 19 13.5t49 3.5q20 0 30.5 -3.5t12 -9 t-3.5 -12.5l-226 -301l226 -299q5 -8 3.5 -13.5t-12 -8.5t-30.5 -3q-38 0 -50 3t-18 14l-201 268q-14 17 -14 39z" />
<glyph unicode="&#xad;" horiz-adv-x="804" d="M158 600h489q13 0 17 -9t4 -40t-3.5 -39t-17.5 -8h-489q-13 0 -17 8.5t-4 38.5t4.5 39.5t16.5 9.5z" />
<glyph unicode="&#xae;" horiz-adv-x="1083" d="M543 1370q223 0 319 -108t96 -340t-96 -340.5t-319 -108.5q-224 0 -321 108.5t-97 340.5t96.5 340t321.5 108zM543 530q198 0 276 90.5t78 301.5q0 210 -78 300.5t-276 90.5q-200 0 -278.5 -90.5t-78.5 -300.5t78.5 -301t278.5 -91zM530 874h-75v-198q0 -8 -7 -10t-28 -2 h-15t-8.5 1.5t-6 4t-1.5 6.5v491q0 15 27 15h135q99 0 143.5 -36.5t44.5 -117.5q0 -107 -102 -141q56 -21 80 -94q18 -50 28 -119q1 -4 0.5 -6.5t-7 -4t-21.5 -1.5q-31 0 -33 12q-2 9 -5 29t-6.5 37t-8.5 34q-32 100 -134 100zM455 1130v-204h94q70 0 98.5 22t28.5 80 q0 61 -27 81.5t-100 20.5h-94z" />
<glyph unicode="&#xaf;" horiz-adv-x="655" d="M580 1151h-504q-13 0 -17 8t-4 35t4 36t17 9h504q13 0 16.5 -8.5t3.5 -36.5q0 -27 -3.5 -35t-16.5 -8z" />
<glyph unicode="&#xb0;" horiz-adv-x="731" d="M367 1370q117 0 173 -56.5t56 -170.5q0 -115 -56 -172.5t-173 -57.5q-119 0 -175.5 57.5t-56.5 172.5q0 114 56.5 170.5t175.5 56.5zM367 987q82 0 117.5 36.5t35.5 119.5q0 82 -35.5 117.5t-117.5 35.5q-83 0 -119.5 -35.5t-36.5 -117.5q0 -83 36.5 -119.5t119.5 -36.5z " />
<glyph unicode="&#xb1;" d="M604 1057v-332h328q12 0 16 -10t4 -41q0 -29 -4 -39t-16 -10h-328v-334q0 -13 -10.5 -18t-42.5 -5q-31 0 -42 5t-11 18v334h-328q-12 0 -15 9.5t-3 39.5q0 32 3 41.5t15 9.5h328v332q0 12 10.5 16t42.5 4q33 0 43 -4t10 -16zM170 94h762q12 0 16 -9t4 -38t-4 -38t-16 -9 h-762q-12 0 -15 8.5t-3 38.5t3 38.5t15 8.5z" />
<glyph unicode="&#xb2;" horiz-adv-x="675" d="M561 664h-457q-8 0 -11 7t-3 29v17q0 70 44 121t136 110l48 27t49.5 28t42 29t37.5 36.5t22.5 43.5t9.5 57q0 66 -33.5 95.5t-107.5 29.5q-81 0 -114.5 -29.5t-35.5 -95.5q0 -10 -8.5 -13t-36.5 -3t-36.5 3t-8.5 15q3 199 240 199q233 0 233 -201q0 -50 -18 -91.5 t-55 -74.5t-66.5 -52.5t-80.5 -48.5q-15 -9 -23 -13q-84 -52 -109 -77q-31 -32 -37 -69h379q17 0 17 -41q0 -24 -3.5 -31t-13.5 -7z" />
<glyph unicode="&#xb3;" horiz-adv-x="675" d="M338 989h-59q-17 0 -17 37q0 21 4 28t13 7h59q71 0 101 27.5t30 93.5q0 59 -34 84.5t-109 25.5q-80 0 -111.5 -23.5t-34.5 -76.5q-2 -11 -9.5 -14.5t-35.5 -3.5t-35.5 2.5t-7.5 15.5q3 178 234 178q118 0 176.5 -48t58.5 -136q0 -64 -26 -103.5t-68 -52.5 q111 -25 111 -170q0 -98 -63.5 -152.5t-178.5 -54.5q-249 0 -252 183q0 13 9 16.5t36 3.5q28 0 35.5 -3.5t9.5 -16.5q5 -54 40 -79.5t122 -25.5q147 0 147 133q0 69 -34.5 97t-110.5 28z" />
<glyph unicode="&#xb4;" horiz-adv-x="655" d="M508 1286l-326 -160q-12 -7 -19.5 -3t-19.5 24q-11 21 -11.5 28t9.5 15l314 184q12 10 22 4t27 -35q18 -29 18 -40t-14 -17z" />
<glyph unicode="&#xb6;" horiz-adv-x="1044" d="M926 1290h-99q-61 0 -84.5 -23t-23.5 -89v-1219q0 -100 -16.5 -167.5t-50.5 -105t-78 -52.5t-107 -15q-66 0 -98 8q-14 5 -17.5 12t-3.5 37q0 28 4.5 36.5t18.5 8.5l25 -3q26 -3 48 -3q90 0 128 51.5t38 198.5v543h-67q-85 0 -144 7t-105.5 27.5t-74 50.5t-45.5 81.5 t-24.5 116.5t-6.5 159t6.5 159t24.5 116.5t45.5 82t74 50.5t105.5 27.5t144 7.5h383q12 0 16 -11t4 -41q0 -31 -4 -41t-16 -10z" />
<glyph unicode="&#xb7;" horiz-adv-x="450" d="M225 442q-44 0 -58.5 6.5t-14.5 28.5v144q0 24 13 29t60 5q48 0 62 -5.5t14 -28.5v-144q0 -22 -15 -28.5t-61 -6.5z" />
<glyph unicode="&#xb8;" horiz-adv-x="655" d="M358 -113h50q96 0 140 -28.5t44 -112.5t-44 -112.5t-140 -28.5h-185q-12 0 -15 7t-3 30q0 22 3 29t15 7h178q56 0 79.5 12t23.5 56q0 47 -22.5 58.5t-80.5 11.5h-106q-22 0 -29.5 5.5t-3.5 20.5l53 162q3 8 9.5 10t27.5 2q22 0 31.5 -4.5t5.5 -17.5z" />
<glyph unicode="&#xb9;" horiz-adv-x="675" d="M541 664h-394q-14 0 -14 38q0 41 14 41h156v523l-151 -39q-4 -1 -8 2t-6.5 12t-2.5 23q0 40 15 43l223 61q24 7 24 -12v-613h144q16 0 16 -41q0 -38 -16 -38z" />
<glyph unicode="&#xba;" horiz-adv-x="747" d="M193 1053q0 -126 40 -181t140 -55t140 55t40 181q0 125 -40 179t-140 54t-140 -54t-40 -179zM98 1053q0 160 64 236.5t211 76.5t209.5 -76.5t62.5 -236.5q0 -162 -62.5 -240t-209.5 -78t-211 78.5t-64 239.5z" />
<glyph unicode="&#xbb;" horiz-adv-x="944" d="M473 551q0 -22 -14 -39l-201 -268q-6 -11 -18 -14t-50 -3q-20 0 -30.5 3t-11.5 8.5t4 13.5l225 299l-225 301q-5 7 -4 12.5t11.5 9t30.5 3.5q36 0 49 -3.5t19 -13.5l201 -270q14 -17 14 -39zM817 551q0 -22 -14 -39l-201 -268q-6 -11 -18 -14t-49 -3q-20 0 -30.5 3 t-12 8.5t3.5 13.5l225 299l-225 301q-5 7 -3.5 12.5t12 9t30.5 3.5q36 0 48 -3.5t19 -13.5l201 -270q14 -17 14 -39z" />
<glyph unicode="&#xbc;" horiz-adv-x="1646" d="M1421 -2q-28 0 -36.5 4t-8.5 18v154h-348q-10 0 -13 8t-3 31q0 31 10 43l321 436q14 17 64 17q36 0 48.5 -3.5t12.5 -17.5v-438h95q9 0 12.5 -7.5t3.5 -31.5t-3 -30.5t-13 -6.5h-95v-154q0 -14 -9 -18t-38 -4zM1292 1333l-717 -1315q-6 -13 -17 -16.5t-44 -3.5 q-27 0 -34 6t-1 19l719 1314q6 13 17.5 17t44.5 4q26 0 33 -6.5t-1 -18.5zM541 664h-394q-14 0 -14 38q0 41 14 41h156v523l-151 -39q-4 -1 -8 2t-6.5 12t-2.5 23q0 40 15 43l223 61q24 7 24 -12v-613h144q16 0 16 -41q0 -38 -16 -38zM1112 250h266v360z" />
<glyph unicode="&#xbd;" horiz-adv-x="1646" d="M1532 0h-457q-8 0 -11 7.5t-3 29.5v16q0 70 44 121.5t136 110.5l48 27t49.5 28t42 29t37.5 36.5t22.5 43.5t9.5 57q0 66 -33.5 95.5t-107.5 29.5q-81 0 -114.5 -29.5t-35.5 -95.5q0 -10 -8.5 -13.5t-36.5 -3.5t-36.5 3.5t-8.5 15.5q3 199 240 199q233 0 233 -201 q0 -50 -17 -91t-58 -76.5t-65 -51.5t-82 -49q-15 -9 -22 -13q-84 -51 -108 -76q-31 -32 -37 -69h379q9 0 12.5 -8.5t3.5 -32.5t-3.5 -31.5t-12.5 -7.5zM1237 1333l-717 -1315q-6 -13 -17 -16.5t-44 -3.5q-27 0 -34 6t-1 19l719 1314q6 13 17 17t44 4q26 0 33 -6.5t0 -18.5z M541 664h-394q-14 0 -14 38q0 41 14 41h156v523l-151 -39q-4 -1 -8 2t-6.5 12t-2.5 23q0 40 15 43l223 61q24 7 24 -12v-613h144q16 0 16 -41q0 -38 -16 -38z" />
<glyph unicode="&#xbe;" horiz-adv-x="1646" d="M1421 -2q-28 0 -36.5 4t-8.5 18v154h-348q-10 0 -13 8t-3 31q0 31 10 43l321 436q14 17 64 17q36 0 48.5 -3.5t12.5 -17.5v-438h95q9 0 12.5 -7.5t3.5 -31.5t-3 -30.5t-13 -6.5h-95v-154q0 -14 -9 -18t-38 -4zM338 989h-59q-17 0 -17 37q0 21 4 28t13 7h59q71 0 101 27.5 t30 93.5q0 59 -34 84.5t-109 25.5q-80 0 -111.5 -23.5t-34.5 -76.5q-2 -11 -9.5 -14.5t-35.5 -3.5t-35.5 2.5t-7.5 15.5q3 178 234 178q118 0 176.5 -48t58.5 -136q0 -64 -26 -103.5t-68 -52.5q111 -25 111 -170q0 -98 -63.5 -152.5t-178.5 -54.5q-249 0 -252 183 q0 13 9 16.5t36 3.5q28 0 35.5 -3.5t9.5 -16.5q5 -54 40 -79.5t122 -25.5q147 0 147 133q0 69 -34.5 97t-110.5 28zM1264 1333l-717 -1315q-6 -13 -17.5 -16.5t-44.5 -3.5q-26 0 -33 6t-1 19l718 1314q6 13 17.5 17t44.5 4q26 0 33 -6.5t0 -18.5zM1112 250h266v360z" />
<glyph unicode="&#xbf;" horiz-adv-x="1085" d="M508 528l4 54q0 13 9 17.5t40 4.5q30 0 38.5 -4.5t10.5 -17.5l2 -54q3 -60 -15.5 -109t-50 -82.5t-70.5 -63.5l-78 -60t-72 -63t-53.5 -81.5t-20.5 -107.5q0 -123 68.5 -182.5t222.5 -59.5q169 0 242 66.5t75 206.5q0 15 11 20.5t47 5.5q34 0 45.5 -5t11.5 -19 q0 -194 -105.5 -286.5t-326.5 -92.5q-414 0 -414 346q0 68 20 122t52.5 90t72 67t79.5 59t73.5 58t56 73.5t25.5 97.5zM559 776q-45 0 -59.5 6.5t-14.5 28.5v143q0 24 13.5 29.5t60.5 5.5t61.5 -5.5t14.5 -29.5v-143q0 -22 -15 -28.5t-61 -6.5z" />
<glyph unicode="&#xc0;" horiz-adv-x="1155" d="M1032 -2q-36 0 -47 5t-16 22q-56 194 -115 383h-547q-24 -78 -112 -383q-5 -17 -16 -22t-48 -5q-39 0 -51 5t-8 22q82 295 205.5 665.5t230.5 640.5q6 17 19 22t55 5t54.5 -4.5t18.5 -22.5q107 -271 231 -642t206 -664q4 -17 -8 -22t-52 -5zM582 1219 q-120 -322 -242 -711h483q-153 473 -241 711zM569 1475l-340 163q-14 6 -14 17.5t18 42.5q17 29 27 35t23 -4l327 -193q10 -8 9.5 -14.5t-11.5 -26.5q-10 -20 -18 -23.5t-21 3.5z" />
<glyph unicode="&#xc1;" horiz-adv-x="1155" d="M1032 -2q-36 0 -47 5t-16 22q-56 194 -115 383h-547q-24 -78 -112 -383q-5 -17 -16 -22t-48 -5q-39 0 -51 5t-8 22q82 295 205.5 665.5t230.5 640.5q6 17 19 22t55 5t54.5 -4.5t18.5 -22.5q107 -271 231 -642t206 -664q4 -17 -8 -22t-52 -5zM582 1219 q-120 -322 -242 -711h483q-153 473 -241 711zM932 1638l-340 -163q-12 -7 -19.5 -3t-19.5 23q-11 19 -11 26t11 15l328 193q12 10 22 4t27 -35q18 -33 17.5 -42.5t-15.5 -17.5z" />
<glyph unicode="&#xc2;" horiz-adv-x="1155" d="M1032 -2q-36 0 -47 5t-16 22q-56 194 -115 383h-547q-24 -78 -112 -383q-5 -17 -16 -22t-48 -5q-39 0 -51 5t-8 22q82 295 205.5 665.5t230.5 640.5q6 17 19 22t55 5t54.5 -4.5t18.5 -22.5q107 -271 231 -642t206 -664q4 -17 -8 -22t-52 -5zM582 1219 q-120 -322 -242 -711h483q-153 473 -241 711zM584 1620l-156 -135q-17 -15 -61 -15q-41 0 -39 16q1 5 6 11l198 205q13 16 52 16q36 0 49 -16l194 -205q20 -20 -12 -26q-8 -1 -18 -1q-45 0 -62 15z" />
<glyph unicode="&#xc3;" horiz-adv-x="1155" d="M1032 -2q-36 0 -47 5t-16 22q-56 194 -115 383h-547q-24 -78 -112 -383q-5 -17 -16 -22t-48 -5q-39 0 -51 5t-8 22q82 295 205.5 665.5t230.5 640.5q6 17 19 22t55 5t54.5 -4.5t18.5 -22.5q107 -271 231 -642t206 -664q4 -17 -8 -22t-52 -5zM582 1219 q-120 -322 -242 -711h483q-153 473 -241 711zM791 1630v27q0 12 7.5 16t32.5 4q29 0 36 -4.5t5 -19.5l-2 -47q-7 -136 -129 -136q-64 0 -129 37l-108 66q-39 24 -72 24q-29 0 -43 -16t-14 -59v-29q0 -12 -8.5 -15t-32.5 -3q-30 0 -37.5 4t-5.5 18l2 49q4 74 41 104.5 t90 30.5q59 0 129 -36l106 -66q48 -27 72 -27q30 0 45 17.5t15 60.5z" />
<glyph unicode="&#xc4;" horiz-adv-x="1155" d="M1032 -2q-36 0 -47 5t-16 22q-56 194 -115 383h-547q-24 -78 -112 -383q-5 -17 -16 -22t-48 -5q-39 0 -51 5t-8 22q82 295 205.5 665.5t230.5 640.5q6 17 19 22t55 5t54.5 -4.5t18.5 -22.5q107 -271 231 -642t206 -664q4 -17 -8 -22t-52 -5zM582 1219 q-120 -322 -242 -711h483q-153 473 -241 711zM762 1681q41 0 51 -5.5t10 -28.5v-134q0 -22 -10.5 -28t-50.5 -6q-41 0 -52.5 6t-11.5 28v134q0 23 11 28.5t53 5.5zM401 1681q42 0 52 -5.5t10 -28.5v-134q0 -22 -10.5 -28t-51.5 -6t-51 6t-10 28v134q0 23 10 28.5t51 5.5z " />
<glyph unicode="&#xc5;" horiz-adv-x="1155" d="M1032 -2q-36 0 -47 5t-16 22q-56 194 -115 383h-547q-24 -78 -112 -383q-5 -17 -16 -22t-48 -5q-39 0 -51 5t-8 22q80 289 200.5 651.5t227.5 632.5q-94 33 -94 153q0 166 176 166t176 -166q0 -119 -94 -153q107 -276 228.5 -638.5t199.5 -645.5q4 -17 -8 -22t-52 -5z M582 1219q-120 -322 -242 -711h483q-153 473 -241 711zM582 1362q58 0 82 23.5t24 76.5q0 54 -24.5 78.5t-81.5 24.5q-58 0 -83.5 -25t-25.5 -78t25.5 -76.5t83.5 -23.5z" />
<glyph unicode="&#xc6;" horiz-adv-x="1759" d="M1591 1245h-596v-495h535q12 0 17 -10.5t5 -43.5q0 -31 -5 -42t-17 -11h-535v-532h602q13 0 18 -11.5t5 -44.5q0 -32 -5 -43.5t-18 -11.5h-671q-30 0 -41 5.5t-11 19.5v366h-532q-89 -177 -176 -366q-7 -17 -20 -22t-48 -5q-40 0 -52 5t-5 22q132 286 323.5 656.5 t352.5 649.5q8 14 23 19.5t55 5.5h796q13 0 18 -11.5t5 -44.5q0 -32 -5 -43.5t-18 -11.5zM795 1249q-207 -370 -400 -753h479v753h-79z" />
<glyph unicode="&#xc7;" horiz-adv-x="1212" d="M590 -119h49q96 0 140 -28.5t44 -112.5q0 -86 -44.5 -116t-141.5 -30h-174q-13 0 -17 7.5t-4 31.5q0 23 4 31t17 8h168q59 0 81.5 11t22.5 57q0 47 -22.5 58.5t-81.5 11.5h-107q-22 0 -29 5.5t-3 20.5l49 154q-224 26 -314 186t-90 504q0 189 25.5 316.5t85 213.5 t155.5 124t240 38q221 0 327.5 -95.5t108.5 -285.5q0 -14 -10.5 -19t-46.5 -5t-47.5 5t-11.5 19q-3 140 -79.5 207.5t-240.5 67.5q-111 0 -182 -28t-116.5 -97.5t-64 -179t-18.5 -281.5q0 -231 35.5 -356.5t118 -179.5t233.5 -54q168 0 241.5 69.5t76.5 219.5q0 15 11 19.5 t46 4.5q37 0 49 -4.5t12 -19.5q-3 -199 -106.5 -297t-329.5 -98h-31z" />
<glyph unicode="&#xc8;" horiz-adv-x="1126" d="M956 1245h-641v-495h578q13 0 17.5 -10.5t4.5 -43.5q0 -31 -5 -42t-17 -11h-578v-532h650q12 0 17 -11.5t5 -44.5t-5 -44t-17 -11h-719q-30 0 -41.5 5.5t-11.5 19.5v1306q0 14 11.5 19.5t41.5 5.5h710q14 0 18.5 -11t4.5 -45q0 -33 -4.5 -44t-18.5 -11zM647 1475 l-340 163q-14 6 -14 17.5t18 42.5q17 29 26.5 34.5t22.5 -3.5l328 -193q10 -8 9.5 -14.5t-11.5 -26.5q-10 -20 -18 -23.5t-21 3.5z" />
<glyph unicode="&#xc9;" horiz-adv-x="1126" d="M956 1245h-641v-495h578q13 0 17.5 -10.5t4.5 -43.5q0 -31 -5 -42t-17 -11h-578v-532h650q12 0 17 -11.5t5 -44.5t-5 -44t-17 -11h-719q-30 0 -41.5 5.5t-11.5 19.5v1306q0 14 11.5 19.5t41.5 5.5h710q14 0 18.5 -11t4.5 -45q0 -33 -4.5 -44t-18.5 -11zM920 1638 l-340 -163q-12 -7 -19.5 -3t-19.5 23q-11 19 -11 26t11 15l327 193q11 10 22 3.5t28 -34.5q18 -33 17.5 -42.5t-15.5 -17.5z" />
<glyph unicode="&#xca;" horiz-adv-x="1126" d="M956 1245h-641v-495h578q13 0 17.5 -10.5t4.5 -43.5q0 -31 -5 -42t-17 -11h-578v-532h650q12 0 17 -11.5t5 -44.5t-5 -44t-17 -11h-719q-30 0 -41.5 5.5t-11.5 19.5v1306q0 14 11.5 19.5t41.5 5.5h710q14 0 18.5 -11t4.5 -45q0 -33 -4.5 -44t-18.5 -11zM586 1620 l-156 -135q-18 -15 -61 -15q-41 0 -39 16q1 5 6 11l199 205q13 16 51 16q36 0 49 -16l194 -205q20 -20 -12 -26q-8 -1 -18 -1q-45 0 -62 15z" />
<glyph unicode="&#xcb;" horiz-adv-x="1126" d="M956 1245h-641v-495h578q13 0 17.5 -10.5t4.5 -43.5q0 -31 -5 -42t-17 -11h-578v-532h650q12 0 17 -11.5t5 -44.5t-5 -44t-17 -11h-719q-30 0 -41.5 5.5t-11.5 19.5v1306q0 14 11.5 19.5t41.5 5.5h710q14 0 18.5 -11t4.5 -45q0 -33 -4.5 -44t-18.5 -11zM410 1681 q41 0 51 -5.5t10 -28.5v-134q0 -22 -10 -28t-51 -6t-51.5 6t-10.5 28v134q0 23 10 28.5t52 5.5zM770 1681q41 0 51 -5.5t10 -28.5v-134q0 -22 -10.5 -28t-50.5 -6q-41 0 -52 6t-11 28v134q0 23 10.5 28.5t52.5 5.5z" />
<glyph unicode="&#xcc;" horiz-adv-x="520" d="M260 -2q-37 0 -48 5t-11 22v1306q0 17 11 22t48 5q39 0 50.5 -5t11.5 -22v-1306q0 -17 -11.5 -22t-50.5 -5zM248 1475l-340 163q-14 6 -14 17.5t18 42.5q17 29 26.5 34.5t22.5 -3.5l328 -193q10 -8 9.5 -14.5t-11.5 -26.5q-10 -20 -18 -23.5t-21 3.5z" />
<glyph unicode="&#xcd;" horiz-adv-x="520" d="M260 -2q-37 0 -48 5t-11 22v1306q0 17 11 22t48 5q39 0 50.5 -5t11.5 -22v-1306q0 -17 -11.5 -22t-50.5 -5zM610 1638l-340 -163q-12 -7 -19.5 -3t-19.5 23q-11 19 -11 26t11 15l328 193q12 10 22 4t27 -35q18 -33 17.5 -42.5t-15.5 -17.5z" />
<glyph unicode="&#xce;" horiz-adv-x="520" d="M260 -2q-37 0 -48 5t-11 22v1306q0 17 11 22t48 5q39 0 50.5 -5t11.5 -22v-1306q0 -17 -11.5 -22t-50.5 -5zM262 1620l-156 -135q-17 -15 -61 -15q-41 0 -39 16q1 5 6 11l199 205q13 16 51 16q36 0 49 -16l195 -205q20 -20 -11 -25l-20 -2q-43 0 -61 15z" />
<glyph unicode="&#xcf;" horiz-adv-x="520" d="M260 -2q-37 0 -48 5t-11 22v1306q0 17 11 22t48 5q39 0 50.5 -5t11.5 -22v-1306q0 -17 -11.5 -22t-50.5 -5zM80 1681q41 0 51 -5.5t10 -28.5v-134q0 -22 -10 -28t-51 -6t-51.5 6t-10.5 28v134q0 23 10 28.5t52 5.5zM440 1681q42 0 52 -5.5t10 -28.5v-134q0 -22 -11 -28 t-51 -6q-41 0 -52 6t-11 28v134q0 23 10.5 28.5t52.5 5.5z" />
<glyph unicode="&#xd0;" horiz-adv-x="1286" d="M614 0h-364q-30 0 -41.5 5.5t-11.5 19.5v573h-129q-12 0 -16.5 8.5t-4.5 36.5q0 29 4 37t17 8h129v643q0 14 11.5 19.5t41.5 5.5h364q152 0 254 -38t164.5 -122.5t89.5 -209t27 -308.5t-27 -308.5t-89.5 -209t-164.5 -122.5t-254 -38zM319 109h295q161 0 248 52.5 t124.5 173.5t37.5 343t-37.5 343t-124.5 173.5t-248 52.5h-295v-559h293q14 0 17.5 -8t3.5 -37t-3.5 -37t-17.5 -8h-293v-489z" />
<glyph unicode="&#xd1;" horiz-adv-x="1325" d="M1073 1358q37 0 48.5 -5t11.5 -22v-1306q0 -17 -13.5 -22t-60.5 -5q-39 0 -51 3.5t-19 18.5l-678 1145v-1140q0 -17 -10.5 -22t-46.5 -5q-37 0 -49 5t-12 22v1306q0 17 13.5 22t59.5 5q38 0 50.5 -4t21.5 -19l678 -1145v1141q0 17 10 22t47 5zM872 1630v27q0 12 8 16 t33 4q29 0 36 -4.5t5 -19.5l-2 -47q-7 -136 -129 -136q-64 0 -129 37l-108 66q-39 24 -72 24q-29 0 -43 -16t-14 -59v-29q0 -12 -8.5 -15t-32.5 -3q-30 0 -37.5 4t-5.5 18l2 49q4 74 41 104.5t90 30.5q59 0 129 -36l106 -66q48 -27 72 -27q30 0 44.5 17t14.5 61z" />
<glyph unicode="&#xd2;" horiz-adv-x="1290" d="M645 1372q280 0 394 -159.5t114 -534.5t-114 -534.5t-394 -159.5q-279 0 -393.5 160t-114.5 534t114.5 534t393.5 160zM645 90q146 0 228 53.5t119.5 180t37.5 354.5t-37.5 354.5t-119.5 180t-228 53.5t-227.5 -53.5t-118.5 -180t-37 -354.5t37 -354.5t118.5 -180 t227.5 -53.5zM651 1475l-340 163q-14 6 -14 17.5t18 42.5q17 29 27 35t23 -4l327 -193q10 -8 9.5 -14.5t-11.5 -26.5q-10 -20 -18 -23.5t-21 3.5z" />
<glyph unicode="&#xd3;" horiz-adv-x="1290" d="M645 1372q280 0 394 -159.5t114 -534.5t-114 -534.5t-394 -159.5q-279 0 -393.5 160t-114.5 534t114.5 534t393.5 160zM645 90q146 0 228 53.5t119.5 180t37.5 354.5t-37.5 354.5t-119.5 180t-228 53.5t-227.5 -53.5t-118.5 -180t-37 -354.5t37 -354.5t118.5 -180 t227.5 -53.5zM979 1638l-340 -163q-12 -7 -19.5 -3t-19.5 23q-10 19 -10 26t10 15l328 193q12 10 22 4t27 -35q18 -33 17.5 -42.5t-15.5 -17.5z" />
<glyph unicode="&#xd4;" horiz-adv-x="1290" d="M645 1372q280 0 394 -159.5t114 -534.5t-114 -534.5t-394 -159.5q-279 0 -393.5 160t-114.5 534t114.5 534t393.5 160zM645 90q146 0 228 53.5t119.5 180t37.5 354.5t-37.5 354.5t-119.5 180t-228 53.5t-227.5 -53.5t-118.5 -180t-37 -354.5t37 -354.5t118.5 -180 t227.5 -53.5zM647 1620l-155 -135q-17 -15 -62 -15q-41 0 -39 16q1 5 6 11l199 205q13 16 51 16q36 0 49 -16l195 -205q20 -20 -11 -25q-8 -2 -20 -2q-44 0 -61 15z" />
<glyph unicode="&#xd5;" horiz-adv-x="1290" d="M645 1372q280 0 394 -159.5t114 -534.5t-114 -534.5t-394 -159.5q-279 0 -393.5 160t-114.5 534t114.5 534t393.5 160zM645 90q146 0 228 53.5t119.5 180t37.5 354.5t-37.5 354.5t-119.5 180t-228 53.5t-227.5 -53.5t-118.5 -180t-37 -354.5t37 -354.5t118.5 -180 t227.5 -53.5zM854 1630v27q0 12 8 16t33 4q29 0 36 -4.5t5 -19.5l-2 -47q-7 -136 -129 -136q-64 0 -129 37l-109 66q-39 24 -71 24q-29 0 -43.5 -16t-14.5 -59v-29q0 -12 -8.5 -15t-32.5 -3q-30 0 -37.5 4t-5.5 18l2 49q4 74 41 104.5t90 30.5q59 0 129 -36l107 -66 q48 -27 72 -27q30 0 44.5 17t14.5 61z" />
<glyph unicode="&#xd6;" horiz-adv-x="1290" d="M645 1372q280 0 394 -159.5t114 -534.5t-114 -534.5t-394 -159.5q-279 0 -393.5 160t-114.5 534t114.5 534t393.5 160zM645 90q146 0 228 53.5t119.5 180t37.5 354.5t-37.5 354.5t-119.5 180t-228 53.5t-227.5 -53.5t-118.5 -180t-37 -354.5t37 -354.5t118.5 -180 t227.5 -53.5zM465 1681q41 0 51 -5.5t10 -28.5v-134q0 -22 -10 -28t-51 -6t-51.5 6t-10.5 28v134q0 23 10 28.5t52 5.5zM825 1681q42 0 52 -5.5t10 -28.5v-134q0 -22 -11 -28t-51 -6q-41 0 -52 6t-11 28v134q0 23 10.5 28.5t52.5 5.5z" />
<glyph unicode="&#xd7;" d="M831 283l-280 280l-281 -280q-8 -10 -19 -6t-32 26q-23 23 -26.5 33t6.5 18l280 281l-280 280q-9 7 -5 18t25 32q25 24 33.5 27t17.5 -7l281 -278l280 278q7 11 17 7t35 -27q21 -21 25 -32t-5 -18l-280 -280l280 -281q10 -8 6.5 -18t-26.5 -33q-22 -22 -33.5 -26t-18.5 6 z" />
<glyph unicode="&#xd8;" horiz-adv-x="1298" d="M649 1372q204 0 322 -86l76 121q8 12 19.5 16t41.5 4q43 0 41 -15l-4 -9l-111 -180q123 -159 123 -545q0 -375 -114 -534.5t-394 -159.5q-204 0 -319 84l-76 -125q-8 -12 -21 -16.5t-43 -4.5q-19 0 -28.5 3.5t-10.5 9t3 12.5l112 182q-125 158 -125 549q0 374 114.5 534 t393.5 160zM266 678q0 -307 70 -438l575 944q-85 82 -262 82q-146 0 -227.5 -53.5t-118.5 -180t-37 -354.5zM649 90q146 0 228 53.5t119.5 180t37.5 354.5q0 304 -69 434l-578 -942q86 -80 262 -80z" />
<glyph unicode="&#xd9;" horiz-adv-x="1296" d="M647 -16q-250 0 -356.5 116.5t-106.5 376.5v854q0 17 11.5 22t48.5 5q38 0 49.5 -5t11.5 -22v-848q0 -208 76 -297.5t266 -89.5q191 0 267.5 89.5t76.5 297.5v848q0 17 11.5 22t48.5 5q38 0 49.5 -5t11.5 -22v-854q0 -260 -107 -376.5t-358 -116.5zM647 1475l-340 163 q-14 6 -14 17.5t18 42.5q17 29 26.5 34.5t22.5 -3.5l328 -193q10 -8 9.5 -14.5t-11.5 -26.5q-10 -20 -18 -23.5t-21 3.5z" />
<glyph unicode="&#xda;" horiz-adv-x="1296" d="M647 -16q-250 0 -356.5 116.5t-106.5 376.5v854q0 17 11.5 22t48.5 5q38 0 49.5 -5t11.5 -22v-848q0 -208 76 -297.5t266 -89.5q191 0 267.5 89.5t76.5 297.5v848q0 17 11.5 22t48.5 5q38 0 49.5 -5t11.5 -22v-854q0 -260 -107 -376.5t-358 -116.5zM987 1638l-340 -163 q-12 -7 -19.5 -3t-19.5 23q-10 19 -10 26t10 15l328 193q12 10 22 4t27 -35q18 -33 17.5 -42.5t-15.5 -17.5z" />
<glyph unicode="&#xdb;" horiz-adv-x="1296" d="M647 -16q-250 0 -356.5 116.5t-106.5 376.5v854q0 17 11.5 22t48.5 5q38 0 49.5 -5t11.5 -22v-848q0 -208 76 -297.5t266 -89.5q191 0 267.5 89.5t76.5 297.5v848q0 17 11.5 22t48.5 5q38 0 49.5 -5t11.5 -22v-854q0 -260 -107 -376.5t-358 -116.5zM649 1620l-155 -135 q-18 -15 -62 -15q-41 0 -39 16q1 5 6 11l199 205q13 16 51 16q36 0 49 -16l195 -205q20 -20 -11 -25q-8 -2 -20 -2q-44 0 -61 15z" />
<glyph unicode="&#xdc;" horiz-adv-x="1296" d="M647 -16q-250 0 -356.5 116.5t-106.5 376.5v854q0 17 11.5 22t48.5 5q38 0 49.5 -5t11.5 -22v-848q0 -208 76 -297.5t266 -89.5q191 0 267.5 89.5t76.5 297.5v848q0 17 11.5 22t48.5 5q38 0 49.5 -5t11.5 -22v-854q0 -260 -107 -376.5t-358 -116.5zM467 1681 q41 0 51 -5.5t10 -28.5v-134q0 -22 -10 -28t-51 -6t-51 6t-10 28v134q0 23 10 28.5t51 5.5zM827 1681q42 0 52 -5.5t10 -28.5v-134q0 -22 -11 -28t-51 -6q-41 0 -52 6t-11 28v134q0 23 10.5 28.5t52.5 5.5z" />
<glyph unicode="&#xdd;" horiz-adv-x="1120" d="M924 1331q8 18 17 22.5t46 4.5q44 0 57 -6t7 -23q-84 -182 -208.5 -421t-221.5 -404v-479q0 -17 -11.5 -22t-48.5 -5q-38 0 -49.5 5t-11.5 22v479q-96 165 -220 404t-210 421q-6 17 6.5 23t56.5 6q37 0 47.5 -4.5t16.5 -22.5q170 -384 364 -721q201 355 363 721z M911 1638l-340 -163q-12 -7 -19.5 -3t-19.5 23q-10 19 -10 26t10 15l328 193q12 10 22 4t27 -35q18 -33 17.5 -42.5t-15.5 -17.5z" />
<glyph unicode="&#xde;" horiz-adv-x="1146" d="M575 346h-260v-321q0 -17 -11.5 -22t-49.5 -5q-37 0 -49 5t-12 22v1306q0 17 12 22t49 5q38 0 49.5 -5t11.5 -22v-207h260q242 0 347.5 -91t105.5 -300q0 -208 -106 -297.5t-347 -89.5zM315 1016v-563h256q185 0 258.5 59t73.5 221q0 164 -74 223.5t-258 59.5h-256z" />
<glyph unicode="&#xdf;" horiz-adv-x="1296" d="M608 739q-12 0 -15 9t-3 40q0 32 3 41t15 9q185 14 266.5 71t81.5 193q0 225 -319 225q-181 0 -257.5 -65.5t-76.5 -206.5v-1032q0 -17 -10.5 -21t-48.5 -4q-35 0 -45.5 4t-10.5 21v1038q0 183 105 274.5t344 91.5q210 0 321 -80.5t111 -242.5q0 -149 -87 -227t-234 -89 q74 -9 132 -25.5t113.5 -48t91.5 -77.5t58 -117.5t22 -163.5q0 -372 -344 -372q-170 0 -243.5 69.5t-73.5 198.5q0 16 10 21.5t45 5.5q32 0 42 -5t13 -20q6 -90 50.5 -133t156.5 -43q126 0 179 70t53 208q0 84 -17 144t-48 100.5t-88 67.5t-124 42.5t-168 28.5z" />
<glyph unicode="&#xe0;" horiz-adv-x="1056" d="M283 725q0 -14 -12 -19.5t-46 -5.5q-36 0 -44.5 4.5t-8.5 22.5q0 277 356 277q196 0 281.5 -77.5t85.5 -236.5v-670q0 -15 -10 -18.5t-45 -3.5t-44.5 3.5t-9.5 18.5l-2 150q-39 -78 -127 -130t-213 -52q-163 0 -246 70t-83 202q0 138 81.5 206.5t256.5 68.5h327v151 q0 122 -57.5 171.5t-192.5 49.5q-128 0 -187.5 -43.5t-59.5 -138.5zM780 444h-323q-127 0 -177.5 -42.5t-50.5 -141.5q0 -178 222 -178q138 0 233.5 79t95.5 193v90zM557 1126l-324 160q-14 8 -14.5 17t17.5 40q19 29 28.5 34.5t22.5 -3.5l311 -184q10 -8 10 -15.5 t-10 -27.5q-12 -20 -20 -23.5t-21 2.5z" />
<glyph unicode="&#xe1;" horiz-adv-x="1056" d="M283 725q0 -14 -12 -19.5t-46 -5.5q-36 0 -44.5 4.5t-8.5 22.5q0 277 356 277q196 0 281.5 -77.5t85.5 -236.5v-670q0 -15 -10 -18.5t-45 -3.5t-44.5 3.5t-9.5 18.5l-2 150q-39 -78 -127 -130t-213 -52q-163 0 -246 70t-83 202q0 138 81.5 206.5t256.5 68.5h327v151 q0 122 -57.5 171.5t-192.5 49.5q-128 0 -187.5 -43.5t-59.5 -138.5zM780 444h-323q-127 0 -177.5 -42.5t-50.5 -141.5q0 -178 222 -178q138 0 233.5 79t95.5 193v90zM819 1286l-325 -160q-12 -7 -19.5 -3t-19.5 24q-11 21 -11.5 28t9.5 15l313 184q12 10 22 4t27 -35 q18 -29 18 -40t-14 -17z" />
<glyph unicode="&#xe2;" horiz-adv-x="1056" d="M283 725q0 -14 -12 -19.5t-46 -5.5q-36 0 -44.5 4.5t-8.5 22.5q0 277 356 277q196 0 281.5 -77.5t85.5 -236.5v-670q0 -15 -10 -18.5t-45 -3.5t-44.5 3.5t-9.5 18.5l-2 150q-39 -78 -127 -130t-213 -52q-163 0 -246 70t-83 202q0 138 81.5 206.5t256.5 68.5h327v151 q0 122 -57.5 171.5t-192.5 49.5q-128 0 -187.5 -43.5t-59.5 -138.5zM780 444h-323q-127 0 -177.5 -42.5t-50.5 -141.5q0 -178 222 -178q138 0 233.5 79t95.5 193v90zM535 1290l-148 -139q-24 -21 -68 -21q-25 0 -32 7.5t4 19.5l194 213q11 14 50 14q34 0 45 -14l194 -213 q7 -8 6.5 -14t-9.5 -9.5t-26 -3.5q-27 0 -40 4.5t-27 16.5z" />
<glyph unicode="&#xe3;" horiz-adv-x="1056" d="M283 725q0 -14 -12 -19.5t-46 -5.5q-36 0 -44.5 4.5t-8.5 22.5q0 277 356 277q196 0 281.5 -77.5t85.5 -236.5v-670q0 -15 -10 -18.5t-45 -3.5t-44.5 3.5t-9.5 18.5l-2 150q-39 -78 -127 -130t-213 -52q-163 0 -246 70t-83 202q0 138 81.5 206.5t256.5 68.5h327v151 q0 122 -57.5 171.5t-192.5 49.5q-128 0 -187.5 -43.5t-59.5 -138.5zM780 444h-323q-127 0 -177.5 -42.5t-50.5 -141.5q0 -178 222 -178q138 0 233.5 79t95.5 193v90zM729 1288v27q0 12 7.5 16t31.5 4q29 0 36 -4.5t5 -19.5l-2 -47q-7 -138 -123 -138q-57 0 -125 39l-110 66 q-39 24 -68 24q-27 0 -40 -16t-13 -59v-29q0 -12 -8 -16.5t-31 -4.5q-29 0 -36 5t-7 20l4 47q5 137 123 137q25 0 50.5 -7.5t36.5 -12.5t38 -19l108 -65q45 -25 68 -25q28 0 41.5 17t13.5 61z" />
<glyph unicode="&#xe4;" horiz-adv-x="1056" d="M283 725q0 -14 -12 -19.5t-46 -5.5q-36 0 -44.5 4.5t-8.5 22.5q0 277 356 277q196 0 281.5 -77.5t85.5 -236.5v-670q0 -15 -10 -18.5t-45 -3.5t-44.5 3.5t-9.5 18.5l-2 150q-39 -78 -127 -130t-213 -52q-163 0 -246 70t-83 202q0 138 81.5 206.5t256.5 68.5h327v151 q0 122 -57.5 171.5t-192.5 49.5q-128 0 -187.5 -43.5t-59.5 -138.5zM780 444h-323q-127 0 -177.5 -42.5t-50.5 -141.5q0 -178 222 -178q138 0 233.5 79t95.5 193v90zM354 1341q42 0 52 -5.5t10 -28.5v-133q0 -22 -11 -28.5t-51 -6.5t-50.5 6.5t-10.5 28.5v133q0 23 10 28.5 t51 5.5zM700 1341q42 0 52 -5.5t10 -28.5v-133q0 -22 -11 -28.5t-51 -6.5t-50.5 6.5t-10.5 28.5v133q0 23 10 28.5t51 5.5z" />
<glyph unicode="&#xe5;" horiz-adv-x="1056" d="M283 725q0 -14 -12 -19.5t-46 -5.5q-36 0 -44.5 4.5t-8.5 22.5q0 277 356 277q196 0 281.5 -77.5t85.5 -236.5v-670q0 -15 -10 -18.5t-45 -3.5t-44.5 3.5t-9.5 18.5l-2 150q-39 -78 -127 -130t-213 -52q-163 0 -246 70t-83 202q0 138 81.5 206.5t256.5 68.5h327v151 q0 122 -57.5 171.5t-192.5 49.5q-128 0 -187.5 -43.5t-59.5 -138.5zM780 444h-323q-127 0 -177.5 -42.5t-50.5 -141.5q0 -178 222 -178q138 0 233.5 79t95.5 193v90zM532 1448q173 0 173 -162q0 -160 -173 -160q-172 0 -172 160q0 162 172 162zM532 1188q57 0 82 23.5 t25 74.5q0 53 -25.5 78t-81.5 25q-57 0 -81.5 -24.5t-24.5 -78.5q0 -52 24 -75t82 -23z" />
<glyph unicode="&#xe6;" horiz-adv-x="1648" d="M1503 453h-626q5 -190 74.5 -279.5t219.5 -89.5q101 0 160.5 45t65.5 127q2 14 12.5 19.5t42.5 5.5q37 0 47 -5t8 -22q-7 -127 -97 -198.5t-239 -71.5q-260 0 -348 192q-52 -95 -152.5 -141.5t-215.5 -46.5q-168 0 -254 72t-86 208q0 134 80 204.5t260 70.5h313v143 q0 119 -57.5 170t-186.5 51q-122 0 -181.5 -44.5t-59.5 -137.5q0 -14 -12 -19.5t-46 -5.5q-36 0 -44.5 4.5t-8.5 22.5q0 138 90.5 207.5t261.5 69.5q258 0 320 -162q91 162 321 162q99 0 171 -33t113 -92t60 -132.5t19 -164.5v-70q0 -35 -5 -47t-20 -12zM768 455h-309 q-125 0 -177.5 -46t-52.5 -141q0 -186 226 -186q133 0 223 74.5t90 193.5v105zM1165 903q-144 0 -212 -85.5t-76 -274.5h540v57q0 303 -252 303z" />
<glyph unicode="&#xe7;" horiz-adv-x="1024" d="M481 -113h49q96 0 140.5 -28.5t44.5 -112.5t-44.5 -112.5t-140.5 -28.5h-184q-12 0 -15 7t-3 30q0 22 3 29t15 7h178q56 0 79.5 12t23.5 56q0 47 -22.5 58.5t-80.5 11.5h-106q-22 0 -29.5 5.5t-3.5 20.5l49 152q-166 27 -238.5 148.5t-72.5 351.5q0 262 97 386t323 124 q165 0 259 -71.5t99 -199.5q0 -16 -10 -21t-45 -5q-33 0 -45.5 5t-12.5 19q-3 84 -66 128t-179 44q-169 0 -235 -96t-66 -313q0 -219 66.5 -314.5t240.5 -95.5q240 0 246 186q0 14 11 19.5t44 5.5q35 0 45 -5.5t10 -21.5q-4 -139 -95.5 -211.5t-260.5 -72.5q-27 0 -41 2z " />
<glyph unicode="&#xe8;" horiz-adv-x="1050" d="M905 463h-667q3 -197 76.5 -288t240.5 -91q231 0 244 174q2 14 12.5 19.5t42.5 5.5q37 0 47 -5t8 -22q-6 -129 -98 -200.5t-256 -71.5q-226 0 -329 122t-103 379q0 265 100.5 392t321.5 127q385 0 385 -422v-60q0 -36 -5 -47.5t-20 -11.5zM545 903q-157 0 -227.5 -82.5 t-79.5 -267.5h581v47q0 143 -62 223t-212 80zM561 1126l-323 160q-15 8 -15.5 17t17.5 40q19 29 28.5 34.5t22.5 -3.5l311 -184q10 -8 10 -15.5t-10 -27.5q-12 -20 -20 -23.5t-21 2.5z" />
<glyph unicode="&#xe9;" horiz-adv-x="1050" d="M905 463h-667q3 -197 76.5 -288t240.5 -91q231 0 244 174q2 14 12.5 19.5t42.5 5.5q37 0 47 -5t8 -22q-6 -129 -98 -200.5t-256 -71.5q-226 0 -329 122t-103 379q0 265 100.5 392t321.5 127q385 0 385 -422v-60q0 -36 -5 -47.5t-20 -11.5zM545 903q-157 0 -227.5 -82.5 t-79.5 -267.5h581v47q0 143 -62 223t-212 80zM846 1286l-326 -160q-12 -7 -19.5 -3t-19.5 24q-11 21 -11.5 28t9.5 15l314 184q12 10 22 4t27 -35q18 -29 18 -40t-14 -17z" />
<glyph unicode="&#xea;" horiz-adv-x="1050" d="M905 463h-667q3 -197 76.5 -288t240.5 -91q231 0 244 174q2 14 12.5 19.5t42.5 5.5q37 0 47 -5t8 -22q-6 -129 -98 -200.5t-256 -71.5q-226 0 -329 122t-103 379q0 265 100.5 392t321.5 127q385 0 385 -422v-60q0 -36 -5 -47.5t-20 -11.5zM545 903q-157 0 -227.5 -82.5 t-79.5 -267.5h581v47q0 143 -62 223t-212 80zM535 1290l-148 -139q-24 -21 -68 -21q-25 0 -32 7.5t4 19.5l194 213q11 14 50 14q34 0 45 -14l194 -213q7 -8 6.5 -14t-9.5 -9.5t-26 -3.5q-27 0 -40 4.5t-27 16.5z" />
<glyph unicode="&#xeb;" horiz-adv-x="1050" d="M905 463h-667q3 -197 76.5 -288t240.5 -91q231 0 244 174q2 14 12.5 19.5t42.5 5.5q37 0 47 -5t8 -22q-6 -129 -98 -200.5t-256 -71.5q-226 0 -329 122t-103 379q0 265 100.5 392t321.5 127q385 0 385 -422v-60q0 -36 -5 -47.5t-20 -11.5zM545 903q-157 0 -227.5 -82.5 t-79.5 -267.5h581v47q0 143 -62 223t-212 80zM360 1341q42 0 52 -5.5t10 -28.5v-133q0 -22 -11 -28.5t-51 -6.5t-50.5 6.5t-10.5 28.5v133q0 23 10 28.5t51 5.5zM705 1341q41 0 51 -5.5t10 -28.5v-133q0 -22 -10.5 -28.5t-50.5 -6.5t-51 6.5t-11 28.5v133q0 23 10 28.5 t52 5.5z" />
<glyph unicode="&#xec;" horiz-adv-x="477" d="M180 23v944q0 14 12.5 19t47.5 5q34 0 45.5 -5t11.5 -19v-944q0 -17 -10 -21t-47 -4t-48.5 4t-11.5 21zM221 1126l-323 160q-15 8 -15.5 17t17.5 40q19 29 28.5 34.5t22.5 -3.5l311 -184q10 -8 10 -15.5t-10 -27.5q-12 -20 -20 -23.5t-21 2.5z" />
<glyph unicode="&#xed;" horiz-adv-x="477" d="M180 23v944q0 14 12.5 19t47.5 5q34 0 45.5 -5t11.5 -19v-944q0 -17 -10 -21t-47 -4t-48.5 4t-11.5 21zM584 1286l-326 -160q-12 -7 -19.5 -3t-19.5 24q-11 21 -11.5 28t9.5 15l313 184q11 10 22 3.5t28 -34.5q18 -29 18 -40t-14 -17z" />
<glyph unicode="&#xee;" horiz-adv-x="477" d="M180 23v944q0 14 12.5 19t47.5 5q34 0 45.5 -5t11.5 -19v-944q0 -17 -10 -21t-47 -4t-48.5 4t-11.5 21zM242 1290l-148 -139q-14 -12 -27 -16.5t-40 -4.5q-17 0 -26 3.5t-9.5 9.5t6.5 14l195 213q11 14 49 14q34 0 45 -14l194 -213q11 -12 4 -19.5t-32 -7.5q-44 0 -68 21 z" />
<glyph unicode="&#xef;" horiz-adv-x="477" d="M180 23v944q0 14 12.5 19t47.5 5q34 0 45.5 -5t11.5 -19v-944q0 -17 -10 -21t-47 -4t-48.5 4t-11.5 21zM72 1341q41 0 51 -5.5t10 -28.5v-133q0 -22 -10.5 -28.5t-50.5 -6.5t-51 6.5t-11 28.5v133q0 23 10 28.5t52 5.5zM406 1341q41 0 51 -5.5t10 -28.5v-133 q0 -22 -10.5 -28.5t-50.5 -6.5t-51 6.5t-11 28.5v133q0 23 10 28.5t52 5.5z" />
<glyph unicode="&#xf0;" horiz-adv-x="1097" d="M987 1286l-135 -55q64 -102 90.5 -272t26.5 -427q0 -294 -96 -421t-326 -127q-228 0 -326 124t-98 386t98 386t326 124q111 0 191.5 -43t117.5 -119q-19 238 -102 350l-205 -84q-12 -6 -19 -0.5t-16 27.5q-9 25 -8.5 33t12.5 14l174 69q-95 70 -262 70q-14 0 -19 8.5 t-5 38.5q0 31 5 40t19 9q248 0 369 -121l157 64q12 3 19 -2.5t14 -26.5q9 -25 8.5 -33t-10.5 -12zM547 84q169 0 237 96.5t68 313.5t-68 313t-237 96q-170 0 -237.5 -96t-67.5 -313t67.5 -313.5t237.5 -96.5z" />
<glyph unicode="&#xf1;" horiz-adv-x="1136" d="M285 967l2 -154q36 77 124 134t222 57q161 0 249.5 -84t88.5 -256v-641q0 -17 -10.5 -21t-47.5 -4q-38 0 -47.5 4t-9.5 21v630q0 129 -60.5 187.5t-181.5 58.5q-146 0 -234.5 -85t-88.5 -210v-581q0 -17 -11 -21t-47 -4q-38 0 -47.5 4t-9.5 21v944q0 15 9.5 19.5 t43.5 4.5t45 -4.5t11 -19.5zM770 1288v27q0 12 7.5 16t31.5 4q29 0 36 -4.5t5 -19.5l-2 -47q-7 -138 -123 -138q-57 0 -125 39l-111 66q-39 24 -67 24q-27 0 -40 -16t-13 -59v-29q0 -12 -8 -16.5t-31 -4.5q-29 0 -36 5t-7 20l4 47q5 137 123 137q25 0 50.5 -7.5t36.5 -12.5 t38 -19l108 -65q45 -25 68 -25q28 0 41.5 17t13.5 61z" />
<glyph unicode="&#xf2;" horiz-adv-x="1089" d="M545 1004q226 0 323 -124t97 -386q0 -263 -96.5 -386.5t-323.5 -123.5q-228 0 -325 123.5t-97 386.5q0 262 97 386t325 124zM545 84q170 0 236.5 96t66.5 314t-66.5 313.5t-236.5 95.5t-236.5 -95.5t-66.5 -313.5t66.5 -314t236.5 -96zM555 1126l-324 160q-15 8 -15.5 17 t17.5 40q18 29 28.5 34.5t23.5 -3.5l311 -184q10 -8 10 -15.5t-10 -27.5q-12 -20 -20 -23.5t-21 2.5z" />
<glyph unicode="&#xf3;" horiz-adv-x="1089" d="M545 1004q226 0 323 -124t97 -386q0 -263 -96.5 -386.5t-323.5 -123.5q-228 0 -325 123.5t-97 386.5q0 262 97 386t325 124zM545 84q170 0 236.5 96t66.5 314t-66.5 313.5t-236.5 95.5t-236.5 -95.5t-66.5 -313.5t66.5 -314t236.5 -96zM860 1286l-325 -160 q-12 -7 -19.5 -3t-19.5 24q-11 21 -11.5 28t9.5 15l313 184q12 10 22 4t27 -35q18 -29 18 -40t-14 -17z" />
<glyph unicode="&#xf4;" horiz-adv-x="1089" d="M545 1004q226 0 323 -124t97 -386q0 -263 -96.5 -386.5t-323.5 -123.5q-228 0 -325 123.5t-97 386.5q0 262 97 386t325 124zM545 84q170 0 236.5 96t66.5 314t-66.5 313.5t-236.5 95.5t-236.5 -95.5t-66.5 -313.5t66.5 -314t236.5 -96zM547 1290l-148 -139 q-14 -12 -27 -16.5t-40 -4.5q-17 0 -26 3.5t-9.5 9.5t6.5 14l195 213q11 14 49 14q34 0 45 -14l194 -213q11 -12 4 -19.5t-32 -7.5q-44 0 -68 21z" />
<glyph unicode="&#xf5;" horiz-adv-x="1089" d="M545 1004q226 0 323 -124t97 -386q0 -263 -96.5 -386.5t-323.5 -123.5q-228 0 -325 123.5t-97 386.5q0 262 97 386t325 124zM545 84q170 0 236.5 96t66.5 314t-66.5 313.5t-236.5 95.5t-236.5 -95.5t-66.5 -313.5t66.5 -314t236.5 -96zM748 1288v27q0 12 7 16t31 4 q29 0 36 -4.5t5 -19.5l-2 -47q-7 -138 -123 -138q-56 0 -124 39l-111 66q-39 24 -68 24q-27 0 -40 -16t-13 -59v-29q0 -12 -8 -16.5t-31 -4.5q-29 0 -36 5t-7 20l4 47q5 137 123 137q25 0 50.5 -7.5t36.5 -12.5t38 -19l109 -65q45 -25 67 -25q28 0 42 17t14 61z" />
<glyph unicode="&#xf6;" horiz-adv-x="1089" d="M545 1004q226 0 323 -124t97 -386q0 -263 -96.5 -386.5t-323.5 -123.5q-228 0 -325 123.5t-97 386.5q0 262 97 386t325 124zM545 84q170 0 236.5 96t66.5 314t-66.5 313.5t-236.5 95.5t-236.5 -95.5t-66.5 -313.5t66.5 -314t236.5 -96zM373 1341q41 0 51 -5.5t10 -28.5 v-133q0 -22 -10.5 -28.5t-50.5 -6.5t-51 6.5t-11 28.5v133q0 23 10 28.5t52 5.5zM719 1341q41 0 51 -5.5t10 -28.5v-133q0 -22 -10.5 -28.5t-50.5 -6.5t-51 6.5t-11 28.5v133q0 23 10 28.5t52 5.5z" />
<glyph unicode="&#xf7;" d="M178 684h746q13 0 16.5 -9.5t3.5 -41.5q0 -30 -3.5 -39.5t-16.5 -9.5h-746q-12 0 -16 10t-4 39q0 31 4 41t16 10zM551 184q-45 0 -59.5 6.5t-14.5 28.5v143q0 24 13.5 29.5t60.5 5.5t61.5 -5.5t14.5 -29.5v-143q0 -22 -15 -28.5t-61 -6.5zM551 868q-45 0 -59.5 6.5 t-14.5 28.5v144q0 24 13.5 29t60.5 5q48 0 62 -5.5t14 -28.5v-144q0 -22 -15 -28.5t-61 -6.5z" />
<glyph unicode="&#xf8;" horiz-adv-x="1095" d="M547 1004q149 0 241 -56l64 96q6 12 18 16.5t41 4.5q18 0 28 -4t10 -9.5t-3 -11.5l-92 -143q113 -119 113 -403q0 -263 -96.5 -386.5t-323.5 -123.5q-153 0 -242 51l-59 -92q-13 -21 -60 -21q-27 0 -34.5 8t0.5 19l88 137q-115 118 -115 408q0 262 97 386t325 124z M244 494q0 -216 61 -308l430 668q-67 49 -188 49q-170 0 -236.5 -95.5t-66.5 -313.5zM547 84q170 0 236.5 96t66.5 314q0 211 -62 305l-428 -670q65 -45 187 -45z" />
<glyph unicode="&#xf9;" horiz-adv-x="1122" d="M838 20l-4 152q-16 -36 -40 -66.5t-60.5 -59.5t-92 -45.5t-123.5 -16.5q-167 0 -262.5 88.5t-95.5 265.5v629q0 15 11.5 19.5t47.5 4.5q35 0 46 -4.5t11 -19.5v-619q0 -135 66 -198.5t195 -63.5q139 0 216.5 87.5t77.5 211.5v582q0 15 11 19.5t47 4.5q35 0 46 -4.5 t11 -19.5v-947q0 -15 -10 -18.5t-45 -3.5q-34 0 -43.5 3.5t-9.5 18.5zM567 1126l-323 160q-15 8 -15.5 17t17.5 40q19 29 28.5 34.5t22.5 -3.5l311 -184q10 -8 10 -15.5t-10 -27.5q-12 -20 -20 -23.5t-21 2.5z" />
<glyph unicode="&#xfa;" horiz-adv-x="1122" d="M838 20l-4 152q-16 -36 -40 -66.5t-60.5 -59.5t-92 -45.5t-123.5 -16.5q-167 0 -262.5 88.5t-95.5 265.5v629q0 15 11.5 19.5t47.5 4.5q35 0 46 -4.5t11 -19.5v-619q0 -135 66 -198.5t195 -63.5q139 0 216.5 87.5t77.5 211.5v582q0 15 11 19.5t47 4.5q35 0 46 -4.5 t11 -19.5v-947q0 -15 -10 -18.5t-45 -3.5q-34 0 -43.5 3.5t-9.5 18.5zM862 1286l-325 -160q-12 -7 -19.5 -3t-19.5 24q-11 21 -11.5 28t9.5 15l313 184q12 10 22 4t27 -35q18 -29 18 -40t-14 -17z" />
<glyph unicode="&#xfb;" horiz-adv-x="1122" d="M838 20l-4 152q-16 -36 -40 -66.5t-60.5 -59.5t-92 -45.5t-123.5 -16.5q-167 0 -262.5 88.5t-95.5 265.5v629q0 15 11.5 19.5t47.5 4.5q35 0 46 -4.5t11 -19.5v-619q0 -135 66 -198.5t195 -63.5q139 0 216.5 87.5t77.5 211.5v582q0 15 11 19.5t47 4.5q35 0 46 -4.5 t11 -19.5v-947q0 -15 -10 -18.5t-45 -3.5q-34 0 -43.5 3.5t-9.5 18.5zM559 1290l-147 -139q-24 -21 -68 -21q-17 0 -26 3.5t-9.5 9.5t6.5 14l195 213q11 14 49 14q34 0 45 -14l195 -213q7 -8 6.5 -14t-9.5 -9.5t-26 -3.5q-44 0 -68 21z" />
<glyph unicode="&#xfc;" horiz-adv-x="1122" d="M838 20l-4 152q-16 -36 -40 -66.5t-60.5 -59.5t-92 -45.5t-123.5 -16.5q-167 0 -262.5 88.5t-95.5 265.5v629q0 15 11.5 19.5t47.5 4.5q35 0 46 -4.5t11 -19.5v-619q0 -135 66 -198.5t195 -63.5q139 0 216.5 87.5t77.5 211.5v582q0 15 11 19.5t47 4.5q35 0 46 -4.5 t11 -19.5v-947q0 -15 -10 -18.5t-45 -3.5q-34 0 -43.5 3.5t-9.5 18.5zM383 1341q41 0 51 -5.5t10 -28.5v-133q0 -22 -10.5 -28.5t-50.5 -6.5t-50.5 6.5t-10.5 28.5v133q0 23 10 28.5t51 5.5zM729 1341q42 0 52 -5.5t10 -28.5v-133q0 -22 -11 -28.5t-51 -6.5t-50.5 6.5 t-10.5 28.5v133q0 23 10 28.5t51 5.5z" />
<glyph unicode="&#xfd;" horiz-adv-x="997" d="M215 -283q38 0 67 9.5t51 25.5t45 51t41.5 71.5t47.5 102.5l8 23q-34 0 -39 18q-89 192 -193.5 462t-172.5 481q-5 18 6 24t49 6q36 0 48.5 -6.5t14.5 -21.5q62 -199 152.5 -444t171.5 -433q74 182 159.5 431t141.5 446q3 15 14.5 21.5t44.5 6.5q37 0 49 -7t7 -26 q-56 -211 -162.5 -503.5t-196.5 -493.5q-30 -68 -49.5 -107.5t-45 -84t-48.5 -68t-53.5 -45t-66.5 -29.5t-81 -8q-58 0 -106 12q-12 3 -15.5 12t-3.5 38q0 30 4 38.5t17 8.5q3 0 14.5 -3t32.5 -5.5t47 -2.5zM840 1286l-326 -160q-12 -7 -19.5 -3t-19.5 24q-11 21 -11.5 28 t9.5 15l313 184q11 10 22 3.5t28 -34.5q18 -29 18 -40t-14 -17z" />
<glyph unicode="&#xfe;" horiz-adv-x="1136" d="M291 1395v-553q94 162 325 162q206 0 302 -126t96 -382q0 -259 -96 -385.5t-302 -126.5q-233 0 -325 159v-489q0 -17 -11 -21t-47 -4q-38 0 -47.5 4t-9.5 21v1741q0 17 10 20.5t47 3.5q36 0 47 -4t11 -20zM291 494q0 -214 70.5 -312t240.5 -98q162 0 227.5 97.5 t65.5 314.5q0 213 -65.5 310t-227.5 97q-169 0 -240 -98t-71 -311z" />
<glyph unicode="&#xff;" horiz-adv-x="997" d="M215 -283q38 0 67 9.5t51 25.5t45 51t41.5 71.5t47.5 102.5l8 23q-34 0 -39 18q-89 192 -193.5 462t-172.5 481q-5 18 6 24t49 6q36 0 48.5 -6.5t14.5 -21.5q62 -199 152.5 -444t171.5 -433q74 182 159.5 431t141.5 446q3 15 14.5 21.5t44.5 6.5q37 0 49 -7t7 -26 q-56 -211 -162.5 -503.5t-196.5 -493.5q-30 -68 -49.5 -107.5t-45 -84t-48.5 -68t-53.5 -45t-66.5 -29.5t-81 -8q-58 0 -106 12q-12 3 -15.5 12t-3.5 38q0 30 4 38.5t17 8.5q3 0 14.5 -3t32.5 -5.5t47 -2.5zM672 1341q41 0 51 -5.5t10 -28.5v-133q0 -22 -10.5 -28.5 t-50.5 -6.5t-51 6.5t-11 28.5v133q0 23 10 28.5t52 5.5zM326 1341q41 0 51 -5.5t10 -28.5v-133q0 -22 -10.5 -28.5t-50.5 -6.5t-51 6.5t-11 28.5v133q0 23 10 28.5t52 5.5z" />
<glyph unicode="&#x152;" horiz-adv-x="1798" d="M1628 1245h-604v-495h543q13 0 17.5 -10.5t4.5 -43.5q0 -31 -5 -42t-17 -11h-543v-532h612q13 0 18 -11.5t5 -44.5q0 -32 -5 -43.5t-18 -11.5h-966q-150 0 -251.5 38t-164.5 122t-90 209t-27 309t27 309t90 209t164.5 122t251.5 38h958q14 0 18.5 -11t4.5 -45 q0 -33 -4.5 -44t-18.5 -11zM670 104h233v1147h-233q-157 0 -244 -53t-126.5 -176t-39.5 -344q0 -166 20.5 -274t70 -176t125.5 -96t194 -28z" />
<glyph unicode="&#x153;" horiz-adv-x="1703" d="M1559 459h-627q3 -193 73.5 -284t223.5 -91q101 0 159 45t64 127q2 14 12.5 19.5t44.5 5.5q35 0 45.5 -5t10.5 -22q-7 -127 -98 -198.5t-238 -71.5q-271 0 -350 211q-39 -107 -122.5 -159t-226.5 -52q-218 0 -312.5 124t-94.5 386q0 261 94.5 385.5t312.5 124.5 q142 0 226 -53.5t123 -162.5q80 216 342 216q80 0 142.5 -22t103.5 -60t67.5 -92t37.5 -115t11 -133v-64q0 -37 -4.5 -48t-19.5 -11zM530 84q162 0 227.5 97t65.5 313t-65.5 312.5t-227.5 96.5q-160 0 -224 -96t-64 -313t64 -313.5t224 -96.5zM1221 903q-145 0 -212.5 -83.5 t-76.5 -270.5h543v51q0 303 -254 303z" />
<glyph unicode="&#x178;" horiz-adv-x="1120" d="M924 1331q8 18 17 22.5t46 4.5q44 0 57 -6t7 -23q-84 -182 -208.5 -421t-221.5 -404v-479q0 -17 -11.5 -22t-48.5 -5q-38 0 -49.5 5t-11.5 22v479q-96 165 -220 404t-210 421q-6 17 6.5 23t56.5 6q37 0 47.5 -4.5t16.5 -22.5q170 -384 364 -721q201 355 363 721z M741 1681q42 0 52 -5.5t10 -28.5v-134q0 -22 -11 -28t-51 -6q-41 0 -52 6t-11 28v134q0 23 10.5 28.5t52.5 5.5zM381 1681q41 0 51 -5.5t10 -28.5v-134q0 -22 -10 -28t-51 -6t-51.5 6t-10.5 28v134q0 23 10 28.5t52 5.5z" />
<glyph unicode="&#x2c6;" horiz-adv-x="655" d="M330 1290l-148 -139q-14 -12 -27 -16.5t-40 -4.5q-17 0 -26 3.5t-9.5 9.5t6.5 14l195 213q11 14 49 14q34 0 45 -14l194 -213q11 -12 4 -19.5t-32 -7.5q-44 0 -68 21z" />
<glyph unicode="&#x2dc;" horiz-adv-x="655" d="M528 1288v27q0 12 7.5 16t31.5 4q29 0 36 -4.5t5 -19.5l-2 -47q-7 -138 -123 -138q-57 0 -125 39l-110 66q-39 24 -68 24q-27 0 -40 -16t-13 -59v-29q0 -12 -8 -16.5t-31 -4.5q-29 0 -36 5t-7 20l4 47q5 137 123 137q25 0 50.5 -7.5t36.5 -12.5t38 -19l109 -65 q45 -25 67 -25q28 0 41.5 17t13.5 61z" />
<glyph unicode="&#x2000;" horiz-adv-x="867" />
<glyph unicode="&#x2001;" horiz-adv-x="1735" />
<glyph unicode="&#x2002;" horiz-adv-x="867" />
<glyph unicode="&#x2003;" horiz-adv-x="1735" />
<glyph unicode="&#x2004;" horiz-adv-x="578" />
<glyph unicode="&#x2005;" horiz-adv-x="433" />
<glyph unicode="&#x2006;" horiz-adv-x="289" />
<glyph unicode="&#x2007;" horiz-adv-x="289" />
<glyph unicode="&#x2008;" horiz-adv-x="216" />
<glyph unicode="&#x2009;" horiz-adv-x="347" />
<glyph unicode="&#x200a;" horiz-adv-x="96" />
<glyph unicode="&#x2010;" horiz-adv-x="804" d="M158 600h489q13 0 17 -9t4 -40t-3.5 -39t-17.5 -8h-489q-13 0 -17 8.5t-4 38.5t4.5 39.5t16.5 9.5z" />
<glyph unicode="&#x2011;" horiz-adv-x="804" d="M158 600h489q13 0 17 -9t4 -40t-3.5 -39t-17.5 -8h-489q-13 0 -17 8.5t-4 38.5t4.5 39.5t16.5 9.5z" />
<glyph unicode="&#x2012;" horiz-adv-x="804" d="M158 600h489q13 0 17 -9t4 -40t-3.5 -39t-17.5 -8h-489q-13 0 -17 8.5t-4 38.5t4.5 39.5t16.5 9.5z" />
<glyph unicode="&#x2013;" horiz-adv-x="1050" d="M152 600h747q12 0 16.5 -9.5t4.5 -39.5t-4 -38.5t-17 -8.5h-747q-13 0 -17 8.5t-4 38.5t4.5 39.5t16.5 9.5z" />
<glyph unicode="&#x2014;" horiz-adv-x="1464" d="M143 600h1176q14 0 18 -9t4 -40q0 -30 -4 -38.5t-18 -8.5h-1176q-13 0 -16.5 8t-3.5 39t3.5 40t16.5 9z" />
<glyph unicode="&#x2018;" horiz-adv-x="409" d="M238 1124v-106q0 -12 -9.5 -17.5t-44.5 -5.5q-34 0 -42.5 5.5t-8.5 17.5v110q0 209 166 289q11 7 19.5 2.5t19.5 -28.5q13 -28 12 -35.5t-12 -14.5q-55 -31 -77.5 -84.5t-22.5 -132.5z" />
<glyph unicode="&#x2019;" horiz-adv-x="409" d="M172 1288v107q0 8 2.5 12t14.5 7t36 3q34 0 42.5 -5t8.5 -17v-111q0 -210 -165 -289q-12 -7 -19.5 -2t-19.5 29q-13 28 -12 35t12 14q55 31 77.5 84.5t22.5 132.5z" />
<glyph unicode="&#x201a;" horiz-adv-x="409" d="M172 94v107q0 8 2.5 12t14.5 7t36 3q34 0 42.5 -5t8.5 -17v-111q0 -210 -165 -289q-12 -7 -19.5 -2t-19.5 29q-13 28 -12 35t12 14q55 31 77.5 84.5t22.5 132.5z" />
<glyph unicode="&#x201c;" horiz-adv-x="720" d="M238 1124v-106q0 -12 -9.5 -17.5t-44.5 -5.5q-34 0 -42.5 5.5t-8.5 17.5v110q0 209 166 289q11 7 19.5 2.5t19.5 -28.5q13 -28 12 -35.5t-12 -14.5q-55 -31 -77.5 -84.5t-22.5 -132.5zM549 1124v-106q0 -8 -2.5 -12.5t-14.5 -7.5t-36 -3q-34 0 -43 5.5t-9 17.5v110 q0 209 166 289q11 7 19.5 2.5t19.5 -28.5q13 -28 12 -35.5t-12 -14.5q-55 -31 -77.5 -84.5t-22.5 -132.5z" />
<glyph unicode="&#x201d;" horiz-adv-x="720" d="M172 1288v107q0 8 2.5 12t14.5 7t36 3q34 0 42.5 -5t8.5 -17v-111q0 -210 -165 -289q-12 -7 -19.5 -2t-19.5 29q-13 28 -12 35t12 14q55 31 77.5 84.5t22.5 132.5zM483 1288v107q0 12 9.5 17t44.5 5q34 0 42.5 -5t8.5 -17v-111q0 -209 -166 -289q-12 -7 -19.5 -2 t-19.5 29q-13 28 -12 35t12 14q55 31 77.5 84.5t22.5 132.5z" />
<glyph unicode="&#x201e;" horiz-adv-x="720" d="M172 94v107q0 8 2.5 12t14.5 7t36 3q34 0 42.5 -5t8.5 -17v-111q0 -210 -165 -289q-12 -7 -19.5 -2t-19.5 29q-13 28 -12 35t12 14q55 31 77.5 84.5t22.5 132.5zM483 94v107q0 12 9.5 17t44.5 5q34 0 42.5 -5t8.5 -17v-111q0 -209 -166 -289q-12 -7 -19.5 -2t-19.5 29 q-13 28 -12 35t12 14q55 31 77.5 84.5t22.5 132.5z" />
<glyph unicode="&#x2022;" horiz-adv-x="681" d="M342 379q-56 0 -84 5t-46.5 24.5t-23 50t-4.5 90.5t4.5 90.5t23 50t46.5 24.5t84 5q103 0 129.5 -29t26.5 -141t-26.5 -141t-129.5 -29z" />
<glyph unicode="&#x2026;" horiz-adv-x="1353" d="M225 -2q-44 0 -58.5 6.5t-14.5 28.5v143q0 24 13 29.5t60 5.5t61.5 -5.5t14.5 -29.5v-143q0 -22 -15 -28.5t-61 -6.5zM678 -2q-46 0 -61 6.5t-15 28.5v143q0 24 14.5 29.5t61.5 5.5t60.5 -5.5t13.5 -29.5v-143q0 -22 -14.5 -28.5t-59.5 -6.5zM1128 -2q-45 0 -60 6.5 t-15 28.5v143q0 24 14 29.5t61 5.5t61.5 -5.5t14.5 -29.5v-143q0 -22 -15 -28.5t-61 -6.5z" />
<glyph unicode="&#x202f;" horiz-adv-x="347" />
<glyph unicode="&#x2039;" horiz-adv-x="600" d="M127 551q0 22 14 39l201 270q6 10 19 13.5t49 3.5q20 0 30.5 -3.5t12 -9t-3.5 -12.5l-226 -301l226 -299q5 -8 3.5 -13.5t-12 -8.5t-30.5 -3q-38 0 -50 3t-18 14l-201 268q-14 17 -14 39z" />
<glyph unicode="&#x203a;" horiz-adv-x="600" d="M473 551q0 -22 -14 -39l-201 -268q-6 -11 -18 -14t-50 -3q-20 0 -30.5 3t-11.5 8.5t4 13.5l225 299l-225 301q-5 7 -4 12.5t11.5 9t30.5 3.5q36 0 49 -3.5t19 -13.5l201 -270q14 -17 14 -39z" />
<glyph unicode="&#x205f;" horiz-adv-x="433" />
<glyph unicode="&#x20ac;" horiz-adv-x="1271" d="M702 496h-346q19 -227 102 -316.5t267 -89.5q163 0 231 68t70 209q0 17 11 21.5t48 4.5q36 0 47 -4.5t11 -21.5q-2 -191 -100.5 -287t-317.5 -96q-242 0 -354 119t-135 393h-138q-12 0 -15 8t-3 39t3 39t15 8h133q-2 29 -2 90v88h-131q-12 0 -15 8t-3 39t3 40t15 9h138 q23 271 133.5 389.5t347.5 118.5q421 0 424 -368q0 -15 -12 -21t-46 -6q-36 0 -47.5 5.5t-11.5 21.5q-2 130 -75 196t-232 66q-179 0 -260.5 -88.5t-100.5 -313.5h428q13 0 17 -9t4 -40t-3.5 -39t-17.5 -8h-432q-2 -29 -2 -88q0 -61 2 -90h350q13 0 17 -8.5t4 -38.5 t-4 -38.5t-17 -8.5z" />
<glyph unicode="&#x2122;" horiz-adv-x="1546" d="M780 1356q50 0 58 -19l225 -516l227 516q8 19 58 19q34 0 46.5 -3.5t12.5 -15.5v-719q0 -12 -7 -15t-32 -3q-28 0 -35.5 3t-7.5 15v621l-213 -481q-5 -13 -15 -18t-34 -5q-38 0 -47 23l-213 477v-617q0 -12 -8 -15t-35 -3q-25 0 -32 3t-7 15v719q0 12 12.5 15.5t46.5 3.5 zM578 1278h-207v-660q0 -11 -7.5 -14.5t-35.5 -3.5q-27 0 -34 3.5t-7 14.5v660h-207q-10 0 -12 7t-2 32q0 26 2 32.5t12 6.5h498q10 0 13 -7t3 -32q0 -24 -3 -31.5t-13 -7.5z" />
<glyph unicode="&#x25fc;" horiz-adv-x="993" d="M0 993h993v-993h-993v993z" />
</font>
</defs>
</svg>
