<?xml version="1.0" standalone="no"?>
<!DOCTYPE svg PUBLIC "-//W3C//DTD SVG 1.1//EN" "http://www.w3.org/Graphics/SVG/1.1/DTD/svg11.dtd" >
<svg xmlns="http://www.w3.org/2000/svg" xmlns:xlink="http://www.w3.org/1999/xlink" version="1.1">
<metadata></metadata>
<defs>
<font id="frygiamedium" horiz-adv-x="1130" >
<font-face units-per-em="2048" ascent="1536" descent="-512" />
<missing-glyph horiz-adv-x="450" />
<glyph unicode="&#xfb01;" horiz-adv-x="1196" d="M858 1235q-143 20 -207 20q-96 0 -144.5 -20.5t-64.5 -61.5t-16 -122v-50h510q69 0 88.5 -7.5t19.5 -32.5v-924q0 -26 -19 -33.5t-89 -7.5t-89.5 7.5t-19.5 33.5v782h-401v-782q0 -26 -18.5 -33.5t-88.5 -7.5t-89 7.5t-19 33.5v782h-121q-22 0 -27.5 15.5t-5.5 72.5 q0 58 5.5 73t27.5 15l121 6v56q0 200 97 289.5t315 89.5q140 0 241 -27q21 -6 27.5 -23t3.5 -63q-3 -57 -10.5 -73.5t-26.5 -14.5z" />
<glyph unicode="&#xfb02;" horiz-adv-x="1228" d="M426 1051v-50h180q22 0 27.5 -16t5.5 -74q0 -59 -5.5 -75.5t-27.5 -16.5h-180v-782q0 -26 -18.5 -33.5t-88.5 -7.5t-89 7.5t-19 33.5v782h-121q-22 0 -27.5 15.5t-5.5 72.5q0 58 5.5 73t27.5 15l121 6v56q0 201 100.5 290t337.5 89q198 0 344 -41q54 -14 54 -52v-1087 q0 -40 14.5 -54t52.5 -14h29q24 0 30.5 -16.5t6.5 -77.5q0 -60 -7.5 -77t-35.5 -17h-64q-138 0 -191 49.5t-53 179.5v1012q-82 14 -167 14q-99 0 -149.5 -20.5t-68.5 -62t-18 -121.5z" />
<glyph unicode="&#xfb03;" horiz-adv-x="1820" d="M838 1001v56q0 200 96.5 289.5t314.5 89.5q143 0 240 -27q22 -6 28 -22.5t3 -63.5q-1 -57 -8.5 -73.5t-28.5 -14.5q-137 20 -205 20q-96 0 -145 -20.5t-65.5 -61.5t-16.5 -122v-50h510q69 0 88.5 -7.5t19.5 -32.5v-924q0 -26 -19 -33.5t-89 -7.5q-69 0 -89 7.5t-20 33.5 v782h-399v-782q0 -26 -19 -33.5t-90 -7.5q-69 0 -87.5 7.5t-18.5 33.5v782h-412v-782q0 -26 -18.5 -33.5t-88.5 -7.5t-89 7.5t-19 33.5v782h-121q-22 0 -27.5 15.5t-5.5 72.5q0 58 5.5 73t27.5 15l121 6v93q0 182 75 260t234 78q102 0 174 -29q22 -9 25.5 -26t-8.5 -68 q-11 -50 -22.5 -64.5t-31.5 -11.5q-50 12 -98 12q-71 0 -102 -37t-31 -123v-84h412z" />
<glyph unicode="&#xfb04;" horiz-adv-x="1855" d="M838 1001v56q0 202 99.5 290.5t338.5 88.5q199 0 342 -41q53 -14 53 -52v-1087q0 -39 15 -53.5t53 -14.5h28q24 0 30.5 -16.5t6.5 -77.5q0 -60 -7.5 -77t-33.5 -17h-63q-140 0 -193 49.5t-53 179.5v1012q-79 14 -166 14q-75 0 -121 -10t-72 -35.5t-35 -62t-9 -96.5v-50 h182q22 0 27.5 -16t5.5 -74q0 -59 -5.5 -75.5t-27.5 -16.5h-180v-782q0 -26 -19 -33.5t-90 -7.5q-69 0 -87.5 7.5t-18.5 33.5v782h-412v-782q0 -26 -18.5 -33.5t-88.5 -7.5t-89 7.5t-19 33.5v782h-121q-22 0 -27.5 15.5t-5.5 72.5q0 58 5.5 73t27.5 15l121 6v93 q0 182 75 260t234 78q102 0 174 -29q22 -9 25.5 -26t-8.5 -68q-11 -50 -22.5 -64.5t-31.5 -11.5q-50 12 -98 12q-71 0 -102 -37t-31 -123v-84h412z" />
<glyph horiz-adv-x="0" />
<glyph horiz-adv-x="682" />
<glyph unicode=" "  horiz-adv-x="450" />
<glyph unicode="&#x09;" horiz-adv-x="450" />
<glyph unicode="&#xa0;" horiz-adv-x="450" />
<glyph unicode="!" horiz-adv-x="593" d="M297 416q-58 0 -74 7.5t-16 31.5l-37 856q-2 30 22 39.5t105 9.5q79 0 104 -10t23 -39l-37 -856q0 -24 -16 -31.5t-74 -7.5zM297 -4q-83 0 -108 10t-25 43v168q0 36 24 45.5t109 9.5q83 0 107 -9.5t24 -45.5v-168q0 -34 -24.5 -43.5t-106.5 -9.5z" />
<glyph unicode="&#x22;" horiz-adv-x="778" d="M133 958l-18 426q0 24 17 30.5t79 6.5q64 0 81 -6.5t17 -30.5l-18 -426q-1 -21 -15 -26.5t-65 -5.5q-49 0 -63.5 5.5t-14.5 26.5zM487 958l-18 426q0 24 17 30.5t79 6.5q64 0 81.5 -6.5t17.5 -30.5l-19 -426q-1 -21 -15 -26.5t-65 -5.5q-49 0 -63.5 5.5t-14.5 26.5z" />
<glyph unicode="#" horiz-adv-x="1253" d="M668 29l49 311h-277l-49 -311q-3 -22 -19.5 -27.5t-74.5 -5.5q-56 0 -69.5 6.5t-10.5 26.5l49 311h-155q-17 0 -23 14.5t-6 61.5q0 46 6 61t23 15h180q6 38 47 286h-156q-18 0 -23 14t-5 62q0 47 5 61.5t23 14.5h180l50 311q3 22 19.5 27.5t74.5 5.5q56 0 69.5 -6.5 t10.5 -26.5l-49 -311h276l49 311q3 22 19.5 27.5t74.5 5.5q57 0 71 -6.5t11 -26.5l-51 -311h154q19 0 24.5 -15t5.5 -61q0 -47 -5.5 -61.5t-24.5 -14.5h-178l-48 -286h156q18 0 23.5 -14.5t5.5 -61.5q0 -48 -5 -62t-24 -14h-180l-49 -311q-3 -22 -19 -27.5t-75 -5.5 q-56 0 -69.5 6.5t-10.5 26.5zM741 492q37 217 47 286h-276l-47 -286h276z" />
<glyph unicode="$" horiz-adv-x="1183" d="M598 -188q-67 0 -84.5 6.5t-17.5 29.5v136q-389 28 -392 356q0 30 20 38.5t93 8.5q69 0 88 -8t19 -35q1 -81 49 -122t143 -52v428q-71 20 -121.5 39.5t-106 53t-89.5 74t-56 101.5t-22 138q0 171 87 262t288 106v135q0 24 17.5 30.5t84.5 6.5q65 0 82.5 -6.5t17.5 -30.5 v-137q173 -20 255.5 -105t84.5 -243q0 -30 -20 -38.5t-92 -8.5q-68 0 -86.5 8t-20.5 35q-2 71 -35.5 110.5t-103.5 51.5v-416q72 -22 115.5 -38t94.5 -40.5t80 -51.5t55 -66t37 -89.5t11 -116.5q0 -170 -88 -264t-287 -112v-138q0 -23 -17 -29.5t-83 -6.5zM848 360 q0 76 -40.5 119t-127.5 72v-377q87 12 127.5 56t40.5 130zM346 1014q0 -79 40 -121.5t130 -75.5v369q-95 -9 -132.5 -50t-37.5 -122z" />
<glyph unicode="%" horiz-adv-x="1628" d="M397 1368q153 0 223 -80t70 -244q0 -165 -70 -245t-223 -80q-152 0 -222.5 80t-70.5 245q0 163 70.5 243.5t222.5 80.5zM397 856q72 0 100.5 42.5t28.5 145.5t-28.5 146t-100.5 43q-70 0 -98.5 -43t-28.5 -146t28.5 -145.5t98.5 -42.5zM1231 637q153 0 223 -80.5 t70 -245.5q0 -164 -70 -243.5t-223 -79.5t-223 79.5t-70 243.5q0 165 70 245.5t223 80.5zM1231 123q71 0 99 42t28 146t-28 146.5t-99 42.5t-99 -42.5t-28 -146.5t28 -146t99 -42zM1266 1319l-727 -1288q-13 -23 -30 -29t-79 -6q-49 0 -64 8.5t-4 30.5l728 1288q9 16 17 23 t28.5 10.5t62.5 3.5q50 0 65 -9.5t3 -31.5z" />
<glyph unicode="&#x26;" horiz-adv-x="1429" d="M1303 184q18 4 29 -14t20 -66q9 -46 6 -62t-19 -26q-48 -28 -141 -28q-160 0 -223 110q-125 -118 -346 -118q-512 0 -512 411q0 129 54 218t144 122q-79 33 -122 105t-43 178q0 362 458 362q227 0 335 -81.5t108 -245.5q0 -29 -23 -38.5t-90 -9.5q-64 0 -82 8t-18 35 q-3 77 -53 112.5t-173 35.5q-127 0 -182 -43.5t-55 -147.5q0 -110 43 -152t157 -42h62q19 0 25 -16.5t6 -69.5t-6 -68.5t-25 -15.5h-57q-236 0 -236 -225q0 -120 66.5 -185t216.5 -65q161 0 228 65.5t67 178.5v231h-105q-20 0 -25.5 15t-5.5 69q0 55 5.5 70.5t25.5 15.5h457 q20 0 25.5 -15.5t5.5 -70.5q0 -54 -5.5 -69t-25.5 -15h-154v-258q0 -125 21 -167t78 -42q26 0 84 14z" />
<glyph unicode="'" horiz-adv-x="428" d="M135 958l-18 426q0 24 17 30.5t79 6.5q64 0 81 -6.5t17 -30.5l-18 -426q-1 -21 -15 -26.5t-65 -5.5q-49 0 -63.5 5.5t-14.5 26.5z" />
<glyph unicode="(" horiz-adv-x="735" d="M150 524q0 183 13 321.5t44 250.5t81 183t123.5 108.5t172.5 37.5h41q21 0 26.5 -14.5t5.5 -69.5q0 -56 -5.5 -71t-26.5 -15h-27q-58 0 -100 -29.5t-70 -85.5t-45 -147t-24 -203.5t-7 -265.5t7 -265.5t24 -203.5t45 -147t70 -85.5t100 -29.5h27q21 0 26.5 -15t5.5 -71 q0 -55 -5.5 -69.5t-26.5 -14.5h-41q-99 0 -172.5 37.5t-123.5 108.5t-81 183t-44 250.5t-13 321.5z" />
<glyph unicode=")" horiz-adv-x="735" d="M586 524q0 -183 -13 -321.5t-44 -250.5t-81 -183t-123.5 -108.5t-172.5 -37.5h-41q-22 0 -27.5 15t-5.5 69q0 56 5.5 71t27.5 15h26q58 0 100 29.5t70 85.5t45 147t24 203.5t7 265.5t-7 265.5t-24 203.5t-45 147t-70 85.5t-100 29.5h-26q-22 0 -27.5 15t-5.5 71 q0 54 5.5 69t27.5 15h41q99 0 172.5 -37.5t123.5 -108.5t81 -183t44 -250.5t13 -321.5z" />
<glyph unicode="*" horiz-adv-x="1060" d="M201 1204l276 -131l-41 303q-3 24 15 31.5t79 7.5q60 0 79 -8t16 -31l-43 -303l276 131q22 9 34.5 -5.5t31.5 -72.5q18 -59 16.5 -78t-25.5 -24l-301 -51l209 -223q16 -16 5 -34t-62 -52q-49 -35 -68.5 -39.5t-29.5 16.5l-138 268l-139 -268q-10 -21 -29.5 -16.5 t-68.5 39.5q-50 34 -60.5 52t5.5 34l208 223l-301 51q-23 5 -25 24t17 78q18 58 30.5 72.5t33.5 5.5z" />
<glyph unicode="+" d="M659 1024v-297h297q22 0 28.5 -17t6.5 -75q0 -57 -6.5 -73.5t-28.5 -16.5h-297v-297q0 -22 -16.5 -28.5t-77.5 -6.5t-77.5 6.5t-16.5 28.5v297h-295q-23 0 -30 16.5t-7 73.5q0 58 7 75t30 17h295v297q0 22 16.5 28.5t77.5 6.5t77.5 -6.5t16.5 -28.5z" />
<glyph unicode="," horiz-adv-x="514" d="M283 270q72 0 96 -10t20 -41q-14 -76 -77.5 -229.5t-106.5 -227.5q-16 -25 -39 -31.5t-70 -6.5q-38 0 -54.5 9.5t-10.5 35.5q74 242 98 448q3 23 14 33.5t39.5 15t90.5 4.5z" />
<glyph unicode="-" horiz-adv-x="829" d="M156 645h518q22 0 28.5 -16t6.5 -74t-6.5 -74t-28.5 -16h-518q-23 0 -29 15.5t-6 74.5t6 74.5t29 15.5z" />
<glyph unicode="." horiz-adv-x="514" d="M258 -4q-83 0 -108 10t-25 43v168q0 36 24 45.5t109 9.5q83 0 107 -9.5t24 -45.5v-168q0 -34 -24.5 -43.5t-106.5 -9.5z" />
<glyph unicode="/" horiz-adv-x="737" d="M709 1419l-467 -1546q-6 -26 -27 -33.5t-96 -7.5q-66 0 -82 8.5t-10 34.5l467 1546q6 18 14 25.5t32.5 11.5t77.5 4q65 0 82 -8.5t9 -34.5z" />
<glyph unicode="0" horiz-adv-x="1179" d="M590 1290q257 0 366 -155.5t109 -499.5t-109 -499.5t-366 -155.5t-366 155.5t-109 499.5t109 499.5t366 155.5zM590 168q142 0 194 102.5t52 364.5t-52 364.5t-194 102.5t-194 -102.5t-52 -364.5t52 -364.5t194 -102.5z" />
<glyph unicode="1" horiz-adv-x="868" d="M365 39v1018l-234 -56q-24 -6 -32.5 12.5t-8.5 73.5q0 64 6.5 83t28.5 24l407 98q56 9 56 -28v-1225q0 -27 -21 -35t-92 -8t-90.5 8t-19.5 35z" />
<glyph unicode="2" horiz-adv-x="1091" d="M553 1290q418 0 418 -370q0 -96 -22.5 -167t-84 -131.5t-102.5 -90t-144 -91.5q-21 -13 -32 -20q-125 -76 -169 -116q-64 -57 -77 -114h608q22 0 27.5 -16t5.5 -78q0 -63 -5.5 -79.5t-27.5 -16.5h-805q-23 0 -28.5 16t-5.5 78v37q0 119 67.5 208t218.5 185q34 22 87 53 t85 49.5t70.5 49t59.5 60.5t36 75t15 100q0 99 -46.5 146t-152.5 47q-110 0 -159.5 -42.5t-55.5 -139.5q-1 -19 -8 -27.5t-29 -13t-68 -4.5q-69 0 -88.5 9.5t-21.5 39.5q1 192 110 278t324 86z" />
<glyph unicode="3" horiz-adv-x="1083" d="M512 565h-117q-19 0 -24.5 15t-5.5 71q0 55 5.5 70.5t24.5 15.5h121q117 0 161 43t44 152q0 92 -47 133t-154 41q-111 0 -160.5 -35.5t-52.5 -107.5q-3 -27 -20.5 -35t-85.5 -8q-69 0 -89.5 8t-19.5 37q6 325 430 325q422 0 422 -344q0 -224 -162 -289q95 -30 143 -101.5 t48 -199.5q0 -179 -111.5 -277.5t-329.5 -98.5q-223 0 -337 80t-117 249q0 29 20.5 38t87.5 9q68 0 86.5 -8.5t20.5 -36.5q5 -73 59 -110t178 -37q218 0 218 209q0 108 -60 150t-176 42z" />
<glyph unicode="4" horiz-adv-x="1134" d="M780 -4q-71 0 -90.5 8t-19.5 35v262h-576q-22 0 -28.5 19.5t-6.5 78.5q0 47 7 68.5t24 46.5l508 727q15 22 44 29.5t106 7.5q88 0 116.5 -8t28.5 -35v-748h149q22 0 28.5 -17t6.5 -75q0 -60 -6.5 -77t-28.5 -17h-149v-262q0 -27 -21 -35t-92 -8zM279 487h395v574z" />
<glyph unicode="5" horiz-adv-x="1048" d="M494 631q-123 0 -213 -39q-35 -12 -97 -12q-48 0 -66.5 8.5t-15.5 38.5l37 604q2 24 21 31.5t80 7.5h600q22 0 27 -16t5 -80q0 -62 -5.5 -78.5t-26.5 -16.5h-504l-23 -317q85 39 219 39q412 0 412 -398q0 -204 -107.5 -313.5t-328.5 -109.5q-428 0 -434 329q0 29 20.5 38 t87.5 9t85.5 -8.5t21.5 -36.5q5 -72 54 -109.5t157 -37.5q117 0 168 59t51 180q0 115 -53 171.5t-172 56.5z" />
<glyph unicode="6" horiz-adv-x="1105" d="M748 987q-4 65 -48 94t-133 29q-62 0 -107.5 -24t-71 -60.5t-41 -93t-20 -108t-5.5 -119.5q86 92 276 92q204 0 302.5 -95.5t98.5 -302.5q0 -194 -105 -306.5t-329 -112.5q-107 0 -186.5 28t-131.5 78t-83.5 127.5t-44.5 168.5t-13 210q0 191 21.5 318t74 214.5 t140.5 126.5t221 39q178 0 285 -73.5t110 -225.5q0 -29 -19.5 -38t-86.5 -9q-66 0 -84 8t-20 35zM563 162q125 0 173 57t48 178q0 124 -47 177t-172 53q-171 0 -243 -107q1 -65 6.5 -112t20.5 -96.5t40.5 -80t69.5 -50t104 -19.5z" />
<glyph unicode="7" horiz-adv-x="1003" d="M213 43q66 236 197 525.5t264 510.5h-561q-22 0 -28.5 17t-6.5 78q0 62 6.5 79t28.5 17h770q22 0 28.5 -16t6.5 -74t-29 -111q-134 -232 -256.5 -515.5t-188.5 -514.5q-7 -26 -33 -34.5t-100 -8.5q-69 0 -87.5 10t-10.5 37z" />
<glyph unicode="8" horiz-adv-x="1136" d="M109 336q0 131 56.5 204t156.5 111q-89 38 -138 105.5t-49 187.5q0 173 106 259.5t326 86.5q221 0 327.5 -86.5t106.5 -259.5q0 -82 -26 -142.5t-65.5 -94t-96.5 -56.5q101 -40 157 -112t56 -203q0 -177 -111 -266.5t-348 -89.5q-235 0 -346.5 89.5t-111.5 266.5z M805 340q0 57 -18 99t-53 69.5t-73 43.5t-92 30q-55 -14 -92.5 -30t-73 -43t-53.5 -69t-18 -100q0 -92 56.5 -136t178.5 -44q123 0 180.5 44t57.5 136zM352 938q0 -94 55.5 -142t159.5 -77q50 14 85.5 29.5t67.5 40.5t48 62t16 87q0 94 -50 135t-167 41q-116 0 -165.5 -41 t-49.5 -135z" />
<glyph unicode="9" horiz-adv-x="1105" d="M350 283q4 -65 47.5 -94t132.5 -29q62 0 107 24t70.5 60t41 92.5t21 108t6.5 120.5q-86 -92 -276 -92q-204 0 -303 95t-99 302q0 94 24.5 169t75 132t135 88t199.5 31q107 0 186.5 -28t131.5 -78t83.5 -127.5t44.5 -168.5t13 -210q0 -191 -21.5 -318t-74 -214.5 t-140 -126.5t-220.5 -39q-178 0 -285.5 74t-110.5 225q0 28 20 37.5t87 9.5q66 0 84 -8t20 -35zM535 1108q-125 0 -173.5 -57.5t-48.5 -178.5q0 -124 47 -176.5t172 -52.5q175 0 242 107q-1 64 -6.5 111t-20.5 96.5t-40 80t-68.5 50.5t-103.5 20z" />
<glyph unicode=":" horiz-adv-x="559" d="M281 -4q-83 0 -108.5 10t-25.5 43v168q0 36 24.5 45.5t109.5 9.5q83 0 107 -9.5t24 -45.5v-168q0 -34 -24.5 -43.5t-106.5 -9.5zM281 729q-83 0 -108.5 10t-25.5 43v168q0 36 24.5 46t109.5 10q83 0 107 -10t24 -46v-168q0 -34 -24.5 -43.5t-106.5 -9.5z" />
<glyph unicode=";" horiz-adv-x="559" d="M281 729q-83 0 -108.5 10t-25.5 43v168q0 36 24.5 46t109.5 10q83 0 107 -10t24 -46v-168q0 -34 -24.5 -43.5t-106.5 -9.5zM301 270q72 0 96.5 -10t20.5 -41q-14 -76 -78 -229t-107 -228q-16 -25 -38.5 -31.5t-69.5 -6.5q-38 0 -55 9.5t-11 35.5q76 247 99 448 q3 23 13.5 33.5t39 15t90.5 4.5z" />
<glyph unicode="&#x3c;" d="M141 635q0 57 6.5 77t24.5 31l664 457q18 12 36 1.5t50 -54.5q33 -45 38.5 -65.5t-12.5 -30.5l-602 -416l602 -414q18 -11 12.5 -31t-38.5 -65q-32 -44 -50 -54.5t-36 1.5l-664 454q-18 13 -24.5 33t-6.5 76z" />
<glyph unicode="=" d="M180 518h772q22 0 28.5 -17t6.5 -75q0 -57 -6.5 -73.5t-28.5 -16.5h-772q-23 0 -30 16.5t-7 73.5q0 58 7 75t30 17zM180 932h772q22 0 28.5 -17t6.5 -75q0 -57 -6.5 -73.5t-28.5 -16.5h-772q-23 0 -30 16.5t-7 73.5q0 58 7 75t30 17z" />
<glyph unicode="&#x3e;" d="M989 635q0 -56 -6.5 -76t-24.5 -33l-663 -454q-18 -12 -36 -1.5t-50 54.5q-34 46 -39 65t12 31l602 414l-602 416q-18 10 -12 30.5t39 65.5q32 44 50 54.5t36 -1.5l663 -457q18 -11 24.5 -31t6.5 -77z" />
<glyph unicode="?" d="M641 496l-4 -45q-3 -24 -19 -31.5t-77 -7.5q-62 0 -78 7t-19 32l-4 47q-4 53 12.5 98t45.5 78t65.5 62t74 57.5t68.5 58t50.5 69t19.5 85.5q0 91 -49.5 135.5t-163.5 44.5q-118 0 -173 -46t-60 -147q0 -27 -19.5 -36t-87.5 -9t-89 9.5t-21 39.5q0 196 115 287.5t339 91.5 q226 0 330 -95.5t104 -258.5q0 -78 -25.5 -139.5t-63.5 -97t-83.5 -69.5t-85 -60.5t-68.5 -67.5t-34 -92zM541 -4q-83 0 -108 10t-25 43v168q0 36 24 45.5t109 9.5q83 0 107 -9.5t24 -45.5v-168q0 -34 -24.5 -43.5t-106.5 -9.5z" />
<glyph unicode="@" horiz-adv-x="1818" d="M1092 584v239q-63 29 -156 29q-116 0 -158.5 -57.5t-42.5 -208.5q0 -134 38.5 -190t133.5 -56q185 0 185 244zM1202 -141h-287q-190 0 -328 37.5t-239.5 123t-152 230.5t-50.5 352q0 203 49.5 346.5t150.5 231.5t245.5 128t343.5 40q210 0 354 -43t230 -134.5 t123.5 -220.5t37.5 -313q0 -180 -36 -287t-102 -149.5t-173 -42.5t-159.5 39.5t-71.5 115.5q-35 -66 -103 -100.5t-157 -34.5q-165 0 -249.5 96.5t-84.5 311.5q0 228 88 329t303 101q173 0 297 -64q23 -10 32 -21t9 -28v-459q0 -77 19 -116t71 -39q57 0 87.5 30.5t44 104.5 t13.5 213q0 108 -11.5 188t-38.5 144.5t-69 106.5t-107 70t-149.5 40t-197.5 12q-133 0 -228.5 -16.5t-172 -56.5t-122.5 -108t-70 -170.5t-24 -244.5q0 -145 25 -249t71 -171t122 -106.5t165.5 -54.5t214.5 -15h291q17 0 22 -15t5 -59q0 -45 -5.5 -59t-25.5 -14z" />
<glyph unicode="A" horiz-adv-x="1210" d="M1042 -4q-72 0 -94 8.5t-30 38.5q-39 157 -84 313h-459q-29 -101 -82 -313q-8 -30 -30.5 -38.5t-96.5 -8.5q-70 0 -92.5 9.5t-14.5 35.5q69 273 188 653.5t214 622.5q9 26 35.5 34.5t107.5 8.5q82 0 109.5 -8.5t36.5 -34.5q94 -241 213 -621t188 -655q8 -26 -14.5 -35.5 t-94.5 -9.5zM604 1106q-96 -283 -176 -561h352q-75 262 -176 561z" />
<glyph unicode="B" horiz-adv-x="1247" d="M395 600v-405h242q143 0 205.5 44.5t62.5 157.5q0 63 -18.5 104t-58.5 62.5t-90 29t-126 7.5h-217zM610 1161h-215v-373h221q123 0 180.5 46t57.5 147q0 98 -56.5 139t-187.5 41zM274 1356h347q239 0 351.5 -88t112.5 -264q0 -220 -176 -293q230 -55 230 -320 q0 -194 -115 -292.5t-369 -98.5h-381q-68 0 -87 8t-19 35v1270q0 27 19 35t87 8z" />
<glyph unicode="C" horiz-adv-x="1232" d="M119 678q0 192 27 321t91 215t166.5 124t255.5 38q231 0 346 -101.5t115 -297.5q0 -30 -20.5 -38.5t-91.5 -8.5q-70 0 -90.5 8t-20.5 35q-3 104 -59 154.5t-179 50.5q-122 0 -185.5 -43t-91.5 -149t-28 -308q0 -122 9.5 -205t30.5 -142t58 -91.5t87 -47t123 -14.5 q127 0 180.5 52t56.5 163q2 27 23 36t90 9t90.5 -9t21.5 -38q-2 -205 -113.5 -308t-348.5 -103q-154 0 -257 38t-167 124t-91.5 215t-27.5 321z" />
<glyph unicode="D" horiz-adv-x="1292" d="M397 197h224q96 0 155.5 21.5t96.5 78.5t51 146t14 235t-14 235t-51 146t-96.5 78.5t-155.5 21.5h-224v-962zM621 0h-347q-68 0 -87 8t-19 35v1270q0 27 19 35t87 8h347q157 0 262.5 -37.5t170.5 -122t92.5 -209t27.5 -309.5t-27.5 -309.5t-92.5 -209t-170.5 -122 t-262.5 -37.5z" />
<glyph unicode="E" horiz-adv-x="1153" d="M983 1157h-586v-364h514q24 0 31.5 -17.5t7.5 -81.5t-7.5 -81t-31.5 -17h-514v-397h592q24 0 31.5 -18t7.5 -81q0 -64 -7.5 -82t-31.5 -18h-715q-68 0 -87 8t-19 35v1270q0 27 19 35t87 8h709q22 0 29.5 -18.5t7.5 -82.5q0 -63 -7 -80.5t-30 -17.5z" />
<glyph unicode="F" horiz-adv-x="1069" d="M397 588v-549q0 -27 -21 -35t-93 -8q-74 0 -94.5 8t-20.5 35v1274q0 27 19 35t87 8h689q24 0 31 -18t7 -83q0 -63 -7 -80.5t-31 -17.5h-566v-371h502q24 0 31.5 -18t7.5 -82q0 -63 -7.5 -80.5t-31.5 -17.5h-502z" />
<glyph unicode="G" horiz-adv-x="1282" d="M1049 705q62 0 81 -11.5t19 -44.5v-217q0 -452 -475 -452q-198 0 -318.5 69.5t-178.5 222t-58 406.5q0 191 27.5 320t91.5 215t166.5 124.5t254.5 38.5q232 0 351.5 -97.5t119.5 -281.5q0 -30 -21.5 -39.5t-90.5 -9.5q-68 0 -89.5 9t-21.5 36q-6 187 -248 187 q-120 0 -184 -44t-92.5 -150.5t-28.5 -307.5q0 -198 33.5 -307.5t100.5 -152t186 -42.5q133 0 193.5 62.5t60.5 197.5v78h-258q-24 0 -30.5 16t-6.5 78q0 63 6.5 80t30.5 17h379z" />
<glyph unicode="H" horiz-adv-x="1345" d="M1063 -4q-74 0 -94.5 8t-20.5 35v555h-551v-555q0 -27 -21 -35t-93 -8q-74 0 -94.5 8t-20.5 35v1278q0 27 20.5 35t94.5 8q72 0 93 -8t21 -35v-522h551v522q0 27 20.5 35t94.5 8q73 0 94 -8t21 -35v-1278q0 -27 -21 -35t-94 -8z" />
<glyph unicode="I" horiz-adv-x="573" d="M287 -4q-74 0 -94.5 8t-20.5 35v1278q0 27 20.5 35t94.5 8q73 0 93.5 -8t20.5 -35v-1278q0 -27 -20.5 -35t-93.5 -8z" />
<glyph unicode="J" horiz-adv-x="1071" d="M680 469v848q0 27 20.5 35t94.5 8q73 0 93.5 -8t20.5 -35v-860q0 -118 -21 -203t-69.5 -148.5t-132.5 -94.5t-205 -31q-407 0 -407 409q0 29 21 38t91 9q69 0 90 -9t23 -36q2 -108 44.5 -157.5t141.5 -49.5q113 0 154 66t41 219z" />
<glyph unicode="K" horiz-adv-x="1218" d="M1139 1307l-432 -594l456 -664q27 -41 -43 -50l-61 -3q-70 0 -100.5 8.5t-49.5 32.5l-387 573h-125v-571q0 -27 -21 -35t-93 -8q-74 0 -94.5 8t-20.5 35v1278q0 27 20.5 35t94.5 8q72 0 93 -8t21 -35v-506h123l365 510q17 23 48 31t101 8q114 0 114 -32q-1 -9 -9 -21z " />
<glyph unicode="L" horiz-adv-x="1019" d="M397 1317v-1120h516q23 0 31 -18.5t8 -80.5q0 -63 -8 -80.5t-31 -17.5h-639q-68 0 -87 8t-19 35v1274q0 27 20.5 35t94.5 8q72 0 93 -8t21 -35z" />
<glyph unicode="M" horiz-adv-x="1652" d="M825 147q-64 0 -84 8t-28 33l-320 885v-1034q0 -27 -20 -35t-92 -8q-73 0 -93 8t-20 35v1276q0 28 31 36.5t135 8.5q93 0 128 -8.5t44 -34.5l319 -891l320 891q9 26 44.5 34.5t127.5 8.5q105 0 136.5 -8.5t31.5 -36.5v-1276q0 -27 -20.5 -35t-92.5 -8t-92 8t-20 35v1034 l-320 -885q-10 -25 -30.5 -33t-84.5 -8z" />
<glyph unicode="N" horiz-adv-x="1357" d="M1077 1360q74 0 94.5 -8t20.5 -35v-1278q0 -27 -23 -35t-110 -8q-67 0 -90 7t-35 30l-539 946v-940q0 -27 -21 -35t-93 -8t-92.5 8t-20.5 35v1278q0 27 23 35t110 8q66 0 88.5 -7t34.5 -30l541 -952v946q0 27 20 35t92 8z" />
<glyph unicode="O" horiz-adv-x="1320" d="M662 1376q296 0 418 -160t122 -538t-122 -538t-418 -160q-297 0 -420 160t-123 538t123 538t420 160zM662 176q117 0 181 43t94 151t30 308t-30 308t-94 151t-181 43q-89 0 -145.5 -22.5t-94 -80t-53 -153t-15.5 -246.5t15.5 -246.5t53 -153t94 -80t145.5 -22.5z" />
<glyph unicode="P" horiz-adv-x="1202" d="M612 481h-215v-442q0 -27 -21 -35t-93 -8q-74 0 -94.5 8t-20.5 35v1274q0 27 19 35t87 8h338q261 0 375.5 -103.5t114.5 -334.5q0 -229 -115.5 -333t-374.5 -104zM397 1159v-481h209q146 0 204 49.5t58 190.5q0 140 -59.5 190.5t-202.5 50.5h-209z" />
<glyph unicode="Q" horiz-adv-x="1320" d="M662 1376q296 0 418 -160t122 -538q0 -322 -86.5 -483.5t-288.5 -200.5q50 -39 128.5 -60.5t166.5 -23.5q23 0 30 -17t7 -81t-7 -81.5t-30 -17.5q-152 0 -291 73t-225 196q-266 13 -376.5 174t-110.5 522q0 378 123 538t420 160zM662 176q117 0 181 43t94 151t30 308 t-30 308t-94 151t-181 43q-89 0 -145.5 -22.5t-94 -80t-53 -153t-15.5 -246.5t15.5 -246.5t53 -153t94 -80t145.5 -22.5z" />
<glyph unicode="R" horiz-adv-x="1232" d="M545 528h-148v-489q0 -27 -21 -35t-93 -8q-74 0 -94.5 8t-20.5 35v1274q0 27 19.5 35t86.5 8h334q260 0 376 -101t116 -317q0 -277 -248 -365q60 -31 102.5 -86.5t83.5 -150.5q70 -159 99 -289q4 -11 2 -20.5t-10.5 -16t-35 -10.5t-71.5 -4q-71 0 -96 8.5t-31 32.5 q-22 109 -68 233q-48 127 -113 192.5t-169 65.5zM397 1161v-444h205q146 0 204 46.5t58 174.5q0 126 -59 174.5t-203 48.5h-205z" />
<glyph unicode="S" horiz-adv-x="1179" d="M584 170q133 0 193.5 43.5t60.5 146.5q0 40 -12 70.5t-31.5 51.5t-56.5 39.5t-73.5 30.5t-95.5 28q-58 16 -97 28t-90.5 32t-85 41t-70 53t-57.5 69t-34.5 87.5t-13.5 110.5q0 188 105 281.5t347 93.5q234 0 345 -85t112 -269q0 -30 -20 -38.5t-92 -8.5q-68 0 -87.5 8 t-19.5 35q-1 91 -56 129.5t-177 38.5q-128 0 -179 -41t-51 -133q0 -101 62.5 -143.5t238.5 -97.5q3 -1 5 -1.5t5 -1.5t5 -2q55 -16 90.5 -28t78.5 -29t70 -33.5t56.5 -39t46.5 -49t31.5 -60t21 -75t6.5 -92.5q0 -191 -111.5 -285.5t-369.5 -94.5q-477 0 -480 360 q0 30 20 38.5t93 8.5q69 0 88 -8t19 -35q1 -93 67 -133.5t193 -40.5z" />
<glyph unicode="T" horiz-adv-x="1097" d="M995 1157h-331v-1118q0 -27 -20.5 -35t-94.5 -8t-94.5 8t-20.5 35v1118h-332q-23 0 -31 18t-8 80q0 63 8 82t31 19h893q24 0 31.5 -18.5t7.5 -82.5q0 -63 -7.5 -80.5t-31.5 -17.5z" />
<glyph unicode="U" horiz-adv-x="1318" d="M659 -20q-269 0 -385 122.5t-116 393.5v821q0 27 20.5 35t93.5 8t94 -8t21 -35v-811q0 -175 58.5 -246.5t213.5 -71.5q156 0 215.5 71.5t59.5 246.5v811q0 27 20.5 35t94.5 8q73 0 93.5 -8t20.5 -35v-821q0 -272 -116.5 -394t-387.5 -122z" />
<glyph unicode="V" horiz-adv-x="1204" d="M1040 1360q29 0 46 -1t36 -5t25.5 -14t1.5 -25q-76 -285 -196 -664.5t-210 -611.5q-9 -27 -35 -35t-106 -8t-106 8t-35 35q-90 229 -209 606.5t-197 669.5q-5 15 1.5 25t26 14t37 5t46.5 1q74 0 97.5 -8.5t31.5 -38.5q135 -526 309 -1053q166 501 311 1053 q8 30 29.5 38.5t95.5 8.5z" />
<glyph unicode="W" horiz-adv-x="1880" d="M1686 1360q74 0 98 -9t18 -36q-58 -281 -158.5 -666.5t-177.5 -609.5q-9 -27 -34 -35t-101 -8q-54 0 -79 4t-35 12t-15 27q-111 370 -262 975q-131 -538 -262 -975q-6 -27 -28.5 -35t-98.5 -8q-77 0 -102 8t-33 35q-78 223 -178.5 607.5t-159.5 668.5q-6 27 19 36t100 9 q68 0 89 -8.5t27 -38.5q90 -460 238 -1028q129 474 262 1028q6 30 28 38.5t99 8.5q78 0 100.5 -8.5t28.5 -38.5q105 -455 260 -1028q140 526 242 1028q6 30 26.5 38.5t88.5 8.5z" />
<glyph unicode="X" horiz-adv-x="1226" d="M803 698l358 -651q20 -36 -32 -46q-27 -5 -76 -5q-69 0 -98.5 7.5t-41.5 31.5l-297 559h-6l-297 -559q-12 -24 -41 -31.5t-98 -7.5q-111 0 -114 30q0 9 6 21l358 651l-350 611q-21 36 25 45q26 6 83 6q69 0 98 -8t42 -33l290 -524h2l291 524q13 25 41.5 33t97.5 8 q110 0 116 -26q1 -11 -7 -25z" />
<glyph unicode="Y" horiz-adv-x="1167" d="M872 1317q11 28 31.5 35.5t95.5 7.5q40 0 65 -2.5t38.5 -8t16 -14.5t-2.5 -22q-70 -157 -196 -404.5t-222 -414.5v-457q0 -25 -20.5 -33t-93.5 -8t-94 8t-21 33v457q-96 167 -222 414.5t-196 404.5q-5 13 -2.5 22t16 14.5t38.5 8t65 2.5q52 0 76 -4t33.5 -12t17.5 -27 q123 -306 287 -629q149 288 290 629z" />
<glyph unicode="Z" horiz-adv-x="1146" d="M160 1356h825q24 0 30.5 -19.5t6.5 -87.5q0 -65 -21 -100l-620 -952h618q23 0 31 -18.5t8 -80.5q0 -63 -8 -80.5t-31 -17.5h-858q-25 0 -32 18.5t-7 83.5q0 63 23 101l623 956h-588q-23 0 -31 17.5t-8 80.5q0 62 8 80.5t31 18.5z" />
<glyph unicode="[" horiz-adv-x="735" d="M188 -332v1712q0 25 19 33t84 8h313q22 0 27.5 -15t5.5 -69q0 -56 -5.5 -71t-27.5 -15h-219v-1454h219q22 0 27.5 -15t5.5 -71q0 -54 -5.5 -69t-27.5 -15h-313q-65 0 -84 8t-19 33z" />
<glyph unicode="\" horiz-adv-x="737" d="M496 -127l-467 1546q-8 26 8.5 34.5t81.5 8.5q53 0 78 -4t33 -11.5t14 -25.5l467 -1546q6 -26 -10.5 -34.5t-82.5 -8.5q-75 0 -95.5 7.5t-26.5 33.5z" />
<glyph unicode="]" horiz-adv-x="735" d="M547 1380v-1712q0 -25 -19 -33t-84 -8h-313q-22 0 -27.5 15t-5.5 69q0 56 5.5 71t27.5 15h219v1454h-219q-22 0 -27.5 15t-5.5 71q0 54 5.5 69t27.5 15h313q65 0 84 -8t19 -33z" />
<glyph unicode="^" d="M565 1368q66 0 85.5 -5.5t31.5 -25.5l334 -608q15 -27 -5.5 -36t-88.5 -9q-65 0 -90 8t-37 31l-230 432l-229 -432q-12 -23 -37 -31t-90 -8q-67 0 -88 9t-6 36l336 608q11 20 30.5 25.5t83.5 5.5z" />
<glyph unicode="_" horiz-adv-x="829" d="M809 -283h-789q-20 0 -25 14t-5 64q0 48 5 62t25 14h789q20 0 24.5 -13.5t4.5 -62.5q0 -51 -4.5 -64.5t-24.5 -13.5z" />
<glyph unicode="`" horiz-adv-x="710" d="M487 1128l-327 156q-21 7 -20.5 25.5t28.5 68.5q28 51 44 62.5t34 -2.5l309 -201q17 -12 16.5 -24t-20.5 -46q-20 -35 -32 -42t-32 3z" />
<glyph unicode="a" horiz-adv-x="1079" d="M358 723q0 -24 -19 -31.5t-85 -7.5q-69 0 -86.5 8t-17.5 39q0 141 96.5 216t292.5 75q113 0 191.5 -22.5t124.5 -67t66.5 -105t20.5 -143.5v-649q0 -25 -18.5 -32t-85.5 -7t-86 7t-19 32l-2 88q-86 -139 -303 -139q-171 0 -251.5 76t-80.5 206q0 150 87.5 223.5 t275.5 73.5h268v111q0 96 -41 133t-147 37q-96 0 -138.5 -29.5t-42.5 -91.5zM727 412h-252q-94 0 -130 -32.5t-36 -103.5q0 -66 40.5 -95t117.5 -29q119 0 189.5 54t70.5 146v60z" />
<glyph unicode="b" horiz-adv-x="1167" d="M367 1380v-479q93 121 290 121q404 0 404 -516q0 -271 -100.5 -398.5t-305.5 -127.5q-200 0 -293 124l-4 -69q-2 -25 -19.5 -32t-84.5 -7t-85.5 7t-18.5 32v1345q0 25 19.5 33t88.5 8t89 -8t20 -33zM367 500q0 -182 54.5 -260t186.5 -78q130 0 181 77t51 267 q0 181 -51.5 257.5t-180.5 76.5q-132 0 -186.5 -78.5t-54.5 -261.5z" />
<glyph unicode="c" horiz-adv-x="1054" d="M563 838q-134 0 -183.5 -75t-49.5 -263q0 -186 50 -261t183 -75q175 0 178 121q2 24 20.5 32.5t82.5 8.5q74 0 92 -7.5t18 -37.5q-2 -143 -102 -222t-289 -79q-242 0 -349.5 125.5t-107.5 394.5t108 395.5t349 126.5q186 0 284 -78t103 -217q0 -29 -18.5 -37t-91.5 -8 q-64 0 -83.5 8.5t-19.5 34.5q-3 113 -174 113z" />
<glyph unicode="d" horiz-adv-x="1167" d="M811 35l-4 71q-97 -126 -295 -126q-204 0 -305 128t-101 398q0 516 404 516q196 0 293 -121v479q0 25 19.5 33t88.5 8q68 0 88.5 -8t20.5 -33v-1345q0 -25 -19 -32t-86 -7t-84.5 7t-19.5 32zM803 500q0 183 -55.5 261.5t-188.5 78.5q-128 0 -178.5 -76t-50.5 -258 q0 -191 50 -267.5t179 -76.5q133 0 188.5 78.5t55.5 259.5z" />
<glyph unicode="e" horiz-adv-x="1081" d="M932 440h-608q8 -152 64.5 -219t182.5 -67q84 0 128 30t46 82q2 26 20 33.5t85 7.5q69 0 86.5 -8t17.5 -39q-2 -128 -102 -204t-281 -76q-245 0 -355 125t-110 389q0 270 110 399t343 129q414 0 414 -444v-52q0 -53 -7.5 -69.5t-33.5 -16.5zM563 846q-118 0 -172 -59.5 t-65 -198.5h440v37q0 107 -44.5 164t-158.5 57z" />
<glyph unicode="f" horiz-adv-x="731" d="M633 819h-207v-782q0 -26 -18.5 -33.5t-88.5 -7.5t-89 7.5t-19 33.5v782h-121q-22 0 -27.5 15.5t-5.5 72.5q0 58 5.5 73t27.5 15l121 6v99q0 183 75 259.5t238 76.5q100 0 178 -31q21 -9 24 -26t-7 -68q-12 -50 -22.5 -64.5t-30.5 -11.5q-58 14 -103 14q-74 0 -105.5 -35 t-31.5 -122v-91h207q22 0 27.5 -16t5.5 -74q0 -59 -5.5 -75.5t-27.5 -16.5z" />
<glyph unicode="g" horiz-adv-x="1140" d="M326 -90q0 -125 217 -125q117 0 169 35t52 127q0 88 -56 129t-176 61q-221 1 -323.5 111t-102.5 332q0 223 104 332.5t329 109.5q129 0 213 -37l286 31q24 1 31.5 -16.5t7.5 -73.5q0 -57 -6.5 -72.5t-30.5 -15.5h-120q53 -106 53 -260q0 -269 -164 -375q166 -78 166 -271 q0 -161 -104.5 -241t-325.5 -80q-426 0 -426 293q0 31 17.5 39t86.5 8q65 0 84 -8t19 -33zM541 311q118 0 169.5 64.5t51.5 202.5q0 139 -52.5 204.5t-170.5 65.5q-121 0 -170.5 -63.5t-49.5 -204.5t50.5 -205t171.5 -64z" />
<glyph unicode="h" horiz-adv-x="1161" d="M367 1380v-501q37 60 116.5 101.5t194.5 41.5q167 0 255.5 -89t88.5 -267v-629q0 -26 -19.5 -33.5t-89.5 -7.5t-89 7.5t-19 33.5v602q0 102 -46 148.5t-141 46.5q-115 0 -183 -65.5t-68 -176.5v-555q0 -26 -19.5 -33.5t-89.5 -7.5t-89 7.5t-19 33.5v1343q0 25 19.5 33 t88.5 8t89 -8t20 -33z" />
<glyph unicode="i" horiz-adv-x="518" d="M152 37v928q0 25 19.5 33t88.5 8t89 -8t20 -33v-928q0 -26 -19.5 -33.5t-89.5 -7.5t-89 7.5t-19 33.5zM260 1391q78 0 97.5 -10t19.5 -48v-135q0 -35 -20.5 -45t-96.5 -10q-77 0 -97 10t-20 45v135q0 38 19.5 48t97.5 10z" />
<glyph unicode="j" horiz-adv-x="536" d="M-4 -193q4 0 24.5 -2t34.5 -2q64 0 89.5 37t25.5 152v973q0 25 20 33t89 8t88.5 -8t19.5 -33v-985q0 -90 -12.5 -155t-34.5 -105.5t-58.5 -64t-78 -32t-99.5 -8.5q-77 0 -110 10q-22 6 -27.5 21t-5.5 69q0 59 6.5 75.5t28.5 16.5zM279 1391q78 0 97 -10t19 -48v-135 q0 -35 -20 -45t-96 -10q-78 0 -98.5 10t-20.5 45v135q0 38 19.5 48t99.5 10z" />
<glyph unicode="k" horiz-adv-x="1042" d="M367 1380v-745h94l276 328q21 26 48 34.5t96 8.5q114 0 114 -31q-1 -10 -12 -23l-350 -409l364 -494q30 -39 -35 -49q-27 -4 -71 -4q-67 0 -92 7.5t-45 33.5l-303 416h-84v-418q0 -25 -19.5 -32t-89.5 -7t-89 7t-19 32v1345q0 25 19.5 33t88.5 8t89 -8t20 -33z" />
<glyph unicode="l" horiz-adv-x="550" d="M436 188h29q24 0 30.5 -16.5t6.5 -77.5q0 -60 -7.5 -77t-35.5 -17h-64q-139 0 -191 49t-52 180v1151q0 25 19.5 33t88.5 8t89 -8t20 -33v-1124q0 -40 14.5 -54t52.5 -14z" />
<glyph unicode="m" horiz-adv-x="1746" d="M985 604v-567q0 -26 -19 -33.5t-89 -7.5q-69 0 -89 7.5t-20 33.5v614q0 96 -39.5 139.5t-126.5 43.5q-103 0 -170 -63.5t-67 -166.5v-567q0 -26 -19.5 -33.5t-89.5 -7.5t-89.5 7.5t-19.5 33.5v930q0 25 19 32t88 7q46 0 66.5 -3t27.5 -10.5t8 -25.5l4 -93 q36 62 114.5 105t184.5 43q219 0 291 -168q53 80 139 124t191 44q160 0 244 -86.5t84 -257.5v-641q0 -26 -19.5 -33.5t-89.5 -7.5t-89 7.5t-19 33.5v614q0 96 -40 139.5t-128 43.5q-102 0 -170 -64t-68 -166z" />
<glyph unicode="n" horiz-adv-x="1159" d="M356 967l4 -95q37 63 117 106.5t197 43.5q167 0 255.5 -88t88.5 -266v-631q0 -26 -19.5 -33.5t-89.5 -7.5t-89 7.5t-19 33.5v604q0 102 -45 147.5t-140 45.5q-117 0 -184 -64.5t-67 -175.5v-557q0 -26 -19.5 -33.5t-89.5 -7.5t-89.5 7.5t-19.5 33.5v930q0 25 19 32t88 7 q46 0 66.5 -3t27.5 -10.5t8 -25.5z" />
<glyph unicode="o" horiz-adv-x="1126" d="M563 1022q241 0 348 -126.5t107 -395.5t-107 -394.5t-348 -125.5q-242 0 -349.5 125.5t-107.5 394.5t108 395.5t349 126.5zM563 162q133 0 183.5 76t50.5 262q0 188 -50.5 264t-183.5 76q-134 0 -183.5 -75.5t-49.5 -264.5q0 -187 49.5 -262.5t183.5 -75.5z" />
<glyph unicode="p" horiz-adv-x="1165" d="M356 967l4 -74q94 129 297 129q201 0 301.5 -128.5t100.5 -393.5t-100.5 -392.5t-303.5 -127.5q-199 0 -290 118v-430q0 -26 -19.5 -33.5t-89.5 -7.5t-89.5 7.5t-19.5 33.5v1299q0 25 19 32t86 7t84.5 -7t19.5 -32zM365 500q0 -182 54.5 -260t186.5 -78q129 0 180.5 76.5 t51.5 261.5q0 186 -51.5 263t-180.5 77q-132 0 -186.5 -78.5t-54.5 -261.5z" />
<glyph unicode="q" horiz-adv-x="1165" d="M911 -373q-70 0 -89 7.5t-19 33.5v430q-95 -118 -291 -118q-203 0 -304.5 127.5t-101.5 392.5t101 393.5t303 128.5q200 0 295 -129l6 74q2 25 19.5 32t84.5 7t86 -7t19 -32v-1299q0 -26 -20 -33.5t-89 -7.5zM803 500q0 183 -55.5 261.5t-188.5 78.5q-129 0 -179 -76.5 t-50 -263.5q0 -186 50 -262t179 -76q133 0 188.5 78.5t55.5 259.5z" />
<glyph unicode="r" horiz-adv-x="774" d="M686 797q-150 0 -235.5 -67.5t-85.5 -190.5v-502q0 -26 -19.5 -33.5t-89.5 -7.5t-89.5 7.5t-19.5 33.5v930q0 25 19 32t88 7q46 0 66.5 -3t27.5 -10.5t8 -25.5l4 -140q39 81 123.5 135t202.5 54q27 0 35 -20t8 -89q0 -70 -8 -90t-35 -20z" />
<glyph unicode="s" horiz-adv-x="1001" d="M301 258q3 -57 48 -82.5t153 -25.5q106 0 145 28t39 90q0 68 -50 98t-173 58q-68 15 -114.5 28.5t-95 38t-77.5 55t-47 78t-18 109.5q0 146 88.5 217.5t289.5 71.5q200 0 291.5 -65.5t91.5 -204.5q0 -28 -19.5 -36.5t-86.5 -8.5q-64 0 -81 7.5t-17 33.5q-3 56 -42.5 80 t-133.5 24q-95 0 -132.5 -26.5t-37.5 -86.5q0 -47 31 -76.5t63.5 -40.5t122.5 -33q6 -2 10 -3q49 -12 76 -19t66.5 -19.5t61 -24t49 -29t42.5 -38t29 -47.5t20 -61t6 -76q0 -71 -18.5 -122t-62.5 -90.5t-122.5 -59.5t-191.5 -20q-217 0 -313.5 70t-96.5 202q0 30 19.5 38.5 t87.5 8.5q62 0 80 -8t20 -33z" />
<glyph unicode="t" horiz-adv-x="782" d="M655 819h-237v-514q0 -77 22.5 -105t79.5 -28q22 0 41.5 3.5t40.5 10t27 7.5q15 5 28.5 -11.5t26.5 -56.5q15 -47 15 -64.5t-17 -29.5q-60 -43 -188 -43q-162 0 -226.5 69.5t-64.5 237.5v524h-121q-22 0 -27.5 15.5t-5.5 72.5q0 58 5.5 73t27.5 15l125 6v232 q0 26 18.5 33.5t87.5 7.5q66 0 85.5 -8t19.5 -33v-232h237q22 0 27.5 -16t5.5 -74q0 -59 -5.5 -75.5t-27.5 -16.5z" />
<glyph unicode="u" horiz-adv-x="1144" d="M788 35l-4 94q-37 -64 -110 -106.5t-185 -42.5q-174 0 -263 92t-89 274v619q0 25 20 33t89 8q68 0 88 -8t20 -33v-596q0 -104 46.5 -153.5t146.5 -49.5q109 0 171 67t62 177v555q0 25 20 33t89 8q68 0 88 -8t20 -33v-930q0 -25 -19.5 -32t-86.5 -7t-85 7t-18 32z" />
<glyph unicode="v" horiz-adv-x="1024" d="M862 1006q76 0 96.5 -9.5t12.5 -38.5q-54 -196 -149 -469.5t-173 -457.5q-9 -22 -36 -28.5t-101 -6.5t-101 6.5t-36 28.5q-78 184 -173 457.5t-149 469.5q-8 28 14 38t97 10q65 0 88.5 -9t28.5 -30q87 -368 231 -777q156 443 238 777q3 22 25.5 30.5t86.5 8.5z" />
<glyph unicode="w" horiz-adv-x="1566" d="M1386 1006q67 0 88 -8.5t21 -28.5q0 -3 -6 -39q-46 -198 -119 -456.5t-137 -444.5q-7 -20 -31.5 -26.5t-93.5 -6.5q-68 0 -88.5 6.5t-28.5 28.5q-87 253 -209 700q-102 -387 -207 -700q-8 -22 -28 -28.5t-88 -6.5q-69 0 -94 6.5t-31 26.5q-64 182 -136 439t-120 462 q-6 36 -6 39q0 20 20.5 28.5t87.5 8.5q65 0 87.5 -10.5t27.5 -37.5q59 -323 168 -722q123 402 205 729q5 23 27 32t87 9q66 0 89 -9t28 -32q82 -327 205 -729q106 403 168 722q5 28 27 38t87 10z" />
<glyph unicode="x" horiz-adv-x="1026" d="M725 41l-205 381h-16l-207 -381q-15 -29 -38 -37t-95 -8q-106 0 -106 32q0 8 5 17l271 469l-264 442q-22 37 46 47q24 3 62 3q63 0 86 -8t37 -33l203 -361h18l203 361q14 25 36 33t87 8q111 0 112 -32q0 -8 -6 -18l-264 -442l273 -469q19 -36 -45 -46q-24 -3 -60 -3 q-71 0 -94.5 8.5t-38.5 36.5z" />
<glyph unicode="y" horiz-adv-x="1044" d="M240 -197q88 0 130.5 36.5t90.5 150.5q0 1 1 4t1 4q-60 3 -72 33q-78 177 -176 449.5t-160 477.5q-7 29 15 38.5t96 9.5q64 0 87 -8.5t28 -30.5q100 -389 251 -791q70 197 137.5 420.5t100.5 370.5q5 22 27.5 30.5t85.5 8.5q69 0 92.5 -9t17.5 -32q-53 -216 -158.5 -516 t-199.5 -506q-80 -175 -162.5 -250.5t-212.5 -75.5q-80 0 -104 8q-23 6 -31 24.5t-8 65.5q0 60 7.5 77.5t29.5 17.5q3 0 30 -3.5t56 -3.5z" />
<glyph unicode="z" horiz-adv-x="989" d="M850 823l-483 -645h491q22 0 27.5 -15.5t5.5 -72.5q0 -59 -5.5 -74.5t-27.5 -15.5h-729q-22 0 -27.5 15t-5.5 69q0 50 19 78l497 659h-467q-21 0 -26.5 16t-5.5 74t5.5 74t26.5 16h701q21 0 27 -15t6 -68q0 -35 -5.5 -53t-23.5 -42z" />
<glyph unicode="{" horiz-adv-x="735" d="M49 524q0 55 7 70.5t30 15.5h45q36 0 53 20t26 82t9 189q0 61 1 100.5t4.5 90t10 83t18.5 70.5t29.5 62t43 48t58.5 37t76.5 21t96.5 8h70q21 0 26.5 -14.5t5.5 -69.5q0 -56 -5.5 -71t-26.5 -15h-60q-40 0 -66.5 -13.5t-43 -37.5t-24.5 -73t-10.5 -104.5t-2.5 -148.5 q0 -166 -30.5 -245t-94.5 -105q64 -26 94.5 -105t30.5 -245q0 -93 2.5 -148.5t10.5 -104.5t24.5 -73t43 -37.5t66.5 -13.5h60q21 0 26.5 -15t5.5 -71q0 -55 -5.5 -69.5t-26.5 -14.5h-70q-53 0 -96.5 8t-76.5 21t-58.5 37t-43 48t-29.5 62t-18.5 70.5t-10 83t-4.5 90 t-1 100.5q0 127 -9 189t-26 82t-53 20h-45q-23 0 -30 15.5t-7 70.5z" />
<glyph unicode="|" horiz-adv-x="673" d="M442 1380v-1753q0 -25 -19 -33t-85 -8q-68 0 -87.5 8t-19.5 33v1753q0 25 19.5 33t87.5 8q66 0 85 -8t19 -33z" />
<glyph unicode="}" horiz-adv-x="735" d="M686 524q0 -55 -7 -70.5t-30 -15.5h-45q-36 0 -53 -20t-26 -82t-9 -189q0 -61 -1 -100.5t-4.5 -90t-10 -83t-18.5 -70.5t-29.5 -62t-43 -48t-58.5 -37t-76.5 -21t-96.5 -8h-69q-22 0 -27.5 15t-5.5 69q0 56 5.5 71t27.5 15h59q40 0 66.5 13.5t43 37.5t24.5 73t10.5 104.5 t2.5 148.5q0 166 30.5 245t94.5 105q-64 26 -94.5 105t-30.5 245q0 93 -2.5 148.5t-10.5 104.5t-24.5 73t-43 37.5t-66.5 13.5h-59q-22 0 -27.5 15t-5.5 71q0 54 5.5 69t27.5 15h69q53 0 96.5 -8t76.5 -21t58.5 -37t43 -48t29.5 -62t18.5 -70.5t10 -83t4.5 -90t1 -100.5 q0 -127 9 -189t26 -82t53 -20h45q23 0 30 -15.5t7 -70.5z" />
<glyph unicode="~" d="M504 696l170 -92q46 -24 80 -24q75 0 106 102q5 12 16.5 16t49.5 4q46 0 61.5 -10t9.5 -35q-65 -241 -245 -241q-69 0 -127 30l-168 91q-50 26 -80 26q-71 0 -107 -104q-3 -12 -15.5 -16.5t-49.5 -4.5q-45 0 -61 10t-9 35q64 242 244 242q65 0 125 -29z" />
<glyph unicode="&#xa1;" horiz-adv-x="593" d="M297 586q58 0 74 -7.5t16 -31.5l37 -856q2 -31 -23 -41t-104 -10q-81 0 -105 10t-22 41l37 856q0 24 16 31.5t74 7.5zM297 729q-83 0 -108 10t-25 43v168q0 36 24.5 46t108.5 10q83 0 107 -10t24 -46v-168q0 -34 -24.5 -43.5t-106.5 -9.5z" />
<glyph unicode="&#xa2;" horiz-adv-x="1077" d="M567 -4q-63 0 -79.5 6.5t-16.5 30.5v135q-189 26 -275.5 151t-86.5 363q0 237 86.5 362.5t275.5 149.5v139q0 24 16.5 30.5t79.5 6.5q62 0 78.5 -6.5t16.5 -30.5v-135q147 -18 223.5 -93t81.5 -192q0 -31 -19 -39t-92 -8q-64 0 -82 8.5t-20 34.5q-2 39 -29.5 66t-79.5 37 v-660q109 21 115 109q2 26 20 34.5t80 8.5q74 0 92.5 -8t18.5 -39q-2 -122 -80.5 -198t-228.5 -93v-133q0 -24 -16.5 -30.5t-78.5 -6.5zM332 682q0 -154 34.5 -230.5t120.5 -97.5v654q-86 -21 -120.5 -97t-34.5 -229z" />
<glyph unicode="&#xa3;" horiz-adv-x="1222" d="M256 0q-24 -13 -42.5 3t-47.5 65q-19 31 -27.5 48t-9 38t17.5 32q70 43 120 119t50 158q0 69 -24 143h-154q-20 0 -25 14t-5 68q0 56 5 70t25 14h82q-41 109 -41 227q0 177 111.5 277t339.5 100q227 0 334.5 -93t107.5 -277q0 -32 -20.5 -42t-89.5 -10t-90 8.5t-21 36.5 q-2 94 -54 138.5t-167 44.5q-225 0 -225 -189q0 -108 45 -221h307q22 0 27.5 -14.5t5.5 -69.5q0 -54 -5.5 -68t-27.5 -14h-246q23 -86 23 -147q0 -113 -56 -219q118 -54 260 -54q93 0 131 43t39 156q0 27 21.5 36t89.5 9t90.5 -10.5t22.5 -40.5q0 -210 -92 -297.5 t-271 -87.5q-109 0 -210.5 29.5t-176.5 76.5q-56 -59 -127 -100z" />
<glyph unicode="&#xa4;" horiz-adv-x="1171" d="M121 336l88 88q-45 99 -45 254q0 152 43 250l-86 90q-12 12 -4 29.5t41 50.5t50.5 41t29.5 -4l75 -76q104 69 273 69q168 0 272 -69l78 76q12 12 28.5 4.5t51.5 -41.5q32 -34 39.5 -51t-4.5 -29l-86 -88q45 -99 45 -252q0 -151 -47 -254l88 -88q12 -12 4.5 -29t-39.5 -51 q-35 -34 -51.5 -41.5t-28.5 4.5l-78 76q-101 -70 -272 -70q-172 0 -273 70l-75 -76q-12 -12 -29.5 -4t-50.5 41t-41 50.5t4 29.5zM586 401q125 0 175 62t50 215q0 151 -50 212.5t-175 61.5q-124 0 -175 -61.5t-51 -212.5q0 -152 51 -214.5t175 -62.5z" />
<glyph unicode="&#xa5;" horiz-adv-x="1173" d="M1016 371h-314v-334q0 -25 -20.5 -33t-93.5 -8q-74 0 -95.5 8t-21.5 33v334h-313q-20 0 -25.5 14t-5.5 66q0 55 5 68t26 13h291l-72 138h-219q-20 0 -25.5 13.5t-5.5 66.5t5 66t26 13h137q-143 283 -227 484q-12 29 16 38q27 9 100 9q74 0 95 -8t30 -35 q105 -270 277 -623q161 330 278 623q9 27 30.5 35t94.5 8q112 0 120 -25q2 -9 -3 -22q-74 -178 -229 -484h139q21 0 26 -13t5 -66t-5.5 -66.5t-25.5 -13.5h-219l-72 -138h291q21 0 26 -13t5 -68q0 -52 -5.5 -66t-25.5 -14z" />
<glyph unicode="&#xa6;" horiz-adv-x="673" d="M440 305v-680q0 -24 -18.5 -31.5t-83.5 -7.5q-66 0 -84 7.5t-18 31.5v680q0 25 18 33t84 8q65 0 83.5 -8t18.5 -33zM440 1382v-680q0 -25 -18.5 -32.5t-83.5 -7.5q-66 0 -84 7.5t-18 32.5v680q0 24 18 31.5t84 7.5q65 0 83.5 -7.5t18.5 -31.5z" />
<glyph unicode="&#xa7;" horiz-adv-x="1169" d="M334 -82q8 -64 59.5 -98.5t165.5 -34.5q123 0 170 37t47 125q0 85 -49 121.5t-188 66.5q-161 36 -226 65q-145 65 -175 206q-9 41 -9 90q0 224 176 303q-129 95 -129 264q0 313 412 313q207 0 306 -72.5t99 -218.5q0 -28 -18.5 -36.5t-85.5 -8.5q-45 0 -64 3.5t-25 11 t-7 26.5q-5 65 -51 97t-152 32q-201 0 -201 -139q0 -79 56 -126t188 -83q149 -37 173 -45q134 -43 184 -131q40 -70 40 -180q0 -115 -40.5 -188t-125.5 -111q119 -84 119 -264q0 -75 -21 -131.5t-68 -101t-130 -68t-201 -23.5q-226 0 -328 78t-102 215q0 30 17.5 38.5 t85.5 8.5q62 0 78.5 -7.5t19.5 -33.5zM543 705l-33 6q-81 -11 -128.5 -60t-47.5 -135q0 -42 14.5 -74t30.5 -50.5t59 -36t66.5 -23.5t85.5 -21q11 -3 16 -4q29 -8 41 -10q97 9 140.5 56t43.5 147q0 55 -15 89.5t-58.5 56t-73 30t-106.5 22.5q-23 5 -35 7z" />
<glyph unicode="&#xa8;" horiz-adv-x="710" d="M168 1374q74 0 93.5 -10t19.5 -49v-117q0 -37 -20.5 -48t-92.5 -11q-73 0 -92 11.5t-19 53.5v111q0 40 18.5 49.5t92.5 9.5zM541 1374q74 0 93 -10t19 -49v-117q0 -37 -20.5 -48t-91.5 -11q-73 0 -92 11.5t-19 53.5v111q0 40 18.5 49.5t92.5 9.5z" />
<glyph unicode="&#xa9;" horiz-adv-x="1603" d="M489 678q0 220 73.5 313.5t250.5 93.5q139 0 210 -61t71 -178q0 -20 -14 -26.5t-58 -6.5q-45 0 -58.5 6t-13.5 25q-3 61 -34 87.5t-101 26.5q-68 0 -104.5 -23.5t-54 -83.5t-17.5 -173q0 -114 17.5 -175t54 -84.5t104.5 -23.5q70 0 103.5 29.5t33.5 91.5q0 19 14.5 26 t57.5 7q41 0 56.5 -7t15.5 -26q0 -248 -283 -248q-177 0 -250.5 94.5t-73.5 315.5zM801 1372q349 0 497 -164t148 -530q0 -367 -148 -530.5t-497 -163.5q-348 0 -496.5 164t-148.5 530q0 365 148.5 529.5t496.5 164.5zM801 111q145 0 241 30t156 99.5t85.5 174.5t25.5 263 q0 126 -16.5 217.5t-52 159t-95.5 108.5t-144 60.5t-200 19.5q-144 0 -240 -30t-156 -99t-85 -173.5t-25 -262.5t25 -263t85 -174.5t156 -99.5t240 -30z" />
<glyph unicode="&#xaa;" horiz-adv-x="737" d="M463 987h-150q-50 0 -70 -16.5t-20 -55.5q0 -43 21.5 -57t68.5 -14q66 0 108 25.5t42 76.5v41zM256 1182q0 -17 -12.5 -22t-59.5 -5q-51 0 -63 5t-12 26q0 92 61.5 138t191.5 46q140 0 197 -53t57 -160v-391q0 -23 -11.5 -28t-61.5 -5q-51 0 -63.5 5t-12.5 28v53 q-65 -94 -191 -94q-198 0 -198 182q0 93 51 136.5t174 43.5h160v62q0 54 -22 74t-81 20q-56 0 -80 -14t-24 -47z" />
<glyph unicode="&#xab;" horiz-adv-x="1054" d="M111 557q0 38 18 64l184 245q12 18 33 23.5t84 5.5q94 0 94 -24q0 -6 -6 -15l-223 -299l223 -299q21 -32 -37 -39q-20 -2 -51 -2q-63 0 -84 6t-33 25l-184 246q-18 26 -18 63zM506 557q0 38 18 64l185 245q12 18 33 23.5t83 5.5q94 0 94 -24q0 -6 -6 -15l-223 -299 l223 -299q21 -32 -37 -39q-20 -2 -51 -2q-63 0 -83.5 6t-32.5 25l-185 246q-18 26 -18 63z" />
<glyph unicode="&#xad;" horiz-adv-x="829" d="M156 645h518q22 0 28.5 -16t6.5 -74t-6.5 -74t-28.5 -16h-518q-23 0 -29 15.5t-6 74.5t6 74.5t29 15.5z" />
<glyph unicode="&#xae;" horiz-adv-x="1107" d="M553 1372q235 0 336.5 -109.5t101.5 -347.5q0 -237 -101.5 -346.5t-336.5 -109.5q-234 0 -336 109.5t-102 346.5t102 347t336 110zM553 553q191 0 263.5 81.5t72.5 280.5t-72.5 281t-263.5 82q-190 0 -262 -82t-72 -281t72 -280.5t262 -81.5zM541 856h-49v-176 q0 -10 -10.5 -13t-41.5 -3q-32 0 -41.5 3t-9.5 13v469q0 10 8 14t33 4h135q103 0 149 -37t46 -120q0 -102 -90 -136q42 -29 61 -69q32 -66 37 -125q1 -6 -1.5 -9t-13.5 -5t-34 -2q-28 0 -37 3.5t-12 14.5q-8 44 -25 92q-32 76 -102 82h-2zM492 1083v-149h71q56 0 77.5 16 t21.5 60t-21 58.5t-78 14.5h-71z" />
<glyph unicode="&#xaf;" horiz-adv-x="710" d="M627 1151h-545q-20 0 -25.5 13t-5.5 63q0 48 5.5 62t25.5 14h545q20 0 25 -14t5 -62q0 -50 -5 -63t-25 -13z" />
<glyph unicode="&#xb0;" horiz-adv-x="755" d="M377 1372q134 0 196 -61.5t62 -186.5q0 -126 -61.5 -186.5t-196.5 -60.5q-134 0 -196 60.5t-62 186.5q0 125 62.5 186.5t195.5 61.5zM377 997q73 0 102 29.5t29 97.5t-29 97.5t-102 29.5q-71 0 -100 -29.5t-29 -97.5t29 -97.5t100 -29.5z" />
<glyph unicode="&#xb1;" d="M659 1124v-293h297q22 0 28.5 -17t6.5 -75q0 -57 -6.5 -73.5t-28.5 -16.5h-297v-291q0 -23 -16.5 -29.5t-77.5 -6.5t-77.5 6.5t-16.5 29.5v291h-295q-23 0 -30 16.5t-7 73.5q0 58 7 75t30 17h295v293q0 21 17 28t77 7t77 -7t17 -28zM174 176h784q21 0 27 -15.5t6 -72.5 q0 -56 -6 -72t-27 -16h-784q-22 0 -28.5 16t-6.5 72q0 57 6.5 72.5t28.5 15.5z" />
<glyph unicode="&#xb2;" horiz-adv-x="710" d="M592 659h-483q-14 0 -19.5 12t-5.5 50v20q0 32 11 61t26 49t45 44t52 38.5t63 39.5q13 8 48 28t50.5 31t37.5 30.5t31 42t9 50.5q0 96 -103 96q-58 0 -85.5 -21.5t-28.5 -70.5q0 -18 -12.5 -22t-61.5 -4q-46 0 -60 5t-14 23q1 112 67.5 162.5t196.5 50.5t191 -57t61 -156 q0 -51 -18.5 -93t-55.5 -74t-68.5 -53t-79.5 -47q-11 -6 -17 -9q-7 -4 -24 -13.5t-24 -14t-21 -13t-20.5 -14.5t-15.5 -14t-14 -15.5t-8 -16.5h350q14 0 18 -11t4 -52q0 -39 -4 -50.5t-18 -11.5z" />
<glyph unicode="&#xb3;" horiz-adv-x="710" d="M342 965h-53q-14 0 -18.5 10.5t-4.5 44.5q0 36 4.5 45.5t18.5 9.5h55q60 0 83.5 21t23.5 75q0 44 -26.5 63t-80.5 19q-57 0 -82.5 -17.5t-28.5 -53.5q-2 -16 -14 -21.5t-57 -5.5q-49 0 -62.5 5.5t-13.5 27.5q3 186 260 186q254 0 254 -194q0 -114 -88 -152 q102 -31 102 -164q0 -103 -66 -160t-196 -57q-269 0 -272 191q-1 21 12.5 26.5t61.5 5.5q49 0 59.5 -4.5t13.5 -25.5q5 -35 32.5 -52.5t90.5 -17.5q115 0 115 102q0 55 -28.5 74t-94.5 19z" />
<glyph unicode="&#xb4;" horiz-adv-x="710" d="M551 1284l-330 -156q-18 -10 -29.5 -3.5t-31.5 42.5q-20 34 -20.5 46t16.5 24l309 201q18 14 34 2.5t44 -62.5q28 -50 28.5 -68.5t-20.5 -25.5z" />
<glyph unicode="&#xb6;" horiz-adv-x="1101" d="M1022 1212h-104q-64 0 -87.5 -22t-23.5 -88v-1118q0 -112 -20.5 -186t-62 -112.5t-93 -53.5t-125.5 -15q-78 0 -111 10q-23 6 -29 20t-6 68q0 59 6.5 74.5t30.5 15.5q5 0 28 -2t34 -2q73 0 105 40.5t32 156.5v471h-39q-92 0 -155.5 7.5t-114.5 28.5t-81 53t-50 86 t-27.5 122t-7.5 166t7.5 166.5t27.5 122.5t50 86t81 53t114.5 29t155.5 8h465q22 0 27.5 -16.5t5.5 -75.5t-6 -76t-27 -17z" />
<glyph unicode="&#xb7;" horiz-adv-x="514" d="M258 416q-83 0 -108 10t-25 43v168q0 36 24 45.5t109 9.5q83 0 107 -9.5t24 -45.5v-168q0 -34 -24.5 -43.5t-106.5 -9.5z" />
<glyph unicode="&#xb8;" horiz-adv-x="710" d="M406 -98h20q110 0 158.5 -31.5t48.5 -128.5q0 -99 -48.5 -134.5t-154.5 -35.5h-201q-17 0 -20.5 9.5t-3.5 49.5q0 39 3.5 49.5t20.5 10.5h197q39 2 54.5 11.5t15.5 39.5q0 33 -18 43t-62 10h-105q-34 0 -47 6.5t-6 26.5l55 176q4 12 16 15.5t46 3.5t46.5 -6.5t8.5 -24.5z " />
<glyph unicode="&#xb9;" horiz-adv-x="710" d="M578 659h-426q-14 0 -18.5 11.5t-4.5 50.5q0 40 4.5 51.5t18.5 11.5h143v435l-139 -29q-13 -2 -19 11.5t-6 51.5q0 37 4.5 50t16.5 16l260 55q34 8 34 -18v-572h132q14 0 18 -11t4 -52q0 -39 -4 -50.5t-18 -11.5z" />
<glyph unicode="&#xba;" horiz-adv-x="780" d="M254 1047q0 -107 29 -150t106 -43q78 0 107.5 43t29.5 150q0 108 -29.5 151t-107.5 43q-77 0 -106 -43.5t-29 -150.5zM96 1047q0 166 68 244.5t225 78.5q158 0 226.5 -78.5t68.5 -244.5t-68.5 -244t-226.5 -78q-157 0 -225 78t-68 244z" />
<glyph unicode="&#xbb;" horiz-adv-x="1054" d="M549 557q0 -36 -19 -63l-184 -246q-12 -19 -33 -25t-84 -6q-94 0 -94 25q0 7 6 16l224 299l-224 299q-19 28 27 36q22 3 61 3q63 0 84 -5.5t33 -23.5l184 -245q19 -27 19 -64zM944 557q0 -37 -18 -63l-185 -246q-12 -19 -32.5 -25t-83.5 -6q-94 0 -94 25q0 7 6 16 l223 299l-223 299q-19 28 27 36q22 3 61 3q62 0 83 -5.5t33 -23.5l185 -245q18 -26 18 -64z" />
<glyph unicode="&#xbc;" horiz-adv-x="1701" d="M1454 -2q-49 0 -62.5 6t-13.5 27v141h-325q-18 0 -22.5 9.5t-4.5 47.5q0 28 3 40.5t13 25.5l297 397q11 15 28.5 20t70.5 5q58 0 75 -5t17 -24v-397h84q14 0 18 -10.5t4 -49.5t-4 -49t-18 -10h-84v-141q0 -21 -13 -27t-63 -6zM1358 1319l-688 -1288q-13 -23 -29.5 -29 t-77.5 -6q-49 0 -63.5 8.5t-3.5 30.5l690 1288q11 23 27.5 30t76.5 7q50 0 64.5 -9.5t3.5 -31.5zM578 659h-426q-14 0 -18.5 11.5t-4.5 50.5q0 40 4.5 51.5t18.5 11.5h143v435l-139 -29q-13 -2 -19 11.5t-6 51.5q0 37 4.5 50t16.5 16l260 55q34 8 34 -18v-572h132 q14 0 18 -11t4 -52q0 -39 -4 -50.5t-18 -11.5zM1176 291h208v280z" />
<glyph unicode="&#xbd;" horiz-adv-x="1701" d="M1296 1319l-688 -1288q-9 -16 -16.5 -22.5t-27 -9.5t-62.5 -3q-49 0 -64 8.5t-4 30.5l690 1288q11 23 28 30t77 7q50 0 64 -9.5t3 -31.5zM1583 -4h-483q-14 0 -19.5 11.5t-5.5 49.5v21q0 40 13.5 72t46 61.5t58.5 47.5t79 50q13 8 48.5 28t50.5 31t37 31t31 42.5t9 50.5 q0 49 -24.5 72.5t-77.5 23.5q-58 0 -86 -21.5t-29 -70.5q0 -18 -12.5 -22.5t-61.5 -4.5q-45 0 -59.5 5.5t-14.5 23.5q1 112 68 162.5t197 50.5t190.5 -56.5t60.5 -156.5q0 -42 -14 -78.5t-34.5 -62t-52.5 -50.5t-59.5 -41.5t-63.5 -36.5q-10 -5 -15 -8q-8 -4 -28 -15.5 t-28 -16.5t-23 -15t-22 -17t-15 -16.5t-11 -19.5h350q14 0 18.5 -12t4.5 -52q0 -39 -4.5 -50t-18.5 -11zM578 659h-426q-14 0 -18.5 11.5t-4.5 50.5q0 40 4.5 51.5t18.5 11.5h143v435l-139 -29q-13 -2 -19 11.5t-6 51.5q0 37 4.5 50t16.5 16l260 55q34 8 34 -18v-572h132 q14 0 18 -11t4 -52q0 -39 -4 -50.5t-18 -11.5z" />
<glyph unicode="&#xbe;" horiz-adv-x="1701" d="M1454 -2q-49 0 -62.5 6t-13.5 27v141h-325q-18 0 -22.5 9.5t-4.5 47.5q0 28 3 40.5t13 25.5l297 397q11 15 28.5 20t70.5 5q58 0 75 -5t17 -24v-397h84q14 0 18 -10.5t4 -49.5t-4 -49t-18 -10h-84v-141q0 -21 -13 -27t-63 -6zM1321 1319l-688 -1288q-13 -23 -29.5 -29 t-77.5 -6q-49 0 -63.5 8.5t-3.5 30.5l690 1288q11 23 27.5 30t76.5 7q50 0 64.5 -9.5t3.5 -31.5zM342 965h-53q-14 0 -18.5 10.5t-4.5 44.5q0 36 4.5 45.5t18.5 9.5h55q60 0 83.5 21t23.5 75q0 44 -26.5 63t-80.5 19q-57 0 -82.5 -17.5t-28.5 -53.5q-2 -16 -14 -21.5 t-57 -5.5q-49 0 -62.5 5.5t-13.5 27.5q3 186 260 186q254 0 254 -194q0 -114 -88 -152q102 -31 102 -164q0 -103 -66 -160t-196 -57q-269 0 -272 191q-1 21 12.5 26.5t61.5 5.5q49 0 59.5 -4.5t13.5 -25.5q5 -35 32.5 -52.5t90.5 -17.5q115 0 115 102q0 55 -28.5 74 t-94.5 19zM1176 291h208v280z" />
<glyph unicode="&#xbf;" horiz-adv-x="1118" d="M487 506l5 45q3 24 19 31.5t77 7.5t77 -7.5t19 -31.5l4 -49q4 -53 -12.5 -97.5t-45.5 -77t-65.5 -62t-74 -57.5t-68.5 -57.5t-50.5 -69t-19.5 -85.5q0 -91 49.5 -135.5t163.5 -44.5q119 0 174.5 45.5t59.5 146.5q0 27 19 36t87 9t89.5 -9.5t21.5 -39.5 q0 -196 -115.5 -287.5t-339.5 -91.5q-226 0 -330 96t-104 259q0 78 25.5 139.5t63.5 97t83.5 69.5t85 60.5t68.5 67.5t34 92zM588 729q-83 0 -108 10t-25 43v168q0 36 24.5 46t108.5 10q83 0 107 -10t24 -46v-168q0 -34 -24.5 -43.5t-106.5 -9.5z" />
<glyph unicode="&#xc0;" horiz-adv-x="1210" d="M1047 -4q-73 0 -95 8.5t-30 38.5q-39 157 -84 313h-459q-29 -101 -82 -313q-8 -30 -30.5 -38.5t-96.5 -8.5q-70 0 -92.5 9.5t-14.5 35.5q69 273 188 653.5t214 622.5q9 26 35.5 34.5t107.5 8.5q82 0 109.5 -8.5t36.5 -34.5q94 -241 213 -621t188 -655q8 -26 -14 -35.5 t-94 -9.5zM608 1106q-96 -283 -176 -561h352q-75 262 -176 561zM590 1462l-346 156q-23 8 -22.5 27t28.5 71t44 63.5t34 -3.5l327 -203q18 -11 18 -23.5t-20 -46.5q-20 -37 -30.5 -43.5t-32.5 2.5z" />
<glyph unicode="&#xc1;" horiz-adv-x="1210" d="M1047 -4q-73 0 -95 8.5t-30 38.5q-39 157 -84 313h-459q-29 -101 -82 -313q-8 -30 -30.5 -38.5t-96.5 -8.5q-70 0 -92.5 9.5t-14.5 35.5q69 273 188 653.5t214 622.5q9 26 35.5 34.5t107.5 8.5q82 0 109.5 -8.5t36.5 -34.5q94 -241 213 -621t188 -655q8 -26 -14 -35.5 t-94 -9.5zM608 1106q-96 -283 -176 -561h352q-75 262 -176 561zM979 1618l-346 -156q-22 -9 -33 -2t-31 43q-20 35 -20.5 47.5t18.5 22.5l328 203q18 15 34 3.5t44 -63.5q27 -52 27 -71t-21 -27z" />
<glyph unicode="&#xc2;" horiz-adv-x="1210" d="M1047 -4q-73 0 -95 8.5t-30 38.5q-39 157 -84 313h-459q-29 -101 -82 -313q-8 -30 -30.5 -38.5t-96.5 -8.5q-70 0 -92.5 9.5t-14.5 35.5q69 273 188 653.5t214 622.5q9 26 35.5 34.5t107.5 8.5q82 0 109.5 -8.5t36.5 -34.5q94 -241 213 -621t188 -655q8 -26 -14 -35.5 t-94 -9.5zM608 1106q-96 -283 -176 -561h352q-75 262 -176 561zM608 1587l-123 -106q-28 -25 -88 -25q-100 0 -72 36l3 3l188 209q13 17 31.5 24t60.5 7q44 0 62 -7t32 -24l189 -209q31 -39 -70 -39q-60 0 -88 25z" />
<glyph unicode="&#xc3;" horiz-adv-x="1210" d="M1047 -4q-73 0 -95 8.5t-30 38.5q-39 157 -84 313h-459q-29 -101 -82 -313q-8 -30 -30.5 -38.5t-96.5 -8.5q-70 0 -92.5 9.5t-14.5 35.5q69 273 188 653.5t214 622.5q9 26 35.5 34.5t107.5 8.5q82 0 109.5 -8.5t36.5 -34.5q94 -241 213 -621t188 -655q8 -26 -14 -35.5 t-94 -9.5zM784 1651v24q2 20 15 26.5t55 6.5q44 0 58 -7.5t12 -29.5l-4 -61q-6 -85 -50 -120.5t-108 -33.5q-67 0 -135 39l-101 55q-31 17 -49 17q-43 0 -43 -54v-24q-2 -21 -14.5 -27t-54.5 -6q-44 0 -58 7.5t-12 29.5l4 59q6 86 50 122t108 34q67 0 135 -39l100 -55 q34 -19 49 -19q41 0 43 56zM608 1106q-96 -283 -176 -561h352q-75 262 -176 561z" />
<glyph unicode="&#xc4;" horiz-adv-x="1210" d="M1047 -4q-73 0 -95 8.5t-30 38.5q-39 157 -84 313h-459q-29 -101 -82 -313q-8 -30 -30.5 -38.5t-96.5 -8.5q-70 0 -92.5 9.5t-14.5 35.5q69 273 188 653.5t214 622.5q9 26 35.5 34.5t107.5 8.5q82 0 109.5 -8.5t36.5 -34.5q94 -241 213 -621t188 -655q8 -26 -14 -35.5 t-94 -9.5zM608 1106q-96 -283 -176 -561h352q-75 262 -176 561zM414 1700q74 0 93 -10t19 -50v-116q0 -37 -20.5 -48.5t-91.5 -11.5q-72 0 -91.5 12t-19.5 54v110q0 40 18.5 50t92.5 10zM803 1700q74 0 93 -10t19 -50v-116q0 -37 -20.5 -48.5t-91.5 -11.5q-72 0 -91.5 12 t-19.5 54v110q0 40 19.5 50t91.5 10z" />
<glyph unicode="&#xc5;" horiz-adv-x="1210" d="M1047 -4q-73 0 -95 8.5t-30 38.5q-39 157 -84 313h-459q-29 -101 -82 -313q-8 -30 -30.5 -38.5t-96.5 -8.5q-70 0 -92.5 9.5t-14.5 35.5q67 269 184 645t212 619q-53 47 -53 145q0 192 204 192q205 0 205 -192q0 -102 -57 -147q93 -240 209.5 -613.5t187.5 -648.5 q8 -26 -14 -35.5t-94 -9.5zM608 1106q-96 -283 -176 -561h352q-75 262 -176 561zM610 1360q51 0 73 20.5t22 69.5t-22 69.5t-73 20.5t-72.5 -20.5t-21.5 -69.5q0 -46 18.5 -67.5t61.5 -22.5h12h2z" />
<glyph unicode="&#xc6;" horiz-adv-x="1832" d="M1663 1157h-543v-364h477q24 0 31.5 -17.5t7.5 -81.5t-7.5 -81t-31.5 -17h-477v-397h551q24 0 31.5 -18t7.5 -81q0 -64 -7.5 -82t-31.5 -18h-672q-68 0 -88 8t-20 35v305h-477q-103 -223 -138 -305q-12 -29 -37 -38t-98 -9q-66 0 -90 9t-12 36q130 295 305.5 652.5 t321.5 617.5q14 27 41 36t108 9h848q24 0 31.5 -18.5t7.5 -82.5q0 -63 -7.5 -80.5t-31.5 -17.5zM815 1157q-171 -330 -307 -612h383v612h-76z" />
<glyph unicode="&#xc7;" horiz-adv-x="1232" d="M629 -96h18q113 0 163 -33t50 -133q0 -102 -50.5 -138t-160.5 -36h-192q-17 0 -22 10.5t-5 50.5q0 39 5 50.5t22 11.5h188q40 2 56 11.5t16 39.5q0 34 -18 43.5t-64 9.5h-107q-33 0 -46.5 7t-6.5 26l51 164q-223 32 -315 193t-92 497q0 192 27 321t91 215t166.5 124 t255.5 38q231 0 346 -101.5t115 -297.5q0 -30 -20.5 -38.5t-91.5 -8.5q-70 0 -90.5 8t-20.5 35q-3 104 -59 154.5t-179 50.5q-122 0 -185.5 -43t-91.5 -149t-28 -308q0 -122 9.5 -205t30.5 -142t58 -91.5t87 -47t123 -14.5q127 0 180.5 52t56.5 163q2 27 23 36t90 9t90.5 -9 t21.5 -38q-2 -205 -113.5 -308t-348.5 -103h-13z" />
<glyph unicode="&#xc8;" horiz-adv-x="1153" d="M983 1157h-586v-364h514q24 0 31.5 -17.5t7.5 -81.5t-7.5 -81t-31.5 -17h-514v-397h592q24 0 31.5 -18t7.5 -81q0 -64 -7.5 -82t-31.5 -18h-715q-68 0 -87 8t-19 35v1270q0 27 19 35t87 8h709q22 0 29.5 -18.5t7.5 -82.5q0 -63 -7 -80.5t-30 -17.5zM627 1462l-346 156 q-23 8 -22.5 27t28.5 71t44 63.5t34 -3.5l327 -203q18 -11 18 -23.5t-20 -46.5q-20 -37 -30.5 -43.5t-32.5 2.5z" />
<glyph unicode="&#xc9;" horiz-adv-x="1153" d="M983 1157h-586v-364h514q24 0 31.5 -17.5t7.5 -81.5t-7.5 -81t-31.5 -17h-514v-397h592q24 0 31.5 -18t7.5 -81q0 -64 -7.5 -82t-31.5 -18h-715q-68 0 -87 8t-19 35v1270q0 27 19 35t87 8h709q22 0 29.5 -18.5t7.5 -82.5q0 -63 -7 -80.5t-30 -17.5zM918 1618l-347 -156 q-22 -9 -32.5 -2.5t-30.5 43.5q-20 35 -20.5 47.5t18.5 22.5l328 203q18 15 33.5 4t43.5 -64q27 -52 27.5 -70.5t-20.5 -27.5z" />
<glyph unicode="&#xca;" horiz-adv-x="1153" d="M983 1157h-586v-364h514q24 0 31.5 -17.5t7.5 -81.5t-7.5 -81t-31.5 -17h-514v-397h592q24 0 31.5 -18t7.5 -81q0 -64 -7.5 -82t-31.5 -18h-715q-68 0 -87 8t-19 35v1270q0 27 19 35t87 8h709q22 0 29.5 -18.5t7.5 -82.5q0 -63 -7 -80.5t-30 -17.5zM592 1587l-123 -106 q-28 -25 -88 -25q-88 0 -78 27l8 12l189 209q13 17 31.5 24t60.5 7q44 0 62 -7t32 -24l188 -209q26 -32 -37 -38q-14 -1 -32 -1q-60 0 -88 25z" />
<glyph unicode="&#xcb;" horiz-adv-x="1153" d="M983 1157h-586v-364h514q24 0 31.5 -17.5t7.5 -81.5t-7.5 -81t-31.5 -17h-514v-397h592q24 0 31.5 -18t7.5 -81q0 -64 -7.5 -82t-31.5 -18h-715q-68 0 -87 8t-19 35v1270q0 27 19 35t87 8h709q22 0 29.5 -18.5t7.5 -82.5q0 -63 -7 -80.5t-30 -17.5zM403 1700 q74 0 93.5 -10t19.5 -50v-116q0 -37 -21 -48.5t-92 -11.5q-72 0 -91 12t-19 54v110q0 40 18.5 50t91.5 10zM793 1700q74 0 93 -10t19 -50v-116q0 -37 -20.5 -48.5t-91.5 -11.5q-72 0 -91.5 12t-19.5 54v110q0 40 19.5 50t91.5 10z" />
<glyph unicode="&#xcc;" horiz-adv-x="573" d="M287 -4q-74 0 -94.5 8t-20.5 35v1278q0 27 20.5 35t94.5 8q73 0 93.5 -8t20.5 -35v-1278q0 -27 -20.5 -35t-93.5 -8zM266 1462l-346 156q-23 8 -22.5 27t28.5 71t44 63.5t34 -3.5l328 -203q18 -11 18 -23.5t-20 -46.5q-20 -36 -31 -43t-33 2z" />
<glyph unicode="&#xcd;" horiz-adv-x="573" d="M287 -4q-74 0 -94.5 8t-20.5 35v1278q0 27 20.5 35t94.5 8q73 0 93.5 -8t20.5 -35v-1278q0 -27 -20.5 -35t-93.5 -8zM653 1618l-346 -156q-22 -9 -32.5 -2.5t-30.5 43.5q-20 35 -20.5 47.5t18.5 22.5l327 203q18 15 34 3.5t44 -63.5q27 -52 27 -71t-21 -27z" />
<glyph unicode="&#xce;" horiz-adv-x="573" d="M287 -4q-74 0 -94.5 8t-20.5 35v1278q0 27 20.5 35t94.5 8q73 0 93.5 -8t20.5 -35v-1278q0 -27 -20.5 -35t-93.5 -8zM287 1587l-123 -106q-28 -25 -88 -25q-88 0 -78 27l8 12l189 209q13 17 31.5 24t60.5 7q44 0 62 -7t32 -24l188 -209q26 -32 -37 -38q-14 -1 -32 -1 q-60 0 -88 25z" />
<glyph unicode="&#xcf;" horiz-adv-x="573" d="M287 -4q-74 0 -94.5 8t-20.5 35v1278q0 27 20.5 35t94.5 8q73 0 93.5 -8t20.5 -35v-1278q0 -27 -20.5 -35t-93.5 -8zM92 1700q74 0 93.5 -10t19.5 -50v-116q0 -37 -21 -48.5t-92 -11.5q-72 0 -91 12t-19 54v110q0 40 18.5 50t91.5 10zM481 1700q74 0 93.5 -10t19.5 -50 v-116q0 -37 -21 -48.5t-92 -11.5q-72 0 -91 12t-19 54v110q0 40 19 50t91 10z" />
<glyph unicode="&#xd0;" horiz-adv-x="1296" d="M625 0h-346q-68 0 -87.5 8t-19.5 35v526h-106q-20 0 -25.5 13.5t-5.5 64.5q0 52 5.5 65t25.5 13h106v588q0 27 19.5 35t87.5 8h346q157 0 262.5 -37.5t170.5 -122t92.5 -209t27.5 -309.5t-27.5 -309.5t-92.5 -209t-170.5 -122t-262.5 -37.5zM401 197h224q96 0 155.5 21.5 t96.5 78.5t51 146t14 235t-14 235t-51 146t-96.5 78.5t-155.5 21.5h-224v-434h213q20 0 25.5 -14t5.5 -64q0 -51 -5.5 -64.5t-25.5 -13.5h-213v-372z" />
<glyph unicode="&#xd1;" horiz-adv-x="1357" d="M1077 1360q74 0 94.5 -8t20.5 -35v-1278q0 -27 -23 -35t-110 -8q-67 0 -90 7t-35 30l-539 946v-940q0 -27 -21 -35t-93 -8t-92.5 8t-20.5 35v1278q0 27 23 35t110 8q66 0 88.5 -7t34.5 -30l541 -952v946q0 27 20 35t92 8zM854 1651v24q2 20 15 26.5t55 6.5 q44 0 57.5 -7.5t11.5 -29.5l-4 -61q-6 -85 -50 -120.5t-108 -33.5q-67 0 -135 39l-100 55q-31 17 -49 17q-43 0 -43 -54v-24q-2 -20 -15 -26.5t-55 -6.5q-44 0 -57.5 7.5t-11.5 29.5l4 59q6 86 49.5 122t107.5 34q68 0 136 -39l100 -55q34 -19 49 -19q41 0 43 56z" />
<glyph unicode="&#xd2;" horiz-adv-x="1320" d="M662 1376q296 0 418 -160t122 -538t-122 -538t-418 -160q-297 0 -420 160t-123 538t123 538t420 160zM662 176q117 0 181 43t94 151t30 308t-30 308t-94 151t-181 43q-89 0 -145.5 -22.5t-94 -80t-53 -153t-15.5 -246.5t15.5 -246.5t53 -153t94 -80t145.5 -22.5z M670 1462l-346 156q-23 8 -22.5 27t28.5 71t44 63.5t34 -3.5l327 -203q18 -11 18 -23.5t-20 -46.5q-20 -37 -30.5 -43.5t-32.5 2.5z" />
<glyph unicode="&#xd3;" horiz-adv-x="1320" d="M662 1376q296 0 418 -160t122 -538t-122 -538t-418 -160q-297 0 -420 160t-123 538t123 538t420 160zM662 176q117 0 181 43t94 151t30 308t-30 308t-94 151t-181 43q-89 0 -145.5 -22.5t-94 -80t-53 -153t-15.5 -246.5t15.5 -246.5t53 -153t94 -80t145.5 -22.5z M997 1618l-346 -156q-22 -9 -32.5 -2.5t-30.5 43.5q-20 35 -20.5 47.5t18.5 22.5l327 203q18 15 34 3.5t44 -63.5q27 -52 27 -71t-21 -27z" />
<glyph unicode="&#xd4;" horiz-adv-x="1320" d="M662 1376q296 0 418 -160t122 -538t-122 -538t-418 -160q-297 0 -420 160t-123 538t123 538t420 160zM662 176q117 0 181 43t94 151t30 308t-30 308t-94 151t-181 43q-89 0 -145.5 -22.5t-94 -80t-53 -153t-15.5 -246.5t15.5 -246.5t53 -153t94 -80t145.5 -22.5z M659 1587l-122 -106q-28 -25 -88 -25q-88 0 -78 27l8 12l188 209q13 17 31.5 24t60.5 7q44 0 63 -7t32 -24l188 -209q31 -39 -70 -39q-60 0 -88 25z" />
<glyph unicode="&#xd5;" horiz-adv-x="1320" d="M662 1376q296 0 418 -160t122 -538t-122 -538t-418 -160q-297 0 -420 160t-123 538t123 538t420 160zM662 176q117 0 181 43t94 151t30 308t-30 308t-94 151t-181 43q-89 0 -145.5 -22.5t-94 -80t-53 -153t-15.5 -246.5t15.5 -246.5t53 -153t94 -80t145.5 -22.5z M836 1651v24q2 21 14.5 27t54.5 6q44 0 58 -7.5t12 -29.5l-4 -61q-6 -85 -50 -120.5t-108 -33.5q-67 0 -135 39l-100 55q-31 17 -50 17q-43 0 -43 -54v-24q-2 -21 -14.5 -27t-54.5 -6q-44 0 -58 7.5t-12 29.5l4 59q6 86 50 122t108 34q67 0 135 -39l100 -55q34 -19 50 -19 q41 0 43 56z" />
<glyph unicode="&#xd6;" horiz-adv-x="1320" d="M662 1376q296 0 418 -160t122 -538t-122 -538t-418 -160q-297 0 -420 160t-123 538t123 538t420 160zM662 176q117 0 181 43t94 151t30 308t-30 308t-94 151t-181 43q-89 0 -145.5 -22.5t-94 -80t-53 -153t-15.5 -246.5t15.5 -246.5t53 -153t94 -80t145.5 -22.5z M465 1700q74 0 93.5 -10t19.5 -50v-116q0 -37 -21 -48.5t-92 -11.5q-72 0 -91.5 12t-19.5 54v110q0 40 18.5 50t92.5 10zM854 1700q74 0 93.5 -10t19.5 -50v-116q0 -37 -21 -48.5t-92 -11.5q-72 0 -91.5 12t-19.5 54v110q0 40 19.5 50t91.5 10z" />
<glyph unicode="&#xd7;" d="M819 252l-254 254l-254 -254q-12 -17 -30.5 -9.5t-59.5 48.5t-48.5 60t9.5 32l252 252l-252 254q-17 13 -9.5 32t48.5 60t59.5 48.5t30.5 -9.5l254 -254l254 254q14 16 31.5 9t60.5 -48q41 -41 48.5 -59.5t-9.5 -30.5l-256 -256l256 -254q17 -12 9.5 -30.5t-48.5 -59.5 q-43 -41 -60.5 -48t-31.5 9z" />
<glyph unicode="&#xd8;" horiz-adv-x="1329" d="M666 1376q175 0 288 -55l47 78q13 21 32.5 28t78.5 7q37 0 56 -5t21 -13.5t-3 -20.5l-107 -174q127 -159 127 -543q0 -378 -122 -538t-418 -160q-174 0 -289 53l-49 -84q-11 -21 -31.5 -28t-79.5 -7q-77 0 -77 23q0 8 5 16l107 178q-129 158 -129 547q0 378 123 538 t420 160zM358 678q0 -215 33 -324l461 779q-64 47 -186 47q-89 0 -145.5 -22.5t-94 -80t-53 -153t-15.5 -246.5zM666 176q117 0 181 43t94 151t30 308q0 217 -35 323l-459 -780q64 -45 189 -45z" />
<glyph unicode="&#xd9;" horiz-adv-x="1318" d="M659 -20q-269 0 -385 122.5t-116 393.5v821q0 27 20.5 35t93.5 8t94 -8t21 -35v-811q0 -175 58.5 -246.5t213.5 -71.5q156 0 215.5 71.5t59.5 246.5v811q0 27 20.5 35t94.5 8q73 0 93.5 -8t20.5 -35v-821q0 -272 -116.5 -394t-387.5 -122zM637 1462l-346 156 q-23 8 -22.5 27t28.5 71t44 63.5t34 -3.5l327 -203q18 -11 18 -23.5t-20 -46.5q-20 -37 -30.5 -43.5t-32.5 2.5z" />
<glyph unicode="&#xda;" horiz-adv-x="1318" d="M659 -20q-269 0 -385 122.5t-116 393.5v821q0 27 20.5 35t93.5 8t94 -8t21 -35v-811q0 -175 58.5 -246.5t213.5 -71.5q156 0 215.5 71.5t59.5 246.5v811q0 27 20.5 35t94.5 8q73 0 93.5 -8t20.5 -35v-821q0 -272 -116.5 -394t-387.5 -122zM1026 1618l-346 -156 q-22 -9 -33 -2t-31 43q-20 35 -20.5 47.5t18.5 22.5l328 203q18 15 34 3.5t44 -63.5q27 -52 27 -71t-21 -27z" />
<glyph unicode="&#xdb;" horiz-adv-x="1318" d="M659 -20q-269 0 -385 122.5t-116 393.5v821q0 27 20.5 35t93.5 8t94 -8t21 -35v-811q0 -175 58.5 -246.5t213.5 -71.5q156 0 215.5 71.5t59.5 246.5v811q0 27 20.5 35t94.5 8q73 0 93.5 -8t20.5 -35v-821q0 -272 -116.5 -394t-387.5 -122zM659 1587l-122 -106 q-28 -25 -88 -25q-88 0 -78 27l8 12l188 209q13 17 31.5 24t60.5 7q44 0 63 -7t32 -24l188 -209q31 -39 -70 -39q-60 0 -88 25z" />
<glyph unicode="&#xdc;" horiz-adv-x="1318" d="M659 -20q-269 0 -385 122.5t-116 393.5v821q0 27 20.5 35t93.5 8t94 -8t21 -35v-811q0 -175 58.5 -246.5t213.5 -71.5q156 0 215.5 71.5t59.5 246.5v811q0 27 20.5 35t94.5 8q73 0 93.5 -8t20.5 -35v-821q0 -272 -116.5 -394t-387.5 -122zM465 1700q74 0 93.5 -10 t19.5 -50v-116q0 -37 -21 -48.5t-92 -11.5q-72 0 -91.5 12t-19.5 54v110q0 40 18.5 50t92.5 10zM854 1700q74 0 93.5 -10t19.5 -50v-116q0 -37 -21 -48.5t-92 -11.5q-72 0 -91.5 12t-19.5 54v110q0 40 19.5 50t91.5 10z" />
<glyph unicode="&#xdd;" horiz-adv-x="1167" d="M872 1317q11 28 31.5 35.5t95.5 7.5q40 0 65 -2.5t38.5 -8t16 -14.5t-2.5 -22q-70 -157 -196 -404.5t-222 -414.5v-457q0 -25 -20.5 -33t-93.5 -8t-94 8t-21 33v457q-96 167 -222 414.5t-196 404.5q-5 13 -2.5 22t16 14.5t38.5 8t65 2.5q52 0 76 -4t33.5 -12t17.5 -27 q123 -306 287 -629q149 288 290 629zM952 1618l-346 -156q-22 -9 -32.5 -2.5t-30.5 43.5q-20 35 -20.5 47.5t18.5 22.5l327 203q18 15 34 3.5t44 -63.5q27 -52 27 -71t-21 -27z" />
<glyph unicode="&#xde;" horiz-adv-x="1183" d="M596 303h-199v-264q0 -27 -21 -35t-93 -8q-74 0 -94.5 8t-20.5 35v1278q0 27 20.5 35t94.5 8q72 0 93 -8t21 -35v-176h199q256 0 368.5 -100.5t112.5 -319.5t-113 -318.5t-368 -99.5zM397 942v-444h193q141 0 196.5 47t55.5 176q0 126 -57 173.5t-195 47.5h-193z" />
<glyph unicode="&#xdf;" horiz-adv-x="1368" d="M631 688q-21 2 -27 17t-6 71q0 55 6 70.5t27 15.5q179 12 250 56.5t71 156.5q0 91 -68 135.5t-214 44.5q-87 0 -145 -15t-90 -46t-45 -72t-13 -100v-987q0 -25 -18.5 -32t-88.5 -7t-88 7t-18 32v966q0 108 23.5 185t80 135t156.5 86.5t246 28.5q493 0 493 -346 q0 -141 -79 -218.5t-214 -93.5q69 -11 121.5 -27t104.5 -47t85.5 -74.5t54.5 -112t21 -157.5q0 -380 -380 -380q-101 0 -171.5 19.5t-110 57.5t-56.5 85.5t-17 111.5q0 30 17.5 38.5t85.5 8.5q61 0 78 -7.5t20 -33.5q9 -61 37 -88t112 -27q99 0 138 54.5t39 158.5 q0 90 -19 147t-70 95t-127 57t-202 31z" />
<glyph unicode="&#xe0;" horiz-adv-x="1079" d="M358 723q0 -24 -19 -31.5t-85 -7.5q-69 0 -86.5 8t-17.5 39q0 141 96.5 216t292.5 75q113 0 191.5 -22.5t124.5 -67t66.5 -105t20.5 -143.5v-649q0 -25 -18.5 -32t-85.5 -7t-86 7t-19 32l-2 88q-86 -139 -303 -139q-171 0 -251.5 76t-80.5 206q0 150 87.5 223.5 t275.5 73.5h268v111q0 96 -41 133t-147 37q-96 0 -138.5 -29.5t-42.5 -91.5zM727 412h-252q-94 0 -130 -32.5t-36 -103.5q0 -66 40.5 -95t117.5 -29q119 0 189.5 54t70.5 146v60zM541 1128l-328 156q-21 7 -20.5 25.5t28.5 68.5q28 51 44 62.5t34 -2.5l309 -201 q17 -12 16.5 -24t-20.5 -46q-20 -36 -31.5 -42.5t-31.5 3.5z" />
<glyph unicode="&#xe1;" horiz-adv-x="1079" d="M358 723q0 -24 -19 -31.5t-85 -7.5q-69 0 -86.5 8t-17.5 39q0 141 96.5 216t292.5 75q113 0 191.5 -22.5t124.5 -67t66.5 -105t20.5 -143.5v-649q0 -25 -18.5 -32t-85.5 -7t-86 7t-19 32l-2 88q-86 -139 -303 -139q-171 0 -251.5 76t-80.5 206q0 150 87.5 223.5 t275.5 73.5h268v111q0 96 -41 133t-147 37q-96 0 -138.5 -29.5t-42.5 -91.5zM727 412h-252q-94 0 -130 -32.5t-36 -103.5q0 -66 40.5 -95t117.5 -29q119 0 189.5 54t70.5 146v60zM864 1284l-329 -156q-18 -10 -30 -3t-32 42q-20 34 -20.5 46t16.5 24l309 201q18 14 34 2.5 t44 -62.5q28 -50 28.5 -68.5t-20.5 -25.5z" />
<glyph unicode="&#xe2;" horiz-adv-x="1079" d="M358 723q0 -24 -19 -31.5t-85 -7.5q-69 0 -86.5 8t-17.5 39q0 141 96.5 216t292.5 75q113 0 191.5 -22.5t124.5 -67t66.5 -105t20.5 -143.5v-649q0 -25 -18.5 -32t-85.5 -7t-86 7t-19 32l-2 88q-86 -139 -303 -139q-171 0 -251.5 76t-80.5 206q0 150 87.5 223.5 t275.5 73.5h268v111q0 96 -41 133t-147 37q-96 0 -138.5 -29.5t-42.5 -91.5zM727 412h-252q-94 0 -130 -32.5t-36 -103.5q0 -66 40.5 -95t117.5 -29q119 0 189.5 54t70.5 146v60zM543 1274l-117 -115q-18 -16 -37 -21t-57 -5q-77 0 -77 19q0 7 9 17l189 222q14 15 31 21.5 t59 6.5q44 0 61 -6.5t31 -21.5l188 -222q28 -30 -34 -35l-33 -1q-39 0 -57.5 4.5t-36.5 21.5z" />
<glyph unicode="&#xe3;" horiz-adv-x="1079" d="M358 723q0 -24 -19 -31.5t-85 -7.5q-69 0 -86.5 8t-17.5 39q0 141 96.5 216t292.5 75q113 0 191.5 -22.5t124.5 -67t66.5 -105t20.5 -143.5v-649q0 -25 -18.5 -32t-85.5 -7t-86 7t-19 32l-2 88q-86 -139 -303 -139q-171 0 -251.5 76t-80.5 206q0 150 87.5 223.5 t275.5 73.5h268v111q0 96 -41 133t-147 37q-96 0 -138.5 -29.5t-42.5 -91.5zM727 412h-252q-94 0 -130 -32.5t-36 -103.5q0 -66 40.5 -95t117.5 -29q119 0 189.5 54t70.5 146v60zM707 1327l2 25q0 19 12.5 24.5t54.5 5.5q44 0 57 -7t11 -29l-4 -60q-10 -156 -150 -156 q-57 0 -133 39l-100 58q-29 16 -47 16q-19 0 -28.5 -11.5t-10.5 -43.5v-25q0 -19 -12.5 -24.5t-55.5 -5.5q-45 0 -58 6.5t-12 27.5l5 62q10 155 151 155q61 0 133 -41l101 -55q29 -16 47 -16q19 0 28 11.5t9 43.5z" />
<glyph unicode="&#xe4;" horiz-adv-x="1079" d="M358 723q0 -24 -19 -31.5t-85 -7.5q-69 0 -86.5 8t-17.5 39q0 141 96.5 216t292.5 75q113 0 191.5 -22.5t124.5 -67t66.5 -105t20.5 -143.5v-649q0 -25 -18.5 -32t-85.5 -7t-86 7t-19 32l-2 88q-86 -139 -303 -139q-171 0 -251.5 76t-80.5 206q0 150 87.5 223.5 t275.5 73.5h268v111q0 96 -41 133t-147 37q-96 0 -138.5 -29.5t-42.5 -91.5zM727 412h-252q-94 0 -130 -32.5t-36 -103.5q0 -66 40.5 -95t117.5 -29q119 0 189.5 54t70.5 146v60zM352 1374q74 0 93.5 -10t19.5 -49v-117q0 -37 -20.5 -48t-92.5 -11t-91 11.5t-19 53.5v111 q0 40 18 49.5t92 9.5zM725 1374q74 0 93.5 -10t19.5 -49v-117q0 -37 -20.5 -48t-92.5 -11q-73 0 -92 11.5t-19 53.5v111q0 40 18.5 49.5t92.5 9.5z" />
<glyph unicode="&#xe5;" horiz-adv-x="1079" d="M358 723q0 -24 -19 -31.5t-85 -7.5q-69 0 -86.5 8t-17.5 39q0 141 96.5 216t292.5 75q113 0 191.5 -22.5t124.5 -67t66.5 -105t20.5 -143.5v-649q0 -25 -18.5 -32t-85.5 -7t-86 7t-19 32l-2 88q-86 -139 -303 -139q-171 0 -251.5 76t-80.5 206q0 150 87.5 223.5 t275.5 73.5h268v111q0 96 -41 133t-147 37q-96 0 -138.5 -29.5t-42.5 -91.5zM727 412h-252q-94 0 -130 -32.5t-36 -103.5q0 -66 40.5 -95t117.5 -29q119 0 189.5 54t70.5 146v60zM539 1487q194 0 194 -182q0 -91 -47.5 -136t-146.5 -45q-193 0 -193 181q0 182 193 182z M539 1221q50 0 71 19t21 65t-21.5 66t-70.5 20q-47 0 -68.5 -20t-21.5 -66q0 -45 21 -64.5t69 -19.5z" />
<glyph unicode="&#xe6;" horiz-adv-x="1681" d="M1532 436h-596q8 -149 64 -215.5t178 -66.5q80 0 123 30t45 82q2 26 19.5 33.5t84.5 7.5q69 0 86.5 -8t17.5 -39q-2 -128 -101 -204t-275 -76q-248 0 -349 151q-61 -70 -156.5 -108.5t-213.5 -38.5q-194 0 -278.5 76t-84.5 214q0 143 85.5 218t279.5 75h260v107 q0 97 -39 133.5t-143 36.5q-95 0 -139 -30t-42 -91q0 -24 -19 -31.5t-85 -7.5q-69 0 -86.5 8t-17.5 39q0 141 97.5 216t293.5 75q232 0 317 -119q104 119 309 119q112 0 192.5 -34t126 -96t66.5 -139.5t21 -174.5v-56q0 -53 -7.5 -69.5t-33.5 -16.5zM1169 846 q-115 0 -167.5 -61t-63.5 -203h430v43q0 106 -44.5 163.5t-154.5 57.5zM721 416h-244q-94 0 -131 -33.5t-37 -99.5q0 -72 40.5 -101.5t121.5 -29.5q115 0 182.5 51.5t67.5 144.5v68z" />
<glyph unicode="&#xe7;" horiz-adv-x="1054" d="M524 -98h21q110 0 158.5 -31.5t48.5 -128.5q0 -99 -48.5 -134.5t-154.5 -35.5h-201q-17 0 -20.5 9.5t-3.5 49.5q0 39 3.5 49.5t20.5 10.5h197q39 2 54 11.5t15 39.5q0 33 -17.5 43t-61.5 10h-105q-34 0 -47 6.5t-6 26.5l51 164q-168 30 -245 154.5t-77 353.5 q0 269 108 395.5t349 126.5q186 0 284 -78t103 -217q0 -29 -18.5 -37t-91.5 -8q-64 0 -83.5 8.5t-19.5 34.5q-3 113 -174 113q-134 0 -183.5 -75t-49.5 -263q0 -186 50 -261t183 -75q175 0 178 121q2 24 20.5 32.5t82.5 8.5q74 0 92 -7.5t18 -37.5q-2 -143 -102 -222 t-289 -79h-18z" />
<glyph unicode="&#xe8;" horiz-adv-x="1081" d="M932 440h-608q8 -152 64.5 -219t182.5 -67q84 0 128 30t46 82q2 26 20 33.5t85 7.5q69 0 86.5 -8t17.5 -39q-2 -128 -102 -204t-281 -76q-245 0 -355 125t-110 389q0 270 110 399t343 129q414 0 414 -444v-52q0 -53 -7.5 -69.5t-33.5 -16.5zM563 846q-118 0 -172 -59.5 t-65 -198.5h440v37q0 107 -44.5 164t-158.5 57zM553 1128l-328 156q-21 7 -20.5 25.5t28.5 68.5q28 51 44 62.5t34 -2.5l310 -201q17 -12 16 -24t-21 -46q-20 -36 -31.5 -42.5t-31.5 3.5z" />
<glyph unicode="&#xe9;" horiz-adv-x="1081" d="M932 440h-608q8 -152 64.5 -219t182.5 -67q84 0 128 30t46 82q2 26 20 33.5t85 7.5q69 0 86.5 -8t17.5 -39q-2 -128 -102 -204t-281 -76q-245 0 -355 125t-110 389q0 270 110 399t343 129q414 0 414 -444v-52q0 -53 -7.5 -69.5t-33.5 -16.5zM563 846q-118 0 -172 -59.5 t-65 -198.5h440v37q0 107 -44.5 164t-158.5 57zM866 1284l-329 -156q-18 -10 -30 -3t-32 42q-20 34 -20.5 46t16.5 24l309 201q18 14 34 2.5t44 -62.5q28 -50 28.5 -68.5t-20.5 -25.5z" />
<glyph unicode="&#xea;" horiz-adv-x="1081" d="M932 440h-608q8 -152 64.5 -219t182.5 -67q84 0 128 30t46 82q2 26 20 33.5t85 7.5q69 0 86.5 -8t17.5 -39q-2 -128 -102 -204t-281 -76q-245 0 -355 125t-110 389q0 270 110 399t343 129q414 0 414 -444v-52q0 -53 -7.5 -69.5t-33.5 -16.5zM563 846q-118 0 -172 -59.5 t-65 -198.5h440v37q0 107 -44.5 164t-158.5 57zM539 1274l-117 -115q-18 -16 -37 -21t-57 -5q-77 0 -77 19q0 7 9 17l189 222q14 15 31 21.5t59 6.5q44 0 61 -6.5t31 -21.5l188 -222q28 -30 -34 -35l-33 -1q-39 0 -58 5t-37 21z" />
<glyph unicode="&#xeb;" horiz-adv-x="1081" d="M932 440h-608q8 -152 64.5 -219t182.5 -67q84 0 128 30t46 82q2 26 20 33.5t85 7.5q69 0 86.5 -8t17.5 -39q-2 -128 -102 -204t-281 -76q-245 0 -355 125t-110 389q0 270 110 399t343 129q414 0 414 -444v-52q0 -53 -7.5 -69.5t-33.5 -16.5zM563 846q-118 0 -172 -59.5 t-65 -198.5h440v37q0 107 -44.5 164t-158.5 57zM352 1374q74 0 93.5 -10t19.5 -49v-117q0 -37 -20.5 -48t-92.5 -11t-91 11.5t-19 53.5v111q0 40 18 49.5t92 9.5zM725 1374q74 0 93.5 -10t19.5 -49v-117q0 -37 -20.5 -48t-92.5 -11q-73 0 -92 11.5t-19 53.5v111 q0 40 18.5 49.5t92.5 9.5z" />
<glyph unicode="&#xec;" horiz-adv-x="524" d="M154 35v930q0 26 19 33.5t89 7.5t89.5 -7.5t19.5 -33.5v-930q0 -25 -19.5 -32t-89.5 -7t-89 7t-19 32zM242 1128l-328 156q-21 7 -20.5 25.5t28.5 68.5q28 51 44 62.5t34 -2.5l309 -201q17 -12 16.5 -24t-20.5 -46q-20 -36 -31.5 -42.5t-31.5 3.5z" />
<glyph unicode="&#xed;" horiz-adv-x="524" d="M154 35v930q0 26 19 33.5t89 7.5t89.5 -7.5t19.5 -33.5v-930q0 -25 -19.5 -32t-89.5 -7t-89 7t-19 32zM610 1284l-329 -156q-18 -10 -30 -3t-32 42q-20 34 -20.5 46t16.5 24l309 201q18 14 34 2.5t44 -62.5q28 -50 28.5 -68.5t-20.5 -25.5z" />
<glyph unicode="&#xee;" horiz-adv-x="524" d="M154 35v930q0 26 19 33.5t89 7.5t89.5 -7.5t19.5 -33.5v-930q0 -25 -19.5 -32t-89.5 -7t-89 7t-19 32zM260 1274l-117 -115q-18 -16 -37 -21t-57 -5q-76 0 -76 19q1 8 9 17l188 222q14 15 31 21.5t59 6.5q44 0 61 -6.5t31 -21.5l189 -222q27 -30 -33 -35q-15 -1 -35 -1 q-39 0 -57.5 4.5t-36.5 21.5z" />
<glyph unicode="&#xef;" horiz-adv-x="524" d="M154 35v930q0 26 19 33.5t89 7.5t89.5 -7.5t19.5 -33.5v-930q0 -25 -19.5 -32t-89.5 -7t-89 7t-19 32zM80 1374q74 0 93.5 -10t19.5 -49v-117q0 -37 -20.5 -48t-92.5 -11q-73 0 -92 11.5t-19 53.5v111q0 40 18.5 49.5t92.5 9.5zM442 1374q74 0 93.5 -10t19.5 -49v-117 q0 -37 -20.5 -48t-92.5 -11t-91 11.5t-19 53.5v111q0 40 18 49.5t92 9.5z" />
<glyph unicode="&#xf0;" horiz-adv-x="1114" d="M1006 1249l-111 -47q62 -104 85.5 -263t23.5 -396q0 -307 -104 -435t-345 -128q-239 0 -344 121.5t-105 385.5t103 387t332 123q75 0 140.5 -25t106.5 -67q-12 145 -63 225l-172 -71q-13 -7 -21 1t-22 42q-15 35 -15 46.5t15 18.5l117 50q-81 38 -207 38q-21 0 -27 14 t-6 68q0 56 6.5 70t28.5 14q267 0 399 -123l142 60q13 7 21 -1t22 -42q15 -35 15 -47t-15 -19zM555 158q129 0 179 74t50 255t-50 256.5t-179 75.5q-130 0 -179.5 -75t-49.5 -257t49.5 -255.5t179.5 -73.5z" />
<glyph unicode="&#xf1;" horiz-adv-x="1161" d="M356 967l4 -95q37 63 117 106.5t197 43.5q167 0 255.5 -88t88.5 -266v-631q0 -26 -19.5 -33.5t-89.5 -7.5t-89 7.5t-19 33.5v604q0 102 -45 147.5t-140 45.5q-117 0 -184 -64.5t-67 -175.5v-557q0 -26 -19.5 -33.5t-89.5 -7.5t-89.5 7.5t-19.5 33.5v930q0 25 19 32t88 7 q46 0 66.5 -3t27.5 -10.5t8 -25.5zM748 1327l2 25q0 19 12.5 24.5t54.5 5.5q44 0 57 -7t11 -29l-4 -60q-10 -156 -150 -156q-57 0 -133 39l-100 58q-29 16 -47 16q-19 0 -28.5 -11.5t-10.5 -43.5v-25q0 -19 -12.5 -24.5t-55.5 -5.5q-45 0 -58 6.5t-12 27.5l5 62 q10 155 151 155q61 0 133 -41l101 -55q29 -16 47 -16q19 0 28 11.5t9 43.5z" />
<glyph unicode="&#xf2;" horiz-adv-x="1126" d="M563 1022q241 0 348 -126.5t107 -395.5t-107 -394.5t-348 -125.5q-242 0 -349.5 125.5t-107.5 394.5t108 395.5t349 126.5zM563 162q133 0 183.5 76t50.5 262q0 188 -50.5 264t-183.5 76q-134 0 -183.5 -75.5t-49.5 -264.5q0 -187 49.5 -262.5t183.5 -75.5zM565 1128 l-327 156q-21 7 -20.5 25.5t28.5 68.5q28 51 44 62.5t34 -2.5l309 -201q17 -12 16.5 -24t-20.5 -46q-20 -35 -32 -42t-32 3z" />
<glyph unicode="&#xf3;" horiz-adv-x="1126" d="M563 1022q241 0 348 -126.5t107 -395.5t-107 -394.5t-348 -125.5q-242 0 -349.5 125.5t-107.5 394.5t108 395.5t349 126.5zM563 162q133 0 183.5 76t50.5 262q0 188 -50.5 264t-183.5 76q-134 0 -183.5 -75.5t-49.5 -264.5q0 -187 49.5 -262.5t183.5 -75.5zM891 1284 l-330 -156q-18 -10 -29.5 -3.5t-31.5 42.5q-20 34 -20.5 46t16.5 24l309 201q18 14 34 2.5t44 -62.5q28 -50 28.5 -68.5t-20.5 -25.5z" />
<glyph unicode="&#xf4;" horiz-adv-x="1126" d="M563 1022q241 0 348 -126.5t107 -395.5t-107 -394.5t-348 -125.5q-242 0 -349.5 125.5t-107.5 394.5t108 395.5t349 126.5zM563 162q133 0 183.5 76t50.5 262q0 188 -50.5 264t-183.5 76q-134 0 -183.5 -75.5t-49.5 -264.5q0 -187 49.5 -262.5t183.5 -75.5zM561 1274 l-117 -115q-18 -16 -37 -21t-57 -5q-76 0 -76 19q1 8 9 17l188 222q14 15 31 21.5t59 6.5q44 0 61 -6.5t31 -21.5l189 -222q27 -30 -33 -35l-35 -1q-39 0 -57.5 4.5t-36.5 21.5z" />
<glyph unicode="&#xf5;" horiz-adv-x="1126" d="M563 1022q241 0 348 -126.5t107 -395.5t-107 -394.5t-348 -125.5q-242 0 -349.5 125.5t-107.5 394.5t108 395.5t349 126.5zM563 162q133 0 183.5 76t50.5 262q0 188 -50.5 264t-183.5 76q-134 0 -183.5 -75.5t-49.5 -264.5q0 -187 49.5 -262.5t183.5 -75.5zM731 1327 l2 25q0 19 12.5 24.5t55.5 5.5q44 0 56.5 -7t10.5 -29l-4 -60q-10 -156 -149 -156q-57 0 -133 39l-101 58q-29 16 -47 16q-19 0 -28.5 -11.5t-10.5 -43.5v-25q0 -19 -12.5 -24.5t-54.5 -5.5q-45 0 -58 6.5t-12 27.5l4 62q10 155 152 155q61 0 133 -41l100 -55q29 -16 47 -16 q19 0 28 11.5t9 43.5z" />
<glyph unicode="&#xf6;" horiz-adv-x="1126" d="M563 1022q241 0 348 -126.5t107 -395.5t-107 -394.5t-348 -125.5q-242 0 -349.5 125.5t-107.5 394.5t108 395.5t349 126.5zM563 162q133 0 183.5 76t50.5 262q0 188 -50.5 264t-183.5 76q-134 0 -183.5 -75.5t-49.5 -264.5q0 -187 49.5 -262.5t183.5 -75.5zM377 1374 q74 0 93 -10t19 -49v-117q0 -37 -20.5 -48t-91.5 -11q-73 0 -92 11.5t-19 53.5v111q0 40 18.5 49.5t92.5 9.5zM750 1374q74 0 93 -10t19 -49v-117q0 -37 -20.5 -48t-91.5 -11q-73 0 -92 11.5t-19 53.5v111q0 40 18.5 49.5t92.5 9.5z" />
<glyph unicode="&#xf7;" d="M180 727h772q22 0 28.5 -17t6.5 -75q0 -57 -6.5 -73.5t-28.5 -16.5h-772q-23 0 -30 16.5t-7 73.5q0 58 7 75t30 17zM565 121q-83 0 -108 10t-25 43v168q0 36 24 45.5t109 9.5q83 0 107 -9.5t24 -45.5v-168q0 -34 -24.5 -43.5t-106.5 -9.5zM565 874q-82 0 -107.5 10 t-25.5 44v168q0 36 24 45.5t109 9.5q83 0 107 -9.5t24 -45.5v-168q0 -34 -24.5 -44t-106.5 -10z" />
<glyph unicode="&#xf8;" horiz-adv-x="1136" d="M565 1022q127 0 217 -35l35 60q13 18 31 24t67 6q70 0 69 -21q0 -6 -5 -14l-80 -133q121 -124 121 -409q0 -269 -107 -394.5t-348 -125.5q-123 0 -211 30l-37 -61q-11 -18 -30 -24.5t-68 -6.5q-69 0 -68 21q0 6 5 14l80 131q-127 124 -127 416q0 269 107.5 395.5 t348.5 126.5zM332 500q0 -147 28 -221l326 538q-51 23 -121 23q-134 0 -183.5 -75.5t-49.5 -264.5zM565 162q133 0 183.5 76t50.5 262q0 134 -27 213l-319 -533q47 -18 112 -18z" />
<glyph unicode="&#xf9;" horiz-adv-x="1144" d="M788 35l-4 94q-37 -64 -110 -106.5t-185 -42.5q-174 0 -263 92t-89 274v619q0 25 20 33t89 8q68 0 88 -8t20 -33v-596q0 -104 46.5 -153.5t146.5 -49.5q109 0 171 67t62 177v555q0 25 20 33t89 8q68 0 88 -8t20 -33v-930q0 -25 -19.5 -32t-86.5 -7t-85 7t-18 32z M561 1128l-328 156q-21 7 -20 25t29 69t43.5 62t33.5 -2l310 -201q17 -12 16.5 -24t-20.5 -46q-20 -35 -32 -42t-32 3z" />
<glyph unicode="&#xfa;" horiz-adv-x="1144" d="M788 35l-4 94q-37 -64 -110 -106.5t-185 -42.5q-174 0 -263 92t-89 274v619q0 25 20 33t89 8q68 0 88 -8t20 -33v-596q0 -104 46.5 -153.5t146.5 -49.5q109 0 171 67t62 177v555q0 25 20 33t89 8q68 0 88 -8t20 -33v-930q0 -25 -19.5 -32t-86.5 -7t-85 7t-18 32z M895 1284l-330 -156q-18 -10 -29.5 -3.5t-31.5 42.5q-20 34 -20.5 46t16.5 24l309 201q18 14 34 2.5t44 -62.5q28 -50 28.5 -68.5t-20.5 -25.5z" />
<glyph unicode="&#xfb;" horiz-adv-x="1144" d="M788 35l-4 94q-37 -64 -110 -106.5t-185 -42.5q-174 0 -263 92t-89 274v619q0 25 20 33t89 8q68 0 88 -8t20 -33v-596q0 -104 46.5 -153.5t146.5 -49.5q109 0 171 67t62 177v555q0 25 20 33t89 8q68 0 88 -8t20 -33v-930q0 -25 -19.5 -32t-86.5 -7t-85 7t-18 32z M569 1274l-116 -115q-18 -16 -37.5 -21t-57.5 -5q-76 0 -76 19q1 8 9 17l188 222q14 15 31 21.5t59 6.5q44 0 61.5 -6.5t31.5 -21.5l188 -222q27 -30 -33 -35l-35 -1q-39 0 -57.5 4.5t-36.5 21.5z" />
<glyph unicode="&#xfc;" horiz-adv-x="1144" d="M788 35l-4 94q-37 -64 -110 -106.5t-185 -42.5q-174 0 -263 92t-89 274v619q0 25 20 33t89 8q68 0 88 -8t20 -33v-596q0 -104 46.5 -153.5t146.5 -49.5q109 0 171 67t62 177v555q0 25 20 33t89 8q68 0 88 -8t20 -33v-930q0 -25 -19.5 -32t-86.5 -7t-85 7t-18 32z M381 1374q74 0 93.5 -10t19.5 -49v-117q0 -37 -20.5 -48t-92.5 -11q-73 0 -92 11.5t-19 53.5v111q0 40 18.5 49.5t92.5 9.5zM754 1374q74 0 93 -10t19 -49v-117q0 -37 -20.5 -48t-91.5 -11q-73 0 -92 11.5t-19 53.5v111q0 40 18.5 49.5t92.5 9.5z" />
<glyph unicode="&#xfd;" horiz-adv-x="1044" d="M240 -197q88 0 130.5 36.5t90.5 150.5q0 1 1 4t1 4q-60 3 -72 33q-78 177 -176 449.5t-160 477.5q-7 29 15 38.5t96 9.5q64 0 87 -8.5t28 -30.5q100 -389 251 -791q70 197 137.5 420.5t100.5 370.5q5 22 27.5 30.5t85.5 8.5q69 0 92.5 -9t17.5 -32q-53 -216 -158.5 -516 t-199.5 -506q-80 -175 -162.5 -250.5t-212.5 -75.5q-80 0 -104 8q-23 6 -31 24.5t-8 65.5q0 60 7.5 77.5t29.5 17.5q3 0 30 -3.5t56 -3.5zM881 1284l-330 -156q-18 -10 -30 -3t-32 42q-20 34 -20.5 46t16.5 24l310 201q18 13 33.5 2t43.5 -62t29 -69t-20 -25z" />
<glyph unicode="&#xfe;" horiz-adv-x="1167" d="M367 1380v-481q99 123 292 123q201 0 301.5 -128.5t100.5 -393.5t-100.5 -392.5t-303.5 -127.5q-199 0 -290 118v-430q0 -26 -19.5 -33.5t-89.5 -7.5t-89 7.5t-19 33.5v1712q0 25 19.5 33t88.5 8t89 -8t20 -33zM367 500q0 -182 54.5 -260t186.5 -78q129 0 180.5 76.5 t51.5 261.5q0 186 -51.5 263t-180.5 77q-132 0 -186.5 -78.5t-54.5 -261.5z" />
<glyph unicode="&#xff;" horiz-adv-x="1044" d="M240 -197q88 0 130.5 36.5t90.5 150.5q0 1 1 4t1 4q-60 3 -72 33q-78 177 -176 449.5t-160 477.5q-7 29 15 38.5t96 9.5q64 0 87 -8.5t28 -30.5q100 -389 251 -791q70 197 137.5 420.5t100.5 370.5q5 22 27.5 30.5t85.5 8.5q69 0 92.5 -9t17.5 -32q-53 -216 -158.5 -516 t-199.5 -506q-80 -175 -162.5 -250.5t-212.5 -75.5q-80 0 -104 8q-23 6 -31 24.5t-8 65.5q0 60 7.5 77.5t29.5 17.5q3 0 30 -3.5t56 -3.5zM709 1374q74 0 93 -10t19 -49v-117q0 -37 -20.5 -48t-91.5 -11q-73 0 -92 11.5t-19 53.5v111q0 40 18.5 49.5t92.5 9.5zM336 1374 q74 0 93.5 -10t19.5 -49v-117q0 -37 -20.5 -48t-92.5 -11q-73 0 -92 11.5t-19 53.5v111q0 40 18.5 49.5t92.5 9.5z" />
<glyph unicode="&#x152;" horiz-adv-x="1837" d="M1667 1157h-541v-364h476q24 0 31 -17.5t7 -81.5t-7 -81t-31 -17h-476v-397h549q23 0 31 -18.5t8 -80.5q0 -63 -8 -81.5t-31 -18.5h-983q-157 0 -262.5 37.5t-170.5 122t-92.5 209t-27.5 309.5t27.5 309.5t92.5 209t170.5 122t262.5 37.5h975q23 0 31 -19t8 -82 q0 -62 -8 -80t-31 -18zM692 197h209v962h-209q-96 0 -155 -21.5t-97 -78t-52.5 -146.5t-14.5 -235t14.5 -235t52.5 -146.5t97 -78t155 -21.5z" />
<glyph unicode="&#x153;" horiz-adv-x="1734" d="M1587 436h-598q8 -149 64 -215.5t178 -66.5q81 0 124 29.5t46 82.5q2 26 19.5 33.5t82.5 7.5q69 0 88 -8t19 -39q-3 -128 -102.5 -204t-276.5 -76q-241 0 -342 145q-93 -145 -334 -145q-237 0 -343 126t-106 394q0 269 106 395.5t343 126.5q239 0 334 -150 q102 150 332 150q407 0 407 -444v-56q0 -53 -7.5 -69.5t-33.5 -16.5zM555 162q129 0 180 76.5t51 261.5q0 187 -51 263.5t-180 76.5q-127 0 -176 -76.5t-49 -263.5q0 -186 49 -262t176 -76zM1223 846q-115 0 -168 -61t-64 -203h430v43q0 107 -43.5 164t-154.5 57z" />
<glyph unicode="&#x178;" horiz-adv-x="1167" d="M872 1317q11 28 31.5 35.5t95.5 7.5q40 0 65 -2.5t38.5 -8t16 -14.5t-2.5 -22q-70 -157 -196 -404.5t-222 -414.5v-457q0 -25 -20.5 -33t-93.5 -8t-94 8t-21 33v457q-96 167 -222 414.5t-196 404.5q-5 13 -2.5 22t16 14.5t38.5 8t65 2.5q52 0 76 -4t33.5 -12t17.5 -27 q123 -306 287 -629q149 288 290 629zM389 1700q74 0 93.5 -10t19.5 -50v-116q0 -37 -21 -48.5t-92 -11.5q-72 0 -91 12t-19 54v110q0 40 18.5 50t91.5 10zM778 1700q74 0 93.5 -10t19.5 -50v-116q0 -37 -21 -48.5t-92 -11.5q-72 0 -91 12t-19 54v110q0 40 19 50t91 10z" />
<glyph unicode="&#x2c6;" horiz-adv-x="710" d="M354 1274l-116 -115q-18 -16 -37.5 -21t-57.5 -5q-76 0 -76 19q1 8 9 17l188 222q14 15 31 21.5t59 6.5q44 0 61 -6.5t31 -21.5l189 -222q27 -30 -33 -35l-35 -1q-39 0 -57.5 4.5t-36.5 21.5z" />
<glyph unicode="&#x2dc;" horiz-adv-x="710" d="M522 1327l2 25q0 19 12.5 24.5t55.5 5.5q44 0 56.5 -7t10.5 -29l-4 -60q-10 -156 -149 -156q-57 0 -133 39l-101 58q-29 16 -47 16q-19 0 -28.5 -11.5t-10.5 -43.5v-25q0 -19 -12 -24.5t-55 -5.5q-45 0 -58 6.5t-12 27.5l4 62q10 155 152 155q61 0 133 -41l100 -55 q29 -16 47 -16q19 0 28 11.5t9 43.5z" />
<glyph unicode="&#x2000;" horiz-adv-x="892" />
<glyph unicode="&#x2001;" horiz-adv-x="1784" />
<glyph unicode="&#x2002;" horiz-adv-x="892" />
<glyph unicode="&#x2003;" horiz-adv-x="1784" />
<glyph unicode="&#x2004;" horiz-adv-x="594" />
<glyph unicode="&#x2005;" horiz-adv-x="446" />
<glyph unicode="&#x2006;" horiz-adv-x="297" />
<glyph unicode="&#x2007;" horiz-adv-x="297" />
<glyph unicode="&#x2008;" horiz-adv-x="223" />
<glyph unicode="&#x2009;" horiz-adv-x="356" />
<glyph unicode="&#x200a;" horiz-adv-x="99" />
<glyph unicode="&#x2010;" horiz-adv-x="829" d="M156 645h518q22 0 28.5 -16t6.5 -74t-6.5 -74t-28.5 -16h-518q-23 0 -29 15.5t-6 74.5t6 74.5t29 15.5z" />
<glyph unicode="&#x2011;" horiz-adv-x="829" d="M156 645h518q22 0 28.5 -16t6.5 -74t-6.5 -74t-28.5 -16h-518q-23 0 -29 15.5t-6 74.5t6 74.5t29 15.5z" />
<glyph unicode="&#x2012;" horiz-adv-x="829" d="M156 645h518q22 0 28.5 -16t6.5 -74t-6.5 -74t-28.5 -16h-518q-23 0 -29 15.5t-6 74.5t6 74.5t29 15.5z" />
<glyph unicode="&#x2013;" horiz-adv-x="1085" d="M152 645h784q22 0 28.5 -16t6.5 -74t-6.5 -74t-28.5 -16h-784q-23 0 -30 16t-7 74t7 74t30 16z" />
<glyph unicode="&#x2014;" horiz-adv-x="1511" d="M150 645h1214q22 0 28.5 -16t6.5 -74t-6.5 -74t-28.5 -16h-1214q-23 0 -30 16t-7 74t7 74t30 16z" />
<glyph unicode="&#x2018;" horiz-adv-x="444" d="M301 1100v-88q0 -21 -15.5 -29t-78.5 -8q-59 0 -74.5 8t-15.5 29v94q0 115 51 191.5t154 123.5q16 11 29.5 2t31.5 -47q22 -44 21.5 -56.5t-19.5 -25.5q-45 -27 -64.5 -72.5t-19.5 -121.5z" />
<glyph unicode="&#x2019;" horiz-adv-x="444" d="M143 1296v88q0 21 16 29t79 8q59 0 74.5 -8t15.5 -29v-94q0 -115 -51 -191.5t-154 -123.5q-16 -11 -30 -2t-32 47q-22 44 -21.5 56.5t19.5 25.5q45 27 64.5 72.5t19.5 121.5z" />
<glyph unicode="&#x201a;" horiz-adv-x="444" d="M143 106v89q0 21 16 28.5t79 7.5q59 0 74.5 -7.5t15.5 -28.5v-95q0 -115 -51 -191.5t-154 -123.5q-16 -11 -30 -2t-32 47q-22 44 -21.5 56.5t19.5 25.5q45 27 64.5 72.5t19.5 121.5z" />
<glyph unicode="&#x201c;" horiz-adv-x="796" d="M301 1100v-88q0 -21 -15.5 -29t-78.5 -8q-59 0 -74.5 8t-15.5 29v94q0 115 51 191.5t154 123.5q16 11 29.5 2t31.5 -47q22 -44 21.5 -56.5t-19.5 -25.5q-45 -27 -64.5 -72.5t-19.5 -121.5zM653 1100v-88q0 -21 -15.5 -29t-78.5 -8q-59 0 -74.5 8t-15.5 29v94 q0 115 51 191.5t154 123.5q16 11 29.5 2t31.5 -47q22 -44 21.5 -56.5t-19.5 -25.5q-45 -27 -64.5 -72.5t-19.5 -121.5z" />
<glyph unicode="&#x201d;" horiz-adv-x="796" d="M143 1296v88q0 21 16 29t79 8q59 0 74.5 -8t15.5 -29v-94q0 -115 -51 -191.5t-154 -123.5q-16 -11 -30 -2t-32 47q-22 44 -21.5 56.5t19.5 25.5q45 27 64.5 72.5t19.5 121.5zM496 1296v88q0 15 4.5 21.5t25 11t64.5 4.5q59 0 74.5 -8t15.5 -29v-94q0 -115 -51 -191.5 t-154 -123.5q-16 -11 -29.5 -2t-31.5 47q-22 44 -21.5 56.5t19.5 25.5q45 27 64.5 72.5t19.5 121.5z" />
<glyph unicode="&#x201e;" horiz-adv-x="796" d="M143 106v89q0 21 16 28.5t79 7.5q59 0 74.5 -7.5t15.5 -28.5v-95q0 -115 -51 -191.5t-154 -123.5q-16 -11 -30 -2t-32 47q-22 44 -21.5 56.5t19.5 25.5q45 27 64.5 72.5t19.5 121.5zM496 106v89q0 21 15.5 28.5t78.5 7.5q59 0 74.5 -7.5t15.5 -28.5v-95 q0 -115 -51 -191.5t-154 -123.5q-16 -11 -29.5 -2t-31.5 47q-22 44 -21.5 56.5t19.5 25.5q45 27 64.5 72.5t19.5 121.5z" />
<glyph unicode="&#x2022;" horiz-adv-x="727" d="M365 342q-71 0 -108.5 6.5t-61 32t-29.5 64t-6 112.5t6 112.5t29.5 64.5t61 33t108.5 7q47 0 77.5 -3t54.5 -12.5t37 -23.5t21.5 -40t11 -57.5t2.5 -80.5q0 -74 -6 -112.5t-29.5 -64t-60.5 -32t-108 -6.5z" />
<glyph unicode="&#x2026;" horiz-adv-x="1544" d="M258 -4q-83 0 -108 10t-25 43v168q0 36 24 45.5t109 9.5q83 0 107 -9.5t24 -45.5v-168q0 -34 -24.5 -43.5t-106.5 -9.5zM772 -4q-82 0 -106.5 9.5t-24.5 43.5v168q0 36 23 45.5t108 9.5t108 -9.5t23 -45.5v-168q0 -34 -24.5 -43.5t-106.5 -9.5zM1288 -4q-84 0 -108.5 9.5 t-24.5 43.5v168q0 36 23.5 45.5t109.5 9.5q83 0 107 -9.5t24 -45.5v-168q0 -34 -24.5 -43.5t-106.5 -9.5z" />
<glyph unicode="&#x202f;" horiz-adv-x="356" />
<glyph unicode="&#x2039;" horiz-adv-x="659" d="M111 557q0 38 18 64l184 245q12 18 33 23.5t84 5.5q94 0 94 -24q0 -6 -6 -15l-223 -299l223 -299q21 -32 -37 -39q-20 -2 -51 -2q-63 0 -84 6t-33 25l-184 246q-18 26 -18 63z" />
<glyph unicode="&#x203a;" horiz-adv-x="659" d="M549 557q0 -36 -19 -63l-184 -246q-12 -19 -33 -25t-84 -6q-94 0 -94 25q0 7 6 16l224 299l-224 299q-19 28 27 36q22 3 61 3q63 0 84 -5.5t33 -23.5l184 -245q19 -27 19 -64z" />
<glyph unicode="&#x205f;" horiz-adv-x="446" />
<glyph unicode="&#x20ac;" horiz-adv-x="1300" d="M719 459h-273q18 -164 83 -225.5t208 -61.5q125 0 179 52t57 149q0 27 20 36t88 9t88.5 -9t20.5 -40q0 -191 -109.5 -290t-343.5 -99q-253 0 -372.5 111t-147.5 368h-117q-19 0 -24.5 13.5t-5.5 64.5q0 50 5.5 62.5t24.5 12.5h107v66v65h-107q-19 0 -24.5 13t-5.5 63 t5.5 63t24.5 13h117q28 257 147 369t371 112q453 0 453 -381q0 -31 -20 -40t-89 -9q-67 0 -87.5 9t-20.5 36q-3 94 -57.5 142.5t-176.5 48.5q-142 0 -207.5 -61.5t-85.5 -225.5h336q19 0 24 -13t5 -63t-5 -63t-24 -13h-344v-65v-66h283q19 0 25 -13t6 -62q0 -51 -6 -64.5 t-25 -13.5z" />
<glyph unicode="&#x2122;" horiz-adv-x="1613" d="M848 1356q55 0 75.5 -6t26.5 -23l168 -428l170 428q6 17 26 23t77 6q61 0 82.5 -6t21.5 -25v-709q0 -19 -11.5 -23.5t-56.5 -4.5q-49 0 -61 4.5t-12 23.5v549q-125 -307 -160 -397q-7 -16 -22 -23.5t-54 -7.5q-38 0 -54 7.5t-22 23.5l-157 397v-549q0 -18 -13 -23t-61 -5 q-46 0 -58 4.5t-12 23.5v709q0 19 22 25t85 6zM598 1225h-186v-609q0 -19 -12.5 -23.5t-63.5 -4.5q-48 0 -60 4.5t-12 23.5v609h-186q-17 0 -22 11.5t-5 53.5q0 43 5 54.5t22 11.5h520q18 0 22.5 -11t4.5 -55q0 -43 -4.5 -54t-22.5 -11z" />
<glyph unicode="&#x25fc;" horiz-adv-x="1003" d="M0 1004h1004v-1004h-1004v1004z" />
</font>
</defs>
</svg>
