<?xml version="1.0" standalone="no"?>
<!DOCTYPE svg PUBLIC "-//W3C//DTD SVG 1.1//EN" "http://www.w3.org/Graphics/SVG/1.1/DTD/svg11.dtd" >
<svg xmlns="http://www.w3.org/2000/svg" xmlns:xlink="http://www.w3.org/1999/xlink" version="1.1">
<metadata></metadata>
<defs>
<font id="frygiamedium_italic" horiz-adv-x="1130" >
<font-face units-per-em="2048" ascent="1536" descent="-512" />
<missing-glyph horiz-adv-x="450" />
<glyph unicode="&#xfb01;" horiz-adv-x="1196" d="M946 1235q-143 20 -209 20q-73 0 -117 -9.5t-70.5 -36t-38 -61.5t-17.5 -97l-5 -50h506q70 0 90.5 -7.5t18.5 -32.5l-98 -924q-2 -26 -21.5 -33.5t-89.5 -7.5q-69 0 -88.5 7.5t-18.5 33.5l82 782h-399l-82 -782q-3 -27 -21.5 -34t-88.5 -7q-69 0 -88.5 7.5t-16.5 33.5 l80 782h-117q-22 0 -27 15.5t1 72.5q6 60 12 74t27 14l124 6l7 56q22 201 126 290t322 89q141 0 242 -27q19 -6 23 -22.5t-3 -63.5q-9 -57 -17.5 -73.5t-27.5 -14.5z" />
<glyph unicode="&#xfb02;" horiz-adv-x="1228" d="M494 1051l-5 -50h179q22 0 26 -16.5t-2 -73.5q-6 -62 -12 -77t-27 -15h-182l-82 -782q-3 -27 -21.5 -34t-88.5 -7q-69 0 -88.5 7.5t-16.5 33.5l80 782h-117q-22 0 -27 15.5t1 72.5q6 60 12 74t27 14l124 6l7 56q22 202 129.5 290.5t343.5 88.5q201 0 344 -41 q52 -13 47 -52l-113 -1087q-4 -40 8 -54t50 -14h28q24 0 29 -16t0 -78q-6 -62 -13.5 -78t-33.5 -16h-64q-138 0 -188 50t-37 179l107 1012q-79 14 -170 14q-143 0 -192.5 -42.5t-61.5 -161.5z" />
<glyph unicode="&#xfb03;" horiz-adv-x="1820" d="M901 1001l6 56q20 200 125 289.5t322 89.5q144 0 241 -27q21 -6 25 -22.5t-4 -63.5q-7 -57 -15.5 -73.5t-27.5 -14.5q-143 20 -209 20q-96 0 -146.5 -20.5t-70.5 -61.5t-27 -122l-6 -50h508q70 0 90 -7.5t17 -32.5l-97 -924q-3 -27 -21.5 -34t-88.5 -7q-71 0 -90.5 7.5 t-16.5 33.5l80 782h-399l-80 -782q-3 -27 -22 -34t-89 -7t-89 7.5t-17 33.5l82 782h-410l-82 -782q-3 -27 -21.5 -34t-88.5 -7q-69 0 -88.5 7.5t-16.5 33.5l80 782h-117q-22 0 -27 15.5t1 72.5q6 60 12 74t27 14l124 6l11 93q20 183 101 260.5t239 77.5q110 0 174 -29 q21 -9 22.5 -26t-16.5 -68q-17 -51 -28.5 -65t-31.5 -11q-47 12 -102 12q-70 0 -103 -36.5t-42 -123.5l-9 -84h412z" />
<glyph unicode="&#xfb04;" horiz-adv-x="1855" d="M901 1001l6 56q14 136 63.5 217.5t149 121.5t260.5 40q203 0 342 -41q53 -14 50 -52l-115 -1087q-5 -40 7 -54t50 -14h29q24 0 30.5 -17t0.5 -77q-8 -63 -15.5 -78.5t-34.5 -15.5h-61q-140 0 -189 49.5t-36 179.5l104 1012q-79 14 -168 14q-75 0 -121.5 -10t-74.5 -35.5 t-40 -61.5t-18 -97l-6 -50h178q22 0 27.5 -16.5t-0.5 -73.5q-6 -60 -13 -76t-28 -16h-182l-80 -782q-3 -27 -22 -34t-89 -7t-89 7.5t-17 33.5l82 782h-410l-82 -782q-3 -27 -21.5 -34t-88.5 -7q-69 0 -88.5 7.5t-16.5 33.5l80 782h-117q-22 0 -27 15.5t1 72.5q6 60 12 74 t27 14l124 6l11 93q20 183 101 260.5t239 77.5q110 0 174 -29q21 -9 22.5 -26t-16.5 -68q-17 -51 -28.5 -65t-31.5 -11q-47 12 -102 12q-70 0 -103 -36.5t-42 -123.5l-9 -84h412z" />
<glyph horiz-adv-x="0" />
<glyph horiz-adv-x="682" />
<glyph unicode=" "  horiz-adv-x="450" />
<glyph unicode="&#x09;" horiz-adv-x="450" />
<glyph unicode="&#xa0;" horiz-adv-x="450" />
<glyph unicode="!" horiz-adv-x="593" d="M301 416q-59 0 -75.5 7.5t-14.5 31.5l53 856q3 30 27 39.5t102 9.5q81 0 106 -10t19 -39l-125 -856q-3 -24 -18.5 -31.5t-73.5 -7.5zM256 -4q-83 0 -107.5 10t-21.5 43l18 168q3 36 26.5 45.5t109.5 9.5q84 0 108 -9.5t21 -45.5l-19 -168q-3 -34 -28 -43.5t-107 -9.5z " />
<glyph unicode="&#x22;" horiz-adv-x="778" d="M193 958l26 426q2 24 19 30.5t79 6.5q64 0 81 -7t14 -30l-62 -426q-4 -21 -19 -26.5t-63 -5.5q-51 0 -64.5 5.5t-10.5 26.5zM547 958l26 426q2 24 19.5 30.5t79.5 6.5q64 0 80.5 -6.5t13.5 -30.5l-61 -426q-4 -21 -19 -26.5t-63 -5.5q-51 0 -65 5.5t-11 26.5z" />
<glyph unicode="#" horiz-adv-x="1253" d="M629 29l82 311h-277l-82 -311q-4 -22 -21 -27.5t-75 -5.5q-57 0 -70 6.5t-8 26.5q61 239 80 311h-152q-19 0 -23 14.5t1 61.5q4 45 12 60.5t25 15.5h178q12 42 25 90t28 106t23 90h-154q-18 0 -21.5 14.5t1.5 61.5q6 48 12.5 62t24.5 14h178q17 62 46.5 171t37.5 140 q6 22 22.5 27.5t73.5 5.5q40 0 57.5 -3t21.5 -10.5t-1 -19.5l-84 -311h278l82 311q6 22 23 27.5t76 5.5q56 0 69 -6.5t8 -26.5l-84 -311h154q19 0 24 -15t-1 -61q-4 -47 -12 -61.5t-27 -14.5h-176l-78 -286h155q18 0 22 -15t-1 -61q-5 -47 -11.5 -61.5t-25.5 -14.5h-180 l-82 -311q-4 -22 -21 -27.5t-75 -5.5q-56 0 -69.5 6.5t-8.5 26.5zM752 492l75 286h-276l-76 -286h277z" />
<glyph unicode="$" horiz-adv-x="1183" d="M537 -188q-66 0 -84 6.5t-15 29.5l15 136q-388 37 -355 356q2 29 23 38t92 9q70 0 88.5 -8t15.5 -35q-7 -81 36.5 -123t138.5 -51l45 428q-62 19 -108.5 38.5t-95 50.5t-80 68.5t-51.5 91.5t-20 120q0 379 416 407l14 133q3 24 21.5 30.5t83.5 6.5q67 0 84 -6.5t14 -30.5 l-14 -139q168 -22 242 -106.5t61 -239.5q-3 -30 -24.5 -38.5t-92.5 -8.5q-69 0 -86.5 8t-15.5 35q12 139 -125 162l-43 -416q72 -23 120.5 -42.5t97 -49.5t76 -65t45 -86t17.5 -115q0 -383 -418 -420l-14 -138q-3 -24 -20 -30t-84 -6zM846 387q0 61 -37.5 98.5t-114.5 65.5 l-39 -377q191 34 191 213zM410 983q0 -63 36 -99.5t113 -66.5l39 367q-188 -21 -188 -201z" />
<glyph unicode="%" horiz-adv-x="1628" d="M492 1368q270 0 270 -262q0 -64 -9.5 -118.5t-32.5 -105t-59 -86t-92.5 -56.5t-128.5 -21q-135 0 -203.5 67t-68.5 195q0 81 16.5 147.5t52.5 122t101 86.5t154 31zM446 856q152 0 152 248q0 69 -26.5 99t-86.5 30q-151 0 -151 -248q0 -68 26 -98.5t86 -30.5zM1362 1319 l-862 -1288q-14 -23 -32 -29t-79 -6q-26 0 -41 2t-22.5 6.5t-7 12t7.5 18.5l862 1288q15 24 32 30.5t78 6.5q72 0 72 -22q0 -8 -8 -19zM1247 637q273 0 273 -264q0 -80 -16.5 -146.5t-52 -121.5t-100.5 -86t-155 -31q-272 0 -272 262q0 80 16.5 146.5t52.5 122.5t100.5 87 t153.5 31zM1202 123q152 0 152 250q0 67 -26.5 97t-86.5 30q-151 0 -151 -246q0 -69 26 -100t86 -31z" />
<glyph unicode="&#x26;" horiz-adv-x="1429" d="M1280 184q19 4 27.5 -14t11.5 -66q6 -46 1.5 -62t-22.5 -26q-51 -28 -131 -28q-165 0 -223 110q-134 -118 -356 -118q-239 0 -357 93.5t-118 272.5q0 130 58.5 232t178.5 151q-65 30 -101 92.5t-36 149.5q0 206 128.5 305.5t356.5 99.5t332.5 -82t87.5 -245 q-3 -29 -26 -38.5t-91 -9.5q-63 0 -80.5 8t-15.5 35q5 77 -41 112.5t-170 35.5q-125 0 -191.5 -54t-66.5 -182q0 -84 40.5 -116.5t141.5 -32.5h62q19 0 23 -16t-1 -70q-6 -54 -13 -69t-27 -15h-56q-116 0 -189 -71t-73 -195q0 -102 60.5 -155.5t197.5 -53.5q297 0 322 244 l22 231h-102q-21 0 -25.5 15t0.5 69q6 54 13.5 70t27.5 16h457q19 0 23 -16t-1 -70q-6 -55 -12.5 -69.5t-26.5 -14.5h-155l-25 -238q-3 -27 -8 -41q-2 -29 -2 -75q0 -66 20.5 -89.5t71.5 -23.5q15 0 78 14z" />
<glyph unicode="'" horiz-adv-x="428" d="M195 958l26 426q2 24 19 30.5t79 6.5q64 0 81 -7t14 -30l-62 -426q-4 -21 -19 -26.5t-63 -5.5q-51 0 -64.5 5.5t-10.5 26.5z" />
<glyph unicode="(" horiz-adv-x="735" d="M141 193q0 126 8 247.5t27.5 245.5t48.5 231t73 201.5t100 162t131 106t163 38.5h41q21 0 25 -15t-2 -69q-4 -55 -11.5 -70.5t-27.5 -15.5h-29q-76 0 -137.5 -74t-99.5 -188.5t-63.5 -263t-35.5 -286.5t-10 -269q0 -197 45 -289t148 -92h26q21 0 25.5 -15.5t-0.5 -70.5 q-6 -54 -13.5 -69t-29.5 -15h-41q-190 0 -275.5 141t-85.5 429z" />
<glyph unicode=")" horiz-adv-x="735" d="M594 856q0 -126 -8 -247.5t-27.5 -245.5t-48.5 -231.5t-73 -202t-100 -162t-131 -106t-163 -38.5h-41q-21 0 -24.5 15t2.5 69q5 56 11.5 71t26.5 15h29q76 0 137.5 74t99.5 188.5t63.5 263t35.5 286.5t10 269q0 197 -44.5 289t-147.5 92h-27q-21 0 -25 15.5t1 70.5 q6 54 13.5 69t29.5 15h40q190 0 275.5 -141t85.5 -428z" />
<glyph unicode="*" horiz-adv-x="1060" d="M287 1204l262 -131l-10 303q0 24 18.5 31.5t79.5 7.5q60 0 78 -8t12 -31l-74 -303l291 131q22 9 33.5 -6t23.5 -72q11 -58 7 -78t-27 -24l-307 -51l186 -223q14 -16 1.5 -34t-66.5 -52q-52 -35 -72.5 -39.5t-28.5 16.5l-110 268l-168 -268q-11 -21 -30.5 -16.5 t-63.5 39.5q-47 35 -56.5 52t8.5 34l234 223l-297 51q-23 4 -23 24t25 78q24 57 38.5 72t35.5 6z" />
<glyph unicode="+" d="M725 1024l-31 -297h295q22 0 27.5 -16.5t-0.5 -75.5t-13 -74.5t-28 -15.5h-299l-31 -297q-2 -22 -18.5 -28.5t-77.5 -6.5t-78.5 6.5t-15.5 28.5l30 297h-292q-23 0 -29 17.5t0 72.5q6 59 13.5 75.5t29.5 16.5h299l31 297q3 22 19.5 28.5t76.5 6.5t77.5 -6.5t14.5 -28.5z " />
<glyph unicode="," horiz-adv-x="514" d="M266 270q72 0 97 -10t18 -41q-21 -74 -100 -225t-131 -232q-19 -25 -41.5 -31.5t-69.5 -6.5q-40 0 -56 9.5t-8 35.5q99 247 144 448q5 23 16 33t40 15t91 5z" />
<glyph unicode="-" horiz-adv-x="829" d="M178 645h518q23 0 29 -16.5t0 -73.5q-6 -59 -13 -74.5t-28 -15.5h-520q-22 0 -27 15.5t0 74.5t11.5 74.5t29.5 15.5z" />
<glyph unicode="." horiz-adv-x="514" d="M217 -4q-83 0 -107.5 10t-21.5 43l18 168q3 36 26.5 45.5t109.5 9.5q84 0 108 -9.5t21 -45.5l-19 -168q-3 -34 -28 -43.5t-107 -9.5z" />
<glyph unicode="/" horiz-adv-x="737" d="M817 1419l-631 -1546q-7 -19 -15 -26t-32.5 -11t-77.5 -4q-65 0 -81.5 8.5t-8.5 34.5l631 1546q9 26 29.5 33.5t95.5 7.5q67 0 83 -8.5t7 -34.5z" />
<glyph unicode="0" horiz-adv-x="1179" d="M672 1290q222 0 325 -116.5t103 -360.5q0 -833 -543 -833q-222 0 -325 116.5t-103 360.5q0 833 543 833zM567 168q86 0 148 54t95 150.5t47.5 206.5t14.5 244q0 151 -47 215t-161 64q-308 0 -308 -656q0 -149 48 -213.5t163 -64.5z" />
<glyph unicode="1" horiz-adv-x="868" d="M326 39l106 1018l-239 -56q-24 -6 -30 13.5t-1 75.5q7 63 16 81t31 23l418 98q57 9 51 -28l-129 -1225q-2 -27 -22 -35t-91 -8q-72 0 -92 8t-18 35z" />
<glyph unicode="2" horiz-adv-x="1091" d="M635 1290q200 0 296.5 -85t96.5 -236q0 -48 -7.5 -91.5t-18.5 -79t-33 -70.5t-41 -60.5t-53.5 -55.5t-60 -50t-71 -48.5t-75 -46t-82.5 -47.5q-134 -77 -183 -118q-66 -56 -84 -112h603q24 0 29 -16t-1 -78q-8 -65 -14 -80.5t-27 -15.5h-805q-24 0 -29 16t1 78l4 37 q12 118 89.5 207t238.5 186q28 17 75.5 43t79 44t72.5 45t67.5 55t51.5 63.5t37 80.5t12 97q0 78 -43 115t-137 37q-110 0 -164.5 -42.5t-69.5 -139.5q-5 -28 -23.5 -36.5t-84.5 -8.5q-68 0 -88.5 9.5t-18.5 39.5q23 193 135 278.5t326 85.5z" />
<glyph unicode="3" horiz-adv-x="1083" d="M528 565h-114q-21 0 -25 14.5t2 71.5q6 55 13.5 70.5t27.5 15.5h119q112 0 169.5 54t57.5 174q0 74 -43 107.5t-141 33.5q-109 0 -162.5 -36t-64.5 -107q-6 -27 -24.5 -35t-86.5 -8t-87.5 8t-16.5 37q22 167 134 246t318 79q201 0 301.5 -79.5t100.5 -225.5 q0 -107 -47.5 -194t-149.5 -134q164 -55 164 -249q0 -206 -126 -317t-345 -111q-223 0 -336 81t-96 248q3 29 24 38t88 9q68 0 85.5 -8.5t15.5 -36.5q-2 -72 48.5 -109.5t168.5 -37.5q119 0 183.5 61t64.5 181q0 89 -55.5 124t-164.5 35z" />
<glyph unicode="4" horiz-adv-x="1134" d="M741 -4q-72 0 -92 8t-18 35l28 262h-573q-23 0 -28 20.5t3 79.5q4 47 12.5 67.5t28.5 45.5l584 727q19 23 46.5 30t103.5 7q89 0 118 -8t25 -35l-78 -748h150q22 0 27 -17.5t-1 -76.5q-8 -61 -15 -76.5t-30 -15.5h-151l-27 -262q-2 -27 -22 -35t-91 -8zM289 487h395 l59 574z" />
<glyph unicode="5" horiz-adv-x="1042" d="M520 641q-129 0 -221 -39q-32 -12 -92 -12q-48 0 -65.5 9t-14.5 34l102 596q3 26 21 33.5t76 7.5h598q22 0 27 -16t-1 -74q-6 -59 -13 -74.5t-28 -15.5h-510l-59 -334q92 43 225 43q183 0 280 -84.5t97 -257.5q0 -222 -118.5 -349.5t-354.5 -127.5q-204 0 -308 80.5 t-91 244.5q2 26 21.5 34.5t82.5 8.5q64 0 81 -7.5t17 -33.5q-5 -75 42.5 -115t160.5 -40q250 0 250 297q0 98 -46.5 145t-158.5 47z" />
<glyph unicode="6" horiz-adv-x="1105" d="M811 987q3 65 -37 94t-125 29q-253 0 -303 -412q96 99 285 99q182 0 277.5 -81t95.5 -245q0 -236 -122.5 -363.5t-349.5 -127.5q-218 0 -315.5 116t-97.5 332q0 862 534 862q84 0 153 -17.5t120.5 -52.5t77.5 -93.5t20 -135.5q-5 -29 -25.5 -38t-87.5 -9q-66 0 -84 8 t-16 35zM332 520v-102q0 -122 45 -189t162 -67q72 0 122.5 22.5t77 65t38 92.5t11.5 115q0 90 -44 130t-152 40q-173 0 -260 -107z" />
<glyph unicode="7" horiz-adv-x="1003" d="M174 43q92 237 253.5 527t317.5 509h-559q-22 0 -27 16.5t1 78.5q6 64 13 80t28 16h772q22 0 27 -16t-1 -74q-6 -61 -41 -111q-156 -230 -307 -513t-245 -517q-9 -26 -35 -34.5t-101 -8.5q-70 0 -87.5 10t-8.5 37z" />
<glyph unicode="8" horiz-adv-x="1136" d="M100 295q0 81 19.5 143t56.5 103.5t79 68t99 47.5q-78 34 -122 92.5t-44 157.5q0 195 123 289t342 94q201 0 304.5 -78.5t103.5 -226.5q-1 -98 -33 -168t-79 -107t-115 -63q88 -38 137.5 -100.5t50.5 -169.5q0 -205 -130 -301t-360 -96q-218 0 -325 81t-107 234zM801 373 q0 89 -52 134.5t-151 76.5q-50 -13 -85.5 -25t-73.5 -34t-61.5 -49t-38.5 -68.5t-15 -94.5q0 -77 53 -115t166 -38q115 0 186.5 50t71.5 163zM406 911q0 -78 47.5 -119.5t136.5 -70.5q59 16 98.5 32.5t77.5 44.5t57 71.5t19 101.5q0 75 -47 109t-152 34q-237 0 -237 -203z " />
<glyph unicode="9" horiz-adv-x="1105" d="M338 283q-3 -65 37 -94t125 -29q249 0 303 411q-95 -98 -285 -98q-182 0 -277.5 81t-95.5 245q0 236 122 363.5t349 127.5q218 0 316 -116t98 -332q0 -862 -534 -862q-84 0 -153 17.5t-120.5 52.5t-77.5 93.5t-20 135.5q5 29 25.5 38t87.5 9q66 0 84 -8t16 -35zM817 852 q0 122 -45 189t-162 67q-72 0 -122.5 -22.5t-77.5 -65t-38.5 -92.5t-11.5 -115q0 -90 44.5 -130t152.5 -40q174 0 258 107q2 37 2 102z" />
<glyph unicode=":" horiz-adv-x="559" d="M240 -4q-83 0 -107.5 10t-21.5 43l18 168q3 36 26.5 45.5t108.5 9.5q84 0 108 -9.5t21 -45.5l-18 -168q-3 -34 -28 -43.5t-107 -9.5zM315 729q-83 0 -107.5 10t-21.5 43l19 168q3 37 26.5 46.5t108.5 9.5q84 0 108 -10t21 -46l-18 -168q-3 -34 -28.5 -43.5t-107.5 -9.5z " />
<glyph unicode=";" horiz-adv-x="559" d="M315 729q-83 0 -107.5 10t-21.5 43l19 168q3 37 26.5 46.5t108.5 9.5q84 0 108 -10t21 -46l-18 -168q-3 -34 -28.5 -43.5t-107.5 -9.5zM285 270q72 0 96.5 -10t17.5 -41q-21 -74 -100 -225t-131 -232q-19 -25 -41.5 -31.5t-69.5 -6.5q-40 0 -55.5 9.5t-7.5 35.5 q97 241 143 448q5 23 16 33.5t40.5 15t91.5 4.5z" />
<glyph unicode="&#x3c;" d="M166 635q6 57 14.5 77t28.5 31l711 457q20 12 36 1.5t45 -54.5q28 -47 31.5 -66t-16.5 -30l-645 -416l557 -414q17 -12 10 -31t-45 -65q-36 -44 -55.5 -55t-36.5 2l-615 454q-16 13 -20.5 31t0.5 78z" />
<glyph unicode="=" d="M195 518h772q22 0 26 -17t-2 -75q-6 -56 -14.5 -73t-30.5 -17h-772q-23 0 -28 16.5t1 73.5q6 58 15 75t33 17zM236 932h772q22 0 26 -17t-2 -75q-6 -56 -14.5 -73t-30.5 -17h-772q-23 0 -28 16.5t1 73.5q6 58 15 75t33 17z" />
<glyph unicode="&#x3e;" d="M1010 637q-6 -57 -14.5 -77.5t-28.5 -31.5l-711 -456q-20 -12 -36.5 -1.5t-45.5 54.5q-28 46 -31 65.5t17 30.5l645 416l-557 414q-17 12 -10 31t45 65q36 44 55.5 55t36.5 -2l614 -455q17 -13 22 -33t-1 -75z" />
<glyph unicode="?" d="M651 496l-8 -45q-5 -24 -22.5 -31.5t-79.5 -7.5q-61 0 -75.5 7t-14.5 32v47q1 53 23.5 98t57 78t76 63.5t82.5 61t75.5 63.5t55.5 78t21 98q0 74 -46 111t-149 37q-121 0 -180.5 -45.5t-73.5 -147.5q-5 -28 -23.5 -36.5t-86.5 -8.5t-89 9.5t-18 39.5q21 197 141.5 288 t341.5 91q209 0 309.5 -87t100.5 -232q0 -73 -21 -132t-55 -98.5t-75.5 -72.5t-85 -60.5t-80.5 -54.5t-65 -63.5t-36 -79.5zM500 -4q-83 0 -107.5 10t-21.5 43l18 168q3 36 26.5 45.5t108.5 9.5q84 0 108 -9.5t21 -45.5l-18 -168q-3 -34 -28 -43.5t-107 -9.5z" />
<glyph unicode="@" horiz-adv-x="1818" d="M1110 584l25 239q-53 29 -152 29q-57 0 -99.5 -18.5t-67.5 -49t-40.5 -76t-20.5 -92.5t-5 -106q0 -91 35 -130.5t116 -39.5q187 0 209 244zM1145 -141h-281q-173 0 -299.5 31t-219 99.5t-139 184.5t-46.5 281q0 444 213 668.5t651 224.5q248 0 401 -64t221 -188.5 t68 -319.5q0 -55 -3 -106t-13 -115t-26 -118t-45 -107t-67.5 -89.5t-95 -59.5t-125.5 -23q-191 0 -211 155q-89 -135 -260 -135q-311 0 -311 318q0 520 434 520q182 0 297 -64q40 -19 37 -49l-49 -459q-7 -77 8.5 -116t65.5 -39q41 0 73.5 23t53 65t34 89t20 106.5t9 106.5 t2.5 99q0 236 -115.5 328t-408.5 92q-363 0 -524.5 -171.5t-161.5 -567.5q0 -136 34 -225.5t106.5 -139t167 -69t234.5 -19.5h291q17 0 20.5 -14t0.5 -60q-6 -44 -13.5 -58.5t-27.5 -14.5z" />
<glyph unicode="A" horiz-adv-x="1210" d="M1001 -4q-73 0 -94 8.5t-26 38.5q-17 112 -52 313h-458q-69 -175 -115 -313q-9 -30 -33 -38.5t-98 -8.5q-70 0 -92 9.5t-13 35.5q98 272 257.5 653t279.5 623q13 26 39 34.5t106 8.5q83 0 110.5 -9t33.5 -34q68 -238 147 -617.5t121 -658.5q5 -26 -18 -35.5t-95 -9.5z M680 1104q-118 -265 -236 -559h351q-62 328 -115 559z" />
<glyph unicode="B" horiz-adv-x="1247" d="M418 600l-43 -405h239q65 0 114 10t91.5 35t65 74t22.5 120q0 98 -66 132t-208 34h-215zM690 1161h-215l-39 -373h221q55 0 100.5 11.5t82.5 36.5t57.5 69.5t20.5 104.5q0 81 -53.5 116t-174.5 35zM375 1356h336q440 0 440 -318q0 -233 -209 -327q199 -51 199 -277 q0 -220 -135.5 -327t-380.5 -107h-392q-68 0 -87 8t-17 35l133 1270q5 27 25 35t88 8z" />
<glyph unicode="C" horiz-adv-x="1232" d="M147 678q20 193 59 321t109.5 214.5t175 124.5t257.5 38q224 0 338 -98t96 -301q-3 -29 -25 -38t-92 -9t-90.5 8t-18.5 35q9 104 -41.5 154.5t-175.5 50.5q-120 0 -188 -43t-107 -149t-61 -308q-12 -114 -12 -197q0 -119 28 -185t83.5 -92t154.5 -26q127 0 187.5 52.5 t74.5 162.5q3 27 25.5 36t91.5 9t89.5 -9t18.5 -38q-24 -207 -141 -309t-354 -102q-262 0 -377 118t-115 387q0 76 10 193z" />
<glyph unicode="D" horiz-adv-x="1292" d="M375 197h223q96 0 158 21.5t105.5 78.5t67 146.5t38.5 234.5q12 108 12 184q0 168 -63 232.5t-218 64.5h-223zM590 0h-354q-68 0 -88.5 8.5t-18.5 34.5l133 1270q3 27 23.5 35t87.5 8h338q266 0 383.5 -115.5t117.5 -374.5q0 -71 -10 -188q-15 -149 -42.5 -256t-73 -190 t-114 -132.5t-162 -74.5t-220.5 -25z" />
<glyph unicode="E" horiz-adv-x="1153" d="M1065 1157h-590l-37 -364h512q25 0 31.5 -18.5t-0.5 -80.5q-8 -66 -15 -82t-30 -16h-518l-43 -397h590q25 0 32 -19.5t0 -81.5q-7 -65 -15 -81.5t-30 -16.5h-716q-67 0 -88 8.5t-19 34.5l133 1270q5 27 24.5 35t86.5 8h706q23 0 30 -19.5t1 -81.5q-6 -64 -14 -81t-31 -17 z" />
<glyph unicode="F" horiz-adv-x="1069" d="M416 588l-58 -549q-2 -27 -22.5 -35t-93.5 -8q-74 0 -94.5 8t-18.5 35l133 1274q5 27 24.5 35t86.5 8h688q23 0 30 -19t1 -82t-14.5 -80.5t-30.5 -17.5h-572l-37 -371h498q26 0 32 -17t-1 -83q-6 -64 -14 -81t-31 -17h-506z" />
<glyph unicode="G" horiz-adv-x="1282" d="M1079 705q62 0 81 -11.5t16 -44.5l-25 -217q-45 -452 -512 -452q-260 0 -381 122t-121 398q0 73 10 178q40 380 173.5 539t431.5 159q233 0 347 -98t95 -281q-3 -30 -26 -39.5t-91 -9.5q-69 0 -89.5 9t-18.5 36q9 93 -47.5 140t-180.5 47q-120 0 -188.5 -44t-108 -150.5 t-61.5 -307.5q-10 -85 -10 -176q0 -184 64.5 -255t211.5 -71q135 0 202 62.5t81 197.5l8 78h-254q-25 0 -31.5 18.5t0.5 75.5q6 64 13.5 80.5t29.5 16.5h381z" />
<glyph unicode="H" horiz-adv-x="1345" d="M1022 -4q-74 0 -94.5 8t-18.5 35l58 555h-551l-58 -555q-2 -27 -22.5 -35t-93.5 -8q-74 0 -94.5 8t-18.5 35l135 1278q3 27 22.5 35t92.5 8q74 0 96 -8.5t19 -34.5l-56 -522h551l55 522q3 27 22.5 35t92.5 8q74 0 96 -8.5t19 -34.5l-135 -1278q-2 -27 -22.5 -35t-94.5 -8 z" />
<glyph unicode="I" horiz-adv-x="573" d="M248 -4q-74 0 -95 8t-18 35l133 1278q3 27 23.5 35t93.5 8t94.5 -8.5t18.5 -34.5l-133 -1278q-3 -27 -24 -35t-93 -8z" />
<glyph unicode="J" horiz-adv-x="1071" d="M688 469l88 848q3 27 24.5 35t94.5 8t93.5 -8t17.5 -35l-91 -860q-13 -120 -41 -204t-81 -148t-138 -94.5t-206 -30.5q-189 0 -284 86.5t-95 250.5q0 22 4 72q3 30 24 38.5t92 8.5q69 0 90 -9t19 -36q-11 -108 26.5 -157.5t135.5 -49.5q114 0 162.5 66t64.5 219z" />
<glyph unicode="K" horiz-adv-x="1218" d="M1233 1307l-494 -594l385 -664q22 -39 -39 -49q-26 -4 -67 -4q-72 0 -101.5 8t-42.5 33l-327 573h-127l-62 -571q-3 -27 -23 -35t-93 -8q-74 0 -94.5 8t-18.5 35l135 1278q3 27 22.5 35t92.5 8q75 0 98.5 -8.5t20.5 -34.5l-56 -506h119l420 510q19 23 49 31t100 8 q134 0 111 -42q-3 -5 -8 -11z" />
<glyph unicode="L" horiz-adv-x="1019" d="M494 1317l-119 -1120h514q24 0 31 -19t0 -80q-6 -65 -14 -81.5t-32 -16.5h-638q-67 0 -88 8.5t-19 34.5l135 1274q3 27 22.5 35t92.5 8q74 0 96 -8.5t19 -34.5z" />
<glyph unicode="M" horiz-adv-x="1652" d="M803 147q-65 0 -86 8.5t-27 32.5l-227 887l-109 -1036q-2 -27 -22 -35t-92 -8t-92.5 8t-18.5 35l135 1276q3 28 33.5 36.5t134.5 8.5q93 0 128.5 -8.5t41.5 -34.5l225 -891l414 891q12 26 47 34.5t127 8.5q106 0 137.5 -8.5t28.5 -36.5l-135 -1276q-2 -27 -22 -35t-93 -8 q-72 0 -92 8t-18 35l108 1032l-411 -883q-11 -25 -31 -33t-84 -8z" />
<glyph unicode="N" horiz-adv-x="1357" d="M1176 1360q73 0 94 -8.5t18 -34.5l-135 -1278q-1 -19 -10 -27t-36.5 -12t-88.5 -4q-67 0 -89.5 7t-33.5 30l-440 956l-99 -950q-2 -27 -22 -35t-92 -8q-74 0 -94.5 8t-18.5 35l135 1278q2 19 10.5 27t35.5 12t87 4q67 0 90.5 -7.5t32.5 -29.5l441 -956l100 950 q3 27 23 35t92 8z" />
<glyph unicode="O" horiz-adv-x="1320" d="M754 1376q257 0 372 -119.5t115 -388.5q0 -73 -10 -190q-20 -191 -60 -320.5t-112 -215.5t-177 -124t-255 -38q-258 0 -374 120.5t-116 391.5q0 73 10 186q20 192 61 321t113 215t177 124t256 38zM637 176q117 0 186 43t110 151t62 308q13 120 13 190q0 177 -61 244.5 t-206 67.5q-118 0 -186.5 -43.5t-109 -150.5t-62.5 -308q-12 -111 -12 -191q0 -177 61 -244t205 -67z" />
<glyph unicode="P" horiz-adv-x="1202" d="M631 481h-228l-45 -442q-2 -27 -22.5 -35t-93.5 -8q-74 0 -94.5 8t-18.5 35l133 1274q5 27 25 35t86 8h325q240 0 351.5 -87t111.5 -274q0 -19 -4 -77q-23 -231 -145 -334t-381 -103zM475 1159l-51 -481h211q147 0 210.5 49.5t76.5 190.5q4 46 4 59q0 104 -56.5 143 t-185.5 39h-209z" />
<glyph unicode="Q" horiz-adv-x="1320" d="M754 1376q257 0 372 -119.5t115 -388.5q0 -73 -10 -190q-34 -326 -136 -487t-309 -197q45 -39 121.5 -60.5t163.5 -23.5q22 0 27 -17t0 -83q-6 -62 -15.5 -79.5t-33.5 -17.5q-151 0 -283.5 73.5t-204.5 195.5q-223 14 -323.5 134.5t-100.5 375.5q0 73 10 186 q20 192 61 321t113 215t177 124t256 38zM637 176q117 0 186 43t110 151t62 308q13 120 13 190q0 177 -61 244.5t-206 67.5q-118 0 -186.5 -43.5t-109 -150.5t-62.5 -308q-12 -111 -12 -191q0 -177 61 -244t205 -67z" />
<glyph unicode="R" horiz-adv-x="1232" d="M559 528h-149l-52 -489q-2 -27 -22.5 -35t-93.5 -8q-74 0 -94.5 8t-18.5 35l133 1274q5 27 24.5 35t86.5 8h329q237 0 347 -85.5t110 -264.5q0 -20 -4 -70q-27 -277 -285 -363q57 -31 93.5 -86.5t68.5 -150.5q53 -153 68 -289q1 -21 -2.5 -29t-30.5 -15t-88 -7 q-71 0 -94.5 8.5t-26.5 32.5q-13 112 -45 233q-33 127 -91.5 192.5t-162.5 65.5zM475 1161l-47 -444h209q146 0 209 46.5t76 174.5q2 16 2 47q0 98 -55.5 137t-186.5 39h-207z" />
<glyph unicode="S" horiz-adv-x="1179" d="M559 170q61 0 108 10t86.5 33.5t61 67.5t21.5 106q0 41 -15 71t-51 52.5t-75.5 37.5t-106.5 34q-50 14 -87.5 26t-82 31t-76.5 39t-64 48.5t-52 61.5t-32 77.5t-12 95.5q0 211 127 313t363 102q234 0 336.5 -85t87.5 -269q-3 -30 -24.5 -38.5t-94.5 -8.5q-68 0 -86.5 8 t-16.5 35q9 91 -41.5 129.5t-170.5 38.5q-250 0 -250 -203q0 -23 4 -42.5t15.5 -36t22 -29t33.5 -26t40 -22t51 -20.5t57 -19.5t67 -21.5q65 -21 106 -36t87.5 -38t73.5 -47.5t51 -58.5t34.5 -78t10.5 -100q0 -428 -512 -428q-236 0 -354 88.5t-101 271.5q2 30 23 38.5 t94 8.5q69 0 87.5 -8t16.5 -35q-9 -93 52 -133.5t188 -40.5z" />
<glyph unicode="T" horiz-adv-x="1097" d="M1077 1157h-334l-116 -1118q-3 -27 -23.5 -35t-93.5 -8q-74 0 -95 8t-18 35l117 1118h-330q-23 0 -29.5 18t-0.5 80q6 65 14.5 83t32.5 18h893q23 0 29.5 -19t0.5 -82t-14.5 -80.5t-32.5 -17.5z" />
<glyph unicode="U" horiz-adv-x="1318" d="M627 -20q-243 0 -355 97.5t-112 311.5q0 52 6 107l88 821q3 27 22.5 35t92.5 8q74 0 95.5 -8t18.5 -35l-86 -811q-6 -50 -6 -90q0 -122 57 -175t191 -53q154 0 220.5 71.5t84.5 246.5l86 811q3 27 23 35t92 8q74 0 96 -8.5t19 -34.5l-86 -821q-30 -274 -154 -395 t-393 -121z" />
<glyph unicode="V" horiz-adv-x="1204" d="M1139 1360q29 0 46 -1t36 -5t24.5 -14t-0.5 -25q-108 -289 -267 -667.5t-271 -608.5q-12 -27 -39 -35t-107 -8q-81 0 -106 8t-33 35q-64 232 -144.5 611t-127.5 665q-4 28 20 36.5t94 8.5q75 0 98.5 -9t26.5 -38q92 -570 199 -1049q224 514 422 1049q12 30 34 38.5 t95 8.5z" />
<glyph unicode="W" horiz-adv-x="1880" d="M1784 1360q74 0 98.5 -9t15.5 -36q-86 -275 -228 -661.5t-243 -614.5q-11 -27 -36 -35t-101 -8q-77 0 -99 8t-28 35q-67 345 -157 975q-193 -550 -365 -975q-9 -27 -32 -35t-99 -8q-77 0 -101 8t-32 35q-53 235 -114.5 623t-88.5 653q-3 27 22 36t99 9q69 0 90 -9t23 -38 q48 -504 133 -1026q192 519 366 1026q11 30 33 38.5t98 8.5q79 0 101.5 -8.5t25.5 -38.5q58 -451 154 -1026q183 498 346 1026q9 30 29.5 38.5t89.5 8.5z" />
<glyph unicode="X" horiz-adv-x="1226" d="M834 698l290 -651q12 -28 -13.5 -39.5t-98.5 -11.5q-69 0 -98.5 7.5t-39.5 31.5l-239 559h-6l-355 -559q-15 -24 -44 -31.5t-97 -7.5q-112 0 -112 30q0 9 8 21l426 651l-285 611q-13 29 10.5 40t100.5 11q68 0 97.5 -8t39.5 -33l235 -524l348 524q15 25 43 33t97 8 q115 0 116 -28q0 -9 -10 -23z" />
<glyph unicode="Y" horiz-adv-x="1167" d="M967 1317q13 28 33.5 35.5t95.5 7.5q111 0 118 -24q3 -9 -4 -23q-86 -157 -237 -404.5t-264 -414.5h-2l-48 -457q-1 -18 -9.5 -26t-32 -11.5t-74.5 -3.5q-72 0 -93.5 8t-19.5 33l47 457q-75 159 -173.5 405t-156.5 414q-8 27 15.5 37t99.5 10t97.5 -8t29.5 -35 q96 -321 221 -629q196 314 357 629z" />
<glyph unicode="Z" horiz-adv-x="1146" d="M256 1356h827q23 0 29 -20.5t0 -86.5q-5 -62 -31 -100l-723 -952h617q24 0 31 -19t0 -80q-6 -65 -13.5 -81.5t-29.5 -16.5h-861q-25 0 -31 19t1 83q8 71 32 101l723 956h-585q-23 0 -30 17.5t-1 80.5q7 64 15 81.5t30 17.5z" />
<glyph unicode="[" horiz-adv-x="735" d="M113 -332l180 1712q2 25 19.5 33t80.5 8h314q22 0 28 -15.5t0 -68.5q-6 -60 -11 -73t-26 -13h-223l-156 -1454h220q21 0 25.5 -15.5t0.5 -70.5q-6 -55 -13 -69.5t-28 -14.5h-313q-64 0 -82.5 8t-15.5 33z" />
<glyph unicode="\" horiz-adv-x="737" d="M438 -127l-301 1546q-5 26 12 34.5t84 8.5q52 0 75.5 -4t31 -11.5t10.5 -25.5l301 -1546q5 -26 -11.5 -34.5t-82.5 -8.5q-53 0 -76.5 4t-31.5 11.5t-11 25.5z" />
<glyph unicode="]" horiz-adv-x="735" d="M623 1380l-181 -1712q-2 -25 -19.5 -33t-80.5 -8h-313q-23 0 -29 16t0 68q6 60 11 73t26 13h223l156 1454h-219q-21 0 -26 16t-1 70q6 55 13 69.5t28 14.5h313q64 0 83 -8t16 -33z" />
<glyph unicode="^" d="M666 1368q65 0 85 -5.5t29 -25.5l271 -608q12 -27 -8.5 -36t-86.5 -9q-65 0 -89.5 8t-35.5 31l-184 432l-274 -432q-15 -24 -39.5 -31.5t-89.5 -7.5q-95 0 -102 20q-3 9 8 25l399 608q14 21 33 26t84 5z" />
<glyph unicode="_" horiz-adv-x="829" d="M741 -283h-788q-20 0 -24.5 14.5t-0.5 63.5q8 62 15 70q6 6 18 6h791q19 0 23 -14t1 -62q-6 -52 -11.5 -65t-23.5 -13z" />
<glyph unicode="`" horiz-adv-x="710" d="M565 1128l-313 156q-14 7 -17.5 14t4 25.5t31.5 52.5q33 51 48.5 61.5t31.5 -3.5l287 -201q18 -11 17.5 -23t-23.5 -45q-24 -35 -36 -41.5t-30 4.5z" />
<glyph unicode="a" horiz-adv-x="1079" d="M391 723q-2 -24 -20 -31.5t-84 -7.5q-70 0 -88.5 8.5t-14.5 38.5q29 291 412 291q201 0 290 -72t89 -215q0 -21 -4 -61l-68 -639q-2 -25 -20 -32t-86 -7q-67 0 -86 7t-17 32l6 88q-93 -139 -305 -139q-159 0 -237 68.5t-78 187.5q0 162 104 242.5t287 80.5h274l11 111 q10 96 -27 133t-145 37q-96 0 -141.5 -29.5t-51.5 -91.5zM729 412h-252q-81 0 -131.5 -35.5t-50.5 -116.5q0 -108 145 -108q119 0 196.5 54t86.5 146z" />
<glyph unicode="b" horiz-adv-x="1167" d="M469 1380l-49 -473q103 115 295 115q360 0 360 -408q0 -69 -4 -108q-28 -272 -138.5 -399t-314.5 -127q-203 0 -286 131l-13 -76q-3 -25 -21 -32t-85 -7t-85.5 7t-16.5 32l141 1345q3 26 22 33.5t86 7.5q70 0 91 -8t18 -33zM377 500q-6 -53 -6 -99q0 -128 49.5 -183.5 t163.5 -55.5q129 0 187.5 76.5t78.5 267.5q6 59 6 106q0 121 -46.5 174.5t-154.5 53.5q-133 0 -196 -78.5t-82 -261.5z" />
<glyph unicode="c" horiz-adv-x="1054" d="M608 838q-133 0 -191 -75.5t-77 -262.5q-8 -82 -8 -111q0 -123 46.5 -174t160.5 -51q175 0 190 121q3 24 23 32.5t84 8.5q74 0 91.5 -7.5t14.5 -37.5q-18 -144 -121.5 -222.5t-290.5 -78.5q-216 0 -317.5 99.5t-101.5 307.5q0 54 6 113q28 271 144.5 396.5t356.5 125.5 q189 0 284 -79t83 -216q-3 -29 -22.5 -37t-92.5 -8q-64 0 -82 8.5t-16 34.5q4 56 -38 84.5t-126 28.5z" />
<glyph unicode="d" horiz-adv-x="1167" d="M772 35l2 63q-101 -118 -297 -118q-366 0 -366 405q0 53 6 111q29 271 138.5 398.5t311.5 127.5q203 0 287 -129l51 487q3 26 22.5 33.5t88.5 7.5q68 0 88.5 -8t17.5 -33l-141 -1345q-2 -25 -21 -32t-86 -7t-84.5 7t-17.5 32zM813 500q6 56 6 102q0 126 -49.5 182 t-163.5 56q-130 0 -188.5 -77t-77.5 -267q-8 -78 -8 -107q0 -120 47.5 -173.5t155.5 -53.5q132 0 195.5 78t82.5 260z" />
<glyph unicode="e" horiz-adv-x="1081" d="M936 440h-610v-45q0 -127 51.5 -184t167.5 -57q85 0 131.5 29.5t54.5 82.5q5 26 23.5 33.5t83.5 7.5q70 0 87.5 -8t14.5 -39q-18 -130 -120 -205t-283 -75q-217 0 -321.5 100.5t-104.5 306.5q0 51 6 107q28 272 147 400t352 128q103 0 177.5 -27t118 -77.5t63.5 -115 t20 -145.5q0 -25 -4 -79l-4 -52q-6 -53 -15.5 -69.5t-35.5 -16.5zM608 846q-116 0 -177 -59.5t-87 -198.5h442l5 37q2 16 2 47q0 84 -42 129t-143 45z" />
<glyph unicode="f" horiz-adv-x="731" d="M680 819h-209l-82 -782q-3 -27 -21.5 -34t-88.5 -7q-69 0 -88.5 7.5t-16.5 33.5l80 782h-117q-22 0 -27 15.5t1 72.5q6 60 12 74t27 14l124 6l11 99q20 184 101 260t243 76q50 0 101 -9.5t77 -21.5q20 -9 21.5 -26t-13.5 -68q-18 -51 -30 -65t-31 -11q-58 14 -103 14 q-78 0 -111 -34.5t-42 -122.5l-11 -91h207q21 0 26 -16.5t-1 -73.5q-6 -60 -12.5 -76t-26.5 -16z" />
<glyph unicode="g" horiz-adv-x="1140" d="M274 -90q-16 -125 203 -125q53 0 93.5 8t76 27.5t54 57.5t18.5 93q0 75 -52.5 112.5t-156.5 53.5q-198 3 -293.5 93t-95.5 266q0 26 4 84q25 225 135.5 333.5t333.5 108.5q129 0 213 -37l295 31q24 1 30 -17t1 -73q-6 -57 -14 -72.5t-32 -15.5h-124q32 -71 32 -179 q0 -52 -4 -81q-31 -276 -203 -377q142 -73 142 -230q0 -96 -34.5 -166.5t-97 -112t-143.5 -61.5t-182 -20q-217 0 -319 74t-88 219q5 31 23 39t87 8q65 0 83 -8t15 -33zM530 311q118 0 177 65t73 202q4 46 4 65q0 104 -47.5 154.5t-150.5 50.5q-120 0 -176.5 -63.5 t-71.5 -204.5q-4 -50 -4 -68q0 -104 46 -152.5t150 -48.5z" />
<glyph unicode="h" horiz-adv-x="1161" d="M469 1380l-53 -501q44 61 123.5 102t193.5 41q153 0 236.5 -75t83.5 -226q0 -18 -4 -64l-66 -620q-2 -26 -21.5 -33.5t-89.5 -7.5q-69 0 -88 7.5t-18 33.5l63 602q10 102 -30 148.5t-135 46.5q-115 0 -191 -66t-88 -176l-57 -555q-2 -26 -21.5 -33.5t-89.5 -7.5t-89 7.5 t-17 33.5l141 1343q3 26 22 33.5t86 7.5q70 0 91 -8t18 -33z" />
<glyph unicode="i" horiz-adv-x="518" d="M113 37l98 928q2 25 21 33t87 8q70 0 90.5 -8t18.5 -33l-98 -928q-2 -26 -21.5 -33.5t-89.5 -7.5q-69 0 -88 7.5t-18 33.5zM360 1391q78 0 98 -10.5t17 -47.5l-14 -135q-3 -25 -11 -35t-32 -15t-78 -5q-77 0 -97.5 10.5t-15.5 44.5l15 135q3 38 22 48t96 10z" />
<glyph unicode="j" horiz-adv-x="536" d="M-63 -193q4 0 23.5 -2t33.5 -2q63 0 91.5 37t41.5 152l102 973q2 25 21.5 33t87.5 8q69 0 89.5 -8t18.5 -33l-104 -985q-12 -113 -36.5 -185.5t-66 -111.5t-90.5 -53.5t-122 -14.5q-80 0 -113 10q-21 6 -25 21t2 69q6 59 14.5 75.5t31.5 16.5zM379 1391q78 0 98 -10.5 t17 -47.5l-15 -135q-3 -25 -11 -35t-32 -15t-78 -5q-78 0 -97.5 10t-16.5 45l14 135q3 27 10.5 37.5t31 15.5t79.5 5z" />
<glyph unicode="k" horiz-adv-x="1042" d="M469 1380l-78 -745h92l312 328q25 26 50 34.5t93 8.5q120 0 116 -32q-1 -10 -12 -22l-395 -409l314 -494q22 -36 -27 -47q-28 -6 -84 -6q-67 0 -90.5 7.5t-40.5 33.5l-258 416h-90l-43 -418q-2 -25 -21.5 -32t-89.5 -7t-89 7t-17 32l141 1345q3 26 22 33.5t86 7.5 q70 0 91 -8t18 -33z" />
<glyph unicode="l" horiz-adv-x="550" d="M414 188h26q25 0 30 -16t-1 -78t-13.5 -78t-33.5 -16h-64q-136 0 -187 50t-38 179l121 1151q3 26 22 33.5t86 7.5q70 0 91 -8t18 -33l-117 -1124q-4 -39 8.5 -53.5t51.5 -14.5z" />
<glyph unicode="m" horiz-adv-x="1746" d="M1008 604l-60 -567q-3 -27 -21.5 -34t-88.5 -7q-71 0 -90.5 7.5t-16.5 33.5l64 614q10 96 -25.5 139.5t-122.5 43.5q-102 0 -177 -64t-85 -166l-59 -567q-2 -26 -21.5 -33.5t-89.5 -7.5q-69 0 -88 7.5t-18 33.5l98 930q3 25 21.5 32t86.5 7q67 0 85 -7t16 -32l-6 -93 q43 63 122 105.5t185 42.5q226 0 280 -168q61 80 148 124t190 44q146 0 224.5 -73.5t78.5 -223.5q0 -18 -4 -68l-65 -620q-2 -26 -21.5 -33.5t-89.5 -7.5q-69 0 -88 7.5t-18 33.5l65 614q9 97 -26 140t-123 43q-102 0 -176 -63.5t-84 -166.5z" />
<glyph unicode="n" horiz-adv-x="1159" d="M416 967l-6 -95q44 64 124.5 107t196.5 43q153 0 235.5 -75t82.5 -230q0 -5 -5 -68l-65 -612q-2 -26 -21.5 -33.5t-89.5 -7.5q-69 0 -88 7.5t-18 33.5l63 604q10 102 -29 147.5t-134 45.5q-116 0 -191.5 -65t-85.5 -175l-59 -557q-2 -26 -21.5 -33.5t-89.5 -7.5 q-69 0 -88 7.5t-18 33.5l98 930q3 25 21 32t85 7t86 -7t17 -32z" />
<glyph unicode="o" horiz-adv-x="1126" d="M618 1022q216 0 316 -99.5t100 -308.5q0 -52 -6 -114q-27 -270 -143.5 -395t-358.5 -125q-215 0 -315 99.5t-100 307.5q0 54 6 113q28 271 144.5 396.5t356.5 125.5zM539 162q132 0 189.5 75.5t78.5 262.5q8 86 8 114q0 121 -47.5 173.5t-159.5 52.5q-133 0 -191 -76 t-77 -264q-8 -82 -8 -113q0 -122 47 -173.5t160 -51.5z" />
<glyph unicode="p" horiz-adv-x="1165" d="M416 967l-4 -68q108 123 301 123q362 0 362 -406q0 -52 -6 -110q-29 -272 -139 -399t-312 -127q-204 0 -286 124l-45 -436q-2 -26 -21.5 -33.5t-89.5 -7.5q-69 0 -88 7.5t-18 33.5l137 1299q3 25 20.5 32t83.5 7q68 0 87 -7t18 -32zM375 500q-6 -53 -6 -99 q0 -128 49.5 -183.5t163.5 -55.5q129 0 187.5 76.5t78.5 267.5q6 59 6 106q0 121 -46.5 174.5t-154.5 53.5q-133 0 -196 -78.5t-82 -261.5z" />
<glyph unicode="q" horiz-adv-x="1165" d="M831 -373q-70 0 -89 7.5t-17 33.5l45 426q-102 -114 -293 -114q-366 0 -366 405q0 53 6 111q29 271 138.5 398.5t311.5 127.5q205 0 289 -135l14 80q3 18 10.5 25.5t28 10.5t66.5 3q68 0 87.5 -7t16.5 -32l-137 -1299q-2 -26 -21.5 -33.5t-89.5 -7.5zM813 500q6 56 6 102 q0 126 -49.5 182t-163.5 56q-130 0 -188.5 -77t-77.5 -267q-8 -78 -8 -107q0 -120 47.5 -173.5t155.5 -53.5q132 0 195.5 78t82.5 260z" />
<glyph unicode="r" horiz-adv-x="774" d="M729 797q-150 0 -244 -67.5t-106 -190.5l-53 -502q-2 -26 -21.5 -33.5t-89.5 -7.5q-69 0 -88 7.5t-18 33.5l98 930q3 25 21 32t85 7t86 -7t17 -32l-10 -140q47 81 136.5 135t207.5 54q21 0 28.5 -9.5t7.5 -39.5q0 -10 -4 -60q-7 -70 -17 -90t-36 -20z" />
<glyph unicode="s" horiz-adv-x="1001" d="M285 258q-2 -57 40.5 -82.5t149.5 -25.5q199 0 199 137q0 57 -47.5 83.5t-161.5 53.5q-75 16 -128.5 36t-100 52t-70 80t-23.5 113q0 170 104 243.5t296 73.5q201 0 291 -66t75 -204q-3 -28 -23.5 -36.5t-86.5 -8.5q-65 0 -81 7t-13 34q3 56 -34.5 80t-131.5 24 q-183 0 -183 -129q0 -21 5.5 -37t21 -29t29 -21.5t44 -18.5t50.5 -15t63 -16q47 -12 77.5 -21t67.5 -23t60 -28t46.5 -34.5t36.5 -44.5t21.5 -56.5t8.5 -71.5q0 -176 -108 -251.5t-312 -75.5q-218 0 -309.5 70t-77.5 202q3 30 22 38.5t86 8.5q63 0 81 -8t16 -33z" />
<glyph unicode="t" horiz-adv-x="782" d="M702 819h-241l-55 -514q-7 -76 13 -104.5t77 -28.5q22 0 42 3.5t41 10t27 7.5q17 4 28.5 -12t20.5 -56q11 -47 9 -64.5t-19 -29.5q-67 -43 -182 -43q-144 0 -209.5 55.5t-65.5 183.5q0 5 5 68l53 524h-117q-22 0 -26.5 15.5t-0.5 72.5q6 59 12.5 73.5t28.5 14.5l127 6 l25 232q3 27 21 34t85 7q68 0 87.5 -8t17.5 -33l-27 -232h238q22 0 26 -16.5t-2 -73.5q-6 -62 -12 -77t-27 -15z" />
<glyph unicode="u" horiz-adv-x="1144" d="M750 35l6 94q-103 -149 -303 -149q-160 0 -243 78t-83 235q0 19 4 65l66 607q2 26 20.5 33.5t87.5 7.5q70 0 90.5 -8t18.5 -33l-64 -596q-11 -103 31 -153t143 -50q108 0 176.5 67t79.5 177l60 555q2 26 20.5 33.5t87.5 7.5q70 0 90.5 -8t18.5 -33l-99 -930 q-2 -25 -21 -32t-87 -7q-67 0 -84.5 7t-15.5 32z" />
<glyph unicode="v" horiz-adv-x="1024" d="M924 1006q75 0 95 -10t11 -38q-77 -199 -200.5 -472.5t-219.5 -454.5q-10 -21 -38 -28t-101 -7q-74 0 -101 6.5t-34 28.5q-59 182 -124.5 455.5t-98.5 471.5q-6 29 14.5 38.5t95.5 9.5q66 0 89.5 -9t25.5 -30q52 -375 151 -779q186 402 320 779q5 22 27.5 30.5t87.5 8.5z " />
<glyph unicode="w" horiz-adv-x="1566" d="M1446 1006q68 0 89 -8.5t19 -28.5q-3 -18 -10 -39q-102 -335 -350 -901q-9 -20 -33.5 -26.5t-93.5 -6.5q-68 0 -89 6.5t-26 28.5q-52 212 -135 702q-147 -396 -280 -702q-9 -22 -30 -28.5t-89 -6.5q-70 0 -94.5 6.5t-28.5 26.5q-45 184 -90 441.5t-70 459.5q-4 24 -4 39 q3 21 23.5 29t87.5 8q65 0 86.5 -10.5t23.5 -37.5q27 -313 92 -722q188 469 281 729q8 23 31.5 32t89.5 9q65 0 87 -9t25 -32q42 -296 127 -729q148 404 244 722q8 28 30 38t87 10z" />
<glyph unicode="x" horiz-adv-x="1026" d="M686 41l-166 381h-14l-248 -381q-20 -29 -42 -37t-93 -8q-104 0 -105 31q0 8 7 18l321 469l-217 442q-19 37 46 46q26 4 65 4q63 0 84.5 -8t33.5 -33l166 -361h17l241 361q18 26 40.5 33.5t86.5 7.5q112 0 111 -33q-1 -8 -6 -17l-312 -442l222 -469q7 -16 -0.5 -26.5 t-34 -16.5t-72.5 -6q-72 0 -95.5 8.5t-35.5 36.5z" />
<glyph unicode="y" horiz-adv-x="1044" d="M176 -197q88 0 134.5 36.5t107.5 150.5q0 4 4 8q-61 3 -70 33q-60 181 -129.5 454.5t-107.5 472.5q-6 29 16 38.5t94 9.5q66 0 89.5 -9t25.5 -30q56 -366 168 -793q225 484 323 793q6 22 27.5 30.5t83.5 8.5q74 0 96.5 -10.5t12.5 -39.5q-65 -184 -200 -482t-251 -511 q-45 -84 -75 -133t-67.5 -95.5t-75 -69.5t-87 -36.5t-113.5 -13.5q-83 0 -112 10q-21 5 -26 22t1 68q6 60 15 77.5t32 17.5q3 0 29 -3.5t55 -3.5z" />
<glyph unicode="z" horiz-adv-x="989" d="M893 823l-553 -645h491q21 0 25.5 -15.5t-0.5 -72.5q-5 -61 -10.5 -75.5t-26.5 -14.5h-729q-21 0 -27 16t0 68q5 49 27 78l569 659h-466q-21 0 -26 16.5t1 73.5q5 58 11.5 74t27.5 16h700q21 0 26 -15.5t-1 -67.5q-3 -35 -10.5 -53t-28.5 -42z" />
<glyph unicode="{" horiz-adv-x="735" d="M61 524q6 55 14.5 70.5t30.5 15.5h46q36 0 55.5 20t34.5 81.5t30 189.5q6 60 11 100.5t13.5 90.5t19 83t26 70.5t35.5 61.5t48 48t62.5 37t79 21t97.5 8h67q22 0 27.5 -15t-0.5 -69q-6 -58 -12 -72t-27 -14h-62q-40 0 -68 -13t-47 -37.5t-32.5 -73.5t-22 -105t-18.5 -148 q-18 -166 -56.5 -245t-105.5 -105q48 -21 72 -71.5t24 -147.5q0 -66 -8 -131q-14 -150 -14 -211q0 -92 26.5 -129t94.5 -37h61q20 0 24.5 -15.5t0.5 -70.5q-6 -54 -13.5 -69t-29.5 -15h-68q-89 0 -148.5 20.5t-92 62.5t-45.5 94.5t-13 127.5q0 69 15 215q12 114 12 177 q0 69 -16 91.5t-54 22.5h-45q-22 0 -27.5 15.5t-1.5 70.5z" />
<glyph unicode="|" horiz-adv-x="673" d="M442 1380v-1753q0 -25 -19 -33t-85 -8q-68 0 -87.5 8t-19.5 33v1753q0 25 19.5 33t87.5 8q66 0 85 -8t19 -33z" />
<glyph unicode="}" horiz-adv-x="735" d="M674 524q-6 -55 -14.5 -70.5t-30.5 -15.5h-45q-36 0 -56 -20t-35 -81.5t-30 -189.5q-6 -60 -11 -100t-13.5 -90.5t-18.5 -83t-26 -70.5t-36 -62t-47.5 -48t-62 -37t-79 -21t-97.5 -8h-68q-22 0 -27.5 15t0.5 69q6 58 12 72t27 14h62q40 0 68 13t47 37.5t32.5 73.5t22 105 t18.5 148q18 166 56.5 245t105.5 105q-48 21 -72 71.5t-24 147.5q0 66 8 131q14 150 14 211q0 92 -26.5 129t-94.5 37h-61q-20 0 -24.5 15.5t-0.5 70.5q6 54 13.5 69t29.5 15h68q89 0 148.5 -20.5t92 -62.5t45.5 -94.5t13 -127.5q0 -78 -14 -215q-13 -123 -13 -176 q0 -70 16 -92.5t54 -22.5h45q22 0 27.5 -15.5t1.5 -70.5z" />
<glyph unicode="~" d="M537 696l159 -92q44 -24 76 -24q74 0 119 102q5 12 16.5 16t50.5 4q45 0 60 -10t6 -35q-42 -119 -111.5 -180t-158.5 -61q-72 0 -123 30l-160 91q-47 26 -78 26q-71 0 -117 -104q-5 -12 -17.5 -16.5t-49.5 -4.5q-45 0 -60 10t-6 35q41 119 111 180.5t160 61.5 q63 0 123 -29z" />
<glyph unicode="&#xa1;" horiz-adv-x="593" d="M313 586q59 0 75.5 -7.5t14.5 -31.5l-55 -856q-1 -22 -10.5 -32t-36 -14.5t-82.5 -4.5q-80 0 -104.5 10t-20.5 41l127 856q3 24 18.5 31.5t73.5 7.5zM332 729q-83 0 -107.5 10t-21.5 43l18 168q3 37 26.5 46.5t108.5 9.5q84 0 108 -10t21 -46l-18 -168q-3 -34 -28 -43.5 t-107 -9.5z" />
<glyph unicode="&#xa2;" horiz-adv-x="1077" d="M526 -4q-63 0 -80 7t-14 30l14 137q-161 23 -238 122t-77 281q0 51 6 109q27 242 125 366.5t291 147.5l16 137q2 24 18.5 30.5t78.5 6.5q64 0 80.5 -6.5t13.5 -30.5l-15 -137q143 -20 213.5 -94.5t61.5 -188.5q-3 -31 -22.5 -39t-92.5 -8q-63 0 -80.5 8.5t-17.5 34.5 q3 83 -98 103l-68 -660q109 20 125 109q3 26 21.5 34.5t82.5 8.5q73 0 91.5 -8t15.5 -39q-14 -125 -99.5 -201.5t-240.5 -91.5l-14 -131q-2 -24 -18 -30.5t-79 -6.5zM354 578q0 -99 30 -152t97 -72l72 654q-89 -21 -133.5 -97.5t-59.5 -228.5q-6 -58 -6 -104z" />
<glyph unicode="&#xa3;" horiz-adv-x="1222" d="M215 0q-26 -13 -43 3t-41 65q-16 30 -23 47.5t-5 38.5t22 32q86 49 143.5 135t57.5 187q0 48 -13 98h-149q-21 0 -25.5 14t0.5 68q5 57 10.5 70.5t26.5 13.5h88q-24 84 -24 168q0 210 126.5 323t356.5 113q228 0 330.5 -93.5t83.5 -276.5q-3 -33 -23 -42.5t-88 -9.5 q-70 0 -92 8.5t-21 36.5q9 94 -38 138.5t-162 44.5q-119 0 -183.5 -61t-64.5 -187q0 -72 22 -162h308q21 0 26 -14t0 -70q-5 -54 -11 -68t-28 -14h-247q10 -55 10 -104q0 -137 -78 -264q104 -52 248 -52q95 0 138 43t56 156q2 27 23.5 36t89.5 9t89 -10.5t19 -40.5 q-24 -212 -117.5 -298.5t-269.5 -86.5q-109 0 -211.5 29.5t-175.5 76.5q-60 -57 -141 -100z" />
<glyph unicode="&#xa4;" horiz-adv-x="1171" d="M121 336l88 88q-45 99 -45 254q0 152 43 250l-86 90q-13 11 -5 29t42 51q33 34 51 42t29 -5l75 -76q104 69 273 69q168 0 272 -69l78 76q11 13 28 5.5t52 -42.5q33 -33 40.5 -51t-5.5 -29l-86 -88q45 -99 45 -252q0 -151 -47 -254l88 -88q13 -11 5.5 -29t-40.5 -51 q-35 -34 -51.5 -41.5t-28.5 4.5l-78 76q-101 -70 -272 -70q-172 0 -273 70l-75 -76q-12 -12 -29.5 -4t-50.5 41q-34 33 -42 51t5 29zM586 401q125 0 175 62t50 215q0 151 -50 212.5t-175 61.5q-124 0 -175 -61.5t-51 -212.5q0 -152 51 -214.5t175 -62.5z" />
<glyph unicode="&#xa5;" horiz-adv-x="1173" d="M1016 371h-316l-34 -334q-3 -25 -24.5 -33t-94.5 -8q-74 0 -95 8t-18 33l33 334h-309q-21 0 -25.5 13.5t0.5 66.5q4 55 10.5 68t26.5 13h293q-10 22 -57 138h-216q-21 0 -25.5 13.5t-0.5 66.5q6 55 11.5 67t25.5 12h141q-120 299 -180 484q-5 18 1.5 27.5t34.5 14.5t85 5 q73 0 95 -8t28 -35q74 -260 210 -623q219 363 345 623q14 28 33.5 35.5t92.5 7.5q113 0 119 -26q2 -8 -4 -21q-98 -188 -278 -484h135q21 0 25 -12.5t-1 -66.5q-5 -56 -10 -68t-26 -12h-222l-86 -138h287q22 0 26.5 -13t0.5 -68q-6 -54 -11.5 -67t-25.5 -13z" />
<glyph unicode="&#xa6;" horiz-adv-x="673" d="M440 305v-680q0 -24 -18.5 -31.5t-83.5 -7.5q-66 0 -84 7.5t-18 31.5v680q0 25 18 33t84 8q65 0 83.5 -8t18.5 -33zM440 1382v-680q0 -25 -18.5 -32.5t-83.5 -7.5q-66 0 -84 7.5t-18 32.5v680q0 24 18 31.5t84 7.5q65 0 83.5 -7.5t18.5 -31.5z" />
<glyph unicode="&#xa7;" horiz-adv-x="1169" d="M283 -82q2 -65 50 -99t163 -34q53 0 91.5 7.5t72.5 27t51.5 58t17.5 95.5q0 68 -47 101.5t-170 62.5q-55 12 -92.5 22.5t-85.5 28.5t-79.5 41.5t-60.5 56t-43 77.5t-14 100q0 253 217 336q-110 89 -110 233q0 177 117.5 260.5t318.5 83.5q209 0 304.5 -73t80.5 -218 q-3 -28 -22 -36.5t-85 -8.5q-65 0 -80.5 7t-13.5 34q2 65 -40 97t-148 32q-39 0 -74 -7t-69 -23.5t-54 -49.5t-20 -79q0 -69 52.5 -113.5t170.5 -75.5q146 -38 194 -59q124 -54 156 -162q12 -42 12 -94q0 -256 -204 -338q98 -78 98 -221q0 -369 -446 -369q-226 0 -325 79 t-85 214q3 30 20 38.5t84 8.5q63 0 80 -7.5t17 -33.5zM575 705l-28 6q-89 -14 -146 -71.5t-57 -150.5q0 -35 14 -62t27 -42.5t54 -31.5t58.5 -21t75.5 -19q5 -2 8 -2.5t7 -1.5l8 -2l39 -10q209 24 209 233q0 36 -14 62.5t-26.5 41.5t-54.5 29.5t-59.5 18.5t-80.5 16 q-7 2 -11 2.5t-11 2t-12 2.5z" />
<glyph unicode="&#xa8;" horiz-adv-x="710" d="M268 1374q74 0 93.5 -10t15.5 -49l-12 -117q-3 -37 -23.5 -48t-91.5 -11q-75 0 -94.5 12t-14.5 53l13 111q3 40 21.5 49.5t92.5 9.5zM641 1374q74 0 93.5 -10t15.5 -49l-13 -117q-3 -37 -23 -48t-91 -11q-75 0 -94.5 12t-14.5 53l12 111q3 40 22 49.5t93 9.5z" />
<glyph unicode="&#xa9;" horiz-adv-x="1603" d="M489 678q0 220 73.5 313.5t250.5 93.5q139 0 210 -61t71 -178q0 -20 -14 -26.5t-58 -6.5q-45 0 -58.5 6t-13.5 25q-3 61 -34 87.5t-101 26.5q-68 0 -104.5 -23.5t-54 -83.5t-17.5 -173q0 -114 17.5 -175t54 -84.5t104.5 -23.5q70 0 103.5 29.5t33.5 91.5q0 19 14.5 26 t57.5 7q41 0 56.5 -7t15.5 -26q0 -248 -283 -248q-177 0 -250.5 94.5t-73.5 315.5zM801 1372q349 0 497 -164t148 -530q0 -367 -148 -530.5t-497 -163.5q-348 0 -496.5 164t-148.5 530q0 365 148.5 529.5t496.5 164.5zM801 111q145 0 241 30t156 99.5t85.5 174.5t25.5 263 q0 126 -16.5 217.5t-52 159t-95.5 108.5t-144 60.5t-200 19.5q-144 0 -240 -30t-156 -99t-85 -173.5t-25 -262.5t25 -263t85 -174.5t156 -99.5t240 -30z" />
<glyph unicode="&#xaa;" horiz-adv-x="737" d="M524 987h-149q-99 0 -99 -88q0 -33 20 -44t64 -11q65 0 110.5 25.5t49.5 76.5zM338 1182q-2 -17 -14.5 -22t-59.5 -5q-52 0 -63 5t-8 26q9 91 73.5 137.5t192.5 46.5q142 0 195 -55.5t42 -165.5l-41 -383q-1 -23 -12 -28t-61 -5q-51 0 -64 5t-12 28l4 53 q-34 -45 -76.5 -69.5t-111.5 -24.5q-94 0 -143.5 44.5t-49.5 117.5q0 103 65 151.5t181 48.5h160l8 62q5 54 -15 74t-79 20q-57 0 -82.5 -14.5t-28.5 -46.5z" />
<glyph unicode="&#xab;" horiz-adv-x="1054" d="M127 557q6 38 27 64l208 245q14 18 34.5 23.5t82.5 5.5q95 0 95 -23q0 -7 -7 -16l-256 -299l193 -299q19 -32 -38 -39q-21 -2 -52 -2q-63 0 -84.5 6t-32.5 25l-158 246q-15 25 -12 63zM522 557q6 38 27 64l209 245q14 18 34 23.5t82 5.5q95 0 96 -23q-1 -7 -7 -16 l-256 -299l192 -299q19 -32 -38 -39q-21 -2 -52 -2q-63 0 -84.5 6t-32.5 25l-157 246q-16 27 -13 63z" />
<glyph unicode="&#xad;" horiz-adv-x="829" d="M178 645h518q23 0 29 -16.5t0 -73.5q-6 -59 -13 -74.5t-28 -15.5h-520q-22 0 -27 15.5t0 74.5t11.5 74.5t29.5 15.5z" />
<glyph unicode="&#xae;" horiz-adv-x="1107" d="M553 1372q235 0 336.5 -109.5t101.5 -347.5q0 -237 -101.5 -346.5t-336.5 -109.5q-234 0 -336 109.5t-102 346.5t102 347t336 110zM553 553q191 0 263.5 81.5t72.5 280.5t-72.5 281t-263.5 82q-190 0 -262 -82t-72 -281t72 -280.5t262 -81.5zM541 856h-49v-176 q0 -10 -10.5 -13t-41.5 -3q-32 0 -41.5 3t-9.5 13v469q0 10 8 14t33 4h135q103 0 149 -37t46 -120q0 -102 -90 -136q42 -29 61 -69q32 -66 37 -125q1 -6 -1.5 -9t-13.5 -5t-34 -2q-28 0 -37 3.5t-12 14.5q-8 44 -25 92q-32 76 -102 82h-2zM492 1083v-149h71q56 0 77.5 16 t21.5 60t-21 58.5t-78 14.5h-71z" />
<glyph unicode="&#xaf;" horiz-adv-x="710" d="M709 1151h-545q-21 0 -25.5 13.5t0.5 62.5q5 50 10.5 63t24.5 13h545q20 0 25 -14.5t1 -61.5q-6 -52 -11.5 -64t-24.5 -12z" />
<glyph unicode="&#xb0;" horiz-adv-x="755" d="M471 1372q242 0 242 -207q0 -288 -277 -288q-243 0 -243 208q0 135 68.5 211t209.5 76zM440 997q70 0 108 39.5t38 116.5q0 52 -27.5 75t-91.5 23q-71 0 -108 -39.5t-37 -115.5q0 -52 27 -75.5t91 -23.5z" />
<glyph unicode="&#xb1;" d="M735 1124l-30 -293h294q22 0 27.5 -16.5t-0.5 -75.5q-6 -60 -12 -75t-27 -15h-301l-31 -291q-2 -23 -18 -29.5t-76 -6.5q-62 0 -79.5 6.5t-14.5 29.5l31 291h-293q-23 0 -29 17.5t0 72.5q6 60 13 76t28 16h299l31 293q3 21 20 28t76 7t77 -7t15 -28zM147 176h785 q21 0 26 -15t0 -73q-6 -60 -11.5 -74t-26.5 -14h-785q-22 0 -28.5 17t-0.5 71q6 59 12.5 73.5t28.5 14.5z" />
<glyph unicode="&#xb2;" horiz-adv-x="710" d="M623 659h-484q-15 0 -19.5 12t-0.5 50l2 20q4 40 20.5 72.5t51.5 62t63.5 47.5t83.5 50q9 5 40.5 21.5t46.5 25t40 27t37.5 34.5t22.5 40.5t10 52.5q0 77 -95 77q-57 0 -87 -21.5t-36 -70.5q-3 -18 -14 -22t-59 -4q-46 0 -60.5 5t-11.5 23q12 113 79.5 163t195.5 50 q123 0 182 -49.5t59 -138.5q0 -34 -9 -64.5t-19.5 -52.5t-36.5 -47.5t-40.5 -38.5t-53 -36t-52.5 -30.5t-59 -31.5q-5 -3 -20 -11t-20 -10.5t-18 -10t-18 -11t-15 -10t-15.5 -11.5t-12 -11.5t-11 -12.5t-7.5 -13h348q14 0 17.5 -11.5t0.5 -51.5q-5 -41 -9 -51.5t-17 -10.5z " />
<glyph unicode="&#xb3;" horiz-adv-x="710" d="M401 965h-51q-13 0 -17 10.5t-1 44.5q3 36 7.5 45.5t16.5 9.5h58q118 0 118 109q0 37 -23.5 53t-74.5 16q-108 0 -117 -71q-5 -17 -17 -22t-56 -5q-50 0 -63.5 5.5t-10.5 27.5q21 186 270 186q120 0 182 -47t62 -131q0 -119 -106 -168q88 -28 88 -139t-77 -176.5 t-200 -65.5q-135 0 -204 48t-60 143q1 21 15 26.5t61 5.5q49 0 60 -5t11 -25q0 -70 117 -70q58 0 92.5 31t34.5 90q0 41 -27 57.5t-88 16.5z" />
<glyph unicode="&#xb4;" horiz-adv-x="710" d="M645 1284l-346 -156q-20 -10 -31 -3.5t-28 42.5q-15 34 -14.5 46t18.5 24l329 201q19 14 34.5 2.5t37.5 -62.5q22 -53 21.5 -69t-21.5 -25z" />
<glyph unicode="&#xb6;" horiz-adv-x="1056" d="M1100 1233h-109q-65 0 -92.5 -22t-34.5 -89l-116 -1124q-10 -92 -33.5 -159.5t-55 -109t-76 -67t-90.5 -34.5t-104 -9t-90 4q-14 4 -18 9t-6 22t4 49q6 52 12 64t26 12q6 0 33.5 -1t34.5 -1q56 0 88 16.5t54 67t32 145.5l51 469h-37q-121 0 -193.5 11t-121 43t-66.5 85.5 t-18 141.5q0 74 12 182q11 103 23.5 169t36 122t54 85.5t84 50.5t118.5 27.5t164 6.5h444q23 0 29 -15.5t0 -66.5q-6 -56 -12 -70t-27 -14z" />
<glyph unicode="&#xb7;" horiz-adv-x="514" d="M260 416q-83 0 -107.5 10t-21.5 43l19 168q3 36 26.5 45.5t108.5 9.5q84 0 108 -9.5t21 -45.5l-19 -168q-3 -34 -28 -43.5t-107 -9.5z" />
<glyph unicode="&#xb8;" horiz-adv-x="710" d="M354 -98h21q97 0 143.5 -29.5t46.5 -105.5q0 -105 -53 -150t-166 -45h-201q-18 0 -22 11t0 48q6 49 13 55q5 5 16 5h196q78 0 78 63q0 26 -16 33.5t-56 7.5h-104q-34 0 -47 6.5t-6 26.5l75 176q4 12 15.5 15.5t44.5 3.5q35 0 48 -6.5t7 -24.5z" />
<glyph unicode="&#xb9;" horiz-adv-x="710" d="M606 659h-424q-15 0 -18.5 11t0.5 51q3 41 8.5 52t20.5 11h141l47 435l-141 -29q-14 -2 -18.5 11.5t-0.5 51.5q3 37 9.5 50t19.5 16l264 55q15 3 24.5 -0.5t8.5 -17.5l-62 -572h133q14 0 17 -11t0 -52q-4 -39 -9.5 -50.5t-19.5 -11.5z" />
<glyph unicode="&#xba;" horiz-adv-x="780" d="M322 1047q-5 -57 -5 -62q0 -71 27.5 -101t93.5 -30q77 0 111 43t45 150q4 50 4 65q0 69 -27.5 99t-93.5 30q-77 0 -110.5 -43.5t-44.5 -150.5zM164 1047q18 168 90.5 245.5t228.5 77.5q141 0 207 -63t66 -193q0 -17 -4 -67q-18 -167 -91 -244.5t-229 -77.5 q-141 0 -206.5 63t-65.5 193q0 20 4 66z" />
<glyph unicode="&#xbb;" horiz-adv-x="1054" d="M532 557q-6 -38 -26 -63l-209 -246q-14 -18 -34.5 -23.5t-82.5 -5.5q-95 0 -95 23q0 7 7 16l256 299l-192 299q-19 32 38 39q21 2 52 2q63 0 84 -6t32 -25l158 -245q15 -25 12 -64zM928 557q-6 -37 -27 -63l-209 -246q-14 -18 -34.5 -23.5t-82.5 -5.5q-95 0 -95 23 q0 7 7 16l256 299l-192 299q-19 32 38 39q21 2 52 2q63 0 84.5 -6t32.5 -25l157 -245q16 -27 13 -64z" />
<glyph unicode="&#xbc;" horiz-adv-x="1701" d="M1415 -2q-49 0 -63.5 6.5t-12.5 26.5l15 141h-324q-17 0 -21 9.5t-1 47.5q3 30 7 41.5t17 24.5l338 397q13 16 28.5 20.5t67.5 4.5q59 0 77.5 -5t17.5 -24l-43 -397h81q15 0 19.5 -11t1.5 -49q-4 -40 -8.5 -49.5t-18.5 -9.5h-88l-14 -141q-2 -21 -15 -27t-61 -6z M1454 1319l-823 -1288q-14 -23 -31 -29t-78 -6q-47 0 -61 8.5t-2 30.5l823 1288q15 24 31.5 30.5t75.5 6.5q25 0 40.5 -2.5t23.5 -7.5t8 -12.5t-7 -18.5zM606 659h-424q-15 0 -18.5 11t0.5 51q3 41 8.5 52t20.5 11h141l47 435l-141 -29q-14 -2 -18.5 11.5t-0.5 51.5 q3 37 9.5 50t19.5 16l264 55q15 3 24.5 -0.5t8.5 -17.5l-62 -572h133q14 0 17 -11t0 -52q-4 -39 -9.5 -50.5t-19.5 -11.5zM1163 291h209l31 280z" />
<glyph unicode="&#xbd;" horiz-adv-x="1701" d="M1393 1319l-824 -1288q-14 -23 -31 -29t-77 -6q-47 0 -61.5 8.5t-2.5 30.5l824 1288q11 17 18 23t26.5 10t61.5 4q25 0 40.5 -2.5t24 -7.5t8.5 -12.5t-7 -18.5zM1542 -4h-483q-15 0 -20 12t-1 49l2 21q4 40 20.5 72t52.5 62t63 47t84 50q9 5 40.5 21.5t46 24.5t39.5 27 t37.5 35t22.5 40.5t10 52.5q0 78 -94 78q-57 0 -87 -21.5t-36 -70.5q-3 -19 -14.5 -23t-59.5 -4q-46 0 -60 5.5t-11 23.5q12 113 79 163t195 50q123 0 182.5 -50t59.5 -139q0 -33 -8.5 -62.5t-19 -51.5t-34 -46t-39 -38t-50.5 -35.5t-51 -30.5t-56 -30q-9 -5 -13 -7 q-5 -3 -25 -13.5t-26 -14t-21.5 -12.5t-22 -14t-16.5 -13.5t-16 -16t-10 -16.5h348q14 0 18 -12t1 -52q-5 -40 -9.5 -50.5t-17.5 -10.5zM606 659h-424q-15 0 -18.5 11t0.5 51q3 41 8.5 52t20.5 11h141l47 435l-141 -29q-14 -2 -18.5 11.5t-0.5 51.5q3 37 9.5 50t19.5 16 l264 55q15 3 24.5 -0.5t8.5 -17.5l-62 -572h133q14 0 17 -11t0 -52q-4 -39 -9.5 -50.5t-19.5 -11.5z" />
<glyph unicode="&#xbe;" horiz-adv-x="1701" d="M1415 -2q-49 0 -63.5 6.5t-12.5 26.5l15 141h-324q-17 0 -21 9.5t-1 47.5q3 30 7 41.5t17 24.5l338 397q13 16 28.5 20.5t67.5 4.5q59 0 77.5 -5t17.5 -24l-43 -397h81q15 0 19.5 -11t1.5 -49q-4 -40 -8.5 -49.5t-18.5 -9.5h-88l-14 -141q-2 -21 -15 -27t-61 -6z M1417 1319l-823 -1288q-14 -23 -31 -29t-78 -6q-47 0 -61 8.5t-2 30.5l823 1288q15 24 31.5 30.5t75.5 6.5q25 0 40.5 -2.5t23.5 -7.5t8 -12.5t-7 -18.5zM401 965h-51q-13 0 -17 10.5t-1 44.5q3 36 7.5 45.5t16.5 9.5h58q118 0 118 109q0 37 -23.5 53t-74.5 16 q-108 0 -117 -71q-5 -17 -17 -22t-56 -5q-50 0 -63.5 5.5t-10.5 27.5q21 186 270 186q120 0 182 -47t62 -131q0 -119 -106 -168q88 -28 88 -139t-77 -176.5t-200 -65.5q-135 0 -204 48t-60 143q1 21 15 26.5t61 5.5q49 0 60 -5t11 -25q0 -70 117 -70q58 0 92.5 31t34.5 90 q0 41 -27 57.5t-88 16.5zM1163 291h209l31 280z" />
<glyph unicode="&#xbf;" horiz-adv-x="1118" d="M500 506l8 45q5 24 22 31.5t78 7.5t75.5 -7.5t14.5 -31.5v-49q-1 -52 -23 -97t-56.5 -78t-76 -63.5t-82.5 -61t-75 -63.5t-55 -78t-21 -98q0 -74 46 -110.5t149 -36.5q121 0 180.5 45.5t73.5 146.5q3 28 21.5 36.5t86.5 8.5q70 0 91 -9.5t18 -39.5q-21 -197 -142 -288 t-344 -91q-208 0 -308.5 87.5t-100.5 232.5q0 73 21 132t55 98.5t75.5 72.5t85 60.5t81 54.5t65.5 63.5t37 79.5zM623 729q-83 0 -107.5 10t-21.5 43l18 168q3 37 26.5 46.5t108.5 9.5q83 0 107.5 -10t21.5 -46l-18 -168q-3 -34 -28 -43.5t-107 -9.5z" />
<glyph unicode="&#xc0;" horiz-adv-x="1210" d="M1006 -4q-73 0 -94.5 8.5t-26.5 38.5q-24 158 -51 313h-459q-69 -175 -115 -313q-9 -30 -33 -38.5t-98 -8.5q-70 0 -91.5 9.5t-12.5 35.5q98 274 257 654.5t279 621.5q13 26 39.5 34.5t106.5 8.5q82 0 109.5 -8.5t33.5 -34.5q68 -238 147 -617.5t121 -658.5 q5 -26 -18 -35.5t-94 -9.5zM684 1104q-107 -241 -235 -559h350q-62 328 -115 559zM702 1462l-331 156q-22 8 -20 26t36 70q31 52 48.5 63t33.5 -5l305 -203q18 -9 17 -21.5t-25 -46.5q-23 -36 -33.5 -42.5t-30.5 3.5z" />
<glyph unicode="&#xc1;" horiz-adv-x="1210" d="M1006 -4q-73 0 -94.5 8.5t-26.5 38.5q-24 158 -51 313h-459q-69 -175 -115 -313q-9 -30 -33 -38.5t-98 -8.5q-70 0 -91.5 9.5t-12.5 35.5q98 274 257 654.5t279 621.5q13 26 39.5 34.5t106.5 8.5q82 0 109.5 -8.5t33.5 -34.5q68 -238 147 -617.5t121 -658.5 q5 -26 -18 -35.5t-94 -9.5zM684 1104q-107 -241 -235 -559h350q-62 328 -115 559zM1108 1618l-365 -156q-22 -9 -32 -2t-27 43q-15 35 -14 47t20 23l350 203q20 15 33.5 4t36.5 -64q22 -54 21.5 -70.5t-23.5 -27.5z" />
<glyph unicode="&#xc2;" horiz-adv-x="1210" d="M1006 -4q-73 0 -94.5 8.5t-26.5 38.5q-24 158 -51 313h-459q-69 -175 -115 -313q-9 -30 -33 -38.5t-98 -8.5q-70 0 -91.5 9.5t-12.5 35.5q98 274 257 654.5t279 621.5q13 26 39.5 34.5t106.5 8.5q82 0 109.5 -8.5t33.5 -34.5q68 -238 147 -617.5t121 -658.5 q5 -26 -18 -35.5t-94 -9.5zM684 1104q-107 -241 -235 -559h350q-62 328 -115 559zM733 1587l-135 -106q-28 -25 -88 -25q-84 0 -77 25q1 6 9 14l211 209q16 17 33 24t59 7q44 0 63.5 -7.5t31.5 -23.5l166 -209q23 -32 -36 -38q-15 -1 -34 -1q-65 0 -90 25z" />
<glyph unicode="&#xc3;" horiz-adv-x="1210" d="M1006 -4q-73 0 -94.5 8.5t-26.5 38.5q-24 158 -51 313h-459q-69 -175 -115 -313q-9 -30 -33 -38.5t-98 -8.5q-70 0 -91.5 9.5t-12.5 35.5q98 274 257 654.5t279 621.5q13 26 39.5 34.5t106.5 8.5q82 0 109.5 -8.5t33.5 -34.5q68 -238 147 -617.5t121 -658.5 q5 -26 -18 -35.5t-94 -9.5zM915 1651l5 24q3 21 14.5 27t52.5 6q45 0 59.5 -7.5t10.5 -29.5l-10 -61q-14 -85 -62 -120.5t-111 -33.5q-69 0 -133 39l-94 55q-31 17 -49 17q-39 0 -47 -54l-2 -24q-3 -21 -15.5 -27t-54.5 -6q-44 0 -58.5 7.5t-10.5 29.5l10 59q14 86 62 122 t112 34q65 0 133 -39l92 -55q34 -19 49 -19q40 0 47 56zM684 1104q-107 -241 -235 -559h350q-62 328 -115 559z" />
<glyph unicode="&#xc4;" horiz-adv-x="1210" d="M1006 -4q-73 0 -94.5 8.5t-26.5 38.5q-24 158 -51 313h-459q-69 -175 -115 -313q-9 -30 -33 -38.5t-98 -8.5q-70 0 -91.5 9.5t-12.5 35.5q98 274 257 654.5t279 621.5q13 26 39.5 34.5t106.5 8.5q82 0 109.5 -8.5t33.5 -34.5q68 -238 147 -617.5t121 -658.5 q5 -26 -18 -35.5t-94 -9.5zM684 1104q-107 -241 -235 -559h350q-62 328 -115 559zM547 1700q74 0 93 -10.5t15 -49.5l-12 -116q-3 -37 -23.5 -48.5t-91.5 -11.5q-73 0 -92 12t-14 54l10 110q5 40 23.5 50t91.5 10zM936 1700q74 0 93 -10.5t15 -49.5l-12 -116q-3 -38 -23 -49 t-91 -11q-73 0 -92.5 12t-14.5 54l12 110q5 40 23 50t90 10z" />
<glyph unicode="&#xc5;" horiz-adv-x="1210" d="M1006 -4q-73 0 -94.5 8.5t-26.5 38.5q-24 158 -51 313h-459q-69 -175 -115 -313q-9 -30 -33 -38.5t-98 -8.5q-70 0 -91.5 9.5t-12.5 35.5q96 270 253.5 647.5t278.5 620.5q-43 43 -43 118q0 99 56 157t161 58q95 0 146 -43t51 -126q0 -115 -74 -173q67 -241 144.5 -614 t119.5 -645q5 -26 -18 -35.5t-94 -9.5zM684 1104q-107 -241 -235 -559h350q-62 328 -115 559zM627 1434q0 -40 18.5 -57t61.5 -17h16q92 7 92 106q0 39 -20.5 56.5t-65.5 17.5q-102 0 -102 -106z" />
<glyph unicode="&#xc6;" horiz-adv-x="1832" d="M1745 1157h-545l-39 -364h473q26 0 33 -18t0 -81q-8 -67 -15 -82.5t-32 -15.5h-479l-41 -397h547q23 0 30 -19t0 -80q-6 -65 -13.5 -82.5t-29.5 -17.5h-673q-69 0 -89.5 8.5t-17.5 34.5l31 305h-477q-109 -192 -168 -305q-15 -30 -40 -38.5t-98 -8.5q-68 0 -91.5 9 t-10.5 36q169 305 379.5 659.5t380.5 610.5q20 28 46 36.5t107 8.5h848q23 0 30 -19t1 -82t-14.5 -80.5t-32.5 -17.5zM895 1157q-181 -290 -373 -612h383l66 612h-76z" />
<glyph unicode="&#xc7;" horiz-adv-x="1232" d="M578 -96h16q100 0 149.5 -33t49.5 -113q0 -104 -55 -149t-173 -45h-192q-18 0 -23 11t-2 50q5 40 9.5 51t21.5 11h188q36 0 58 12t22 49q0 28 -15 35.5t-57 7.5h-106q-35 0 -49 7t-6 26l69 166q-182 29 -264 147t-82 348q0 76 10 193q20 193 59 321t109.5 214.5 t175 124.5t257.5 38q224 0 338 -98t96 -301q-3 -29 -25 -38t-92 -9t-90.5 8t-18.5 35q9 104 -41.5 154.5t-175.5 50.5q-120 0 -188 -43t-107 -149t-61 -308q-12 -114 -12 -197q0 -119 28 -185t83.5 -92t154.5 -26q127 0 187.5 52.5t74.5 162.5q3 27 25.5 36t91.5 9t89.5 -9 t18.5 -38q-24 -207 -141 -309t-354 -102h-25z" />
<glyph unicode="&#xc8;" horiz-adv-x="1153" d="M1065 1157h-590l-37 -364h512q25 0 31.5 -18.5t-0.5 -80.5q-8 -66 -15 -82t-30 -16h-518l-43 -397h590q25 0 32 -19.5t0 -81.5q-7 -65 -15 -81.5t-30 -16.5h-716q-67 0 -88 8.5t-19 34.5l133 1270q5 27 24.5 35t86.5 8h706q23 0 30 -19.5t1 -81.5q-6 -64 -14 -81t-31 -17 zM739 1462l-331 156q-22 8 -20 26t36 70q31 52 48.5 63t33.5 -5l305 -203q18 -9 17 -21.5t-25 -46.5q-23 -36 -33.5 -42.5t-30.5 3.5z" />
<glyph unicode="&#xc9;" horiz-adv-x="1153" d="M1065 1157h-590l-37 -364h512q25 0 31.5 -18.5t-0.5 -80.5q-8 -66 -15 -82t-30 -16h-518l-43 -397h590q25 0 32 -19.5t0 -81.5q-7 -65 -15 -81.5t-30 -16.5h-716q-67 0 -88 8.5t-19 34.5l133 1270q5 27 24.5 35t86.5 8h706q23 0 30 -19.5t1 -81.5q-6 -64 -14 -81t-31 -17 zM1047 1618l-365 -156q-22 -9 -32 -2t-27 43q-15 35 -14 47t20 23l350 203q20 15 33.5 4t36.5 -64q22 -54 21.5 -70.5t-23.5 -27.5z" />
<glyph unicode="&#xca;" horiz-adv-x="1153" d="M1065 1157h-590l-37 -364h512q25 0 31.5 -18.5t-0.5 -80.5q-8 -66 -15 -82t-30 -16h-518l-43 -397h590q25 0 32 -19.5t0 -81.5q-7 -65 -15 -81.5t-30 -16.5h-716q-67 0 -88 8.5t-19 34.5l133 1270q5 27 24.5 35t86.5 8h706q23 0 30 -19.5t1 -81.5q-6 -64 -14 -81t-31 -17 zM717 1587l-135 -106q-28 -25 -88 -25q-84 0 -77 25q1 6 9 14l211 209q16 17 33 24t59 7q44 0 63 -7t31 -24l166 -209q23 -32 -37 -38q-14 -1 -32 -1q-66 0 -91 25z" />
<glyph unicode="&#xcb;" horiz-adv-x="1153" d="M1065 1157h-590l-37 -364h512q25 0 31.5 -18.5t-0.5 -80.5q-8 -66 -15 -82t-30 -16h-518l-43 -397h590q25 0 32 -19.5t0 -81.5q-7 -65 -15 -81.5t-30 -16.5h-716q-67 0 -88 8.5t-19 34.5l133 1270q5 27 24.5 35t86.5 8h706q23 0 30 -19.5t1 -81.5q-6 -64 -14 -81t-31 -17 zM537 1700q74 0 93 -10.5t15 -49.5l-12 -116q-3 -37 -23.5 -48.5t-91.5 -11.5q-73 0 -92 12t-14 54l10 110q5 40 23.5 50t91.5 10zM926 1700q74 0 93 -10.5t15 -49.5l-12 -116q-3 -37 -23.5 -48.5t-91.5 -11.5q-73 0 -92 12t-14 54l12 110q5 40 23 50t90 10z" />
<glyph unicode="&#xcc;" horiz-adv-x="573" d="M248 -4q-74 0 -95 8t-18 35l133 1278q3 27 23.5 35t93.5 8t94.5 -8.5t18.5 -34.5l-133 -1278q-3 -27 -24 -35t-93 -8zM379 1462l-332 156q-22 8 -20 26t36 70q31 52 48.5 63t33.5 -5l306 -203q18 -10 16.5 -21.5t-25.5 -46.5q-23 -36 -33 -42t-30 3z" />
<glyph unicode="&#xcd;" horiz-adv-x="573" d="M248 -4q-74 0 -95 8t-18 35l133 1278q3 27 23.5 35t93.5 8t94.5 -8.5t18.5 -34.5l-133 -1278q-3 -27 -24 -35t-93 -8zM782 1618l-364 -156q-22 -9 -32.5 -2t-27.5 43q-15 35 -13.5 47t20.5 23l350 203q20 15 33 4t36 -64q22 -54 21.5 -70.5t-23.5 -27.5z" />
<glyph unicode="&#xce;" horiz-adv-x="573" d="M248 -4q-74 0 -95 8t-18 35l133 1278q3 27 23.5 35t93.5 8t94.5 -8.5t18.5 -34.5l-133 -1278q-3 -27 -24 -35t-93 -8zM412 1587l-136 -106q-28 -25 -88 -25q-85 0 -76 26q3 6 9 13l211 209q16 17 33 24t59 7q44 0 63 -7t31 -24l166 -209q23 -32 -36 -38q-15 -1 -34 -1 q-65 0 -90 25z" />
<glyph unicode="&#xcf;" horiz-adv-x="573" d="M248 -4q-74 0 -95 8t-18 35l133 1278q3 27 23.5 35t93.5 8t94.5 -8.5t18.5 -34.5l-133 -1278q-3 -27 -24 -35t-93 -8zM225 1700q74 0 93.5 -10.5t15.5 -49.5l-12 -116q-3 -37 -23.5 -48.5t-91.5 -11.5q-73 0 -92.5 12t-14.5 54l11 110q5 40 23 50t91 10zM614 1700 q74 0 93.5 -10.5t15.5 -49.5l-12 -116q-3 -37 -23.5 -48.5t-91.5 -11.5q-73 0 -92.5 12t-14.5 54l13 110q5 40 23 50t89 10z" />
<glyph unicode="&#xd0;" horiz-adv-x="1296" d="M594 0h-354q-68 0 -88.5 8.5t-18.5 34.5l55 526h-102q-20 0 -24.5 13.5t-0.5 64.5q6 54 11.5 66t25.5 12h107l61 588q3 27 23.5 35t87.5 8h338q266 0 384 -115.5t118 -374.5q0 -60 -11 -188q-15 -149 -42.5 -256t-73 -190t-114 -132.5t-162 -74.5t-220.5 -25zM379 197 h223q96 0 158 21.5t105.5 78.5t67 146.5t38.5 234.5q12 108 12 184q0 168 -63 232.5t-218 64.5h-223l-45 -434h213q19 0 24 -15t1 -63q-5 -51 -11 -64.5t-26 -13.5h-217z" />
<glyph unicode="&#xd1;" horiz-adv-x="1357" d="M1176 1360q73 0 94 -8.5t18 -34.5l-135 -1278q-1 -19 -10 -27t-36.5 -12t-88.5 -4q-67 0 -89.5 7t-33.5 30l-440 956l-99 -950q-2 -27 -22 -35t-92 -8q-74 0 -94.5 8t-18.5 35l135 1278q2 19 10.5 27t35.5 12t87 4q67 0 90.5 -7.5t32.5 -29.5l441 -956l100 950 q3 27 23 35t92 8zM985 1651l4 24q3 21 14.5 27t53.5 6q44 0 58.5 -7.5t10.5 -29.5l-10 -61q-14 -85 -61.5 -120.5t-110.5 -33.5q-69 0 -133 39l-94 55q-31 17 -49 17q-39 0 -47 -54l-3 -24q-3 -21 -15 -27t-54 -6q-45 0 -59.5 7.5t-10.5 29.5l10 59q14 86 62.5 122t112.5 34 q65 0 133 -39l92 -55q34 -19 49 -19q40 0 47 56z" />
<glyph unicode="&#xd2;" horiz-adv-x="1320" d="M754 1376q257 0 372 -119.5t115 -388.5q0 -73 -10 -190q-20 -191 -60 -320.5t-112 -215.5t-177 -124t-255 -38q-258 0 -374 120.5t-116 391.5q0 73 10 186q20 192 61 321t113 215t177 124t256 38zM637 176q117 0 186 43t110 151t62 308q13 120 13 190q0 177 -61 244.5 t-206 67.5q-118 0 -186.5 -43.5t-109 -150.5t-62.5 -308q-12 -111 -12 -191q0 -177 61 -244t205 -67zM782 1462l-331 156q-22 8 -20 26t36 70q31 52 48.5 63t33.5 -5l305 -203q18 -9 17 -21.5t-25 -46.5q-23 -36 -33.5 -42.5t-30.5 3.5z" />
<glyph unicode="&#xd3;" horiz-adv-x="1320" d="M754 1376q257 0 372 -119.5t115 -388.5q0 -73 -10 -190q-20 -191 -60 -320.5t-112 -215.5t-177 -124t-255 -38q-258 0 -374 120.5t-116 391.5q0 73 10 186q20 192 61 321t113 215t177 124t256 38zM637 176q117 0 186 43t110 151t62 308q13 120 13 190q0 177 -61 244.5 t-206 67.5q-118 0 -186.5 -43.5t-109 -150.5t-62.5 -308q-12 -111 -12 -191q0 -177 61 -244t205 -67zM1126 1618l-364 -156q-22 -9 -32.5 -2t-27.5 43q-15 35 -13.5 47t20.5 23l350 203q20 15 33 4t36 -64q22 -54 21.5 -70.5t-23.5 -27.5z" />
<glyph unicode="&#xd4;" horiz-adv-x="1320" d="M754 1376q257 0 372 -119.5t115 -388.5q0 -73 -10 -190q-20 -191 -60 -320.5t-112 -215.5t-177 -124t-255 -38q-258 0 -374 120.5t-116 391.5q0 73 10 186q20 192 61 321t113 215t177 124t256 38zM637 176q117 0 186 43t110 151t62 308q13 120 13 190q0 177 -61 244.5 t-206 67.5q-118 0 -186.5 -43.5t-109 -150.5t-62.5 -308q-12 -111 -12 -191q0 -177 61 -244t205 -67zM784 1587l-135 -106q-28 -25 -88 -25q-85 0 -76 26q3 6 9 13l211 209q16 17 33 24t59 7q44 0 63 -7t31 -24l166 -209q23 -32 -36 -38q-15 -1 -34 -1q-65 0 -90 25z" />
<glyph unicode="&#xd5;" horiz-adv-x="1320" d="M754 1376q257 0 372 -119.5t115 -388.5q0 -73 -10 -190q-20 -191 -60 -320.5t-112 -215.5t-177 -124t-255 -38q-258 0 -374 120.5t-116 391.5q0 73 10 186q20 192 61 321t113 215t177 124t256 38zM637 176q117 0 186 43t110 151t62 308q13 120 13 190q0 177 -61 244.5 t-206 67.5q-118 0 -186.5 -43.5t-109 -150.5t-62.5 -308q-12 -111 -12 -191q0 -177 61 -244t205 -67zM967 1651l4 24q3 21 14.5 27t52.5 6q45 0 59.5 -7.5t10.5 -29.5l-10 -61q-14 -85 -61.5 -120.5t-110.5 -33.5q-69 0 -133 39l-95 55q-31 17 -49 17q-39 0 -47 -54l-2 -24 q-3 -21 -15.5 -27t-54.5 -6q-44 0 -58.5 7.5t-10.5 29.5l10 59q14 86 62 122t112 34q65 0 133 -39l92 -55q34 -19 50 -19q40 0 47 56z" />
<glyph unicode="&#xd6;" horiz-adv-x="1320" d="M754 1376q257 0 372 -119.5t115 -388.5q0 -73 -10 -190q-20 -191 -60 -320.5t-112 -215.5t-177 -124t-255 -38q-258 0 -374 120.5t-116 391.5q0 73 10 186q20 192 61 321t113 215t177 124t256 38zM637 176q117 0 186 43t110 151t62 308q13 120 13 190q0 177 -61 244.5 t-206 67.5q-118 0 -186.5 -43.5t-109 -150.5t-62.5 -308q-12 -111 -12 -191q0 -177 61 -244t205 -67zM598 1700q74 0 93.5 -10.5t15.5 -49.5l-13 -116q-3 -38 -23 -49t-91 -11q-73 0 -92.5 12t-14.5 54l10 110q5 40 23.5 50t91.5 10zM987 1700q74 0 93.5 -10.5t15.5 -49.5 l-13 -116q-3 -38 -23 -49t-91 -11q-73 0 -92.5 12t-14.5 54l12 110q5 40 23 50t90 10z" />
<glyph unicode="&#xd7;" d="M803 252l-228 254l-278 -254q-16 -16 -32.5 -9.5t-55.5 48.5q-37 41 -42 59.5t13 32.5l279 252l-226 254q-15 14 -5.5 32t55.5 60q46 41 65 48.5t29 -9.5l227 -254l281 254q16 16 32.5 9.5t55.5 -48.5q37 -41 42 -59.5t-14 -30.5l-282 -256l229 -254q15 -12 6 -30.5 t-55 -59.5t-65 -48t-31 9z" />
<glyph unicode="&#xd8;" horiz-adv-x="1329" d="M758 1376q185 0 291 -59l57 82q16 22 35.5 28.5t77.5 6.5q37 0 55.5 -5t20 -13.5t-4.5 -20.5l-127 -178q82 -122 82 -349q0 -73 -10 -190q-20 -191 -60 -320.5t-112 -215.5t-177 -124t-255 -38q-181 0 -291 55l-59 -86q-14 -21 -34 -28t-77 -7q-78 0 -78 22q-1 7 6 17 l127 184q-84 121 -84 355q0 61 11 186q40 380 175 539t431 159zM375 487q0 -89 10 -135l545 781q-58 47 -185 47q-118 0 -186.5 -43.5t-109 -150.5t-62.5 -308q-12 -111 -12 -191zM641 176q117 0 186 43t110 151t62 308q13 120 13 190q0 71 -13 131l-540 -778 q59 -45 182 -45z" />
<glyph unicode="&#xd9;" horiz-adv-x="1318" d="M627 -20q-243 0 -355 97.5t-112 311.5q0 52 6 107l88 821q3 27 22.5 35t92.5 8q74 0 95.5 -8t18.5 -35l-86 -811q-6 -50 -6 -90q0 -122 57 -175t191 -53q154 0 220.5 71.5t84.5 246.5l86 811q3 27 23 35t92 8q74 0 96 -8.5t19 -34.5l-86 -821q-30 -274 -154 -395 t-393 -121zM750 1462l-332 156q-22 8 -20 26t36 70q31 52 48.5 63t33.5 -5l305 -203q18 -9 17 -21.5t-25 -46.5q-23 -36 -33 -42t-30 3z" />
<glyph unicode="&#xda;" horiz-adv-x="1318" d="M627 -20q-243 0 -355 97.5t-112 311.5q0 52 6 107l88 821q3 27 22.5 35t92.5 8q74 0 95.5 -8t18.5 -35l-86 -811q-6 -50 -6 -90q0 -122 57 -175t191 -53q154 0 220.5 71.5t84.5 246.5l86 811q3 27 23 35t92 8q74 0 96 -8.5t19 -34.5l-86 -821q-30 -274 -154 -395 t-393 -121zM1155 1618l-364 -156q-22 -9 -32.5 -2t-27.5 43q-15 35 -14 47t20 23l350 203q20 15 33.5 4t36.5 -64q22 -54 21.5 -70.5t-23.5 -27.5z" />
<glyph unicode="&#xdb;" horiz-adv-x="1318" d="M627 -20q-243 0 -355 97.5t-112 311.5q0 52 6 107l88 821q3 27 22.5 35t92.5 8q74 0 95.5 -8t18.5 -35l-86 -811q-6 -50 -6 -90q0 -122 57 -175t191 -53q154 0 220.5 71.5t84.5 246.5l86 811q3 27 23 35t92 8q74 0 96 -8.5t19 -34.5l-86 -821q-30 -274 -154 -395 t-393 -121zM784 1587l-135 -106q-28 -25 -88 -25q-85 0 -76 26q3 6 9 13l211 209q16 17 33 24t59 7q44 0 63 -7t31 -24l166 -209q23 -32 -36 -38q-15 -1 -34 -1q-65 0 -90 25z" />
<glyph unicode="&#xdc;" horiz-adv-x="1318" d="M627 -20q-243 0 -355 97.5t-112 311.5q0 52 6 107l88 821q3 27 22.5 35t92.5 8q74 0 95.5 -8t18.5 -35l-86 -811q-6 -50 -6 -90q0 -122 57 -175t191 -53q154 0 220.5 71.5t84.5 246.5l86 811q3 27 23 35t92 8q74 0 96 -8.5t19 -34.5l-86 -821q-30 -274 -154 -395 t-393 -121zM598 1700q74 0 93.5 -10.5t15.5 -49.5l-13 -116q-3 -38 -23 -49t-91 -11q-73 0 -92.5 12t-14.5 54l10 110q5 40 23.5 50t91.5 10zM987 1700q74 0 93.5 -10.5t15.5 -49.5l-13 -116q-3 -38 -23 -49t-91 -11q-73 0 -92.5 12t-14.5 54l12 110q5 40 23 50t90 10z" />
<glyph unicode="&#xdd;" horiz-adv-x="1167" d="M967 1317q13 28 33.5 35.5t95.5 7.5q111 0 118 -24q3 -9 -4 -23q-86 -157 -237 -404.5t-264 -414.5h-2l-48 -457q-1 -18 -9.5 -26t-32 -11.5t-74.5 -3.5q-72 0 -93.5 8t-19.5 33l47 457q-75 159 -173.5 405t-156.5 414q-8 27 15.5 37t99.5 10t97.5 -8t29.5 -35 q96 -321 221 -629q196 314 357 629zM1081 1618l-364 -156q-22 -9 -32.5 -2t-27.5 43q-15 35 -13.5 47t20.5 23l350 203q20 15 33 4t36 -64q22 -54 21.5 -70.5t-23.5 -27.5z" />
<glyph unicode="&#xde;" horiz-adv-x="1183" d="M594 303h-209l-27 -264q-2 -27 -22.5 -35t-93.5 -8q-74 0 -94.5 8t-18.5 35l113 1057l22 221q3 27 22.5 35t92.5 8q74 0 96 -8.5t19 -34.5l-21 -176h191q235 0 342.5 -84t107.5 -264q0 -22 -4 -72q-20 -220 -140.5 -319t-375.5 -99zM455 942l-49 -444h192q143 0 204.5 47 t74.5 176q2 18 2 49q0 97 -53.5 134.5t-178.5 37.5h-192z" />
<glyph unicode="&#xdf;" horiz-adv-x="1368" d="M664 688q-21 2 -25.5 16.5t0.5 71.5q5 56 11.5 71t27.5 15q46 3 78 7t76.5 13t75.5 25.5t60 41t43.5 62.5t14.5 87q0 157 -266 157q-87 0 -146.5 -15t-95 -46t-52 -72t-22.5 -100l-104 -987q-3 -25 -22 -32t-89 -7t-88 7t-16 32l102 966q11 109 41.5 185.5t91.5 135 t162.5 86.5t247.5 28q227 0 348 -78.5t121 -233.5q0 -142 -87.5 -231.5t-240.5 -114.5q76 -11 133.5 -32t108 -60t77.5 -104.5t27 -155.5q0 -130 -42.5 -228t-139 -158t-239.5 -60q-100 0 -169 20.5t-104.5 58.5t-48 86t-6.5 109q2 30 20 38.5t84 8.5q63 0 80 -7.5t17 -33.5 q0 -60 26.5 -87.5t110.5 -27.5q203 0 203 281q0 134 -84 190.5t-301 71.5z" />
<glyph unicode="&#xe0;" horiz-adv-x="1079" d="M391 723q-2 -24 -20 -31.5t-84 -7.5q-70 0 -88.5 8.5t-14.5 38.5q29 291 412 291q201 0 290 -72t89 -215q0 -21 -4 -61l-68 -639q-2 -25 -20 -32t-86 -7q-67 0 -86 7t-17 32l6 88q-93 -139 -305 -139q-159 0 -237 68.5t-78 187.5q0 162 104 242.5t287 80.5h274l11 111 q10 96 -27 133t-145 37q-96 0 -141.5 -29.5t-51.5 -91.5zM729 412h-252q-81 0 -131.5 -35.5t-50.5 -116.5q0 -108 145 -108q119 0 196.5 54t86.5 146zM618 1128l-313 156q-14 7 -17.5 14t4.5 25t32 53q33 51 48 61.5t31 -3.5l287 -201q18 -11 17.5 -23t-23.5 -45 q-24 -35 -36 -41.5t-30 4.5z" />
<glyph unicode="&#xe1;" horiz-adv-x="1079" d="M391 723q-2 -24 -20 -31.5t-84 -7.5q-70 0 -88.5 8.5t-14.5 38.5q29 291 412 291q201 0 290 -72t89 -215q0 -21 -4 -61l-68 -639q-2 -25 -20 -32t-86 -7q-67 0 -86 7t-17 32l6 88q-93 -139 -305 -139q-159 0 -237 68.5t-78 187.5q0 162 104 242.5t287 80.5h274l11 111 q10 96 -27 133t-145 37q-96 0 -141.5 -29.5t-51.5 -91.5zM729 412h-252q-81 0 -131.5 -35.5t-50.5 -116.5q0 -108 145 -108q119 0 196.5 54t86.5 146zM958 1284l-346 -156q-20 -10 -31 -3.5t-28 42.5q-15 34 -14.5 46t18.5 24l330 201q20 14 34 2.5t37 -62.5 q22 -53 21.5 -69t-21.5 -25z" />
<glyph unicode="&#xe2;" horiz-adv-x="1079" d="M391 723q-2 -24 -20 -31.5t-84 -7.5q-70 0 -88.5 8.5t-14.5 38.5q29 291 412 291q201 0 290 -72t89 -215q0 -21 -4 -61l-68 -639q-2 -25 -20 -32t-86 -7q-67 0 -86 7t-17 32l6 88q-93 -139 -305 -139q-159 0 -237 68.5t-78 187.5q0 162 104 242.5t287 80.5h274l11 111 q10 96 -27 133t-145 37q-96 0 -141.5 -29.5t-51.5 -91.5zM729 412h-252q-81 0 -131.5 -35.5t-50.5 -116.5q0 -108 145 -108q119 0 196.5 54t86.5 146zM635 1274l-129 -115q-19 -17 -38 -21.5t-56 -4.5q-78 0 -77 19q0 7 11 17l211 222q11 11 18 16t25 8.5t47 3.5 q44 0 61 -6.5t31 -21.5l166 -222q20 -28 -25 -34q-17 -2 -44 -2q-39 0 -59 5t-36 21z" />
<glyph unicode="&#xe3;" horiz-adv-x="1079" d="M391 723q-2 -24 -20 -31.5t-84 -7.5q-70 0 -88.5 8.5t-14.5 38.5q29 291 412 291q201 0 290 -72t89 -215q0 -21 -4 -61l-68 -639q-2 -25 -20 -32t-86 -7q-67 0 -86 7t-17 32l6 88q-93 -139 -305 -139q-159 0 -237 68.5t-78 187.5q0 162 104 242.5t287 80.5h274l11 111 q10 96 -27 133t-145 37q-96 0 -141.5 -29.5t-51.5 -91.5zM729 412h-252q-81 0 -131.5 -35.5t-50.5 -116.5q0 -108 145 -108q119 0 196.5 54t86.5 146zM805 1327l4 25q2 19 14 24.5t54 5.5q44 0 57 -7t10 -29l-10 -60q-25 -156 -164 -156q-60 0 -131 39l-96 58q-26 16 -43 16 q-40 0 -47 -55l-2 -25q-2 -19 -14 -24.5t-54 -5.5q-45 0 -58 6.5t-10 27.5l11 62q25 155 163 155q62 0 134 -41l94 -55q26 -16 45 -16t29 11.5t14 43.5z" />
<glyph unicode="&#xe4;" horiz-adv-x="1079" d="M391 723q-2 -24 -20 -31.5t-84 -7.5q-70 0 -88.5 8.5t-14.5 38.5q29 291 412 291q201 0 290 -72t89 -215q0 -21 -4 -61l-68 -639q-2 -25 -20 -32t-86 -7q-67 0 -86 7t-17 32l6 88q-93 -139 -305 -139q-159 0 -237 68.5t-78 187.5q0 162 104 242.5t287 80.5h274l11 111 q10 96 -27 133t-145 37q-96 0 -141.5 -29.5t-51.5 -91.5zM729 412h-252q-81 0 -131.5 -35.5t-50.5 -116.5q0 -108 145 -108q119 0 196.5 54t86.5 146zM453 1374q74 0 93 -10t15 -49l-12 -117q-3 -37 -23.5 -48t-91.5 -11q-74 0 -93.5 11.5t-14.5 53.5l12 111q3 40 22 49.5 t93 9.5zM825 1374q74 0 93.5 -10t15.5 -49l-12 -117q-3 -37 -23.5 -48t-91.5 -11q-75 0 -94.5 12t-14.5 53l13 111q3 40 21.5 49.5t92.5 9.5z" />
<glyph unicode="&#xe5;" horiz-adv-x="1079" d="M391 723q-2 -24 -20 -31.5t-84 -7.5q-70 0 -88.5 8.5t-14.5 38.5q29 291 412 291q201 0 290 -72t89 -215q0 -21 -4 -61l-68 -639q-2 -25 -20 -32t-86 -7q-67 0 -86 7t-17 32l6 88q-93 -139 -305 -139q-159 0 -237 68.5t-78 187.5q0 162 104 242.5t287 80.5h274l11 111 q10 96 -27 133t-145 37q-96 0 -141.5 -29.5t-51.5 -91.5zM729 412h-252q-81 0 -131.5 -35.5t-50.5 -116.5q0 -108 145 -108q119 0 196.5 54t86.5 146zM649 1487q89 0 134.5 -40t45.5 -116q0 -94 -53.5 -150.5t-154.5 -56.5q-89 0 -136 40t-47 114q0 94 54.5 151.5 t156.5 57.5zM627 1221q44 0 71 24.5t27 77.5q0 35 -19.5 51.5t-62.5 16.5q-44 0 -71 -24.5t-27 -78.5q0 -36 19.5 -51.5t62.5 -15.5z" />
<glyph unicode="&#xe6;" horiz-adv-x="1681" d="M1536 436h-596q-8 -149 40.5 -215.5t170.5 -66.5q81 0 126.5 29.5t53.5 82.5q5 26 22.5 33.5t82.5 7.5q70 0 88.5 -8.5t15.5 -38.5q-15 -129 -118 -204.5t-279 -75.5q-250 0 -340 153q-65 -71 -163.5 -110t-217.5 -39q-177 0 -258.5 70.5t-81.5 189.5q0 167 104 245 t293 78h260l13 107q9 97 -26.5 133.5t-139.5 36.5q-96 0 -142.5 -30t-52.5 -91q-2 -24 -20 -31.5t-84 -7.5q-69 0 -87.5 8t-15.5 39q14 141 118 216t300 75q231 0 305 -115q115 115 316 115q194 0 283 -97t89 -263q0 -55 -4 -84l-6 -56q-5 -53 -14 -69.5t-35 -16.5z M1217 846q-116 0 -176 -61t-85 -203h430l5 43q2 16 2 47q0 84 -40 129t-136 45zM725 416h-246q-80 0 -132 -37t-52 -121q0 -57 38 -81.5t111 -24.5q117 0 190.5 51.5t82.5 144.5z" />
<glyph unicode="&#xe7;" horiz-adv-x="1054" d="M473 -98h21q97 0 143.5 -29.5t46.5 -105.5q0 -105 -53 -150t-166 -45h-201q-18 0 -22 11t0 48q6 49 11 55q5 5 17 5h197q78 0 78 63q0 26 -16 33.5t-56 7.5h-104q-34 0 -47.5 6.5t-6.5 26.5l70 166q-140 29 -207 126t-67 267q0 54 6 113q28 271 144.5 396.5t356.5 125.5 q189 0 284 -79t83 -216q-3 -29 -22.5 -37t-92.5 -8q-64 0 -82 8.5t-16 34.5q4 56 -38 84.5t-126 28.5q-133 0 -191 -75.5t-77 -262.5q-8 -82 -8 -111q0 -123 46.5 -174t160.5 -51q175 0 190 121q3 24 23 32.5t84 8.5q74 0 91.5 -7.5t14.5 -37.5q-18 -144 -121.5 -222.5 t-290.5 -78.5h-28z" />
<glyph unicode="&#xe8;" horiz-adv-x="1081" d="M936 440h-610v-45q0 -127 51.5 -184t167.5 -57q85 0 131.5 29.5t54.5 82.5q5 26 23.5 33.5t83.5 7.5q70 0 87.5 -8t14.5 -39q-18 -130 -120 -205t-283 -75q-217 0 -321.5 100.5t-104.5 306.5q0 51 6 107q28 272 147 400t352 128q103 0 177.5 -27t118 -77.5t63.5 -115 t20 -145.5q0 -25 -4 -79l-4 -52q-6 -53 -15.5 -69.5t-35.5 -16.5zM608 846q-116 0 -177 -59.5t-87 -198.5h442l5 37q2 16 2 47q0 84 -42 129t-143 45zM631 1128l-314 156q-14 7 -17.5 14t4.5 25t32 53q33 51 48.5 61.5t31.5 -3.5l286 -201q18 -11 17.5 -23t-23.5 -45 q-24 -35 -35.5 -41t-29.5 4z" />
<glyph unicode="&#xe9;" horiz-adv-x="1081" d="M936 440h-610v-45q0 -127 51.5 -184t167.5 -57q85 0 131.5 29.5t54.5 82.5q5 26 23.5 33.5t83.5 7.5q70 0 87.5 -8t14.5 -39q-18 -130 -120 -205t-283 -75q-217 0 -321.5 100.5t-104.5 306.5q0 51 6 107q28 272 147 400t352 128q103 0 177.5 -27t118 -77.5t63.5 -115 t20 -145.5q0 -25 -4 -79l-4 -52q-6 -53 -15.5 -69.5t-35.5 -16.5zM608 846q-116 0 -177 -59.5t-87 -198.5h442l5 37q2 16 2 47q0 84 -42 129t-143 45zM961 1284l-347 -156q-20 -10 -31 -3.5t-28 42.5q-15 34 -14.5 46t18.5 24l330 201q19 14 34.5 2.5t37.5 -62.5 q22 -53 21.5 -69t-21.5 -25z" />
<glyph unicode="&#xea;" horiz-adv-x="1081" d="M936 440h-610v-45q0 -127 51.5 -184t167.5 -57q85 0 131.5 29.5t54.5 82.5q5 26 23.5 33.5t83.5 7.5q70 0 87.5 -8t14.5 -39q-18 -130 -120 -205t-283 -75q-217 0 -321.5 100.5t-104.5 306.5q0 51 6 107q28 272 147 400t352 128q103 0 177.5 -27t118 -77.5t63.5 -115 t20 -145.5q0 -25 -4 -79l-4 -52q-6 -53 -15.5 -69.5t-35.5 -16.5zM608 846q-116 0 -177 -59.5t-87 -198.5h442l5 37q2 16 2 47q0 84 -42 129t-143 45zM631 1274l-129 -115q-19 -17 -38 -21.5t-56 -4.5q-78 0 -77 19q0 7 11 17l211 222q11 11 18 16t25 8.5t47 3.5 q44 0 61 -6.5t31 -21.5l166 -222q20 -28 -28 -34q-16 -2 -42 -2q-39 0 -58.5 5t-35.5 21z" />
<glyph unicode="&#xeb;" horiz-adv-x="1081" d="M936 440h-610v-45q0 -127 51.5 -184t167.5 -57q85 0 131.5 29.5t54.5 82.5q5 26 23.5 33.5t83.5 7.5q70 0 87.5 -8t14.5 -39q-18 -130 -120 -205t-283 -75q-217 0 -321.5 100.5t-104.5 306.5q0 51 6 107q28 272 147 400t352 128q103 0 177.5 -27t118 -77.5t63.5 -115 t20 -145.5q0 -25 -4 -79l-4 -52q-6 -53 -15.5 -69.5t-35.5 -16.5zM608 846q-116 0 -177 -59.5t-87 -198.5h442l5 37q2 16 2 47q0 84 -42 129t-143 45zM453 1374q74 0 93 -10t15 -49l-12 -117q-3 -37 -23.5 -48t-91.5 -11q-74 0 -93.5 11.5t-14.5 53.5l12 111q3 40 22 49.5 t93 9.5zM825 1374q74 0 93.5 -10t15.5 -49l-12 -117q-3 -37 -23.5 -48t-91.5 -11q-75 0 -94.5 12t-14.5 53l13 111q3 40 21.5 49.5t92.5 9.5z" />
<glyph unicode="&#xec;" horiz-adv-x="524" d="M115 35l98 930q2 26 21.5 33.5t89.5 7.5t89 -7.5t17 -33.5l-98 -930q-2 -25 -21.5 -32t-89.5 -7q-69 0 -88.5 7t-17.5 32zM319 1128l-313 156q-14 7 -17.5 14t4.5 25t32 53q33 51 48 61.5t31 -3.5l287 -201q18 -11 17.5 -23t-23.5 -45q-24 -35 -36 -41.5t-30 4.5z" />
<glyph unicode="&#xed;" horiz-adv-x="524" d="M115 35l98 930q2 26 21.5 33.5t89.5 7.5t89 -7.5t17 -33.5l-98 -930q-2 -25 -21.5 -32t-89.5 -7q-69 0 -88.5 7t-17.5 32zM705 1284l-347 -156q-20 -10 -31 -3.5t-28 42.5q-15 34 -14.5 46t18.5 24l330 201q19 14 34.5 2.5t37.5 -62.5q22 -53 21.5 -69t-21.5 -25z" />
<glyph unicode="&#xee;" horiz-adv-x="524" d="M115 35l98 930q2 26 21.5 33.5t89.5 7.5t89 -7.5t17 -33.5l-98 -930q-2 -25 -21.5 -32t-89.5 -7q-69 0 -88.5 7t-17.5 32zM352 1274l-129 -115q-19 -17 -38 -21.5t-56 -4.5q-78 0 -77 19q0 7 11 17l211 222q11 11 18.5 16t25.5 8.5t47 3.5q44 0 61 -6.5t31 -21.5 l166 -222q20 -28 -28 -34q-16 -2 -42 -2q-39 0 -58.5 5t-35.5 21z" />
<glyph unicode="&#xef;" horiz-adv-x="524" d="M115 35l98 930q2 26 21.5 33.5t89.5 7.5t89 -7.5t17 -33.5l-98 -930q-2 -25 -21.5 -32t-89.5 -7q-69 0 -88.5 7t-17.5 32zM180 1374q74 0 93.5 -10t15.5 -49l-13 -117q-3 -37 -23 -48t-91 -11q-75 0 -94.5 12t-14.5 53l13 111q3 40 21.5 49.5t92.5 9.5zM543 1374 q74 0 93 -10t15 -49l-12 -117q-3 -37 -23.5 -48t-91.5 -11q-74 0 -93.5 11.5t-14.5 53.5l12 111q3 40 22 49.5t93 9.5z" />
<glyph unicode="&#xf0;" horiz-adv-x="1114" d="M1096 1249l-115 -47q57 -122 57 -338q0 -151 -20 -321q-31 -303 -144.5 -433t-351.5 -130q-213 0 -312 96t-99 301q0 51 6 110q27 265 139 387.5t338 122.5q77 0 144 -25t104 -67q3 147 -41 225l-178 -71q-13 -7 -20.5 1t-18.5 42q-12 35 -10.5 46t16.5 19l123 50 q-69 38 -203 38q-21 0 -25.5 13.5t0.5 68.5q6 56 13.5 70t29.5 14q264 0 387 -123l148 60q15 7 21.5 -0.5t17.5 -42.5q12 -35 10.5 -46.5t-16.5 -19.5zM530 158q129 0 186.5 74t78.5 255q6 58 6 107q0 121 -47 173t-156 52q-130 0 -187.5 -75t-76.5 -257q-6 -58 -6 -106 q0 -120 46 -171.5t156 -51.5z" />
<glyph unicode="&#xf1;" horiz-adv-x="1161" d="M416 967l-6 -95q44 64 124.5 107t196.5 43q153 0 235.5 -75t82.5 -230q0 -5 -5 -68l-65 -612q-2 -26 -21.5 -33.5t-89.5 -7.5q-69 0 -88 7.5t-18 33.5l63 604q10 102 -29 147.5t-134 45.5q-116 0 -191.5 -65t-85.5 -175l-59 -557q-2 -26 -21.5 -33.5t-89.5 -7.5 q-69 0 -88 7.5t-18 33.5l98 930q3 25 21 32t85 7t86 -7t17 -32zM846 1327l4 25q2 19 14 24.5t54 5.5q44 0 57 -7t10 -29l-10 -60q-25 -156 -164 -156q-59 0 -131 39l-96 58q-26 16 -43 16q-40 0 -47 -55l-2 -25q-2 -19 -14 -24.5t-54 -5.5q-45 0 -58 6.5t-10 27.5l11 62 q25 155 163 155q62 0 134 -41l94 -55q26 -16 45 -16t29 11.5t14 43.5z" />
<glyph unicode="&#xf2;" horiz-adv-x="1126" d="M618 1022q216 0 316 -99.5t100 -308.5q0 -52 -6 -114q-27 -270 -143.5 -395t-358.5 -125q-215 0 -315 99.5t-100 307.5q0 54 6 113q28 271 144.5 396.5t356.5 125.5zM539 162q132 0 189.5 75.5t78.5 262.5q8 86 8 114q0 121 -47.5 173.5t-159.5 52.5q-133 0 -191 -76 t-77 -264q-8 -82 -8 -113q0 -122 47 -173.5t160 -51.5zM643 1128l-313 156q-14 7 -17.5 14t4 25.5t31.5 52.5q33 51 48.5 61.5t31.5 -3.5l287 -201q18 -11 17.5 -23t-23.5 -45q-24 -35 -36 -41.5t-30 4.5z" />
<glyph unicode="&#xf3;" horiz-adv-x="1126" d="M618 1022q216 0 316 -99.5t100 -308.5q0 -52 -6 -114q-27 -270 -143.5 -395t-358.5 -125q-215 0 -315 99.5t-100 307.5q0 54 6 113q28 271 144.5 396.5t356.5 125.5zM539 162q132 0 189.5 75.5t78.5 262.5q8 86 8 114q0 121 -47.5 173.5t-159.5 52.5q-133 0 -191 -76 t-77 -264q-8 -82 -8 -113q0 -122 47 -173.5t160 -51.5zM985 1284l-346 -156q-20 -10 -31 -3.5t-28 42.5q-15 34 -14.5 46t18.5 24l329 201q19 14 34.5 2.5t37.5 -62.5q22 -53 21.5 -69t-21.5 -25z" />
<glyph unicode="&#xf4;" horiz-adv-x="1126" d="M618 1022q216 0 316 -99.5t100 -308.5q0 -52 -6 -114q-27 -270 -143.5 -395t-358.5 -125q-215 0 -315 99.5t-100 307.5q0 54 6 113q28 271 144.5 396.5t356.5 125.5zM539 162q132 0 189.5 75.5t78.5 262.5q8 86 8 114q0 121 -47.5 173.5t-159.5 52.5q-133 0 -191 -76 t-77 -264q-8 -82 -8 -113q0 -122 47 -173.5t160 -51.5zM653 1274l-129 -115q-19 -17 -38 -21.5t-56 -4.5q-76 0 -77 18q0 7 12 18l210 222q11 11 18.5 16t25.5 8.5t47 3.5q44 0 61 -6.5t31 -21.5l166 -222q20 -28 -28 -34q-16 -2 -42 -2q-39 0 -58.5 5t-35.5 21z" />
<glyph unicode="&#xf5;" horiz-adv-x="1126" d="M618 1022q216 0 316 -99.5t100 -308.5q0 -52 -6 -114q-27 -270 -143.5 -395t-358.5 -125q-215 0 -315 99.5t-100 307.5q0 54 6 113q28 271 144.5 396.5t356.5 125.5zM539 162q132 0 189.5 75.5t78.5 262.5q8 86 8 114q0 121 -47.5 173.5t-159.5 52.5q-133 0 -191 -76 t-77 -264q-8 -82 -8 -113q0 -122 47 -173.5t160 -51.5zM829 1327l5 25q2 19 13.5 24.5t53.5 5.5q44 0 57.5 -7t10.5 -29l-11 -60q-25 -156 -163 -156q-59 0 -131 39l-97 58q-26 16 -43 16q-40 0 -47 -55l-2 -25q-2 -19 -13.5 -24.5t-53.5 -5.5q-45 0 -58 6.5t-10 27.5l10 62 q25 155 164 155q61 0 133 -41l94 -55q26 -16 45 -16t29 11.5t14 43.5z" />
<glyph unicode="&#xf6;" horiz-adv-x="1126" d="M618 1022q216 0 316 -99.5t100 -308.5q0 -52 -6 -114q-27 -270 -143.5 -395t-358.5 -125q-215 0 -315 99.5t-100 307.5q0 54 6 113q28 271 144.5 396.5t356.5 125.5zM539 162q132 0 189.5 75.5t78.5 262.5q8 86 8 114q0 121 -47.5 173.5t-159.5 52.5q-133 0 -191 -76 t-77 -264q-8 -82 -8 -113q0 -122 47 -173.5t160 -51.5zM477 1374q74 0 93.5 -10t15.5 -49l-13 -117q-3 -37 -23 -48t-91 -11q-75 0 -94.5 12t-14.5 53l12 111q3 40 22 49.5t93 9.5zM850 1374q74 0 93 -10t15 -49l-12 -117q-3 -37 -23.5 -48t-91.5 -11q-74 0 -93.5 11.5 t-14.5 53.5l12 111q3 40 22 49.5t93 9.5z" />
<glyph unicode="&#xf7;" d="M215 727h772q22 0 26.5 -16.5t-1.5 -75.5q-6 -56 -14.5 -73t-30.5 -17h-772q-23 0 -28 16.5t1 73.5q6 58 15 75t32 17zM537 121q-83 0 -107.5 10t-21.5 43l18 168q3 36 26.5 45.5t108.5 9.5q84 0 108 -9.5t21 -45.5l-18 -168q-3 -34 -28 -43.5t-107 -9.5zM616 874 q-82 0 -107 10t-22 44l19 168q3 36 26.5 45.5t108.5 9.5q84 0 108 -9.5t21 -45.5l-18 -168q-3 -34 -28.5 -44t-107.5 -10z" />
<glyph unicode="&#xf8;" horiz-adv-x="1136" d="M621 1022q136 0 221 -39l45 64q13 18 31 24t67 6q69 0 68 -21q0 -6 -6 -14l-97 -135q86 -99 86 -293q0 -52 -6 -114q-27 -270 -143.5 -395t-358.5 -125q-122 0 -213 32l-45 -63q-15 -19 -32.5 -25t-65.5 -6q-68 0 -68 20q0 6 7 15l92 135q-90 100 -90 299q0 54 6 113 q28 271 145 396.5t357 125.5zM334 387q0 -61 12 -108l383 538q-51 23 -119 23q-133 0 -191 -76t-77 -264q-8 -82 -8 -113zM541 162q132 0 189.5 75.5t78.5 262.5q8 86 8 114q0 54 -10 99l-379 -533q47 -18 113 -18z" />
<glyph unicode="&#xf9;" horiz-adv-x="1144" d="M750 35l6 94q-103 -149 -303 -149q-160 0 -243 78t-83 235q0 19 4 65l66 607q2 26 20.5 33.5t87.5 7.5q70 0 90.5 -8t18.5 -33l-64 -596q-11 -103 31 -153t143 -50q108 0 176.5 67t79.5 177l60 555q2 26 20.5 33.5t87.5 7.5q70 0 90.5 -8t18.5 -33l-99 -930 q-2 -25 -21 -32t-87 -7q-67 0 -84.5 7t-15.5 32zM639 1128l-313 156q-14 7 -17.5 14t4 25.5t31.5 52.5q33 51 48.5 61.5t31.5 -3.5l287 -201q18 -11 17.5 -23t-23.5 -45q-24 -35 -36 -41.5t-30 4.5z" />
<glyph unicode="&#xfa;" horiz-adv-x="1144" d="M750 35l6 94q-103 -149 -303 -149q-160 0 -243 78t-83 235q0 19 4 65l66 607q2 26 20.5 33.5t87.5 7.5q70 0 90.5 -8t18.5 -33l-64 -596q-11 -103 31 -153t143 -50q108 0 176.5 67t79.5 177l60 555q2 26 20.5 33.5t87.5 7.5q70 0 90.5 -8t18.5 -33l-99 -930 q-2 -25 -21 -32t-87 -7q-67 0 -84.5 7t-15.5 32zM989 1284l-346 -156q-20 -10 -31 -3.5t-28 42.5q-15 34 -14.5 46t18.5 24l330 201q20 14 34 2.5t37 -62.5q22 -53 21.5 -69t-21.5 -25z" />
<glyph unicode="&#xfb;" horiz-adv-x="1144" d="M750 35l6 94q-103 -149 -303 -149q-160 0 -243 78t-83 235q0 19 4 65l66 607q2 26 20.5 33.5t87.5 7.5q70 0 90.5 -8t18.5 -33l-64 -596q-11 -103 31 -153t143 -50q108 0 176.5 67t79.5 177l60 555q2 26 20.5 33.5t87.5 7.5q70 0 90.5 -8t18.5 -33l-99 -930 q-2 -25 -21 -32t-87 -7q-67 0 -84.5 7t-15.5 32zM662 1274l-130 -115q-19 -17 -38 -21.5t-56 -4.5q-76 0 -77 18q0 7 12 18l211 222q11 11 18 16t25 8.5t47 3.5q44 0 61 -6.5t31 -21.5l166 -222q20 -28 -28 -34q-16 -2 -42 -2q-39 0 -58.5 5t-35.5 21z" />
<glyph unicode="&#xfc;" horiz-adv-x="1144" d="M750 35l6 94q-103 -149 -303 -149q-160 0 -243 78t-83 235q0 19 4 65l66 607q2 26 20.5 33.5t87.5 7.5q70 0 90.5 -8t18.5 -33l-64 -596q-11 -103 31 -153t143 -50q108 0 176.5 67t79.5 177l60 555q2 26 20.5 33.5t87.5 7.5q70 0 90.5 -8t18.5 -33l-99 -930 q-2 -25 -21 -32t-87 -7q-67 0 -84.5 7t-15.5 32zM481 1374q74 0 93.5 -10t15.5 -49l-12 -117q-3 -37 -23.5 -48t-91.5 -11q-75 0 -94.5 12t-14.5 53l13 111q3 40 21.5 49.5t92.5 9.5zM854 1374q74 0 93.5 -10t15.5 -49l-13 -117q-3 -37 -23 -48t-91 -11q-75 0 -94.5 12 t-14.5 53l12 111q3 40 22 49.5t93 9.5z" />
<glyph unicode="&#xfd;" horiz-adv-x="1044" d="M176 -197q88 0 134.5 36.5t107.5 150.5q0 4 4 8q-61 3 -70 33q-60 181 -129.5 454.5t-107.5 472.5q-6 29 16 38.5t94 9.5q66 0 89.5 -9t25.5 -30q56 -366 168 -793q225 484 323 793q6 22 27.5 30.5t83.5 8.5q74 0 96.5 -10.5t12.5 -39.5q-65 -184 -200 -482t-251 -511 q-45 -84 -75 -133t-67.5 -95.5t-75 -69.5t-87 -36.5t-113.5 -13.5q-83 0 -112 10q-21 5 -26 22t1 68q6 60 15 77.5t32 17.5q3 0 29 -3.5t55 -3.5zM975 1284l-346 -156q-20 -10 -31.5 -3t-28.5 42q-15 34 -14.5 46t18.5 24l330 201q19 14 34.5 2.5t37.5 -62.5 q22 -53 21.5 -69t-21.5 -25z" />
<glyph unicode="&#xfe;" horiz-adv-x="1167" d="M469 1380l-51 -477q104 119 297 119q360 0 360 -408q0 -71 -4 -108q-28 -272 -137 -399t-313 -127q-205 0 -287 124l-45 -436q-2 -26 -21.5 -33.5t-89.5 -7.5t-89 7.5t-17 33.5l180 1712q3 26 22 33.5t86 7.5q70 0 91 -8t18 -33zM377 500q-6 -53 -6 -99 q0 -128 49.5 -183.5t163.5 -55.5q129 0 187.5 76.5t78.5 267.5q6 59 6 106q0 121 -46.5 174.5t-154.5 53.5q-133 0 -196 -78.5t-82 -261.5z" />
<glyph unicode="&#xff;" horiz-adv-x="1044" d="M176 -197q88 0 134.5 36.5t107.5 150.5q0 4 4 8q-61 3 -70 33q-60 181 -129.5 454.5t-107.5 472.5q-6 29 16 38.5t94 9.5q66 0 89.5 -9t25.5 -30q56 -366 168 -793q225 484 323 793q6 22 27.5 30.5t83.5 8.5q74 0 96.5 -10.5t12.5 -39.5q-65 -184 -200 -482t-251 -511 q-45 -84 -75 -133t-67.5 -95.5t-75 -69.5t-87 -36.5t-113.5 -13.5q-83 0 -112 10q-21 5 -26 22t1 68q6 60 15 77.5t32 17.5q3 0 29 -3.5t55 -3.5zM809 1374q74 0 93.5 -10t15.5 -49l-13 -117q-3 -37 -23 -48t-91 -11q-75 0 -94.5 12t-14.5 53l12 111q3 40 22 49.5t93 9.5z M436 1374q74 0 93.5 -10t15.5 -49l-13 -117q-3 -37 -23 -48t-91 -11q-75 0 -94.5 12t-14.5 53l13 111q3 40 21.5 49.5t92.5 9.5z" />
<glyph unicode="&#x152;" horiz-adv-x="1837" d="M1749 1157h-543l-39 -364h473q24 0 30.5 -19.5t0.5 -79.5q-8 -67 -15 -82.5t-32 -15.5h-477l-41 -397h545q24 0 30.5 -21t-0.5 -78q-6 -65 -13.5 -82.5t-29.5 -17.5h-979q-270 0 -385.5 117t-115.5 383q0 68 10 178q19 185 58 309.5t111.5 209t181 122t265.5 37.5h981 q23 0 29.5 -21t1.5 -80q-6 -63 -14.5 -80.5t-32.5 -17.5zM670 197h209l102 962h-211q-126 0 -197.5 -42.5t-111 -144.5t-60.5 -294q-10 -117 -10 -180q0 -171 62 -236t217 -65z" />
<glyph unicode="&#x153;" horiz-adv-x="1734" d="M1589 438h-598q-9 -155 42.5 -223t176.5 -68q81 0 129 31t56 84q3 17 10 24.5t27 11t63 3.5q66 0 82.5 -7.5t13.5 -35.5q-18 -128 -119 -203t-268 -75q-250 0 -336 151q-106 -151 -354 -151q-206 0 -302.5 97t-96.5 304q0 57 6 119q28 272 141.5 397t345.5 125 q247 0 328 -152q112 152 350 152q188 0 275.5 -97t87.5 -263q0 -55 -4 -84l-7 -56q-5 -52 -14 -68t-35 -16zM528 152q133 0 194.5 79t82.5 269q6 64 6 110q0 128 -48 183t-161 55q-131 0 -190 -78.5t-80 -269.5q-8 -86 -8 -115q0 -124 47.5 -178.5t156.5 -54.5zM1274 852 q-119 0 -179.5 -63t-86.5 -214h442l4 48q2 16 2 49q0 88 -41 134t-141 46z" />
<glyph unicode="&#x178;" horiz-adv-x="1167" d="M967 1317q13 28 33.5 35.5t95.5 7.5q111 0 118 -24q3 -9 -4 -23q-86 -157 -237 -404.5t-264 -414.5h-2l-48 -457q-1 -18 -9.5 -26t-32 -11.5t-74.5 -3.5q-72 0 -93.5 8t-19.5 33l47 457q-75 159 -173.5 405t-156.5 414q-8 27 15.5 37t99.5 10t97.5 -8t29.5 -35 q96 -321 221 -629q196 314 357 629zM522 1700q74 0 93.5 -10.5t15.5 -49.5l-13 -116q-3 -38 -23 -49t-91 -11q-73 0 -92.5 12t-14.5 54l11 110q5 40 23 50t91 10zM911 1700q74 0 93.5 -10.5t15.5 -49.5l-12 -116q-3 -37 -23.5 -48.5t-91.5 -11.5q-73 0 -92.5 12t-14.5 54 l13 110q5 40 23 50t89 10z" />
<glyph unicode="&#x2c6;" horiz-adv-x="710" d="M446 1274l-129 -115q-19 -17 -38 -21.5t-56 -4.5q-76 0 -77 18q0 7 12 18l211 222q11 11 18 16t25 8.5t47 3.5q44 0 61 -6.5t31 -21.5l166 -222q20 -28 -28 -34q-16 -2 -42 -2q-39 0 -58.5 5t-35.5 21z" />
<glyph unicode="&#x2dc;" horiz-adv-x="710" d="M621 1327l4 25q2 19 13.5 24.5t53.5 5.5q44 0 57.5 -7t10.5 -29l-10 -60q-25 -156 -164 -156q-60 0 -131 39l-97 58q-26 16 -43 16q-40 0 -47 -55l-2 -25q-2 -19 -13.5 -24.5t-53.5 -5.5q-45 0 -58 6.5t-10 27.5l10 62q25 155 164 155q61 0 133 -41l94 -55q26 -16 46 -16 q19 0 29 11.5t14 43.5z" />
<glyph unicode="&#x2000;" horiz-adv-x="892" />
<glyph unicode="&#x2001;" horiz-adv-x="1784" />
<glyph unicode="&#x2002;" horiz-adv-x="892" />
<glyph unicode="&#x2003;" horiz-adv-x="1784" />
<glyph unicode="&#x2004;" horiz-adv-x="594" />
<glyph unicode="&#x2005;" horiz-adv-x="446" />
<glyph unicode="&#x2006;" horiz-adv-x="297" />
<glyph unicode="&#x2007;" horiz-adv-x="297" />
<glyph unicode="&#x2008;" horiz-adv-x="223" />
<glyph unicode="&#x2009;" horiz-adv-x="356" />
<glyph unicode="&#x200a;" horiz-adv-x="99" />
<glyph unicode="&#x2010;" horiz-adv-x="829" d="M178 645h518q23 0 29 -16.5t0 -73.5q-6 -59 -13 -74.5t-28 -15.5h-520q-22 0 -27 15.5t0 74.5t11.5 74.5t29.5 15.5z" />
<glyph unicode="&#x2011;" horiz-adv-x="829" d="M178 645h518q23 0 29 -16.5t0 -73.5q-6 -59 -13 -74.5t-28 -15.5h-520q-22 0 -27 15.5t0 74.5t11.5 74.5t29.5 15.5z" />
<glyph unicode="&#x2012;" horiz-adv-x="829" d="M178 645h518q23 0 29 -16.5t0 -73.5q-6 -59 -13 -74.5t-28 -15.5h-520q-22 0 -27 15.5t0 74.5t11.5 74.5t29.5 15.5z" />
<glyph unicode="&#x2013;" horiz-adv-x="1085" d="M174 645h784q23 0 29 -16.5t0 -73.5q-6 -59 -13 -74.5t-28 -15.5h-786q-23 0 -29 16.5t0 73.5q6 60 13 75t30 15z" />
<glyph unicode="&#x2014;" horiz-adv-x="1511" d="M172 645h1214q23 0 29 -16.5t0 -73.5q-6 -58 -13.5 -74t-27.5 -16h-1216q-23 0 -29 16.5t0 73.5q6 60 13 75t30 15z" />
<glyph unicode="&#x2018;" horiz-adv-x="444" d="M375 1100l-8 -88q-1 -15 -6 -21.5t-25.5 -11t-63.5 -4.5q-59 0 -76.5 8.5t-15.5 28.5l10 94q12 115 71.5 191.5t168.5 123.5q17 10 28.5 1.5t28.5 -46.5q16 -44 14 -56.5t-22 -25.5q-49 -27 -72.5 -72.5t-31.5 -121.5z" />
<glyph unicode="&#x2019;" horiz-adv-x="444" d="M238 1296l8 88q1 15 5.5 21.5t25 11t63.5 4.5q59 0 76.5 -8.5t15.5 -28.5l-10 -94q-12 -115 -71.5 -191.5t-168.5 -123.5q-17 -10 -28.5 -1.5t-28.5 46.5q-16 44 -14 56.5t22 25.5q49 27 73 72.5t32 121.5z" />
<glyph unicode="&#x201a;" horiz-adv-x="444" d="M113 106l8 89q1 15 5.5 21t25 10.5t63.5 4.5q60 0 77 -8t15 -28l-10 -95q-12 -115 -71.5 -191.5t-168.5 -123.5q-17 -10 -28.5 -1.5t-28.5 46.5q-16 44 -14 56.5t22 25.5q49 27 73 72.5t32 121.5z" />
<glyph unicode="&#x201c;" horiz-adv-x="796" d="M375 1100l-8 -88q-1 -15 -6 -21.5t-25.5 -11t-63.5 -4.5q-59 0 -76.5 8.5t-15.5 28.5l10 94q12 115 71.5 191.5t168.5 123.5q17 10 28.5 1.5t28.5 -46.5q16 -44 14 -56.5t-22 -25.5q-49 -27 -72.5 -72.5t-31.5 -121.5zM727 1100l-8 -88q-1 -15 -5.5 -21.5t-25 -11 t-63.5 -4.5q-59 0 -77 8.5t-16 28.5l11 94q12 115 71 192t168 123q17 11 29 2t29 -47q16 -44 13.5 -56.5t-22.5 -25.5q-49 -27 -72.5 -72.5t-31.5 -121.5z" />
<glyph unicode="&#x201d;" horiz-adv-x="796" d="M238 1296l8 88q1 15 5.5 21.5t25 11t63.5 4.5q59 0 76.5 -8.5t15.5 -28.5l-10 -94q-12 -115 -71.5 -191.5t-168.5 -123.5q-17 -10 -28.5 -1.5t-28.5 46.5q-16 44 -14 56.5t22 25.5q49 27 73 72.5t32 121.5zM590 1296l8 88q1 15 5.5 21.5t25 11t63.5 4.5q59 0 76.5 -8.5 t15.5 -28.5l-10 -94q-12 -115 -71 -192t-168 -123q-17 -11 -29 -2t-29 47q-16 44 -14 56.5t22 25.5q49 27 73 72.5t32 121.5z" />
<glyph unicode="&#x201e;" horiz-adv-x="796" d="M113 106l8 89q1 15 5.5 21t25 10.5t63.5 4.5q60 0 77 -8t15 -28l-10 -95q-12 -115 -71.5 -191.5t-168.5 -123.5q-17 -10 -28.5 -1.5t-28.5 46.5q-16 44 -14 56.5t22 25.5q49 27 73 72.5t32 121.5zM465 106l8 89q1 15 5.5 21t25 10.5t63.5 4.5q60 0 77 -8t15 -28l-10 -95 q-12 -115 -71 -192t-168 -123q-17 -11 -29 -2t-29 47q-16 44 -14 56.5t22 25.5q49 27 73 72.5t32 121.5z" />
<glyph unicode="&#x2022;" horiz-adv-x="727" d="M360 342q-113 0 -151.5 24.5t-38.5 104.5q0 33 6 86q8 74 18 112.5t35.5 64.5t63.5 33t108 7q112 0 151.5 -24.5t39.5 -104.5q0 -35 -6 -88q-8 -74 -18 -112.5t-36 -64t-63.5 -32t-108.5 -6.5z" />
<glyph unicode="&#x2026;" horiz-adv-x="1544" d="M217 -4q-83 0 -107.5 10t-21.5 43l18 168q3 36 26.5 45.5t109.5 9.5q84 0 108 -9.5t21 -45.5l-19 -168q-3 -34 -28 -43.5t-107 -9.5zM733 -4q-84 0 -108 9.5t-21 43.5l19 168q3 36 26 45.5t107 9.5q85 0 108.5 -9.5t20.5 -45.5l-19 -168q-3 -34 -27 -43.5t-106 -9.5z M1247 -4q-83 0 -107.5 10t-21.5 43l19 168q3 36 26 45.5t107 9.5q85 0 109.5 -9.5t21.5 -45.5l-19 -168q-3 -34 -28 -43.5t-107 -9.5z" />
<glyph unicode="&#x202f;" horiz-adv-x="356" />
<glyph unicode="&#x2039;" horiz-adv-x="659" d="M127 557q6 38 27 64l208 245q14 18 34.5 23.5t82.5 5.5q95 0 95 -23q0 -7 -7 -16l-256 -299l193 -299q19 -32 -38 -39q-21 -2 -52 -2q-63 0 -84.5 6t-32.5 25l-158 246q-15 25 -12 63z" />
<glyph unicode="&#x203a;" horiz-adv-x="659" d="M532 557q-6 -38 -26 -63l-209 -246q-14 -18 -34.5 -23.5t-82.5 -5.5q-95 0 -95 23q0 7 7 16l256 299l-192 299q-19 32 38 39q21 2 52 2q63 0 84 -6t32 -25l158 -245q15 -25 12 -64z" />
<glyph unicode="&#x205f;" horiz-adv-x="446" />
<glyph unicode="&#x20ac;" horiz-adv-x="1300" d="M729 459h-276q1 -164 60 -225.5t202 -61.5q124 0 182.5 52t71.5 149q3 27 23.5 36t88.5 9t89 -9.5t18 -39.5q-21 -192 -137 -290.5t-351 -98.5q-253 0 -362.5 111.5t-112.5 367.5h-114q-20 0 -25.5 14t-1.5 64q6 52 11.5 63.5t23.5 11.5h110l7 66l6 65h-103 q-20 0 -24.5 12.5t0.5 63.5q6 52 11.5 64t23.5 12h118q53 258 180.5 369.5t378.5 111.5q231 0 337 -98.5t87 -282.5q-3 -31 -23 -40t-89 -9q-68 0 -88.5 9t-18.5 36q6 94 -42.5 142.5t-170.5 48.5q-141 0 -213 -61.5t-108 -225.5h331q20 0 25.5 -13.5t-0.5 -62.5 q-6 -52 -11.5 -64t-23.5 -12h-346q-5 -27 -8 -65l-6 -66h280q20 0 24.5 -13t0.5 -62q-6 -54 -11.5 -66t-23.5 -12z" />
<glyph unicode="&#x2122;" horiz-adv-x="1613" d="M946 1356q55 0 77 -6t26 -23l120 -426l215 426q9 18 28.5 23.5t74.5 5.5q63 0 85 -6t21 -25l-75 -709q-2 -19 -13 -23.5t-55 -4.5q-50 0 -63.5 5t-10.5 23l58 551q-178 -349 -201 -399q-8 -17 -23.5 -24t-52.5 -7q-39 0 -55 7.5t-21 23.5l-114 397l-60 -549 q-1 -19 -13.5 -23.5t-59.5 -4.5t-60 5t-10 23l74 709q3 20 24.5 25.5t83.5 5.5zM690 1225h-192l-64 -609q-3 -19 -14.5 -23.5t-61.5 -4.5q-48 0 -61 5t-10 23l63 609h-182q-18 0 -22.5 12t-0.5 53q6 55 13 62q4 4 16 4h522q18 0 21.5 -11.5t-0.5 -54.5q-6 -55 -11 -60 q-4 -5 -16 -5z" />
<glyph unicode="&#x25fc;" horiz-adv-x="1003" d="M0 1004h1004v-1004h-1004v1004z" />
</font>
</defs>
</svg>
