<?xml version="1.0" standalone="no"?>
<!DOCTYPE svg PUBLIC "-//W3C//DTD SVG 1.1//EN" "http://www.w3.org/Graphics/SVG/1.1/DTD/svg11.dtd" >
<svg xmlns="http://www.w3.org/2000/svg" xmlns:xlink="http://www.w3.org/1999/xlink" version="1.1">
<metadata></metadata>
<defs>
<font id="frygiaregular" horiz-adv-x="1062" >
<font-face units-per-em="2048" ascent="1536" descent="-512" />
<missing-glyph horiz-adv-x="454" />
<glyph unicode="&#xfb01;" horiz-adv-x="1140" d="M842 1284q-78 16 -199 16q-85 0 -135.5 -10.5t-81 -38.5t-41 -70.5t-10.5 -113.5v-74h520q47 0 61.5 -6t14.5 -26v-932q0 -20 -14.5 -26.5t-61.5 -6.5t-61.5 6.5t-14.5 26.5v837h-444v-837q0 -20 -13.5 -26.5t-60.5 -6.5t-60.5 6.5t-13.5 26.5v837h-135q-17 0 -21.5 11.5 t-4.5 50.5t4.5 50t21.5 11l135 4v82q0 192 91 274.5t311 82.5q129 0 227 -25q16 -5 19.5 -16t-1.5 -50q-4 -39 -10.5 -49.5t-21.5 -7.5z" />
<glyph unicode="&#xfb02;" horiz-adv-x="1165" d="M375 1067v-74h209q17 0 21.5 -12t4.5 -51q0 -41 -4.5 -52.5t-21.5 -11.5h-209v-837q0 -20 -13.5 -26.5t-60.5 -6.5t-60.5 6.5t-13.5 26.5v837h-135q-17 0 -21.5 11.5t-4.5 50.5t4.5 50t21.5 11l135 4v82q0 192 93 274.5t313 82.5q184 0 305 -37q33 -11 33 -41v-1137 q0 -47 18 -65.5t64 -18.5h30q17 0 22 -12t5 -53q0 -42 -5 -55t-22 -13h-45q-124 0 -171.5 44.5t-47.5 158.5v1083q-79 14 -172 14q-112 0 -169.5 -21t-80 -69.5t-22.5 -142.5z" />
<glyph unicode="&#xfb03;" horiz-adv-x="1748" d="M836 993v82q0 192 91 274.5t310 82.5q129 0 227 -25q16 -5 20 -16t-1 -50q-4 -39 -11 -49.5t-22 -7.5q-78 16 -199 16q-85 0 -135.5 -10.5t-81 -38.5t-41 -70.5t-10.5 -113.5v-74h520q46 0 61 -6t15 -26v-932q0 -20 -15 -26.5t-61 -6.5q-47 0 -61.5 6.5t-14.5 26.5v837 h-444v-837q0 -20 -14 -26.5t-60 -6.5q-47 0 -60 6t-13 27v837h-461v-837q0 -20 -13.5 -26.5t-60.5 -6.5t-60.5 6.5t-13.5 26.5v837h-135q-17 0 -21.5 11.5t-4.5 50.5t4.5 50t21.5 11l135 4v117q0 167 66 241t217 74q104 0 174 -32q15 -6 16 -19.5t-14 -50.5 q-13 -33 -22 -41.5t-23 -3.5q-53 16 -111 16q-85 0 -120 -43t-35 -149v-109h461z" />
<glyph unicode="&#xfb04;" horiz-adv-x="1773" d="M836 993v82q0 192 92.5 274.5t312.5 82.5q184 0 305 -37q33 -13 33 -41v-1137q0 -47 18 -65.5t64 -18.5h31q17 0 21.5 -11.5t4.5 -53.5t-4.5 -55t-21.5 -13h-45q-124 0 -172 44.5t-48 158.5v1083q-79 14 -174 14q-163 0 -216.5 -47.5t-53.5 -185.5v-74h209q17 0 22 -12 t5 -51q0 -40 -5 -52t-22 -12h-209v-837q0 -20 -14 -26.5t-60 -6.5q-47 0 -60 6t-13 27v837h-461v-837q0 -20 -13.5 -26.5t-60.5 -6.5t-60.5 6.5t-13.5 26.5v837h-135q-17 0 -21.5 11.5t-4.5 50.5t4.5 50t21.5 11l135 4v117q0 167 66 241t217 74q104 0 174 -32 q15 -6 16 -19.5t-14 -50.5q-13 -33 -22 -41.5t-23 -3.5q-53 16 -111 16q-85 0 -120 -43t-35 -149v-109h461z" />
<glyph horiz-adv-x="0" />
<glyph horiz-adv-x="682" />
<glyph unicode=" "  horiz-adv-x="454" />
<glyph unicode="&#x09;" horiz-adv-x="454" />
<glyph unicode="&#xa0;" horiz-adv-x="454" />
<glyph unicode="!" horiz-adv-x="569" d="M285 383q-39 0 -50.5 6.5t-11.5 24.5l-28 907q-2 22 18 30.5t72 8.5t72 -8.5t18 -30.5l-29 -907q0 -18 -11 -24.5t-50 -6.5zM285 -4q-58 0 -78.5 9t-20.5 38v137q0 31 19 39t80 8q63 0 81.5 -8t18.5 -39v-137q0 -29 -20 -38t-80 -9z" />
<glyph unicode="&#x22;" horiz-adv-x="741" d="M145 954l-14 435q0 20 13 25t59 5q47 0 60 -5t13 -25l-16 -435q0 -18 -11 -23t-46 -5q-34 0 -46 5t-12 23zM479 954l-14 435q0 20 13 25t59 5q47 0 60 -5t13 -25l-16 -435q0 -18 -11 -23t-46 -5q-34 0 -46 5t-12 23z" />
<glyph unicode="#" horiz-adv-x="1216" d="M659 23l60 339h-316l-59 -339q-1 -17 -15 -22t-53 -5t-49.5 5t-7.5 22l60 339h-170q-13 0 -18 11.5t-5 42.5t5 43t18 12h188l57 328h-168q-13 0 -17.5 11.5t-4.5 43.5q0 31 4.5 42t17.5 11h189l59 340q1 17 15 22t53 5t49.5 -5t7.5 -22l-59 -340h315l59 340q1 17 15 22 t53 5t49.5 -5t7.5 -22l-59 -340h168q13 0 17.5 -11t4.5 -42q0 -32 -4.5 -43.5t-17.5 -11.5h-188l-58 -328h168q13 0 18 -12t5 -43t-5 -42.5t-18 -11.5h-186l-60 -339q-3 -17 -15.5 -22t-51.5 -5t-50 5t-8 22zM479 799l-57 -328h315l58 328h-316z" />
<glyph unicode="$" horiz-adv-x="1173" d="M594 -188q-49 0 -62.5 6.5t-13.5 27.5v138q-191 13 -292.5 96t-104.5 254q0 20 14.5 26.5t61.5 6.5q48 0 60.5 -6t12.5 -27q1 -105 66 -158.5t192 -62.5v520q-72 19 -125 39.5t-104.5 52t-84 71t-52 97t-19.5 129.5q0 168 86.5 254.5t288.5 95.5v137q0 21 13.5 28t62.5 7 q48 0 62 -7t14 -28v-139q171 -18 255 -98.5t85 -241.5q0 -21 -13.5 -27t-62.5 -6q-47 0 -60.5 6.5t-13.5 26.5q-1 99 -50 149t-153 62v-496q87 -25 143 -46.5t107.5 -52.5t79.5 -69.5t44 -93.5t16 -129q0 -170 -89 -262.5t-288 -105.5v-140q0 -21 -14 -27.5t-62 -6.5z M893 354q0 104 -55 156t-181 90v-487q127 10 181.5 67.5t54.5 173.5zM297 1028q0 -56 14 -96t46 -67.5t71 -46t100 -36.5v461q-128 -6 -179.5 -56t-51.5 -159z" />
<glyph unicode="%" horiz-adv-x="1581" d="M393 1368q147 0 213 -77.5t66 -239.5q0 -161 -66 -238.5t-213 -77.5q-145 0 -210.5 77.5t-65.5 238.5q0 162 65 239.5t211 77.5zM393 836q87 0 122.5 48.5t35.5 166.5t-35.5 166.5t-122.5 48.5t-121 -48.5t-34 -166.5t34 -166.5t121 -48.5zM1188 621q146 0 211 -77 t65 -239q0 -163 -64.5 -240t-211.5 -77t-212 77t-65 240q0 161 65 238.5t212 77.5zM1188 90q87 0 122.5 48.5t35.5 166.5t-35.5 166.5t-122.5 48.5t-122.5 -48.5t-35.5 -166.5t35.5 -166.5t122.5 -48.5zM1235 1329l-760 -1306q-9 -17 -24 -22t-58 -5q-25 0 -37 4t-13 11 t5 16l758 1306q9 17 25 22t59 5q24 0 36 -4t13 -11t-4 -16z" />
<glyph unicode="&#x26;" horiz-adv-x="1415" d="M1286 131q13 7 23.5 -4.5t21.5 -42.5q12 -37 11 -49.5t-15 -20.5q-54 -26 -141 -26q-158 0 -215 129q-112 -135 -355 -135q-247 0 -365 104.5t-118 310.5q0 134 58 225.5t155 122.5q-82 27 -129 99t-47 184q0 170 102.5 258t325.5 88q215 0 312.5 -76.5t97.5 -228.5 q0 -17 -14.5 -23t-59.5 -6q-47 0 -58.5 5.5t-13.5 25.5q-2 43 -15 73.5t-42 54t-80.5 35t-126.5 11.5q-145 0 -207.5 -51.5t-62.5 -169.5q0 -124 50 -174.5t175 -50.5h76q15 0 19.5 -12t4.5 -50q0 -40 -4.5 -51.5t-19.5 -11.5h-74q-121 0 -192.5 -68t-71.5 -203 q0 -137 78 -215.5t247 -78.5q88 0 151.5 21t99 59.5t51.5 85t16 104.5v295h-123q-15 0 -20 12t-5 51q0 38 5 50t20 12h438q15 0 20 -12t5 -50q0 -39 -5 -51t-20 -12h-168v-336q0 -132 25.5 -176.5t91.5 -44.5q53 0 88 14z" />
<glyph unicode="'" horiz-adv-x="415" d="M150 954l-15 435q0 20 13 25t59 5q47 0 60.5 -5t13.5 -25l-17 -435q0 -18 -11 -23t-46 -5q-34 0 -45.5 5t-11.5 23z" />
<glyph unicode="(" horiz-adv-x="708" d="M166 524q0 187 11.5 325t38.5 250.5t73 182t115.5 106.5t164.5 37h35q17 0 21 -11t4 -48q0 -38 -4 -48.5t-21 -10.5h-31q-78 0 -130.5 -49t-82.5 -152t-42.5 -242t-12.5 -340t12.5 -340t42.5 -242t82.5 -151.5t130.5 -48.5h31q17 0 21 -10.5t4 -48.5q0 -37 -4 -48.5 t-21 -11.5h-35q-95 0 -164.5 37t-115.5 106.5t-73 182t-38.5 250.5t-11.5 325z" />
<glyph unicode=")" horiz-adv-x="708" d="M543 524q0 -187 -11.5 -325t-39 -250.5t-73.5 -182t-115.5 -106.5t-164.5 -37h-35q-16 0 -20 11t-4 49q0 39 3.5 49t20.5 10h31q78 0 130.5 48.5t82.5 151.5t42.5 242t12.5 340t-12.5 340t-42.5 242t-82.5 152t-130.5 49h-31q-17 0 -20.5 10t-3.5 49q0 38 4 48.5t20 10.5 h35q95 0 164.5 -37t115.5 -106.5t73.5 -182t39 -250.5t11.5 -325z" />
<glyph unicode="*" horiz-adv-x="1054" d="M197 1190l295 -135l-37 323q-3 20 12 27.5t59 7.5t59.5 -7.5t14.5 -27.5l-37 -323l295 135q17 9 28.5 -3.5t24.5 -56.5q14 -41 12 -57t-22 -20l-315 -66l219 -237q13 -13 4 -28.5t-45 -41.5q-35 -27 -51.5 -30t-26.5 16l-160 280l-159 -280q-9 -19 -25 -16t-51 30 q-36 26 -45 41.5t4 28.5l219 237l-317 66q-14 3 -19 10.5t-2.5 23t12.5 43.5q13 44 25 56.5t29 3.5z" />
<glyph unicode="+" horiz-adv-x="1110" d="M625 1012v-312h311q17 0 22 -12.5t5 -52.5t-5 -53t-22 -13h-311v-311q0 -17 -14 -23t-56 -6t-55 5.5t-13 23.5v311h-313q-16 0 -20 12t-4 54t3.5 53.5t20.5 11.5h313v312q0 17 12.5 21.5t55.5 4.5q44 0 57 -4.5t13 -21.5z" />
<glyph unicode="," horiz-adv-x="485" d="M270 225q59 0 77 -8.5t11 -36.5q-25 -87 -80 -217t-98 -217q-13 -25 -74 -25q-27 0 -41 6.5t-10 20.5q82 264 107 440q3 24 22 30.5t86 6.5z" />
<glyph unicode="-" horiz-adv-x="815" d="M162 616h491q17 0 22 -11.5t5 -51.5t-5 -52t-22 -12h-491q-17 0 -22 12t-5 52t5 51.5t22 11.5z" />
<glyph unicode="." horiz-adv-x="485" d="M242 -4q-58 0 -78.5 9t-20.5 38v137q0 31 19 39t80 8q63 0 81.5 -8t18.5 -39v-137q0 -29 -20 -38t-80 -9z" />
<glyph unicode="/" horiz-adv-x="724" d="M690 1430l-502 -1565q-5 -20 -21 -26.5t-71 -6.5q-45 0 -56 6.5t-5 26.5l502 1565q5 20 21 26t71 6q46 0 56.5 -6.5t4.5 -25.5z" />
<glyph unicode="0" horiz-adv-x="1161" d="M580 1290q248 0 350 -154.5t102 -500.5q0 -345 -102 -499t-350 -154q-247 0 -349 154.5t-102 498.5q0 346 102 500.5t349 154.5zM580 111q167 0 229.5 117.5t62.5 406.5t-62.5 406.5t-229.5 117.5q-166 0 -228.5 -118t-62.5 -406t62.5 -406t228.5 -118z" />
<glyph unicode="1" horiz-adv-x="847" d="M379 31v1093l-256 -73q-18 -3 -24.5 10t-6.5 45q0 46 5 61t22 19l379 104q37 9 37 -16v-1243q0 -21 -15 -28t-63 -7t-63 7t-15 28z" />
<glyph unicode="2" horiz-adv-x="1077" d="M545 1290q401 0 401 -362q0 -47 -6.5 -88.5t-16.5 -75t-29 -65t-37 -55t-47 -49.5t-52 -43t-60 -40.5t-63.5 -38.5t-69.5 -39.5t-71 -40.5q-103 -59 -159 -120.5t-56 -143.5h651q17 0 21.5 -11.5t4.5 -51.5q0 -41 -4.5 -53.5t-21.5 -12.5h-780q-17 0 -22 12t-5 54v32 q0 119 61.5 207.5t184.5 169.5q42 29 102.5 64t100.5 57.5t85.5 57t72 69.5t44 87.5t17.5 117.5q0 119 -56.5 177t-189.5 58q-139 0 -198 -53t-64 -172q-2 -20 -14.5 -26.5t-59.5 -6.5q-43 0 -57.5 6.5t-16.5 24.5q3 185 103.5 269.5t306.5 84.5z" />
<glyph unicode="3" horiz-adv-x="1071" d="M518 594h-123q-15 0 -18.5 11t-3.5 50q0 41 3.5 52.5t18.5 11.5h127q132 0 184 52.5t52 178.5q0 112 -56 162.5t-188 50.5q-136 0 -195.5 -46t-64.5 -138q-2 -20 -13.5 -25.5t-58.5 -5.5q-46 0 -59.5 5t-13.5 24q6 313 405 313t399 -334q0 -233 -170 -292 q203 -61 203 -308q0 -178 -105.5 -276t-312.5 -98q-428 0 -434 319q0 19 14 24t60 5q47 0 58.5 -5.5t13.5 -25.5q5 -94 71.5 -142t216.5 -48q260 0 260 253q0 129 -69 180.5t-201 51.5z" />
<glyph unicode="4" horiz-adv-x="1110" d="M774 -4q-47 0 -62.5 7t-15.5 28v282h-602q-16 0 -21 15t-5 57q0 33 3.5 48.5t14.5 29.5l537 784q10 18 34 24.5t80 6.5q69 0 92 -6t23 -27v-805h166q17 0 21.5 -12t4.5 -51q0 -40 -4.5 -52t-21.5 -12h-166v-282q0 -21 -15 -28t-63 -7zM231 440h469v690z" />
<glyph unicode="5" horiz-adv-x="1026" d="M489 668q-153 0 -241 -45q-27 -11 -74 -11q-36 0 -50 6.5t-13 24.5l41 596q2 19 15 25t54 6h594q17 0 22 -13t5 -53t-5 -52.5t-22 -12.5h-530l-29 -396q95 50 250 50q403 0 403 -400q0 -411 -420 -411q-399 0 -405 319q0 19 14 24t60 5q48 0 58.5 -5t12.5 -26 q5 -93 66 -141.5t194 -48.5q143 0 203 68.5t60 213.5q0 141 -59.5 209t-203.5 68z" />
<glyph unicode="6" horiz-adv-x="1079" d="M780 1001q-12 160 -229 160q-55 0 -98.5 -17t-72.5 -43.5t-50 -68t-32.5 -81t-18 -94t-8 -95t-1.5 -94.5q40 57 121.5 87.5t179.5 30.5q206 0 298 -98t92 -299q0 -409 -406 -409q-104 0 -180.5 28t-124.5 77.5t-76.5 129t-39.5 169.5t-11 212q0 130 8 225.5t27 175.5 t50 133t79 89.5t112.5 52.5t151.5 16q168 0 269.5 -71.5t105.5 -217.5q0 -19 -14 -24.5t-60 -5.5q-48 0 -59 5.5t-13 26.5zM555 106q144 0 199 70.5t55 212.5q0 147 -54 211t-198 64q-105 0 -180 -40t-107 -114q3 -71 10 -124.5t26 -109t49 -90.5t80.5 -57.5t119.5 -22.5z " />
<glyph unicode="7" horiz-adv-x="974" d="M240 33q79 255 210.5 557t264.5 549h-604q-17 0 -22 12.5t-5 52.5t5 53t22 13h743q17 0 22 -11t5 -47q0 -14 -1 -25.5t-4 -21.5t-5 -15t-7 -15t-6 -13q-139 -263 -262.5 -553t-200.5 -538q-4 -20 -23.5 -27.5t-66.5 -7.5q-44 0 -57 8t-8 29z" />
<glyph unicode="8" horiz-adv-x="1120" d="M125 332q0 73 17 129t50.5 92.5t71.5 59t90 40.5q-95 36 -147.5 105.5t-52.5 199.5q0 165 98.5 248.5t306.5 83.5q408 0 408 -332q0 -130 -53 -199.5t-150 -105.5q52 -18 90.5 -40.5t72 -59t51 -92.5t17.5 -129q0 -350 -436 -350q-434 0 -434 350zM842 334q0 55 -16 97.5 t-39.5 69t-64 47.5t-76 31.5t-87.5 22.5q-52 -12 -86.5 -22.5t-74.5 -31.5t-63.5 -47.5t-39.5 -69t-16 -97.5q0 -116 66.5 -170.5t213.5 -54.5t215 54.5t68 170.5zM305 954q0 -61 19 -105t58 -71.5t78.5 -43t98.5 -29.5q60 14 100 29.5t79 43t58 71.5t19 105 q0 111 -59.5 161t-196.5 50q-136 0 -195 -50t-59 -161z" />
<glyph unicode="9" horiz-adv-x="1079" d="M293 268q12 -159 229 -159q54 0 97.5 17t72.5 43t50 68t32 81.5t18 94t8.5 95t2.5 94.5q-40 -57 -122 -88t-179 -31q-206 0 -297.5 98.5t-91.5 299.5q0 409 405 409q104 0 180.5 -28t124.5 -77.5t76.5 -129t39.5 -169.5t11 -212q0 -130 -8 -225.5t-27 -175.5t-50 -133 t-79 -89.5t-112.5 -52.5t-151.5 -16q-168 0 -269.5 71t-105.5 217q0 19 14.5 25t59.5 6q48 0 59 -6t13 -27zM518 1163q-144 0 -199 -70t-55 -212q0 -147 54 -211t198 -64q105 0 179 39.5t106 112.5q-2 71 -9 125t-25.5 109t-48.5 90.5t-80.5 58t-119.5 22.5z" />
<glyph unicode=":" horiz-adv-x="526" d="M262 -4q-58 0 -78 9t-20 38v137q0 31 18.5 39t79.5 8q63 0 81.5 -8t18.5 -39v-137q0 -29 -20 -38t-80 -9zM262 766q-58 0 -78 9t-20 38v137q0 31 18.5 39t79.5 8q63 0 81.5 -8t18.5 -39v-137q0 -29 -20 -38t-80 -9z" />
<glyph unicode=";" horiz-adv-x="526" d="M262 766q-58 0 -78 9t-20 38v137q0 31 18.5 39t79.5 8q63 0 81.5 -8t18.5 -39v-137q0 -29 -20 -38t-80 -9zM289 225q59 0 77 -8.5t11 -36.5q-25 -87 -80 -217t-98 -217q-13 -25 -74 -25q-27 0 -41 6.5t-10 20.5q80 258 106 440q3 23 22.5 30t86.5 7z" />
<glyph unicode="&#x3c;" horiz-adv-x="1110" d="M160 635q0 48 5 62t21 24l645 471q17 10 29 3t37 -42q25 -34 27 -48t-15 -24l-608 -446l608 -445q17 -10 15 -23.5t-27 -47.5q-25 -36 -36.5 -43t-29.5 4l-645 471q-11 7 -15 12t-7.5 22t-3.5 50z" />
<glyph unicode="=" horiz-adv-x="1110" d="M182 508h746q17 0 21.5 -12.5t4.5 -53.5t-4.5 -53t-21.5 -12h-746q-17 0 -21.5 12t-4.5 53t4.5 53.5t21.5 12.5zM182 893h746q17 0 21.5 -12.5t4.5 -53.5t-4.5 -53t-21.5 -12h-746q-17 0 -21.5 12t-4.5 53t4.5 53.5t21.5 12.5z" />
<glyph unicode="&#x3e;" horiz-adv-x="1110" d="M950 635q0 -33 -3.5 -50t-7.5 -22t-15 -12l-645 -471q-18 -11 -29.5 -4t-36.5 43q-25 34 -27 47.5t15 23.5l608 445l-608 446q-17 10 -15 24t27 48q25 35 37 42t29 -3l645 -471q11 -7 15 -12.5t7.5 -22.5t3.5 -51z" />
<glyph unicode="?" horiz-adv-x="1114" d="M598 465l-4 -51q0 -18 -11.5 -24.5t-52.5 -6.5t-52 6.5t-13 24.5l-4 51q-4 59 14 108t49 83.5t69.5 65t78 60t72 62t53 78t20.5 100.5q0 109 -60 164t-202 55q-151 0 -219 -57.5t-70 -184.5q0 -21 -12.5 -27.5t-60.5 -6.5q-45 0 -60.5 6.5t-15.5 25.5q0 195 109.5 286 t328.5 91q422 0 422 -352q0 -67 -20 -120.5t-52 -89.5t-71 -66.5t-79 -58.5t-74 -57.5t-56.5 -71.5t-26.5 -93zM530 -4q-58 0 -78 9t-20 38v137q0 31 18.5 39t79.5 8q63 0 82 -8t19 -39v-137q0 -29 -20.5 -38t-80.5 -9z" />
<glyph unicode="@" horiz-adv-x="1798" d="M1110 575v283q-71 33 -182 33q-137 0 -188.5 -67.5t-51.5 -241.5q0 -155 46 -219t159 -64q217 0 217 276zM1192 -137h-279q-192 0 -329 37t-234.5 122t-144.5 227.5t-47 348.5q0 205 47 346.5t145 227t238 123.5t338 38q166 0 288.5 -27.5t205.5 -80.5t133.5 -138.5 t72 -192.5t21.5 -251q0 -188 -31.5 -295t-92.5 -149.5t-163 -42.5q-107 0 -155.5 43.5t-63.5 126.5q-36 -71 -105.5 -107.5t-161.5 -36.5q-160 0 -239.5 94.5t-79.5 305.5q0 226 84 326t289 100q165 0 276 -58q35 -17 35 -41v-477q0 -176 111 -176q65 0 100.5 33.5t52.5 117 t17 236.5q0 110 -11.5 192t-39 149t-71.5 111t-111 74t-155 43t-206 13q-138 0 -237 -17.5t-179 -59.5t-127.5 -113.5t-72.5 -179t-25 -257.5q0 -151 25.5 -259.5t73 -179.5t126 -113t174.5 -58.5t229 -16.5h279q15 0 18.5 -10t3.5 -43q0 -35 -3.5 -45t-18.5 -10z" />
<glyph unicode="A" horiz-adv-x="1169" d="M1026 -4q-46 0 -61.5 7t-20.5 28q-77 270 -104 360h-512q-60 -199 -103 -360q-5 -21 -20.5 -28t-61.5 -7q-51 0 -67 7.5t-10 27.5q77 289 194.5 649t226.5 645q8 21 25.5 28t71.5 7q55 0 72.5 -7t23.5 -28q110 -284 228.5 -644.5t195.5 -649.5q6 -20 -10.5 -27.5 t-67.5 -7.5zM584 1171q-87 -239 -215 -647h430q-128 408 -215 647z" />
<glyph unicode="B" horiz-adv-x="1232" d="M346 631v-496h287q168 0 242.5 57.5t74.5 190.5q0 76 -22.5 126t-70 76t-107 36t-148.5 10h-256zM608 1221h-262v-457h270q150 0 216.5 57t66.5 178q0 118 -67 170t-224 52zM256 1356h358q229 0 337 -87.5t108 -260.5q0 -119 -48 -192t-145 -109q114 -22 180 -101 t66 -223q0 -188 -110 -285.5t-359 -97.5h-387q-41 0 -55.5 7t-14.5 26v1290q0 19 14.5 26t55.5 7z" />
<glyph unicode="C" horiz-adv-x="1212" d="M133 678q0 193 24.5 320.5t84 214t157.5 124t246 37.5q442 0 442 -381q0 -20 -14 -26t-63 -6q-48 0 -63 6t-15 26q-2 125 -69.5 184.5t-217.5 59.5q-139 0 -212 -48.5t-104.5 -167t-31.5 -343.5q0 -170 16 -274.5t58.5 -170t108 -90t171.5 -24.5q154 0 218.5 62t66.5 196 q0 19 15 26t63 7q46 0 62 -7t16 -26q-2 -199 -107 -297t-334 -98q-151 0 -249.5 37.5t-159 124t-85 214t-24.5 320.5z" />
<glyph unicode="D" horiz-adv-x="1288" d="M346 137h272q76 0 131 10.5t97.5 36t69.5 64.5t44 101.5t24 141t7 187.5t-7 187.5t-24 141t-44 101.5t-69.5 64.5t-97.5 36t-131 10.5h-272v-1082zM618 0h-362q-41 0 -55.5 7t-14.5 26v1290q0 19 14.5 26t55.5 7h362q156 0 259 -37.5t165 -122t87.5 -208.5t25.5 -310 t-25.5 -310t-87.5 -208.5t-165 -122t-259 -37.5z" />
<glyph unicode="E" horiz-adv-x="1138" d="M965 1214h-619v-448h551q18 0 23.5 -13t5.5 -57q0 -43 -5.5 -56t-23.5 -13h-551v-486h625q18 0 24 -13.5t6 -55.5q0 -43 -6 -57.5t-24 -14.5h-715q-41 0 -55.5 7t-14.5 26v1290q0 19 14.5 26t55.5 7h709q18 0 24 -14.5t6 -57.5q0 -42 -6 -56t-24 -14z" />
<glyph unicode="F" horiz-adv-x="1050" d="M346 627v-596q0 -21 -15 -28t-65 -7q-49 0 -64.5 7t-15.5 28v1292q0 19 14.5 26t55.5 7h688q17 0 23 -14t6 -58q0 -42 -6 -56t-23 -14h-598v-448h539q17 0 22.5 -13t5.5 -57t-5.5 -56.5t-22.5 -12.5h-539z" />
<glyph unicode="G" horiz-adv-x="1259" d="M1044 678q41 0 55.5 -7.5t14.5 -27.5v-217q0 -444 -446 -444q-284 0 -409.5 159t-125.5 537q0 191 25 319t85.5 214.5t158.5 124.5t245 38q223 0 338 -92.5t115 -271.5q0 -21 -15 -28t-63 -7q-47 0 -62.5 7t-15.5 28q-3 227 -297 227q-138 0 -211.5 -49.5t-106 -168 t-32.5 -341.5q0 -165 20.5 -273t67.5 -171.5t114 -89t169 -25.5q155 0 222.5 73.5t67.5 241.5v107h-301q-18 0 -24 12t-6 55t6 56.5t24 13.5h387z" />
<glyph unicode="H" horiz-adv-x="1327" d="M1059 -4q-49 0 -64.5 7t-15.5 28v594h-633v-594q0 -21 -15 -28t-65 -7q-49 0 -64.5 7t-15.5 28v1294q0 21 15.5 28t64.5 7q50 0 65 -7t15 -28v-557h633v557q0 21 15.5 28t64.5 7q50 0 65 -7t15 -28v-1294q0 -21 -15 -28t-65 -7z" />
<glyph unicode="I" horiz-adv-x="542" d="M272 -4q-50 0 -64.5 7t-14.5 28v1294q0 21 14.5 28t64.5 7q48 0 63 -7t15 -28v-1294q0 -21 -15 -28t-63 -7z" />
<glyph unicode="J" horiz-adv-x="1050" d="M713 473v852q0 21 15 28t65 7q48 0 63.5 -7t15.5 -28v-860q0 -250 -92.5 -366.5t-310.5 -116.5q-195 0 -288 98.5t-95 296.5q0 19 16 26t62 7q48 0 63 -7t15 -26q2 -132 55.5 -193t175.5 -61q138 0 189 80.5t51 269.5z" />
<glyph unicode="K" horiz-adv-x="1171" d="M1087 1323l-452 -604l479 -686q21 -30 -35 -36q-12 -1 -28 -1q-56 0 -79.5 7t-37.5 26l-424 616h-164v-614q0 -21 -15 -28t-65 -7q-49 0 -64.5 7t-15.5 28v1294q0 21 15.5 28t64.5 7q50 0 65 -7t15 -28v-537h164l395 539q14 19 39 26t80 7q76 0 68 -28z" />
<glyph unicode="L" horiz-adv-x="1003" d="M346 1325v-1188h561q18 0 23.5 -12t5.5 -55q0 -44 -5.5 -57t-23.5 -13h-651q-41 0 -55.5 7t-14.5 26v1292q0 21 15.5 28t64.5 7q50 0 65 -7t15 -28z" />
<glyph unicode="M" horiz-adv-x="1607" d="M805 150q-49 0 -63.5 6.5t-22.5 27.5l-377 963v-1116q0 -21 -15 -28t-63 -7q-47 0 -62.5 7t-15.5 28v1294q0 20 24 27.5t93 7.5q60 0 86 -7.5t33 -27.5l383 -979l381 979q7 20 33 27.5t86 7.5q68 0 92 -7.5t24 -27.5v-1294q0 -21 -15.5 -28t-62.5 -7q-48 0 -62.5 7 t-14.5 28v1116l-377 -963q-6 -21 -21 -27.5t-63 -6.5z" />
<glyph unicode="N" horiz-adv-x="1335" d="M1071 1360q47 0 62.5 -7t15.5 -28v-1294q0 -21 -18 -28t-78 -7q-49 0 -65 6t-27 25l-619 1077v-1073q0 -21 -15 -28t-63 -7q-47 0 -62.5 7t-15.5 28v1294q0 21 18.5 28t78.5 7q49 0 65 -6t27 -25l618 -1079v1075q0 21 15 28t63 7z" />
<glyph unicode="O" horiz-adv-x="1298" d="M649 1374q285 0 400.5 -159t115.5 -537t-115.5 -537t-400.5 -159t-400.5 159t-115.5 537t115.5 537t400.5 159zM649 119q81 0 138 16t100 53t68 102.5t37 159.5t12 228t-12 228t-37 159.5t-68 102.5t-100 53t-138 16q-135 0 -209 -48t-108.5 -168t-34.5 -343t34.5 -343 t108.5 -168t209 -48z" />
<glyph unicode="P" horiz-adv-x="1179" d="M598 512h-252v-481q0 -21 -15 -28t-65 -7q-49 0 -64.5 7t-15.5 28v1292q0 19 14.5 26t55.5 7h342q252 0 362.5 -100t110.5 -324q0 -223 -111 -321.5t-362 -98.5zM346 1219v-574h248q175 0 244 59.5t69 227.5t-69 227.5t-244 59.5h-248z" />
<glyph unicode="Q" horiz-adv-x="1298" d="M649 1374q285 0 400.5 -159t115.5 -537q0 -332 -87.5 -493t-295.5 -193q49 -59 141.5 -95t194.5 -38q18 0 24.5 -12.5t6.5 -55.5t-6.5 -56.5t-24.5 -13.5q-146 0 -278.5 72.5t-212.5 188.5q-272 6 -383 165.5t-111 530.5q0 378 115.5 537t400.5 159zM649 119q81 0 138 16 t100 53t68 102.5t37 159.5t12 228t-12 228t-37 159.5t-68 102.5t-100 53t-138 16q-135 0 -209 -48t-108.5 -168t-34.5 -343t34.5 -343t108.5 -168t209 -48z" />
<glyph unicode="R" horiz-adv-x="1214" d="M561 555h-215v-524q0 -21 -15 -28t-65 -7q-49 0 -64.5 7t-15.5 28v1292q0 19 14.5 26t55.5 7h344q249 0 359 -97.5t110 -306.5q0 -286 -258 -362q72 -27 119.5 -92t89.5 -189q58 -156 86 -278q3 -9 0 -15.5t-22.5 -13t-57.5 -6.5q-52 0 -70.5 7.5t-23.5 25.5 q-18 86 -74 252q-46 136 -111.5 205t-185.5 69zM346 1219v-533h250q171 0 241 57.5t70 208.5t-69.5 209t-241.5 58h-250z" />
<glyph unicode="S" horiz-adv-x="1177" d="M590 115q158 0 227.5 56t69.5 181q0 115 -67 168t-232 94q-84 21 -143 40.5t-120.5 52t-98.5 73t-61 101.5t-24 139q0 177 100.5 265.5t327.5 88.5q219 0 327.5 -80.5t111.5 -263.5q0 -21 -13.5 -27t-62.5 -6q-47 0 -61.5 6.5t-14.5 26.5q-1 115 -69.5 163t-213.5 48 q-148 0 -211 -50t-63 -163q0 -38 8 -69t19.5 -54t35.5 -43t46 -33t62.5 -28t72 -24.5t86.5 -24.5q79 -22 130 -39.5t102.5 -42t82 -52t55 -65.5t35 -87.5t10.5 -113.5q0 -185 -107 -277.5t-347 -92.5q-464 0 -469 352q0 20 14.5 26.5t61.5 6.5q49 0 63 -6t14 -27 q1 -116 82 -167.5t234 -51.5z" />
<glyph unicode="T" horiz-adv-x="1073" d="M973 1214h-357v-1183q0 -21 -15.5 -28t-63.5 -7q-50 0 -65 7t-15 28v1183h-357q-17 0 -22.5 14t-5.5 58t5.5 57t22.5 13h873q17 0 22.5 -13t5.5 -57t-5.5 -58t-22.5 -14z" />
<glyph unicode="U" horiz-adv-x="1300" d="M649 -18q-256 0 -364.5 118t-108.5 381v844q0 21 15 28t65 7q48 0 63 -7t15 -28v-836q0 -198 69 -280t246 -82q179 0 248.5 82t69.5 280v836q0 21 14.5 28t62.5 7q50 0 65 -7t15 -28v-844q0 -263 -109 -381t-366 -118z" />
<glyph unicode="V" horiz-adv-x="1161" d="M1022 1360q51 0 67 -7.5t11 -27.5q-88 -309 -204.5 -667.5t-219.5 -626.5q-6 -21 -24 -28t-72 -7t-71.5 7t-25.5 28q-219 581 -422 1294q-4 20 13.5 27.5t68.5 7.5q49 0 65 -7t21 -28q192 -675 355 -1135q180 514 356 1135q6 21 21 28t61 7z" />
<glyph unicode="W" horiz-adv-x="1818" d="M1657 1360q49 0 65 -7.5t13 -27.5q-61 -283 -161.5 -657t-187.5 -637q-6 -21 -24 -28t-68 -7q-49 0 -65.5 7t-22.5 28q-135 444 -297 1081q-171 -657 -297 -1081q-6 -21 -22.5 -28t-65.5 -7q-50 0 -67 7t-25 28q-86 261 -186.5 635t-161.5 659q-3 20 14 27.5t66 7.5 q48 0 63.5 -7t20.5 -28q111 -538 276 -1120q162 568 299 1120q5 21 21 28t65 7q50 0 67.5 -7t20.5 -28q144 -578 301 -1120q157 564 277 1120q5 21 19.5 28t62.5 7z" />
<glyph unicode="X" horiz-adv-x="1171" d="M721 698l381 -665q6 -12 3 -20.5t-19.5 -12.5t-49.5 -4q-55 0 -76 6.5t-30 26.5l-334 598h-23l-331 -598q-9 -20 -30.5 -26.5t-74.5 -6.5q-33 0 -50 4t-20 12.5t3 20.5l381 665l-371 625q-6 12 -3 20.5t19.5 12.5t48.5 4q54 0 75 -6.5t30 -26.5l325 -561h21l326 561 q10 20 30.5 26.5t73.5 6.5q10 0 18.5 -0.5t15 -1t12.5 -1.5t10 -2.5t7 -3.5t5 -4t2.5 -5t0.5 -6t-1.5 -6l-3.5 -7z" />
<glyph unicode="Y" horiz-adv-x="1130" d="M899 1325q10 22 23.5 28.5t62.5 6.5q30 0 48 -2t28 -6.5t11 -11.5t-3 -17q-79 -172 -203 -413t-221 -412v-467q0 -21 -15.5 -28t-64.5 -7q-50 0 -65 7t-15 28v467q-97 171 -221 412t-203 413q-4 10 -3 17t11 11.5t28 6.5t48 2q49 0 62.5 -6.5t23.5 -28.5 q149 -348 334 -688q185 340 334 688z" />
<glyph unicode="Z" horiz-adv-x="1118" d="M156 1356h805q19 0 24.5 -15t5.5 -61q0 -48 -16 -72l-682 -1071h682q18 0 24.5 -12.5t6.5 -54.5q0 -43 -6.5 -56.5t-24.5 -13.5h-836q-20 0 -25 14t-5 60q0 44 14 69l682 1076h-649q-16 0 -22.5 12.5t-6.5 54.5t6.5 56t22.5 14z" />
<glyph unicode="[" horiz-adv-x="708" d="M201 -342v1733q0 17 12.5 23.5t48.5 6.5h316q16 0 20 -10.5t4 -48.5q0 -39 -3.5 -49t-20.5 -10h-242v-1557h244q17 0 20.5 -10t3.5 -49q0 -38 -4 -49t-20 -11h-318q-36 0 -48.5 6.5t-12.5 24.5z" />
<glyph unicode="\" horiz-adv-x="724" d="M537 -135l-502 1565q-6 19 4.5 25.5t56.5 6.5q55 0 71 -6t21 -26l502 -1565q6 -20 -5 -26.5t-56 -6.5q-55 0 -71 6.5t-21 26.5z" />
<glyph unicode="]" horiz-adv-x="708" d="M508 1391v-1733q0 -18 -13 -24.5t-49 -6.5h-317q-17 0 -21 11.5t-4 48.5q0 38 4 48.5t21 10.5h244v1557h-242q-17 0 -21 10.5t-4 48.5q0 37 4 48t21 11h315q36 0 49 -6.5t13 -23.5z" />
<glyph unicode="^" horiz-adv-x="1110" d="M555 1366q43 0 57 -4t23 -19l346 -620q5 -10 5.5 -17t-7.5 -11t-22.5 -5.5t-38.5 -1.5q-48 0 -68.5 6t-30.5 25l-264 483l-264 -483q-10 -19 -30 -25t-68 -6q-46 0 -60 7.5t-4 27.5l346 620q11 15 24.5 19t55.5 4z" />
<glyph unicode="_" horiz-adv-x="808" d="M791 -248h-773q-17 0 -21.5 11t-4.5 49q0 36 4.5 47.5t21.5 11.5h773q17 0 21.5 -11.5t4.5 -47.5q0 -38 -4.5 -49t-21.5 -11z" />
<glyph unicode="`" horiz-adv-x="669" d="M469 1128l-319 160q-18 7 -18 21.5t24 52.5q21 37 33.5 45t29.5 -4l305 -195q14 -9 13.5 -18t-15.5 -35q-17 -27 -26.5 -31.5t-26.5 4.5z" />
<glyph unicode="a" d="M309 729q0 -19 -14 -25t-59 -6q-49 0 -60.5 5.5t-11.5 27.5q0 281 364 281q205 0 292 -79.5t87 -240.5v-665q0 -20 -13 -25.5t-58 -5.5t-58.5 5.5t-13.5 25.5l-2 112q-41 -67 -121 -110t-199 -43q-170 0 -251.5 72t-81.5 204q0 142 83.5 214.5t262.5 72.5h303v135 q0 113 -51.5 158t-174.5 45q-117 0 -170 -38t-53 -120zM758 434h-299q-114 0 -157.5 -40t-43.5 -130q0 -158 195 -158q133 0 219 68.5t86 177.5v82z" />
<glyph unicode="b" horiz-adv-x="1146" d="M319 1389v-512q97 135 308 135q205 0 302 -125.5t97 -382.5q0 -270 -96.5 -396t-302.5 -126q-217 0 -314 141l-2 -96q0 -20 -13 -25.5t-58 -5.5t-58.5 5.5t-13.5 25.5v1362q0 20 14.5 26t61.5 6q46 0 60.5 -6t14.5 -26zM319 496q0 -203 64.5 -294t220.5 -91 q150 0 208 88.5t58 304.5q0 201 -58.5 289t-207.5 88q-156 0 -220.5 -90.5t-64.5 -294.5z" />
<glyph unicode="c" horiz-adv-x="1034" d="M553 881q-156 0 -216.5 -88t-60.5 -297t60.5 -297t218.5 -88q218 0 221 153q0 19 14.5 26t59.5 7q48 0 60 -6.5t12 -28.5q-3 -138 -98.5 -209t-268.5 -71q-234 0 -334 122.5t-100 391.5t99 392.5t333 123.5q168 0 265 -71.5t100 -201.5q0 -22 -12 -28t-60 -6 q-45 0 -59.5 6.5t-14.5 25.5q-3 71 -60.5 107.5t-158.5 36.5z" />
<glyph unicode="d" horiz-adv-x="1146" d="M836 27l-5 96q-97 -141 -311 -141q-207 0 -303 126t-96 396q0 257 97 382.5t302 125.5q207 0 307 -135v512q0 20 15 26t61 6q47 0 61.5 -6t14.5 -26v-1362q0 -20 -13.5 -25.5t-58.5 -5.5t-58 5.5t-13 25.5zM827 496q0 205 -64 295t-220 90q-149 0 -208 -88.5t-59 -288.5 q0 -215 58.5 -304t208.5 -89q155 0 219.5 91t64.5 294z" />
<glyph unicode="e" d="M911 451h-639q5 -180 72 -260t219 -80q205 0 215 143q2 19 15.5 25t58.5 6q47 0 59.5 -5.5t12.5 -27.5q-4 -129 -99.5 -199.5t-261.5 -70.5q-233 0 -337.5 121.5t-104.5 379.5q0 275 102.5 402t329.5 127q90 0 159 -22.5t112.5 -61t70.5 -95t38 -117.5t11 -136v-52 q0 -47 -6.5 -62t-26.5 -15zM553 883q-142 0 -206 -72.5t-73 -243.5h527v45q0 63 -11 109.5t-38 84.5t-76.5 57.5t-122.5 19.5z" />
<glyph unicode="f" horiz-adv-x="702" d="M608 866h-233v-837q0 -20 -13.5 -26.5t-60.5 -6.5t-60.5 6.5t-13.5 26.5v837h-135q-17 0 -21.5 11.5t-4.5 50.5t4.5 50t21.5 11l135 4v123q0 168 65.5 242t217.5 74q104 0 176 -33q14 -6 14.5 -19.5t-12.5 -48.5q-13 -34 -23 -43t-24 -4q-59 19 -111 19q-85 0 -120 -44.5 t-35 -150.5v-115h233q15 0 20 -12.5t5 -50.5q0 -39 -5 -51.5t-20 -12.5z" />
<glyph unicode="g" horiz-adv-x="1107" d="M270 -102q0 -160 265 -160q131 0 193.5 40.5t62.5 143.5q0 99 -66.5 147t-196.5 72q-214 0 -312.5 108.5t-98.5 328.5t96.5 328t310.5 108q111 0 193 -31l280 21q19 1 24 -11.5t5 -54.5q0 -40 -5 -52t-24 -12h-137q80 -112 80 -301q0 -295 -188 -387q188 -76 188 -264 q0 -156 -99.5 -233.5t-305.5 -77.5q-200 0 -305 73t-105 212q0 22 12 27t60 5q46 0 59.5 -5.5t13.5 -24.5zM528 266q140 0 202.5 75.5t62.5 231.5q0 158 -64.5 237t-204.5 79q-142 0 -201 -74.5t-59 -236.5q0 -161 61 -236.5t203 -75.5z" />
<glyph unicode="h" horiz-adv-x="1142" d="M319 1389v-531q35 64 118.5 109t207.5 45q162 0 251 -86.5t89 -261.5v-635q0 -20 -15 -26.5t-61 -6.5q-47 0 -61 6.5t-14 26.5v622q0 118 -54 173t-164 55q-134 0 -215.5 -76.5t-81.5 -200.5v-573q0 -20 -14.5 -26.5t-60.5 -6.5q-47 0 -61.5 6.5t-14.5 26.5v1360 q0 20 14.5 26t61.5 6q46 0 60.5 -6t14.5 -26z" />
<glyph unicode="i" horiz-adv-x="493" d="M170 29v936q0 20 15 26t61 6q47 0 61.5 -6t14.5 -26v-936q0 -20 -14.5 -26.5t-61.5 -6.5q-46 0 -61 6.5t-15 26.5zM246 1376q57 0 71.5 -8t14.5 -39v-133q0 -30 -15.5 -38.5t-70.5 -8.5t-69.5 8.5t-14.5 38.5v133q0 31 14.5 39t69.5 8z" />
<glyph unicode="j" horiz-adv-x="512" d="M-12 -246q3 0 23.5 -3t37.5 -3q54 0 82 17.5t42.5 67.5t14.5 147v985q0 20 15 26t61 6q47 0 61.5 -6t14.5 -26v-992q0 -107 -16.5 -177.5t-51.5 -109t-80.5 -53t-113.5 -14.5t-92 6q-16 4 -19.5 14.5t-3.5 51.5q0 40 4 51.5t21 11.5zM264 1376q56 0 70 -8t14 -39v-133 q0 -30 -14.5 -38.5t-69.5 -8.5t-69.5 8.5t-14.5 38.5v133q0 31 14 39t70 8z" />
<glyph unicode="k" horiz-adv-x="993" d="M319 1389v-785h113l313 354q21 25 40.5 32t74.5 7q80 0 76 -27q-1 -7 -8 -14l-371 -415l383 -506q20 -28 -18 -36q-17 -3 -48 -3q-55 0 -74 6.5t-38 30.5l-334 444h-109v-448q0 -20 -14.5 -26.5t-60.5 -6.5q-47 0 -61.5 6.5t-14.5 26.5v1360q0 20 14.5 26t61.5 6 q46 0 60.5 -6t14.5 -26z" />
<glyph unicode="l" horiz-adv-x="518" d="M403 133h31q18 0 23.5 -12t5.5 -53t-6 -54.5t-23 -13.5h-45q-124 0 -171.5 44.5t-47.5 158.5v1186q0 20 15 26t61 6q47 0 61.5 -6t14.5 -26v-1172q0 -47 18 -65.5t63 -18.5z" />
<glyph unicode="m" horiz-adv-x="1728" d="M311 967l4 -119q34 65 120.5 114.5t195.5 49.5q221 0 284 -191q48 86 138.5 138.5t197.5 52.5q152 0 236 -84t84 -260v-639q0 -20 -14.5 -26.5t-61.5 -6.5t-61.5 6.5t-14.5 26.5v628q0 116 -45.5 169t-144.5 53q-117 0 -200.5 -76t-84.5 -193v-581q0 -20 -14.5 -26.5 t-61.5 -6.5q-46 0 -60.5 6.5t-14.5 26.5v628q0 117 -45.5 169.5t-145.5 52.5q-116 0 -199.5 -77t-83.5 -196v-577q0 -20 -14.5 -26.5t-60.5 -6.5q-47 0 -61.5 6.5t-14.5 26.5v938q0 20 13 25t59 5q45 0 58 -5t13 -25z" />
<glyph unicode="n" horiz-adv-x="1142" d="M311 967l4 -119q37 69 120.5 116.5t209.5 47.5q162 0 251 -85.5t89 -260.5v-637q0 -20 -15 -26.5t-61 -6.5q-47 0 -61 6.5t-14 26.5v626q0 117 -54 170.5t-164 53.5q-134 0 -215.5 -75.5t-81.5 -197.5v-577q0 -20 -14.5 -26.5t-60.5 -6.5q-47 0 -61.5 6.5t-14.5 26.5v938 q0 20 13 25t59 5q45 0 58 -5t13 -25z" />
<glyph unicode="o" horiz-adv-x="1105" d="M553 1012q234 0 334 -123.5t100 -392.5q0 -268 -100 -391t-334 -123q-233 0 -332.5 123t-99.5 391q0 269 99 392.5t333 123.5zM553 111q157 0 217.5 88t60.5 297t-60.5 297t-217.5 88q-156 0 -216.5 -88t-60.5 -297t60.5 -297t216.5 -88z" />
<glyph unicode="p" horiz-adv-x="1146" d="M311 967l2 -99q100 144 316 144q205 0 301 -125.5t96 -388.5q0 -264 -96.5 -390t-300.5 -126q-216 0 -310 131v-453q0 -20 -14.5 -26.5t-60.5 -6.5q-47 0 -61.5 6.5t-14.5 26.5v1307q0 20 13 25t59 5q45 0 58 -5t13 -25zM319 496q0 -203 64.5 -294t220.5 -91 q149 0 207.5 89t58.5 298q0 207 -58.5 295t-207.5 88q-156 0 -220.5 -90.5t-64.5 -294.5z" />
<glyph unicode="q" horiz-adv-x="1146" d="M903 -373q-46 0 -61 6.5t-15 26.5v453q-97 -131 -309 -131q-205 0 -301 125.5t-96 390.5q0 263 96 388.5t301 125.5q216 0 313 -144l5 99q0 20 13 25t58 5q46 0 59 -5t13 -25v-1307q0 -20 -14.5 -26.5t-61.5 -6.5zM827 496q0 205 -64 295t-220 90q-149 0 -208 -88 t-59 -295q0 -208 59 -297.5t208 -89.5q155 0 219.5 91t64.5 294z" />
<glyph unicode="r" horiz-adv-x="741" d="M657 856q-157 0 -247.5 -76.5t-90.5 -208.5v-542q0 -20 -14.5 -26.5t-60.5 -6.5q-47 0 -61.5 6.5t-14.5 26.5v938q0 20 13 25t59 5q45 0 58 -5t13 -25l4 -154q41 83 128.5 139t213.5 56q20 0 26.5 -14.5t6.5 -61.5t-6.5 -61.5t-26.5 -14.5z" />
<glyph unicode="s" horiz-adv-x="1005" d="M254 254q8 -76 66.5 -112t189.5 -36q127 0 176 37t49 117q0 81 -57 117.5t-189 62.5q-89 16 -150 35.5t-112 53t-75.5 85t-24.5 123.5q0 138 85.5 206.5t272.5 68.5q184 0 276.5 -65t92.5 -202q0 -19 -14 -24.5t-60 -5.5q-49 0 -60 5.5t-13 27.5q-3 73 -53 106t-169 33 q-113 0 -162 -34t-49 -110q0 -36 12 -62t30.5 -43t56.5 -31.5t71.5 -23t94.5 -20.5q60 -13 97.5 -23.5t82 -27t70.5 -37t49.5 -50.5t34 -70.5t10.5 -92.5q0 -67 -18 -116t-59 -87t-115 -57.5t-181 -19.5q-207 0 -304 71t-97 199q0 22 12 27.5t59 5.5q45 0 58.5 -6t15.5 -25z " />
<glyph unicode="t" horiz-adv-x="745" d="M616 866h-249v-587q0 -94 26.5 -128t93.5 -34q64 0 111 20q13 7 23.5 -4.5t21.5 -42.5q12 -37 11 -49.5t-15 -20.5q-62 -32 -162 -32q-142 0 -201 63t-59 217v598h-129q-17 0 -22 11.5t-5 50.5q0 38 5 49.5t22 11.5l129 4v242q0 20 14 26.5t60 6.5q47 0 61.5 -6.5 t14.5 -26.5v-242h249q17 0 22 -12t5 -51q0 -40 -5 -52t-22 -12z" />
<glyph unicode="u" horiz-adv-x="1128" d="M815 27l-2 118q-88 -163 -299 -163q-174 0 -267 89t-93 269v625q0 20 14.5 26t60.5 6q47 0 61.5 -6t14.5 -26v-615q0 -122 57 -180.5t179 -58.5q127 0 197.5 78.5t70.5 201.5v574q0 20 14.5 26t61.5 6t61.5 -6t14.5 -26v-938q0 -20 -13.5 -25.5t-58.5 -5.5t-59.5 5.5 t-14.5 25.5z" />
<glyph unicode="v" horiz-adv-x="985" d="M850 997q49 0 62.5 -8t7.5 -31q-59 -206 -152 -472t-176 -463q-7 -17 -27 -22t-73 -5q-52 0 -72.5 5t-26.5 22q-82 195 -175.5 460.5t-154.5 474.5q-5 22 9.5 30.5t64.5 8.5q49 0 66 -8t22 -28q129 -482 267 -834q163 426 276 834q5 21 19.5 28.5t62.5 7.5z" />
<glyph unicode="w" horiz-adv-x="1513" d="M1354 997q48 0 62 -6.5t14 -23.5q0 -9 -9 -41q-148 -570 -264 -903q-6 -17 -25 -22t-65 -5q-43 0 -56.5 5t-19.5 22q-96 283 -235 780q-132 -472 -234 -780q-6 -17 -20 -22t-58 -5q-45 0 -63.5 5t-24.5 22q-116 333 -264 903q-8 28 -8 41q0 17 13.5 23.5t62.5 6.5 q47 0 64 -9t20 -32q93 -418 198 -774q147 471 230 779q5 20 21 28t63 8q48 0 64.5 -8t21.5 -28q87 -320 227 -777q116 381 199 772q5 23 22 32t64 9z" />
<glyph unicode="x" horiz-adv-x="970" d="M733 33l-237 413h-23l-237 -413q-16 -24 -31.5 -30.5t-67.5 -6.5q-31 0 -48.5 4.5t-21.5 13t3 21.5l288 477l-280 444q-7 13 -2.5 22t22.5 14t49 5q51 0 67 -7t32 -32l229 -385h21l233 385q10 18 17.5 24.5t25 10.5t53.5 4q31 0 49 -5t22 -14t-3 -22l-279 -444l287 -477 q7 -13 3 -21.5t-21.5 -13t-48.5 -4.5q-53 0 -70 6.5t-31 30.5z" />
<glyph unicode="y" horiz-adv-x="1013" d="M219 -252q91 0 132.5 41.5t107.5 185.5l8 23q-45 3 -53 25q-85 193 -183.5 459t-164.5 476q-6 22 7.5 30.5t63.5 8.5q48 0 64.5 -8t21.5 -28q134 -458 293 -848q79 192 157 429.5t124 418.5q5 20 20 28t60 8q48 0 62 -8.5t9 -32.5q-45 -193 -148 -481.5t-206 -515.5 q-30 -69 -50 -110t-46 -85t-50 -67t-56.5 -43t-70.5 -27.5t-88 -7.5q-58 0 -98 10q-17 3 -20.5 13.5t-3.5 50.5t4.5 51.5t21.5 11.5q3 0 12.5 -2t28 -4t41.5 -2z" />
<glyph unicode="z" horiz-adv-x="983" d="M848 885l-547 -762h543q17 0 21.5 -11.5t4.5 -50.5t-4.5 -50t-21.5 -11h-709q-15 0 -18.5 10t-3.5 43q0 35 8 51l551 766h-518q-17 0 -21 10.5t-4 51.5q0 39 4 50t21 11h680q15 0 19.5 -12t4.5 -45q0 -38 -10 -51z" />
<glyph unicode="{" horiz-adv-x="708" d="M57 524q0 39 5 51.5t22 12.5h49q41 0 60.5 21.5t29.5 89t10 204.5q0 62 1 102.5t4 91t9 83t16.5 70.5t25.5 61t37.5 46.5t51.5 35.5t67 20t85 8h70q17 0 21 -11t4 -48q0 -38 -4 -48.5t-21 -10.5h-65q-38 0 -65 -9.5t-45 -34t-28 -53t-15.5 -81.5t-7 -102.5t-1.5 -131.5 q0 -124 -15.5 -202.5t-40 -113t-63.5 -51.5q39 -17 63.5 -51t40 -112.5t15.5 -202.5q0 -82 1.5 -131.5t7 -102.5t15.5 -81.5t28 -53t45 -34t65 -9.5h65q17 0 21 -10.5t4 -48.5q0 -37 -4 -48.5t-21 -11.5h-70q-47 0 -85 8t-67 20t-51.5 35.5t-37.5 46.5t-25.5 61t-16.5 70.5 t-9 83t-4 91t-1 102.5q0 137 -10 204.5t-29.5 89.5t-60.5 22h-49q-17 0 -22 12t-5 51z" />
<glyph unicode="|" horiz-adv-x="647" d="M399 1389v-1770q0 -20 -14.5 -26.5t-60.5 -6.5q-47 0 -61.5 6.5t-14.5 26.5v1770q0 20 14.5 26t61.5 6q46 0 60.5 -6t14.5 -26z" />
<glyph unicode="}" horiz-adv-x="708" d="M651 524q0 -39 -4.5 -51t-21.5 -12h-50q-41 0 -60.5 -22t-29.5 -89.5t-10 -204.5q0 -62 -1 -102.5t-4 -91t-9 -83t-16.5 -70.5t-25.5 -61t-37.5 -46.5t-51.5 -35.5t-67 -20t-85 -8h-69q-17 0 -21 11.5t-4 48.5q0 38 4 48.5t21 10.5h65q38 0 65 9.5t45 34t28 53t15.5 81.5 t7 102.5t1.5 131.5q0 124 15.5 202.5t40 112.5t63.5 51q-39 17 -63.5 51.5t-40 113t-15.5 202.5q0 82 -1.5 131.5t-7 102.5t-15.5 81.5t-28 53t-45 34t-65 9.5h-65q-17 0 -21 10.5t-4 48.5q0 37 4 48t21 11h69q47 0 85 -8t67 -20t51.5 -35.5t37.5 -46.5t25.5 -61t16.5 -70.5 t9 -83t4 -91t1 -102.5q0 -137 10 -204.5t29.5 -89t60.5 -21.5h50q17 0 21.5 -12t4.5 -52z" />
<glyph unicode="~" horiz-adv-x="1110" d="M485 678l177 -96q49 -27 79 -27q38 0 69 29t50 82q3 12 41 12q65 0 53 -35q-31 -109 -87.5 -158t-123.5 -49q-64 0 -120 27l-174 98q-48 25 -82 25q-38 0 -68 -28.5t-47 -80.5q-6 -14 -41 -14q-33 0 -46.5 8.5t-8.5 26.5q60 207 211 207q62 0 118 -27z" />
<glyph unicode="&#xa1;" horiz-adv-x="569" d="M285 610q40 0 50.5 -6t10.5 -24l29 -908q1 -23 -18 -31t-72 -8t-72 8t-18 31l28 908q0 18 11 24t51 6zM285 766q-58 0 -78.5 9t-20.5 38v137q0 31 19 39t80 8q63 0 81.5 -8t18.5 -39v-137q0 -29 -20 -38t-80 -9z" />
<glyph unicode="&#xa2;" horiz-adv-x="1060" d="M567 -4q-45 0 -57 6.5t-12 26.5v141q-198 18 -285.5 141.5t-87.5 370.5t87.5 370.5t285.5 141.5v141q0 20 11.5 25.5t57.5 5.5t58 -6t12 -25v-141q140 -13 220 -83t83 -181q0 -21 -13 -27t-59 -6q-45 0 -59 6t-16 25q-3 53 -45.5 89t-118.5 46v-766q79 10 122 47.5 t46 97.5q2 19 16 26t59 7q47 0 59.5 -6.5t12.5 -28.5q-3 -118 -82.5 -188t-224.5 -84v-139q0 -20 -12.5 -26.5t-57.5 -6.5zM281 682q0 -187 50.5 -276.5t174.5 -106.5v764q-123 -17 -174 -106.5t-51 -274.5z" />
<glyph unicode="&#xa3;" horiz-adv-x="1212" d="M233 -2q-18 -9 -28.5 -0.5t-34.5 49.5q-25 40 -27.5 58.5t13.5 25.5q80 52 137 135.5t57 173.5t-45 189h-158q-17 0 -21.5 10.5t-4.5 50.5t4.5 51t21.5 11h101q-51 116 -51 256q0 172 107 269t323 97q220 0 321 -92t103 -276q0 -21 -15.5 -28t-62.5 -7q-48 0 -63 7 t-15 28q-2 119 -63.5 175t-204.5 56q-139 0 -205 -56t-66 -173q0 -121 62 -256h330q17 0 20.5 -10.5t3.5 -51.5t-3.5 -51t-20.5 -10h-277q35 -96 35 -187q0 -121 -64 -233q124 -78 312 -78q112 0 155 54t45 192q0 21 15 28t63 7q47 0 62.5 -7t15.5 -28q-1 -204 -86 -293.5 t-266 -89.5q-113 0 -215.5 31t-173.5 81q-57 -63 -136 -108z" />
<glyph unicode="&#xa4;" horiz-adv-x="1150" d="M125 336l92 94q-43 98 -43 248t43 248l-92 94q-12 12 -7 25t34 42q28 28 41 33t24 -6l80 -80q98 82 278 82q183 0 277 -82l82 80q11 11 24 6t41 -33q29 -29 34 -42t-7 -25l-94 -94q45 -96 45 -248t-45 -248l94 -94q12 -12 7 -25.5t-34 -42.5q-28 -28 -41 -33t-24 7 l-82 77q-94 -79 -277 -79q-180 0 -278 79l-80 -77q-11 -12 -24 -7t-41 33q-29 29 -34 42.5t7 25.5zM575 362q142 0 200.5 72.5t58.5 243.5t-58.5 243t-200.5 72t-200 -72t-58 -243t58 -243.5t200 -72.5z" />
<glyph unicode="&#xa5;" horiz-adv-x="1148" d="M985 403h-332v-372q0 -21 -15 -28t-65 -7q-48 0 -63.5 7t-15.5 28v372h-332q-15 0 -20 10.5t-5 49.5q0 40 4.5 50.5t20.5 10.5h315q-39 72 -88 164h-227q-17 0 -22 11t-5 51q0 41 4.5 51t22.5 10h164q-169 330 -250 512q-4 10 -2 17t12 11.5t29 6.5t49 2q49 0 63.5 -6.5 t22.5 -28.5q115 -277 323 -686q213 421 324 686q10 22 24.5 28.5t63.5 6.5q30 0 48.5 -2t29 -6.5t11.5 -11.5t-3 -17q-81 -182 -250 -512h166q18 0 22.5 -10t4.5 -51q0 -40 -5 -51t-22 -11h-231l-86 -164h315q18 0 22.5 -10t4.5 -51q0 -39 -5 -49.5t-22 -10.5z" />
<glyph unicode="&#xa6;" horiz-adv-x="647" d="M395 305v-688q0 -19 -13 -25t-58 -6t-58.5 6t-13.5 25v688q0 19 13.5 25t58.5 6t58 -6t13 -25zM395 1391v-689q0 -19 -13 -24.5t-58 -5.5q-46 0 -59 5.5t-13 24.5v689q0 19 13 24.5t59 5.5q45 0 58 -5.5t13 -24.5z" />
<glyph unicode="&#xa7;" horiz-adv-x="1150" d="M293 -88q20 -168 270 -168q138 0 193 42.5t55 143.5q0 102 -53.5 145.5t-192.5 71.5q-61 11 -93.5 18t-84.5 22t-81 30.5t-65 42t-54 59t-31 78.5t-13 103q0 236 189 311q-142 88 -142 268q0 140 94.5 217.5t290.5 77.5q388 0 388 -287q0 -19 -15.5 -25.5t-60.5 -6.5 q-46 0 -58 5.5t-14 26.5q-6 82 -60 122t-180 40q-237 0 -237 -164q0 -92 58.5 -142t205.5 -85q17 -4 52 -12q41 -9 61.5 -14t56.5 -15.5t55.5 -19.5t48 -24.5t44 -32t34.5 -41t28 -52.5t15.5 -65t6.5 -80q0 -123 -44 -197.5t-137 -109.5q133 -84 133 -267q0 -71 -19 -125 t-62.5 -96.5t-122 -65t-189.5 -22.5q-212 0 -314 78t-102 213q0 22 12 28.5t60 6.5q44 0 57.5 -6.5t16.5 -26.5zM555 731q-20 2 -51 10q-213 -17 -213 -233q0 -48 15.5 -83.5t34.5 -56.5t65 -39.5t76.5 -26.5t98.5 -23q20 -5 31 -7l29 -6q117 8 166 60t49 174 q0 64 -14.5 104t-60 64t-76 32t-115.5 24q-23 5 -35 7z" />
<glyph unicode="&#xa8;" horiz-adv-x="669" d="M160 1356q55 0 69.5 -8t14.5 -39v-123q0 -28 -15 -36.5t-69 -8.5q-53 0 -67.5 8.5t-14.5 36.5v123q0 31 13.5 39t68.5 8zM508 1356q55 0 69.5 -8t14.5 -39v-123q0 -28 -15 -36.5t-69 -8.5q-53 0 -67.5 8.5t-14.5 36.5v123q0 31 13.5 39t68.5 8z" />
<glyph unicode="&#xa9;" horiz-adv-x="1593" d="M492 678q0 227 69.5 322.5t247.5 95.5q272 0 272 -232q0 -15 -10.5 -19.5t-42.5 -4.5q-34 0 -44.5 4.5t-10.5 19.5q-2 70 -40.5 102.5t-123.5 32.5q-118 0 -161.5 -67t-43.5 -254q0 -188 43 -254t164 -66q88 0 125 34t39 110q0 14 11 19t44 5q32 0 42.5 -5t10.5 -19 q0 -122 -65.5 -182t-206.5 -60q-180 0 -249.5 95.5t-69.5 322.5zM797 1372q174 0 293.5 -40.5t193.5 -128t106.5 -215t32.5 -310.5t-32.5 -310.5t-106.5 -215t-193.5 -128t-293.5 -40.5t-294 40.5t-194 128t-106.5 215t-32.5 310.5t32.5 310.5t106.5 215t194 128t294 40.5z M797 86q150 0 248.5 32t159 105.5t85.5 182t25 272.5t-25 272.5t-85.5 182t-159 105.5t-248.5 32t-248.5 -32t-159 -105.5t-85.5 -182t-25 -272.5t25 -272.5t85.5 -182t159 -105.5t248.5 -32z" />
<glyph unicode="&#xaa;" horiz-adv-x="718" d="M477 1006h-180q-57 0 -79.5 -21t-22.5 -67q0 -53 26 -72t78 -19q74 0 126 34t52 93v52zM227 1190q0 -14 -11 -18.5t-44 -4.5q-38 0 -47.5 4.5t-9.5 20.5q0 176 239 176q130 0 185 -50.5t55 -150.5v-395q0 -21 -9.5 -26t-47.5 -5q-35 0 -45.5 5t-10.5 26v64 q-67 -101 -200 -101q-199 0 -199 178q0 88 48.5 131t164.5 43h182v74q0 60 -28.5 84.5t-94.5 24.5q-69 0 -98 -18.5t-29 -61.5z" />
<glyph unicode="&#xab;" horiz-adv-x="968" d="M125 553q0 30 14 49l195 256q8 13 23.5 17t64.5 4q53 0 54 -16q0 -5 -5 -13l-225 -297l225 -297q6 -9 4.5 -16t-14.5 -11t-39 -4q-47 0 -63.5 4.5t-24.5 16.5l-195 256q-14 19 -14 51zM469 553q0 30 14 49l195 256q8 13 23.5 17t64.5 4q53 0 54 -16q0 -5 -5 -13 l-225 -297l225 -297q6 -9 4.5 -16t-14.5 -11t-39 -4q-47 0 -63.5 4.5t-24.5 16.5l-195 256q-14 19 -14 51z" />
<glyph unicode="&#xad;" horiz-adv-x="815" d="M162 616h491q17 0 22 -11.5t5 -51.5t-5 -52t-22 -12h-491q-17 0 -22 12t-5 52t5 51.5t22 11.5z" />
<glyph unicode="&#xae;" horiz-adv-x="1091" d="M545 1372q231 0 328.5 -107.5t97.5 -342.5t-98 -343t-328 -108q-229 0 -326.5 108t-97.5 343t97.5 342.5t326.5 107.5zM545 543q198 0 272 85.5t74 293.5t-74 293t-272 85q-197 0 -271.5 -85.5t-74.5 -292.5t74.5 -293t271.5 -86zM535 868h-68v-190q0 -10 -8.5 -13 t-34.5 -3q-23 0 -31 3t-8 13v487q0 9 6.5 13t26.5 4h137q102 0 149.5 -37.5t47.5 -118.5q0 -107 -101 -141q49 -24 76 -92q19 -54 31 -115q1 -5 0.5 -8.5t-9 -5.5t-28.5 -2q-38 0 -41 14q-13 64 -23 94q-34 93 -116 98h-6zM467 1116v-184h86q66 0 91.5 19.5t25.5 74.5 t-24.5 72.5t-92.5 17.5h-86z" />
<glyph unicode="&#xaf;" horiz-adv-x="669" d="M592 1153h-514q-17 0 -22 10t-5 45q0 34 5 45t22 11h514q17 0 21.5 -10.5t4.5 -45.5q0 -36 -4.5 -45.5t-21.5 -9.5z" />
<glyph unicode="&#xb0;" horiz-adv-x="743" d="M373 1372q124 0 181.5 -57t57.5 -174q0 -119 -57.5 -176.5t-181.5 -57.5q-125 0 -182.5 57.5t-57.5 176.5q0 117 57.5 174t182.5 57zM373 1001q77 0 109 32t32 108q0 74 -32 105.5t-109 31.5q-79 0 -110.5 -31.5t-31.5 -105.5q0 -76 31.5 -108t110.5 -32z" />
<glyph unicode="&#xb1;" horiz-adv-x="1110" d="M625 1067v-313h311q17 0 22 -12t5 -52t-5 -52.5t-22 -12.5h-311v-312q0 -17 -13.5 -22.5t-56.5 -5.5t-55.5 5.5t-12.5 22.5v312h-313q-17 0 -20.5 11.5t-3.5 53.5t3.5 53t20.5 11h313v313q0 17 12.5 22t55.5 5t56.5 -5t13.5 -22zM172 123h766q15 0 20 -12t5 -50t-5 -49.5 t-20 -11.5h-766q-15 0 -18.5 11t-3.5 50t3.5 50.5t18.5 11.5z" />
<glyph unicode="&#xb2;" horiz-adv-x="690" d="M573 664h-467q-11 0 -14.5 9t-3.5 38v16q0 70 39.5 120.5t128.5 106.5q18 11 48 26.5t50 26t44 27.5t38.5 34t24.5 42t10 55q0 58 -30 85.5t-97 27.5q-71 0 -103 -26.5t-32 -84.5q0 -13 -10.5 -16.5t-46.5 -3.5t-46 3.5t-10 18.5q3 203 248 203q244 0 244 -207 q0 -29 -7.5 -55.5t-17 -46.5t-29.5 -41t-34 -34t-42 -31.5t-42 -26.5t-45.5 -25.5t-42.5 -23.5q-3 -2 -19.5 -12t-20.5 -12.5t-17.5 -11t-17.5 -12.5t-14 -12t-14 -13.5t-9.5 -14t-8.5 -16.5t-4 -17h370q11 0 15 -9.5t4 -39.5q0 -28 -4 -37.5t-15 -9.5z" />
<glyph unicode="&#xb3;" horiz-adv-x="690" d="M338 979h-53q-12 0 -16.5 9t-4.5 36t4.5 36t16.5 9h55q67 0 93 24.5t26 86.5q0 54 -30.5 76t-96.5 22q-70 0 -99 -21t-32 -67q-2 -13 -12 -18t-46 -5q-35 0 -45 4t-10 21q2 88 64 134t180 46q243 0 243 -188q0 -117 -88 -152q105 -31 105 -168q0 -101 -64 -157t-186 -56 q-259 0 -262 185q0 17 9.5 20.5t45.5 3.5q37 0 46 -4t12 -20q7 -46 38.5 -68.5t110.5 -22.5q133 0 133 123q0 64 -31.5 87.5t-105.5 23.5z" />
<glyph unicode="&#xb4;" horiz-adv-x="669" d="M518 1288l-319 -160q-17 -8 -26 -4t-26 31q-15 26 -15.5 35t13.5 18l306 195q17 11 28.5 4t34.5 -45q23 -39 23 -52.5t-19 -21.5z" />
<glyph unicode="&#xb6;" horiz-adv-x="1050" d="M963 1266h-103q-63 0 -86.5 -23.5t-23.5 -89.5v-1178q0 -106 -19 -177.5t-57.5 -110t-86 -53.5t-114.5 -15q-74 0 -98 6q-17 4 -21 14t-4 48q0 39 4.5 49t22.5 10q2 0 25.5 -2t39.5 -2q59 0 92.5 18.5t52.5 72t19 151.5v510h-53q-91 0 -152.5 7t-110.5 27.5t-76.5 50.5 t-46 83t-24.5 118.5t-6 163.5t6 164t24.5 119t46 83.5t76.5 50.5t110.5 27t152.5 7h410q17 0 21.5 -12.5t4.5 -53.5q0 -40 -4.5 -51.5t-21.5 -11.5z" />
<glyph unicode="&#xb7;" horiz-adv-x="485" d="M242 436q-58 0 -78.5 9t-20.5 38v138q0 31 19 39t80 8q63 0 81.5 -8t18.5 -39v-138q0 -29 -20 -38t-80 -9z" />
<glyph unicode="&#xb8;" horiz-adv-x="669" d="M379 -106h35q102 0 148 -30.5t46 -119.5q0 -90 -46.5 -123t-147.5 -33h-191q-15 0 -19.5 9t-4.5 38q0 28 4.5 38t19.5 10h185q49 0 69.5 11t20.5 50t-20 49t-70 10h-107q-28 0 -38.5 7t-4.5 24l55 172q5 14 45 14q30 0 42 -6t6 -22z" />
<glyph unicode="&#xb9;" horiz-adv-x="690" d="M555 664h-405q-11 0 -15 9.5t-4 37.5q0 29 4 39t15 10h149v489l-147 -35q-8 -2 -13.5 9.5t-5.5 36.5q0 48 14 51l242 61q27 8 27 -14v-598h139q11 0 14.5 -10t3.5 -39t-3.5 -38t-14.5 -9z" />
<glyph unicode="&#xba;" horiz-adv-x="765" d="M221 1051q0 -119 35 -167t127 -48t127 48t35 167t-35 167t-127 48t-127 -48t-35 -167zM100 1051q0 162 65.5 239.5t217.5 77.5t216.5 -77t64.5 -240t-65 -240.5t-216 -77.5q-152 0 -217.5 77.5t-65.5 240.5z" />
<glyph unicode="&#xbb;" horiz-adv-x="968" d="M500 553q0 -31 -15 -51l-194 -256q-8 -12 -24.5 -16.5t-63.5 -4.5q-26 0 -39 4t-14.5 11t4.5 16l225 297l-225 297q-16 24 27 28q9 1 22 1q49 0 64.5 -4t23.5 -17l194 -256q15 -20 15 -49zM844 553q0 -31 -15 -51l-194 -256q-8 -12 -24.5 -16.5t-63.5 -4.5q-26 0 -39 4 t-14.5 11t4.5 16l225 297l-225 297q-16 24 27 28q9 1 22 1q49 0 64.5 -4t23.5 -17l194 -256q15 -20 15 -49z" />
<glyph unicode="&#xbc;" horiz-adv-x="1671" d="M1440 -2q-36 0 -47 5.5t-11 23.5v147h-340q-14 0 -18 8.5t-4 36.5q0 37 14 53l307 418q8 13 23.5 18t56.5 5q46 0 61 -4.5t15 -22.5v-420h92q12 0 15.5 -8.5t3.5 -38.5q0 -29 -3.5 -37t-15.5 -8h-92v-147q0 -18 -10.5 -23.5t-46.5 -5.5zM1305 1329l-689 -1306 q-9 -17 -23.5 -22t-55.5 -5q-34 0 -43 8t-2 23l690 1306q7 17 22 22t58 5q34 0 42 -8t1 -23zM555 664h-405q-11 0 -15 9.5t-4 37.5q0 29 4 39t15 10h149v489l-147 -35q-8 -2 -13.5 9.5t-5.5 36.5q0 48 14 51l242 61q27 8 27 -14v-598h139q11 0 14.5 -10t3.5 -39t-3.5 -38 t-14.5 -9zM1145 266h239v328z" />
<glyph unicode="&#xbd;" horiz-adv-x="1671" d="M1245 1329l-688 -1306q-9 -17 -24 -22t-56 -5q-34 0 -43 8t-2 23l690 1306q7 17 22 22t58 5q34 0 42 -8t1 -23zM1556 0h-466q-11 0 -15 9.5t-4 37.5v16q0 70 40 121t128 107q18 11 48 26.5t50 26t44 27.5t38.5 34t24.5 42t10 55q0 58 -30 85t-97 27q-71 0 -103 -26 t-32 -84q0 -13 -10.5 -17t-46.5 -4t-46 4t-10 19q3 203 248 203q244 0 244 -207q0 -29 -7.5 -55.5t-17 -46.5t-29.5 -41.5t-33.5 -34.5t-42 -31.5t-42 -26.5t-46 -25.5t-42.5 -23.5q-3 -2 -19.5 -12t-20.5 -12.5t-17.5 -11t-17.5 -12.5t-14 -12t-14 -13.5t-9.5 -14 t-8.5 -16.5t-4 -17h370q11 0 15 -9.5t4 -39.5q0 -28 -4 -37.5t-15 -9.5zM555 664h-405q-11 0 -15 9.5t-4 37.5q0 29 4 39t15 10h149v489l-147 -35q-8 -2 -13.5 9.5t-5.5 36.5q0 48 14 51l242 61q27 8 27 -14v-598h139q11 0 14.5 -10t3.5 -39t-3.5 -38t-14.5 -9z" />
<glyph unicode="&#xbe;" horiz-adv-x="1671" d="M1440 -2q-36 0 -47 5.5t-11 23.5v147h-340q-14 0 -18 8.5t-4 36.5q0 37 14 53l307 418q8 13 23.5 18t56.5 5q46 0 61 -4.5t15 -22.5v-420h92q12 0 15.5 -8.5t3.5 -38.5q0 -29 -3.5 -37t-15.5 -8h-92v-147q0 -18 -10.5 -23.5t-46.5 -5.5zM338 979h-53q-12 0 -16.5 9 t-4.5 36t4.5 36t16.5 9h55q67 0 93 24.5t26 86.5q0 54 -30.5 76t-96.5 22q-70 0 -99 -21t-32 -67q-2 -13 -12 -18t-46 -5q-35 0 -45 4t-10 21q2 88 64 134t180 46q243 0 243 -188q0 -117 -88 -152q105 -31 105 -168q0 -101 -64 -157t-186 -56q-259 0 -262 185q0 17 9.5 20.5 t45.5 3.5q37 0 46 -4t12 -20q7 -46 38.5 -68.5t110.5 -22.5q133 0 133 123q0 64 -31.5 87.5t-105.5 23.5zM1270 1329l-688 -1306q-9 -17 -23.5 -22t-56.5 -5q-34 0 -43 8t-2 23l690 1306q7 17 22 22t58 5q34 0 42 -8t1 -23zM1145 266h239v328z" />
<glyph unicode="&#xbf;" horiz-adv-x="1099" d="M510 528l4 52q2 18 13.5 24t52.5 6t52 -6t13 -24l2 -52q4 -59 -13.5 -108t-48.5 -83.5t-69.5 -65t-78 -60t-72.5 -62t-53.5 -78t-20.5 -100.5q0 -109 60.5 -164t201.5 -55q153 0 221 57.5t70 184.5q0 20 13.5 27.5t60.5 7.5q44 0 59.5 -7.5t15.5 -25.5 q0 -196 -110.5 -287.5t-329.5 -91.5q-422 0 -422 354q0 66 20 119.5t52 89t71 66.5t79 58.5t74 57.5t56.5 72t26.5 94zM578 766q-58 0 -78.5 9t-20.5 38v137q0 31 19 39t80 8q63 0 81.5 -8t18.5 -39v-137q0 -29 -20 -38t-80 -9z" />
<glyph unicode="&#xc0;" horiz-adv-x="1169" d="M1032 -4q-46 0 -61.5 7t-20.5 28q-77 270 -104 360h-512q-60 -199 -103 -360q-5 -21 -20 -28t-61 -7q-51 0 -67.5 7.5t-10.5 27.5q76 287 194 647t228 647q8 21 25.5 28t70.5 7q55 0 72.5 -7t23.5 -28q110 -284 228.5 -644.5t195.5 -649.5q6 -20 -10.5 -27.5t-67.5 -7.5z M590 1171q-87 -239 -215 -647h430q-128 408 -215 647zM569 1468l-336 166q-18 8 -17 22.5t24 51.5q22 38 34 45.5t29 -4.5l320 -201q15 -11 14.5 -19t-14.5 -34q-17 -27 -27 -31.5t-27 4.5z" />
<glyph unicode="&#xc1;" horiz-adv-x="1169" d="M1032 -4q-46 0 -61.5 7t-20.5 28q-77 270 -104 360h-512q-60 -199 -103 -360q-5 -21 -20 -28t-61 -7q-51 0 -67.5 7.5t-10.5 27.5q76 287 194 647t228 647q8 21 25.5 28t70.5 7q55 0 72.5 -7t23.5 -28q110 -284 228.5 -644.5t195.5 -649.5q6 -20 -10.5 -27.5t-67.5 -7.5z M590 1171q-87 -239 -215 -647h430q-128 408 -215 647zM946 1634l-336 -166q-17 -8 -25.5 -4t-25.5 31q-15 25 -15.5 34t13.5 19l322 201q17 12 28.5 4.5t34.5 -45.5q23 -37 23 -51.5t-19 -22.5z" />
<glyph unicode="&#xc2;" horiz-adv-x="1169" d="M1032 -4q-46 0 -61.5 7t-20.5 28q-77 270 -104 360h-512q-60 -199 -103 -360q-5 -21 -20 -28t-61 -7q-51 0 -67.5 7.5t-10.5 27.5q76 287 194 647t228 647q8 21 25.5 28t70.5 7q55 0 72.5 -7t23.5 -28q110 -284 228.5 -644.5t195.5 -649.5q6 -20 -10.5 -27.5t-67.5 -7.5z M590 1171q-87 -239 -215 -647h430q-128 408 -215 647zM592 1597l-141 -114q-14 -12 -29 -16.5t-51 -4.5q-50 0 -48 20q0 6 7 13l196 205q14 20 66 20q49 0 63 -20l197 -205q22 -24 -17 -31l-24 -2q-36 0 -51 4.5t-29 16.5z" />
<glyph unicode="&#xc3;" horiz-adv-x="1169" d="M1032 -4q-46 0 -61.5 7t-20.5 28q-77 270 -104 360h-512q-60 -199 -103 -360q-5 -21 -20 -28t-61 -7q-51 0 -67.5 7.5t-10.5 27.5q76 287 194 647t228 647q8 21 25.5 28t70.5 7q55 0 72.5 -7t23.5 -28q110 -284 228.5 -644.5t195.5 -649.5q6 -20 -10.5 -27.5t-67.5 -7.5z M590 1171q-87 -239 -215 -647h430q-128 408 -215 647zM782 1636v27q0 15 11.5 21t42.5 6q39 0 48 -6.5t7 -26.5l-2 -53q-3 -42 -16.5 -71.5t-35 -44t-42.5 -20.5t-45 -6q-69 0 -134 37l-108 62q-37 22 -59 22q-24 0 -37 -14t-13 -51v-27q0 -15 -10.5 -20t-42.5 -5 q-38 0 -47.5 5.5t-7.5 25.5l2 53q4 55 27.5 89t51 44.5t60.5 10.5q65 0 133 -39l109 -62q37 -22 59 -22q24 0 36.5 14t12.5 51z" />
<glyph unicode="&#xc4;" horiz-adv-x="1169" d="M1032 -4q-46 0 -61.5 7t-20.5 28q-77 270 -104 360h-512q-60 -199 -103 -360q-5 -21 -20 -28t-61 -7q-51 0 -67.5 7.5t-10.5 27.5q76 287 194 647t228 647q8 21 25.5 28t70.5 7q55 0 72.5 -7t23.5 -28q110 -284 228.5 -644.5t195.5 -649.5q6 -20 -10.5 -27.5t-67.5 -7.5z M590 1171q-87 -239 -215 -647h430q-128 408 -215 647zM772 1686q55 0 69.5 -8t14.5 -38v-124q0 -28 -15.5 -37t-68.5 -9t-67.5 8.5t-14.5 37.5v124q0 30 13.5 38t68.5 8zM410 1686q55 0 68.5 -8t13.5 -38v-124q0 -29 -14.5 -37.5t-67.5 -8.5t-68.5 9t-15.5 37v124 q0 30 14.5 38t69.5 8z" />
<glyph unicode="&#xc5;" horiz-adv-x="1169" d="M1032 -4q-46 0 -61.5 7t-20.5 28q-77 270 -104 360h-512q-60 -199 -103 -360q-5 -21 -20 -28t-61 -7q-51 0 -67.5 7.5t-10.5 27.5q75 283 189.5 635.5t221.5 636.5q-77 36 -77 153q0 174 184 174q186 0 186 -174q0 -116 -82 -156q110 -285 225.5 -636.5t190.5 -632.5 q6 -20 -10.5 -27.5t-67.5 -7.5zM590 1171q-87 -239 -215 -647h430q-128 408 -215 647zM590 1360q56 0 79 22t23 74q0 51 -23.5 72.5t-78.5 21.5t-78 -21.5t-23 -72.5q0 -53 23 -74.5t78 -21.5z" />
<glyph unicode="&#xc6;" horiz-adv-x="1781" d="M1608 1214h-576v-448h514q18 0 24.5 -13.5t6.5 -56.5t-6.5 -56t-24.5 -13h-514v-486h582q18 0 24.5 -13.5t6.5 -55.5q0 -43 -6.5 -57.5t-24.5 -14.5h-672q-41 0 -55.5 7t-14.5 26v342h-505q-113 -236 -162 -344q-11 -21 -28 -28t-62 -7q-52 0 -68.5 7.5t-7.5 27.5 q132 290 315 651.5t340 640.5q13 20 32.5 26.5t72.5 6.5h809q18 0 24 -14.5t6 -57.5q0 -42 -6 -56t-24 -14zM801 1214q-217 -398 -367 -702h438v702h-71z" />
<glyph unicode="&#xc7;" horiz-adv-x="1212" d="M602 -111h33q103 0 148.5 -30.5t45.5 -120.5q0 -93 -47 -126.5t-149 -33.5h-174q-17 0 -22 10t-5 41q0 29 5 39t22 10h166q23 0 34 0.5t25 3.5t20 9.5t10.5 18t4.5 28.5t-4.5 28.5t-10.5 17.5t-20.5 9t-25 3.5t-33.5 0.5h-107q-28 0 -37.5 7t-5.5 24l53 162 q-221 29 -308 188t-87 500q0 193 24.5 320.5t84 214t157.5 124t246 37.5q442 0 442 -381q0 -20 -14 -26t-63 -6q-48 0 -63 6t-15 26q-2 125 -69.5 184.5t-217.5 59.5q-139 0 -212 -48.5t-104.5 -167t-31.5 -343.5q0 -170 16 -274.5t58.5 -170t108 -90t171.5 -24.5 q154 0 218.5 62t66.5 196q0 19 15 26t63 7q46 0 62 -7t16 -26q-2 -199 -107 -297t-334 -98h-24z" />
<glyph unicode="&#xc8;" horiz-adv-x="1138" d="M965 1214h-619v-448h551q18 0 23.5 -13t5.5 -57q0 -43 -5.5 -56t-23.5 -13h-551v-486h625q18 0 24 -13.5t6 -55.5q0 -43 -6 -57.5t-24 -14.5h-715q-41 0 -55.5 7t-14.5 26v1290q0 19 14.5 26t55.5 7h709q18 0 24 -14.5t6 -57.5q0 -42 -6 -56t-24 -14zM635 1468l-336 166 q-18 8 -17.5 22.5t23.5 51.5q21 38 34 46t30 -5l319 -201q15 -11 14.5 -19t-14.5 -34q-17 -27 -26.5 -31.5t-26.5 4.5z" />
<glyph unicode="&#xc9;" horiz-adv-x="1138" d="M965 1214h-619v-448h551q18 0 23.5 -13t5.5 -57q0 -43 -5.5 -56t-23.5 -13h-551v-486h625q18 0 24 -13.5t6 -55.5q0 -43 -6 -57.5t-24 -14.5h-715q-41 0 -55.5 7t-14.5 26v1290q0 19 14.5 26t55.5 7h709q18 0 24 -14.5t6 -57.5q0 -42 -6 -56t-24 -14zM911 1634l-336 -166 q-17 -8 -25.5 -4t-25.5 31q-15 25 -15.5 34t13.5 19l322 201q17 12 28.5 4.5t34.5 -45.5q23 -37 23 -51.5t-19 -22.5z" />
<glyph unicode="&#xca;" horiz-adv-x="1138" d="M965 1214h-619v-448h551q18 0 23.5 -13t5.5 -57q0 -43 -5.5 -56t-23.5 -13h-551v-486h625q18 0 24 -13.5t6 -55.5q0 -43 -6 -57.5t-24 -14.5h-715q-41 0 -55.5 7t-14.5 26v1290q0 19 14.5 26t55.5 7h709q18 0 24 -14.5t6 -57.5q0 -42 -6 -56t-24 -14zM588 1597l-142 -114 q-14 -13 -29 -17t-50 -4q-50 0 -48 20q0 6 7 13l196 205q14 20 66 20q49 0 63 -20l197 -205q22 -24 -17 -31l-24 -2q-36 0 -51 4.5t-29 16.5z" />
<glyph unicode="&#xcb;" horiz-adv-x="1138" d="M965 1214h-619v-448h551q18 0 23.5 -13t5.5 -57q0 -43 -5.5 -56t-23.5 -13h-551v-486h625q18 0 24 -13.5t6 -55.5q0 -43 -6 -57.5t-24 -14.5h-715q-41 0 -55.5 7t-14.5 26v1290q0 19 14.5 26t55.5 7h709q18 0 24 -14.5t6 -57.5q0 -42 -6 -56t-24 -14zM414 1686 q55 0 68.5 -8t13.5 -38v-124q0 -29 -14.5 -37.5t-67.5 -8.5t-68.5 9t-15.5 37v124q0 30 14.5 38t69.5 8zM776 1686q55 0 69.5 -8t14.5 -38v-124q0 -28 -15.5 -37t-68.5 -9t-67.5 8.5t-14.5 37.5v124q0 30 13.5 38t68.5 8z" />
<glyph unicode="&#xcc;" horiz-adv-x="542" d="M272 -4q-50 0 -64.5 7t-14.5 28v1294q0 21 14.5 28t64.5 7q48 0 63 -7t15 -28v-1294q0 -21 -15 -28t-63 -7zM250 1468l-336 166q-18 8 -17.5 22.5t23.5 51.5q21 38 34 46t30 -5l319 -201q15 -11 14.5 -19t-14.5 -34q-17 -27 -26.5 -31.5t-26.5 4.5z" />
<glyph unicode="&#xcd;" horiz-adv-x="542" d="M272 -4q-50 0 -64.5 7t-14.5 28v1294q0 21 14.5 28t64.5 7q48 0 63 -7t15 -28v-1294q0 -21 -15 -28t-63 -7zM627 1634l-336 -166q-17 -8 -25.5 -4t-25.5 31q-15 25 -15.5 34t13.5 19l321 201q17 12 29 4.5t35 -45.5q23 -37 23 -51.5t-19 -22.5z" />
<glyph unicode="&#xce;" horiz-adv-x="542" d="M272 -4q-50 0 -64.5 7t-14.5 28v1294q0 21 14.5 28t64.5 7q48 0 63 -7t15 -28v-1294q0 -21 -15 -28t-63 -7zM272 1597l-141 -114q-14 -12 -29 -16.5t-51 -4.5q-50 0 -48 20q0 6 7 13l197 205q14 20 65 20q50 0 64 -20l196 -205q22 -24 -15 -31q-11 -2 -25 -2 q-36 0 -51 4.5t-29 16.5z" />
<glyph unicode="&#xcf;" horiz-adv-x="542" d="M272 -4q-50 0 -64.5 7t-14.5 28v1294q0 21 14.5 28t64.5 7q48 0 63 -7t15 -28v-1294q0 -21 -15 -28t-63 -7zM90 1686q55 0 68.5 -8t13.5 -38v-124q0 -29 -14.5 -37.5t-67.5 -8.5t-68.5 9t-15.5 37v124q0 30 14.5 38t69.5 8zM453 1686q55 0 69.5 -8t14.5 -38v-124 q0 -28 -15.5 -37t-68.5 -9t-67.5 8.5t-14.5 37.5v124q0 30 13.5 38t68.5 8z" />
<glyph unicode="&#xd0;" horiz-adv-x="1292" d="M623 0h-363q-41 0 -55.5 7t-14.5 26v551h-120q-17 0 -22 11t-5 48q0 39 4.5 49t22.5 10h120v621q0 19 14.5 26t55.5 7h363q156 0 258.5 -37.5t164.5 -122t87.5 -208.5t25.5 -310t-25.5 -310t-87.5 -208.5t-164.5 -122t-258.5 -37.5zM350 137h273q92 0 153.5 16 t105.5 51.5t68 100.5t34.5 153t10.5 220t-10.5 220t-34.5 153t-68 100.5t-105.5 51.5t-153.5 16h-273v-517h256q17 0 21 -10.5t4 -48.5t-4 -48.5t-21 -10.5h-256v-447z" />
<glyph unicode="&#xd1;" horiz-adv-x="1335" d="M1071 1360q47 0 62.5 -7t15.5 -28v-1294q0 -21 -18 -28t-78 -7q-49 0 -65 6t-27 25l-619 1077v-1073q0 -21 -15 -28t-63 -7q-47 0 -62.5 7t-15.5 28v1294q0 21 18.5 28t78.5 7q49 0 65 -6t27 -25l618 -1079v1075q0 21 15 28t63 7zM860 1636v27q0 15 11.5 21t41.5 6 q39 0 48.5 -6.5t7.5 -26.5l-2 -53q-3 -42 -17 -71.5t-35 -44t-42.5 -20.5t-45.5 -6q-68 0 -133 37l-108 62q-37 22 -60 22q-24 0 -36.5 -14t-12.5 -51v-27q0 -15 -10.5 -20t-42.5 -5q-38 0 -47.5 5.5t-7.5 25.5l2 53q4 55 27.5 89t51 44.5t60.5 10.5q65 0 133 -39l109 -62 q37 -22 59 -22q24 0 36.5 14t12.5 51z" />
<glyph unicode="&#xd2;" horiz-adv-x="1298" d="M649 1374q285 0 400.5 -159t115.5 -537t-115.5 -537t-400.5 -159t-400.5 159t-115.5 537t115.5 537t400.5 159zM649 119q81 0 138 16t100 53t68 102.5t37 159.5t12 228t-12 228t-37 159.5t-68 102.5t-100 53t-138 16q-135 0 -209 -48t-108.5 -168t-34.5 -343t34.5 -343 t108.5 -168t209 -48zM662 1468l-336 166q-18 8 -17.5 22.5t23.5 51.5q22 38 34 45.5t29 -4.5l320 -201q15 -11 14.5 -19t-14.5 -34q-17 -27 -26.5 -31.5t-26.5 4.5z" />
<glyph unicode="&#xd3;" horiz-adv-x="1298" d="M649 1374q285 0 400.5 -159t115.5 -537t-115.5 -537t-400.5 -159t-400.5 159t-115.5 537t115.5 537t400.5 159zM649 119q81 0 138 16t100 53t68 102.5t37 159.5t12 228t-12 228t-37 159.5t-68 102.5t-100 53t-138 16q-135 0 -209 -48t-108.5 -168t-34.5 -343t34.5 -343 t108.5 -168t209 -48zM971 1634l-336 -166q-17 -8 -25.5 -4t-25.5 31q-15 25 -15.5 34t13.5 19l321 201q17 12 29 4.5t35 -45.5q23 -37 23 -51.5t-19 -22.5z" />
<glyph unicode="&#xd4;" horiz-adv-x="1298" d="M649 1374q285 0 400.5 -159t115.5 -537t-115.5 -537t-400.5 -159t-400.5 159t-115.5 537t115.5 537t400.5 159zM649 119q81 0 138 16t100 53t68 102.5t37 159.5t12 228t-12 228t-37 159.5t-68 102.5t-100 53t-138 16q-135 0 -209 -48t-108.5 -168t-34.5 -343t34.5 -343 t108.5 -168t209 -48zM651 1597l-141 -114q-14 -12 -29 -16.5t-51 -4.5q-50 0 -48 20q0 6 7 13l197 205q14 20 65 20q50 0 64 -20l196 -205q22 -24 -17 -31l-24 -2q-35 0 -50 4t-29 17z" />
<glyph unicode="&#xd5;" horiz-adv-x="1298" d="M649 1374q285 0 400.5 -159t115.5 -537t-115.5 -537t-400.5 -159t-400.5 159t-115.5 537t115.5 537t400.5 159zM649 119q81 0 138 16t100 53t68 102.5t37 159.5t12 228t-12 228t-37 159.5t-68 102.5t-100 53t-138 16q-135 0 -209 -48t-108.5 -168t-34.5 -343t34.5 -343 t108.5 -168t209 -48zM842 1636v27q0 15 11.5 21t41.5 6q39 0 48 -6.5t7 -26.5l-2 -53q-3 -42 -16.5 -71.5t-35 -44t-42.5 -20.5t-45 -6q-68 0 -133 37l-109 62q-37 22 -59 22q-24 0 -36.5 -14t-12.5 -51v-27q0 -15 -10.5 -20t-42.5 -5q-39 0 -48.5 6t-7.5 25l2 53 q3 42 17 71.5t35 44.5t42.5 21.5t45.5 6.5q65 0 133 -39l108 -62q37 -22 60 -22q24 0 36.5 14t12.5 51z" />
<glyph unicode="&#xd6;" horiz-adv-x="1298" d="M649 1374q285 0 400.5 -159t115.5 -537t-115.5 -537t-400.5 -159t-400.5 159t-115.5 537t115.5 537t400.5 159zM649 119q81 0 138 16t100 53t68 102.5t37 159.5t12 228t-12 228t-37 159.5t-68 102.5t-100 53t-138 16q-135 0 -209 -48t-108.5 -168t-34.5 -343t34.5 -343 t108.5 -168t209 -48zM469 1686q55 0 68.5 -8t13.5 -38v-124q0 -29 -14.5 -37.5t-67.5 -8.5t-68.5 9t-15.5 37v124q0 30 14.5 38t69.5 8zM831 1686q55 0 69.5 -8t14.5 -38v-124q0 -28 -15.5 -37t-68.5 -9t-67 8.5t-14 37.5v124q0 30 13.5 38t67.5 8z" />
<glyph unicode="&#xd7;" horiz-adv-x="1110" d="M821 276l-266 267l-266 -267q-10 -14 -24 -9t-44 34q-28 30 -32.5 44.5t8.5 23.5l266 266l-266 266q-13 9 -8.5 23.5t32.5 42.5q29 29 44 34t24 -8l266 -266l266 266q9 13 23.5 8t44.5 -34q29 -29 33.5 -42.5t-9.5 -23.5l-266 -266l266 -266q15 -9 10.5 -23.5 t-34.5 -44.5q-30 -29 -44 -34t-24 9z" />
<glyph unicode="&#xd8;" horiz-adv-x="1306" d="M653 1374q196 0 312 -76l65 107q11 16 27 21.5t55 5.5q25 0 38 -4t14 -11t-5 -16l-110 -180q120 -158 120 -543q0 -378 -115.5 -537t-400.5 -159q-199 0 -309 71l-68 -108q-9 -17 -25 -23t-56 -6q-19 0 -31 2.5t-16.5 7.5t-4.5 10.5t4 12.5l113 182q-123 155 -123 547 q0 378 115.5 537t400.5 159zM301 678q0 -278 51 -397l539 886q-75 70 -238 70q-135 0 -209 -48t-108.5 -168t-34.5 -343zM653 119q81 0 138 16t100 53t68 102.5t37 159.5t12 228q0 267 -54 393l-536 -885q75 -67 235 -67z" />
<glyph unicode="&#xd9;" horiz-adv-x="1300" d="M649 -18q-256 0 -364.5 118t-108.5 381v844q0 21 15 28t65 7q48 0 63 -7t15 -28v-836q0 -198 69 -280t246 -82q179 0 248.5 82t69.5 280v836q0 21 14.5 28t62.5 7q50 0 65 -7t15 -28v-844q0 -263 -109 -381t-366 -118zM633 1468l-336 166q-18 8 -17.5 22.5t23.5 51.5 q21 38 34 46t30 -5l319 -201q15 -11 14.5 -19t-14.5 -34q-17 -27 -26.5 -31.5t-26.5 4.5z" />
<glyph unicode="&#xda;" horiz-adv-x="1300" d="M649 -18q-256 0 -364.5 118t-108.5 381v844q0 21 15 28t65 7q48 0 63 -7t15 -28v-836q0 -198 69 -280t246 -82q179 0 248.5 82t69.5 280v836q0 21 14.5 28t62.5 7q50 0 65 -7t15 -28v-844q0 -263 -109 -381t-366 -118zM1001 1634l-335 -166q-17 -8 -26 -4t-26 31 q-15 25 -15.5 34t13.5 19l322 201q17 12 28.5 4.5t34.5 -45.5q23 -37 23 -51.5t-19 -22.5z" />
<glyph unicode="&#xdb;" horiz-adv-x="1300" d="M649 -18q-256 0 -364.5 118t-108.5 381v844q0 21 15 28t65 7q48 0 63 -7t15 -28v-836q0 -198 69 -280t246 -82q179 0 248.5 82t69.5 280v836q0 21 14.5 28t62.5 7q50 0 65 -7t15 -28v-844q0 -263 -109 -381t-366 -118zM651 1597l-141 -114q-14 -12 -29 -16.5t-51 -4.5 q-50 0 -48 20q0 6 7 13l197 205q14 20 65 20q50 0 64 -20l196 -205q22 -24 -17 -31l-24 -2q-35 0 -50 4t-29 17z" />
<glyph unicode="&#xdc;" horiz-adv-x="1300" d="M649 -18q-256 0 -364.5 118t-108.5 381v844q0 21 15 28t65 7q48 0 63 -7t15 -28v-836q0 -198 69 -280t246 -82q179 0 248.5 82t69.5 280v836q0 21 14.5 28t62.5 7q50 0 65 -7t15 -28v-844q0 -263 -109 -381t-366 -118zM469 1686q55 0 68.5 -8t13.5 -38v-124 q0 -29 -14.5 -37.5t-67.5 -8.5t-68.5 9t-15.5 37v124q0 30 14.5 38t69.5 8zM831 1686q55 0 69.5 -8t14.5 -38v-124q0 -28 -15.5 -37t-68.5 -9t-67 8.5t-14 37.5v124q0 30 13.5 38t67.5 8z" />
<glyph unicode="&#xdd;" horiz-adv-x="1130" d="M899 1325q10 22 23.5 28.5t62.5 6.5q30 0 48 -2t28 -6.5t11 -11.5t-3 -17q-79 -172 -203 -413t-221 -412v-467q0 -21 -15.5 -28t-64.5 -7q-50 0 -65 7t-15 28v467q-97 171 -221 412t-203 413q-4 10 -3 17t11 11.5t28 6.5t48 2q49 0 62.5 -6.5t23.5 -28.5 q149 -348 334 -688q185 340 334 688zM922 1634l-336 -166q-17 -8 -25.5 -4t-25.5 31q-15 25 -15.5 33.5t12.5 19.5l322 201q17 12 29 4.5t35 -45.5q23 -37 23 -51.5t-19 -22.5z" />
<glyph unicode="&#xde;" horiz-adv-x="1159" d="M580 322h-234v-291q0 -21 -15 -28t-65 -7q-49 0 -64.5 7t-15.5 28v1294q0 21 15.5 28t64.5 7q50 0 65 -7t15 -28v-197h234q245 0 353.5 -95.5t108.5 -309.5q0 -213 -108.5 -307t-353.5 -94zM346 991v-534h229q169 0 236.5 55t67.5 211q0 81 -16 132.5t-54.5 82t-93 42 t-140.5 11.5h-229z" />
<glyph unicode="&#xdf;" horiz-adv-x="1314" d="M602 723q-15 0 -19.5 11.5t-4.5 51.5q0 41 4.5 52.5t19.5 13.5q187 16 263.5 67.5t76.5 178.5q0 205 -301 205q-171 0 -239 -60t-68 -186v-1028q0 -20 -14 -26.5t-60 -6.5q-47 0 -60.5 6.5t-13.5 26.5v1034q0 90 22.5 155.5t74 115t141 74t217.5 24.5q449 0 449 -332 q0 -143 -82.5 -221.5t-221.5 -92.5q71 -11 125 -27t108.5 -47.5t90 -76.5t58 -116.5t22.5 -164.5q0 -173 -85.5 -272.5t-273.5 -99.5q-179 0 -253 70t-74 198q0 22 12.5 28.5t58.5 6.5q44 0 57.5 -6.5t16.5 -26.5q10 -78 45 -113t137 -35q118 0 164.5 63.5t46.5 186.5 q0 82 -15.5 139t-44.5 96t-85 65t-123 41t-172 28z" />
<glyph unicode="&#xe0;" d="M309 729q0 -19 -14 -25t-59 -6q-49 0 -60.5 5.5t-11.5 27.5q0 281 364 281q205 0 292 -79.5t87 -240.5v-665q0 -20 -13 -25.5t-58 -5.5t-58.5 5.5t-13.5 25.5l-2 112q-41 -67 -121 -110t-199 -43q-170 0 -251.5 72t-81.5 204q0 142 83.5 214.5t262.5 72.5h303v135 q0 113 -51.5 158t-174.5 45q-117 0 -170 -38t-53 -120zM758 434h-299q-114 0 -157.5 -40t-43.5 -130q0 -158 195 -158q133 0 219 68.5t86 177.5v82zM559 1128l-319 160q-18 7 -18 21.5t24 52.5q21 37 33.5 45t29.5 -4l305 -195q14 -9 13.5 -18t-15.5 -35 q-17 -27 -26.5 -31.5t-26.5 4.5z" />
<glyph unicode="&#xe1;" d="M309 729q0 -19 -14 -25t-59 -6q-49 0 -60.5 5.5t-11.5 27.5q0 281 364 281q205 0 292 -79.5t87 -240.5v-665q0 -20 -13 -25.5t-58 -5.5t-58.5 5.5t-13.5 25.5l-2 112q-41 -67 -121 -110t-199 -43q-170 0 -251.5 72t-81.5 204q0 142 83.5 214.5t262.5 72.5h303v135 q0 113 -51.5 158t-174.5 45q-117 0 -170 -38t-53 -120zM758 434h-299q-114 0 -157.5 -40t-43.5 -130q0 -158 195 -158q133 0 219 68.5t86 177.5v82zM819 1288l-319 -160q-17 -8 -25.5 -4t-25.5 31q-15 27 -15.5 35.5t12.5 17.5l306 195q17 11 28.5 4t34.5 -45 q23 -39 23 -52.5t-19 -21.5z" />
<glyph unicode="&#xe2;" d="M309 729q0 -19 -14 -25t-59 -6q-49 0 -60.5 5.5t-11.5 27.5q0 281 364 281q205 0 292 -79.5t87 -240.5v-665q0 -20 -13 -25.5t-58 -5.5t-58.5 5.5t-13.5 25.5l-2 112q-41 -67 -121 -110t-199 -43q-170 0 -251.5 72t-81.5 204q0 142 83.5 214.5t262.5 72.5h303v135 q0 113 -51.5 158t-174.5 45q-117 0 -170 -38t-53 -120zM758 434h-299q-114 0 -157.5 -40t-43.5 -130q0 -158 195 -158q133 0 219 68.5t86 177.5v82zM539 1284l-129 -123q-20 -18 -36.5 -23t-54.5 -5q-49 0 -45 19q2 6 9 13l194 217q8 11 20 15t42 4q45 0 61 -19l193 -217 q16 -29 -37 -32q-38 0 -54 5t-36 23z" />
<glyph unicode="&#xe3;" d="M309 729q0 -19 -14 -25t-59 -6q-49 0 -60.5 5.5t-11.5 27.5q0 281 364 281q205 0 292 -79.5t87 -240.5v-665q0 -20 -13 -25.5t-58 -5.5t-58.5 5.5t-13.5 25.5l-2 112q-41 -67 -121 -110t-199 -43q-170 0 -251.5 72t-81.5 204q0 142 83.5 214.5t262.5 72.5h303v135 q0 113 -51.5 158t-174.5 45q-117 0 -170 -38t-53 -120zM758 434h-299q-114 0 -157.5 -40t-43.5 -130q0 -158 195 -158q133 0 219 68.5t86 177.5v82zM717 1305v26q0 15 9.5 20t41.5 5q38 0 46.5 -5.5t6.5 -25.5l-2 -53q-4 -55 -26 -89t-48.5 -44.5t-58.5 -10.5q-61 0 -129 39 l-111 64q-30 20 -55 20q-22 0 -33.5 -14t-11.5 -51v-27q0 -15 -10 -20.5t-41 -5.5q-38 0 -46.5 6t-8.5 26l4 54q10 141 131 141q63 0 131 -39l108 -61q35 -21 58 -21q22 0 33.5 14.5t11.5 51.5z" />
<glyph unicode="&#xe4;" d="M309 729q0 -19 -14 -25t-59 -6q-49 0 -60.5 5.5t-11.5 27.5q0 281 364 281q205 0 292 -79.5t87 -240.5v-665q0 -20 -13 -25.5t-58 -5.5t-58.5 5.5t-13.5 25.5l-2 112q-41 -67 -121 -110t-199 -43q-170 0 -251.5 72t-81.5 204q0 142 83.5 214.5t262.5 72.5h303v135 q0 113 -51.5 158t-174.5 45q-117 0 -170 -38t-53 -120zM758 434h-299q-114 0 -157.5 -40t-43.5 -130q0 -158 195 -158q133 0 219 68.5t86 177.5v82zM356 1356q55 0 69.5 -8t14.5 -39v-123q0 -28 -15 -36.5t-69 -8.5q-53 0 -67.5 8.5t-14.5 36.5v123q0 31 13.5 39t68.5 8z M705 1356q55 0 69 -8t14 -39v-123q0 -28 -14.5 -36.5t-68.5 -8.5q-53 0 -67.5 8.5t-14.5 36.5v123q0 31 13.5 39t68.5 8z" />
<glyph unicode="&#xe5;" d="M309 729q0 -19 -14 -25t-59 -6q-49 0 -60.5 5.5t-11.5 27.5q0 281 364 281q205 0 292 -79.5t87 -240.5v-665q0 -20 -13 -25.5t-58 -5.5t-58.5 5.5t-13.5 25.5l-2 112q-41 -67 -121 -110t-199 -43q-170 0 -251.5 72t-81.5 204q0 142 83.5 214.5t262.5 72.5h303v135 q0 113 -51.5 158t-174.5 45q-117 0 -170 -38t-53 -120zM758 434h-299q-114 0 -157.5 -40t-43.5 -130q0 -158 195 -158q133 0 219 68.5t86 177.5v82zM532 1462q93 0 137 -41.5t44 -126.5q0 -84 -44 -125t-137 -41q-92 0 -135 41t-43 125q0 85 43 126.5t135 41.5zM532 1204 q53 0 76 21t23 69q0 50 -22.5 71t-76.5 21q-52 0 -74 -21t-22 -71q0 -48 22 -69t74 -21z" />
<glyph unicode="&#xe6;" horiz-adv-x="1665" d="M1513 442h-616q6 -174 72 -252.5t207 -78.5q93 0 145 37.5t57 105.5q2 18 16 24.5t58 6.5q48 0 61 -6t11 -27q-3 -127 -97 -198.5t-251 -71.5q-258 0 -349 168q-57 -84 -156.5 -124t-207.5 -40q-185 0 -269.5 73.5t-84.5 214.5q0 135 80.5 210t267.5 75h297v125 q0 111 -51 157t-171 46q-113 0 -169 -40t-54 -118q0 -19 -14 -25t-59 -6q-49 0 -60.5 5.5t-11.5 27.5q0 140 94.5 210.5t273.5 70.5q244 0 316 -138q99 138 319 138q377 0 377 -432v-62q0 -47 -5.5 -61.5t-25.5 -14.5zM754 442h-293q-111 0 -157 -43t-46 -125 q0 -91 53 -129.5t150 -38.5q128 0 210.5 64.5t82.5 175.5v96zM1167 883q-134 0 -196.5 -75t-71.5 -249h502v53q0 129 -53 200t-181 71z" />
<glyph unicode="&#xe7;" horiz-adv-x="1034" d="M498 -106h34q102 0 148.5 -31t46.5 -119q0 -90 -47 -123t-148 -33h-190q-15 0 -20 9t-5 38q0 28 5 38t20 10h184q49 0 69.5 11t20.5 50t-20 49t-70 10h-106q-28 0 -38.5 7t-4.5 24l51 158q-164 30 -235.5 152t-71.5 352q0 269 99 392.5t333 123.5q168 0 265 -71.5 t100 -201.5q0 -22 -12 -28t-60 -6q-45 0 -59.5 6.5t-14.5 25.5q-3 71 -60.5 107.5t-158.5 36.5q-156 0 -216.5 -88t-60.5 -297t60.5 -297t218.5 -88q218 0 221 153q0 19 14.5 26t59.5 7q48 0 60 -6.5t12 -28.5q-3 -138 -98.5 -209t-268.5 -71h-35z" />
<glyph unicode="&#xe8;" d="M911 451h-639q5 -180 72 -260t219 -80q205 0 215 143q2 19 15.5 25t58.5 6q47 0 59.5 -5.5t12.5 -27.5q-4 -129 -99.5 -199.5t-261.5 -70.5q-233 0 -337.5 121.5t-104.5 379.5q0 275 102.5 402t329.5 127q90 0 159 -22.5t112.5 -61t70.5 -95t38 -117.5t11 -136v-52 q0 -47 -6.5 -62t-26.5 -15zM553 883q-142 0 -206 -72.5t-73 -243.5h527v45q0 63 -11 109.5t-38 84.5t-76.5 57.5t-122.5 19.5zM561 1128l-319 160q-18 7 -18 21.5t24 52.5q21 37 33.5 45t29.5 -4l305 -195q14 -9 13.5 -18t-15.5 -35q-17 -27 -26.5 -31.5t-26.5 4.5z" />
<glyph unicode="&#xe9;" d="M911 451h-639q5 -180 72 -260t219 -80q205 0 215 143q2 19 15.5 25t58.5 6q47 0 59.5 -5.5t12.5 -27.5q-4 -129 -99.5 -199.5t-261.5 -70.5q-233 0 -337.5 121.5t-104.5 379.5q0 275 102.5 402t329.5 127q90 0 159 -22.5t112.5 -61t70.5 -95t38 -117.5t11 -136v-52 q0 -47 -6.5 -62t-26.5 -15zM553 883q-142 0 -206 -72.5t-73 -243.5h527v45q0 63 -11 109.5t-38 84.5t-76.5 57.5t-122.5 19.5zM842 1288l-320 -160q-17 -8 -25.5 -4t-25.5 31q-15 26 -15.5 35t13.5 18l305 195q17 11 29 3.5t35 -44.5q23 -39 23 -52.5t-19 -21.5z" />
<glyph unicode="&#xea;" d="M911 451h-639q5 -180 72 -260t219 -80q205 0 215 143q2 19 15.5 25t58.5 6q47 0 59.5 -5.5t12.5 -27.5q-4 -129 -99.5 -199.5t-261.5 -70.5q-233 0 -337.5 121.5t-104.5 379.5q0 275 102.5 402t329.5 127q90 0 159 -22.5t112.5 -61t70.5 -95t38 -117.5t11 -136v-52 q0 -47 -6.5 -62t-26.5 -15zM553 883q-142 0 -206 -72.5t-73 -243.5h527v45q0 63 -11 109.5t-38 84.5t-76.5 57.5t-122.5 19.5zM535 1284l-129 -123q-20 -18 -36.5 -23t-54.5 -5q-49 0 -45 19q2 6 9 13l194 217q8 11 20 15t42 4q45 0 61 -19l192 -217q9 -10 8.5 -17t-12 -11 t-32.5 -4q-38 0 -54 5t-36 23z" />
<glyph unicode="&#xeb;" d="M911 451h-639q5 -180 72 -260t219 -80q205 0 215 143q2 19 15.5 25t58.5 6q47 0 59.5 -5.5t12.5 -27.5q-4 -129 -99.5 -199.5t-261.5 -70.5q-233 0 -337.5 121.5t-104.5 379.5q0 275 102.5 402t329.5 127q90 0 159 -22.5t112.5 -61t70.5 -95t38 -117.5t11 -136v-52 q0 -47 -6.5 -62t-26.5 -15zM553 883q-142 0 -206 -72.5t-73 -243.5h527v45q0 63 -11 109.5t-38 84.5t-76.5 57.5t-122.5 19.5zM360 1356q55 0 69.5 -8t14.5 -39v-123q0 -28 -15 -36.5t-69 -8.5q-53 0 -67 8.5t-14 36.5v123q0 31 13 39t68 8zM707 1356q55 0 69.5 -8t14.5 -39 v-123q0 -28 -15 -36.5t-69 -8.5q-53 0 -67.5 8.5t-14.5 36.5v123q0 31 13.5 39t68.5 8z" />
<glyph unicode="&#xec;" horiz-adv-x="501" d="M174 29v936q0 20 15 26t61 6q47 0 61.5 -6t14.5 -26v-936q0 -20 -14.5 -26.5t-61.5 -6.5q-46 0 -61 6.5t-15 26.5zM223 1128l-319 160q-18 7 -18 21.5t24 52.5q21 37 33.5 45t29.5 -4l306 -195q13 -9 12.5 -17.5t-15.5 -35.5q-17 -27 -26.5 -31.5t-26.5 4.5z" />
<glyph unicode="&#xed;" horiz-adv-x="501" d="M174 29v936q0 20 15 26t61 6q47 0 61.5 -6t14.5 -26v-936q0 -20 -14.5 -26.5t-61.5 -6.5q-46 0 -61 6.5t-15 26.5zM598 1288l-319 -160q-17 -8 -26 -4t-26 31q-15 26 -15.5 35t13.5 18l305 195q17 11 29 3.5t35 -44.5q23 -39 23 -52.5t-19 -21.5z" />
<glyph unicode="&#xee;" horiz-adv-x="501" d="M174 29v936q0 20 15 26t61 6q47 0 61.5 -6t14.5 -26v-936q0 -20 -14.5 -26.5t-61.5 -6.5q-46 0 -61 6.5t-15 26.5zM252 1284l-129 -123q-20 -18 -36 -23t-54 -5q-50 0 -46 19q2 6 9 13l194 217q8 11 20 15t42 4q45 0 61 -19l193 -217q16 -29 -37 -32q-38 0 -54 5t-36 23z " />
<glyph unicode="&#xef;" horiz-adv-x="501" d="M174 29v936q0 20 15 26t61 6q47 0 61.5 -6t14.5 -26v-936q0 -20 -14.5 -26.5t-61.5 -6.5q-46 0 -61 6.5t-15 26.5zM84 1356q55 0 69.5 -8t14.5 -39v-123q0 -28 -15 -36.5t-69 -8.5q-53 0 -67.5 8.5t-14.5 36.5v123q0 31 13.5 39t68.5 8zM414 1356q55 0 69.5 -8t14.5 -39 v-123q0 -28 -15 -36.5t-69 -8.5q-53 0 -67.5 8.5t-14.5 36.5v123q0 31 13.5 39t68.5 8z" />
<glyph unicode="&#xf0;" horiz-adv-x="1114" d="M1010 1266l-125 -49q60 -100 83 -260t23 -408q0 -312 -98.5 -439.5t-337.5 -127.5q-234 0 -334 123t-100 391q0 269 100 392.5t334 123.5q89 0 166.5 -35.5t118.5 -95.5q-15 194 -82 286l-191 -73q-14 -7 -21 -0.5t-18 34.5q-11 29 -10 40t14 18l146 55q-89 53 -244 53 q-18 0 -24.5 12t-6.5 52q0 39 6.5 50t24.5 11q265 0 389 -121l152 60q13 6 20.5 -1.5t18.5 -35.5q11 -29 10 -39t-14 -16zM555 111q157 0 219 88.5t62 296.5t-62 296.5t-219 88.5t-218 -88.5t-61 -296.5t61 -296.5t218 -88.5z" />
<glyph unicode="&#xf1;" horiz-adv-x="1146" d="M311 967l4 -119q37 69 120.5 116.5t209.5 47.5q162 0 251 -85.5t89 -260.5v-637q0 -20 -15 -26.5t-61 -6.5q-47 0 -61 6.5t-14 26.5v626q0 117 -54 170.5t-164 53.5q-134 0 -215.5 -75.5t-81.5 -197.5v-577q0 -20 -14.5 -26.5t-60.5 -6.5q-47 0 -61.5 6.5t-14.5 26.5v938 q0 20 13 25t59 5q45 0 58 -5t13 -25zM760 1305v26q0 15 9.5 20t41.5 5q38 0 46.5 -5.5t6.5 -25.5l-2 -53q-4 -55 -26 -89t-48.5 -44.5t-58.5 -10.5q-61 0 -129 39l-111 64q-30 20 -55 20q-22 0 -33.5 -14t-11.5 -51v-27q0 -15 -10 -20.5t-41 -5.5q-38 0 -46.5 6t-8.5 26 l4 54q10 141 131 141q63 0 131 -39l108 -61q35 -21 58 -21q22 0 33.5 14.5t11.5 51.5z" />
<glyph unicode="&#xf2;" horiz-adv-x="1105" d="M553 1012q234 0 334 -123.5t100 -392.5q0 -268 -100 -391t-334 -123q-233 0 -332.5 123t-99.5 391q0 269 99 392.5t333 123.5zM553 111q157 0 217.5 88t60.5 297t-60.5 297t-217.5 88q-156 0 -216.5 -88t-60.5 -297t60.5 -297t216.5 -88zM563 1128l-319 160 q-18 7 -18 21.5t24 52.5q21 37 33.5 45t29.5 -4l305 -195q14 -9 13.5 -18t-15.5 -35q-17 -27 -26.5 -31.5t-26.5 4.5z" />
<glyph unicode="&#xf3;" horiz-adv-x="1105" d="M553 1012q234 0 334 -123.5t100 -392.5q0 -268 -100 -391t-334 -123q-233 0 -332.5 123t-99.5 391q0 269 99 392.5t333 123.5zM553 111q157 0 217.5 88t60.5 297t-60.5 297t-217.5 88q-156 0 -216.5 -88t-60.5 -297t60.5 -297t216.5 -88zM864 1288l-319 -160 q-17 -8 -25.5 -4t-25.5 31q-15 26 -15.5 35t13.5 18l305 195q17 11 28.5 4t34.5 -45q23 -39 23 -52.5t-19 -21.5z" />
<glyph unicode="&#xf4;" horiz-adv-x="1105" d="M553 1012q234 0 334 -123.5t100 -392.5q0 -268 -100 -391t-334 -123q-233 0 -332.5 123t-99.5 391q0 269 99 392.5t333 123.5zM553 111q157 0 217.5 88t60.5 297t-60.5 297t-217.5 88q-156 0 -216.5 -88t-60.5 -297t60.5 -297t216.5 -88zM555 1284l-129 -123 q-20 -18 -36 -23t-54 -5q-50 0 -46 19q2 6 9 13l195 217q8 11 19.5 15t41.5 4q45 0 61 -19l193 -217q16 -29 -37 -32q-38 0 -54 5t-36 23z" />
<glyph unicode="&#xf5;" horiz-adv-x="1105" d="M553 1012q234 0 334 -123.5t100 -392.5q0 -268 -100 -391t-334 -123q-233 0 -332.5 123t-99.5 391q0 269 99 392.5t333 123.5zM553 111q157 0 217.5 88t60.5 297t-60.5 297t-217.5 88q-156 0 -216.5 -88t-60.5 -297t60.5 -297t216.5 -88zM741 1305v26q0 15 10 20t42 5 q38 0 46.5 -5.5t6.5 -25.5l-2 -53q-4 -55 -26 -89t-48.5 -44.5t-58.5 -10.5q-61 0 -129 39l-111 64q-30 20 -55 20q-22 0 -33.5 -14t-11.5 -51v-27q0 -15 -10 -20.5t-42 -5.5q-38 0 -46.5 6t-8.5 26l4 54q10 141 131 141q63 0 131 -39l109 -61q35 -21 57 -21t33.5 14.5 t11.5 51.5z" />
<glyph unicode="&#xf6;" horiz-adv-x="1105" d="M553 1012q234 0 334 -123.5t100 -392.5q0 -268 -100 -391t-334 -123q-233 0 -332.5 123t-99.5 391q0 269 99 392.5t333 123.5zM553 111q157 0 217.5 88t60.5 297t-60.5 297t-217.5 88q-156 0 -216.5 -88t-60.5 -297t60.5 -297t216.5 -88zM381 1356q55 0 69.5 -8t14.5 -39 v-123q0 -28 -15 -36.5t-69 -8.5q-53 0 -67.5 8.5t-14.5 36.5v123q0 31 13.5 39t68.5 8zM727 1356q55 0 69.5 -8t14.5 -39v-123q0 -28 -15 -36.5t-69 -8.5q-53 0 -67.5 8.5t-14.5 36.5v123q0 31 13.5 39t68.5 8z" />
<glyph unicode="&#xf7;" horiz-adv-x="1110" d="M182 700h746q17 0 21.5 -12t4.5 -53t-4.5 -53.5t-21.5 -12.5h-746q-17 0 -21.5 12.5t-4.5 53.5t4.5 53t21.5 12zM555 168q-58 0 -78 9t-20 38v137q0 31 18.5 39t79.5 8q63 0 81.5 -8t18.5 -39v-137q0 -29 -20 -38t-80 -9zM555 868q-58 0 -78 9t-20 38v138q0 31 18.5 39 t79.5 8q63 0 81.5 -8t18.5 -39v-138q0 -29 -20 -38t-80 -9z" />
<glyph unicode="&#xf8;" horiz-adv-x="1118" d="M555 1012q141 0 233 -47l54 86q9 15 24.5 19.5t53.5 4.5q15 0 25 -1.5t15.5 -4t7.5 -6t1 -7.5t-4 -9l-91 -144q115 -121 115 -407q0 -268 -100 -391t-334 -123q-139 0 -229 43l-52 -82q-9 -16 -24.5 -21.5t-52.5 -5.5q-24 0 -36.5 4.5t-12 11.5t5.5 15l86 137 q-117 117 -117 412q0 269 99 392.5t333 123.5zM279 496q0 -194 47 -279l391 627q-61 37 -162 37q-156 0 -216 -88t-60 -297zM555 111q157 0 218 88.5t61 296.5q0 183 -48 272l-391 -623q56 -34 160 -34z" />
<glyph unicode="&#xf9;" horiz-adv-x="1128" d="M815 27l-2 118q-88 -163 -299 -163q-174 0 -267 89t-93 269v625q0 20 14.5 26t60.5 6q47 0 61.5 -6t14.5 -26v-615q0 -122 57 -180.5t179 -58.5q127 0 197.5 78.5t70.5 201.5v574q0 20 14.5 26t61.5 6t61.5 -6t14.5 -26v-938q0 -20 -13.5 -25.5t-58.5 -5.5t-59.5 5.5 t-14.5 25.5zM567 1128l-319 160q-18 7 -18 21.5t24 52.5q21 37 33.5 45t29.5 -4l306 -195q14 -9 13.5 -18t-15.5 -35q-17 -27 -27 -31.5t-27 4.5z" />
<glyph unicode="&#xfa;" horiz-adv-x="1128" d="M815 27l-2 118q-88 -163 -299 -163q-174 0 -267 89t-93 269v625q0 20 14.5 26t60.5 6q47 0 61.5 -6t14.5 -26v-615q0 -122 57 -180.5t179 -58.5q127 0 197.5 78.5t70.5 201.5v574q0 20 14.5 26t61.5 6t61.5 -6t14.5 -26v-938q0 -20 -13.5 -25.5t-58.5 -5.5t-59.5 5.5 t-14.5 25.5zM852 1288l-320 -160q-17 -8 -25.5 -4t-25.5 31q-15 26 -15.5 35t13.5 18l305 195q17 11 29 3.5t35 -44.5q23 -39 23 -52.5t-19 -21.5z" />
<glyph unicode="&#xfb;" horiz-adv-x="1128" d="M815 27l-2 118q-88 -163 -299 -163q-174 0 -267 89t-93 269v625q0 20 14.5 26t60.5 6q47 0 61.5 -6t14.5 -26v-615q0 -122 57 -180.5t179 -58.5q127 0 197.5 78.5t70.5 201.5v574q0 20 14.5 26t61.5 6t61.5 -6t14.5 -26v-938q0 -20 -13.5 -25.5t-58.5 -5.5t-59.5 5.5 t-14.5 25.5zM561 1284l-129 -123q-20 -18 -36 -23t-54 -5q-50 0 -46 19q2 6 9 13l195 217q8 11 19.5 15t41.5 4q46 0 62 -19l192 -217q16 -29 -37 -32q-38 0 -54 5t-36 23z" />
<glyph unicode="&#xfc;" horiz-adv-x="1128" d="M815 27l-2 118q-88 -163 -299 -163q-174 0 -267 89t-93 269v625q0 20 14.5 26t60.5 6q47 0 61.5 -6t14.5 -26v-615q0 -122 57 -180.5t179 -58.5q127 0 197.5 78.5t70.5 201.5v574q0 20 14.5 26t61.5 6t61.5 -6t14.5 -26v-938q0 -20 -13.5 -25.5t-58.5 -5.5t-59.5 5.5 t-14.5 25.5zM383 1356q55 0 69.5 -8t14.5 -39v-123q0 -28 -15 -36.5t-69 -8.5q-53 0 -67.5 8.5t-14.5 36.5v123q0 31 13.5 39t68.5 8zM731 1356q55 0 69.5 -8t14.5 -39v-123q0 -28 -15 -36.5t-69 -8.5q-53 0 -67.5 8.5t-14.5 36.5v123q0 31 13.5 39t68.5 8z" />
<glyph unicode="&#xfd;" horiz-adv-x="1013" d="M219 -252q91 0 132.5 41.5t107.5 185.5l8 23q-45 3 -53 25q-85 193 -183.5 459t-164.5 476q-6 22 7.5 30.5t63.5 8.5q48 0 64.5 -8t21.5 -28q134 -458 293 -848q79 192 157 429.5t124 418.5q5 20 20 28t60 8q48 0 62 -8.5t9 -32.5q-45 -193 -148 -481.5t-206 -515.5 q-30 -69 -50 -110t-46 -85t-50 -67t-56.5 -43t-70.5 -27.5t-88 -7.5q-58 0 -98 10q-17 3 -20.5 13.5t-3.5 50.5t4.5 51.5t21.5 11.5q3 0 12.5 -2t28 -4t41.5 -2zM852 1288l-320 -160q-17 -8 -25.5 -4t-25.5 31q-15 26 -15.5 35t13.5 18l305 195q17 11 29 3.5t35 -44.5 q23 -39 23 -52.5t-19 -21.5z" />
<glyph unicode="&#xfe;" horiz-adv-x="1146" d="M319 1389v-512q97 135 310 135q205 0 301 -125.5t96 -388.5q0 -264 -96.5 -390t-300.5 -126q-216 0 -310 131v-453q0 -20 -14.5 -26.5t-60.5 -6.5q-47 0 -61.5 6.5t-14.5 26.5v1729q0 20 14.5 26t61.5 6q46 0 60.5 -6t14.5 -26zM319 496q0 -203 64.5 -294t220.5 -91 q149 0 207.5 89t58.5 298q0 207 -58.5 295t-207.5 88q-156 0 -220.5 -90.5t-64.5 -294.5z" />
<glyph unicode="&#xff;" horiz-adv-x="1013" d="M219 -252q91 0 132.5 41.5t107.5 185.5l8 23q-45 3 -53 25q-85 193 -183.5 459t-164.5 476q-6 22 7.5 30.5t63.5 8.5q48 0 64.5 -8t21.5 -28q134 -458 293 -848q79 192 157 429.5t124 418.5q5 20 20 28t60 8q48 0 62 -8.5t9 -32.5q-45 -193 -148 -481.5t-206 -515.5 q-30 -69 -50 -110t-46 -85t-50 -67t-56.5 -43t-70.5 -27.5t-88 -7.5q-58 0 -98 10q-17 3 -20.5 13.5t-3.5 50.5t4.5 51.5t21.5 11.5q3 0 12.5 -2t28 -4t41.5 -2zM680 1356q55 0 69.5 -8t14.5 -39v-123q0 -28 -15 -36.5t-69 -8.5q-53 0 -67.5 8.5t-14.5 36.5v123 q0 31 13.5 39t68.5 8zM332 1356q55 0 69.5 -8t14.5 -39v-123q0 -28 -15 -36.5t-69 -8.5q-53 0 -67.5 8.5t-14.5 36.5v123q0 31 13.5 39t68.5 8z" />
<glyph unicode="&#x152;" horiz-adv-x="1812" d="M1640 1214h-579v-448h518q16 0 22.5 -14t6.5 -56t-6.5 -55.5t-22.5 -13.5h-518v-486h586q17 0 22.5 -13t5.5 -56q0 -44 -5.5 -58t-22.5 -14h-979q-154 0 -256 37.5t-164.5 122t-88.5 209t-26 309.5t26 309.5t88.5 209t164.5 122t256 37.5h972q17 0 23 -14t6 -58 q0 -42 -6 -56t-23 -14zM668 137h233v1082h-233q-89 0 -150 -16t-105.5 -52t-69.5 -100t-36.5 -153.5t-11.5 -219.5t11.5 -219.5t36.5 -153.5t69.5 -100t105.5 -52t150 -16z" />
<glyph unicode="&#x153;" horiz-adv-x="1726" d="M1575 444h-617q6 -175 72.5 -254t208.5 -79q92 0 145 37.5t58 105.5q2 18 16 24.5t58 6.5q46 0 58.5 -6t12.5 -27q-4 -128 -97.5 -199t-250.5 -71q-137 0 -222 44t-128 136q-41 -93 -124.5 -136.5t-221.5 -43.5q-225 0 -323.5 123.5t-98.5 390.5q0 268 98 392t324 124 q138 0 221 -45t125 -140q44 94 127 139.5t213 45.5q379 0 379 -432v-60q0 -46 -6.5 -61t-26.5 -15zM543 111q153 0 213.5 88.5t60.5 296.5t-60.5 296.5t-213.5 88.5q-149 0 -208 -88.5t-59 -296.5t59 -296.5t208 -88.5zM1229 883q-133 0 -196 -75t-72 -247h503v51 q0 63 -11 110t-37 84.5t-73 57t-114 19.5z" />
<glyph unicode="&#x178;" horiz-adv-x="1130" d="M899 1325q10 22 23.5 28.5t62.5 6.5q30 0 48 -2t28 -6.5t11 -11.5t-3 -17q-79 -172 -203 -413t-221 -412v-467q0 -21 -15.5 -28t-64.5 -7q-50 0 -65 7t-15 28v467q-97 171 -221 412t-203 413q-4 10 -3 17t11 11.5t28 6.5t48 2q49 0 62.5 -6.5t23.5 -28.5 q149 -348 334 -688q185 340 334 688zM748 1686q55 0 69 -8t14 -38v-124q0 -28 -15 -37t-68 -9t-67.5 8.5t-14.5 37.5v124q0 30 13.5 38t68.5 8zM385 1686q55 0 68.5 -8t13.5 -38v-124q0 -29 -14.5 -37.5t-67.5 -8.5t-68.5 9t-15.5 37v124q0 30 14.5 38t69.5 8z" />
<glyph unicode="&#x2c6;" horiz-adv-x="669" d="M336 1284l-129 -123q-20 -18 -36 -23t-54 -5q-50 0 -46 19q2 6 9 13l194 217q8 11 20 15t42 4q45 0 61 -19l193 -217q16 -29 -37 -32q-38 0 -54 5t-36 23z" />
<glyph unicode="&#x2dc;" horiz-adv-x="669" d="M520 1305v26q0 15 9.5 20t41.5 5q38 0 47 -5.5t7 -25.5l-2 -53q-5 -79 -43.5 -111.5t-90.5 -32.5q-61 0 -129 39l-110 64q-30 20 -55 20q-22 0 -33.5 -14t-11.5 -51v-27q0 -15 -10 -20.5t-42 -5.5q-38 0 -46.5 6t-8.5 26l4 54q10 141 131 141q63 0 131 -39l109 -61 q35 -21 57 -21t33.5 14.5t11.5 51.5z" />
<glyph unicode="&#x2000;" horiz-adv-x="878" />
<glyph unicode="&#x2001;" horiz-adv-x="1757" />
<glyph unicode="&#x2002;" horiz-adv-x="878" />
<glyph unicode="&#x2003;" horiz-adv-x="1757" />
<glyph unicode="&#x2004;" horiz-adv-x="585" />
<glyph unicode="&#x2005;" horiz-adv-x="439" />
<glyph unicode="&#x2006;" horiz-adv-x="292" />
<glyph unicode="&#x2007;" horiz-adv-x="292" />
<glyph unicode="&#x2008;" horiz-adv-x="219" />
<glyph unicode="&#x2009;" horiz-adv-x="351" />
<glyph unicode="&#x200a;" horiz-adv-x="97" />
<glyph unicode="&#x2010;" horiz-adv-x="815" d="M162 616h491q17 0 22 -11.5t5 -51.5t-5 -52t-22 -12h-491q-17 0 -22 12t-5 52t5 51.5t22 11.5z" />
<glyph unicode="&#x2011;" horiz-adv-x="815" d="M162 616h491q17 0 22 -11.5t5 -51.5t-5 -52t-22 -12h-491q-17 0 -22 12t-5 52t5 51.5t22 11.5z" />
<glyph unicode="&#x2012;" horiz-adv-x="815" d="M162 616h491q17 0 22 -11.5t5 -51.5t-5 -52t-22 -12h-491q-17 0 -22 12t-5 52t5 51.5t22 11.5z" />
<glyph unicode="&#x2013;" d="M154 616h755q17 0 22 -11.5t5 -51.5t-5 -52t-22 -12h-755q-15 0 -20 12.5t-5 51.5t5 51t20 12z" />
<glyph unicode="&#x2014;" horiz-adv-x="1482" d="M150 616h1183q17 0 22 -11.5t5 -51.5t-5 -52t-22 -12h-1183q-17 0 -22 12t-5 52t5 51.5t22 11.5z" />
<glyph unicode="&#x2018;" horiz-adv-x="425" d="M268 1118v-96q0 -11 -3 -16t-19 -9t-49 -4q-45 0 -57.5 6.5t-12.5 22.5v102q0 106 43 179t139 116q14 9 25.5 2.5t25.5 -37.5q17 -36 16 -45.5t-16 -17.5q-52 -29 -72 -77t-20 -126z" />
<glyph unicode="&#x2019;" horiz-adv-x="425" d="M158 1294v97q0 11 3 16t18.5 8.5t49.5 3.5q46 0 58 -6.5t12 -21.5v-103q0 -106 -43 -179t-139 -116q-14 -9 -25.5 -2.5t-25.5 37.5q-17 36 -16 46t16 18q52 30 72 77.5t20 124.5z" />
<glyph unicode="&#x201a;" horiz-adv-x="425" d="M158 102v97q0 11 3 16t18.5 8.5t49.5 3.5q46 0 58 -6.5t12 -21.5v-103q0 -106 -43 -179t-139 -116q-14 -9 -25.5 -2.5t-25.5 37.5q-17 36 -16 46t16 18q52 30 72 77.5t20 124.5z" />
<glyph unicode="&#x201c;" horiz-adv-x="751" d="M268 1118v-96q0 -11 -3 -16t-19 -9t-49 -4q-45 0 -57.5 6.5t-12.5 22.5v102q0 106 43 179t139 116q14 9 25.5 2.5t25.5 -37.5q17 -36 16 -45.5t-16 -17.5q-52 -29 -72 -77t-20 -126zM594 1118v-96q0 -11 -3 -16t-19.5 -9t-49.5 -4q-32 0 -47.5 4t-18.5 9t-3 16v102 q0 106 43 179t139 116q14 9 25.5 2.5t25.5 -37.5q17 -36 16 -45.5t-16 -17.5q-52 -29 -72 -77t-20 -126z" />
<glyph unicode="&#x201d;" horiz-adv-x="751" d="M158 1294v97q0 11 3 16t18.5 8.5t49.5 3.5q46 0 58 -6.5t12 -21.5v-103q0 -106 -43 -179t-139 -116q-14 -9 -25.5 -2.5t-25.5 37.5q-17 36 -16 46t16 18q52 30 72 77.5t20 124.5zM483 1294v97q0 11 3 16t19 8.5t50 3.5q46 0 58 -6.5t12 -21.5v-103q0 -213 -183 -295 q-14 -9 -25.5 -2.5t-25.5 37.5q-17 36 -16 46t16 18q52 30 72 77.5t20 124.5z" />
<glyph unicode="&#x201e;" horiz-adv-x="751" d="M158 102v97q0 11 3 16t18.5 8.5t49.5 3.5q46 0 58 -6.5t12 -21.5v-103q0 -106 -43 -179t-139 -116q-14 -9 -25.5 -2.5t-25.5 37.5q-17 36 -16 46t16 18q52 30 72 77.5t20 124.5zM483 102v97q0 11 3 16t19 8.5t50 3.5q46 0 58 -6.5t12 -21.5v-103q0 -213 -183 -295 q-14 -9 -25.5 -2.5t-25.5 37.5q-17 36 -16 46t16 18q52 30 72 77.5t20 124.5z" />
<glyph unicode="&#x2022;" horiz-adv-x="704" d="M352 365q-62 0 -93.5 5.5t-51.5 27.5t-24.5 54.5t-4.5 98.5q0 53 3.5 83t12.5 53.5t30 33t49.5 14t78.5 4.5q61 0 92.5 -5.5t51 -28t24 -55.5t4.5 -99q0 -123 -28.5 -154.5t-143.5 -31.5z" />
<glyph unicode="&#x2026;" horiz-adv-x="1454" d="M242 -4q-58 0 -78.5 9t-20.5 38v137q0 31 19 39t80 8q63 0 81.5 -8t18.5 -39v-137q0 -29 -20 -38t-80 -9zM727 -4q-60 0 -80 9t-20 38v137q0 31 18.5 39t81.5 8t81.5 -8t18.5 -39v-137q0 -29 -20 -38t-80 -9zM1212 -4q-60 0 -80 9t-20 38v137q0 31 18.5 39t81.5 8t82 -8 t19 -39v-137q0 -29 -20.5 -38t-80.5 -9z" />
<glyph unicode="&#x202f;" horiz-adv-x="351" />
<glyph unicode="&#x2039;" horiz-adv-x="624" d="M125 553q0 30 14 49l195 256q8 13 23.5 17t64.5 4q53 0 54 -16q0 -5 -5 -13l-225 -297l225 -297q6 -9 4.5 -16t-14.5 -11t-39 -4q-47 0 -63.5 4.5t-24.5 16.5l-195 256q-14 19 -14 51z" />
<glyph unicode="&#x203a;" horiz-adv-x="624" d="M500 553q0 -31 -15 -51l-194 -256q-8 -12 -24.5 -16.5t-63.5 -4.5q-26 0 -39 4t-14.5 11t4.5 16l225 297l-225 297q-16 24 27 28q9 1 22 1q49 0 64.5 -4t23.5 -17l194 -256q15 -20 15 -49z" />
<glyph unicode="&#x205f;" horiz-adv-x="439" />
<glyph unicode="&#x20ac;" horiz-adv-x="1282" d="M719 477h-328q18 -207 94 -284.5t248 -77.5q151 0 212 61t63 184q0 21 14.5 28t60.5 7q48 0 62 -7t14 -28q0 -188 -100 -283t-326 -95q-128 0 -216 27.5t-147.5 88.5t-90.5 152.5t-43 226.5h-130q-17 0 -20.5 10.5t-3.5 51.5t3.5 51t20.5 10h121v78v78h-121 q-17 0 -20.5 10t-3.5 51q0 43 3.5 53.5t20.5 10.5h130q16 178 68.5 284.5t155 157.5t269.5 51q428 0 428 -366q0 -21 -13.5 -27t-62.5 -6q-47 0 -61 6.5t-14 26.5q-2 114 -67 173.5t-210 59.5q-168 0 -243 -78t-95 -282h395q17 0 21 -11t4 -53q0 -40 -4 -50.5t-21 -10.5 h-401v-78v-78h334q17 0 20.5 -10t3.5 -51t-3.5 -51.5t-20.5 -10.5z" />
<glyph unicode="&#x2122;" horiz-adv-x="1548" d="M799 1356q65 0 73 -25l199 -465l199 465q6 14 22.5 19.5t53.5 5.5q40 0 56.5 -5t16.5 -20v-710q0 -15 -9 -19t-40 -4q-34 0 -42.5 4t-8.5 19v598l-189 -437q-7 -15 -18.5 -21.5t-40.5 -6.5t-40.5 6.5t-16.5 21.5l-189 435v-596q0 -15 -9.5 -19t-43.5 -4q-31 0 -40 4 t-9 19v710q0 14 18 19.5t58 5.5zM582 1262h-199v-641q0 -14 -9.5 -18.5t-45.5 -4.5q-33 0 -42.5 4.5t-9.5 18.5v641h-198q-14 0 -17.5 8t-3.5 39q0 32 3.5 39.5t17.5 7.5h504q14 0 17 -7.5t3 -39.5q0 -31 -3.5 -39t-16.5 -8z" />
<glyph unicode="&#x25fc;" horiz-adv-x="993" d="M0 993h993v-993h-993v993z" />
</font>
</defs>
</svg>
