<?xml version="1.0" standalone="no"?>
<!DOCTYPE svg PUBLIC "-//W3C//DTD SVG 1.1//EN" "http://www.w3.org/Graphics/SVG/1.1/DTD/svg11.dtd" >
<svg xmlns="http://www.w3.org/2000/svg" xmlns:xlink="http://www.w3.org/1999/xlink" version="1.1">
<metadata></metadata>
<defs>
<font id="frygiaitalic" horiz-adv-x="1062" >
<font-face units-per-em="2048" ascent="1536" descent="-512" />
<missing-glyph horiz-adv-x="454" />
<glyph unicode="&#xfb01;" horiz-adv-x="1140" d="M936 1284q-78 16 -205 16q-111 0 -169 -21.5t-83.5 -69t-34.5 -142.5l-6 -74h518q48 0 61.5 -6t12.5 -26l-98 -932q-1 -20 -16.5 -26.5t-61.5 -6.5q-47 0 -61.5 6.5t-12.5 26.5l88 837h-444l-88 -837q-2 -20 -16 -26.5t-60 -6.5q-47 0 -60.5 6.5t-11.5 26.5l86 837h-133 q-17 0 -20.5 12t0.5 50q5 40 9.5 50.5t21.5 10.5l139 4l8 82q20 192 119.5 274.5t318.5 82.5q128 0 226 -25q15 -5 17 -16t-7 -50q-7 -39 -14.5 -49.5t-22.5 -7.5z" />
<glyph unicode="&#xfb02;" horiz-adv-x="1165" d="M444 1067l-6 -74h207q17 0 21 -12.5t0 -50.5q-3 -40 -8.5 -52t-22.5 -12h-211l-88 -837q-2 -20 -16 -26.5t-60 -6.5q-47 0 -60.5 6.5t-11.5 26.5l86 837h-133q-17 0 -20.5 12t0.5 50q5 40 9.5 50.5t21.5 10.5l139 4l8 82q20 192 120 274.5t320 82.5q186 0 303 -37 q32 -11 29 -41l-119 -1137q-5 -47 10.5 -65.5t59.5 -18.5h31q18 0 22 -12t0 -53q-5 -42 -10.5 -55t-20.5 -13h-45q-124 0 -168 44.5t-32 158.5l114 1083q-79 14 -178 14q-85 0 -136.5 -10.5t-85 -38.5t-48 -70.5t-21.5 -113.5z" />
<glyph unicode="&#xfb03;" horiz-adv-x="1748" d="M897 993l10 82q19 192 118 274.5t318 82.5q130 0 228 -25q15 -5 17 -16t-7 -50q-7 -39 -14.5 -49.5t-22.5 -7.5q-78 16 -205 16q-112 0 -169.5 -21.5t-82.5 -68.5t-34 -143l-6 -74h518q46 0 60 -6t13 -26l-98 -932q-1 -20 -16.5 -26.5t-61.5 -6.5q-47 0 -61 6.5t-12 26.5 l86 837h-443l-88 -837q-2 -20 -16 -26.5t-60 -6.5q-47 0 -60 6t-13 27l88 837h-459l-88 -837q-2 -20 -16 -26.5t-60 -6.5q-47 0 -60.5 6.5t-11.5 26.5l86 837h-133q-17 0 -20.5 12t0.5 50q5 40 9.5 50.5t21.5 10.5l139 4l10 117q19 167 92 241t223 74q106 0 172 -32 q14 -4 14 -19.5t-18 -50.5q-18 -33 -28.5 -41.5t-24.5 -3.5q-46 16 -113 16q-85 0 -121.5 -42.5t-47.5 -149.5l-11 -109h459z" />
<glyph unicode="&#xfb04;" horiz-adv-x="1773" d="M897 993l10 82q19 192 120 274.5t321 82.5q186 0 303 -37q31 -12 28 -41l-118 -1137q-6 -48 8.5 -66t60.5 -18h31q18 0 22 -12t0 -53q-5 -43 -10 -55.5t-22 -12.5h-43q-125 0 -169 44.5t-32 158.5l113 1083q-79 14 -177 14q-85 0 -136.5 -10.5t-84.5 -38.5t-47.5 -70 t-21.5 -114l-6 -74h206q17 0 21 -12.5t0 -50.5q-3 -40 -8.5 -52t-22.5 -12h-211l-88 -837q-2 -20 -16 -26.5t-60 -6.5q-47 0 -60 6t-13 27l88 837h-459l-88 -837q-2 -20 -16 -26.5t-60 -6.5q-47 0 -60.5 6.5t-11.5 26.5l86 837h-133q-17 0 -20.5 12t0.5 50q5 40 9.5 50.5 t21.5 10.5l139 4l10 117q19 167 92 241t223 74q106 0 172 -32q14 -4 14 -19.5t-18 -50.5q-18 -33 -28.5 -41.5t-24.5 -3.5q-46 16 -113 16q-85 0 -121.5 -42.5t-47.5 -149.5l-11 -109h459z" />
<glyph horiz-adv-x="0" />
<glyph horiz-adv-x="682" />
<glyph unicode=" "  horiz-adv-x="454" />
<glyph unicode="&#x09;" horiz-adv-x="454" />
<glyph unicode="&#xa0;" horiz-adv-x="454" />
<glyph unicode="!" horiz-adv-x="569" d="M285 383q-40 0 -51 6.5t-9 24.5l66 907q2 22 21 30.5t71 8.5q53 0 72.5 -8.5t15.5 -30.5l-123 -907q-2 -18 -13 -24.5t-50 -6.5zM244 -4q-59 0 -78 9t-16 38l14 137q1 31 20 39t80 8q63 0 82 -8t16 -39l-14 -137q-3 -29 -24 -38t-80 -9z" />
<glyph unicode="&#x22;" horiz-adv-x="741" d="M205 954l31 435q1 20 13.5 25t57.5 5q47 0 61 -5t13 -25l-62 -435q-3 -18 -13.5 -23t-45.5 -5t-46.5 5t-8.5 23zM539 954l30 435q1 20 14 25t58 5q47 0 61 -5t13 -25l-62 -435q-3 -18 -13.5 -23t-45.5 -5t-46.5 5t-8.5 23z" />
<glyph unicode="#" horiz-adv-x="1216" d="M621 23l94 339h-316l-94 -339q-3 -17 -16.5 -22t-52.5 -5t-49.5 5t-6.5 22l94 339h-168q-13 0 -16.5 11t-1.5 43q3 31 9.5 43t19.5 12h188l92 328h-170q-13 0 -16 12t0 43q5 33 10 43t19 10h188l94 340q4 17 17.5 22t52.5 5q40 0 50.5 -5t4.5 -22l-94 -340h315l95 340 q4 17 17 22t52 5t50 -5t5 -22l-94 -340h166q15 0 18.5 -11t0.5 -42t-9.5 -43t-19.5 -12h-186l-93 -328h168q13 0 16.5 -12t0.5 -43q-3 -32 -8.5 -43t-18.5 -11h-188l-95 -339q-4 -17 -17 -22t-52 -5q-40 0 -50 5t-5 22zM522 799l-92 -328h315l93 328h-316z" />
<glyph unicode="$" horiz-adv-x="1173" d="M532 -188q-48 0 -61.5 6.5t-11.5 27.5l14 140q-186 13 -280.5 96.5t-77.5 251.5q2 20 16.5 26.5t61.5 6.5q48 0 60.5 -6t10.5 -27q-9 -105 49.5 -158.5t184.5 -62.5l55 520q-64 18 -112 38t-94 49t-75.5 64.5t-47 85.5t-17.5 111q0 372 414 391l14 137q2 21 15.5 28 t62.5 7q48 0 61.5 -7t11.5 -28l-14 -141q165 -18 241.5 -98t61.5 -240q0 -20 -14.5 -26.5t-63.5 -6.5q-47 0 -60 6t-11 27q10 99 -33.5 149t-147.5 62l-51 -496q94 -29 152.5 -55t107.5 -65.5t71 -94.5t22 -131q0 -192 -109.5 -296t-312.5 -119l-13 -138q-3 -21 -17 -27.5 t-63 -6.5zM891 391q0 84 -50.5 129.5t-162.5 79.5l-51 -487q264 28 264 278zM360 989q1 -86 50 -129.5t157 -77.5l47 461q-121 -8 -187.5 -65.5t-66.5 -188.5z" />
<glyph unicode="%" horiz-adv-x="1581" d="M489 1368q130 0 192 -63t62 -189q0 -61 -8.5 -114t-30.5 -103t-56 -85.5t-88 -57t-124 -21.5q-131 0 -193.5 62.5t-62.5 189.5q0 77 15 141.5t49 120.5t96.5 87.5t148.5 31.5zM440 836q183 0 183 278q0 80 -32.5 116t-105.5 36q-184 0 -184 -275q0 -82 32 -118.5 t107 -36.5zM1333 1329l-897 -1306q-10 -17 -26.5 -22t-59.5 -5q-14 0 -24 1.5t-15.5 4t-7.5 6.5t-1 8.5t5 10.5l897 1306q10 17 25.5 22t58.5 5q14 0 24.5 -1.5t16 -4t8 -6.5t1.5 -8.5t-5 -10.5zM1204 621q131 0 192.5 -62t61.5 -188q0 -62 -8.5 -115t-30.5 -103.5t-56 -86 t-88 -57t-124 -21.5q-130 0 -192 63t-62 189q0 78 15 142.5t48.5 120t95.5 87t148 31.5zM1155 90q184 0 184 277q0 80 -33 116.5t-106 36.5q-184 0 -184 -274q0 -82 33 -119t106 -37z" />
<glyph unicode="&#x26;" horiz-adv-x="1415" d="M1257 131q13 7 23 -5t16 -42q9 -37 7 -49.5t-17 -20.5q-57 -26 -133 -26q-160 0 -211 129q-125 -135 -362 -135q-451 0 -451 364q0 137 62.5 243.5t191.5 153.5q-150 54 -150 234q0 196 123 296.5t338 100.5q214 0 306 -77t77 -228q-2 -18 -16 -23.5t-60 -5.5 q-47 0 -57 5.5t-10 25.5q5 88 -47.5 131t-198.5 43q-144 0 -220.5 -60t-76.5 -206q0 -97 46.5 -138.5t156.5 -41.5h78q15 0 18 -12t-2 -50q-4 -40 -10 -51.5t-21 -11.5h-71q-130 0 -213.5 -87.5t-83.5 -228.5q0 -117 71.5 -183t227.5 -66q87 0 152.5 21t105 59t60 85 t26.5 105l31 295h-121q-15 0 -19.5 12t-1.5 51q5 39 10.5 50.5t20.5 11.5h438q15 0 19 -12t0 -50q-3 -40 -8.5 -51.5t-20.5 -11.5h-170l-33 -309l-4 -27q-4 -35 -4 -92q0 -77 24.5 -103t86.5 -26q39 0 77 14z" />
<glyph unicode="'" horiz-adv-x="415" d="M209 954l31 435q1 20 13.5 25t57.5 5q47 0 61 -5t13 -25l-61 -435q-3 -18 -14 -23t-46 -5t-46.5 5t-8.5 23z" />
<glyph unicode="(" horiz-adv-x="708" d="M156 164q0 125 7.5 246.5t25.5 248.5t45.5 237.5t69 208.5t94.5 168.5t124.5 111t155.5 40.5h35q16 0 18.5 -12t-2.5 -47q-3 -37 -8.5 -48t-22.5 -11h-30q-80 0 -146 -78.5t-107 -200.5t-69 -278.5t-39.5 -303.5t-11.5 -284q0 -214 48.5 -317t160.5 -103h31q16 0 19 -9.5 t1 -49.5q-5 -37 -10.5 -48.5t-22.5 -11.5h-35q-176 0 -253.5 132.5t-77.5 408.5z" />
<glyph unicode=")" horiz-adv-x="708" d="M553 885q0 -125 -7.5 -247t-25.5 -248.5t-45.5 -237t-69 -209t-94.5 -168.5t-124.5 -111t-155.5 -41h-35q-9 0 -13.5 2.5t-5.5 10.5t-0.5 17t3.5 30q3 38 8 48.5t22 10.5h31q80 0 146 78.5t107 200.5t69 278.5t39.5 303.5t11.5 284q0 214 -48.5 317t-160.5 103h-31 q-16 0 -19 9.5t-1 49.5q5 37 10 48t22 11h35q177 0 254.5 -132t77.5 -408z" />
<glyph unicode="*" horiz-adv-x="1054" d="M281 1190l280 -135l-4 323q0 20 16 27.5t60 7.5t58.5 -7.5t10.5 -27.5l-71 -323l309 135q19 9 29.5 -3.5t19.5 -56.5q9 -41 5.5 -57t-23.5 -20l-324 -66l193 -237q13 -13 2.5 -28.5t-49.5 -41.5q-38 -27 -54.5 -30t-23.5 16l-129 280l-191 -280q-12 -19 -28 -16t-48 30 q-33 26 -39.5 41.5t7.5 28.5l243 237l-309 66q-14 3 -18 10.5t0 23t18 43.5q17 43 30.5 56t29.5 4z" />
<glyph unicode="+" horiz-adv-x="1110" d="M688 1012l-33 -312h312q17 0 20.5 -12.5t-0.5 -52.5q-5 -41 -10.5 -53.5t-22.5 -12.5h-313l-31 -311q-2 -17 -15.5 -23t-55.5 -6q-43 0 -56.5 6t-11.5 23l33 311h-311q-17 0 -20.5 13t1.5 53q3 41 8.5 53t22.5 12h313l33 312q1 17 14 21.5t56 4.5q44 0 57 -4.5t10 -21.5z " />
<glyph unicode="," horiz-adv-x="485" d="M250 225q60 0 78 -8.5t8 -36.5q-35 -86 -103.5 -215.5t-121.5 -218.5q-15 -25 -74 -25q-27 0 -41 6.5t-8 20.5q106 258 151 440q6 24 25.5 30.5t85.5 6.5z" />
<glyph unicode="-" horiz-adv-x="815" d="M182 616h492q17 0 21 -11.5t1 -51.5q-5 -41 -10 -52.5t-22 -11.5h-492q-17 0 -20.5 12t0.5 52q3 31 5.5 41t7.5 16t17 6z" />
<glyph unicode="." horiz-adv-x="485" d="M201 -4q-60 0 -79 9t-16 38l15 137q1 31 20 39t80 8q63 0 82 -8t16 -39l-14 -137q-3 -29 -24 -38t-80 -9z" />
<glyph unicode="/" horiz-adv-x="724" d="M799 1430l-666 -1565q-8 -20 -24.5 -26.5t-71.5 -6.5q-45 0 -55.5 7t-1.5 26l665 1565q6 20 23 26t73 6q45 0 55.5 -6.5t2.5 -25.5z" />
<glyph unicode="0" horiz-adv-x="1161" d="M664 1290q212 0 307.5 -112.5t95.5 -352.5q0 -843 -522 -843q-211 0 -306.5 111.5t-95.5 350.5q0 846 521 846zM551 111q82 0 145 40t102.5 107t65 162.5t35.5 196.5t10 219q0 173 -57 248t-193 75q-82 0 -145 -40t-102.5 -107t-65 -162.5t-35.5 -196.5t-10 -219 q0 -173 57 -248t193 -75z" />
<glyph unicode="1" horiz-adv-x="847" d="M340 31l115 1093l-262 -73q-18 -3 -23.5 11.5t-3.5 47.5q6 45 12.5 58.5t24.5 17.5l389 104q38 9 35 -16l-131 -1243q-2 -21 -17 -28t-63 -7t-63 7t-13 28z" />
<glyph unicode="2" horiz-adv-x="1077" d="M633 1290q189 0 280 -82t91 -227q0 -76 -14.5 -139t-46 -113t-67.5 -89.5t-91.5 -77.5t-105.5 -67t-122 -68q-42 -22 -63 -34q-110 -59 -172.5 -120.5t-69.5 -143.5h649q17 0 20.5 -11.5t0.5 -51.5q-5 -43 -10 -54.5t-21 -11.5h-780q-18 0 -22.5 13t-0.5 53l4 32 q11 118 82 206.5t203 170.5q37 23 102.5 59t109 60.5t97 65t85.5 81.5t54.5 102.5t22.5 133.5q0 95 -52 140.5t-169 45.5q-140 0 -206 -53t-81 -172q-5 -20 -17 -26.5t-59 -6.5q-44 0 -58.5 6.5t-12.5 24.5q23 186 129.5 270t310.5 84z" />
<glyph unicode="3" horiz-adv-x="1071" d="M539 594h-121q-15 0 -19 11.5t0 49.5q3 39 9.5 51.5t21.5 12.5h127q131 0 195.5 65.5t64.5 204.5q0 92 -51 133t-170 41q-136 0 -201.5 -46t-79.5 -138q-3 -21 -15 -26t-58 -5q-47 0 -61 5.5t-11 23.5q38 313 432 313q190 0 281.5 -77.5t91.5 -219.5q0 -109 -48.5 -197.5 t-154.5 -131.5q174 -55 174 -258t-119 -313.5t-333 -110.5q-217 0 -320 80t-90 239q1 19 15.5 24t60.5 5q47 0 58 -5t11 -26q-5 -94 55 -142t205 -48q297 0 297 292q0 108 -62 150.5t-185 42.5z" />
<glyph unicode="4" horiz-adv-x="1110" d="M733 -4q-47 0 -62.5 7.5t-13.5 27.5l31 282h-604q-16 0 -19 17t3 57q5 52 24 76l619 784q13 19 36.5 25t79.5 6q68 0 92 -6t23 -27l-86 -805h166q17 0 20.5 -12.5t-0.5 -52.5q-5 -39 -11 -50.5t-23 -11.5h-166l-29 -282q-2 -21 -17 -28t-63 -7zM236 440h469l73 690z" />
<glyph unicode="5" horiz-adv-x="1026" d="M518 668q-150 0 -248 -45q-28 -11 -71 -11q-37 0 -52 6.5t-12 24.5l105 596q3 19 16.5 25t54.5 6h594q17 0 21.5 -13t-0.5 -53q-3 -41 -8.5 -53t-22.5 -12h-533l-71 -396q106 50 250 50q182 0 277 -85t95 -255q0 -216 -115 -343.5t-343 -127.5q-200 0 -297 80t-84 239 q1 19 15.5 24t60.5 5q48 0 58.5 -5t10.5 -26q-5 -94 51.5 -142t190.5 -48q148 0 220.5 88.5t72.5 251.5q0 111 -54.5 165t-181.5 54z" />
<glyph unicode="6" horiz-adv-x="1079" d="M846 1001q3 79 -49 119.5t-154 40.5q-304 0 -352 -497q45 59 128 90.5t181 31.5q186 0 275.5 -79.5t89.5 -237.5q0 -234 -112.5 -361.5t-332.5 -127.5q-207 0 -297 111.5t-90 322.5q0 160 15.5 289t52.5 240t95.5 186t146.5 117t202 42q165 0 260.5 -72t85.5 -217 q-3 -19 -17.5 -24.5t-60.5 -5.5t-57.5 5.5t-9.5 26.5zM281 516v-102q0 -55 6 -98.5t22.5 -84t43.5 -67t70 -42.5t101 -16q289 0 289 355q0 106 -51 154.5t-174 48.5q-103 0 -184.5 -39.5t-122.5 -108.5z" />
<glyph unicode="7" horiz-adv-x="974" d="M201 33q106 252 269 553.5t321 552.5h-603q-17 0 -20.5 12.5t0.5 52.5q5 41 10.5 53.5t22.5 12.5h743q17 0 21 -11.5t0 -46.5q-2 -23 -7.5 -41.5t-9 -24.5t-14.5 -24q-168 -266 -322 -555.5t-256 -535.5q-6 -20 -25.5 -27.5t-66.5 -7.5q-45 0 -57 8t-6 29z" />
<glyph unicode="8" horiz-adv-x="1120" d="M117 287q0 87 21 152t61 106.5t84.5 67t105.5 44.5q-86 33 -133 92t-47 166q0 187 114.5 281t321.5 94q191 0 286 -75t95 -214q0 -80 -18.5 -141t-53.5 -101t-76 -65t-96 -43q98 -33 153 -95t56 -177q0 -199 -123.5 -298t-343.5 -99q-205 0 -306 78.5t-101 226.5z M836 371q0 45 -13.5 80.5t-34 58.5t-54.5 41.5t-64.5 28.5t-75.5 22q-61 -13 -100 -24.5t-86 -35t-74 -54t-45.5 -79.5t-18.5 -114q0 -95 63.5 -140.5t196.5 -45.5q138 0 222 61.5t84 200.5zM360 920q0 -49 16.5 -86t50 -61t68 -39t85.5 -29q55 14 92 26t79 35t66 51.5 t40.5 74t16.5 103.5q0 89 -55 129.5t-178 40.5q-281 0 -281 -245z" />
<glyph unicode="9" horiz-adv-x="1079" d="M279 268q-3 -79 48.5 -119t153.5 -40q300 0 353 495q-46 -58 -129.5 -89.5t-180.5 -31.5q-185 0 -274.5 79.5t-89.5 238.5q0 234 112.5 361.5t331.5 127.5q207 0 297 -111.5t90 -322.5q0 -160 -15.5 -289t-52.5 -240t-95.5 -186t-146.5 -117t-202 -42q-165 0 -260.5 71.5 t-85.5 216.5q3 19 18 25t60 6q46 0 58 -6t10 -27zM844 856q0 69 -11 121t-37 96t-75.5 67t-120.5 23q-289 0 -289 -354q0 -106 51.5 -154.5t174.5 -48.5q103 0 183.5 38.5t121.5 107.5q2 39 2 104z" />
<glyph unicode=":" horiz-adv-x="526" d="M221 -4q-59 0 -78 9t-16 38l14 137q1 31 20.5 39t80.5 8q63 0 82 -8t16 -39l-14 -137q-3 -29 -24 -38t-81 -9zM301 766q-59 0 -78 9t-16 38l14 137q1 31 20.5 39t80.5 8q63 0 82 -8t16 -39l-14 -137q-3 -29 -24 -38t-81 -9z" />
<glyph unicode=";" horiz-adv-x="526" d="M301 766q-59 0 -78 9t-16 38l14 137q1 31 20.5 39t80.5 8q63 0 82 -8t16 -39l-14 -137q-3 -29 -24 -38t-81 -9zM268 225q60 0 78 -8.5t8 -36.5q-35 -86 -103.5 -215.5t-121.5 -218.5q-15 -25 -74 -25q-27 0 -41 6.5t-8 20.5q108 265 152 440q6 24 25 30.5t85 6.5z" />
<glyph unicode="&#x3c;" horiz-adv-x="1110" d="M184 635q4 34 9.5 51t10.5 22.5t17 12.5l694 471q17 11 28.5 3.5t33.5 -42.5q21 -33 22.5 -47.5t-16.5 -24.5l-657 -446l561 -445q17 -11 13 -24t-34 -47q-28 -36 -40.5 -43.5t-26.5 4.5l-596 471q-11 7 -14.5 12t-6.5 23t2 49z" />
<glyph unicode="=" horiz-adv-x="1110" d="M197 508h745q17 0 20.5 -13t-1.5 -53t-11.5 -52.5t-23.5 -12.5h-746q-15 0 -18 12t0 53q5 40 11.5 53t23.5 13zM233 893h746q17 0 20 -13t-2 -53t-11 -52.5t-23 -12.5h-746q-15 0 -18 12t0 53q5 41 11 53.5t23 12.5z" />
<glyph unicode="&#x3e;" horiz-adv-x="1110" d="M993 637q-4 -34 -9.5 -51t-10.5 -22.5t-17 -12.5l-694 -471q-17 -10 -28 -3t-33 42q-22 33 -22.5 47t16.5 24l657 447l-561 444q-17 11 -13 24.5t33 47.5q28 35 41 43t27 -4l596 -471q15 -10 18.5 -23t-0.5 -61z" />
<glyph unicode="?" horiz-adv-x="1114" d="M604 465l-8 -51q-3 -18 -15 -24.5t-53 -6.5q-40 0 -50.5 6t-10.5 25v51q2 57 26.5 106t61.5 84.5t81.5 68.5t88 66.5t79.5 70.5t58.5 88t22.5 112q0 90 -56 135t-184 45q-156 0 -228.5 -57t-86.5 -185q-3 -21 -16.5 -27.5t-61.5 -6.5q-46 0 -60.5 6.5t-11.5 25.5 q21 196 137 286.5t334 90.5q202 0 297.5 -84t95.5 -229q0 -74 -22 -134t-57.5 -100t-79 -73.5t-89 -63t-84.5 -59.5t-69 -72.5t-39 -93.5zM489 -4q-59 0 -78 9t-16 38l15 137q1 31 20 39t80 8q63 0 82 -8t16 -39l-14 -137q-3 -29 -24 -38t-81 -9z" />
<glyph unicode="@" horiz-adv-x="1798" d="M1130 575l29 283q-61 33 -180 33q-67 0 -116.5 -21t-80 -55t-49 -86.5t-25 -107.5t-6.5 -125q0 -105 42 -151t139 -46q109 0 171 70.5t76 205.5zM1135 -137h-271q-173 0 -298.5 30.5t-216 98t-135 181.5t-44.5 276q0 455 208 669.5t638 214.5q183 0 311 -33.5t206 -103 t113 -167.5t35 -236q0 -55 -2.5 -105.5t-11 -117t-23 -121.5t-40.5 -111t-61 -94.5t-87.5 -63t-116.5 -24.5q-106 0 -152.5 44t-53.5 126q-92 -144 -263 -144q-147 0 -224 75t-77 237q0 514 412 514q83 0 159 -16.5t122 -41.5q33 -17 30 -41l-49 -477q-21 -176 90 -176 q221 0 221 541q0 159 -51 250.5t-168.5 134.5t-322.5 43q-378 0 -546.5 -180t-168.5 -596q0 -113 24 -196t68 -137t116 -86.5t158.5 -45.5t204.5 -13h281q13 0 16 -9.5t0 -43.5q-5 -34 -10.5 -44.5t-19.5 -10.5z" />
<glyph unicode="A" horiz-adv-x="1169" d="M983 -4q-46 0 -60.5 7t-19.5 28q-27 166 -65 360h-508q-78 -190 -142 -360q-8 -21 -25 -28t-63 -7q-51 0 -66 7.5t-7 27.5q108 290 263.5 650.5t295.5 643.5q9 21 27 28t71 7q55 0 72 -7t22 -28q80 -288 160.5 -648t126.5 -646q4 -20 -13.5 -27.5t-68.5 -7.5zM666 1169 q-148 -321 -283 -645h428q-64 321 -145 645z" />
<glyph unicode="B" horiz-adv-x="1232" d="M371 631l-54 -496h287q76 0 135 14t108.5 45.5t76 90.5t26.5 143q0 118 -78.5 160.5t-244.5 42.5h-256zM694 1221h-262l-47 -457h270q67 0 121.5 14.5t97.5 45t67 84t24 126.5q0 99 -63.5 143t-207.5 44zM356 1356h351q213 0 315 -76.5t102 -230.5q0 -253 -225 -342 q213 -42 213 -279q0 -216 -131 -322t-371 -106h-395q-41 0 -55.5 7t-12.5 26l138 1290q2 19 16 26t55 7z" />
<glyph unicode="C" horiz-adv-x="1212" d="M162 678q21 194 57.5 321t103.5 213.5t167.5 124t248.5 37.5q102 0 179 -20t133.5 -64t81.5 -118.5t16 -178.5q-1 -20 -16 -26t-62 -6q-49 0 -63.5 6t-14.5 26q12 125 -49.5 184.5t-210.5 59.5q-69 0 -120.5 -10.5t-94.5 -36.5t-72.5 -66.5t-53 -104.5t-39 -146 t-27.5 -195q-13 -133 -13 -215q0 -133 31.5 -208t96.5 -105.5t180 -30.5q154 0 224.5 61.5t88.5 196.5q2 19 18 26t62 7q48 0 63 -7t13 -26q-24 -200 -136 -297.5t-340 -97.5q-251 0 -357.5 113t-106.5 374q0 95 12 209z" />
<glyph unicode="D" horiz-adv-x="1288" d="M317 137h275q114 0 186.5 24t122.5 88.5t76 164.5t43 264q14 140 14 207q0 190 -73.5 262t-255.5 72h-273zM586 0h-369q-41 0 -56 7t-14 26l138 1290q2 19 15.5 26t53.5 7h357q261 0 373 -113.5t112 -370.5q0 -86 -12 -194q-15 -149 -41.5 -256t-71 -190t-110.5 -132.5 t-158 -74.5t-217 -25z" />
<glyph unicode="E" horiz-adv-x="1138" d="M1053 1214h-621l-47 -448h549q18 0 22.5 -14t-0.5 -58q-3 -43 -9.5 -55t-24.5 -12h-553l-52 -486h625q18 0 23.5 -14t1.5 -57q-4 -44 -11 -57t-24 -13h-715q-41 0 -56 7t-14 26l138 1290q2 19 15.5 26t53.5 7h709q18 0 23 -14.5t1 -57.5q-5 -44 -11 -57t-23 -13z" />
<glyph unicode="F" horiz-adv-x="1050" d="M369 627l-62 -596q-2 -21 -17 -28t-65 -7q-49 0 -64.5 7t-13.5 28l138 1292q2 19 15.5 26t53.5 7h688q18 0 23 -14t2 -58q-4 -42 -12 -56t-25 -14h-598l-47 -448h535q18 0 24 -14t0 -56q-4 -44 -11 -56.5t-24 -12.5h-540z" />
<glyph unicode="G" horiz-adv-x="1259" d="M1073 678q41 0 55.5 -7.5t12.5 -27.5l-25 -217q-23 -226 -142.5 -335t-342.5 -109q-248 0 -363.5 119.5t-115.5 394.5q0 72 10 182q21 192 58 319t104 214t168 125t249 38q224 0 333 -93t89 -271q-2 -21 -17.5 -28t-64.5 -7q-46 0 -60.5 7t-12.5 28q11 114 -57 170.5 t-216 56.5q-138 0 -216.5 -49.5t-123.5 -168t-69 -341.5q-11 -96 -11 -186q0 -143 36 -225.5t104 -115t182 -32.5q157 0 232 73.5t94 241.5l10 107h-299q-19 0 -25 12.5t0 54.5q4 44 11 57t24 13h389z" />
<glyph unicode="H" horiz-adv-x="1327" d="M1018 -4q-49 0 -64.5 7t-13.5 28l61 594h-632l-62 -594q-2 -21 -17 -28t-65 -7q-49 0 -64.5 7t-13.5 28l138 1294q2 21 17 28t63 7q50 0 65 -7t12 -28l-57 -557h633l59 557q2 21 17 28t65 7q49 0 64 -7t12 -28l-135 -1294q-2 -21 -17 -28t-65 -7z" />
<glyph unicode="I" horiz-adv-x="542" d="M229 -4q-48 0 -62.5 7t-12.5 28l135 1294q3 21 18 28t64 7t64.5 -7t13.5 -28l-138 -1294q-2 -21 -17 -28t-65 -7z" />
<glyph unicode="J" horiz-adv-x="1050" d="M721 473l88 852q3 21 18 28t64 7t65 -7.5t13 -27.5l-90 -860q-27 -253 -127.5 -368t-317.5 -115q-354 0 -354 325q0 20 4 70q2 19 18 26t62 7q48 0 63 -7t13 -26q-12 -132 35 -193t167 -61q140 0 199 80t80 270z" />
<glyph unicode="K" horiz-adv-x="1171" d="M1184 1323l-516 -604l405 -686q21 -30 -35 -36q-12 -1 -28 -1q-57 0 -79 6.5t-34 26.5l-360 616h-162l-68 -614q-3 -21 -18 -28t-64 -7t-64.5 7t-13.5 28l138 1294q2 21 17 28t63 7q51 0 70 -7.5t16 -27.5l-60 -537h156l452 539q15 19 40 26t81 7q74 0 71 -24 q-1 -6 -7 -13z" />
<glyph unicode="L" horiz-adv-x="1003" d="M442 1325l-125 -1188h560q18 0 24 -13.5t0 -55.5q-5 -44 -10.5 -56t-22.5 -12h-651q-41 0 -56 7t-14 26l138 1292q2 21 17 28t63 7q50 0 65 -7t12 -28z" />
<glyph unicode="M" horiz-adv-x="1607" d="M778 150q-48 0 -62.5 6.5t-19.5 27.5l-276 965l-117 -1118q-2 -21 -17 -28t-63 -7q-47 0 -62.5 7.5t-13.5 27.5l138 1294q2 21 25.5 28t92.5 7q59 0 85 -7.5t30 -27.5l281 -977l483 977q11 20 36 27.5t85 7.5q69 0 93.5 -7.5t21.5 -27.5l-136 -1294q-2 -21 -17.5 -28 t-61.5 -7q-48 0 -63 7t-13 28l116 1118l-477 -965q-9 -21 -24 -27.5t-64 -6.5z" />
<glyph unicode="N" horiz-adv-x="1335" d="M1169 1360q47 0 63 -7.5t13 -27.5l-137 -1294q0 -21 -18.5 -28t-79.5 -7q-48 0 -63.5 6t-24.5 25l-506 1087l-113 -1083q-2 -21 -17 -28t-63 -7q-47 0 -62.5 7.5t-13.5 27.5l138 1294q2 21 19.5 28t78.5 7q48 0 64.5 -6t25.5 -25l502 -1083l115 1079q3 21 17 28t62 7z " />
<glyph unicode="O" horiz-adv-x="1298" d="M743 1374q245 0 354 -116t109 -379q0 -90 -12 -201q-20 -192 -58.5 -320.5t-107.5 -214.5t-170 -123.5t-246 -37.5q-246 0 -353 116.5t-107 380.5q0 109 10 199q40 380 168.5 538t412.5 158zM618 119q102 0 169.5 25t118.5 89t80 171t46 274q12 120 12 207 q0 199 -70.5 275.5t-236.5 76.5q-135 0 -214 -48t-126 -168t-71 -343q-13 -127 -13 -205q0 -201 69.5 -277.5t235.5 -76.5z" />
<glyph unicode="P" horiz-adv-x="1179" d="M618 512h-262l-49 -481q-2 -21 -17 -28t-65 -7q-49 0 -64.5 7t-13.5 28l138 1292q2 19 15.5 26t53.5 7h336q230 0 335 -83t105 -263q0 -24 -4 -78q-22 -223 -140 -321.5t-368 -98.5zM432 1219l-61 -574h250q175 0 250.5 59.5t93.5 227.5q4 54 4 72q0 124 -66.5 169.5 t-222.5 45.5h-248z" />
<glyph unicode="Q" horiz-adv-x="1298" d="M743 1374q245 0 354 -116t109 -379q0 -90 -12 -201q-34 -336 -137 -496t-318 -192q42 -59 132 -94t192 -37q17 0 21 -12.5t1 -57.5q-4 -43 -12 -55.5t-26 -12.5q-145 0 -270 72.5t-195 188.5q-228 6 -329 123t-101 374q0 109 10 199q40 380 168.5 538t412.5 158zM618 119 q102 0 169.5 25t118.5 89t80 171t46 274q12 120 12 207q0 199 -70.5 275.5t-236.5 76.5q-135 0 -214 -48t-126 -168t-71 -343q-13 -127 -13 -205q0 -201 69.5 -277.5t235.5 -76.5z" />
<glyph unicode="R" horiz-adv-x="1214" d="M578 555h-216l-55 -524q-2 -21 -17 -28t-65 -7q-49 0 -64.5 7t-13.5 28l138 1292q2 19 15.5 26t53.5 7h336q228 0 335.5 -83t107.5 -253q0 -10 -5 -72q-17 -145 -90.5 -233t-206.5 -125q69 -27 109 -91.5t70 -189.5q47 -172 57 -278q2 -20 -12 -27.5t-72 -7.5 q-50 0 -68.5 7.5t-21.5 25.5q-12 98 -45 252q-16 66 -35 112t-49.5 85t-76.5 58t-109 19zM432 1219l-57 -533h250q172 0 248.5 57.5t91.5 208.5q4 40 4 58q0 118 -66 163.5t-223 45.5h-248z" />
<glyph unicode="S" horiz-adv-x="1177" d="M559 115q326 0 326 272q0 96 -62.5 142.5t-212.5 84.5q-75 20 -129.5 39t-109 49.5t-88.5 67t-55 90t-21 119.5q0 200 118 297.5t339 97.5q220 0 322 -80.5t87 -263.5q-2 -20 -16.5 -26.5t-61.5 -6.5q-49 0 -62 6t-11 27q12 115 -51 163t-207 48q-66 0 -117.5 -12 t-95 -39.5t-66.5 -78.5t-23 -124q0 -31 7.5 -56.5t18.5 -45t34 -36.5t42.5 -28.5t57.5 -25.5t66 -22.5t78 -22.5q85 -25 136.5 -44t103 -48t78.5 -63t43.5 -83t16.5 -115q0 -208 -127.5 -311.5t-363.5 -103.5q-221 0 -336.5 83.5t-101.5 268.5q1 20 17 26.5t63 6.5 q48 0 60.5 -6t12.5 -27q-12 -116 63 -167.5t228 -51.5z" />
<glyph unicode="T" horiz-adv-x="1073" d="M1059 1214h-357l-124 -1183q-2 -21 -17.5 -28t-64.5 -7q-50 0 -65 7t-13 28l125 1183h-355q-18 0 -23 14.5t-1 57.5q4 44 11 57t24 13h872q18 0 23 -13.5t2 -56.5q-4 -44 -11.5 -58t-25.5 -14z" />
<glyph unicode="U" horiz-adv-x="1300" d="M614 -18q-227 0 -331.5 94t-104.5 297q0 49 6 108l88 844q3 21 18 28t64 7t64.5 -7t13.5 -28l-88 -836q-6 -55 -6 -98q0 -142 64.5 -203t220.5 -61q178 0 254.5 81.5t97.5 280.5l88 836q3 21 18 28t64 7t64 -7t12 -28l-88 -844q-28 -265 -145.5 -382t-373.5 -117z" />
<glyph unicode="V" horiz-adv-x="1161" d="M1120 1360q51 0 67 -7.5t9 -27.5q-295 -759 -559 -1294q-8 -21 -27 -28t-73 -7q-53 0 -70 7t-23 28q-74 272 -152.5 631.5t-131.5 662.5q-3 20 15 27.5t69 7.5q50 0 65.5 -7t18.5 -28q112 -634 233 -1132q210 455 475 1132q8 21 23 28t61 7z" />
<glyph unicode="W" horiz-adv-x="1818" d="M1755 1360q50 0 66 -7.5t10 -27.5q-93 -292 -231.5 -665t-251.5 -629q-8 -21 -27.5 -28t-69.5 -7q-49 0 -64 7t-20 28q-74 370 -184 1081q-247 -687 -412 -1081q-6 -21 -23 -28t-67 -7q-49 0 -65.5 7t-22.5 28q-60 264 -121 638.5t-90 655.5q-2 20 15.5 27.5t66.5 7.5 q48 0 63 -7t17 -28q58 -534 160 -1116q205 530 416 1116q6 21 23 28t67 7t67 -7t19 -28q77 -548 180 -1116q220 569 393 1116q8 21 23 28t63 7z" />
<glyph unicode="X" horiz-adv-x="1171" d="M752 698l311 -665q8 -20 -7 -28.5t-63 -8.5q-54 0 -74.5 6.5t-29.5 26.5l-271 598h-22l-395 -598q-10 -20 -31 -26.5t-74 -6.5q-33 0 -50 4t-19.5 12.5t4.5 20.5l450 665l-305 625q-6 20 7.5 28.5t62.5 8.5q53 0 73 -6.5t27 -26.5l264 -561h23l385 561q12 20 32 26.5 t72 6.5q73 0 73 -21q0 -7 -7 -16z" />
<glyph unicode="Y" horiz-adv-x="1130" d="M993 1325q11 22 25.5 28.5t62.5 6.5q89 0 89 -22q0 -6 -5 -15q-97 -173 -245.5 -413.5t-264.5 -411.5h-2l-47 -467q-2 -21 -17.5 -28t-64.5 -7q-50 0 -65 7t-13 28l50 467q-77 169 -176 409.5t-162 415.5q-6 21 10 29t74 8q48 0 62 -6.5t20 -28.5q126 -381 262 -686 q238 370 407 686z" />
<glyph unicode="Z" horiz-adv-x="1118" d="M256 1356h803q20 0 24.5 -16t-0.5 -60q-6 -48 -22 -72l-799 -1071h682q19 0 25 -12.5t0 -54.5q-3 -44 -9.5 -57t-23.5 -13h-838q-19 0 -23.5 15t1.5 59q3 43 20 69l799 1076h-651q-18 0 -23 12t-2 55q6 44 13 57t24 13z" />
<glyph unicode="[" horiz-adv-x="708" d="M123 -342l182 1733q2 18 14 24t48 6h317q17 0 20.5 -11.5t0.5 -47.5q-6 -49 -13 -55q-6 -4 -16 -4h-246l-164 -1557h242q17 0 20.5 -11t-0.5 -48q-3 -39 -7.5 -49.5t-20.5 -10.5h-318q-37 0 -49 6.5t-10 24.5z" />
<glyph unicode="\" horiz-adv-x="724" d="M479 -135l-336 1565q-5 19 7.5 25.5t58.5 6.5q55 0 70 -6t20 -26l336 -1565q3 -20 -9 -26.5t-57 -6.5q-55 0 -71 6.5t-19 26.5z" />
<glyph unicode="]" horiz-adv-x="708" d="M586 1391l-183 -1733q-2 -18 -13.5 -24.5t-47.5 -6.5h-317q-17 0 -20.5 11.5t-0.5 48.5q6 49 13 55q5 4 16 4h246l163 1557h-241q-17 0 -20.5 10.5t-0.5 48.5t8 48.5t21 10.5h317q38 0 50 -6t10 -24z" />
<glyph unicode="^" horiz-adv-x="1110" d="M655 1366q43 0 57.5 -4t20.5 -19l283 -620q9 -20 -5 -27.5t-61 -7.5q-46 0 -65.5 6t-28.5 25l-213 483l-313 -483q-13 -19 -34 -25t-69 -6q-69 0 -70 18q0 7 7 17l409 620q12 15 26 19t56 4z" />
<glyph unicode="_" horiz-adv-x="808" d="M725 -248h-770q-17 0 -21 11.5t0 48.5q3 37 8 48t19 11h772q17 0 21.5 -11.5t1.5 -47.5q-5 -39 -10 -49.5t-21 -10.5z" />
<glyph unicode="`" horiz-adv-x="669" d="M547 1128l-303 160q-19 7 -17.5 21.5t27.5 50.5q27 37 40.5 44.5t27.5 -5.5l282 -195q14 -8 13.5 -16.5t-17.5 -34.5q-19 -26 -29 -30t-24 5z" />
<glyph unicode="a" d="M344 729q-2 -19 -16.5 -25t-59.5 -6q-49 0 -60.5 5.5t-8.5 27.5q30 281 387 281q206 0 288 -81t64 -245l-70 -659q-1 -20 -14.5 -25.5t-58.5 -5.5t-58 5.5t-12 25.5l10 112q-44 -67 -126.5 -110t-198.5 -43q-158 0 -238 64.5t-80 182.5q0 155 98.5 235.5t272.5 80.5h311 l14 135q10 113 -36.5 158t-169.5 45q-115 0 -172 -38t-66 -120zM760 434h-299q-219 0 -219 -190q0 -71 48 -104.5t132 -33.5q134 0 227 68t105 178z" />
<glyph unicode="b" horiz-adv-x="1146" d="M424 1389l-53 -508q108 131 313 131q358 0 358 -391q0 -55 -6 -117q-29 -272 -135.5 -397t-312.5 -125q-221 0 -303 147l-13 -102q-1 -20 -14.5 -25.5t-58.5 -5.5t-58 5.5t-12 25.5l143 1362q2 20 15.5 26t60.5 6t62 -6t14 -26zM330 496q-6 -59 -6 -107q0 -146 57.5 -212 t191.5 -66q150 0 218 89t90 304q8 86 8 117q0 135 -55 197.5t-181 62.5q-155 0 -228.5 -90.5t-94.5 -294.5z" />
<glyph unicode="c" horiz-adv-x="1034" d="M602 881q-156 0 -224.5 -87.5t-90.5 -297.5q-8 -86 -8 -119q0 -141 56 -203.5t191 -62.5q216 0 236 153q2 19 18.5 26t61.5 7q46 0 56.5 -6t10.5 -29q-20 -138 -119 -209t-268 -71q-208 0 -302.5 95.5t-94.5 299.5q0 54 6 119q28 270 138 393t341 123q169 0 262.5 -72 t81.5 -201q-2 -22 -15 -28t-62 -6q-45 0 -58.5 6.5t-11.5 25.5q6 71 -48 107.5t-157 36.5z" />
<glyph unicode="d" horiz-adv-x="1146" d="M797 27l6 92q-111 -137 -320 -137q-183 0 -270.5 97t-87.5 294q0 55 6 116q29 272 136 397.5t313 125.5q213 0 297 -142l55 519q1 20 16.5 26t61.5 6q47 0 60.5 -6t12.5 -26l-143 -1362q-1 -20 -16 -25.5t-60 -5.5t-56.5 5.5t-10.5 25.5zM838 496q6 59 6 106 q0 146 -58 212.5t-192 66.5q-150 0 -217.5 -88.5t-89.5 -303.5q-8 -86 -8 -116q0 -136 54.5 -199t178.5 -63q156 0 230.5 91t95.5 294z" />
<glyph unicode="e" d="M918 451h-642q-2 -23 -2 -68q0 -142 61 -207t197 -65q103 0 161 37t69 106q5 19 19 25t59 6q47 0 58.5 -5.5t8.5 -27.5q-19 -130 -116 -200t-263 -70q-208 0 -306.5 97t-98.5 298q0 51 6 106q30 277 142.5 403t338.5 126q357 0 357 -348q0 -26 -4 -84l-5 -52 q-6 -49 -13 -63t-27 -14zM604 883q-142 0 -213 -72.5t-100 -243.5h528l4 45q4 40 4 64q0 100 -50.5 153.5t-172.5 53.5z" />
<glyph unicode="f" horiz-adv-x="702" d="M657 866h-233l-88 -837q-2 -20 -16 -26.5t-60 -6.5q-47 0 -60.5 6.5t-11.5 26.5l88 837h-135q-17 0 -20.5 12t0.5 50q5 40 9.5 50.5t21.5 10.5l137 4l14 123q17 168 90 242t225 74q105 0 173 -33q14 -6 13 -19.5t-18 -48.5q-18 -35 -27.5 -43.5t-23.5 -3.5 q-59 19 -108 19q-92 0 -129.5 -43.5t-48.5 -151.5l-13 -115h234q15 0 18.5 -12.5t-0.5 -50.5q-3 -40 -8.5 -52t-22.5 -12z" />
<glyph unicode="g" horiz-adv-x="1107" d="M219 -102q-19 -160 244 -160q44 0 82.5 5.5t76 20.5t63.5 38t42 60t16 85q0 86 -61 129.5t-174 64.5q-377 0 -377 351q0 57 4 86q24 221 130 328.5t319 107.5q101 0 188 -33l287 23q19 1 23 -11.5t1 -54.5q-3 -40 -9 -52t-25 -12h-142q56 -86 56 -219q0 -9 -5 -82 q-35 -300 -229 -389q164 -71 164 -231q0 -89 -33 -156t-92.5 -107t-136.5 -59.5t-170 -19.5q-202 0 -302 73t-87 212q3 22 15.5 27t59.5 5q46 0 59.5 -5.5t12.5 -24.5zM514 266q139 0 209 75.5t88 231.5q4 54 4 72q0 122 -57 183t-180 61q-143 0 -210 -74.5t-85 -236.5 q-4 -54 -4 -74q0 -122 55 -180t180 -58z" />
<glyph unicode="h" horiz-adv-x="1142" d="M424 1389l-57 -533q43 65 127 110.5t208 45.5q148 0 231 -73.5t83 -225.5q0 -18 -4 -64l-66 -620q-1 -20 -16.5 -26.5t-61.5 -6.5q-47 0 -61 6.5t-12 26.5l65 622q12 119 -35 173.5t-157 54.5q-135 0 -224.5 -76.5t-103.5 -200.5l-59 -573q-1 -20 -16.5 -26.5t-61.5 -6.5 q-47 0 -61.5 6.5t-12.5 26.5l143 1360q2 20 15.5 26t60.5 6t62 -6t14 -26z" />
<glyph unicode="i" horiz-adv-x="493" d="M131 29l98 936q1 20 16.5 26t61.5 6q48 0 61.5 -6t12.5 -26l-98 -936q-2 -20 -16.5 -26.5t-61.5 -6.5q-46 0 -60.5 6.5t-13.5 26.5zM346 1376q57 0 72 -8t12 -39l-14 -133q-3 -30 -18.5 -38.5t-69.5 -8.5q-55 0 -70 9t-12 38l14 133q3 31 17 39t69 8z" />
<glyph unicode="j" horiz-adv-x="512" d="M-76 -246q3 0 22.5 -3t33.5 -3q54 0 84 17.5t50 67.5t31 147l103 985q1 20 16.5 26t61.5 6q47 0 60.5 -6t12.5 -26l-102 -992q-12 -108 -36 -178t-63 -108.5t-85.5 -53t-114.5 -14.5t-92 6q-15 4 -17.5 16t0.5 50q5 39 11.5 51t23.5 12zM365 1376q57 0 70.5 -8t10.5 -39 l-14 -133q-2 -30 -17.5 -38.5t-70.5 -8.5t-69 8.5t-11 38.5l15 133q2 31 16 39t70 8z" />
<glyph unicode="k" horiz-adv-x="993" d="M424 1389l-84 -785h111l350 354q23 24 43.5 31.5t73.5 7.5q81 0 78 -26q-1 -7 -9 -15l-416 -415l328 -506q19 -28 -14 -35q-18 -4 -51 -4q-55 0 -72 6.5t-35 30.5l-287 444h-112l-47 -448q-1 -20 -16.5 -26.5t-61.5 -6.5q-47 0 -61.5 6.5t-12.5 26.5l143 1360 q2 20 15.5 26t60.5 6t62 -6t14 -26z" />
<glyph unicode="l" horiz-adv-x="518" d="M377 133h29q17 0 21 -12t1 -53q-5 -43 -10.5 -55.5t-22.5 -12.5h-45q-120 0 -166 45t-34 158l124 1186q1 20 16 26t62 6q46 0 60.5 -6t13.5 -26l-123 -1172q-4 -47 12 -65.5t62 -18.5z" />
<glyph unicode="m" horiz-adv-x="1728" d="M371 967l-9 -119q42 66 129.5 115t194.5 49q222 0 272 -191q58 86 150 138.5t201 52.5q138 0 215.5 -70.5t77.5 -218.5q0 -11 -5 -68l-65 -626q-1 -20 -16.5 -26.5t-61.5 -6.5q-47 0 -61.5 6.5t-12.5 26.5l66 628q12 117 -28 169.5t-140 52.5q-113 0 -202.5 -72.5 t-106.5 -185.5v-11l-64 -581q-2 -20 -16.5 -26.5t-61.5 -6.5q-46 0 -60 6.5t-13 26.5l65 628q12 117 -27.5 169.5t-138.5 52.5q-117 0 -208 -77t-103 -196l-61 -577q-1 -20 -16.5 -26.5t-61.5 -6.5q-47 0 -61.5 6.5t-12.5 26.5l98 938q3 20 17 25t59 5q46 0 58.5 -5t9.5 -25 z" />
<glyph unicode="n" horiz-adv-x="1142" d="M371 967l-9 -119q44 70 129.5 117t210.5 47q148 0 231 -72.5t83 -222.5q0 -18 -4 -64l-66 -624q-1 -20 -16.5 -26.5t-61.5 -6.5q-47 0 -61 6.5t-12 26.5l65 626q12 117 -35 170.5t-157 53.5q-136 0 -225 -75.5t-101 -197.5l-61 -577q-1 -20 -16.5 -26.5t-61.5 -6.5 q-47 0 -61.5 6.5t-12.5 26.5l98 938q3 20 16 25t58 5q46 0 59.5 -5t10.5 -25z" />
<glyph unicode="o" horiz-adv-x="1105" d="M610 1012q207 0 300.5 -95.5t93.5 -298.5q0 -47 -7 -122q-28 -268 -138.5 -391t-342.5 -123q-207 0 -299 94.5t-92 296.5q0 59 6 123q28 270 138 393t341 123zM522 111q157 0 226.5 87.5t93.5 297.5q8 90 8 120q0 141 -57 203t-189 62q-157 0 -226 -87.5t-91 -297.5 q-8 -90 -8 -121q0 -139 56 -201.5t187 -62.5z" />
<glyph unicode="p" horiz-adv-x="1146" d="M371 967l-6 -93q109 138 319 138q358 0 358 -391q0 -55 -6 -117q-29 -272 -135.5 -397t-312.5 -125q-216 0 -299 139l-47 -461q-1 -20 -16.5 -26.5t-61.5 -6.5q-47 0 -61.5 6.5t-12.5 26.5l137 1307q3 20 16 25t58 5q46 0 59.5 -5t10.5 -25zM330 496q-6 -59 -6 -107 q0 -146 57.5 -212t191.5 -66q150 0 218 89t90 304q8 86 8 117q0 135 -55 197.5t-181 62.5q-155 0 -228.5 -90.5t-94.5 -294.5z" />
<glyph unicode="q" horiz-adv-x="1146" d="M823 -373q-47 0 -61 6.5t-12 26.5l47 451q-108 -129 -314 -129q-183 0 -270.5 97t-87.5 294q0 55 6 116q29 272 136 397.5t313 125.5q220 0 301 -150l14 105q3 20 16 25t58 5q46 0 59 -5t10 -25l-137 -1307q-2 -20 -16.5 -26.5t-61.5 -6.5zM838 496q6 59 6 106 q0 146 -58 212.5t-192 66.5q-150 0 -217.5 -88.5t-89.5 -303.5q-8 -86 -8 -116q0 -136 54.5 -199t178.5 -63q156 0 230.5 91t95.5 294z" />
<glyph unicode="r" horiz-adv-x="741" d="M709 856q-158 0 -258 -76.5t-113 -208.5l-57 -542q-1 -20 -16.5 -26.5t-61.5 -6.5q-47 0 -61.5 6.5t-12.5 26.5l98 938q3 20 16 25t58 5q46 0 59.5 -5t10.5 -25l-13 -154q49 83 142 139t219 56q21 0 26 -14.5t0 -61.5q-5 -49 -10.5 -62.5t-25.5 -13.5z" />
<glyph unicode="s" horiz-adv-x="1005" d="M240 254q-2 -76 52.5 -112t186.5 -36q244 0 244 177q0 67 -54.5 100t-174.5 57q-79 15 -137 35t-104 51t-69.5 76.5t-23.5 106.5q0 303 381 303q186 0 275.5 -65t74.5 -202q-3 -19 -17.5 -24.5t-60.5 -5.5q-49 0 -59.5 5.5t-10.5 27.5q3 73 -42.5 106t-163.5 33 q-45 0 -82.5 -7.5t-72 -24.5t-54 -50.5t-19.5 -81.5q0 -22 6 -39.5t15 -30.5t27.5 -25t34.5 -19.5t46.5 -16.5t53.5 -14.5t63 -14.5q64 -15 106 -27.5t85.5 -34t68 -48t40 -66.5t15.5 -92q0 -313 -395 -313q-208 0 -302 71.5t-81 198.5q3 22 16 27.5t60 5.5q45 0 58.5 -6 t13.5 -25z" />
<glyph unicode="t" horiz-adv-x="745" d="M666 866h-252l-62 -587q-9 -94 14.5 -128t92.5 -34q63 0 110 20q14 7 23.5 -4.5t15.5 -42.5q10 -37 8 -49.5t-16 -20.5q-66 -32 -156 -32q-126 0 -185.5 51t-59.5 170q0 19 4 59l63 598h-129q-15 0 -18.5 12t0.5 50q3 41 7.5 51t20.5 10l132 4l26 242q2 20 16 26.5 t60 6.5q47 0 61.5 -6.5t12.5 -26.5l-27 -242h250q17 0 21 -12.5t-1 -50.5q-5 -41 -10 -52.5t-22 -11.5z" />
<glyph unicode="u" horiz-adv-x="1128" d="M776 27l8 118q-100 -163 -307 -163q-175 0 -261.5 89.5t-68.5 268.5l66 625q1 20 16.5 26t61.5 6q48 0 61.5 -6t12.5 -26l-64 -615q-12 -122 38 -180.5t171 -58.5q126 0 205.5 78.5t93.5 201.5l59 574q1 20 16 26t62 6q48 0 61.5 -6t12.5 -26l-98 -938 q-1 -20 -15.5 -25.5t-58.5 -5.5q-46 0 -59.5 5.5t-12.5 25.5z" />
<glyph unicode="v" horiz-adv-x="985" d="M911 997q50 0 63 -8t5 -31q-76 -195 -197 -459t-229 -476q-9 -17 -30 -22t-74 -5q-51 0 -71 5t-26 22q-62 200 -127.5 466t-101.5 469q-3 23 11.5 31t64.5 8q48 0 64.5 -8t19.5 -28q76 -468 178 -834q200 400 364 834q7 21 22.5 28.5t63.5 7.5z" />
<glyph unicode="w" horiz-adv-x="1513" d="M1415 997q49 0 62.5 -6.5t11.5 -23.5q-5 -24 -12 -41q-180 -500 -361 -903q-6 -17 -25.5 -22t-66.5 -5q-43 0 -55 4.5t-17 22.5q-76 327 -153 776q-150 -392 -316 -776q-7 -17 -22.5 -22t-59.5 -5q-45 0 -62.5 5t-21.5 22q-77 307 -170 903q-5 36 -4 41q2 17 15.5 23.5 t62.5 6.5q47 0 61.5 -9t16.5 -32q43 -380 119 -774q155 375 311 779q6 20 24.5 28t65.5 8q48 0 62.5 -7.5t17.5 -28.5q48 -301 145 -779q151 374 281 774q8 23 25.5 32t64.5 9z" />
<glyph unicode="x" horiz-adv-x="970" d="M692 33l-190 413h-27l-282 -413q-16 -24 -31.5 -30.5t-67.5 -6.5q-70 0 -69 24q1 7 6 15l340 477l-234 444q-9 19 9.5 30t64.5 11q51 0 64 -6.5t26 -32.5l188 -385h25l274 385q16 25 32 32t67 7q31 0 48.5 -5t21 -14t-4.5 -22l-325 -444l235 -477q9 -19 -9 -29t-65 -10 q-52 0 -68 6.5t-28 30.5z" />
<glyph unicode="y" horiz-adv-x="1013" d="M150 -252q49 0 80 8.5t62 38t55 67t67 113.5l10 23q-41 3 -49 25q-65 192 -135.5 458t-114.5 477q-5 22 9.5 30.5t64.5 8.5q48 0 64.5 -8t19.5 -28q76 -422 202 -850q98 191 201 428.5t170 421.5q7 20 22 28t60 8q48 0 62 -8.5t8 -32.5q-66 -192 -199 -480t-260 -517 q-30 -54 -47 -84.5t-41.5 -70t-41.5 -60t-40.5 -45.5t-44.5 -37t-49 -23.5t-59 -15.5t-68 -4q-65 0 -105 10q-15 3 -18 14.5t2 49.5q3 39 9.5 51t23.5 12q3 0 12.5 -2t27.5 -4t40 -2z" />
<glyph unicode="z" horiz-adv-x="983" d="M899 885l-633 -762h547q17 0 21.5 -12t1.5 -50q-5 -40 -9.5 -50.5t-21.5 -10.5h-709q-15 0 -19 10.5t-1 42.5q3 34 14 51l637 766h-520q-18 0 -22.5 11.5t-0.5 50.5q5 40 9.5 50.5t21.5 10.5h680q15 0 19 -12.5t-1 -44.5q-3 -40 -14 -51z" />
<glyph unicode="{" horiz-adv-x="708" d="M70 524q5 40 10 52t22 12h50q41 0 63 22t39 89t33 204q6 57 10 92.5t11 83t14.5 77.5t19 67t25 59.5t32 47.5t42 39.5t52 27.5t64.5 18.5t78 5.5h70q17 0 21 -12t-1 -47q-3 -40 -7 -49.5t-20 -9.5h-67q-38 0 -66 -9.5t-48.5 -34t-34 -53t-24.5 -81t-18 -102.5t-16 -132 q-21 -182 -58.5 -262t-99.5 -105q44 -21 67 -69.5t23 -147.5q0 -54 -10 -149q-16 -147 -16 -230q0 -98 29.5 -140t105.5 -42h65q16 0 19.5 -10t1.5 -49q-5 -38 -10 -49t-21 -11h-69q-147 0 -204 71t-57 216q0 85 17 231q12 123 12 191q0 76 -17 100.5t-61 24.5h-49 q-17 0 -21.5 12.5t-0.5 50.5z" />
<glyph unicode="|" horiz-adv-x="647" d="M399 1389v-1770q0 -20 -14.5 -26.5t-60.5 -6.5q-47 0 -61.5 6.5t-14.5 26.5v1770q0 20 14.5 26t61.5 6q46 0 60.5 -6t14.5 -26z" />
<glyph unicode="}" horiz-adv-x="708" d="M639 524q-5 -40 -10.5 -51.5t-22.5 -11.5h-49q-41 0 -63 -22t-39 -89t-33 -205q-6 -57 -10 -92.5t-11 -83t-14.5 -77.5t-19 -67t-25 -59.5t-32 -47.5t-42 -39.5t-52 -27.5t-64.5 -18.5t-78 -5.5h-70q-17 0 -21 12.5t1 47.5q4 49 10 54q4 5 16 5h68q38 0 66 9.5t48.5 34 t34 53t24.5 81t18 102.5t16 132q21 183 58 262t99 104q-44 21 -67 69.5t-23 147.5q0 55 10 150q17 156 17 229q0 98 -29.5 140.5t-105.5 42.5h-66q-16 0 -19 9.5t-1 49.5q4 28 6 37.5t7.5 15.5t16.5 6h70q147 0 203.5 -70.5t56.5 -215.5q0 -94 -16 -232q-13 -133 -13 -190 q0 -76 17 -100.5t61 -24.5h49q18 0 22.5 -13t0.5 -51z" />
<glyph unicode="~" horiz-adv-x="1110" d="M516 678l164 -96q49 -27 78 -27q38 0 72 29t57 82q6 12 43 12q32 0 44.5 -9t6.5 -26q-40 -108 -102.5 -157.5t-130.5 -49.5q-65 0 -117 27l-166 98q-42 25 -78 25q-77 0 -127 -109q-8 -14 -43 -14q-33 0 -44.5 8.5t-6.5 26.5q38 108 100.5 157.5t130.5 49.5q63 0 119 -27 z" />
<glyph unicode="&#xa1;" horiz-adv-x="569" d="M305 610q40 0 51.5 -6t8.5 -24l-66 -908q-1 -23 -20 -31t-72 -8q-55 0 -74 8t-16 31l125 908q3 19 13.5 24.5t49.5 5.5zM324 766q-60 0 -79 9t-16 38l15 137q1 31 20 39t80 8q63 0 82 -8t16 -39l-14 -137q-3 -29 -24 -38t-80 -9z" />
<glyph unicode="&#xa2;" horiz-adv-x="1060" d="M526 -4q-45 0 -57 6.5t-12 26.5l16 141q-167 19 -246.5 115.5t-79.5 279.5q0 45 7 117q27 250 126.5 373.5t299.5 138.5l16 141q2 19 14 25t58 6t57.5 -6t9.5 -25l-16 -141q137 -15 210 -85t66 -179q-2 -21 -15.5 -27t-59.5 -6q-45 0 -58.5 6t-13.5 25q2 53 -37 89 t-113 46l-80 -766q166 21 185 145q2 19 17.5 26t60.5 7q46 0 57.5 -6.5t9.5 -28.5q-15 -120 -102 -191t-234 -81l-14 -139q-2 -20 -14.5 -26.5t-57.5 -6.5zM303 569q0 -127 45.5 -192t147.5 -78l79 764q-125 -17 -185 -106t-81 -275q-6 -61 -6 -113z" />
<glyph unicode="&#xa3;" horiz-adv-x="1212" d="M190 -2q-18 -10 -28 -1t-29 50q-22 41 -22.5 58t18.5 26q96 59 161.5 151.5t65.5 202.5q0 60 -26 144h-158q-17 0 -20.5 10.5t0.5 50.5q5 42 9 52t21 10h105q-31 103 -31 192q0 207 118.5 318.5t344.5 111.5q220 0 316.5 -92.5t78.5 -275.5q-2 -21 -17.5 -28t-62.5 -7 q-48 0 -63 7t-13 28q11 119 -44.5 175t-198.5 56q-297 0 -297 -289q0 -81 35 -196h327q18 0 22.5 -11.5t0.5 -50.5q-3 -40 -8.5 -50.5t-22.5 -10.5h-283q23 -90 23 -148q0 -149 -86 -274q116 -76 299 -76q111 0 160.5 54t66.5 192q2 21 17 28t63 7q47 0 62.5 -7.5 t13.5 -27.5q-23 -206 -111 -294.5t-266 -88.5q-114 0 -219 31.5t-172 80.5q-68 -62 -150 -108z" />
<glyph unicode="&#xa4;" horiz-adv-x="1150" d="M125 336l92 94q-43 98 -43 248t43 248l-92 94q-12 12 -7 25t34 42q28 28 41 33t24 -6l80 -80q98 82 278 82q183 0 277 -82l82 80q11 11 24 6t41 -33q29 -29 34 -42t-7 -25l-94 -94q45 -96 45 -248t-45 -248l94 -94q12 -12 7 -25.5t-34 -42.5q-28 -28 -41 -33t-24 7 l-82 77q-94 -79 -277 -79q-180 0 -278 79l-80 -77q-11 -12 -24 -7t-41 33q-29 29 -34 42.5t7 25.5zM575 362q142 0 200.5 72.5t58.5 243.5t-58.5 243t-200.5 72t-200 -72t-58 -243t58 -243.5t200 -72.5z" />
<glyph unicode="&#xa5;" horiz-adv-x="1148" d="M987 403h-334l-39 -372q-2 -21 -17 -28t-65 -7q-49 0 -64 7t-13 28l39 372h-330q-16 0 -20.5 11t-0.5 49q3 41 8.5 51t22.5 10h315l-69 164h-225q-18 0 -22.5 11.5t-0.5 50.5q5 42 9.5 51.5t21.5 9.5h166q-129 313 -195 512q-6 21 12 29t76 8q49 0 64 -7t20 -28 q96 -298 252 -686q245 396 397 686q11 22 25.5 28.5t62.5 6.5q89 0 89 -22q0 -6 -5 -15q-112 -208 -303 -512h166q17 0 20.5 -10t0.5 -51q-5 -41 -9.5 -51.5t-21.5 -10.5h-232l-104 -164h313q18 0 21.5 -10t-0.5 -51q-5 -41 -9.5 -50.5t-21.5 -9.5z" />
<glyph unicode="&#xa6;" horiz-adv-x="647" d="M395 305v-688q0 -19 -13 -25t-58 -6t-58.5 6t-13.5 25v688q0 19 13.5 25t58.5 6t58 -6t13 -25zM395 1391v-689q0 -19 -13 -24.5t-58 -5.5q-46 0 -59 5.5t-13 24.5v689q0 19 13 24.5t59 5.5q45 0 58 -5.5t13 -24.5z" />
<glyph unicode="&#xa7;" horiz-adv-x="1150" d="M242 -88q2 -80 60 -124t192 -44q61 0 106.5 9.5t84 32.5t59 68t20.5 111q0 83 -50 120.5t-175 61.5q-51 10 -85 18.5t-78.5 22.5t-73 29.5t-59.5 39t-48.5 52.5t-29 68.5t-11.5 87.5q0 264 227 346q-119 84 -119 238q0 169 109 247t301 78q193 0 285 -71t77 -216 q-2 -19 -17.5 -25.5t-60.5 -6.5q-46 0 -57.5 5.5t-11.5 26.5q3 82 -46 122t-175 40q-49 0 -91.5 -9t-81.5 -29.5t-62 -60t-23 -93.5q0 -77 55.5 -122.5t187.5 -78.5q149 -36 199 -57q124 -53 156 -160q12 -42 12 -94q0 -273 -223 -350q114 -78 114 -230q0 -346 -420 -346 q-209 0 -308 79t-85 212q2 22 15 28.5t61 6.5q43 0 55.5 -6.5t14.5 -26.5zM590 731q-21 3 -47 10q-110 -11 -177 -79t-67 -183q0 -40 14 -70.5t31.5 -48.5t59 -34.5t68.5 -23.5t89 -21l39 -9l25 -6q120 11 181.5 74.5t61.5 202.5q0 39 -13.5 68t-27.5 45.5t-55 31 t-62.5 19.5t-84.5 17q-23 5 -35 7z" />
<glyph unicode="&#xa8;" horiz-adv-x="669" d="M258 1356q56 0 70.5 -8t11.5 -39l-12 -123q-3 -28 -19 -36.5t-69 -8.5t-67 8.5t-11 36.5l12 123q3 31 16.5 39t67.5 8zM606 1356q56 0 70.5 -8t11.5 -39l-12 -123q-3 -28 -19 -36.5t-69 -8.5t-67 8.5t-11 36.5l12 123q3 31 16.5 39t67.5 8z" />
<glyph unicode="&#xa9;" horiz-adv-x="1593" d="M492 678q0 227 69.5 322.5t247.5 95.5q272 0 272 -232q0 -15 -10.5 -19.5t-42.5 -4.5q-34 0 -44.5 4.5t-10.5 19.5q-2 70 -40.5 102.5t-123.5 32.5q-118 0 -161.5 -67t-43.5 -254q0 -188 43 -254t164 -66q88 0 125 34t39 110q0 14 11 19t44 5q32 0 42.5 -5t10.5 -19 q0 -122 -65.5 -182t-206.5 -60q-180 0 -249.5 95.5t-69.5 322.5zM797 1372q174 0 293.5 -40.5t193.5 -128t106.5 -215t32.5 -310.5t-32.5 -310.5t-106.5 -215t-193.5 -128t-293.5 -40.5t-294 40.5t-194 128t-106.5 215t-32.5 310.5t32.5 310.5t106.5 215t194 128t294 40.5z M797 86q150 0 248.5 32t159 105.5t85.5 182t25 272.5t-25 272.5t-85.5 182t-159 105.5t-248.5 32t-248.5 -32t-159 -105.5t-85.5 -182t-25 -272.5t25 -272.5t85.5 -182t159 -105.5t248.5 -32z" />
<glyph unicode="&#xaa;" horiz-adv-x="718" d="M541 1006h-179q-114 0 -114 -109q0 -40 24.5 -55t73.5 -15q73 0 128 34t61 93zM311 1190q-2 -14 -13 -18.5t-46 -4.5q-38 0 -46.5 4.5t-6.5 20.5q18 176 250 176q131 0 183.5 -52t41.5 -157l-41 -387q-1 -21 -11.5 -26t-46.5 -5q-37 0 -46.5 5t-8.5 26l6 64 q-36 -47 -82.5 -74t-119.5 -27q-91 0 -141 42t-50 116q0 98 62.5 146t171.5 48h182l8 74q6 61 -20 85t-93 24q-68 0 -99 -18.5t-34 -61.5z" />
<glyph unicode="&#xab;" horiz-adv-x="968" d="M141 553q3 29 21 49l221 256q8 13 23.5 17t64.5 4q53 0 53 -16q0 -5 -6 -13l-256 -297l195 -297q4 -9 2 -16t-16 -11t-40 -4q-46 0 -62.5 4.5t-23.5 16.5l-167 256q-12 20 -9 51zM485 553q3 29 21 49l221 256q8 13 23.5 17t64.5 4q53 0 53 -16q0 -5 -6 -13l-256 -297 l195 -297q3 -6 3.5 -10.5t-2.5 -8.5t-9.5 -6.5t-17.5 -4t-27 -1.5q-46 0 -62.5 4.5t-23.5 16.5l-168 256q-12 20 -9 51z" />
<glyph unicode="&#xad;" horiz-adv-x="815" d="M182 616h492q17 0 21 -11.5t1 -51.5q-5 -41 -10 -52.5t-22 -11.5h-492q-17 0 -20.5 12t0.5 52q3 31 5.5 41t7.5 16t17 6z" />
<glyph unicode="&#xae;" horiz-adv-x="1091" d="M545 1372q231 0 328.5 -107.5t97.5 -342.5t-98 -343t-328 -108q-229 0 -326.5 108t-97.5 343t97.5 342.5t326.5 107.5zM545 543q198 0 272 85.5t74 293.5t-74 293t-272 85q-197 0 -271.5 -85.5t-74.5 -292.5t74.5 -293t271.5 -86zM467 868v-190q0 -10 -8.5 -13t-34.5 -3 q-23 0 -31 3t-8 13v487q0 9 6.5 13t26.5 4h137q102 0 149.5 -37.5t47.5 -118.5q0 -107 -101 -141q49 -24 76 -92q19 -54 31 -115q1 -5 0.5 -8.5t-9 -5.5t-28.5 -2q-38 0 -41 14q-13 64 -23 94q-34 93 -116 98h-74zM467 1116v-184h86q66 0 91.5 19.5t25.5 74.5t-24.5 72.5 t-92.5 17.5h-86z" />
<glyph unicode="&#xaf;" horiz-adv-x="669" d="M674 1153h-516q-17 0 -21 10t0 45q2 35 7 45.5t22 10.5h516q17 0 21.5 -11t1.5 -45q-5 -37 -9.5 -46t-21.5 -9z" />
<glyph unicode="&#xb0;" horiz-adv-x="743" d="M467 1372q225 0 225 -190q0 -127 -64 -201t-196 -74q-223 0 -223 193q0 125 64 198.5t194 73.5zM434 1001q76 0 118 43t42 127q0 57 -30 82t-99 25q-77 0 -117.5 -43t-40.5 -127q0 -57 29 -82t98 -25z" />
<glyph unicode="&#xb1;" horiz-adv-x="1110" d="M694 1067l-35 -313h312q17 0 21 -12t-1 -52q-3 -43 -7.5 -54t-20.5 -11h-316l-33 -312q-2 -17 -14.5 -22.5t-54.5 -5.5q-43 0 -56 5.5t-12 22.5l31 312h-307q-17 0 -21.5 12.5t-1.5 52.5q5 41 10.5 52.5t22.5 11.5h311l33 313q3 17 16 22t56 5t55.5 -5t11.5 -22zM141 123 h764q17 0 21 -12t0 -50q-3 -39 -7.5 -50t-19.5 -11h-766q-15 0 -19 11.5t-1 49.5q5 40 9.5 51t18.5 11z" />
<glyph unicode="&#xb2;" horiz-adv-x="690" d="M602 664h-465q-12 0 -15.5 9t-0.5 38l2 16q7 71 52 121.5t140 105.5q17 10 60 31t67 36t53.5 39t43.5 55.5t14 70.5q0 47 -27.5 69.5t-87.5 22.5q-71 0 -107 -26.5t-42 -84.5q-1 -13 -11.5 -16.5t-46.5 -3.5t-46 3.5t-7 18.5q10 104 75 153.5t187 49.5q117 0 173.5 -46.5 t56.5 -131.5q0 -57 -18 -100.5t-64.5 -82t-75.5 -56t-100 -55.5q-23 -13 -35 -19q-5 -3 -20.5 -12t-21 -12t-18.5 -11t-18.5 -12.5t-15.5 -12.5t-15 -14t-11.5 -14t-10 -16t-6.5 -17h368q12 0 16 -9.5t1 -39.5t-7 -38.5t-16 -8.5z" />
<glyph unicode="&#xb3;" horiz-adv-x="690" d="M401 979h-53q-12 0 -15.5 9t-2.5 36q3 28 7.5 36.5t16.5 8.5h56q133 0 133 129q0 43 -28.5 61.5t-90.5 18.5q-70 0 -101.5 -21t-37.5 -67q-3 -13 -13.5 -18t-46.5 -5t-46 4t-7 21q22 180 254 180q115 0 174 -46t59 -126q0 -123 -106 -170q43 -12 66.5 -49t23.5 -92 q0 -106 -72.5 -172t-193.5 -66q-130 0 -194.5 47.5t-57.5 137.5q3 17 12.5 20.5t44.5 3.5q37 0 46.5 -4.5t9.5 -19.5q0 -46 30.5 -68.5t108.5 -22.5q67 0 108 38.5t41 107.5q0 51 -29 69.5t-96 18.5z" />
<glyph unicode="&#xb4;" horiz-adv-x="669" d="M612 1288l-336 -160q-18 -8 -27 -4t-22 31q-12 26 -11.5 35t15.5 18l324 195q18 12 30 4t29 -45q19 -40 18.5 -52.5t-20.5 -21.5z" />
<glyph unicode="&#xb6;" horiz-adv-x="1050" d="M1055 1266h-103q-62 0 -89 -23.5t-34 -89.5l-122 -1178q-12 -106 -39.5 -177.5t-71 -110t-93.5 -53.5t-118 -15t-92 6q-15 5 -18.5 15t-0.5 47q4 39 10 49t23 10q3 0 29.5 -2t42.5 -2q87 0 127 49t57 193l53 510h-53q-221 0 -300 56t-79 224q0 63 13 170 q10 99 22.5 164.5t35.5 119t53.5 83.5t81 50t112.5 27t153 7h410q17 0 21.5 -13.5t0.5 -52.5q-6 -43 -11 -53t-21 -10z" />
<glyph unicode="&#xb7;" horiz-adv-x="485" d="M246 436q-59 0 -78 9t-16 38l14 138q1 31 20 39t80 8q63 0 82.5 -8t16.5 -39l-15 -138q-3 -29 -24 -38t-80 -9z" />
<glyph unicode="&#xb8;" horiz-adv-x="669" d="M326 -106h34q91 0 136 -29.5t45 -100.5q0 -94 -53 -135t-156 -41h-193q-15 0 -19 9t-1 38q3 30 7.5 39t18.5 9h185q21 0 34.5 2t30.5 8t26 22t9 41q0 31 -19 39t-65 8h-106q-28 0 -38 7t-3 24l73 172q7 14 45 14q30 0 41 -6t4 -22z" />
<glyph unicode="&#xb9;" horiz-adv-x="690" d="M586 664h-406q-11 0 -15 9.5t-1 37.5q3 30 7.5 39.5t14.5 9.5h152l51 489l-151 -35q-10 -2 -14 9.5t-1 36.5q5 48 21 51l248 61q11 4 18 0.5t6 -14.5l-61 -598h137q11 0 14 -10t0 -39q-3 -30 -6.5 -38.5t-13.5 -8.5z" />
<glyph unicode="&#xba;" horiz-adv-x="765" d="M289 1051q-4 -46 -4 -64q0 -82 32.5 -116.5t110.5 -34.5q93 0 133 48.5t51 166.5q4 50 4 67q0 79 -33 113.5t-110 34.5q-91 0 -131.5 -48.5t-52.5 -166.5zM170 1051q15 163 86 240t221 77q135 0 196.5 -61t61.5 -187q0 -19 -4 -69q-18 -164 -87.5 -241t-219.5 -77 q-135 0 -196.5 60.5t-61.5 185.5q0 22 4 72z" />
<glyph unicode="&#xbb;" horiz-adv-x="968" d="M483 551q-3 -30 -20 -49l-221 -256q-8 -13 -23.5 -17t-64.5 -4q-54 0 -54 16q1 6 6 13l256 297l-194 297q-3 6 -3.5 10.5t2.5 8.5t9.5 6.5t17.5 4t27 1.5q46 0 62.5 -4.5t23.5 -16.5l168 -256q12 -19 8 -51zM827 551q-3 -30 -20 -49l-221 -256q-8 -13 -23.5 -17t-64.5 -4 q-53 0 -53 16q1 6 6 13l256 297l-195 297q-3 6 -3.5 10.5t2.5 8.5t9.5 6.5t17.5 4t27 1.5q46 0 62.5 -4.5t23.5 -16.5l168 -256q12 -19 8 -51z" />
<glyph unicode="&#xbc;" horiz-adv-x="1671" d="M1399 -2q-36 0 -47 5.5t-11 23.5l17 147h-338q-14 0 -18 9t-1 36q3 34 19 53l352 418q10 13 25 18t55 5q46 0 61.5 -4.5t14.5 -22.5l-45 -420h90q11 0 15 -9t1 -38t-7 -37t-15 -8h-94l-15 -147q-2 -18 -12.5 -23.5t-46.5 -5.5zM1403 1329l-828 -1306q-9 -17 -23.5 -22 t-57.5 -5q-31 0 -39.5 8t-1.5 23l827 1306q9 17 23 22t57 5q18 0 29 -2t15 -6.5t3.5 -10t-4.5 -12.5zM586 664h-406q-11 0 -15 9.5t-1 37.5q3 30 7.5 39.5t14.5 9.5h152l51 489l-151 -35q-10 -2 -14 9.5t-1 36.5q5 48 21 51l248 61q11 4 18 0.5t6 -14.5l-61 -598h137 q11 0 14 -10t0 -39q-3 -30 -6.5 -38.5t-13.5 -8.5zM1130 266h242l35 328z" />
<glyph unicode="&#xbd;" horiz-adv-x="1671" d="M1343 1329l-827 -1306q-9 -17 -24 -22t-58 -5q-31 0 -39.5 8t-1.5 23l828 1306q9 17 23 22t56 5q18 0 29 -2t15 -6.5t3.5 -10t-4.5 -12.5zM1513 0h-464q-12 0 -16 9.5t-1 37.5l2 16q7 71 52.5 122t140.5 106q18 10 60 31t66 35.5t53.5 38.5t43.5 55.5t14 70.5 q0 47 -27 69.5t-87 22.5q-71 0 -107.5 -26t-42.5 -84q-2 -14 -12 -17.5t-45 -3.5q-36 0 -46 4t-7 19q10 104 75 153.5t187 49.5q116 0 172.5 -47t56.5 -132q0 -57 -18 -100.5t-64.5 -82t-75.5 -56t-100 -55.5q-23 -13 -35 -19q-5 -3 -20.5 -12t-21 -12t-18.5 -11 t-18.5 -12.5t-15.5 -12.5t-15 -14t-11.5 -14t-10 -16t-6.5 -17h369q12 0 15.5 -9.5t0.5 -39.5t-7 -38.5t-16 -8.5zM586 664h-406q-11 0 -15 9.5t-1 37.5q3 30 7.5 39.5t14.5 9.5h152l51 489l-151 -35q-10 -2 -14 9.5t-1 36.5q5 48 21 51l248 61q11 4 18 0.5t6 -14.5 l-61 -598h137q11 0 14 -10t0 -39q-3 -30 -6.5 -38.5t-13.5 -8.5z" />
<glyph unicode="&#xbe;" horiz-adv-x="1671" d="M1399 -2q-36 0 -47 5.5t-11 23.5l17 147h-338q-14 0 -18 9t-1 36q3 34 19 53l352 418q10 13 25 18t55 5q46 0 61.5 -4.5t14.5 -22.5l-45 -420h90q11 0 15 -9t1 -38t-7 -37t-15 -8h-94l-15 -147q-2 -18 -12.5 -23.5t-46.5 -5.5zM401 979h-53q-12 0 -15.5 9t-2.5 36 q3 28 7.5 36.5t16.5 8.5h56q133 0 133 129q0 43 -28.5 61.5t-90.5 18.5q-70 0 -101.5 -21t-37.5 -67q-3 -13 -13.5 -18t-46.5 -5t-46 4t-7 21q22 180 254 180q115 0 174 -46t59 -126q0 -123 -106 -170q43 -12 66.5 -49t23.5 -92q0 -106 -72.5 -172t-193.5 -66 q-130 0 -194.5 47.5t-57.5 137.5q3 17 12.5 20.5t44.5 3.5q37 0 46.5 -4.5t9.5 -19.5q0 -46 30.5 -68.5t108.5 -22.5q67 0 108 38.5t41 107.5q0 51 -29 69.5t-96 18.5zM1368 1329l-827 -1306q-9 -17 -24 -22t-58 -5q-31 0 -39.5 8t-1.5 23l827 1306q9 17 23 22t57 5 q18 0 29 -2t15 -6.5t3.5 -10t-4.5 -12.5zM1130 266h242l35 328z" />
<glyph unicode="&#xbf;" horiz-adv-x="1099" d="M524 528l8 52q3 18 16 24t54 6t51.5 -6t10.5 -24l-2 -52q-2 -57 -26 -106t-61 -84.5t-81.5 -69t-88.5 -67t-80 -70.5t-58.5 -88t-22.5 -111q0 -90 56 -135t185 -45q155 0 228 57t88 185q2 20 16 27.5t62 7.5q44 0 59 -7.5t12 -25.5q-21 -197 -137.5 -288t-333.5 -91 q-203 0 -299 85t-96 230q0 74 22 134t57.5 100t79 73.5t89.5 63t85 59.5t68.5 72.5t38.5 93.5zM616 766q-59 0 -78 9t-16 38l15 137q1 31 20 39t80 8q63 0 82 -8t16 -39l-14 -137q-3 -29 -24 -38t-81 -9z" />
<glyph unicode="&#xc0;" horiz-adv-x="1169" d="M989 -4q-46 0 -60.5 7t-19.5 28q-27 166 -65 360h-508q-66 -161 -141 -360q-8 -21 -25.5 -28t-63.5 -7q-51 0 -66 7.5t-7 27.5q108 290 263.5 650.5t295.5 643.5q9 21 27 28t71 7q55 0 72 -7t22 -28q80 -288 160.5 -648t126.5 -646q4 -20 -13.5 -27.5t-68.5 -7.5z M672 1169q-148 -321 -283 -645h428q-64 321 -145 645zM682 1468l-317 166q-18 8 -16.5 22t26.5 52q26 36 39.5 43.5t27.5 -4.5l299 -203q12 -8 11.5 -17.5t-17.5 -33.5q-19 -26 -29 -30t-24 5z" />
<glyph unicode="&#xc1;" horiz-adv-x="1169" d="M989 -4q-46 0 -60.5 7t-19.5 28q-27 166 -65 360h-508q-66 -161 -141 -360q-8 -21 -25.5 -28t-63.5 -7q-51 0 -66 7.5t-7 27.5q108 290 263.5 650.5t295.5 643.5q9 21 27 28t71 7q55 0 72 -7t22 -28q80 -288 160.5 -648t126.5 -646q4 -20 -13.5 -27.5t-68.5 -7.5z M672 1169q-148 -321 -283 -645h428q-64 321 -145 645zM1075 1634l-352 -166q-17 -9 -26.5 -4.5t-22.5 31.5q-12 25 -11.5 34t15.5 19l342 201q19 12 29.5 4.5t29.5 -45.5q19 -39 18 -52t-22 -22z" />
<glyph unicode="&#xc2;" horiz-adv-x="1169" d="M989 -4q-46 0 -60.5 7t-19.5 28q-27 166 -65 360h-508q-66 -161 -141 -360q-8 -21 -25.5 -28t-63.5 -7q-51 0 -66 7.5t-7 27.5q108 290 263.5 650.5t295.5 643.5q9 21 27 28t71 7q55 0 72 -7t22 -28q80 -288 160.5 -648t126.5 -646q4 -20 -13.5 -27.5t-68.5 -7.5z M672 1169q-148 -321 -283 -645h428q-64 321 -145 645zM717 1597l-152 -114q-16 -13 -31.5 -17t-50.5 -4q-50 0 -47 19q0 6 8 14l220 205q14 20 65 20q50 0 64 -20l174 -205q8 -10 5.5 -17.5t-15 -11.5t-33.5 -4q-36 0 -51 4.5t-29 16.5z" />
<glyph unicode="&#xc3;" horiz-adv-x="1169" d="M989 -4q-46 0 -60.5 7t-19.5 28q-27 166 -65 360h-508q-66 -161 -141 -360q-8 -21 -25.5 -28t-63.5 -7q-51 0 -66 7.5t-7 27.5q108 290 263.5 650.5t295.5 643.5q9 21 27 28t71 7q55 0 72 -7t22 -28q80 -288 160.5 -648t126.5 -646q4 -20 -13.5 -27.5t-68.5 -7.5z M672 1169q-148 -321 -283 -645h428q-64 321 -145 645zM913 1636l2 27q2 15 13 21t41 6q39 0 48.5 -6.5t6.5 -26.5l-8 -53q-14 -79 -57.5 -110.5t-96.5 -31.5q-70 0 -131 37l-102 62q-33 22 -58 22q-48 0 -55 -65l-2 -27q-2 -15 -11.5 -20t-41.5 -5q-39 0 -48.5 6t-6.5 25 l8 53q14 79 57 111.5t96 32.5q63 0 131 -39l103 -62q33 -22 55 -22q24 0 38.5 14t18.5 51z" />
<glyph unicode="&#xc4;" horiz-adv-x="1169" d="M989 -4q-46 0 -60.5 7t-19.5 28q-27 166 -65 360h-508q-66 -161 -141 -360q-8 -21 -25.5 -28t-63.5 -7q-51 0 -66 7.5t-7 27.5q108 290 263.5 650.5t295.5 643.5q9 21 27 28t71 7q55 0 72 -7t22 -28q80 -288 160.5 -648t126.5 -646q4 -20 -13.5 -27.5t-68.5 -7.5z M672 1169q-148 -321 -283 -645h428q-64 321 -145 645zM905 1686q55 0 69 -8t11 -38l-12 -124q-3 -29 -18 -37.5t-68 -8.5t-68 9t-12 37l12 124q3 30 17.5 38t68.5 8zM543 1686q55 0 69 -8.5t9 -37.5l-13 -124q-3 -29 -17.5 -37.5t-66.5 -8.5q-54 0 -69.5 9t-12.5 37l13 124 q5 30 19.5 38t68.5 8z" />
<glyph unicode="&#xc5;" horiz-adv-x="1169" d="M989 -4q-46 0 -60.5 7t-19.5 28q-27 166 -65 360h-508q-66 -161 -141 -360q-8 -21 -25.5 -28t-63.5 -7q-51 0 -66 7.5t-7 27.5q106 286 258.5 639.5t290.5 634.5q-68 38 -68 133q0 88 51 140t146 52q178 0 178 -155q0 -129 -98 -175q78 -283 155.5 -634.5t124.5 -634.5 q4 -20 -13.5 -27.5t-68.5 -7.5zM672 1169q-148 -321 -283 -645h428q-64 321 -145 645zM690 1360h8q47 2 76 29.5t29 83.5q0 42 -20 59.5t-70 17.5q-51 0 -82 -27t-31 -85q0 -42 20.5 -60t69.5 -18z" />
<glyph unicode="&#xc6;" horiz-adv-x="1781" d="M1696 1214h-578l-47 -448h512q18 0 23.5 -13.5t1.5 -56.5t-11.5 -56t-25.5 -13h-516l-51 -486h581q18 0 23 -13t0 -56q-3 -44 -9.5 -58t-23.5 -14h-672q-42 0 -56.5 7t-12.5 26l34 342h-503q-118 -195 -199 -344q-12 -21 -30 -28t-64 -7q-50 0 -66.5 7.5t-7.5 27.5 q162 289 384.5 651t410.5 641q14 20 32.5 26.5t71.5 6.5h809q18 0 23.5 -14.5t1.5 -57.5q-5 -43 -11.5 -56.5t-23.5 -13.5zM887 1214q-254 -389 -441 -702h437l73 702h-69z" />
<glyph unicode="&#xc7;" horiz-adv-x="1212" d="M547 -111h33q91 0 136.5 -30.5t45.5 -102.5q0 -95 -53 -136.5t-160 -41.5h-174q-17 0 -22.5 10.5t-2.5 40.5q3 29 8.5 39t22.5 10h166q23 0 35.5 1.5t30.5 7.5t27 22t9 41q0 17 -5 27t-18.5 14t-25 5t-37.5 1h-106q-28 0 -38 7t-3 24l69 164q-179 25 -257 138t-78 339 q0 95 12 209q21 194 57.5 321t103.5 213.5t167.5 124t248.5 37.5q102 0 179 -20t133.5 -64t81.5 -118.5t16 -178.5q-1 -20 -16 -26t-62 -6q-49 0 -63.5 6t-14.5 26q12 125 -49.5 184.5t-210.5 59.5q-69 0 -120.5 -10.5t-94.5 -36.5t-72.5 -66.5t-53 -104.5t-39 -146 t-27.5 -195q-13 -133 -13 -215q0 -133 31.5 -208t96.5 -105.5t180 -30.5q154 0 224.5 61.5t88.5 196.5q2 19 18 26t62 7q48 0 63 -7t13 -26q-24 -200 -136 -297.5t-340 -97.5h-32z" />
<glyph unicode="&#xc8;" horiz-adv-x="1138" d="M1053 1214h-621l-47 -448h549q18 0 22.5 -14t-0.5 -58q-3 -43 -9.5 -55t-24.5 -12h-553l-52 -486h625q18 0 23.5 -14t1.5 -57q-4 -44 -11 -57t-24 -13h-715q-41 0 -56 7t-14 26l138 1290q2 19 15.5 26t53.5 7h709q18 0 23 -14.5t1 -57.5q-5 -44 -11 -57t-23 -13z M748 1468l-318 166q-18 8 -16.5 22t26.5 52q25 36 39.5 43.5t28.5 -4.5l299 -203q12 -8 11.5 -17.5t-17.5 -33.5q-19 -26 -29 -30t-24 5z" />
<glyph unicode="&#xc9;" horiz-adv-x="1138" d="M1053 1214h-621l-47 -448h549q18 0 22.5 -14t-0.5 -58q-3 -43 -9.5 -55t-24.5 -12h-553l-52 -486h625q18 0 23.5 -14t1.5 -57q-4 -44 -11 -57t-24 -13h-715q-41 0 -56 7t-14 26l138 1290q2 19 15.5 26t53.5 7h709q18 0 23 -14.5t1 -57.5q-5 -44 -11 -57t-23 -13z M1040 1634l-352 -166q-17 -9 -26.5 -4.5t-22.5 31.5q-12 25 -11.5 34t15.5 19l342 201q19 12 29.5 4.5t29.5 -45.5q19 -39 18 -52t-22 -22z" />
<glyph unicode="&#xca;" horiz-adv-x="1138" d="M1053 1214h-621l-47 -448h549q18 0 22.5 -14t-0.5 -58q-3 -43 -9.5 -55t-24.5 -12h-553l-52 -486h625q18 0 23.5 -14t1.5 -57q-4 -44 -11 -57t-24 -13h-715q-41 0 -56 7t-14 26l138 1290q2 19 15.5 26t53.5 7h709q18 0 23 -14.5t1 -57.5q-5 -44 -11 -57t-23 -13z M713 1597l-152 -114q-16 -13 -31.5 -17t-50.5 -4q-50 0 -47 19q0 6 8 14l219 205q14 20 66 20q49 0 63 -20l175 -205q8 -10 5.5 -17.5t-15 -11.5t-33.5 -4q-36 0 -51 4.5t-29 16.5z" />
<glyph unicode="&#xcb;" horiz-adv-x="1138" d="M1053 1214h-621l-47 -448h549q18 0 22.5 -14t-0.5 -58q-3 -43 -9.5 -55t-24.5 -12h-553l-52 -486h625q18 0 23.5 -14t1.5 -57q-4 -44 -11 -57t-24 -13h-715q-41 0 -56 7t-14 26l138 1290q2 19 15.5 26t53.5 7h709q18 0 23 -14.5t1 -57.5q-5 -44 -11 -57t-23 -13z M547 1686q55 0 69 -8.5t9 -37.5l-13 -124q-3 -29 -17.5 -37.5t-66.5 -8.5q-54 0 -69.5 9t-12.5 37l13 124q5 30 19.5 38t68.5 8zM909 1686q55 0 69 -8t11 -38l-12 -124q-3 -29 -18 -37.5t-68 -8.5t-68 9t-12 37l12 124q3 30 17.5 38t68.5 8z" />
<glyph unicode="&#xcc;" horiz-adv-x="542" d="M229 -4q-48 0 -62.5 7t-12.5 28l135 1294q3 21 18 28t64 7t64.5 -7t13.5 -28l-138 -1294q-2 -21 -17 -28t-65 -7zM362 1468l-317 166q-18 8 -16.5 22t26.5 52q25 36 39.5 43.5t28.5 -4.5l299 -203q12 -8 11.5 -17.5t-17.5 -33.5q-19 -26 -29.5 -30t-24.5 5z" />
<glyph unicode="&#xcd;" horiz-adv-x="542" d="M229 -4q-48 0 -62.5 7t-12.5 28l135 1294q3 21 18 28t64 7t64.5 -7t13.5 -28l-138 -1294q-2 -21 -17 -28t-65 -7zM756 1634l-353 -166q-17 -9 -26.5 -4.5t-22.5 31.5q-12 25 -11.5 34t15.5 19l342 201q19 12 30 4.5t30 -45.5q19 -39 18 -52t-22 -22z" />
<glyph unicode="&#xce;" horiz-adv-x="542" d="M229 -4q-48 0 -62.5 7t-12.5 28l135 1294q3 21 18 28t64 7t64.5 -7t13.5 -28l-138 -1294q-2 -21 -17 -28t-65 -7zM397 1597l-151 -114q-16 -13 -31.5 -17t-50.5 -4q-50 0 -47 19q0 6 8 14l219 205q14 20 66 20q49 0 63 -20l174 -205q8 -10 5.5 -17.5t-15 -11.5t-33.5 -4 q-36 0 -51 4.5t-29 16.5z" />
<glyph unicode="&#xcf;" horiz-adv-x="542" d="M229 -4q-48 0 -62.5 7t-12.5 28l135 1294q3 21 18 28t64 7t64.5 -7t13.5 -28l-138 -1294q-2 -21 -17 -28t-65 -7zM223 1686q55 0 69 -8.5t9 -37.5l-12 -124q-3 -29 -17.5 -37.5t-66.5 -8.5q-54 0 -69.5 9t-12.5 37l12 124q5 30 19.5 38t68.5 8zM586 1686q55 0 69 -8 t11 -38l-13 -124q-3 -29 -18 -37.5t-68 -8.5t-68 9t-12 37l13 124q3 30 17.5 38t68.5 8z" />
<glyph unicode="&#xd0;" horiz-adv-x="1292" d="M590 0h-369q-41 0 -56 7t-13 26l57 551h-119q-17 0 -20.5 10.5t0.5 48.5q5 41 9 50t21 9h121l68 621q2 19 15.5 26t53.5 7h357q261 0 373 -113.5t112 -370.5q0 -86 -12 -194q-15 -149 -41.5 -256t-71 -190t-110.5 -132.5t-158 -74.5t-217 -25zM322 137h274 q114 0 186.5 24t122.5 88.5t76 164.5t43 264q14 140 14 207q0 190 -73.5 262t-255.5 72h-273l-55 -517h254q17 0 21 -11t1 -48q-3 -38 -8 -48.5t-22 -10.5h-258z" />
<glyph unicode="&#xd1;" horiz-adv-x="1335" d="M1169 1360q47 0 63 -7.5t13 -27.5l-137 -1294q0 -21 -18.5 -28t-79.5 -7q-48 0 -63.5 6t-24.5 25l-506 1087l-113 -1083q-2 -21 -17 -28t-63 -7q-47 0 -62.5 7.5t-13.5 27.5l138 1294q2 21 19.5 28t78.5 7q48 0 64.5 -6t25.5 -25l502 -1083l115 1079q3 21 17 28t62 7z M991 1636l2 27q2 15 13 21t41 6q39 0 48.5 -6.5t6.5 -26.5l-8 -53q-14 -79 -57.5 -110.5t-96.5 -31.5q-70 0 -131 37l-102 62q-33 22 -58 22q-48 0 -55 -65l-2 -27q-2 -15 -11.5 -20t-41.5 -5q-39 0 -49 6t-7 25l9 53q14 79 57 111.5t96 32.5q63 0 131 -39l103 -62 q33 -22 55 -22q24 0 38.5 14t18.5 51z" />
<glyph unicode="&#xd2;" horiz-adv-x="1298" d="M743 1374q245 0 354 -116t109 -379q0 -90 -12 -201q-20 -192 -58.5 -320.5t-107.5 -214.5t-170 -123.5t-246 -37.5q-246 0 -353 116.5t-107 380.5q0 109 10 199q40 380 168.5 538t412.5 158zM618 119q102 0 169.5 25t118.5 89t80 171t46 274q12 120 12 207 q0 199 -70.5 275.5t-236.5 76.5q-135 0 -214 -48t-126 -168t-71 -343q-13 -127 -13 -205q0 -201 69.5 -277.5t235.5 -76.5zM774 1468l-317 166q-18 8 -16.5 22t26.5 52q25 36 39.5 43.5t28.5 -4.5l299 -203q12 -9 11 -18t-18 -33q-19 -26 -29 -30t-24 5z" />
<glyph unicode="&#xd3;" horiz-adv-x="1298" d="M743 1374q245 0 354 -116t109 -379q0 -90 -12 -201q-20 -192 -58.5 -320.5t-107.5 -214.5t-170 -123.5t-246 -37.5q-246 0 -353 116.5t-107 380.5q0 109 10 199q40 380 168.5 538t412.5 158zM618 119q102 0 169.5 25t118.5 89t80 171t46 274q12 120 12 207 q0 199 -70.5 275.5t-236.5 76.5q-135 0 -214 -48t-126 -168t-71 -343q-13 -127 -13 -205q0 -201 69.5 -277.5t235.5 -76.5zM1100 1634l-352 -166q-17 -9 -27 -4t-23 31q-12 25 -11.5 34t15.5 19l342 201q19 12 30 4.5t30 -45.5q19 -39 18 -52t-22 -22z" />
<glyph unicode="&#xd4;" horiz-adv-x="1298" d="M743 1374q245 0 354 -116t109 -379q0 -90 -12 -201q-20 -192 -58.5 -320.5t-107.5 -214.5t-170 -123.5t-246 -37.5q-246 0 -353 116.5t-107 380.5q0 109 10 199q40 380 168.5 538t412.5 158zM618 119q102 0 169.5 25t118.5 89t80 171t46 274q12 120 12 207 q0 199 -70.5 275.5t-236.5 76.5q-135 0 -214 -48t-126 -168t-71 -343q-13 -127 -13 -205q0 -201 69.5 -277.5t235.5 -76.5zM776 1597l-151 -114q-16 -13 -31.5 -17t-50.5 -4q-50 0 -47 19q0 6 8 14l219 205q14 20 65 20q50 0 64 -20l174 -205q8 -10 5.5 -17.5t-15 -11.5 t-33.5 -4q-36 0 -51 4.5t-29 16.5z" />
<glyph unicode="&#xd5;" horiz-adv-x="1298" d="M743 1374q245 0 354 -116t109 -379q0 -90 -12 -201q-20 -192 -58.5 -320.5t-107.5 -214.5t-170 -123.5t-246 -37.5q-246 0 -353 116.5t-107 380.5q0 109 10 199q40 380 168.5 538t412.5 158zM618 119q102 0 169.5 25t118.5 89t80 171t46 274q12 120 12 207 q0 199 -70.5 275.5t-236.5 76.5q-135 0 -214 -48t-126 -168t-71 -343q-13 -127 -13 -205q0 -201 69.5 -277.5t235.5 -76.5zM973 1636l2 27q2 15 12.5 21t40.5 6q39 0 48.5 -6.5t6.5 -26.5l-8 -53q-14 -79 -57 -110.5t-96 -31.5q-70 0 -131 37l-103 62q-33 22 -57 22 q-49 0 -56 -65l-2 -27q-2 -15 -11.5 -20t-41.5 -5q-39 0 -48.5 6t-6.5 25l8 53q14 79 57.5 111.5t96.5 32.5q63 0 131 -39l102 -62q33 -22 55 -22q24 0 39 14t19 51z" />
<glyph unicode="&#xd6;" horiz-adv-x="1298" d="M743 1374q245 0 354 -116t109 -379q0 -90 -12 -201q-20 -192 -58.5 -320.5t-107.5 -214.5t-170 -123.5t-246 -37.5q-246 0 -353 116.5t-107 380.5q0 109 10 199q40 380 168.5 538t412.5 158zM618 119q102 0 169.5 25t118.5 89t80 171t46 274q12 120 12 207 q0 199 -70.5 275.5t-236.5 76.5q-135 0 -214 -48t-126 -168t-71 -343q-13 -127 -13 -205q0 -201 69.5 -277.5t235.5 -76.5zM602 1686q55 0 69 -8.5t9 -37.5l-12 -124q-3 -29 -17.5 -37.5t-66.5 -8.5q-54 0 -69.5 9t-12.5 37l12 124q5 30 19.5 38t68.5 8zM965 1686 q55 0 68.5 -8t10.5 -38l-12 -124q-3 -29 -18 -37.5t-68 -8.5t-68 9t-12 37l13 124q3 30 17.5 38t68.5 8z" />
<glyph unicode="&#xd7;" horiz-adv-x="1110" d="M807 276l-240 265l-293 -265q-10 -14 -22.5 -9t-40.5 34q-27 29 -30 44t12 24l292 264l-237 268q-11 10 -4.5 24t37.5 42q34 30 48 34.5t23 -8.5l238 -266l295 266q11 13 23.5 8.5t39.5 -34.5q26 -29 29.5 -42.5t-10.5 -23.5l-295 -266l239 -266q12 -9 5.5 -23.5 t-37.5 -44.5q-34 -29 -47 -33.5t-25 8.5z" />
<glyph unicode="&#xd8;" horiz-adv-x="1306" d="M748 1374q200 0 309 -78l78 109q14 16 30 21.5t54 5.5q51 0 52 -16q0 -6 -7 -15l-131 -182q77 -116 77 -340q0 -90 -12 -201q-20 -192 -58.5 -320.5t-107.5 -214.5t-170 -123.5t-246 -37.5q-205 0 -307 75l-80 -112q-12 -17 -28.5 -23t-55.5 -6q-15 0 -26 1.5t-16.5 4.5 t-7 7.5t-0.5 9t5 10.5l133 184q-77 116 -77 346q0 109 10 199q40 380 169 538t413 158zM317 473q0 -111 23 -192l631 884q-69 72 -230 72q-135 0 -214 -48t-126 -168t-71 -343q-13 -127 -13 -205zM623 119q136 0 215.5 48t127 168.5t70.5 342.5q13 130 13 207q0 107 -23 188 l-631 -887q67 -67 228 -67z" />
<glyph unicode="&#xd9;" horiz-adv-x="1300" d="M614 -18q-227 0 -331.5 94t-104.5 297q0 49 6 108l88 844q3 21 18 28t64 7t64.5 -7t13.5 -28l-88 -836q-6 -55 -6 -98q0 -142 64.5 -203t220.5 -61q178 0 254.5 81.5t97.5 280.5l88 836q3 21 18 28t64 7t64 -7t12 -28l-88 -844q-28 -265 -145.5 -382t-373.5 -117z M745 1468l-317 166q-18 8 -16.5 22t26.5 52q25 36 39.5 43.5t28.5 -4.5l299 -203q12 -8 11.5 -17.5t-17.5 -33.5q-19 -26 -29.5 -30t-24.5 5z" />
<glyph unicode="&#xda;" horiz-adv-x="1300" d="M614 -18q-227 0 -331.5 94t-104.5 297q0 49 6 108l88 844q3 21 18 28t64 7t64.5 -7t13.5 -28l-88 -836q-6 -55 -6 -98q0 -142 64.5 -203t220.5 -61q178 0 254.5 81.5t97.5 280.5l88 836q3 21 18 28t64 7t64 -7t12 -28l-88 -844q-28 -265 -145.5 -382t-373.5 -117z M1130 1634l-352 -166q-17 -9 -26.5 -4.5t-22.5 31.5q-12 25 -11.5 34t15.5 19l342 201q19 12 30 4.5t30 -45.5q13 -25 16 -39t-1.5 -21.5t-19.5 -13.5z" />
<glyph unicode="&#xdb;" horiz-adv-x="1300" d="M614 -18q-227 0 -331.5 94t-104.5 297q0 49 6 108l88 844q3 21 18 28t64 7t64.5 -7t13.5 -28l-88 -836q-6 -55 -6 -98q0 -142 64.5 -203t220.5 -61q178 0 254.5 81.5t97.5 280.5l88 836q3 21 18 28t64 7t64 -7t12 -28l-88 -844q-28 -265 -145.5 -382t-373.5 -117z M776 1597l-151 -114q-16 -13 -31.5 -17t-50.5 -4q-50 0 -47 19q0 6 8 14l219 205q14 20 65 20q50 0 64 -20l174 -205q8 -10 5.5 -17.5t-15 -11.5t-33.5 -4q-36 0 -51 4.5t-29 16.5z" />
<glyph unicode="&#xdc;" horiz-adv-x="1300" d="M614 -18q-227 0 -331.5 94t-104.5 297q0 49 6 108l88 844q3 21 18 28t64 7t64.5 -7t13.5 -28l-88 -836q-6 -55 -6 -98q0 -142 64.5 -203t220.5 -61q178 0 254.5 81.5t97.5 280.5l88 836q3 21 18 28t64 7t64 -7t12 -28l-88 -844q-28 -265 -145.5 -382t-373.5 -117z M602 1686q55 0 69 -8.5t9 -37.5l-12 -124q-3 -29 -17.5 -37.5t-66.5 -8.5q-54 0 -69.5 9t-12.5 37l12 124q5 30 19.5 38t68.5 8zM965 1686q55 0 68.5 -8t10.5 -38l-12 -124q-3 -29 -18 -37.5t-68 -8.5t-68 9t-12 37l13 124q3 30 17.5 38t68.5 8z" />
<glyph unicode="&#xdd;" horiz-adv-x="1130" d="M993 1325q11 22 25.5 28.5t62.5 6.5q89 0 89 -22q0 -6 -5 -15q-97 -173 -245.5 -413.5t-264.5 -411.5h-2l-47 -467q-2 -21 -17.5 -28t-64.5 -7q-50 0 -65 7t-13 28l50 467q-77 169 -176 409.5t-162 415.5q-6 21 10 29t74 8q48 0 62 -6.5t20 -28.5q126 -381 262 -686 q238 370 407 686zM1051 1634l-353 -166q-17 -9 -26.5 -4.5t-22.5 31.5q-12 25 -11.5 34t15.5 19l342 201q19 12 30 4.5t30 -45.5q19 -39 18 -52t-22 -22z" />
<glyph unicode="&#xde;" horiz-adv-x="1159" d="M580 322h-242l-31 -291q-2 -21 -17 -28t-65 -7q-49 0 -64.5 7t-13.5 28l113 1063l25 231q2 21 17 28t63 7q50 0 65 -7t12 -28l-20 -197h227q224 0 327 -80t103 -253q0 -22 -4 -72q-20 -214 -135.5 -307.5t-359.5 -93.5zM410 991l-58 -534h230q168 0 241 55.5t90 210.5 q5 63 5 65q0 117 -64 160t-215 43h-229z" />
<glyph unicode="&#xdf;" horiz-adv-x="1314" d="M639 723q-17 0 -21 11.5t0 51.5q3 41 8.5 53t22.5 13q50 4 88.5 10t84 17.5t78 31t61 47.5t43 70.5t14.5 95.5q0 179 -283 179q-88 0 -149.5 -15.5t-99.5 -48t-57.5 -76.5t-25.5 -106l-108 -1028q-1 -20 -16.5 -26.5t-61.5 -6.5t-59 6t-11 27l109 1034q10 91 37.5 156 t82 114.5t145 74t218.5 24.5q206 0 316 -72t110 -219t-91.5 -240t-246.5 -115q79 -9 139.5 -30t113.5 -60.5t81.5 -107.5t28.5 -162q0 -92 -22 -170t-67.5 -140.5t-123 -98t-180.5 -35.5q-175 0 -248 73t-62 195q2 22 15 28.5t59 6.5q44 0 58 -7t14 -26q1 -38 6.5 -62 t22.5 -45t50.5 -31t86.5 -10q243 0 243 326q0 78 -21 128.5t-73.5 83t-122 49.5t-186.5 32z" />
<glyph unicode="&#xe0;" d="M344 729q-2 -19 -16.5 -25t-59.5 -6q-49 0 -60.5 5.5t-8.5 27.5q30 281 387 281q206 0 288 -81t64 -245l-70 -659q-1 -20 -14.5 -25.5t-58.5 -5.5t-58 5.5t-12 25.5l10 112q-44 -67 -126.5 -110t-198.5 -43q-158 0 -238 64.5t-80 182.5q0 155 98.5 235.5t272.5 80.5h311 l14 135q10 113 -36.5 158t-169.5 45q-115 0 -172 -38t-66 -120zM760 434h-299q-219 0 -219 -190q0 -71 48 -104.5t132 -33.5q134 0 227 68t105 178zM637 1128l-303 160q-19 7 -17.5 21.5t27.5 50.5q27 37 40.5 44.5t27.5 -5.5l282 -195q14 -8 13.5 -16.5t-17.5 -34.5 q-19 -26 -29 -30t-24 5z" />
<glyph unicode="&#xe1;" d="M344 729q-2 -19 -16.5 -25t-59.5 -6q-49 0 -60.5 5.5t-8.5 27.5q30 281 387 281q206 0 288 -81t64 -245l-70 -659q-1 -20 -14.5 -25.5t-58.5 -5.5t-58 5.5t-12 25.5l10 112q-44 -67 -126.5 -110t-198.5 -43q-158 0 -238 64.5t-80 182.5q0 155 98.5 235.5t272.5 80.5h311 l14 135q10 113 -36.5 158t-169.5 45q-115 0 -172 -38t-66 -120zM760 434h-299q-219 0 -219 -190q0 -71 48 -104.5t132 -33.5q134 0 227 68t105 178zM913 1288l-335 -160q-18 -9 -27.5 -4.5t-22.5 31.5q-12 26 -11.5 35t15.5 18l324 195q18 12 30 4t29 -45q19 -40 18.5 -52.5 t-20.5 -21.5z" />
<glyph unicode="&#xe2;" d="M344 729q-2 -19 -16.5 -25t-59.5 -6q-49 0 -60.5 5.5t-8.5 27.5q30 281 387 281q206 0 288 -81t64 -245l-70 -659q-1 -20 -14.5 -25.5t-58.5 -5.5t-58 5.5t-12 25.5l10 112q-44 -67 -126.5 -110t-198.5 -43q-158 0 -238 64.5t-80 182.5q0 155 98.5 235.5t272.5 80.5h311 l14 135q10 113 -36.5 158t-169.5 45q-115 0 -172 -38t-66 -120zM760 434h-299q-219 0 -219 -190q0 -71 48 -104.5t132 -33.5q134 0 227 68t105 178zM631 1284l-142 -123q-21 -19 -37 -23.5t-53 -4.5q-51 0 -47 18q1 6 10 14l218 217q16 19 61 19q30 0 41.5 -4t19.5 -15 l172 -217q12 -15 2.5 -23.5t-42.5 -8.5q-37 0 -54 5t-35 23z" />
<glyph unicode="&#xe3;" d="M344 729q-2 -19 -16.5 -25t-59.5 -6q-49 0 -60.5 5.5t-8.5 27.5q30 281 387 281q206 0 288 -81t64 -245l-70 -659q-1 -20 -14.5 -25.5t-58.5 -5.5t-58 5.5t-12 25.5l10 112q-44 -67 -126.5 -110t-198.5 -43q-158 0 -238 64.5t-80 182.5q0 155 98.5 235.5t272.5 80.5h311 l14 135q10 113 -36.5 158t-169.5 45q-115 0 -172 -38t-66 -120zM760 434h-299q-219 0 -219 -190q0 -71 48 -104.5t132 -33.5q134 0 227 68t105 178zM811 1305l2 26q2 15 12.5 20t42.5 5q38 0 46.5 -5.5t5.5 -25.5l-11 -53q-12 -80 -52 -112t-91 -32q-65 0 -129 39l-102 64 q-30 20 -54 20q-22 0 -35.5 -14t-17.5 -51l-2 -27q-2 -15 -12 -20.5t-41 -5.5q-38 0 -46 6t-5 26l8 54q24 141 145 141q61 0 129 -39l103 -61q31 -21 53 -21q23 0 35 14t16 52z" />
<glyph unicode="&#xe4;" d="M344 729q-2 -19 -16.5 -25t-59.5 -6q-49 0 -60.5 5.5t-8.5 27.5q30 281 387 281q206 0 288 -81t64 -245l-70 -659q-1 -20 -14.5 -25.5t-58.5 -5.5t-58 5.5t-12 25.5l10 112q-44 -67 -126.5 -110t-198.5 -43q-158 0 -238 64.5t-80 182.5q0 155 98.5 235.5t272.5 80.5h311 l14 135q10 113 -36.5 158t-169.5 45q-115 0 -172 -38t-66 -120zM760 434h-299q-219 0 -219 -190q0 -71 48 -104.5t132 -33.5q134 0 227 68t105 178zM455 1356q56 0 70.5 -8t11.5 -39l-13 -123q-3 -28 -19 -36.5t-69 -8.5t-67 8.5t-11 36.5l13 123q3 31 16.5 39t67.5 8z M803 1356q56 0 70.5 -8t11.5 -39l-13 -123q-3 -28 -19 -36.5t-69 -8.5t-66.5 8.5t-10.5 36.5l12 123q3 31 16.5 39t67.5 8z" />
<glyph unicode="&#xe5;" d="M344 729q-2 -19 -16.5 -25t-59.5 -6q-49 0 -60.5 5.5t-8.5 27.5q30 281 387 281q206 0 288 -81t64 -245l-70 -659q-1 -20 -14.5 -25.5t-58.5 -5.5t-58 5.5t-12 25.5l10 112q-44 -67 -126.5 -110t-198.5 -43q-158 0 -238 64.5t-80 182.5q0 155 98.5 235.5t272.5 80.5h311 l14 135q10 113 -36.5 158t-169.5 45q-115 0 -172 -38t-66 -120zM760 434h-299q-219 0 -219 -190q0 -71 48 -104.5t132 -33.5q134 0 227 68t105 178zM641 1462q83 0 125.5 -37t42.5 -106q0 -87 -50.5 -139t-144.5 -52q-83 0 -125.5 38t-42.5 108q0 88 50 138t145 50z M618 1204q48 0 77.5 26.5t29.5 84.5q0 37 -20.5 54t-67.5 17t-78 -26.5t-31 -81.5q0 -40 21 -57t69 -17z" />
<glyph unicode="&#xe6;" horiz-adv-x="1665" d="M1518 442h-617q-11 -174 46.5 -252.5t197.5 -78.5q93 0 149.5 37.5t67.5 105.5q5 18 18.5 24.5t57.5 6.5q48 0 60.5 -6t10.5 -27q-19 -129 -115.5 -199.5t-252.5 -70.5q-260 0 -338 170q-64 -85 -166.5 -125.5t-208.5 -40.5q-170 0 -252 66.5t-82 187.5q0 161 100 240 t281 79h297l12 125q10 112 -35.5 157.5t-164.5 45.5q-225 0 -240 -158q-2 -19 -16.5 -25t-59.5 -6q-49 0 -60 5.5t-9 27.5q30 281 393 281q244 0 303 -138q111 138 330 138q181 0 261.5 -94t80.5 -254q0 -55 -4 -84l-7 -62q-5 -47 -11.5 -61.5t-26.5 -14.5zM758 442h-291 q-100 0 -161.5 -47.5t-61.5 -148.5q0 -77 48.5 -108.5t137.5 -31.5q130 0 219 64.5t99 175.5zM1217 883q-134 0 -204 -75t-98 -249h504l4 53q2 20 2 58q0 103 -46.5 158t-161.5 55z" />
<glyph unicode="&#xe7;" horiz-adv-x="1034" d="M444 -106h35q90 0 135 -29.5t45 -100.5q0 -95 -52.5 -135.5t-155.5 -40.5h-193q-15 0 -19 9t-1 38q3 30 7.5 39t18.5 9h185q21 0 34.5 2t30.5 8t26 22t9 41q0 31 -19 39t-65 8h-107q-28 0 -38 7t-3 24l68 160q-134 28 -197 122t-63 261q0 54 6 119q28 270 138 393 t341 123q169 0 262.5 -72t81.5 -201q-2 -22 -15 -28t-62 -6q-45 0 -58.5 6.5t-11.5 25.5q6 71 -48 107.5t-157 36.5q-156 0 -224.5 -87.5t-90.5 -297.5q-8 -86 -8 -119q0 -141 56 -203.5t191 -62.5q216 0 236 153q2 19 18.5 26t61.5 7q46 0 56.5 -6t10.5 -29 q-20 -138 -119 -209t-268 -71q-31 0 -45 2z" />
<glyph unicode="&#xe8;" d="M918 451h-642q-2 -23 -2 -68q0 -142 61 -207t197 -65q103 0 161 37t69 106q5 19 19 25t59 6q47 0 58.5 -5.5t8.5 -27.5q-19 -130 -116 -200t-263 -70q-208 0 -306.5 97t-98.5 298q0 51 6 106q30 277 142.5 403t338.5 126q357 0 357 -348q0 -26 -4 -84l-5 -52 q-6 -49 -13 -63t-27 -14zM604 883q-142 0 -213 -72.5t-100 -243.5h528l4 45q4 40 4 64q0 100 -50.5 153.5t-172.5 53.5zM639 1128l-303 160q-19 7 -17.5 21.5t27.5 50.5q27 37 40.5 44.5t27.5 -5.5l282 -195q14 -8 13.5 -16.5t-17.5 -34.5q-19 -26 -29 -30t-24 5z" />
<glyph unicode="&#xe9;" d="M918 451h-642q-2 -23 -2 -68q0 -142 61 -207t197 -65q103 0 161 37t69 106q5 19 19 25t59 6q47 0 58.5 -5.5t8.5 -27.5q-19 -130 -116 -200t-263 -70q-208 0 -306.5 97t-98.5 298q0 51 6 106q30 277 142.5 403t338.5 126q357 0 357 -348q0 -26 -4 -84l-5 -52 q-6 -49 -13 -63t-27 -14zM604 883q-142 0 -213 -72.5t-100 -243.5h528l4 45q4 40 4 64q0 100 -50.5 153.5t-172.5 53.5zM936 1288l-336 -160q-18 -8 -27 -4t-22 31q-12 26 -11.5 35t15.5 18l324 195q18 12 30 4t29 -45q19 -40 18.5 -52.5t-20.5 -21.5z" />
<glyph unicode="&#xea;" d="M918 451h-642q-2 -23 -2 -68q0 -142 61 -207t197 -65q103 0 161 37t69 106q5 19 19 25t59 6q47 0 58.5 -5.5t8.5 -27.5q-19 -130 -116 -200t-263 -70q-208 0 -306.5 97t-98.5 298q0 51 6 106q30 277 142.5 403t338.5 126q357 0 357 -348q0 -26 -4 -84l-5 -52 q-6 -49 -13 -63t-27 -14zM604 883q-142 0 -213 -72.5t-100 -243.5h528l4 45q4 40 4 64q0 100 -50.5 153.5t-172.5 53.5zM627 1284l-142 -123q-21 -19 -37 -23.5t-53 -4.5q-51 0 -47 18q1 6 10 14l217 217q16 19 62 19q30 0 41.5 -4t19.5 -15l172 -217q11 -15 1.5 -23.5 t-42.5 -8.5q-37 0 -53.5 5t-34.5 23z" />
<glyph unicode="&#xeb;" d="M918 451h-642q-2 -23 -2 -68q0 -142 61 -207t197 -65q103 0 161 37t69 106q5 19 19 25t59 6q47 0 58.5 -5.5t8.5 -27.5q-19 -130 -116 -200t-263 -70q-208 0 -306.5 97t-98.5 298q0 51 6 106q30 277 142.5 403t338.5 126q357 0 357 -348q0 -26 -4 -84l-5 -52 q-6 -49 -13 -63t-27 -14zM604 883q-142 0 -213 -72.5t-100 -243.5h528l4 45q4 40 4 64q0 100 -50.5 153.5t-172.5 53.5zM459 1356q56 0 70.5 -8t11.5 -39l-13 -123q-3 -28 -19 -36.5t-69 -8.5t-67 8.5t-11 36.5l13 123q3 31 16.5 39t67.5 8zM805 1356q56 0 70.5 -8t11.5 -39 l-13 -123q-3 -28 -19 -36.5t-69 -8.5t-66.5 8.5t-10.5 36.5l12 123q3 31 16.5 39t67.5 8z" />
<glyph unicode="&#xec;" horiz-adv-x="501" d="M135 29l98 936q1 20 16.5 26t61.5 6q48 0 61.5 -6t12.5 -26l-98 -936q-2 -20 -16.5 -26.5t-61.5 -6.5q-46 0 -60.5 6.5t-13.5 26.5zM301 1128l-303 160q-19 7 -17.5 21.5t27.5 50.5q27 37 40.5 44.5t27.5 -5.5l282 -195q14 -8 13.5 -16.5t-17.5 -34.5q-19 -26 -29 -30 t-24 5z" />
<glyph unicode="&#xed;" horiz-adv-x="501" d="M135 29l98 936q1 20 16.5 26t61.5 6q48 0 61.5 -6t12.5 -26l-98 -936q-2 -20 -16.5 -26.5t-61.5 -6.5q-46 0 -60.5 6.5t-13.5 26.5zM692 1288l-336 -160q-18 -8 -27 -4t-22 31q-12 26 -11.5 35t15.5 18l324 195q18 12 30 4t29 -45q19 -40 18.5 -52.5t-20.5 -21.5z" />
<glyph unicode="&#xee;" horiz-adv-x="501" d="M135 29l98 936q1 20 16.5 26t61.5 6q48 0 61.5 -6t12.5 -26l-98 -936q-2 -20 -16.5 -26.5t-61.5 -6.5q-46 0 -60.5 6.5t-13.5 26.5zM344 1284l-141 -123q-21 -19 -37 -23.5t-53 -4.5q-51 0 -47 18q1 6 10 14l217 217q16 19 61 19q30 0 42 -4t20 -15l172 -217 q11 -15 1.5 -23.5t-42.5 -8.5q-37 0 -53.5 5t-34.5 23z" />
<glyph unicode="&#xef;" horiz-adv-x="501" d="M135 29l98 936q1 20 16.5 26t61.5 6q48 0 61.5 -6t12.5 -26l-98 -936q-2 -20 -16.5 -26.5t-61.5 -6.5q-46 0 -60.5 6.5t-13.5 26.5zM182 1356q56 0 70.5 -8t11.5 -39l-12 -123q-3 -28 -19 -36.5t-69 -8.5t-67 8.5t-11 36.5l12 123q3 31 16.5 39t67.5 8zM512 1356 q56 0 70.5 -8t11.5 -39l-12 -123q-3 -28 -19 -36.5t-69 -8.5t-67 8.5t-11 36.5l12 123q3 31 16.5 39t67.5 8z" />
<glyph unicode="&#xf0;" horiz-adv-x="1114" d="M1102 1266l-131 -49q55 -118 55 -330q0 -157 -20 -338q-31 -306 -141 -436.5t-345 -130.5q-206 0 -300.5 95.5t-94.5 299.5q0 54 6 119q28 270 138.5 393t342.5 123q91 0 167.5 -35.5t111.5 -95.5q6 192 -53 286l-199 -73q-12 -8 -20 -0.5t-15 34.5q-7 29 -5.5 39.5 t15.5 18.5l150 55q-83 53 -236 53q-18 0 -22 12t0 52q3 39 10 50t25 11q262 0 374 -121l160 60q15 6 21 -1t14 -36q9 -29 7.5 -39t-15.5 -16zM524 111q158 0 228 88t94 297q6 64 6 118q0 142 -56.5 204.5t-189.5 62.5q-158 0 -227.5 -88t-91.5 -297q-8 -86 -8 -119 q0 -141 56.5 -203.5t188.5 -62.5z" />
<glyph unicode="&#xf1;" horiz-adv-x="1146" d="M371 967l-9 -119q44 70 129.5 117t210.5 47q148 0 231 -72.5t83 -222.5q0 -18 -4 -64l-66 -624q-1 -20 -16.5 -26.5t-61.5 -6.5q-47 0 -61 6.5t-12 26.5l65 626q12 117 -35 170.5t-157 53.5q-136 0 -225 -75.5t-101 -197.5l-61 -577q-1 -20 -16.5 -26.5t-61.5 -6.5 q-47 0 -61.5 6.5t-12.5 26.5l98 938q3 20 16 25t58 5q46 0 59.5 -5t10.5 -25zM854 1305l2 26q2 15 12.5 20t42.5 5q38 0 46.5 -5.5t5.5 -25.5l-11 -53q-12 -80 -52 -112t-91 -32q-65 0 -129 39l-102 64q-30 20 -54 20q-22 0 -35.5 -14t-17.5 -51l-2 -27q-2 -15 -12 -20.5 t-41 -5.5q-38 0 -46 6t-5 26l8 54q24 141 145 141q61 0 129 -39l103 -61q32 -21 53 -21q23 0 35 14t16 52z" />
<glyph unicode="&#xf2;" horiz-adv-x="1105" d="M610 1012q207 0 300.5 -95.5t93.5 -298.5q0 -47 -7 -122q-28 -268 -138.5 -391t-342.5 -123q-207 0 -299 94.5t-92 296.5q0 59 6 123q28 270 138 393t341 123zM522 111q157 0 226.5 87.5t93.5 297.5q8 90 8 120q0 141 -57 203t-189 62q-157 0 -226 -87.5t-91 -297.5 q-8 -90 -8 -121q0 -139 56 -201.5t187 -62.5zM641 1128l-303 160q-19 7 -17.5 21.5t27.5 50.5q27 37 40.5 44.5t27.5 -5.5l282 -195q14 -8 13.5 -16.5t-17.5 -34.5q-19 -26 -29 -30t-24 5z" />
<glyph unicode="&#xf3;" horiz-adv-x="1105" d="M610 1012q207 0 300.5 -95.5t93.5 -298.5q0 -47 -7 -122q-28 -268 -138.5 -391t-342.5 -123q-207 0 -299 94.5t-92 296.5q0 59 6 123q28 270 138 393t341 123zM522 111q157 0 226.5 87.5t93.5 297.5q8 90 8 120q0 141 -57 203t-189 62q-157 0 -226 -87.5t-91 -297.5 q-8 -90 -8 -121q0 -139 56 -201.5t187 -62.5zM958 1288l-335 -160q-18 -9 -27.5 -4.5t-22.5 31.5q-12 26 -11 35t16 18l323 195q18 12 30.5 4t29.5 -45q19 -40 18 -52t-21 -22z" />
<glyph unicode="&#xf4;" horiz-adv-x="1105" d="M610 1012q207 0 300.5 -95.5t93.5 -298.5q0 -47 -7 -122q-28 -268 -138.5 -391t-342.5 -123q-207 0 -299 94.5t-92 296.5q0 59 6 123q28 270 138 393t341 123zM522 111q157 0 226.5 87.5t93.5 297.5q8 90 8 120q0 141 -57 203t-189 62q-157 0 -226 -87.5t-91 -297.5 q-8 -90 -8 -121q0 -139 56 -201.5t187 -62.5zM647 1284l-141 -123q-21 -19 -37 -23.5t-53 -4.5q-51 0 -47 18q1 6 10 14l217 217q16 19 61 19q30 0 42 -4t20 -15l172 -217q11 -15 1.5 -23.5t-42.5 -8.5q-37 0 -53.5 5t-34.5 23z" />
<glyph unicode="&#xf5;" horiz-adv-x="1105" d="M610 1012q207 0 300.5 -95.5t93.5 -298.5q0 -47 -7 -122q-28 -268 -138.5 -391t-342.5 -123q-207 0 -299 94.5t-92 296.5q0 59 6 123q28 270 138 393t341 123zM522 111q157 0 226.5 87.5t93.5 297.5q8 90 8 120q0 141 -57 203t-189 62q-157 0 -226 -87.5t-91 -297.5 q-8 -90 -8 -121q0 -139 56 -201.5t187 -62.5zM836 1305l2 26q2 15 12.5 20t42.5 5q38 0 46 -5.5t5 -25.5l-10 -53q-12 -80 -52 -112t-91 -32q-65 0 -129 39l-103 64q-30 20 -53 20q-22 0 -35.5 -14t-17.5 -51l-2 -27q-2 -15 -12 -20.5t-42 -5.5q-38 0 -46 6t-5 26l8 54 q24 141 146 141q61 0 129 -39l102 -61q31 -21 53 -21q23 0 35.5 14t16.5 52z" />
<glyph unicode="&#xf6;" horiz-adv-x="1105" d="M610 1012q207 0 300.5 -95.5t93.5 -298.5q0 -47 -7 -122q-28 -268 -138.5 -391t-342.5 -123q-207 0 -299 94.5t-92 296.5q0 59 6 123q28 270 138 393t341 123zM522 111q157 0 226.5 87.5t93.5 297.5q8 90 8 120q0 141 -57 203t-189 62q-157 0 -226 -87.5t-91 -297.5 q-8 -90 -8 -121q0 -139 56 -201.5t187 -62.5zM479 1356q56 0 70.5 -8t11.5 -39l-12 -123q-3 -28 -19 -36.5t-69 -8.5t-67 8.5t-11 36.5l12 123q3 31 16.5 39t67.5 8zM825 1356q56 0 70.5 -8t11.5 -39l-12 -123q-3 -28 -19 -36.5t-69 -8.5t-67 8.5t-11 36.5l12 123 q3 31 16.5 39t67.5 8z" />
<glyph unicode="&#xf7;" horiz-adv-x="1110" d="M215 700h746q17 0 20 -12.5t-2 -52.5t-11.5 -53t-23.5 -13h-745q-15 0 -18.5 13t-0.5 53q5 40 11.5 52.5t23.5 12.5zM530 168q-59 0 -78 9t-16 38l15 137q1 31 20 39t80 8q63 0 82 -8t16 -39l-14 -137q-3 -29 -24 -38t-81 -9zM604 868q-59 0 -78 9t-16 38l14 138 q1 31 20.5 39t80.5 8q63 0 82 -8t16 -39l-14 -138q-3 -29 -24 -38t-81 -9z" />
<glyph unicode="&#xf8;" horiz-adv-x="1118" d="M612 1012q147 0 236 -47l63 86q10 15 25.5 19.5t52.5 4.5q49 0 49 -16q-1 -6 -6 -12l-106 -146q80 -92 80 -283q0 -47 -7 -122q-28 -268 -138.5 -391t-342.5 -123q-144 0 -229 43l-62 -82q-13 -16 -28 -21.5t-52 -5.5q-52 0 -48 20q2 5 7 11l103 139q-82 95 -82 287 q0 59 6 123q28 270 138 393t341 123zM281 375q0 -99 26 -158l457 627q-55 37 -158 37q-157 0 -226 -87.5t-91 -297.5q-8 -90 -8 -121zM524 111q157 0 226.5 87.5t93.5 297.5q8 90 8 120q0 96 -27 154l-456 -625q53 -34 155 -34z" />
<glyph unicode="&#xf9;" horiz-adv-x="1128" d="M776 27l8 118q-100 -163 -307 -163q-175 0 -261.5 89.5t-68.5 268.5l66 625q1 20 16.5 26t61.5 6q48 0 61.5 -6t12.5 -26l-64 -615q-12 -122 38 -180.5t171 -58.5q126 0 205.5 78.5t93.5 201.5l59 574q1 20 16 26t62 6q48 0 61.5 -6t12.5 -26l-98 -938 q-1 -20 -15.5 -25.5t-58.5 -5.5q-46 0 -59.5 5.5t-12.5 25.5zM645 1128l-303 160q-19 7 -17.5 21.5t27.5 50.5q27 37 40.5 44.5t27.5 -5.5l282 -195q14 -8 13.5 -16.5t-17.5 -34.5q-19 -26 -29 -30t-24 5z" />
<glyph unicode="&#xfa;" horiz-adv-x="1128" d="M776 27l8 118q-100 -163 -307 -163q-175 0 -261.5 89.5t-68.5 268.5l66 625q1 20 16.5 26t61.5 6q48 0 61.5 -6t12.5 -26l-64 -615q-12 -122 38 -180.5t171 -58.5q126 0 205.5 78.5t93.5 201.5l59 574q1 20 16 26t62 6q48 0 61.5 -6t12.5 -26l-98 -938 q-1 -20 -15.5 -25.5t-58.5 -5.5q-46 0 -59.5 5.5t-12.5 25.5zM946 1288l-336 -160q-18 -8 -27 -4t-22 31q-12 26 -11.5 35t15.5 18l324 195q18 12 30 4t29 -45q19 -40 18.5 -52.5t-20.5 -21.5z" />
<glyph unicode="&#xfb;" horiz-adv-x="1128" d="M776 27l8 118q-100 -163 -307 -163q-175 0 -261.5 89.5t-68.5 268.5l66 625q1 20 16.5 26t61.5 6q48 0 61.5 -6t12.5 -26l-64 -615q-12 -122 38 -180.5t171 -58.5q126 0 205.5 78.5t93.5 201.5l59 574q1 20 16 26t62 6q48 0 61.5 -6t12.5 -26l-98 -938 q-1 -20 -15.5 -25.5t-58.5 -5.5q-46 0 -59.5 5.5t-12.5 25.5zM653 1284l-141 -123q-21 -19 -37 -23.5t-53 -4.5q-51 0 -47 18q1 6 10 14l217 217q16 19 62 19q30 0 41.5 -4t19.5 -15l172 -217q11 -15 1.5 -23.5t-42.5 -8.5q-37 0 -53.5 5t-34.5 23z" />
<glyph unicode="&#xfc;" horiz-adv-x="1128" d="M776 27l8 118q-100 -163 -307 -163q-175 0 -261.5 89.5t-68.5 268.5l66 625q1 20 16.5 26t61.5 6q48 0 61.5 -6t12.5 -26l-64 -615q-12 -122 38 -180.5t171 -58.5q126 0 205.5 78.5t93.5 201.5l59 574q1 20 16 26t62 6q48 0 61.5 -6t12.5 -26l-98 -938 q-1 -20 -15.5 -25.5t-58.5 -5.5q-46 0 -59.5 5.5t-12.5 25.5zM481 1356q56 0 70.5 -8t11.5 -39l-12 -123q-3 -28 -19 -36.5t-69 -8.5t-67 8.5t-11 36.5l12 123q3 31 16.5 39t67.5 8zM829 1356q56 0 70.5 -8t11.5 -39l-12 -123q-3 -28 -19 -36.5t-69 -8.5t-67 8.5t-11 36.5 l12 123q3 31 16.5 39t67.5 8z" />
<glyph unicode="&#xfd;" horiz-adv-x="1013" d="M150 -252q49 0 80 8.5t62 38t55 67t67 113.5l10 23q-41 3 -49 25q-65 192 -135.5 458t-114.5 477q-5 22 9.5 30.5t64.5 8.5q48 0 64.5 -8t19.5 -28q76 -422 202 -850q98 191 201 428.5t170 421.5q7 20 22 28t60 8q48 0 62 -8.5t8 -32.5q-66 -192 -199 -480t-260 -517 q-30 -54 -47 -84.5t-41.5 -70t-41.5 -60t-40.5 -45.5t-44.5 -37t-49 -23.5t-59 -15.5t-68 -4q-65 0 -105 10q-15 3 -18 14.5t2 49.5q3 39 9.5 51t23.5 12q3 0 12.5 -2t27.5 -4t40 -2zM946 1288l-336 -160q-18 -8 -27 -4t-22 31q-12 26 -11.5 35t15.5 18l324 195q18 12 30 4 t29 -45q19 -40 18.5 -52.5t-20.5 -21.5z" />
<glyph unicode="&#xfe;" horiz-adv-x="1146" d="M424 1389l-55 -510q109 133 315 133q358 0 358 -391q0 -55 -6 -117q-29 -272 -135.5 -397t-312.5 -125q-216 0 -299 139l-47 -461q-1 -20 -16.5 -26.5t-61.5 -6.5q-47 0 -61.5 6.5t-12.5 26.5l182 1729q2 20 15.5 26t60.5 6t62 -6t14 -26zM330 496q-6 -59 -6 -107 q0 -146 57.5 -212t191.5 -66q150 0 218 89t90 304q8 86 8 117q0 135 -55 197.5t-181 62.5q-155 0 -228.5 -90.5t-94.5 -294.5z" />
<glyph unicode="&#xff;" horiz-adv-x="1013" d="M150 -252q49 0 80 8.5t62 38t55 67t67 113.5l10 23q-41 3 -49 25q-65 192 -135.5 458t-114.5 477q-5 22 9.5 30.5t64.5 8.5q48 0 64.5 -8t19.5 -28q76 -422 202 -850q98 191 201 428.5t170 421.5q7 20 22 28t60 8q48 0 62 -8.5t8 -32.5q-66 -192 -199 -480t-260 -517 q-30 -54 -47 -84.5t-41.5 -70t-41.5 -60t-40.5 -45.5t-44.5 -37t-49 -23.5t-59 -15.5t-68 -4q-65 0 -105 10q-15 3 -18 14.5t2 49.5q3 39 9.5 51t23.5 12q3 0 12.5 -2t27.5 -4t40 -2zM778 1356q56 0 70.5 -8t11.5 -39l-12 -123q-3 -28 -19 -36.5t-69 -8.5t-67 8.5t-11 36.5 l12 123q3 31 16.5 39t67.5 8zM430 1356q56 0 70.5 -8t11.5 -39l-12 -123q-3 -28 -19 -36.5t-69 -8.5t-67 8.5t-11 36.5l12 123q3 31 16.5 39t67.5 8z" />
<glyph unicode="&#x152;" horiz-adv-x="1812" d="M1726 1214h-579l-47 -448h514q18 0 24 -14t0 -56q-4 -44 -10.5 -56.5t-23.5 -12.5h-521l-51 -486h584q18 0 24 -14t0 -55q-4 -44 -10.5 -58t-21.5 -14h-973q-262 0 -372.5 114.5t-110.5 374.5q0 72 10 189q16 149 43 256t72 190t111.5 132.5t158 74.5t215.5 25h977 q17 0 21.5 -14t0.5 -58q-3 -42 -10 -56t-25 -14zM641 137h231l54 500l61 582h-233q-111 0 -182.5 -24t-122.5 -88t-79 -165t-46 -264q-11 -139 -11 -199q0 -194 73 -268t255 -74z" />
<glyph unicode="&#x153;" horiz-adv-x="1726" d="M1581 444h-618q-2 -20 -2 -61q0 -142 59 -207t188 -65q92 0 149 37.5t68 105.5q3 18 17.5 24.5t58.5 6.5q47 0 60 -6.5t10 -26.5q-19 -129 -116 -199.5t-253 -70.5q-267 0 -336 180q-51 -93 -137 -136.5t-223 -43.5q-200 0 -290.5 94.5t-90.5 296.5q0 58 6 123 q28 270 136.5 393t334.5 123q137 0 216.5 -45t113.5 -138q53 93 139 138t215 45q182 0 263 -93.5t81 -252.5q0 -57 -4 -86l-6 -60q-5 -47 -12 -61.5t-27 -14.5zM514 111q151 0 221 88.5t92 296.5q9 97 9 116q0 142 -56 205.5t-186 63.5q-149 0 -217 -88.5t-90 -296.5 q-8 -90 -8 -121q0 -139 54.5 -201.5t180.5 -62.5zM1280 883q-134 0 -204.5 -74.5t-98.5 -247.5h506l4 51q2 20 2 58q0 103 -47.5 158t-161.5 55z" />
<glyph unicode="&#x178;" horiz-adv-x="1130" d="M993 1325q11 22 25.5 28.5t62.5 6.5q89 0 89 -22q0 -6 -5 -15q-97 -173 -245.5 -413.5t-264.5 -411.5h-2l-47 -467q-2 -21 -17.5 -28t-64.5 -7q-50 0 -65 7t-13 28l50 467q-77 169 -176 409.5t-162 415.5q-6 21 10 29t74 8q48 0 62 -6.5t20 -28.5q126 -381 262 -686 q238 370 407 686zM881 1686q55 0 69 -8t11 -38l-13 -124q-3 -29 -18 -37.5t-68 -8.5t-68 9t-12 37l13 124q3 30 17.5 38t68.5 8zM518 1686q55 0 69 -8.5t9 -37.5l-12 -124q-3 -29 -17.5 -37.5t-66.5 -8.5q-54 0 -69.5 9t-12.5 37l12 124q5 30 19.5 38t68.5 8z" />
<glyph unicode="&#x2c6;" horiz-adv-x="669" d="M428 1284l-141 -123q-21 -19 -37 -23.5t-53 -4.5q-51 0 -47 18q1 6 10 14l217 217q16 19 61 19q30 0 42 -4t20 -15l172 -217q11 -15 1.5 -23.5t-42.5 -8.5q-37 0 -53.5 5t-34.5 23z" />
<glyph unicode="&#x2dc;" horiz-adv-x="669" d="M614 1305l2 26q2 15 13 20t43 5q38 0 46 -5.5t5 -25.5l-10 -53q-8 -55 -33 -89t-52 -44.5t-59 -10.5q-65 0 -129 39l-102 64q-30 20 -53 20t-36.5 -14t-17.5 -51l-2 -27q-2 -15 -12 -20.5t-41 -5.5q-38 0 -46 6t-5 26l8 54q24 141 146 141q61 0 129 -39l102 -61 q32 -21 53 -21q23 0 35 14t16 52z" />
<glyph unicode="&#x2000;" horiz-adv-x="878" />
<glyph unicode="&#x2001;" horiz-adv-x="1756" />
<glyph unicode="&#x2002;" horiz-adv-x="878" />
<glyph unicode="&#x2003;" horiz-adv-x="1756" />
<glyph unicode="&#x2004;" horiz-adv-x="585" />
<glyph unicode="&#x2005;" horiz-adv-x="439" />
<glyph unicode="&#x2006;" horiz-adv-x="292" />
<glyph unicode="&#x2007;" horiz-adv-x="292" />
<glyph unicode="&#x2008;" horiz-adv-x="219" />
<glyph unicode="&#x2009;" horiz-adv-x="351" />
<glyph unicode="&#x200a;" horiz-adv-x="97" />
<glyph unicode="&#x2010;" horiz-adv-x="815" d="M182 616h492q17 0 21 -11.5t1 -51.5q-5 -41 -10 -52.5t-22 -11.5h-492q-17 0 -20.5 12t0.5 52q3 31 5.5 41t7.5 16t17 6z" />
<glyph unicode="&#x2011;" horiz-adv-x="815" d="M182 616h492q17 0 21 -11.5t1 -51.5q-5 -41 -10 -52.5t-22 -11.5h-492q-17 0 -20.5 12t0.5 52q3 31 5.5 41t7.5 16t17 6z" />
<glyph unicode="&#x2012;" horiz-adv-x="815" d="M182 616h492q17 0 21 -11.5t1 -51.5q-5 -41 -10 -52.5t-22 -11.5h-492q-17 0 -20.5 12t0.5 52q3 31 5.5 41t7.5 16t17 6z" />
<glyph unicode="&#x2013;" d="M174 616h756q17 0 21 -11.5t1 -51.5q-5 -41 -10 -52.5t-22 -11.5h-754q-17 0 -21 12t0 52q3 41 7.5 52t21.5 11z" />
<glyph unicode="&#x2014;" horiz-adv-x="1482" d="M170 616h1184q18 0 22 -12t0 -51q-5 -41 -10.5 -52.5t-22.5 -11.5h-1183q-17 0 -21 12t0 52q5 42 9.5 52.5t21.5 10.5z" />
<glyph unicode="&#x2018;" horiz-adv-x="425" d="M344 1118l-10 -96q-1 -11 -4 -16t-19 -9t-49 -4q-46 0 -58.5 7t-10.5 22l12 102q11 106 61.5 179t151.5 116q14 9 25 2.5t22 -37.5q9 -23 10 -35t-3 -17t-15 -11q-55 -30 -80 -78t-33 -125z" />
<glyph unicode="&#x2019;" horiz-adv-x="425" d="M252 1294l10 97q1 11 4 15.5t19 8.5t49 4q46 0 58.5 -6.5t10.5 -21.5l-12 -103q-11 -106 -61.5 -179t-151.5 -116q-14 -9 -25 -2.5t-22 37.5q-9 23 -10 35.5t3 17.5t15 11q55 30 80 77.5t33 124.5z" />
<glyph unicode="&#x201a;" horiz-adv-x="425" d="M127 102l10 97q1 11 4 15.5t19 8.5t49 4q46 0 59 -6.5t11 -21.5l-13 -103q-11 -106 -61.5 -179t-151.5 -116q-14 -9 -25 -2.5t-22 37.5q-9 23 -10 35.5t3 17.5t15 11q55 30 80 77.5t33 124.5z" />
<glyph unicode="&#x201c;" horiz-adv-x="751" d="M344 1118l-10 -96q-1 -11 -4 -16t-19 -9t-49 -4q-46 0 -58.5 7t-10.5 22l12 102q11 106 61.5 179t151.5 116q14 9 25 2.5t22 -37.5q9 -23 10 -35t-3 -17t-15 -11q-55 -30 -80 -78t-33 -125zM670 1118l-11 -96q-1 -12 -3.5 -16.5t-18.5 -8.5t-49 -4q-46 0 -59 7t-11 22 l12 102q11 106 61.5 179t151.5 116q14 9 25.5 2t22.5 -37q12 -36 10 -45.5t-19 -17.5q-55 -29 -79.5 -77t-32.5 -126z" />
<glyph unicode="&#x201d;" horiz-adv-x="751" d="M252 1294l10 97q1 11 4 15.5t19 8.5t49 4q46 0 58.5 -6.5t10.5 -21.5l-12 -103q-11 -106 -61.5 -179t-151.5 -116q-14 -9 -25 -2.5t-22 37.5q-9 23 -10 35.5t3 17.5t15 11q55 30 80 77.5t33 124.5zM578 1294l10 97q1 12 3.5 16t18.5 8t49 4q46 0 59 -6.5t11 -21.5 l-12 -103q-11 -106 -61.5 -179t-151.5 -116q-14 -9 -25 -2.5t-22 37.5q-9 23 -10 35.5t3 17.5t15 11q55 30 80 77.5t33 124.5z" />
<glyph unicode="&#x201e;" horiz-adv-x="751" d="M127 102l10 97q1 11 4 15.5t19 8.5t49 4q46 0 59 -6.5t11 -21.5l-13 -103q-11 -106 -61.5 -179t-151.5 -116q-14 -9 -25 -2.5t-22 37.5q-9 23 -10 35.5t3 17.5t15 11q55 30 80 77.5t33 124.5zM451 102l10 97q1 12 3.5 16t18.5 8t49 4q46 0 59 -6.5t11 -21.5l-12 -103 q-11 -106 -61.5 -179t-151.5 -116q-14 -9 -25 -2.5t-22 37.5q-9 23 -10 35.5t3 17.5t15 11q55 30 80 77.5t33 124.5z" />
<glyph unicode="&#x2022;" horiz-adv-x="704" d="M352 365q-97 0 -130.5 20.5t-33.5 87.5q0 24 7 78q7 68 14.5 100t29 54.5t53 28t93.5 5.5q97 0 129.5 -20.5t32.5 -87.5q0 -31 -6 -80q-5 -44 -9.5 -70t-13.5 -49.5t-20 -34.5t-32.5 -19.5t-47 -10.5t-66.5 -2z" />
<glyph unicode="&#x2026;" horiz-adv-x="1454" d="M201 -4q-60 0 -79 9t-16 38l15 137q1 31 20 39t80 8q63 0 82 -8t16 -39l-14 -137q-3 -29 -24 -38t-80 -9zM686 -4q-60 0 -79.5 9t-16.5 38l14 137q3 31 22 39t81 8q63 0 81 -8t17 -39l-14 -137q-3 -29 -24 -38t-81 -9zM1171 -4q-60 0 -79.5 9t-16.5 38l15 137 q3 31 21.5 39t80.5 8t80.5 -8t15.5 -39l-14 -137q-1 -29 -22 -38t-81 -9z" />
<glyph unicode="&#x202f;" horiz-adv-x="351" />
<glyph unicode="&#x2039;" horiz-adv-x="624" d="M141 553q3 29 21 49l221 256q8 13 23.5 17t64.5 4q53 0 53 -16q0 -5 -6 -13l-256 -297l195 -297q4 -9 2 -16t-16 -11t-40 -4q-46 0 -62.5 4.5t-23.5 16.5l-167 256q-12 20 -9 51z" />
<glyph unicode="&#x203a;" horiz-adv-x="624" d="M483 551q-3 -30 -20 -49l-221 -256q-8 -13 -23.5 -17t-64.5 -4q-54 0 -54 16q1 6 6 13l256 297l-194 297q-3 6 -3.5 10.5t2.5 8.5t9.5 6.5t17.5 4t27 1.5q46 0 62.5 -4.5t23.5 -16.5l168 -256q12 -19 8 -51z" />
<glyph unicode="&#x205f;" horiz-adv-x="439" />
<glyph unicode="&#x20ac;" horiz-adv-x="1282" d="M729 477h-328v-20q0 -194 68 -268t236 -74q151 0 218 61t81 184q2 21 17.5 28t61.5 7q48 0 61 -7t11 -28q-20 -189 -126.5 -283.5t-332.5 -94.5q-247 0 -349.5 111t-102.5 368v16h-127q-17 0 -21 11t0 51q3 40 8.5 50.5t22.5 10.5h121q4 52 8 78l8 78h-119 q-17 0 -20.5 10.5t0.5 50.5q5 43 9.5 53.5t21.5 10.5h129q50 266 170 379.5t366 113.5q222 0 320.5 -94t79.5 -272q-2 -20 -16.5 -26.5t-63.5 -6.5q-47 0 -60.5 6.5t-11.5 26.5q9 115 -48 174t-202 59q-168 0 -251 -78t-124 -282h390q18 0 22 -12t0 -52q-5 -41 -9.5 -51 t-21.5 -10h-401q-8 -49 -10 -78q-4 -30 -8 -78h331q17 0 21.5 -11t1.5 -50q-5 -41 -9.5 -51.5t-21.5 -10.5z" />
<glyph unicode="&#x2122;" horiz-adv-x="1548" d="M897 1356q68 0 74 -25l149 -465l248 465q8 14 23.5 19.5t52.5 5.5q40 0 57.5 -5.5t16.5 -19.5l-76 -710q-2 -15 -10 -19t-39 -4q-34 0 -43.5 4t-8.5 19l64 598l-236 -437q-7 -15 -18 -21.5t-39 -6.5q-50 0 -59 28l-142 435l-63 -596q-2 -15 -10.5 -19t-42.5 -4 q-32 0 -41.5 4t-8.5 19l76 710q1 14 18.5 19.5t57.5 5.5zM674 1262h-203l-65 -641q-2 -14 -11.5 -18.5t-44.5 -4.5q-33 0 -43 4.5t-8 18.5l68 641h-197q-14 0 -17.5 8.5t-0.5 38.5q5 34 8 40.5t16 6.5h504q14 0 17 -7.5t-1 -39.5q-2 -31 -5.5 -39t-16.5 -8z" />
<glyph unicode="&#x25fc;" horiz-adv-x="993" d="M0 993h993v-993h-993v993z" />
</font>
</defs>
</svg>
