<?xml version="1.0" standalone="no"?>
<!DOCTYPE svg PUBLIC "-//W3C//DTD SVG 1.1//EN" "http://www.w3.org/Graphics/SVG/1.1/DTD/svg11.dtd" >
<svg xmlns="http://www.w3.org/2000/svg" xmlns:xlink="http://www.w3.org/1999/xlink" version="1.1">
<metadata></metadata>
<defs>
<font id="frygiathin" horiz-adv-x="1085" >
<font-face units-per-em="2048" ascent="1536" descent="-512" />
<missing-glyph horiz-adv-x="485" />
<glyph unicode="&#xfb01;" horiz-adv-x="1042" d="M797 1360q-91 24 -211 24q-162 0 -221.5 -67t-59.5 -232v-110h526q13 0 17 -1t4 -7v-959q0 -6 -3.5 -7t-14.5 -1q-13 0 -16 1t-3 7v932h-510v-932q0 -6 -3.5 -7t-14.5 -1q-19 0 -19 8v932h-192q-8 0 -8 16q0 19 8 19h192v112q0 179 69.5 255.5t248.5 76.5q121 0 219 -26 q11 -5 6 -21q-4 -15 -14 -12z" />
<glyph unicode="&#xfb02;" horiz-adv-x="1064" d="M305 1085v-110h258q8 0 8 -17q0 -12 -1 -15t-7 -3h-258v-932q0 -6 -3.5 -7t-14.5 -1q-19 0 -19 8v932h-192q-8 0 -8 16q0 19 8 19h192v112q0 91 15.5 151t53 102t101 60.5t160.5 18.5q147 0 240 -26q14 -3 14 -15v-1188q0 -87 24.5 -121t98.5 -34h41q8 0 8 -17 q0 -12 -1 -15t-7 -3h-45q-89 0 -122.5 43t-33.5 143v1178q-86 20 -217 20q-89 0 -145.5 -16t-89.5 -53.5t-45.5 -91.5t-12.5 -138z" />
<glyph unicode="&#xfb03;" horiz-adv-x="1599" d="M823 975v112q0 179 70 255.5t248 76.5q119 0 221 -26q8 -6 4 -21q-3 -10 -5.5 -12t-8.5 0q-91 24 -211 24q-162 0 -221.5 -67t-59.5 -232v-110h526q13 0 17 -1t4 -7v-959q0 -6 -3.5 -7t-14.5 -1q-19 0 -19 8v932h-508v-932q0 -8 -18 -8q-13 0 -17 1t-4 7v932h-518v-932 q0 -6 -3.5 -7t-14.5 -1q-19 0 -19 8v932h-192q-8 0 -8 16q0 19 8 19h192v153q0 151 52.5 221t179.5 70q85 0 155 -24q7 -2 2 -21q-7 -12 -16 -10q-47 20 -139 20q-112 0 -154.5 -61t-42.5 -197v-151h518z" />
<glyph unicode="&#xfb04;" horiz-adv-x="1619" d="M823 975v112q0 180 71.5 256t258.5 76q145 0 242 -26q12 -3 12 -15v-1188q0 -87 25.5 -121t99.5 -34h39q8 0 8 -17q0 -12 -1 -15t-7 -3h-45q-89 0 -122.5 43t-33.5 143v1178q-86 20 -217 20q-89 0 -145.5 -16t-89.5 -53.5t-45.5 -91.5t-12.5 -138v-110h260q6 0 6 -17 q0 -18 -6 -18h-258v-932q0 -8 -18 -8q-13 0 -17 1t-4 7v932h-518v-932q0 -6 -3.5 -7t-14.5 -1q-19 0 -19 8v932h-192q-8 0 -8 16q0 19 8 19h192v153q0 151 52.5 221t179.5 70q85 0 155 -24q7 -2 2 -21q-7 -12 -16 -10q-47 20 -139 20q-112 0 -154.5 -61t-42.5 -197v-151h518 z" />
<glyph horiz-adv-x="0" />
<glyph horiz-adv-x="682" />
<glyph unicode=" "  horiz-adv-x="485" />
<glyph unicode="&#x09;" horiz-adv-x="485" />
<glyph unicode="&#xa0;" horiz-adv-x="485" />
<glyph unicode="!" horiz-adv-x="483" d="M240 383q-15 0 -15 8l-6 955q-1 7 3 8.5t18 1.5q11 0 15 -0.5t6.5 -2.5t2.5 -7l-8 -955q0 -8 -16 -8zM242 0h-11.5t-6.5 1t-4 3t-1 6v158q0 7 4.5 9.5t18.5 2.5q22 0 22 -12v-158q0 -7 -4 -8.5t-18 -1.5z" />
<glyph unicode="&#x22;" horiz-adv-x="655" d="M166 934l-6 467q0 6 3.5 8t16.5 2q15 0 19 -2t4 -8l-8 -467q0 -8 -15 -8q-14 0 -14 8zM459 928l-6 467q0 6 3.5 8t16.5 2q15 0 19 -2t4 -8l-9 -467q0 -8 -14 -8t-14 8z" />
<glyph unicode="#" horiz-adv-x="1179" d="M664 8l90 398h-430l-91 -398q0 -8 -16 -8t-16 8l90 398h-193q-8 0 -8 14t8 14h199l90 404h-190q-9 0 -9 16q0 14 9 14h198l90 398q0 8 17 8q16 0 16 -8l-90 -398h430l90 398q0 8 17 8q16 0 16 -8l-90 -398h192q9 0 9 -14q0 -16 -9 -16h-200l-90 -404h194q6 0 6 -14 t-6 -14h-201l-90 -398q0 -8 -16 -8t-16 8zM420 838l-90 -404h430l90 404h-430z" />
<glyph unicode="$" horiz-adv-x="1150" d="M588 -184q-13 0 -16 1t-3 7v166q-205 5 -314.5 90t-109.5 254q0 8 19 8q11 0 14.5 -1t3.5 -7q0 -300 389 -309v647q-80 22 -134 41.5t-109 50.5t-87 68t-52.5 91.5t-20.5 123.5q0 162 90.5 238.5t302.5 76.5h8v170q0 6 3 7t16 1q12 0 15 -1t3 -7v-172q184 -8 268 -86.5 t84 -245.5q0 -6 -3 -7t-15 -1q-11 0 -13.5 1t-2.5 7q-1 152 -76.5 221.5t-243.5 75.5v-623h2q90 -25 147 -45.5t109.5 -50t80.5 -65.5t44.5 -88t16.5 -121q0 -170 -91.5 -254.5t-306.5 -87.5v-166q0 -6 -3 -7t-15 -1zM967 332q0 63 -15.5 109.5t-41 79t-74 59t-100 44.5 t-132.5 40v-639q199 1 281 76.5t82 230.5zM205 1047q0 -63 18 -111t45.5 -80t78.5 -59.5t99 -44.5t125 -39v614h-8q-196 0 -277 -65.5t-81 -214.5z" />
<glyph unicode="%" horiz-adv-x="1556" d="M383 1362q248 0 248 -309q0 -310 -248 -310q-246 0 -246 310q0 309 246 309zM383 774q109 0 161 68.5t52 210.5q0 143 -51.5 210.5t-161.5 67.5q-109 0 -161 -68t-52 -210t52 -210.5t161 -68.5zM1174 610q125 0 186 -76.5t61 -232.5q0 -307 -247 -307q-246 0 -246 307 q0 309 246 309zM1174 25q109 0 160.5 67.5t51.5 208.5q0 143 -51 211t-161 68q-109 0 -161 -68.5t-52 -210.5q0 -141 52 -208.5t161 -67.5zM1212 1348l-831 -1340q-4 -8 -23 -8q-9 0 -12 2t0 6l830 1340q6 8 24 8q9 0 12 -2t0 -6z" />
<glyph unicode="&#x26;" horiz-adv-x="1339" d="M1270 39q4 1 6 -2t4 -12q3 -9 2.5 -11.5t-6.5 -5.5q-37 -14 -98 -14q-81 0 -127 49t-58 156q-43 -97 -144.5 -153t-254.5 -56q-221 0 -336 102.5t-115 300.5q0 157 78.5 257.5t202.5 119.5q-96 13 -153.5 83t-57.5 202q0 305 346 305q184 0 262.5 -70.5t83.5 -214.5 q0 -8 -18 -8q-17 0 -19 10q-5 128 -73 188t-236 60q-161 0 -234 -67.5t-73 -202.5q0 -140 64.5 -204.5t201.5 -64.5h139q9 0 9 -18t-9 -18h-137q-157 0 -247.5 -96.5t-90.5 -258.5q0 -182 104.5 -277t307.5 -95q198 0 299.5 94t101.5 243v390h-170q-6 0 -6 18t6 18h414 q8 0 8 -18t-8 -18h-209v-392q0 -34 -6 -61q0 -149 38.5 -209.5t117.5 -60.5q23 0 41.5 2.5t33.5 6.5z" />
<glyph unicode="'" horiz-adv-x="362" d="M166 934l-6 467q0 6 3.5 8t16.5 2q15 0 19 -2t4 -8l-8 -467q0 -8 -15 -8q-14 0 -14 8z" />
<glyph unicode="(" horiz-adv-x="655" d="M188 524q0 466 81 683.5t268 217.5h36q9 0 9 -16t-9 -16h-34q-169 0 -242.5 -209.5t-73.5 -659.5t73.5 -659t242.5 -209h34q9 0 9 -16q0 -17 -9 -17h-36q-187 0 -268 217.5t-81 683.5z" />
<glyph unicode=")" horiz-adv-x="655" d="M467 524q0 -467 -80.5 -684t-267.5 -217h-37q-8 0 -8 17q0 16 8 16h35q169 0 242 208.5t73 659.5t-73 660t-242 209h-35q-8 0 -8 16t8 16h37q187 0 267.5 -217t80.5 -684z" />
<glyph unicode="*" horiz-adv-x="1036" d="M166 1155l342 -125l-10 365q0 7 3.5 9.5t16.5 2.5q21 0 21 -12l-11 -365l340 125q7 2 10.5 -1t6.5 -17q10 -20 -2 -23l-351 -104l224 -285q5 -7 -11 -20q-12 -9 -16.5 -10t-7.5 5l-203 297l-203 -297q-5 -6 -9 -5t-15 10q-16 11 -10 20l221 285l-348 104q-12 3 -4 23 q4 14 7.5 17t8.5 1z" />
<glyph unicode="+" d="M561 1024v-377h361q8 0 8 -16q0 -17 -8 -17h-361v-378q0 -9 -18 -9q-17 0 -17 9v378h-362q-6 0 -6 17q0 16 6 16h362v377q0 8 17 8q18 0 18 -8z" />
<glyph unicode="," horiz-adv-x="378" d="M231 201q15 0 20 -2.5t3 -10.5q-46 -186 -166 -458q-4 -9 -18 -9q-15 0 -15 9q118 284 152 458q1 6 2.5 8t6.5 3.5t15 1.5z" />
<glyph unicode="-" horiz-adv-x="786" d="M150 567h487q8 0 8 -18q0 -17 -8 -17h-487q-9 0 -9 17q0 18 9 18z" />
<glyph unicode="." horiz-adv-x="378" d="M190 0q-10 0 -14 0.5t-6 2.5t-2 7v158q0 7 4 9.5t18 2.5q23 0 23 -12v-158q0 -7 -4.5 -8.5t-18.5 -1.5z" />
<glyph unicode="/" horiz-adv-x="724" d="M680 1454l-598 -1614q-3 -8 -23 -8q-10 0 -13 1.5t-1 6.5l598 1614q3 8 23 8q10 0 13 -1.5t1 -6.5z" />
<glyph unicode="0" horiz-adv-x="1142" d="M571 1284q225 0 325.5 -155.5t100.5 -491.5t-100.5 -491.5t-325.5 -155.5t-326.5 155.5t-101.5 491.5t101.5 491.5t326.5 155.5zM571 25q207 0 297 145.5t90 466.5q0 322 -90 467t-297 145t-297 -145t-90 -467q0 -321 90 -466.5t297 -145.5z" />
<glyph unicode="1" horiz-adv-x="804" d="M399 8v1225l-293 -115q-6 -3 -9 1.5t-3 13.5q0 15 8 18l324 127q12 6 12 -6v-1264q0 -6 -3 -7t-15 -1q-21 0 -21 8z" />
<glyph unicode="2" horiz-adv-x="1046" d="M520 1284q365 0 365 -338q0 -188 -139 -320q-66 -63 -222 -158l-1 -1h-1l-1 -1h-1l-1 -1l-1 -1h-1l-1 -1h-1l-1 -1l-1 -1h-1l-1 -1l-1 -1h-1l-1 -1h-1l-1 -1q-64 -40 -104.5 -67t-91 -69t-79.5 -79.5t-49 -87.5t-20 -103v-16h741q8 0 8 -17q0 -18 -8 -18h-768 q-8 0 -10 2.5t-2 11.5v33q0 57 20.5 110t49.5 92.5t81 84t94 73.5t109 72q150 93 204 138q139 115 160 264q5 31 5 65q0 154 -80.5 227.5t-245.5 73.5q-100 0 -167.5 -21t-105.5 -64t-54.5 -98.5t-18.5 -135.5q0 -10 -18 -10q-19 0 -19 10q2 87 21.5 150t62.5 111 t117.5 71.5t181.5 23.5z" />
<glyph unicode="3" horiz-adv-x="1052" d="M561 643h-147q-6 0 -6 19q0 16 6 16h149q285 0 285 280q0 145 -81 218t-253 73q-96 0 -162.5 -18.5t-105 -55.5t-56.5 -87.5t-20 -120.5q0 -11 -18 -11q-19 0 -19 9q3 159 91 239t290 80q373 0 373 -323q0 -137 -63 -210.5t-160 -88.5q115 -19 185.5 -97.5t70.5 -220.5 q0 -176 -102.5 -265t-287.5 -89q-211 0 -309.5 81.5t-101.5 241.5q0 9 18 9q19 0 19 -11q5 -142 92.5 -214t281.5 -72q167 0 259 79.5t92 239.5q0 147 -85 223t-235 76z" />
<glyph unicode="4" horiz-adv-x="1079" d="M778 0q-12 0 -15 1t-3 7v320h-662q-8 0 -8 18q0 17 4 23l645 899q6 10 31 10h13t8.5 -1t6 -3t1.5 -6v-906h207q8 0 8 -16q0 -18 -8 -18h-207v-320q0 -8 -21 -8zM133 362h627v875z" />
<glyph unicode="5" horiz-adv-x="1007" d="M483 735q-182 0 -305 -71q-11 -7 -22 -7q-19 0 -19 11l51 594q0 12 19 12h596q8 0 8 -19q0 -11 -1 -14.5t-7 -3.5h-582l-45 -541q125 74 307 74q402 0 402 -385q0 -189 -97.5 -292t-291.5 -103q-200 0 -296.5 81t-101.5 242q0 9 19 9q18 0 18 -11q5 -142 91.5 -214 t269.5 -72q350 0 350 360q0 179 -89.5 264.5t-273.5 85.5z" />
<glyph unicode="6" horiz-adv-x="1069" d="M868 999q-11 121 -89 185.5t-222 64.5q-88 0 -152 -26.5t-106.5 -75.5t-68 -128.5t-36 -175.5t-10.5 -225v-63q44 95 153 151t245 56q180 0 272 -91.5t92 -273.5q0 -91 -18.5 -161.5t-60 -127.5t-116.5 -87.5t-180 -30.5q-121 0 -204 40t-131.5 121.5t-69.5 193 t-21 267.5q0 361 92 516.5t320 155.5q158 0 246.5 -75t99.5 -210q0 -6 -2.5 -7t-13.5 -1q-13 0 -16 1t-3 7zM571 25q97 0 164.5 27.5t104 79.5t52 116t15.5 149q0 168 -80.5 248t-244.5 80q-136 0 -244 -58t-152 -159q6 -119 28.5 -205t67 -150t116.5 -96t173 -32z" />
<glyph unicode="7" horiz-adv-x="950" d="M246 10q184 506 553 1227h-693q-8 0 -8 18q0 19 8 19h730q8 0 8 -17q0 -11 -6 -26q-338 -640 -551 -1223q-4 -8 -23 -8q-11 0 -15 2t-3 8z" />
<glyph unicode="8" horiz-adv-x="1097" d="M139 309q0 51 10.5 93t27 72.5t44 56.5t54 42.5t65.5 31.5t70 24t75 20q-56 15 -96.5 30t-83.5 41.5t-69.5 60.5t-44 86t-17.5 118q0 143 93.5 221t281.5 78q189 0 282 -78t93 -221q0 -66 -17.5 -118t-45 -86t-71 -60.5t-84 -41.5t-96.5 -30q45 -11 76 -20t70.5 -24 t66 -31.5t54 -42.5t44 -56.5t27 -72.5t10.5 -93q0 -155 -103 -237t-306 -82q-204 0 -307 82t-103 237zM920 309q0 68 -21.5 120t-52.5 83t-83.5 55.5t-96.5 37t-109 28.5q-7 1 -10 2q-154 -38 -216 -69q-135 -68 -151 -214q-2 -20 -2 -43q0 -284 371 -284t371 284zM211 985 q0 -47 10 -86.5t26 -67.5t43 -52.5t52.5 -40t64 -30t68.5 -23t74 -19.5q44 11 74 19.5t68.5 23t64 30t52.5 40t43 52.5t26 67.5t10 86.5q0 264 -338 264t-338 -264z" />
<glyph unicode="9" horiz-adv-x="1069" d="M201 274q11 -120 89 -184.5t222 -64.5q88 0 152 26.5t106.5 75.5t68 128t36 175t10.5 225q0 42 -2 62q-42 -94 -150.5 -149.5t-245.5 -55.5q-180 0 -272 91.5t-92 273.5q0 91 18.5 161.5t60 127.5t116.5 87.5t180 30.5q121 0 204 -40t131.5 -121.5t69.5 -193t21 -267.5 q0 -361 -92 -516.5t-320 -155.5q-158 0 -246.5 74.5t-99.5 209.5q0 6 2.5 7.5t13.5 1.5q12 0 15.5 -1.5t3.5 -7.5zM498 1249q-97 0 -164.5 -27.5t-104 -79.5t-52 -116t-15.5 -149q0 -168 80.5 -248t244.5 -80q136 0 243.5 57.5t150.5 159.5q-6 119 -28.5 205t-66.5 150 t-116 96t-172 32z" />
<glyph unicode=":" horiz-adv-x="415" d="M209 0h-11.5t-6.5 1t-4 3t-1 6v158q0 7 4.5 9.5t18.5 2.5q22 0 22 -12v-158q0 -7 -4 -8.5t-18 -1.5zM209 795h-11.5t-6.5 1t-4 3t-1 6v158q0 7 4.5 9.5t18.5 2.5q22 0 22 -12v-158q0 -7 -4 -8.5t-18 -1.5z" />
<glyph unicode=";" horiz-adv-x="415" d="M211 795h-11.5t-6.5 1t-4 3t-1 6v158q0 7 4.5 9.5t18.5 2.5q22 0 22 -12v-158q0 -7 -4.5 -8.5t-17.5 -1.5zM242 201q15 0 19.5 -2.5t2.5 -10.5q-46 -186 -166 -458q-4 -9 -18 -9t-14 9q116 280 151 458q2 8 6.5 10.5t18.5 2.5z" />
<glyph unicode="&#x3c;" d="M197 641q0 17 8 21l608 485q7 7 18 -6q8 -14 3 -19l-605 -481l605 -483q5 -5 -3 -19q-10 -13 -18 -8l-608 487q-8 4 -8 23z" />
<glyph unicode="=" d="M170 471h745q9 0 9 -18q0 -19 -9 -19h-745q-8 0 -8 19q0 18 8 18zM170 829h745q9 0 9 -18t-9 -18h-745q-8 0 -8 18t8 18z" />
<glyph unicode="&#x3e;" d="M889 641q0 -19 -8 -23l-609 -487q-8 -5 -18 8q-8 13 -2 19l604 483l-604 481q-6 6 2 19q11 13 18 6l609 -485q8 -4 8 -21z" />
<glyph unicode="?" d="M559 446v-55q0 -8 -16 -8q-17 0 -17 8l-2 55q-1 62 19.5 110.5t53.5 81.5t73 62t80.5 59.5t73.5 65.5t54 89t21 122q0 149 -87.5 221t-266.5 72q-108 0 -182.5 -22.5t-117 -68.5t-62 -106t-21.5 -145q0 -10 -19 -10q-18 0 -18 8q3 190 99 285.5t321 95.5q393 0 393 -330 q0 -71 -20.5 -127t-54 -92.5t-73.5 -67t-80.5 -59t-73.5 -60t-54.5 -78.5t-22.5 -106zM543 0h-11.5t-6.5 1t-4 3t-1 6v158q0 7 4.5 9.5t18.5 2.5q22 0 22 -12v-158q0 -7 -4.5 -8.5t-17.5 -1.5z" />
<glyph unicode="@" horiz-adv-x="1761" d="M1133 492v423q-89 35 -224 35q-172 0 -234.5 -85t-62.5 -290q0 -192 56 -275t200 -83q119 0 192 66.5t73 208.5zM1155 -137h-217q-157 0 -272 19.5t-210 68.5t-154 131t-90.5 207t-31.5 297q0 387 170.5 556t548.5 169q162 0 280 -27.5t196.5 -79t125.5 -136.5 t66.5 -189.5t19.5 -247.5q0 -185 -25 -285.5t-75 -139t-141 -38.5q-99 0 -148 53.5t-55 161.5q-22 -94 -95 -147.5t-184 -53.5q-154 0 -221.5 94.5t-67.5 298.5q0 217 73.5 313.5t260.5 96.5q139 0 248 -41q10 -4 10 -14v-494q0 -121 43.5 -179t132.5 -58q82 0 125.5 35 t63.5 127.5t20 269.5q0 139 -18 239.5t-61.5 181t-118 129t-187 74t-268.5 25.5q-366 0 -526 -159t-160 -535q0 -120 15.5 -215t44 -167t75 -125t103 -88t133.5 -56t162 -30t192 -9h217q8 0 8 -17q0 -16 -8 -16z" />
<glyph unicode="A" horiz-adv-x="1126" d="M1032 0q-18 0 -20 8q-2 6 -140 434h-618q-68 -202 -139 -434q-2 -8 -21 -8q-13 0 -16 1t-2 7q89 298 224.5 690t238.5 650q3 6 6.5 7t17.5 1q21 0 25 -8q102 -252 236.5 -643.5t226.5 -696.5q1 -6 -2.5 -7t-16.5 -1zM563 1313q-141 -361 -299 -836h596q-169 509 -297 836 z" />
<glyph unicode="B" horiz-adv-x="1208" d="M248 678v-643h379q217 0 312 81.5t95 243.5q0 164 -105.5 241t-314.5 77h-366zM625 1321h-377v-608h373q200 0 285 75t85 236q0 152 -86 224.5t-280 72.5zM227 1356h400q211 0 307 -82.5t96 -247.5q0 -156 -69 -233.5t-209 -96.5q72 -9 127.5 -30.5t100.5 -60.5 t69 -100.5t24 -144.5q0 -176 -103.5 -268t-338.5 -92h-404q-18 0 -18 8v1340q0 8 18 8z" />
<glyph unicode="C" horiz-adv-x="1212" d="M147 682q0 362 112.5 523t375.5 161q422 0 428 -375q0 -6 -3 -7t-16 -1q-12 0 -15 1t-3 7q-5 170 -99 254t-292 84q-244 0 -345.5 -148.5t-101.5 -498.5q0 -181 22.5 -302t76.5 -201.5t141.5 -116t218.5 -35.5q199 0 289.5 87t95.5 269q0 10 19 10q18 0 18 -10 q-3 -197 -104.5 -295t-317.5 -98q-142 0 -237.5 39t-154 125.5t-83.5 214t-25 313.5z" />
<glyph unicode="D" horiz-adv-x="1269" d="M248 37h346q265 0 376 146.5t111 494.5t-111 494.5t-376 146.5h-346v-1282zM594 0h-367q-18 0 -18 8v1340q0 8 18 8h367q283 0 405.5 -159t122.5 -519t-122.5 -519t-405.5 -159z" />
<glyph unicode="E" horiz-adv-x="1103" d="M942 1319h-694v-606h635q8 0 8 -19q0 -16 -8 -16h-635v-641h702q8 0 8 -19q0 -18 -8 -18h-723q-18 0 -18 8v1340q0 8 18 8h715q8 0 8 -19q0 -11 -1 -14.5t-7 -3.5z" />
<glyph unicode="F" horiz-adv-x="1042" d="M248 678v-670q0 -6 -4 -7t-17 -1q-12 0 -15 1t-3 7v1340q0 8 18 8h699q8 0 8 -19q0 -11 -1 -14.5t-7 -3.5h-678v-606h631q8 0 8 -19q0 -16 -8 -16h-631z" />
<glyph unicode="G" horiz-adv-x="1245" d="M1063 629q18 0 18 -13v-202q0 -424 -419 -424q-274 0 -394.5 164t-120.5 528q0 362 112.5 523t379.5 161q218 0 323.5 -90.5t110.5 -271.5q0 -9 -18 -9q-21 0 -21 9q-5 165 -99.5 245t-295.5 80q-248 0 -349.5 -149t-101.5 -498q0 -352 108.5 -503.5t365.5 -151.5 q196 0 288 97t92 294v174h-378q-9 0 -9 18q0 19 9 19h399z" />
<glyph unicode="H" horiz-adv-x="1292" d="M1065 0q-11 0 -14.5 1t-3.5 7v668h-799v-668q0 -6 -4 -7t-17 -1q-12 0 -15 1t-3 7v1340q0 6 3 7t15 1q13 0 17 -1t4 -7v-633h799v633q0 6 3.5 7t14.5 1q13 0 16.5 -1t3.5 -7v-1340q0 -6 -3.5 -7t-16.5 -1z" />
<glyph unicode="I" horiz-adv-x="471" d="M236 0q-19 0 -19 8v1340q0 8 19 8q13 0 16.5 -1t3.5 -7v-1340q0 -6 -3.5 -7t-16.5 -1z" />
<glyph unicode="J" horiz-adv-x="1036" d="M797 457v891q0 6 3.5 7t16.5 1q19 0 19 -8v-895q0 -240 -79.5 -351.5t-271.5 -111.5q-185 0 -273 97.5t-91 297.5q0 10 18 10q19 0 19 -10q6 -185 82.5 -271.5t244.5 -86.5q176 0 244 101t68 329z" />
<glyph unicode="K" horiz-adv-x="1134" d="M1032 1346l-510 -627l525 -709q0 -9 -15 -10q-22 0 -28 8l-515 692h-241v-692q0 -6 -4 -7t-17 -1q-12 0 -15 1t-3 7v1340q0 6 3 7t15 1q13 0 17 -1t4 -7v-611h244l495 611q6 8 31 8q5 0 8 -0.5t5 -1.5t2.5 -2t0 -2.5t-1.5 -3.5z" />
<glyph unicode="L" horiz-adv-x="1003" d="M248 1348v-1311h670q8 0 8 -19q0 -18 -8 -18h-691q-18 0 -18 10v1338q0 6 3 7t15 1q13 0 17 -1t4 -7z" />
<glyph unicode="M" horiz-adv-x="1566" d="M782 150q-18 0 -20 10l-516 1140v-1292q0 -8 -19 -8q-12 0 -15 1t-3 7v1340q0 8 27 8q26 0 30 -8l516 -1149l518 1149q4 8 31 8t27 -8v-1340q0 -8 -19 -8q-11 0 -14.5 1t-3.5 7v1292l-516 -1140q-3 -10 -23 -10z" />
<glyph unicode="N" horiz-adv-x="1304" d="M1079 1356q19 0 19 -8v-1340q0 -6 -4.5 -7t-20.5 -1q-20 0 -24 8l-803 1288v-1288q0 -8 -19 -8q-12 0 -15 1t-3 7v1340q0 6 3.5 7t18.5 1q21 0 27 -8l803 -1291v1291q0 6 2.5 7t15.5 1z" />
<glyph unicode="O" horiz-adv-x="1273" d="M637 1366q265 0 377 -161.5t112 -526.5t-112 -526.5t-377 -161.5q-266 0 -378 161.5t-112 526.5t112 526.5t378 161.5zM637 27q247 0 348.5 149t101.5 502t-101.5 502t-348.5 149q-246 0 -347.5 -149t-101.5 -502t101.5 -502t347.5 -149z" />
<glyph unicode="P" horiz-adv-x="1155" d="M575 569h-327v-561q0 -6 -4 -7t-17 -1q-12 0 -15 1t-3 7v1340q0 8 18 8h348q243 0 348 -89.5t105 -303.5q0 -212 -106 -303t-347 -91zM248 1319v-713h325q225 0 320.5 79.5t95.5 277.5t-95.5 277t-320.5 79h-325z" />
<glyph unicode="Q" horiz-adv-x="1275" d="M637 1366q265 0 377 -161.5t112 -526.5q0 -355 -105.5 -518t-352.5 -170q60 -100 183 -163.5t261 -66.5q8 0 8 -18q0 -16 -8 -16q-144 0 -281 73.5t-204 190.5q-260 3 -370 164.5t-110 523.5q0 365 112 526.5t378 161.5zM637 27q247 0 348.5 149t101.5 502t-101.5 502 t-348.5 149q-246 0 -347.5 -149t-101.5 -502t101.5 -502t347.5 -149z" />
<glyph unicode="R" horiz-adv-x="1171" d="M569 604h-321v-596q0 -6 -4 -7t-17 -1q-12 0 -15 1t-3 7v1340q0 8 18 8h353q234 0 336 -87.5t102 -289.5q0 -162 -75 -250.5t-226 -112.5q104 -22 162.5 -92t97.5 -198q34 -105 74 -316q2 -5 -2 -7.5t-17 -2.5q-10 0 -13.5 0.5t-5.5 2.5t-3 7q-35 182 -74 307 q-22 74 -48.5 123.5t-68.5 88.5t-103.5 57t-146.5 18zM248 1319v-680h330q209 0 305 79t96 261q0 187 -92 263.5t-309 76.5h-330z" />
<glyph unicode="S" horiz-adv-x="1165" d="M600 27q204 0 290.5 74.5t86.5 230.5q0 52 -10 93t-33.5 73t-52 55.5t-75 44t-92.5 35.5t-114 33q-61 17 -103.5 30t-91.5 32.5t-82 39.5t-65.5 48t-51.5 60.5t-30.5 76t-11.5 94.5q0 163 93.5 240t305.5 77q209 0 307.5 -79.5t98.5 -256.5q0 -8 -19 -8q-20 0 -20 8 q0 160 -86.5 229.5t-278.5 69.5q-195 0 -278.5 -66t-83.5 -214q0 -47 10.5 -85.5t27.5 -68t47.5 -55t60 -43t77.5 -36t86.5 -30.5t99.5 -29q90 -25 146.5 -45t110.5 -49.5t82.5 -65t45.5 -87.5t17 -121q0 -171 -96.5 -256.5t-317.5 -85.5q-219 0 -338 85t-119 259q0 6 3 7 t16 1q12 0 15 -1t3 -7q3 -307 420 -307z" />
<glyph unicode="T" horiz-adv-x="1044" d="M954 1321h-411v-1313q0 -6 -4 -7t-17 -1q-11 0 -14.5 1t-3.5 7v1313h-414q-8 0 -8 16q0 19 8 19h864q9 0 9 -19q0 -11 -1.5 -13.5t-7.5 -2.5z" />
<glyph unicode="U" horiz-adv-x="1275" d="M637 -10q-236 0 -338 113t-102 366v879q0 8 20 8q13 0 16 -1t3 -7v-875q0 -236 92 -340t309 -104q219 0 311 104t92 340v875q0 6 3 7t16 1q20 0 20 -8v-879q0 -253 -102.5 -366t-339.5 -113z" />
<glyph unicode="V" horiz-adv-x="1114" d="M1014 1356h10t6.5 -1t2.5 -3t-1 -6q-85 -303 -216.5 -695.5t-233.5 -642.5q-4 -8 -25 -8t-25 8q-102 248 -233 639.5t-219 698.5q-1 7 2.5 8.5t15.5 1.5q14 0 17 -1t6 -7q81 -288 206.5 -664.5t229.5 -636.5q104 265 230.5 642.5t205.5 658.5q1 6 4.5 7t16.5 1z" />
<glyph unicode="W" horiz-adv-x="1880" d="M1769 1356q13 0 16.5 -1t2.5 -7q-72 -288 -189.5 -682.5t-209.5 -657.5q-4 -8 -23 -8t-23 8q-96 267 -213.5 641t-191.5 656q-75 -286 -192 -660.5t-211 -636.5q-4 -8 -23 -8t-23 8q-92 263 -209.5 657.5t-189.5 682.5q-1 6 2.5 7t16.5 1q18 0 20 -8q67 -269 178.5 -647 t204.5 -654q103 299 218.5 669.5t184.5 631.5q4 8 25 8q19 0 23 -8q69 -264 185 -637t216 -664q92 275 204.5 652t180.5 649q2 8 20 8z" />
<glyph unicode="X" horiz-adv-x="1175" d="M641 698l446 -688q3 -6 0 -8t-16 -2q-23 0 -27 8l-432 672h-49l-432 -672q-4 -8 -27 -8q-13 0 -16 2t0 8l447 688l-441 648q-2 6 1 8t16 2q22 0 26 -8l426 -633h47l428 633q4 8 27 8q13 0 15.5 -2t0.5 -8z" />
<glyph unicode="Y" horiz-adv-x="1101" d="M975 1346q3 6 5.5 7t14.5 1q14 0 18 -1t1 -7q-92 -195 -218.5 -432t-224.5 -400v-506q0 -6 -3.5 -7t-16.5 -1q-19 0 -19 8v506q-99 161 -225 398t-217 434q-3 6 0.5 7t18.5 1q16 0 20 -8q85 -185 206 -413.5t216 -383.5q91 149 211.5 376t212.5 421z" />
<glyph unicode="Z" horiz-adv-x="1112" d="M150 1356h811q6 0 7 -4t1 -17q0 -12 -4 -18l-797 -1280h807q8 0 8 -19q0 -18 -8 -18h-842q-10 0 -10 20q0 11 6 17l795 1282h-774q-11 0 -11 18q0 19 11 19z" />
<glyph unicode="[" horiz-adv-x="655" d="M229 -365v1778q0 8 17 8h293q8 0 8 -16t-8 -16h-275v-1729h281q8 0 8 -16q0 -17 -8 -17h-299q-17 0 -17 8z" />
<glyph unicode="\" horiz-adv-x="724" d="M643 -160l-598 1614q-2 5 1 6.5t13 1.5q20 0 23 -8l598 -1614q2 -5 -1 -6.5t-13 -1.5q-20 0 -23 8z" />
<glyph unicode="]" horiz-adv-x="655" d="M426 1413v-1778q0 -8 -16 -8h-299q-9 0 -9 17q0 16 9 16h280v1729h-274q-8 0 -8 16t8 16h293q16 0 16 -8z" />
<glyph unicode="^" d="M543 1358q18 0 20 -8l367 -652q3 -6 -1 -8t-16 -2q-18 0 -22 8l-348 621l-346 -621q-4 -8 -25 -8q-11 0 -14 2t0 8l364 652q4 8 21 8z" />
<glyph unicode="_" horiz-adv-x="770" d="M764 -162h-758q-8 0 -8 17q0 16 8 16h758q8 0 8 -16q0 -17 -8 -17z" />
<glyph unicode="`" horiz-adv-x="624" d="M473 1124l-332 158q-7 4 -7.5 6.5t5.5 16.5q9 19 21 10l325 -166q8 -4 2 -16q-6 -13 -14 -9z" />
<glyph unicode="a" horiz-adv-x="1040" d="M225 717q0 -10 -18 -10q-19 0 -19 10q1 138 85 203t253 65q178 0 259 -71t81 -226v-680q0 -6 -3 -7t-15 -1q-11 0 -14 1t-3 7l-2 230q-29 -103 -135 -173.5t-248 -70.5q-145 0 -230 64.5t-85 193.5q0 131 76 192.5t246 61.5h376v180q0 144 -71.5 205t-231.5 61 q-153 0 -227 -56t-74 -179zM829 475h-374q-154 0 -220.5 -52.5t-66.5 -170.5q0 -117 75 -171t203 -54q157 0 270 93.5t113 227.5v127z" />
<glyph unicode="b" horiz-adv-x="1118" d="M229 1409v-680q38 127 127 191.5t238 64.5q208 0 299.5 -125.5t91.5 -370.5q0 -247 -91.5 -373t-299.5 -126q-295 0 -367 262v-244q0 -6 -3.5 -7t-14.5 -1t-13.5 1t-2.5 7v1401q0 6 2.5 7t15.5 1q11 0 14.5 -1t3.5 -7zM229 487q0 -233 84 -347.5t281 -114.5 q191 0 271.5 114.5t80.5 349.5q0 232 -80.5 346.5t-271.5 114.5q-197 0 -281 -115t-84 -348z" />
<glyph unicode="c" horiz-adv-x="1003" d="M524 950q-195 0 -273.5 -113.5t-78.5 -349.5q0 -118 17 -200.5t58.5 -143t112.5 -89.5t177 -29q289 0 301 256q0 10 16 10q12 0 15 -2t3 -8q-13 -291 -335 -291q-223 0 -312.5 121.5t-89.5 375.5q0 250 88 374t301 124q162 0 249.5 -70t92.5 -194q0 -6 -3 -8t-13 -2 q-19 0 -19 10q-6 110 -83.5 169.5t-223.5 59.5z" />
<glyph unicode="d" horiz-adv-x="1118" d="M893 8l-2 246q-36 -132 -125.5 -198t-241.5 -66q-208 0 -298.5 125.5t-90.5 373.5q0 245 90.5 370.5t298.5 125.5q295 0 367 -264v688q0 6 3.5 7t14.5 1q19 0 19 -8v-1401q0 -8 -19 -8q-11 0 -13.5 1t-2.5 7zM891 487q0 233 -84.5 348t-280.5 115q-193 0 -273.5 -114 t-80.5 -347q0 -235 80.5 -349.5t273.5 -114.5q196 0 280.5 114.5t84.5 347.5z" />
<glyph unicode="e" horiz-adv-x="1032" d="M893 492h-721v-7q0 -232 85.5 -346t285.5 -114q284 0 303 241q2 10 18 10q19 0 19 -10q-11 -133 -97 -204.5t-243 -71.5q-216 0 -312 124t-96 371q0 248 93.5 374t303.5 126q98 0 170.5 -29.5t115 -84.5t63 -125.5t20.5 -159.5v-74q0 -13 -1 -16.5t-7 -3.5zM532 950 q-187 0 -270.5 -106.5t-89.5 -321.5h692v66q0 169 -79 265.5t-253 96.5z" />
<glyph unicode="f" horiz-adv-x="688" d="M616 940h-311v-932q0 -6 -3.5 -7t-14.5 -1q-19 0 -19 8v932h-192q-8 0 -8 16q0 19 8 19h192v153q0 151 53 221t181 70q85 0 155 -24q7 -2 2 -21q-5 -13 -14 -10q-50 20 -143 20q-112 0 -154.5 -61t-42.5 -197v-151h311q7 0 7 -17q0 -18 -7 -18z" />
<glyph unicode="g" horiz-adv-x="1038" d="M178 -90q0 -134 82.5 -197t257.5 -63q159 0 235 59.5t76 186.5q0 124 -86 182t-245 69q-195 0 -284 103.5t-89 314.5t89.5 315.5t283.5 104.5q64 0 116 -12l310 4q8 0 8 -16q0 -19 -8 -19h-224q170 -92 170 -377q0 -348 -256 -405q252 -49 252 -264q0 -140 -85.5 -209.5 t-262.5 -69.5q-192 0 -284.5 72.5t-92.5 220.5q0 10 19 10q18 0 18 -10zM498 180q178 0 257 94t79 291t-79 291t-257 94q-177 0 -256.5 -94t-79.5 -291t79.5 -291t256.5 -94z" />
<glyph unicode="h" horiz-adv-x="1118" d="M229 1409v-668q31 99 130.5 171.5t250.5 72.5q157 0 243.5 -82t86.5 -248v-647q0 -6 -3.5 -7t-14.5 -1q-19 0 -19 8v643q0 297 -297 297q-85 0 -157 -28t-119.5 -75t-74 -106.5t-26.5 -122.5v-608q0 -6 -3.5 -7t-14.5 -1q-13 0 -15.5 1t-2.5 7v1401q0 6 2.5 7t15.5 1 q11 0 14.5 -1t3.5 -7z" />
<glyph unicode="i" horiz-adv-x="419" d="M193 8v959q0 6 3.5 7t14.5 1t14.5 -1t3.5 -7v-959q0 -6 -3.5 -7t-14.5 -1t-14.5 1t-3.5 7zM211 1360q12 0 15 -2t3 -10v-158q0 -8 -3 -10t-15 -2q-21 0 -21 12v158q0 12 21 12z" />
<glyph unicode="j" horiz-adv-x="450" d="M-37 -336q3 0 14 -3t31.5 -6t46.5 -3q93 0 129.5 55t36.5 211v1049q0 8 19 8q12 0 15 -1t3 -7v-1051q0 -171 -45.5 -234t-151.5 -63q-70 0 -98 12q-6 2 -6 15q0 18 6 18zM240 1360q13 0 16.5 -2t3.5 -10v-158q0 -7 -4 -9.5t-16 -2.5q-21 0 -21 12v158q0 12 21 12z" />
<glyph unicode="k" horiz-adv-x="942" d="M229 1409v-868h181l405 424q8 10 31 10q17 0 18 -5q0 -3 -4 -7l-420 -439l432 -514q2 -9 -16 -10q-21 0 -29 8l-417 498h-181v-498q0 -6 -3.5 -7t-14.5 -1q-13 0 -15.5 1t-2.5 7v1401q0 6 2.5 7t15.5 1q11 0 14.5 -1t3.5 -7z" />
<glyph unicode="l" horiz-adv-x="442" d="M352 35h41q10 0 10 -17q0 -18 -10 -18h-45q-89 0 -122 42.5t-33 143.5v1219q0 10 18 10t18 -10v-1215q0 -86 25 -120.5t98 -34.5z" />
<glyph unicode="m" horiz-adv-x="1708" d="M227 967v-219q13 42 40.5 82t69 76t104.5 57.5t137 21.5q126 0 200.5 -61t91.5 -179q37 104 128 172t229 68q143 0 222 -76t79 -235v-666q0 -8 -19 -8q-12 0 -15 1t-3 7v662q0 278 -264 278q-155 0 -250 -93t-98 -216v-631q0 -8 -19 -8q-12 0 -15 1t-3 7v662 q0 278 -267 278q-155 0 -250.5 -96.5t-95.5 -222.5v-621q0 -6 -3.5 -7t-14.5 -1q-13 0 -15.5 1t-2.5 7v959q0 6 2.5 7t13.5 1t14.5 -1t3.5 -7z" />
<glyph unicode="n" horiz-adv-x="1118" d="M227 967v-232q30 101 129.5 175.5t253.5 74.5q157 0 243.5 -82t86.5 -248v-647q0 -6 -3.5 -7t-14.5 -1q-19 0 -19 8v643q0 297 -297 297q-85 0 -157 -28t-119.5 -75t-74 -106.5t-26.5 -122.5v-608q0 -6 -3.5 -7t-14.5 -1q-13 0 -15.5 1t-2.5 7v959q0 6 2.5 7t13.5 1 t14.5 -1t3.5 -7z" />
<glyph unicode="o" horiz-adv-x="1060" d="M530 985q215 0 306.5 -124.5t91.5 -373.5q0 -250 -91.5 -373.5t-306.5 -123.5q-214 0 -304.5 123.5t-90.5 373.5q0 249 91 373.5t304 124.5zM530 25q198 0 278.5 113.5t80.5 348.5t-80.5 349t-278.5 114q-196 0 -277 -114t-81 -349t80.5 -348.5t277.5 -113.5z" />
<glyph unicode="p" horiz-adv-x="1118" d="M227 967v-246q72 264 367 264q208 0 299.5 -125.5t91.5 -370.5q0 -247 -91.5 -373t-299.5 -126q-150 0 -239 64t-126 192v-606q0 -9 -18 -9q-12 0 -15 1.5t-3 7.5v1327q0 6 2.5 7t13.5 1t14.5 -1t3.5 -7zM229 487q0 -233 84 -347.5t281 -114.5q191 0 271.5 114.5 t80.5 349.5q0 232 -80.5 346.5t-271.5 114.5q-197 0 -281 -115t-84 -348z" />
<glyph unicode="q" horiz-adv-x="1118" d="M909 -369q-18 0 -18 9v612q-72 -262 -367 -262q-208 0 -298.5 125.5t-90.5 373.5q0 245 90.5 370.5t298.5 125.5q152 0 241.5 -67t125.5 -199l2 248q0 6 2.5 7t13.5 1q19 0 19 -8v-1327q0 -9 -19 -9zM891 487q0 233 -84.5 348t-280.5 115q-193 0 -273.5 -114t-80.5 -347 q0 -235 80.5 -349.5t273.5 -114.5q196 0 280.5 114.5t84.5 347.5z" />
<glyph unicode="r" horiz-adv-x="677" d="M606 944q-179 0 -278 -99.5t-99 -256.5v-580q0 -6 -3.5 -7t-14.5 -1q-13 0 -15.5 1t-2.5 7v959q0 6 2.5 7t13.5 1t14.5 -1t3.5 -7v-248q27 111 123.5 186.5t255.5 75.5q6 0 7 -3.5t1 -14.5q0 -13 -1 -16t-7 -3z" />
<glyph unicode="s" horiz-adv-x="968" d="M160 266q1 -124 87 -182.5t255 -58.5q297 0 297 211q0 57 -17.5 96.5t-58.5 67t-94.5 45t-139.5 34.5q-185 37 -265.5 95.5t-80.5 177.5q0 121 82 177t242 56q340 0 340 -252q0 -10 -16 -10q-19 0 -19 10q-2 109 -75 163t-230 54q-144 0 -215.5 -45.5t-71.5 -152.5 q0 -104 72.5 -153t247.5 -85q93 -20 149.5 -39.5t102 -50.5t65 -76.5t19.5 -111.5q0 -120 -84 -183t-250 -63q-186 0 -282.5 69.5t-96.5 206.5q0 10 18 10q19 0 19 -10z" />
<glyph unicode="t" horiz-adv-x="720" d="M604 940h-315v-688q0 -121 39.5 -173t134.5 -52q89 0 145 26q8 4 17 -10q4 -15 -4 -18q-68 -31 -158 -31q-114 0 -163.5 59.5t-49.5 194.5v692h-174q-8 0 -8 16q0 19 8 19h174v276q0 11 18 11q21 0 21 -11v-276h315q8 0 8 -17q0 -12 -1 -15t-7 -3z" />
<glyph unicode="u" horiz-adv-x="1105" d="M881 8l-2 230q-27 -100 -117.5 -174t-235.5 -74q-163 0 -255.5 87t-92.5 261v629q0 8 19 8q12 0 15 -1t3 -7v-625q0 -161 83 -238t230 -77q81 0 149 28.5t111.5 75.5t67 106t23.5 121v609q0 6 3.5 7t14.5 1t14.5 -1t3.5 -7v-959q0 -6 -3.5 -7t-14.5 -1t-13.5 1t-2.5 7z " />
<glyph unicode="v" horiz-adv-x="935" d="M838 975q12 0 15.5 -2t2.5 -8q-66 -216 -170.5 -491t-193.5 -466q-2 -8 -25 -8q-21 0 -23 8q-89 191 -193.5 466t-170.5 491q-1 6 2.5 8t15.5 2q18 0 21 -8q62 -205 161 -468.5t187 -461.5q89 196 188.5 459.5t161.5 470.5q3 8 21 8z" />
<glyph unicode="w" horiz-adv-x="1525" d="M1415 975q17 0 17 -8q0 -4 -5 -19q-192 -613 -317 -940q-2 -8 -23 -8q-18 0 -20 8q-152 424 -305 920q-134 -436 -303 -920q-4 -8 -21 -8q-20 0 -22 8q-152 397 -318 940q-4 12 -4 19q0 8 17 8q19 0 22 -10q155 -523 305 -922q185 542 303 924q3 8 21 8q19 0 22 -8 q122 -405 303 -924q168 455 306 922q3 10 22 10z" />
<glyph unicode="x" horiz-adv-x="950" d="M821 8l-329 488h-35l-328 -488q-6 -8 -25 -8q-9 0 -13 1.5t-4.5 3.5t1.5 5l340 502l-330 451q-3 6 0.5 9t16.5 3q9 0 12.5 -0.5t6 -2.5t5.5 -7l318 -437h37l317 437q3 7 7 8.5t18 1.5q12 0 15.5 -3t0.5 -9l-330 -451l340 -502q2 -5 -1.5 -7.5t-14.5 -2.5q-21 0 -25 8z " />
<glyph unicode="y" horiz-adv-x="962" d="M207 -348q38 0 70 15t57 38.5t52 69t47.5 89t51.5 116.5q4 13 9 20q-10 0 -13 8q-98 200 -213 475.5t-184 481.5q-3 7 0 8.5t16 1.5q18 0 21 -8q72 -211 181.5 -477.5t203.5 -458.5q216 541 340 936q5 8 20 8h10t6.5 -1.5t2.5 -3.5t0 -7q-73 -240 -186 -539t-181 -457 q-41 -96 -68 -149t-64.5 -104.5t-79.5 -73t-97 -21.5q-75 0 -119 19q-6 1 -7 3.5t-1 12.5q0 16 8 16q2 0 16 -4.5t41 -9t60 -4.5z" />
<glyph unicode="z" horiz-adv-x="946" d="M807 942l-641 -909h649q8 0 8 -17q0 -16 -8 -16h-686q-8 0 -8 16q0 11 4 15l641 911h-621q-8 0 -8 16q0 17 8 17h658q8 0 8 -19q0 -10 -4 -14z" />
<glyph unicode="{" horiz-adv-x="655" d="M57 524q0 17 9 17h55q80 0 111.5 90t31.5 278v18q0 81 0.5 120.5t4.5 103t12.5 94t25 71.5t40.5 59.5t60.5 32t84.5 13.5h53q8 0 8 -16t-8 -16h-53q-38 0 -66.5 -10t-48.5 -26t-34 -45t-21.5 -57.5t-12 -74t-5.5 -84t-1 -97.5v-90q0 -362 -133 -381q133 -19 133 -381v-90 q0 -59 1 -97.5t5.5 -84t12 -74t21.5 -57.5t34 -44.5t48.5 -25.5t66.5 -10h53q8 0 8 -16q0 -17 -8 -17h-53q-48 0 -84.5 13.5t-60.5 32t-40.5 59.5t-25 71.5t-12.5 94.5t-4.5 102.5t-0.5 120.5v18q0 188 -31.5 278.5t-111.5 90.5h-55q-9 0 -9 16z" />
<glyph unicode="|" horiz-adv-x="557" d="M297 1409v-1810q0 -9 -18 -9q-19 0 -19 9v1810q0 8 19 8q11 0 14.5 -1t3.5 -7z" />
<glyph unicode="}" horiz-adv-x="655" d="M598 524q0 -16 -8 -16h-55q-80 0 -112 -90.5t-32 -278.5q0 -224 -11 -301q-22 -147 -108 -189q-44 -22 -108 -22h-53q-9 0 -9 17q0 16 9 16h53q38 0 66.5 10t48.5 25.5t33.5 45t21.5 57.5t12 73.5t5 84t1 97.5v90q0 362 133 381q-133 19 -133 381v90q0 59 -1 97.5t-5 84 t-12 74t-21.5 57.5t-33.5 45t-48.5 26t-66.5 10h-53q-9 0 -9 16t9 16h53q42 0 75 -8t56.5 -29.5t40.5 -40.5t27 -60.5t16 -69t8.5 -85.5t3 -92t0.5 -105v-22q0 -188 32 -278t112 -90h55q8 0 8 -17z" />
<glyph unicode="~" d="M473 631l154 -84q54 -31 100 -31q52 0 84.5 31t56.5 100q3 6 15 6q8 0 11.5 -2t0.5 -8q-28 -84 -67 -122t-101 -38q-49 0 -113 33l-153 84q-61 33 -101 33q-51 0 -84 -31.5t-57 -99.5q-2 -6 -14 -6q-18 0 -15 8q28 84 68 122t102 38q54 0 113 -33z" />
<glyph unicode="&#xa1;" horiz-adv-x="483" d="M240 592q10 0 13 -2t3 -8l8 -955q0 -10 -24 -10t-21 10l6 955q0 10 15 10zM242 797h-11.5t-6.5 1t-4 3t-1 6v158q0 7 4.5 9.5t18.5 2.5q22 0 22 -12v-158q0 -7 -4 -8.5t-18 -1.5z" />
<glyph unicode="&#xa2;" horiz-adv-x="1032" d="M553 0q-13 0 -15.5 1t-2.5 7v172q-217 4 -306.5 128t-89.5 374q0 248 91 373.5t305 128.5v164q0 6 3 8t15 2q10 0 13 -2t3 -8v-166q154 -6 237 -74.5t89 -187.5q0 -6 -3.5 -8.5t-14.5 -2.5q-19 0 -19 9q-5 106 -78.5 165.5t-210.5 65.5v-934q286 6 295 256q0 10 19 10 q18 0 18 -10q-13 -285 -332 -291v-172q0 -6 -2.5 -7t-13.5 -1zM178 682q0 -117 17 -199t57 -143.5t110.5 -92t174.5 -32.5v934q-198 -1 -278.5 -116.5t-80.5 -350.5z" />
<glyph unicode="&#xa3;" horiz-adv-x="1175" d="M154 0q-8 -5 -17 10q-10 17 -4 23q242 156 242 373q0 50 -13.5 101t-28 82.5t-42.5 84.5h-176q-9 0 -9 16q0 17 9 17h157q-39 74 -60.5 143.5t-21.5 155.5q0 182 104.5 271t295.5 89q209 0 301 -90.5t94 -274.5q0 -6 -3.5 -7t-14.5 -1q-19 0 -19 8q-2 169 -83.5 248.5 t-274.5 79.5q-361 0 -361 -323q0 -85 22.5 -153.5t63.5 -145.5h381q9 0 9 -17q0 -16 -9 -16h-364q25 -50 40 -83.5t27.5 -84t12.5 -100.5q0 -120 -70 -228q218 -151 406 -151q66 0 113 17.5t74 46t43 76.5t21.5 96t6.5 118q0 6 3 7t15 1t15 -1t3 -7q-1 -74 -8 -129 t-25.5 -106.5t-50.5 -83.5t-84 -51t-124 -19q-191 0 -431 158q-60 -78 -165 -150z" />
<glyph unicode="&#xa4;" horiz-adv-x="1120" d="M133 291l109 110q-60 105 -60 277t60 274l-109 113q-7 5 4 16q13 13 19 6l104 -104q94 129 301 129q204 0 297 -131l107 106q5 4 7.5 3t10.5 -9q11 -11 4 -16l-108 -111q59 -104 59 -276q0 -176 -59 -277l108 -110q8 -5 -4 -17q-8 -8 -10.5 -9t-7.5 3l-107 105 q-94 -129 -297 -129q-207 0 -301 129l-104 -105q-5 -4 -8 -3t-11 9q-12 12 -4 17zM561 274q176 0 259 102t83 302q0 199 -83 301t-259 102t-259 -102t-83 -301q0 -200 83 -302t259 -102z" />
<glyph unicode="&#xa5;" horiz-adv-x="1126" d="M942 440h-358v-432q0 -6 -4 -7t-17 -1q-11 0 -14.5 1t-3.5 7v432h-361q-6 0 -7 3t-1 14q0 16 8 16h361v8q-60 100 -137 244h-238q-8 0 -8 16q0 17 8 17h221q-180 338 -295 588q-3 6 0.5 7t18.5 1q18 0 22 -8q86 -187 210.5 -430.5t215.5 -401.5q90 154 213.5 396 t212.5 436q4 8 23 8q14 0 17.5 -1t0.5 -7q-140 -296 -295 -588h221q9 0 9 -17q0 -16 -9 -16h-237q-64 -121 -135 -244v-8h358q10 0 10 -16q0 -17 -10 -17z" />
<glyph unicode="&#xa6;" horiz-adv-x="557" d="M297 324v-725q0 -9 -18 -9q-19 0 -19 9v725q0 8 19 8q11 0 14.5 -1t3.5 -7zM297 1409v-725q0 -6 -3.5 -7t-14.5 -1q-19 0 -19 8v725q0 8 19 8q11 0 14.5 -1t3.5 -7z" />
<glyph unicode="&#xa7;" horiz-adv-x="1120" d="M219 -82q0 -264 338 -264q156 0 232.5 61t76.5 189q0 127 -70 188t-237 96q-95 19 -160 42.5t-117.5 61.5t-78 95t-25.5 135q0 131 71 204t197 93q-113 38 -167 103.5t-54 181.5q0 132 83.5 197t256.5 65q175 0 252.5 -71t77.5 -214q0 -6 -3 -8t-13 -2q-19 0 -19 10 q-2 127 -68.5 188.5t-226.5 61.5q-157 0 -230 -54t-73 -171q0 -69 19 -116t64 -79t101 -52t148 -40q93 -20 151 -41.5t105.5 -58t68.5 -91.5t21 -136q0 -264 -256 -302q114 -37 166.5 -104t52.5 -182q0 -285 -346 -285q-187 0 -281 77.5t-94 219.5q0 7 3 8.5t14 1.5 q17 0 20 -8zM584 784q-33 6 -64 15q-140 -3 -222.5 -71t-82.5 -206q0 -69 23 -119t71.5 -84t109 -56t150.5 -42q11 -4 37 -8q297 3 297 279q0 72 -18.5 121.5t-61 82t-97 52t-142.5 36.5z" />
<glyph unicode="&#xa8;" horiz-adv-x="624" d="M141 1311q14 0 17.5 -2t3.5 -9v-155q0 -6 -4 -8t-17 -2q-12 0 -15 2t-3 8v155q0 7 3 9t15 2zM481 1311q14 0 17.5 -2t3.5 -9v-155q0 -6 -4 -8t-17 -2q-12 0 -15 2t-3 8v155q0 7 3 9t15 2z" />
<glyph unicode="&#xa9;" horiz-adv-x="1589" d="M500 680q0 212 67 312t242 100q133 0 200 -58t70 -164q0 -6 -14 -6q-16 0 -16 6q-5 95 -62.5 143t-177.5 48q-83 0 -137.5 -23.5t-85 -74t-42.5 -117.5t-12 -166q0 -100 12 -167t43 -118t88 -74.5t144 -23.5q121 0 175 52t59 161q0 8 16 8t16 -8q-5 -121 -68.5 -182.5 t-197.5 -61.5q-95 0 -158 26t-98 81.5t-49 128t-14 178.5zM795 1366q324 0 469 -170t145 -518t-145 -518t-469 -170q-325 0 -470 170t-145 518t145 518t470 170zM795 23q312 0 446.5 159.5t134.5 495.5t-134.5 495.5t-446.5 159.5t-447 -159.5t-135 -495.5t135 -495.5 t447 -159.5z" />
<glyph unicode="&#xaa;" horiz-adv-x="679" d="M520 1038h-231q-92 0 -131 -30.5t-39 -100.5q0 -135 168 -135q96 0 164.5 58t68.5 141v67zM154 1196q0 -6 -17 -6q-16 0 -16 8q0 88 53 127t162 39q113 0 166 -44.5t53 -139.5v-422q0 -10 -16 -10q-17 0 -17 10v135q-21 -64 -85.5 -107t-153.5 -43q-92 0 -145.5 40.5 t-53.5 123.5q0 81 48.5 120.5t154.5 39.5h233v109q0 87 -43.5 123t-140.5 36q-95 0 -138.5 -32t-43.5 -107z" />
<glyph unicode="&#xab;" horiz-adv-x="888" d="M135 549q0 8 6 14l217 301q6 6 23 6q10 0 13 -2t-1 -8l-223 -311l223 -309q4 -6 1 -8.5t-13 -2.5q-18 0 -23 7l-217 299q-6 9 -6 14zM477 549q0 8 6 14l217 301q6 6 23 6q10 0 13 -2t-1 -8l-223 -311l223 -309q4 -6 1 -8.5t-13 -2.5q-18 0 -23 7l-217 299q-6 9 -6 14z " />
<glyph unicode="&#xad;" horiz-adv-x="786" d="M150 567h487q8 0 8 -18q0 -17 -8 -17h-487q-9 0 -9 17q0 18 9 18z" />
<glyph unicode="&#xae;" horiz-adv-x="1069" d="M535 1366q212 0 305.5 -109.5t93.5 -334.5t-93.5 -335t-305.5 -110q-211 0 -305.5 110t-94.5 335t94.5 334.5t305.5 109.5zM535 502q201 0 287.5 101.5t86.5 318.5t-86.5 318t-287.5 101q-202 0 -288.5 -101t-86.5 -318t87 -318.5t288 -101.5zM532 889h-106v-217 q0 -6 -14 -6q-13 0 -13 6v504q0 6 13 6h129q92 0 134 -34.5t42 -111.5q0 -120 -117 -141q70 -17 94 -104q15 -49 25 -125q0 -7 -10 -7q-13 0 -15 7q-14 98 -20 118q-14 54 -46.5 79.5t-95.5 25.5zM426 1159v-250h113q79 0 116 30t37 97q0 70 -34.5 96.5t-118.5 26.5h-113z " />
<glyph unicode="&#xaf;" horiz-adv-x="624" d="M553 1153h-481q-9 0 -9 16q0 17 9 17h481q8 0 8 -17q0 -16 -8 -16z" />
<glyph unicode="&#xb0;" horiz-adv-x="704" d="M352 1366q211 0 211 -219q0 -217 -211 -217t-211 217q0 219 211 219zM352 956q185 0 185 191q0 192 -185 192q-182 0 -182 -192q0 -191 182 -191z" />
<glyph unicode="&#xb1;" d="M561 1038v-376h361q8 0 8 -17q0 -16 -8 -16h-361v-377q0 -10 -18 -10q-17 0 -17 10v377h-362q-6 0 -6 16q0 17 6 17h362v376q0 9 17 9q18 0 18 -9zM164 33h758q8 0 8 -17q0 -16 -8 -16h-758q-6 0 -6 16q0 17 6 17z" />
<glyph unicode="&#xb2;" horiz-adv-x="645" d="M535 664h-429q-8 0 -8 14v14q0 32 12.5 61.5t27.5 49.5t48 47t52.5 40.5t62.5 41.5q32 20 42 26t38 25.5t38.5 30t30 31.5t27 39t14.5 42.5t7 51.5q0 83 -43.5 120t-132.5 37q-102 0 -141 -40t-42 -124q0 -8 -16 -8q-19 0 -19 8q2 95 53 145t165 50q208 0 208 -188 q0 -40 -13 -76t-30 -60t-49 -51.5t-54 -42t-62 -39.5q-90 -54 -139.5 -103t-49.5 -110h402q8 0 8 -16t-8 -16z" />
<glyph unicode="&#xb3;" horiz-adv-x="645" d="M342 1012h-78q-6 0 -6 14t6 14h78q152 0 152 146q0 147 -179 147q-100 0 -139.5 -33.5t-42.5 -107.5q0 -8 -16 -8q-17 0 -17 8q3 87 52.5 130.5t162.5 43.5q106 0 159.5 -46t53.5 -132q0 -72 -32 -113t-82 -49q131 -24 131 -174q0 -96 -59 -145.5t-162 -49.5 q-227 0 -230 179q0 8 17 8q16 0 16 -8q5 -75 49 -110.5t148 -35.5q186 0 186 164q0 158 -168 158z" />
<glyph unicode="&#xb4;" horiz-adv-x="624" d="M483 1282l-333 -158q-8 -5 -15 9q-3 13 2 16l328 166q6 5 9.5 3.5t10.5 -13.5q5 -14 4.5 -16.5t-6.5 -6.5z" />
<glyph unicode="&#xb6;" horiz-adv-x="1028" d="M846 1350h-86q-60 0 -83.5 -24t-23.5 -89v-1313q0 -172 -47 -238.5t-153 -66.5q-71 0 -99 12q-6 1 -7 3.5t-1 13.5q0 16 8 16q2 0 14 -2.5t33.5 -5t47.5 -2.5q92 0 130.5 57.5t38.5 212.5v615h-94q-109 0 -176 18t-111 67t-60.5 129t-16.5 210q0 173 33.5 262.5 t109.5 125t221 35.5h322q8 0 8 -18t-8 -18z" />
<glyph unicode="&#xb7;" horiz-adv-x="378" d="M190 453q-10 0 -14 0.5t-6 2.5t-2 7v158q0 7 4 9.5t18 2.5q23 0 23 -12v-158q0 -7 -4.5 -8.5t-18.5 -1.5z" />
<glyph unicode="&#xb8;" horiz-adv-x="624" d="M307 -129h84q83 0 123.5 -23.5t40.5 -93.5t-41 -94.5t-123 -24.5h-168q-8 0 -8 15q0 14 8 14h168q69 0 100 16.5t31 73.5t-31 73.5t-100 16.5h-106q-20 0 -15 15l49 141q4 8 15 8q6 0 8.5 -0.5t4.5 -2t1 -5.5z" />
<glyph unicode="&#xb9;" horiz-adv-x="645" d="M508 664h-358q-7 0 -7 16t7 16h167v623l-161 -55q-3 -1 -4.5 3.5t-1.5 12.5q0 14 6 16l184 64q12 6 12 -6v-658h156q6 0 6 -16t-6 -16z" />
<glyph unicode="&#xba;" horiz-adv-x="710" d="M133 1053q0 -143 50.5 -213t170.5 -70q121 0 171 70t50 213t-50 211.5t-171 68.5q-120 0 -170.5 -69t-50.5 -211zM100 1053q0 155 59 233t195 78t195 -78t59 -233q0 -157 -59 -235.5t-195 -78.5t-195 78.5t-59 235.5z" />
<glyph unicode="&#xbb;" horiz-adv-x="888" d="M412 549q0 -5 -6 -14l-218 -299q-5 -7 -22 -7q-10 0 -13 2.5t1 8.5l223 309l-223 311q-4 6 -1 8t13 2q16 0 22 -6l218 -301q6 -6 6 -14zM754 549q0 -5 -6 -14l-218 -299q-5 -7 -22 -7q-10 0 -13 2.5t1 8.5l223 309l-223 311q-4 6 -1 8t13 2q16 0 22 -6l218 -301 q6 -6 6 -14z" />
<glyph unicode="&#xbc;" horiz-adv-x="1593" d="M1370 0q-16 0 -16 8v170h-363q-6 0 -6 19q0 15 6 18l352 479q4 6 25 6q18 0 18 -8v-483h111q6 0 7 -2.5t1 -11.5q0 -17 -8 -17h-111v-170q0 -8 -16 -8zM1024 209h330v448zM1253 1348l-770 -1340q-4 -8 -22 -8q-9 0 -12 2t0 6l770 1340q4 8 20 8q9 0 13 -2t1 -6zM508 664 h-358q-7 0 -7 16t7 16h167v623l-161 -55q-3 -1 -4.5 3.5t-1.5 12.5q0 14 6 16l184 64q12 6 12 -6v-658h156q6 0 6 -16t-6 -16z" />
<glyph unicode="&#xbd;" horiz-adv-x="1593" d="M1483 0h-428q-8 0 -8 14v15q0 32 12.5 61.5t27 49.5t48 47t52 40t62.5 41q32 20 42 26t38 25.5t38.5 30t30 31.5t27 39t14.5 42.5t7 51.5q0 83 -44 120.5t-132 37.5q-102 0 -141 -40t-42 -124q0 -8 -16 -8q-18 0 -18 8q2 95 52.5 144.5t164.5 49.5q209 0 209 -188 q0 -34 -7.5 -63.5t-25 -54.5t-33 -43.5t-45 -40.5t-47 -33.5t-51.5 -32.5q-90 -54 -139.5 -103t-49.5 -110h402q8 0 8 -17q0 -16 -8 -16zM1214 1348l-770 -1340q-4 -8 -22 -8q-9 0 -12 2t0 6l770 1340q4 8 20 8q10 0 13.5 -2t0.5 -6zM508 664h-358q-7 0 -7 16t7 16h167v623 l-161 -55q-3 -1 -4.5 3.5t-1.5 12.5q0 14 6 16l184 64q12 6 12 -6v-658h156q6 0 6 -16t-6 -16z" />
<glyph unicode="&#xbe;" horiz-adv-x="1593" d="M1370 0q-16 0 -16 8v170h-363q-6 0 -6 19q0 15 6 18l352 479q4 6 25 6q18 0 18 -8v-483h111q6 0 7 -2.5t1 -11.5q0 -17 -8 -17h-111v-170q0 -8 -16 -8zM1024 209h330v448zM342 1012h-78q-6 0 -6 14t6 14h78q152 0 152 146q0 147 -179 147q-100 0 -139.5 -33.5 t-42.5 -107.5q0 -8 -16 -8q-17 0 -17 8q3 87 52.5 130.5t162.5 43.5q106 0 159.5 -46t53.5 -132q0 -72 -32 -113t-82 -49q131 -24 131 -174q0 -96 -59 -145.5t-162 -49.5q-227 0 -230 179q0 8 17 8q16 0 16 -8q5 -75 49 -110.5t148 -35.5q186 0 186 164q0 158 -168 158z M1233 1348l-770 -1340q-4 -8 -23 -8q-9 0 -12 2t0 6l770 1340q4 8 21 8q9 0 13 -2t1 -6z" />
<glyph unicode="&#xbf;" horiz-adv-x="1056" d="M504 528v56q0 8 16 8q17 0 17 -8l2 -56q0 -62 -20.5 -110.5t-53.5 -81.5t-73 -61.5t-80 -59t-73 -65.5t-54 -89t-21 -122q0 -149 87.5 -221t266.5 -72q108 0 182.5 22.5t117 68.5t62 106t21.5 145q0 10 19 10q18 0 18 -8q-3 -190 -99 -285.5t-321 -95.5q-393 0 -393 330 q0 71 20.5 127t54 92t73.5 67t80.5 59t73.5 59.5t54.5 78.5t22.5 106zM520 797q-10 0 -14 0.5t-6 2.5t-2 7v158q0 7 4 9.5t18 2.5q23 0 23 -12v-158q0 -7 -4.5 -8.5t-18.5 -1.5z" />
<glyph unicode="&#xc0;" horiz-adv-x="1126" d="M1032 0q-18 0 -20 8q-2 6 -140 434h-618q-68 -202 -139 -434q-2 -8 -21 -8q-13 0 -16 1t-2 7q89 298 224.5 690t238.5 650q3 6 6.5 7t17.5 1q21 0 25 -8q102 -252 236.5 -643.5t226.5 -696.5q1 -6 -2.5 -7t-16.5 -1zM563 1313q-141 -361 -299 -836h596q-169 509 -297 836 zM555 1489l-344 160q-7 3 -8 6.5t6 17.5q6 11 9 12.5t9 -2.5l340 -170q9 -5 2 -16q-6 -12 -14 -8z" />
<glyph unicode="&#xc1;" horiz-adv-x="1126" d="M1032 0q-18 0 -20 8q-2 6 -140 434h-618q-68 -202 -139 -434q-2 -8 -21 -8q-13 0 -16 1t-2 7q89 298 224.5 690t238.5 650q3 6 6.5 7t17.5 1q21 0 25 -8q102 -252 236.5 -643.5t226.5 -696.5q1 -6 -2.5 -7t-16.5 -1zM563 1313q-141 -361 -299 -836h596q-169 509 -297 836 zM918 1649l-347 -160q-9 -6 -12 8q-7 11 0 16l342 170q11 7 19 -10q5 -9 5.5 -13.5t-1 -6.5t-6.5 -4z" />
<glyph unicode="&#xc2;" horiz-adv-x="1126" d="M1032 0q-18 0 -20 8q-2 6 -140 434h-618q-68 -202 -139 -434q-2 -8 -21 -8q-13 0 -16 1t-2 7q89 298 224.5 690t238.5 650q3 6 6.5 7t17.5 1q21 0 25 -8q102 -252 236.5 -643.5t226.5 -696.5q1 -6 -2.5 -7t-16.5 -1zM563 1313q-141 -361 -299 -836h596q-169 509 -297 836 zM565 1675l-188 -182q-9 -6 -25 -6q-10 0 -11 4q0 2 3 4l203 211q8 8 18 8q15 0 19 -8l200 -211q2 -6 -10 -8q-13 0 -22 6z" />
<glyph unicode="&#xc3;" horiz-adv-x="1126" d="M1032 0q-18 0 -20 8q-2 6 -140 434h-618q-68 -202 -139 -434q-2 -8 -21 -8q-13 0 -16 1t-2 7q89 298 224.5 690t238.5 650q3 6 6.5 7t17.5 1q21 0 25 -8q102 -252 236.5 -643.5t226.5 -696.5q1 -6 -2.5 -7t-16.5 -1zM563 1313q-141 -361 -299 -836h596q-169 509 -297 836 zM807 1614v33q0 8 14 8q15 0 15 -10l-2 -35q-3 -123 -105 -123q-59 0 -119 39l-108 69q-57 33 -103 33q-38 0 -56.5 -22t-18.5 -76v-33q0 -6 -15 -6q-11 0 -13.5 1t-2.5 7l2 37q0 123 104 123q52 0 119 -39l109 -72q55 -32 102 -32q39 0 58.5 22t19.5 76z" />
<glyph unicode="&#xc4;" horiz-adv-x="1126" d="M1032 0q-18 0 -20 8q-2 6 -140 434h-618q-68 -202 -139 -434q-2 -8 -21 -8q-13 0 -16 1t-2 7q89 298 224.5 690t238.5 650q3 6 6.5 7t17.5 1q21 0 25 -8q102 -252 236.5 -643.5t226.5 -696.5q1 -6 -2.5 -7t-16.5 -1zM563 1313q-141 -361 -299 -836h596q-169 509 -297 836 zM741 1673h11t6 -1t3.5 -3t0.5 -6v-156q0 -8 -4 -10t-17 -2q-12 0 -15 2t-3 10v156q0 7 2.5 8.5t15.5 1.5zM385 1673h11t6 -1t3.5 -3t0.5 -6v-156q0 -8 -4 -10t-17 -2q-12 0 -15 2t-3 10v156q0 7 2.5 8.5t15.5 1.5z" />
<glyph unicode="&#xc5;" horiz-adv-x="1126" d="M1032 0q-18 0 -20 8q-2 6 -140 434h-618q-68 -202 -139 -434q-2 -8 -21 -8q-13 0 -16 1t-2 7q88 295 220.5 681.5t235.5 645.5q-126 11 -126 148q0 149 157 149q158 0 158 -149q0 -137 -129 -148q101 -252 234 -637t225 -690q1 -6 -2.5 -7t-16.5 -1zM563 1313 q-141 -361 -299 -836h596q-169 509 -297 836zM563 1360q70 0 100.5 30.5t30.5 92.5t-30.5 92.5t-100.5 30.5q-69 0 -99 -30.5t-30 -92.5t30 -92.5t99 -30.5z" />
<glyph unicode="&#xc6;" horiz-adv-x="1714" d="M1552 1319h-637v-606h578q8 0 8 -19q0 -16 -8 -16h-578v-641h646q8 0 8 -19q0 -18 -8 -18h-666q-18 0 -18 8v418h-580q-158 -307 -209 -418q-4 -8 -22 -8q-13 0 -16.5 1t-2.5 7q142 298 350.5 690t362.5 650q5 8 26 8h766q9 0 9 -19q0 -18 -9 -18zM784 1321 q-187 -315 -471 -860h564v860h-93z" />
<glyph unicode="&#xc7;" horiz-adv-x="1212" d="M563 -133h88q81 0 122.5 -25.5t41.5 -95.5q0 -71 -41 -96t-123 -25h-172q-6 0 -6 15q0 14 6 14h170q70 0 102.5 17t32.5 75t-32.5 75t-102.5 17h-110q-7 0 -11 4.5t-2 10.5l49 139q-237 18 -332.5 179.5t-95.5 510.5q0 362 112.5 523t375.5 161q422 0 428 -375 q0 -6 -3 -7t-16 -1q-12 0 -15 1t-3 7q-5 170 -99 254t-292 84q-244 0 -345.5 -148.5t-101.5 -498.5q0 -181 22.5 -302t76.5 -201.5t141.5 -116t218.5 -35.5q199 0 289.5 87t95.5 269q0 10 19 10q18 0 18 -10q-3 -197 -104.5 -295t-317.5 -98q-29 0 -43 2z" />
<glyph unicode="&#xc8;" horiz-adv-x="1103" d="M942 1319h-694v-606h635q8 0 8 -19q0 -16 -8 -16h-635v-641h702q8 0 8 -19q0 -18 -8 -18h-723q-18 0 -18 8v1340q0 8 18 8h715q8 0 8 -19q0 -11 -1 -14.5t-7 -3.5zM653 1489l-344 160q-7 3 -8 6.5t6 17.5q6 11 9.5 12.5t9.5 -2.5l340 -170q10 -5 2 -16q-6 -12 -15 -8z " />
<glyph unicode="&#xc9;" horiz-adv-x="1103" d="M942 1319h-694v-606h635q8 0 8 -19q0 -16 -8 -16h-635v-641h702q8 0 8 -19q0 -18 -8 -18h-723q-18 0 -18 8v1340q0 8 18 8h715q8 0 8 -19q0 -11 -1 -14.5t-7 -3.5zM932 1649l-346 -160q-9 -6 -13 8q-7 11 0 16l342 170q11 7 19 -10q5 -9 5.5 -13.5t-1 -6.5t-6.5 -4z" />
<glyph unicode="&#xca;" horiz-adv-x="1103" d="M942 1319h-694v-606h635q8 0 8 -19q0 -16 -8 -16h-635v-641h702q8 0 8 -19q0 -18 -8 -18h-723q-18 0 -18 8v1340q0 8 18 8h715q8 0 8 -19q0 -11 -1 -14.5t-7 -3.5zM580 1675l-189 -182q-9 -6 -24 -6q-11 0 -12 4q0 2 3 4l203 211q8 8 19 8q14 0 18 -8l201 -211 q3 -6 -11 -8q-13 0 -22 6z" />
<glyph unicode="&#xcb;" horiz-adv-x="1103" d="M942 1319h-694v-606h635q8 0 8 -19q0 -16 -8 -16h-635v-641h702q8 0 8 -19q0 -18 -8 -18h-723q-18 0 -18 8v1340q0 8 18 8h715q8 0 8 -19q0 -11 -1 -14.5t-7 -3.5zM401 1673h11t6 -1t3.5 -3t0.5 -6v-156q0 -8 -4 -10t-17 -2q-12 0 -15 2t-3 10v156q0 7 2.5 8.5t15.5 1.5z M758 1673q10 0 13.5 -0.5t5 -2.5t1.5 -7v-156q0 -8 -3.5 -10t-16.5 -2q-12 0 -15.5 2t-3.5 10v156q0 7 3 8.5t16 1.5z" />
<glyph unicode="&#xcc;" horiz-adv-x="471" d="M236 0q-19 0 -19 8v1340q0 8 19 8q13 0 16.5 -1t3.5 -7v-1340q0 -6 -3.5 -7t-16.5 -1zM240 1489l-344 160q-7 3 -7.5 6.5t5.5 17.5q6 11 9 12.5t9 -2.5l340 -170q10 -5 2 -16q-6 -12 -14 -8z" />
<glyph unicode="&#xcd;" horiz-adv-x="471" d="M236 0q-19 0 -19 8v1340q0 8 19 8q13 0 16.5 -1t3.5 -7v-1340q0 -6 -3.5 -7t-16.5 -1zM575 1649l-346 -160q-9 -6 -12 8q-7 11 0 16l342 170q11 7 19 -10q5 -9 5.5 -13.5t-1.5 -6t-7 -4.5z" />
<glyph unicode="&#xce;" horiz-adv-x="471" d="M236 0q-19 0 -19 8v1340q0 8 19 8q13 0 16.5 -1t3.5 -7v-1340q0 -6 -3.5 -7t-16.5 -1zM238 1675l-189 -182q-9 -6 -24 -6q-11 0 -12 4q0 2 3 4l203 211q8 8 19 8q14 0 18 -8l201 -211q3 -6 -11 -8q-13 0 -22 6z" />
<glyph unicode="&#xcf;" horiz-adv-x="471" d="M236 0q-19 0 -19 8v1340q0 8 19 8q13 0 16.5 -1t3.5 -7v-1340q0 -6 -3.5 -7t-16.5 -1zM57 1673h11t6 -1t3.5 -3t0.5 -6v-156q0 -8 -4 -10t-17 -2q-12 0 -15 2t-3 10v156q0 7 2.5 8.5t15.5 1.5zM414 1673q10 0 13.5 -0.5t5 -2.5t1.5 -7v-156q0 -8 -3.5 -10t-16.5 -2 q-12 0 -15.5 2t-3.5 10v156q0 7 3 8.5t16 1.5z" />
<glyph unicode="&#xd0;" horiz-adv-x="1273" d="M598 0h-367q-18 0 -18 8v619h-147q-9 0 -9 16t9 16h147v689q0 8 18 8h367q283 0 405.5 -159t122.5 -519t-122.5 -519t-405.5 -159zM252 37h346q265 0 376 146.5t111 494.5t-111 494.5t-376 146.5h-346v-660h377q8 0 8 -16t-8 -16h-377v-590z" />
<glyph unicode="&#xd1;" horiz-adv-x="1304" d="M1079 1356q19 0 19 -8v-1340q0 -6 -4.5 -7t-20.5 -1q-20 0 -24 8l-803 1288v-1288q0 -8 -19 -8q-12 0 -15 1t-3 7v1340q0 6 3.5 7t18.5 1q21 0 27 -8l803 -1291v1291q0 6 2.5 7t15.5 1zM895 1614v33q0 8 14 8q15 0 15 -10l-2 -35q-3 -123 -105 -123q-59 0 -119 39 l-108 69q-57 33 -103 33q-38 0 -56.5 -22t-18.5 -76v-33q0 -6 -15 -6q-11 0 -13.5 1t-2.5 7l2 37q0 123 104 123q52 0 119 -39l109 -72q55 -32 102 -32q39 0 58.5 22t19.5 76z" />
<glyph unicode="&#xd2;" horiz-adv-x="1273" d="M637 1366q265 0 377 -161.5t112 -526.5t-112 -526.5t-377 -161.5q-266 0 -378 161.5t-112 526.5t112 526.5t378 161.5zM637 27q247 0 348.5 149t101.5 502t-101.5 502t-348.5 149q-246 0 -347.5 -149t-101.5 -502t101.5 -502t347.5 -149zM641 1489l-344 160q-7 3 -8 6.5 t6 17.5q6 11 9 12.5t9 -2.5l340 -170q9 -5 2 -16q-6 -12 -14 -8z" />
<glyph unicode="&#xd3;" horiz-adv-x="1273" d="M637 1366q265 0 377 -161.5t112 -526.5t-112 -526.5t-377 -161.5q-266 0 -378 161.5t-112 526.5t112 526.5t378 161.5zM637 27q247 0 348.5 149t101.5 502t-101.5 502t-348.5 149q-246 0 -347.5 -149t-101.5 -502t101.5 -502t347.5 -149zM979 1649l-346 -160q-9 -6 -12 8 q-7 11 0 16l342 170q10 7 18 -10q7 -14 6 -17.5t-8 -6.5z" />
<glyph unicode="&#xd4;" horiz-adv-x="1273" d="M637 1366q265 0 377 -161.5t112 -526.5t-112 -526.5t-377 -161.5q-266 0 -378 161.5t-112 526.5t112 526.5t378 161.5zM637 27q247 0 348.5 149t101.5 502t-101.5 502t-348.5 149q-246 0 -347.5 -149t-101.5 -502t101.5 -502t347.5 -149zM639 1675l-188 -182 q-9 -6 -25 -6q-10 0 -11 4q0 2 3 4l203 211q8 8 18 8q14 0 18 -8l201 -211q2 -6 -10 -8q-14 0 -23 6z" />
<glyph unicode="&#xd5;" horiz-adv-x="1273" d="M637 1366q265 0 377 -161.5t112 -526.5t-112 -526.5t-377 -161.5q-266 0 -378 161.5t-112 526.5t112 526.5t378 161.5zM637 27q247 0 348.5 149t101.5 502t-101.5 502t-348.5 149q-246 0 -347.5 -149t-101.5 -502t101.5 -502t347.5 -149zM881 1614v33q0 8 14 8 q9 0 11.5 -2t2.5 -8l-2 -35q-3 -123 -104 -123q-59 0 -119 39l-109 69q-57 33 -102 33q-38 0 -57 -22t-19 -76v-33q0 -6 -14 -6q-11 0 -13.5 1t-2.5 7l2 37q0 123 104 123q52 0 119 -39l108 -72q55 -32 103 -32q39 0 58.5 22t19.5 76z" />
<glyph unicode="&#xd6;" horiz-adv-x="1273" d="M637 1366q265 0 377 -161.5t112 -526.5t-112 -526.5t-377 -161.5q-266 0 -378 161.5t-112 526.5t112 526.5t378 161.5zM637 27q247 0 348.5 149t101.5 502t-101.5 502t-348.5 149q-246 0 -347.5 -149t-101.5 -502t101.5 -502t347.5 -149zM459 1673q10 0 13.5 -0.5t5 -2.5 t1.5 -7v-156q0 -8 -3.5 -10t-16.5 -2q-12 0 -15.5 2t-3.5 10v156q0 7 3 8.5t16 1.5zM815 1673h11t6 -1t3.5 -3t0.5 -6v-156q0 -8 -4 -10t-17 -2q-12 0 -15 2t-3 10v156q0 7 2.5 8.5t15.5 1.5z" />
<glyph unicode="&#xd7;" d="M852 295l-309 309l-310 -309q-5 -3 -20 6q-10 15 -6 21l309 309l-309 309q-3 5 4 13q2 3 4 5q3 2 6 5q5 4 6.5 5t5.5 -1l310 -310l309 310q1 1 2.5 1h2.5t2.5 -1t2.5 -2t3.5 -3t4.5 -4q2 -3 5 -6q4 -5 5 -6.5t-1 -5.5l-310 -309l310 -309q3 -5 -7 -21q-15 -9 -20 -6z" />
<glyph unicode="&#xd8;" horiz-adv-x="1282" d="M641 1366q224 0 338 -117l104 162q4 8 21 8q9 0 12 -2t0 -6l-115 -184q129 -159 129 -549q0 -365 -112 -526.5t-377 -161.5q-224 0 -338 114l-102 -161q-5 -9 -23 -9t-12 9l115 184q-129 156 -129 551q0 365 112 526.5t377 161.5zM193 678q0 -372 110 -516l658 1052 q-106 115 -320 115q-246 0 -347 -149t-101 -502zM641 27q247 0 349 149t102 502q0 369 -111 514l-659 -1053q103 -112 319 -112z" />
<glyph unicode="&#xd9;" horiz-adv-x="1275" d="M637 -10q-236 0 -338 113t-102 366v879q0 8 20 8q13 0 16 -1t3 -7v-875q0 -236 92 -340t309 -104q219 0 311 104t92 340v875q0 6 3 7t16 1q20 0 20 -8v-879q0 -253 -102.5 -366t-339.5 -113zM649 1489l-344 160q-7 3 -8 6.5t6 17.5q6 11 9.5 12.5t9.5 -2.5l340 -170 q10 -5 2 -16q-6 -12 -15 -8z" />
<glyph unicode="&#xda;" horiz-adv-x="1275" d="M637 -10q-236 0 -338 113t-102 366v879q0 8 20 8q13 0 16 -1t3 -7v-875q0 -236 92 -340t309 -104q219 0 311 104t92 340v875q0 6 3 7t16 1q20 0 20 -8v-879q0 -253 -102.5 -366t-339.5 -113zM971 1649l-346 -160q-9 -6 -13 8q-7 11 0 16l342 170q10 7 19 -10 q5 -9 5.5 -13.5t-1 -6.5t-6.5 -4z" />
<glyph unicode="&#xdb;" horiz-adv-x="1275" d="M637 -10q-236 0 -338 113t-102 366v879q0 8 20 8q13 0 16 -1t3 -7v-875q0 -236 92 -340t309 -104q219 0 311 104t92 340v875q0 6 3 7t16 1q20 0 20 -8v-879q0 -253 -102.5 -366t-339.5 -113zM639 1675l-188 -182q-9 -6 -25 -6q-10 0 -11 4q0 2 3 4l203 211q8 8 18 8 q14 0 18 -8l201 -211q2 -6 -10 -8q-14 0 -23 6z" />
<glyph unicode="&#xdc;" horiz-adv-x="1275" d="M637 -10q-236 0 -338 113t-102 366v879q0 8 20 8q13 0 16 -1t3 -7v-875q0 -236 92 -340t309 -104q219 0 311 104t92 340v875q0 6 3 7t16 1q20 0 20 -8v-879q0 -253 -102.5 -366t-339.5 -113zM459 1673q10 0 13.5 -0.5t5 -2.5t1.5 -7v-156q0 -8 -3.5 -10t-16.5 -2 q-12 0 -15.5 2t-3.5 10v156q0 7 3 8.5t16 1.5zM815 1673h11t6 -1t3.5 -3t0.5 -6v-156q0 -8 -4 -10t-17 -2q-12 0 -15 2t-3 10v156q0 7 2.5 8.5t15.5 1.5z" />
<glyph unicode="&#xdd;" horiz-adv-x="1101" d="M975 1346q3 6 5.5 7t14.5 1q14 0 18 -1t1 -7q-92 -195 -218.5 -432t-224.5 -400v-506q0 -6 -3.5 -7t-16.5 -1q-19 0 -19 8v506q-99 161 -225 398t-217 434q-3 6 0.5 7t18.5 1q16 0 20 -8q85 -185 206 -413.5t216 -383.5q91 149 211.5 376t212.5 421zM893 1649l-346 -160 q-9 -6 -12 8q-7 11 0 16l342 170q10 7 18 -10q7 -14 6 -17.5t-8 -6.5z" />
<glyph unicode="&#xde;" horiz-adv-x="1130" d="M567 401h-319v-393q0 -6 -4 -7t-17 -1q-12 0 -15 1t-3 7v1340q0 6 3 7t15 1q13 0 17 -1t4 -7v-234h319q232 0 331 -79.5t99 -276.5t-99 -277t-331 -80zM248 1075v-637h315q216 0 304.5 69.5t88.5 250.5t-88 249t-305 68h-315z" />
<glyph unicode="&#xdf;" horiz-adv-x="1251" d="M625 774q-9 0 -9 19q0 11 1.5 13.5t7.5 2.5q86 5 149.5 21.5t113 50.5t74.5 91t25 138q0 133 -91 203.5t-269 70.5q-197 0 -296.5 -79t-99.5 -248v-1049q0 -6 -3.5 -7t-14.5 -1t-14.5 1t-3.5 7v1053q0 358 432 358q192 0 294.5 -80t102.5 -227q0 -85 -26 -146.5 t-76 -97.5t-112.5 -54t-143.5 -21q106 -11 182.5 -36t138.5 -73.5t93.5 -130t31.5 -197.5q0 -183 -76.5 -274.5t-238.5 -91.5q-295 0 -295 264q0 6 3 7t15 1q17 0 17 -8q2 -116 64.5 -173.5t195.5 -57.5q145 0 210.5 81.5t65.5 251.5q0 112 -28 188t-88.5 122.5t-138 70.5 t-193.5 37z" />
<glyph unicode="&#xe0;" horiz-adv-x="1040" d="M225 717q0 -10 -18 -10q-19 0 -19 10q1 138 85 203t253 65q178 0 259 -71t81 -226v-680q0 -6 -3 -7t-15 -1q-11 0 -14 1t-3 7l-2 230q-29 -103 -135 -173.5t-248 -70.5q-145 0 -230 64.5t-85 193.5q0 131 76 192.5t246 61.5h376v180q0 144 -71.5 205t-231.5 61 q-153 0 -227 -56t-74 -179zM829 475h-374q-154 0 -220.5 -52.5t-66.5 -170.5q0 -117 75 -171t203 -54q157 0 270 93.5t113 227.5v127zM535 1124l-332 158q-7 4 -7.5 6.5t5.5 16.5q6 11 10 13t10 -3l326 -166q8 -4 2 -16q-6 -13 -14 -9z" />
<glyph unicode="&#xe1;" horiz-adv-x="1040" d="M225 717q0 -10 -18 -10q-19 0 -19 10q1 138 85 203t253 65q178 0 259 -71t81 -226v-680q0 -6 -3 -7t-15 -1q-11 0 -14 1t-3 7l-2 230q-29 -103 -135 -173.5t-248 -70.5q-145 0 -230 64.5t-85 193.5q0 131 76 192.5t246 61.5h376v180q0 144 -71.5 205t-231.5 61 q-153 0 -227 -56t-74 -179zM829 475h-374q-154 0 -220.5 -52.5t-66.5 -170.5q0 -117 75 -171t203 -54q157 0 270 93.5t113 227.5v127zM838 1282l-334 -158q-8 -5 -15 9q-3 12 3 16l327 166q6 5 10 3.5t11 -13.5q5 -14 4.5 -16.5t-6.5 -6.5z" />
<glyph unicode="&#xe2;" horiz-adv-x="1040" d="M225 717q0 -10 -18 -10q-19 0 -19 10q1 138 85 203t253 65q178 0 259 -71t81 -226v-680q0 -6 -3 -7t-15 -1q-11 0 -14 1t-3 7l-2 230q-29 -103 -135 -173.5t-248 -70.5q-145 0 -230 64.5t-85 193.5q0 131 76 192.5t246 61.5h376v180q0 144 -71.5 205t-231.5 61 q-153 0 -227 -56t-74 -179zM829 475h-374q-154 0 -220.5 -52.5t-66.5 -170.5q0 -117 75 -171t203 -54q157 0 270 93.5t113 227.5v127zM522 1313l-182 -180q-9 -9 -25 -9q-15 0 -8 11l199 208q4 7 16 7t19 -7l194 -208q7 -11 -8 -11q-16 0 -25 9z" />
<glyph unicode="&#xe3;" horiz-adv-x="1040" d="M225 717q0 -10 -18 -10q-19 0 -19 10q1 138 85 203t253 65q178 0 259 -71t81 -226v-680q0 -6 -3 -7t-15 -1q-11 0 -14 1t-3 7l-2 230q-29 -103 -135 -173.5t-248 -70.5q-145 0 -230 64.5t-85 193.5q0 131 76 192.5t246 61.5h376v180q0 144 -71.5 205t-231.5 61 q-153 0 -227 -56t-74 -179zM829 475h-374q-154 0 -220.5 -52.5t-66.5 -170.5q0 -117 75 -171t203 -54q157 0 270 93.5t113 227.5v127zM754 1251v31q0 10 14 10q10 0 12 -2t2 -8v-37q-3 -123 -100 -123q-48 0 -115 39l-110 72q-57 33 -99 33q-35 0 -52 -22t-17 -77v-32 q0 -9 -15 -9q-16 0 -16 9l2 36q0 125 98 125q50 0 117 -39l109 -71q57 -33 98 -33q37 0 54.5 21.5t17.5 76.5z" />
<glyph unicode="&#xe4;" horiz-adv-x="1040" d="M225 717q0 -10 -18 -10q-19 0 -19 10q1 138 85 203t253 65q178 0 259 -71t81 -226v-680q0 -6 -3 -7t-15 -1q-11 0 -14 1t-3 7l-2 230q-29 -103 -135 -173.5t-248 -70.5q-145 0 -230 64.5t-85 193.5q0 131 76 192.5t246 61.5h376v180q0 144 -71.5 205t-231.5 61 q-153 0 -227 -56t-74 -179zM829 475h-374q-154 0 -220.5 -52.5t-66.5 -170.5q0 -117 75 -171t203 -54q157 0 270 93.5t113 227.5v127zM348 1311q14 0 17.5 -2t3.5 -9v-155q0 -6 -4 -8t-17 -2q-12 0 -15 2t-3 8v155q0 7 3 9t15 2zM690 1311q14 0 17.5 -2t3.5 -9v-155 q0 -6 -4 -8t-17 -2q-12 0 -15 2t-3 8v155q0 7 3 9t15 2z" />
<glyph unicode="&#xe5;" horiz-adv-x="1040" d="M225 717q0 -10 -18 -10q-19 0 -19 10q1 138 85 203t253 65q178 0 259 -71t81 -226v-680q0 -6 -3 -7t-15 -1q-11 0 -14 1t-3 7l-2 230q-29 -103 -135 -173.5t-248 -70.5q-145 0 -230 64.5t-85 193.5q0 131 76 192.5t246 61.5h376v180q0 144 -71.5 205t-231.5 61 q-153 0 -227 -56t-74 -179zM829 475h-374q-154 0 -220.5 -52.5t-66.5 -170.5q0 -117 75 -171t203 -54q157 0 270 93.5t113 227.5v127zM522 1419q158 0 158 -149q0 -148 -158 -148q-155 0 -155 148q0 149 155 149zM522 1147q70 0 100.5 31t30.5 92q0 62 -30.5 93.5 t-100.5 31.5q-68 0 -98.5 -31.5t-30.5 -93.5q0 -61 30.5 -92t98.5 -31z" />
<glyph unicode="&#xe6;" horiz-adv-x="1622" d="M1483 481h-647q0 -229 79 -342.5t261 -113.5q122 0 189 59.5t75 169.5q1 6 4 7t14 1q19 0 19 -8q-9 -124 -87.5 -194t-213.5 -70q-151 0 -236.5 71.5t-116.5 212.5q-28 -133 -138.5 -206.5t-246.5 -73.5q-140 0 -223.5 65.5t-83.5 194.5q0 132 74.5 196t238.5 64h355v172 q0 142 -67.5 204t-217.5 62q-147 0 -218 -56t-71 -179q0 -10 -18 -10q-19 0 -19 10q1 138 82 203t244 65q157 0 231.5 -62.5t83.5 -195.5q66 258 332 258q170 0 251 -109t81 -292v-82q0 -21 -10 -21zM799 483h-350q-151 0 -216 -55t-65 -174q0 -117 74.5 -172t197.5 -55 q149 0 254 91t105 230v135zM1161 950q-169 0 -245.5 -108.5t-79.5 -327.5h620v70q0 170 -71.5 268t-223.5 98z" />
<glyph unicode="&#xe7;" horiz-adv-x="1003" d="M434 -129h84q83 0 123.5 -23.5t40.5 -93.5t-41 -94.5t-123 -24.5h-168q-8 0 -8 15q0 14 8 14h168q69 0 100 16.5t31 73.5t-31 73.5t-100 16.5h-106q-20 0 -15 15l47 137q-170 24 -239.5 144t-69.5 347q0 250 88 374t301 124q162 0 249.5 -70t92.5 -194q0 -6 -3 -8t-13 -2 q-19 0 -19 10q-6 110 -83.5 169.5t-223.5 59.5q-195 0 -273.5 -113.5t-78.5 -349.5q0 -118 17 -200.5t58.5 -143t112.5 -89.5t177 -29q289 0 301 256q0 10 16 10q12 0 15 -2t3 -8q-13 -291 -335 -291q-24 0 -64 4z" />
<glyph unicode="&#xe8;" horiz-adv-x="1032" d="M893 492h-721v-7q0 -232 85.5 -346t285.5 -114q284 0 303 241q2 10 18 10q19 0 19 -10q-11 -133 -97 -204.5t-243 -71.5q-216 0 -312 124t-96 371q0 248 93.5 374t303.5 126q98 0 170.5 -29.5t115 -84.5t63 -125.5t20.5 -159.5v-74q0 -13 -1 -16.5t-7 -3.5zM532 950 q-187 0 -270.5 -106.5t-89.5 -321.5h692v66q0 169 -79 265.5t-253 96.5zM551 1124l-332 158q-7 4 -7.5 6.5t5.5 16.5q9 19 21 10l325 -166q8 -4 2 -16q-6 -13 -14 -9z" />
<glyph unicode="&#xe9;" horiz-adv-x="1032" d="M893 492h-721v-7q0 -232 85.5 -346t285.5 -114q284 0 303 241q2 10 18 10q19 0 19 -10q-11 -133 -97 -204.5t-243 -71.5q-216 0 -312 124t-96 371q0 248 93.5 374t303.5 126q98 0 170.5 -29.5t115 -84.5t63 -125.5t20.5 -159.5v-74q0 -13 -1 -16.5t-7 -3.5zM532 950 q-187 0 -270.5 -106.5t-89.5 -321.5h692v66q0 169 -79 265.5t-253 96.5zM838 1282l-334 -158q-8 -5 -15 9q-3 12 3 16l327 166q6 5 10 3.5t11 -13.5q5 -14 4.5 -16.5t-6.5 -6.5z" />
<glyph unicode="&#xea;" horiz-adv-x="1032" d="M893 492h-721v-7q0 -232 85.5 -346t285.5 -114q284 0 303 241q2 10 18 10q19 0 19 -10q-11 -133 -97 -204.5t-243 -71.5q-216 0 -312 124t-96 371q0 248 93.5 374t303.5 126q98 0 170.5 -29.5t115 -84.5t63 -125.5t20.5 -159.5v-74q0 -13 -1 -16.5t-7 -3.5zM532 950 q-187 0 -270.5 -106.5t-89.5 -321.5h692v66q0 169 -79 265.5t-253 96.5zM526 1313l-182 -180q-9 -9 -25 -9q-15 0 -8 11l199 208q4 7 16 7t19 -7l194 -208q7 -11 -8 -11t-24 9z" />
<glyph unicode="&#xeb;" horiz-adv-x="1032" d="M893 492h-721v-7q0 -232 85.5 -346t285.5 -114q284 0 303 241q2 10 18 10q19 0 19 -10q-11 -133 -97 -204.5t-243 -71.5q-216 0 -312 124t-96 371q0 248 93.5 374t303.5 126q98 0 170.5 -29.5t115 -84.5t63 -125.5t20.5 -159.5v-74q0 -13 -1 -16.5t-7 -3.5zM532 950 q-187 0 -270.5 -106.5t-89.5 -321.5h692v66q0 169 -79 265.5t-253 96.5zM354 1311q14 0 17.5 -2t3.5 -9v-155q0 -6 -4 -8t-17 -2q-12 0 -15 2t-3 8v155q0 7 3 9t15 2zM696 1311q14 0 17.5 -2t3.5 -9v-155q0 -6 -4 -8t-17 -2q-12 0 -15 2t-3 8v155q0 7 3 9t15 2z" />
<glyph unicode="&#xec;" horiz-adv-x="428" d="M197 8v959q0 6 3.5 7t14.5 1t14.5 -1t3.5 -7v-959q0 -6 -3.5 -7t-14.5 -1t-14.5 1t-3.5 7zM213 1124l-332 158q-7 4 -7.5 6.5t5.5 16.5q9 19 21 10l325 -166q8 -4 2 -16q-6 -13 -14 -9z" />
<glyph unicode="&#xed;" horiz-adv-x="428" d="M197 8v959q0 6 3.5 7t14.5 1t14.5 -1t3.5 -7v-959q0 -6 -3.5 -7t-14.5 -1t-14.5 1t-3.5 7zM551 1282l-334 -158q-7 -5 -14 9q-3 13 2 16l327 166q6 5 10 3.5t11 -13.5q5 -14 4.5 -16.5t-6.5 -6.5z" />
<glyph unicode="&#xee;" horiz-adv-x="428" d="M197 8v959q0 6 3.5 7t14.5 1t14.5 -1t3.5 -7v-959q0 -6 -3.5 -7t-14.5 -1t-14.5 1t-3.5 7zM215 1313l-182 -180q-9 -9 -25 -9q-15 0 -8 11l199 208q3 7 16 7q11 0 18 -7l195 -208q7 -11 -8 -11q-16 0 -25 9z" />
<glyph unicode="&#xef;" horiz-adv-x="428" d="M197 8v959q0 6 3.5 7t14.5 1t14.5 -1t3.5 -7v-959q0 -6 -3.5 -7t-14.5 -1t-14.5 1t-3.5 7zM43 1311q14 0 17 -2t3 -9v-155q0 -6 -3.5 -8t-16.5 -2q-12 0 -15 2t-3 8v155q0 7 3 9t15 2zM383 1311q14 0 17 -2t3 -9v-155q0 -6 -3.5 -8t-16.5 -2q-12 0 -15 2t-3 8v155 q0 7 3 9t15 2z" />
<glyph unicode="&#xf0;" horiz-adv-x="1067" d="M942 1331l-158 -69q78 -102 112 -287.5t34 -476.5q0 -258 -91.5 -383t-306.5 -125t-306 124t-91 373t91 373.5t306 124.5q293 0 359 -250q-13 185 -44.5 309.5t-96.5 202.5l-242 -104q-14 -5 -19 8q-6 15 3 18l237 103q-109 106 -307 106q-8 0 -8 17q0 16 8 16 q229 0 342 -125l162 72q11 6 18 -6q7 -15 -2 -21zM532 25q197 0 278 113.5t81 348.5t-81 349t-278 114t-278.5 -114.5t-81.5 -348.5t81.5 -348t278.5 -114z" />
<glyph unicode="&#xf1;" horiz-adv-x="1118" d="M227 967v-232q30 101 129.5 175.5t253.5 74.5q157 0 243.5 -82t86.5 -248v-647q0 -6 -3.5 -7t-14.5 -1q-19 0 -19 8v643q0 297 -297 297q-85 0 -157 -28t-119.5 -75t-74 -106.5t-26.5 -122.5v-608q0 -6 -3.5 -7t-14.5 -1q-13 0 -15.5 1t-2.5 7v959q0 6 2.5 7t13.5 1 t14.5 -1t3.5 -7zM793 1251v31q0 10 14 10q10 0 12 -2t2 -8v-37q-3 -123 -100 -123q-48 0 -115 39l-110 72q-57 33 -99 33q-35 0 -52 -22t-17 -77v-32q0 -9 -15 -9q-16 0 -16 9l2 36q0 125 98 125q50 0 117 -39l109 -71q57 -33 98 -33q37 0 54.5 21.5t17.5 76.5z" />
<glyph unicode="&#xf2;" horiz-adv-x="1060" d="M530 985q215 0 306.5 -124.5t91.5 -373.5q0 -250 -91.5 -373.5t-306.5 -123.5q-214 0 -304.5 123.5t-90.5 373.5q0 249 91 373.5t304 124.5zM530 25q198 0 278.5 113.5t80.5 348.5t-80.5 349t-278.5 114q-196 0 -277 -114t-81 -349t80.5 -348.5t277.5 -113.5zM549 1124 l-332 158q-7 4 -7.5 6.5t5.5 16.5q9 19 21 10l325 -166q8 -4 2 -16q-6 -13 -14 -9z" />
<glyph unicode="&#xf3;" horiz-adv-x="1060" d="M530 985q215 0 306.5 -124.5t91.5 -373.5q0 -250 -91.5 -373.5t-306.5 -123.5q-214 0 -304.5 123.5t-90.5 373.5q0 249 91 373.5t304 124.5zM530 25q198 0 278.5 113.5t80.5 348.5t-80.5 349t-278.5 114q-196 0 -277 -114t-81 -349t80.5 -348.5t277.5 -113.5zM846 1282 l-334 -158q-7 -5 -14 9q-3 13 2 16l327 166q6 5 10 3.5t11 -13.5q5 -14 4.5 -16.5t-6.5 -6.5z" />
<glyph unicode="&#xf4;" horiz-adv-x="1060" d="M530 985q215 0 306.5 -124.5t91.5 -373.5q0 -250 -91.5 -373.5t-306.5 -123.5q-214 0 -304.5 123.5t-90.5 373.5q0 249 91 373.5t304 124.5zM530 25q198 0 278.5 113.5t80.5 348.5t-80.5 349t-278.5 114q-196 0 -277 -114t-81 -349t80.5 -348.5t277.5 -113.5zM532 1313 l-182 -180q-9 -9 -24 -9q-16 0 -9 11l199 208q4 7 16 7t19 -7l194 -208q7 -11 -8 -11t-24 9z" />
<glyph unicode="&#xf5;" horiz-adv-x="1060" d="M530 985q215 0 306.5 -124.5t91.5 -373.5q0 -250 -91.5 -373.5t-306.5 -123.5q-214 0 -304.5 123.5t-90.5 373.5q0 249 91 373.5t304 124.5zM530 25q198 0 278.5 113.5t80.5 348.5t-80.5 349t-278.5 114q-196 0 -277 -114t-81 -349t80.5 -348.5t277.5 -113.5zM764 1251 v31q0 10 14 10q10 0 12.5 -2t2.5 -8v-37q-3 -123 -101 -123q-47 0 -114 39l-111 72q-57 33 -98 33q-36 0 -53 -22t-17 -77v-32q0 -9 -14 -9q-17 0 -17 9l2 36q0 125 99 125q49 0 116 -39l109 -71q57 -33 98 -33q37 0 54.5 21.5t17.5 76.5z" />
<glyph unicode="&#xf6;" horiz-adv-x="1060" d="M530 985q215 0 306.5 -124.5t91.5 -373.5q0 -250 -91.5 -373.5t-306.5 -123.5q-214 0 -304.5 123.5t-90.5 373.5q0 249 91 373.5t304 124.5zM530 25q198 0 278.5 113.5t80.5 348.5t-80.5 349t-278.5 114q-196 0 -277 -114t-81 -349t80.5 -348.5t277.5 -113.5zM358 1311 q14 0 17.5 -2t3.5 -9v-155q0 -6 -4 -8t-17 -2q-12 0 -15 2t-3 8v155q0 7 3 9t15 2zM700 1311q14 0 17.5 -2t3.5 -9v-155q0 -6 -4 -8t-17 -2q-12 0 -15 2t-3 8v155q0 7 3 9t15 2z" />
<glyph unicode="&#xf7;" d="M170 649h745q9 0 9 -18q0 -19 -9 -19h-745q-8 0 -8 19q0 18 8 18zM545 217h-11.5t-6.5 1t-4 3t-1 6v158q0 7 4.5 9.5t18.5 2.5q22 0 22 -12v-158q0 -7 -4.5 -8.5t-17.5 -1.5zM545 862h-11.5t-6.5 1t-4 3t-1 6v158q0 7 4.5 9.5t18.5 2.5q22 0 22 -12v-158q0 -7 -4.5 -8.5 t-17.5 -1.5z" />
<glyph unicode="&#xf8;" horiz-adv-x="1069" d="M535 985q166 0 262 -80l86 127q5 8 20 8q9 0 12 -2.5t0 -7.5l-98 -143q115 -118 115 -400q0 -250 -91 -373.5t-306 -123.5q-173 0 -265 80l-84 -127q-4 -9 -22 -9q-17 0 -10 11l96 143q-111 117 -111 399q0 249 91.5 373.5t304.5 124.5zM535 25q198 0 278 113.5t80 348.5 q0 260 -96 367l-508 -752q83 -77 246 -77zM176 487q0 -258 94 -366l508 751q-84 78 -243 78q-197 0 -278 -114t-81 -349z" />
<glyph unicode="&#xf9;" horiz-adv-x="1105" d="M881 8l-2 230q-27 -100 -117.5 -174t-235.5 -74q-163 0 -255.5 87t-92.5 261v629q0 8 19 8q12 0 15 -1t3 -7v-625q0 -161 83 -238t230 -77q81 0 149 28.5t111.5 75.5t67 106t23.5 121v609q0 6 3.5 7t14.5 1t14.5 -1t3.5 -7v-959q0 -6 -3.5 -7t-14.5 -1t-13.5 1t-2.5 7z M557 1124l-332 158q-7 4 -7.5 6.5t5.5 16.5q9 19 21 10l325 -166q8 -4 2 -16q-6 -13 -14 -9z" />
<glyph unicode="&#xfa;" horiz-adv-x="1105" d="M881 8l-2 230q-27 -100 -117.5 -174t-235.5 -74q-163 0 -255.5 87t-92.5 261v629q0 8 19 8q12 0 15 -1t3 -7v-625q0 -161 83 -238t230 -77q81 0 149 28.5t111.5 75.5t67 106t23.5 121v609q0 6 3.5 7t14.5 1t14.5 -1t3.5 -7v-959q0 -6 -3.5 -7t-14.5 -1t-13.5 1t-2.5 7z M864 1282l-334 -158q-7 -5 -14 9q-3 13 2 16l328 166q6 5 9.5 3.5t10.5 -13.5q5 -14 4.5 -16.5t-6.5 -6.5z" />
<glyph unicode="&#xfb;" horiz-adv-x="1105" d="M881 8l-2 230q-27 -100 -117.5 -174t-235.5 -74q-163 0 -255.5 87t-92.5 261v629q0 8 19 8q12 0 15 -1t3 -7v-625q0 -161 83 -238t230 -77q81 0 149 28.5t111.5 75.5t67 106t23.5 121v609q0 6 3.5 7t14.5 1t14.5 -1t3.5 -7v-959q0 -6 -3.5 -7t-14.5 -1t-13.5 1t-2.5 7z M553 1313l-182 -180q-9 -9 -25 -9q-15 0 -8 11l199 208q3 7 16 7q11 0 18 -7l195 -208q7 -11 -8 -11q-16 0 -25 9z" />
<glyph unicode="&#xfc;" horiz-adv-x="1105" d="M881 8l-2 230q-27 -100 -117.5 -174t-235.5 -74q-163 0 -255.5 87t-92.5 261v629q0 8 19 8q12 0 15 -1t3 -7v-625q0 -161 83 -238t230 -77q81 0 149 28.5t111.5 75.5t67 106t23.5 121v609q0 6 3.5 7t14.5 1t14.5 -1t3.5 -7v-959q0 -6 -3.5 -7t-14.5 -1t-13.5 1t-2.5 7z M381 1311q14 0 17 -2t3 -9v-155q0 -6 -3.5 -8t-16.5 -2q-19 0 -19 10v155q0 7 3.5 9t15.5 2zM721 1311q14 0 17 -2t3 -9v-155q0 -6 -3.5 -8t-16.5 -2q-19 0 -19 10v155q0 7 3.5 9t15.5 2z" />
<glyph unicode="&#xfd;" horiz-adv-x="962" d="M207 -348q38 0 70 15t57 38.5t52 69t47.5 89t51.5 116.5q4 13 9 20q-10 0 -13 8q-98 200 -213 475.5t-184 481.5q-3 7 0 8.5t16 1.5q18 0 21 -8q72 -211 181.5 -477.5t203.5 -458.5q216 541 340 936q5 8 20 8h10t6.5 -1.5t2.5 -3.5t0 -7q-73 -240 -186 -539t-181 -457 q-41 -96 -68 -149t-64.5 -104.5t-79.5 -73t-97 -21.5q-75 0 -119 19q-6 1 -7 3.5t-1 12.5q0 16 8 16q2 0 16 -4.5t41 -9t60 -4.5zM813 1282l-334 -158q-7 -5 -14 9q-3 13 2 16l328 166q6 5 9.5 3.5t10.5 -13.5q5 -14 4.5 -16.5t-6.5 -6.5z" />
<glyph unicode="&#xfe;" horiz-adv-x="1118" d="M229 1409v-680q38 127 127 191.5t238 64.5q208 0 299.5 -125.5t91.5 -370.5q0 -247 -91.5 -373t-299.5 -126q-150 0 -239 64t-126 192v-606q0 -9 -18 -9q-12 0 -15 1.5t-3 7.5v1769q0 6 3.5 7t14.5 1t14.5 -1t3.5 -7zM229 487q0 -233 84 -347.5t281 -114.5 q191 0 271.5 114.5t80.5 349.5q0 232 -80.5 346.5t-271.5 114.5q-197 0 -281 -115t-84 -348z" />
<glyph unicode="&#xff;" horiz-adv-x="962" d="M207 -348q38 0 70 15t57 38.5t52 69t47.5 89t51.5 116.5q4 13 9 20q-10 0 -13 8q-98 200 -213 475.5t-184 481.5q-3 7 0 8.5t16 1.5q18 0 21 -8q72 -211 181.5 -477.5t203.5 -458.5q216 541 340 936q5 8 20 8h10t6.5 -1.5t2.5 -3.5t0 -7q-73 -240 -186 -539t-181 -457 q-41 -96 -68 -149t-64.5 -104.5t-79.5 -73t-97 -21.5q-75 0 -119 19q-6 1 -7 3.5t-1 12.5q0 16 8 16q2 0 16 -4.5t41 -9t60 -4.5zM651 1311q14 0 17.5 -2t3.5 -9v-155q0 -6 -4 -8t-17 -2q-12 0 -15 2t-3 8v155q0 7 3 9t15 2zM309 1311q14 0 17.5 -2t3.5 -9v-155q0 -6 -4 -8 t-17 -2q-12 0 -15 2t-3 8v155q0 7 3 9t15 2z" />
<glyph unicode="&#x152;" horiz-adv-x="1753" d="M1591 1319h-645v-606h586q8 0 8 -19q0 -16 -8 -16h-586v-641h653q9 0 9 -19q0 -18 -9 -18h-925q-282 0 -404.5 159.5t-122.5 518.5t122.5 518.5t404.5 159.5h917q8 0 8 -19q0 -18 -8 -18zM674 35h233v1286h-233q-263 0 -375.5 -148t-112.5 -495t112.5 -495t375.5 -148z " />
<glyph unicode="&#x153;" horiz-adv-x="1660" d="M1522 485h-650q0 -230 79.5 -345t260.5 -115q123 0 191 59.5t76 169.5q0 6 3.5 7t14.5 1q19 0 19 -8q-9 -124 -88 -194t-216 -70q-155 0 -241.5 77.5t-116.5 231.5q-27 -155 -111 -232t-241 -77q-198 0 -282.5 123.5t-84.5 373.5q0 249 84.5 373.5t282.5 124.5 q157 0 241 -77.5t111 -231.5q28 153 111.5 231t230.5 78q117 0 194 -53.5t109.5 -141t32.5 -206.5v-78q0 -21 -10 -21zM502 25q184 0 259 113.5t75 348.5t-75.5 349t-258.5 114q-182 0 -256 -114t-74 -349t74 -348.5t256 -113.5zM1196 950q-167 0 -243 -107.5t-81 -324.5 h623v66q0 170 -72 268t-227 98z" />
<glyph unicode="&#x178;" horiz-adv-x="1101" d="M975 1346q3 6 5.5 7t14.5 1q14 0 18 -1t1 -7q-92 -195 -218.5 -432t-224.5 -400v-506q0 -6 -3.5 -7t-16.5 -1q-19 0 -19 8v506q-99 161 -225 398t-217 434q-3 6 0.5 7t18.5 1q16 0 20 -8q85 -185 206 -413.5t216 -383.5q91 149 211.5 376t212.5 421zM729 1673h11t6 -1 t3.5 -3t0.5 -6v-156q0 -8 -4 -10t-17 -2q-12 0 -15 2t-3 10v156q0 7 2.5 8.5t15.5 1.5zM373 1673q10 0 13.5 -0.5t5 -2.5t1.5 -7v-156q0 -8 -3.5 -10t-16.5 -2q-12 0 -15.5 2t-3.5 10v156q0 7 3 8.5t16 1.5z" />
<glyph unicode="&#x2c6;" horiz-adv-x="624" d="M313 1313l-182 -180q-9 -9 -25 -9q-15 0 -8 11l199 208q3 7 16 7q12 0 19 -7l194 -208q7 -11 -8 -11t-24 9z" />
<glyph unicode="&#x2dc;" horiz-adv-x="624" d="M545 1251v31q0 10 14 10q10 0 12 -2t2 -8v-37q-3 -123 -100 -123q-48 0 -115 39l-110 72q-57 33 -98 33q-36 0 -53 -22t-17 -77v-32q0 -9 -14 -9q-17 0 -17 9l2 36q0 125 99 125q49 0 116 -39l109 -71q57 -33 98 -33q37 0 54.5 21.5t17.5 76.5z" />
<glyph unicode="&#x2000;" horiz-adv-x="857" />
<glyph unicode="&#x2001;" horiz-adv-x="1714" />
<glyph unicode="&#x2002;" horiz-adv-x="857" />
<glyph unicode="&#x2003;" horiz-adv-x="1714" />
<glyph unicode="&#x2004;" horiz-adv-x="571" />
<glyph unicode="&#x2005;" horiz-adv-x="428" />
<glyph unicode="&#x2006;" horiz-adv-x="285" />
<glyph unicode="&#x2007;" horiz-adv-x="285" />
<glyph unicode="&#x2008;" horiz-adv-x="214" />
<glyph unicode="&#x2009;" horiz-adv-x="342" />
<glyph unicode="&#x200a;" horiz-adv-x="95" />
<glyph unicode="&#x2010;" horiz-adv-x="786" d="M150 567h487q8 0 8 -18q0 -17 -8 -17h-487q-9 0 -9 17q0 18 9 18z" />
<glyph unicode="&#x2011;" horiz-adv-x="786" d="M150 567h487q8 0 8 -18q0 -17 -8 -17h-487q-9 0 -9 17q0 18 9 18z" />
<glyph unicode="&#x2012;" horiz-adv-x="786" d="M150 567h487q8 0 8 -18q0 -17 -8 -17h-487q-9 0 -9 17q0 18 9 18z" />
<glyph unicode="&#x2013;" horiz-adv-x="1028" d="M147 567h734q8 0 8 -18q0 -17 -8 -17h-734q-8 0 -8 17q0 18 8 18z" />
<glyph unicode="&#x2014;" horiz-adv-x="1425" d="M143 567h1139q8 0 8 -18q0 -17 -8 -17h-1139q-8 0 -8 17q0 18 8 18z" />
<glyph unicode="&#x2018;" horiz-adv-x="370" d="M174 1137v-127q0 -9 -18 -9q-17 0 -17 9v127q0 205 135 276q10 5 15 -10q7 -11 -2 -17q-113 -64 -113 -249z" />
<glyph unicode="&#x2019;" horiz-adv-x="370" d="M197 1276v127q0 8 18 8q16 0 16 -8v-127q0 -206 -135 -277q-6 -3 -8.5 -0.5t-5.5 11.5q-6 10 2 16q113 64 113 250z" />
<glyph unicode="&#x201a;" horiz-adv-x="370" d="M197 78v127q0 8 18 8q16 0 16 -8v-127q0 -206 -135 -277q-6 -3 -8.5 -0.5t-5.5 11.5q-6 10 2 16q113 64 113 250z" />
<glyph unicode="&#x201c;" horiz-adv-x="649" d="M174 1137v-127q0 -9 -18 -9q-17 0 -17 9v127q0 205 135 276q10 5 15 -10q7 -11 -2 -17q-113 -64 -113 -249zM453 1137v-127q0 -9 -19 -9q-16 0 -16 9v127q0 205 135 276q9 5 14 -10q7 -11 -2 -17q-112 -64 -112 -249z" />
<glyph unicode="&#x201d;" horiz-adv-x="649" d="M197 1276v127q0 8 18 8q16 0 16 -8v-127q0 -206 -135 -277q-6 -3 -8.5 -0.5t-5.5 11.5q-6 10 2 16q113 64 113 250zM477 1276v127q0 8 19 8q16 0 16 -8v-127q0 -206 -135 -277q-10 -5 -15 11q-6 10 3 16q112 64 112 250z" />
<glyph unicode="&#x201e;" horiz-adv-x="649" d="M197 78v127q0 8 18 8q16 0 16 -8v-127q0 -206 -135 -277q-6 -3 -8.5 -0.5t-5.5 11.5q-6 10 2 16q113 64 113 250zM477 78v127q0 8 19 8q16 0 16 -8v-127q0 -206 -135 -277q-10 -5 -15 11q-6 10 3 16q112 64 112 250z" />
<glyph unicode="&#x2022;" horiz-adv-x="641" d="M319 410q-76 0 -97 23t-21 110t21.5 111t96.5 24q77 0 99 -24t22 -111t-22 -110t-99 -23z" />
<glyph unicode="&#x2026;" horiz-adv-x="1138" d="M190 0q-10 0 -14 0.5t-6 2.5t-2 7v158q0 7 4 9.5t18 2.5q23 0 23 -12v-158q0 -7 -4.5 -8.5t-18.5 -1.5zM569 0q-10 0 -13.5 0.5t-6 2.5t-2.5 7v158q0 12 22 12q14 0 18.5 -2.5t4.5 -9.5v-158q0 -7 -4 -8.5t-19 -1.5zM948 0q-10 0 -13.5 0.5t-6 2.5t-2.5 7v158q0 12 22 12 q25 0 25 -12v-158q0 -7 -5 -8.5t-20 -1.5z" />
<glyph unicode="&#x202f;" horiz-adv-x="342" />
<glyph unicode="&#x2039;" horiz-adv-x="546" d="M135 549q0 8 6 14l217 301q6 6 23 6q10 0 13 -2t-1 -8l-223 -311l223 -309q4 -6 1 -8.5t-13 -2.5q-18 0 -23 7l-217 299q-6 9 -6 14z" />
<glyph unicode="&#x203a;" horiz-adv-x="546" d="M412 549q0 -5 -6 -14l-218 -299q-5 -7 -22 -7q-10 0 -13 2.5t1 8.5l223 309l-223 311q-4 6 -1 8t13 2q16 0 22 -6l218 -301q6 -6 6 -14z" />
<glyph unicode="&#x205f;" horiz-adv-x="428" />
<glyph unicode="&#x20ac;" horiz-adv-x="1251" d="M668 537h-389q19 -273 118.5 -391.5t309.5 -118.5q189 0 274 86t90 268q0 8 19 8q12 0 15 -1t3 -7q-3 -197 -99 -294t-302 -97q-227 0 -337 130t-130 417h-158q-6 0 -6 14q0 18 6 18h156q-2 35 -2 113q0 76 2 113h-156q-4 0 -5 2.5t-1 13.5q0 16 6 16h158q20 281 127 410 t323 129q405 0 414 -371q0 -10 -19 -10q-12 0 -15 2t-3 8q-5 166 -97 250t-280 84q-198 0 -295 -118t-116 -384h501q8 0 8 -16q0 -11 -1 -13.5t-7 -2.5h-504q-2 -37 -2 -113q0 -78 2 -113h392q6 0 7 -3.5t1 -14.5q0 -9 -1 -11.5t-7 -2.5z" />
<glyph unicode="&#x2122;" horiz-adv-x="1540" d="M737 1356q19 0 21 -8l284 -617l283 617q2 8 21 8q14 0 18 -1t4 -7v-736q0 -8 -14 -8q-17 0 -17 8v695l-276 -602q-3 -9 -19 -9q-15 0 -18 9l-279 602v-695q0 -8 -16 -8q-14 0 -14 8v736q0 6 3.5 7t18.5 1zM569 1325h-225v-713q0 -8 -16 -8q-17 0 -17 8v713h-223 q-6 0 -6 16q0 15 6 15h481q6 0 6 -15q0 -16 -6 -16z" />
<glyph unicode="&#x25fc;" horiz-adv-x="972" d="M0 973h973v-973h-973v973z" />
</font>
</defs>
</svg>
