<?xml version="1.0" standalone="no"?>
<!DOCTYPE svg PUBLIC "-//W3C//DTD SVG 1.1//EN" "http://www.w3.org/Graphics/SVG/1.1/DTD/svg11.dtd" >
<svg xmlns="http://www.w3.org/2000/svg" xmlns:xlink="http://www.w3.org/1999/xlink" version="1.1">
<metadata></metadata>
<defs>
<font id="frygiathin_italic" horiz-adv-x="1085" >
<font-face units-per-em="2048" ascent="1536" descent="-512" />
<missing-glyph horiz-adv-x="485" />
<glyph unicode="&#xfb01;" horiz-adv-x="1042" d="M897 1360q-87 24 -209 24q-83 0 -138 -16t-91 -53.5t-54.5 -91.5t-27.5 -138l-12 -110h526q13 0 16.5 -1t3.5 -7l-100 -959q0 -8 -20 -8q-11 0 -14 1t-3 7l96 932h-508l-98 -932q0 -6 -3 -7t-15 -1q-19 0 -19 8l99 932h-193q-9 0 -6 16q0 19 10 19h193l12 112 q18 179 94 255.5t254 76.5q121 0 219 -26q11 -5 2 -21q-4 -15 -14 -12z" />
<glyph unicode="&#xfb02;" horiz-adv-x="1064" d="M377 1085l-12 -110h260q6 0 6 -17q-6 -17 -10 -18h-259l-98 -932q0 -6 -3 -7t-15 -1q-19 0 -19 8l99 932h-193q-9 0 -6 16q0 19 10 19h193l12 112q18 181 94.5 256.5t263.5 75.5q153 0 242 -26q12 -2 12 -15l-125 -1188q-8 -87 13.5 -121t95.5 -34h39q8 0 8 -17 q-6 -17 -10 -18h-43q-91 0 -120.5 43t-18.5 143l122 1178q-82 20 -215 20q-89 0 -147 -16t-94.5 -53.5t-54.5 -91.5t-27 -138z" />
<glyph unicode="&#xfb03;" horiz-adv-x="1599" d="M885 975l12 112q12 120 47 190.5t107.5 106t193.5 35.5q123 0 221 -26q9 -6 2 -21q-4 -15 -14 -12q-91 24 -209 24q-110 0 -174.5 -31t-95.5 -94t-43 -174l-10 -110h524q14 0 17.5 -1t2.5 -7l-100 -959q0 -6 -3 -7t-15 -1q-13 0 -16 1t-3 7l98 932h-509l-97 -932 q0 -8 -20 -8q-19 0 -19 8l99 932h-519l-98 -932q0 -6 -3 -7t-15 -1q-19 0 -19 8l99 932h-193q-9 0 -6 16q0 19 10 19h193l16 153q16 152 73.5 221.5t184.5 69.5q90 0 156 -24q8 -3 0 -21q-8 -13 -17 -10q-47 20 -137 20q-112 0 -161.5 -61t-61.5 -197l-18 -151h520z" />
<glyph unicode="&#xfb04;" horiz-adv-x="1619" d="M885 975l12 112q12 121 46.5 191t110 105.5t203.5 35.5q149 0 242 -26q12 -3 12 -15l-125 -1188q-9 -87 12 -121t95 -34h41q9 0 6 -17q-6 -17 -10 -18h-43q-90 0 -120 43t-19 143l125 1178q-86 20 -216 20q-118 0 -185 -31t-97.5 -93.5t-42.5 -174.5l-10 -110h258 q6 -7 6 -17q-6 -17 -10 -18h-258l-97 -932q0 -8 -20 -8q-19 0 -19 8l99 932h-519l-98 -932q0 -6 -3 -7t-15 -1q-19 0 -19 8l99 932h-193q-9 0 -6 16q0 19 10 19h193l16 153q16 152 73.5 221.5t184.5 69.5q90 0 156 -24q8 -3 0 -21q-8 -13 -17 -10q-47 20 -137 20 q-112 0 -161.5 -61t-61.5 -197l-18 -151h520z" />
<glyph horiz-adv-x="0" />
<glyph horiz-adv-x="682" />
<glyph unicode=" "  horiz-adv-x="485" />
<glyph unicode="&#x09;" horiz-adv-x="485" />
<glyph unicode="&#xa0;" horiz-adv-x="485" />
<glyph unicode="!" horiz-adv-x="483" d="M238 383q-15 0 -15 8l94 955q0 7 4.5 8.5t18.5 1.5h11.5t7 -1t4 -3t-0.5 -6l-106 -955q-3 -8 -18 -8zM199 0q-9 0 -12.5 0.5t-6 2.5t-2.5 7l17 158q0 12 22 12q14 0 18.5 -2.5t4.5 -9.5l-17 -158q0 -7 -4.5 -8.5t-19.5 -1.5z" />
<glyph unicode="&#x22;" horiz-adv-x="655" d="M223 934l41 467q0 10 23 10q14 0 17 -1.5t3 -8.5l-55 -467q-2 -8 -16 -8q-5 0 -7.5 0.5t-4.5 2t-1 5.5zM514 928l41 467q0 10 23 10q14 0 17 -1.5t3 -8.5l-55 -467q-2 -8 -17 -8q-5 0 -7.5 0.5t-4 2t-0.5 5.5z" />
<glyph unicode="#" horiz-adv-x="1179" d="M623 8l131 398h-430l-131 -398q-2 -8 -17 -8q-12 0 -14.5 1t-1.5 7l131 398h-193q-6 0 -6 14t8 14h201l133 404h-192q-6 0 -6 16q6 13 10 14h198l134 398q2 8 18 8q10 0 12.5 -1t-0.5 -7l-131 -398h430l133 398q2 8 19 8q10 0 12.5 -1t-0.5 -7l-131 -398h195q7 0 4 -14 q-3 -16 -9 -16h-200l-133 -404h194q7 0 4 -14q0 -14 -8 -14h-201l-131 -398q-2 -8 -18 -8q-10 0 -12.5 1t-1.5 7zM467 838l-133 -404h430l133 404h-430z" />
<glyph unicode="$" horiz-adv-x="1150" d="M526 -184q-12 0 -15 1t-3 7l16 166q-204 6 -304.5 91t-80.5 253q0 8 19 8q12 0 15 -1t3 -7q-17 -154 73.5 -229t280.5 -80l70 647q-72 20 -122 38.5t-99.5 46.5t-79 61.5t-48 81t-18.5 106.5q0 356 429 356h8l18 170q0 6 4 7t17 1q11 0 14 -1t2 -7l-18 -172 q176 -8 255 -86t62 -246q0 -6 -3 -7t-15 -1q-11 0 -14 1t-3 7q14 153 -53.5 222t-235.5 75l-65 -623h4q99 -29 159 -53.5t109.5 -61t70.5 -85t21 -117.5q0 -389 -438 -395l-16 -166q0 -8 -19 -8zM963 383q0 62 -20 106.5t-65 76.5t-101.5 53.5t-145.5 44.5l-66 -639 q398 3 398 358zM270 1006q0 -53 16.5 -94.5t42 -69.5t72 -52.5t90.5 -40.5t113 -36l64 614h-9q-67 0 -122 -8.5t-106 -31t-85.5 -58t-55 -92t-20.5 -131.5z" />
<glyph unicode="%" horiz-adv-x="1556" d="M483 1362q222 0 222 -244q0 -68 -15 -131t-47 -119.5t-89.5 -90.5t-133.5 -34q-217 0 -217 238q0 55 8 106t28.5 102t51 88.5t80 61t112.5 23.5zM422 774q66 0 115.5 29t77.5 79t41.5 109t13.5 127q0 109 -46 161t-143 52q-67 0 -117 -30t-76.5 -81.5t-39 -110.5 t-12.5 -126q0 -209 186 -209zM1311 1348l-971 -1340q-4 -8 -25 -8q-9 0 -11 2t1 6l971 1340q6 8 24 8q16 0 13 -5q0 -1 -2 -3zM1194 610q221 0 221 -243q0 -68 -15 -130.5t-47 -119t-89.5 -90t-133.5 -33.5q-217 0 -217 237q0 55 8 106t28.5 101.5t51.5 88t80.5 60.5 t112.5 23zM1133 25q66 0 115 29t77 79t41.5 108.5t13.5 125.5q0 109 -45.5 161t-142.5 52q-68 0 -117.5 -30t-76.5 -81.5t-39.5 -110.5t-12.5 -127q0 -105 46.5 -155.5t140.5 -50.5z" />
<glyph unicode="&#x26;" horiz-adv-x="1339" d="M1231 39q4 1 6 -2t4 -12t1 -11.5t-7 -5.5q-37 -14 -96 -14q-83 0 -124 50t-42 157q-55 -98 -161.5 -154.5t-260.5 -56.5q-201 0 -306.5 88.5t-105.5 255.5q0 162 84 283t240 153q-85 11 -134.5 69t-49.5 167q0 168 99.5 261t280.5 93q185 0 256 -70t62 -215q0 -8 -21 -8 q-10 0 -13 2t-3 8q8 128 -54.5 188t-230.5 60q-158 0 -248 -76.5t-90 -240.5q0 -114 59.5 -168t182.5 -54h139q7 0 4 -18q0 -18 -8 -18h-139q-166 0 -270.5 -119.5t-104.5 -296.5q0 -153 95 -232t280 -79q198 0 309 94t127 243l39 390h-168q-6 0 -6 18q3 18 10 18h414 q7 0 4 -18q0 -18 -8 -18h-209l-41 -392q-2 -28 -14 -63v-88q0 -98 31.5 -139t97.5 -41q30 0 90 12z" />
<glyph unicode="'" horiz-adv-x="362" d="M223 934l41 467q0 10 23 10q14 0 17 -1.5t3 -8.5l-55 -467q-2 -8 -16 -8q-5 0 -7.5 0.5t-4.5 2t-1 5.5z" />
<glyph unicode="(" horiz-adv-x="655" d="M178 147q0 169 16 341t52 342t89 301t133 212.5t177 81.5h37q7 0 4 -16q0 -16 -10 -16h-33q-89 0 -163 -81.5t-122.5 -211.5t-82 -297t-48 -333.5t-14.5 -326.5q0 -250 59.5 -368.5t188.5 -118.5h33q11 0 8 -16q-3 -17 -10 -17h-37q-145 0 -211 128t-66 396z" />
<glyph unicode=")" horiz-adv-x="655" d="M477 901q0 -169 -16 -341t-52 -342t-89 -301t-133 -212.5t-177 -81.5h-37q-7 0 -4 17q0 16 11 16h32q89 0 163 81.5t122.5 211t82 297t48 333.5t14.5 326q0 250 -59 369t-188 119h-33q-11 0 -8 16t10 16h37q145 0 210.5 -127.5t65.5 -396.5z" />
<glyph unicode="*" horiz-adv-x="1036" d="M246 1155l327 -125l29 365q0 12 23 12q12 0 15 -2.5t3 -9.5l-49 -365l354 125q7 2 9.5 -1t5.5 -17q5 -20 -7 -23l-358 -104l190 -285q7 -7 -12 -20q-19 -16 -22 -5l-174 297l-234 -297q-7 -10 -22 5q-16 13 -11 20l254 285l-338 104q-12 3 -2 23q6 13 9.5 16.5t9.5 1.5z " />
<glyph unicode="+" d="M627 1024l-41 -377h360q8 0 8 -16q-3 -17 -12 -17h-358l-41 -378q0 -9 -19 -9q-16 0 -16 9l39 378h-359q-9 0 -6 17q0 16 8 16h361l41 377q0 8 18 8q17 0 17 -8z" />
<glyph unicode="," horiz-adv-x="378" d="M211 201q14 0 18 -2.5t2 -10.5q-66 -191 -215 -458q-4 -9 -18 -9t-14 9q149 283 200 458q3 13 27 13z" />
<glyph unicode="-" horiz-adv-x="786" d="M168 567h487q10 0 7 -18q-3 -17 -11 -17h-487q-9 0 -6 17q3 18 10 18z" />
<glyph unicode="." horiz-adv-x="378" d="M147 0q-9 0 -12.5 0.5t-5.5 2.5t-2 7l16 158q0 12 23 12q14 0 18 -2.5t4 -9.5l-16 -158q0 -7 -5 -8.5t-20 -1.5z" />
<glyph unicode="/" horiz-adv-x="724" d="M791 1454l-768 -1614q-3 -8 -23 -8q-13 0 -14 3q0 2 2 5l766 1614q3 8 22 8q10 0 13.5 -1.5t1.5 -6.5z" />
<glyph unicode="0" horiz-adv-x="1142" d="M664 1284q192 0 280 -111.5t88 -347.5q0 -78 -4.5 -150t-19 -158.5t-37 -158.5t-61.5 -142t-90.5 -118.5t-126 -78t-165.5 -29.5q-193 0 -281.5 111t-88.5 348q0 77 5 149.5t19 158t37 158.5t62 142.5t90.5 118.5t126.5 78.5t166 29.5zM532 25q91 0 164.5 33t123 93 t84.5 135t53.5 168.5t27 182.5t8.5 188q0 220 -78.5 322t-252.5 102q-92 0 -166 -33.5t-123.5 -94t-85 -136t-54.5 -169t-27.5 -183t-8.5 -187.5q0 -220 79.5 -320.5t255.5 -100.5z" />
<glyph unicode="1" horiz-adv-x="804" d="M358 8l129 1225l-305 -115q-6 -3 -9 1.5t-1 13.5v3q4 13 10 15l336 127q12 6 12 -6l-133 -1264q0 -6 -3.5 -7t-14.5 -1q-13 0 -17 1t-4 7z" />
<glyph unicode="2" horiz-adv-x="1046" d="M612 1284q334 0 334 -280q0 -79 -22.5 -147.5t-57.5 -120t-94.5 -103.5t-117 -90t-142.5 -86q-69 -40 -111.5 -67t-98 -69.5t-88 -79.5t-58 -87t-31.5 -103l-2 -16h741q9 0 6 -17q-4 -17 -8 -18h-768q-8 0 -10 2.5t-2 11.5l4 33q5 48 22 91.5t47.5 82.5t62.5 71 t81.5 67.5t88 60t97.5 59.5q55 33 87.5 53t82.5 55t80.5 63.5t66.5 70t56 82t33.5 92.5t13.5 109q0 125 -72.5 184t-222.5 59q-100 0 -170 -21t-112.5 -64t-64.5 -98.5t-34 -135.5q0 -10 -18 -10t-18 10q23 179 117 267.5t302 88.5z" />
<glyph unicode="3" horiz-adv-x="1052" d="M588 643h-148q-9 0 -6 19q3 16 8 16h150q145 0 231 86.5t86 241.5q0 121 -74 182t-231 61q-187 0 -271 -69.5t-104 -212.5q0 -11 -20 -11q-16 0 -16 9q21 160 116.5 239.5t298.5 79.5q340 0 340 -276q0 -129 -66 -225t-192 -121q102 -16 165 -83.5t63 -185.5 q0 -190 -113.5 -296.5t-312.5 -106.5q-212 0 -303.5 82t-79.5 241q3 9 20 9q10 0 14 -2.5t2 -8.5q-9 -142 71 -214t276 -72q174 0 279.5 93t105.5 271q0 125 -75.5 189.5t-213.5 64.5z" />
<glyph unicode="4" horiz-adv-x="1079" d="M737 0q-13 0 -15.5 1t-2.5 7l33 320h-662q-6 0 -6 18q0 14 6 23l739 899q8 10 33 10h13t8.5 -1t5.5 -3t0 -6l-94 -906h206q9 0 9 -16q-3 -18 -11 -18h-208l-33 -320q0 -8 -21 -8zM129 362h625l94 875z" />
<glyph unicode="5" horiz-adv-x="1007" d="M518 735q-184 0 -311 -71q-11 -7 -25 -7q-16 0 -16 11l113 594q3 12 20 12h596q9 0 6 -19q0 -18 -10 -18h-582l-102 -541q133 74 315 74q180 0 272.5 -81t92.5 -243q0 -133 -46.5 -234t-146 -161.5t-241.5 -60.5q-199 0 -287 81t-76 242q0 9 19 9q10 0 14 -2.5t2 -8.5 q-9 -142 69.5 -214t262.5 -72q189 0 290 114.5t101 311.5q0 145 -82 214.5t-248 69.5z" />
<glyph unicode="6" horiz-adv-x="1069" d="M932 999q2 121 -69.5 185.5t-215.5 64.5q-416 0 -448 -702q52 99 168.5 157t255.5 58q160 0 243.5 -76t83.5 -225q0 -214 -107 -342.5t-311 -128.5q-198 0 -286 111.5t-88 330.5q0 150 16 276t52.5 234t92 182.5t139 117t189.5 42.5q159 0 242 -75t80 -210q-2 -8 -19 -8 q-12 0 -15 1t-3 7zM197 504v-72q0 -203 77 -305t258 -102q100 0 175.5 35t119 96t65 136.5t21.5 164.5q0 137 -74 202.5t-223 65.5q-138 0 -252 -58.5t-167 -162.5z" />
<glyph unicode="7" horiz-adv-x="950" d="M205 10q248 527 682 1227h-690q-10 0 -7 18q0 19 9 19h729q9 0 6 -17q-2 -12 -8 -26q-413 -655 -680 -1223q-4 -8 -25 -8q-11 0 -14 2t-2 8z" />
<glyph unicode="8" horiz-adv-x="1097" d="M127 264q0 56 11.5 103.5t30 82t49 64t60 49t73 37t78.5 28t85 23.5q-65 18 -109 36.5t-86.5 51t-64 82t-21.5 117.5q0 170 111 258t299 88q173 0 258.5 -67t85.5 -191q0 -74 -20.5 -132.5t-51 -95.5t-81.5 -67t-95.5 -46t-109.5 -34q59 -15 97.5 -27t86 -36t74.5 -53 t46 -75.5t19 -105.5q0 -181 -122 -272.5t-324 -91.5q-189 0 -284 70.5t-95 203.5zM913 352q0 33 -7 61.5t-16.5 50.5t-29 42t-34.5 33.5t-44 27.5t-46.5 21.5t-53.5 18.5t-53.5 15.5t-57.5 14.5q-44 -12 -68 -18.5t-64.5 -19.5t-63.5 -23.5t-56 -28t-51.5 -35.5t-41 -44 t-33.5 -55t-19 -66.5t-8 -80.5q0 -241 344 -241q64 0 120.5 10t109 34t90.5 60.5t60.5 93.5t22.5 129zM270 942q0 -54 17 -96.5t42 -69t68 -49t79 -34.5t91 -27q52 13 84 22.5t77.5 26.5t73 34t59 44t49 58t29 75t11.5 96q0 227 -311 227q-75 0 -138.5 -16.5t-116.5 -51.5 t-83.5 -96t-30.5 -143z" />
<glyph unicode="9" horiz-adv-x="1069" d="M188 274q-2 -120 69.5 -184.5t215.5 -64.5q74 0 136 23.5t106.5 62.5t79 95.5t56.5 116.5t37 132t22 136t10 134q-50 -98 -166 -155.5t-256 -57.5q-160 0 -244 76t-84 225q0 214 107 342.5t311 128.5q198 0 286.5 -111.5t88.5 -330.5q0 -189 -26.5 -339.5t-82.5 -268 t-152.5 -181t-228.5 -63.5q-159 0 -241.5 74.5t-79.5 209.5q2 9 18 9q12 0 15 -1.5t3 -7.5zM924 842q0 202 -77.5 304.5t-258.5 102.5q-100 0 -175.5 -35t-119 -96t-65 -136.5t-21.5 -164.5q0 -137 74 -202.5t223 -65.5q138 0 251.5 58.5t166.5 162.5q2 25 2 72z" />
<glyph unicode=":" horiz-adv-x="415" d="M166 0q-9 0 -12.5 0.5t-6 2.5t-2.5 7l17 158q0 12 22 12q14 0 18.5 -2.5t4.5 -9.5l-17 -158q0 -7 -4.5 -8.5t-19.5 -1.5zM248 795q-9 0 -12.5 0.5t-6 2.5t-2.5 7l17 158q0 12 22 12q14 0 18.5 -2.5t4.5 -9.5l-17 -158q0 -7 -4.5 -8.5t-19.5 -1.5z" />
<glyph unicode=";" horiz-adv-x="415" d="M252 795q-9 0 -12.5 0.5t-6 2.5t-2.5 7l17 158q0 12 22 12q14 0 18.5 -2.5t4.5 -9.5l-17 -158q0 -7 -4.5 -8.5t-19.5 -1.5zM221 201q15 0 19 -2.5t2 -10.5q-66 -191 -215 -458q-5 -9 -19 -9t-14 9q151 288 201 458q2 8 6.5 10.5t19.5 2.5z" />
<glyph unicode="&#x3c;" d="M221 641q3 16 10 21l660 485q6 4 9 3t9 -9q8 -14 0 -19l-655 -481l553 -483q7 -5 -4 -19q-11 -13 -19 -8l-557 487q-6 4 -6 23z" />
<glyph unicode="=" d="M180 471h746q9 0 6 -18q0 -19 -10 -19h-746q-6 0 -6 13v6q3 18 10 18zM215 829h746q9 0 6 -18q0 -18 -11 -18h-745q-6 0 -6 12v6q3 18 10 18z" />
<glyph unicode="&#x3e;" d="M864 639q-3 -16 -10 -21l-659 -485q-9 -7 -19 6q-8 14 0 19l655 481l-552 483q-7 5 4 19q10 13 18 8l557 -487q6 -4 6 -23z" />
<glyph unicode="?" d="M563 446l-6 -55q0 -8 -16 -8q-17 0 -17 8l6 55q5 60 32.5 110.5t66 86t84.5 69t90.5 68.5t81.5 76t59.5 100t22.5 131q0 123 -80.5 182.5t-243.5 59.5q-109 0 -185.5 -22.5t-124 -68.5t-73 -106t-37.5 -145q0 -10 -18 -10q-19 0 -19 8q12 94 41 161.5t82.5 118.5 t137.5 76t200 25q179 0 270 -71t91 -208q0 -76 -22.5 -138t-59 -104t-81 -77.5t-91 -68t-86 -66.5t-68.5 -82t-37 -105zM500 0q-9 0 -12.5 0.5t-6 2.5t-2.5 7l17 158q0 12 22 12q14 0 18.5 -2.5t4.5 -9.5l-17 -158q0 -7 -4.5 -8.5t-19.5 -1.5z" />
<glyph unicode="@" horiz-adv-x="1761" d="M1141 492l45 423q-82 35 -219 35q-85 0 -148 -26.5t-99.5 -69.5t-58.5 -108.5t-29 -130t-7 -148.5q0 -130 51 -190t172 -60q120 0 199.5 66.5t93.5 208.5zM1098 -137h-217q-141 0 -246 16t-191.5 54.5t-141 102t-83.5 160.5t-29 228q0 445 194.5 666t610.5 221 q176 0 297 -32t193 -99.5t103.5 -161.5t31.5 -227q0 -96 -7.5 -179t-28 -167t-52.5 -143.5t-86 -96.5t-125 -37q-98 0 -141.5 53t-38.5 160q-31 -94 -107.5 -146.5t-187.5 -52.5q-133 0 -195.5 70t-62.5 215q0 83 8.5 151.5t34 139t66.5 118.5t110.5 78.5t161.5 30.5 q140 0 245 -41q12 -5 9 -14l-52 -494q-4 -40 -4 -59q0 -178 156 -178q71 0 123 45t81.5 127.5t43.5 186t14 233.5q0 128 -29 217t-98 151.5t-183.5 91.5t-283.5 29q-400 0 -583 -210.5t-183 -643.5q0 -106 18.5 -187t57 -139.5t92 -98t130 -62.5t163 -33t199.5 -10h217 q9 0 6 -17q0 -16 -10 -16z" />
<glyph unicode="A" horiz-adv-x="1126" d="M989 0q-11 0 -14 1t-4 7q-75 354 -94 434h-619q-145 -337 -184 -434q-2 -8 -23 -8q-11 0 -14 1t-2 7q120 298 296.5 690t307.5 650q4 8 25 8q14 0 17.5 -1t4.5 -7q77 -256 171.5 -647.5t152.5 -692.5q1 -6 -3 -7t-18 -1zM659 1313q-150 -299 -385 -836h594 q-117 507 -209 836z" />
<glyph unicode="B" horiz-adv-x="1208" d="M276 678l-67 -643h379q94 0 170.5 19.5t140 61.5t98.5 117t35 177q0 137 -97.5 202.5t-291.5 65.5h-367zM723 1321h-379l-65 -608h372q190 0 300 85.5t110 274.5q0 126 -80.5 187t-257.5 61zM328 1356h399q192 0 281.5 -71t89.5 -210q0 -162 -76 -256t-240 -123 q289 -35 289 -284q0 -208 -127 -310t-354 -102h-404q-18 0 -18 8l139 1340q3 8 21 8z" />
<glyph unicode="C" horiz-adv-x="1212" d="M176 682q39 362 168 523t393 161q215 0 310 -94.5t77 -280.5q0 -6 -3 -7t-15 -1q-19 0 -19 8q12 170 -72 254t-282 84q-244 0 -361.5 -149t-154.5 -498q-12 -117 -12 -207q0 -241 92.5 -344.5t312.5 -103.5q198 0 297 87t123 269q0 10 19 10q12 0 15.5 -2t2.5 -8 q-24 -198 -135 -295.5t-328 -97.5q-236 0 -338 114t-102 369q0 95 12 209z" />
<glyph unicode="D" horiz-adv-x="1269" d="M209 37h348q264 0 391 147t162 494q10 83 10 182q0 246 -101 352.5t-329 106.5h-348zM553 0h-367q-18 0 -18 8l139 1340q3 8 21 8h366q245 0 356 -117.5t111 -376.5q0 -74 -10 -184q-37 -360 -176 -519t-422 -159z" />
<glyph unicode="E" horiz-adv-x="1103" d="M1038 1319h-696l-63 -606h636q10 0 7 -19q0 -16 -11 -16h-635l-67 -641h702q10 0 7 -19q0 -18 -9 -18h-723q-18 0 -18 8l139 1340q3 8 21 8h714q10 0 7 -19q0 -18 -11 -18z" />
<glyph unicode="F" horiz-adv-x="1042" d="M276 678l-69 -670q0 -8 -21 -8q-12 0 -15 1t-3 7l139 1340q3 8 21 8h698q9 0 6 -19q0 -18 -10 -18h-680l-63 -606h632q10 0 7 -19q-2 -10 -3.5 -13t-7.5 -3h-631z" />
<glyph unicode="G" horiz-adv-x="1245" d="M1087 629q17 0 17 -13l-21 -202q-45 -424 -465 -424q-236 0 -344 121t-108 385q0 73 10 186q39 363 168 523.5t395 160.5q220 0 316 -90.5t82 -271.5q-2 -9 -21 -9q-18 0 -18 9q12 165 -74 245t-287 80q-248 0 -365.5 -149t-154.5 -498q-10 -117 -10 -188 q0 -248 97.5 -357.5t318.5 -109.5q196 0 297.5 96.5t123.5 294.5l19 174h-379q-9 0 -6 18q0 19 8 19h401z" />
<glyph unicode="H" horiz-adv-x="1292" d="M1024 0q-12 0 -15 1t-3 7l69 668h-799l-69 -668q0 -8 -21 -8q-12 0 -15 1t-3 7l139 1340q2 8 21 8q13 0 16 -1t2 -7l-65 -633h798l66 633q2 8 20 8q13 0 16.5 -1t2.5 -7l-140 -1340q0 -8 -20 -8z" />
<glyph unicode="I" horiz-adv-x="471" d="M195 0q-13 0 -16 1t-3 7l139 1340q2 8 21 8q13 0 16 -1t2 -7l-139 -1340q0 -8 -20 -8z" />
<glyph unicode="J" horiz-adv-x="1036" d="M803 457l94 891q0 6 4 7t17 1q12 0 15 -1t3 -7l-94 -895q-26 -241 -115.5 -352t-282.5 -111q-170 0 -249.5 80t-79.5 245q0 20 4 70q0 10 20 10q11 0 14.5 -2t2.5 -8q-2 -23 -2 -61q0 -151 69.5 -224t222.5 -73q176 0 254.5 101t102.5 329z" />
<glyph unicode="K" horiz-adv-x="1134" d="M1130 1346l-575 -627l451 -709q2 -3 1.5 -5t-4.5 -3.5t-12 -1.5q-22 0 -28 8l-443 692h-241l-72 -692q0 -8 -21 -8q-12 0 -15 1t-3 7l139 1340q2 8 21 8q13 0 16 -1t2 -7l-63 -611h243l561 611q6 8 31 8q22 0 12 -10z" />
<glyph unicode="L" horiz-adv-x="1003" d="M346 1348l-137 -1311h670q9 0 6 -19q0 -18 -8 -18h-691q-18 0 -18 10l139 1338q2 8 21 8q13 0 16 -1t2 -7z" />
<glyph unicode="M" horiz-adv-x="1566" d="M756 150q-18 0 -21 10l-395 1138l-135 -1290q0 -8 -19 -8q-12 0 -15 1t-3 7l139 1340q2 8 29 8t29 -8l397 -1147l639 1147q4 8 31 8q16 0 21 -1t5 -7l-141 -1340q0 -6 -4 -7t-17 -1q-11 0 -13.5 1t-2.5 7l135 1288l-635 -1136q-5 -10 -24 -10z" />
<glyph unicode="N" horiz-adv-x="1304" d="M1180 1356q12 0 14.5 -1t1.5 -7l-139 -1340q0 -8 -25 -8q-14 0 -17.5 1t-6.5 7l-668 1286l-135 -1286q0 -8 -19 -8q-12 0 -15 1t-3 7l139 1340q2 8 25 8q14 0 17.5 -1t6.5 -7l666 -1289l137 1289q1 6 4.5 7t16.5 1z" />
<glyph unicode="O" horiz-adv-x="1273" d="M739 1366q226 0 327 -115t101 -370q0 -92 -12 -203q-37 -365 -165.5 -526.5t-395.5 -161.5q-226 0 -327 116.5t-101 372.5q0 109 10 199q39 366 167.5 527t395.5 161zM598 27q247 0 364 149t154 502q12 111 12 203q0 239 -92 343.5t-301 104.5q-247 0 -364 -149 t-154 -502q-12 -111 -12 -201q0 -239 92 -344.5t301 -105.5z" />
<glyph unicode="P" horiz-adv-x="1155" d="M594 569h-330l-57 -561q0 -8 -21 -8q-12 0 -15 1t-3 7l139 1340q3 8 21 8h348q219 0 317.5 -72.5t98.5 -239.5q0 -8 -5 -81q-22 -213 -137 -303.5t-356 -90.5zM342 1319l-74 -713h326q226 0 329.5 79.5t123.5 277.5q4 29 4 77q0 153 -89 216t-292 63h-328z" />
<glyph unicode="Q" horiz-adv-x="1275" d="M739 1366q226 0 327 -115t101 -370q0 -92 -12 -203q-37 -356 -158.5 -517.5t-371.5 -170.5q51 -101 166.5 -164t252.5 -66q9 0 9 -18q-2 -16 -13 -16q-144 0 -273.5 73.5t-184.5 190.5q-220 3 -318 119.5t-98 369.5q0 109 10 199q39 366 167.5 527t395.5 161zM598 27 q247 0 364 149t154 502q12 111 12 203q0 239 -92 343.5t-301 104.5q-247 0 -364 -149t-154 -502q-12 -111 -12 -201q0 -239 92 -344.5t301 -105.5z" />
<glyph unicode="R" horiz-adv-x="1171" d="M590 604h-322l-61 -596q0 -8 -21 -8q-12 0 -15 1t-3 7l139 1340q3 8 21 8h352q212 0 307.5 -71t95.5 -232q0 -20 -4 -74q-19 -163 -102 -251.5t-238 -111.5q102 -22 153.5 -92t76.5 -198q24 -118 41 -316q2 -5 -3 -7.5t-18 -2.5q-9 0 -12 0.5t-5 2.5t-3 7 q-11 147 -41 307q-14 74 -35 123.5t-59 88.5t-98 57t-146 18zM342 1319l-70 -680h330q210 0 314 79t124 261q4 54 4 72q0 146 -87 207t-283 61h-332z" />
<glyph unicode="S" horiz-adv-x="1165" d="M561 27q410 0 410 350q0 64 -21 109.5t-69 78.5t-105 55t-149 46q-76 21 -129 40t-107.5 48t-87 62.5t-53.5 82.5t-21 109q0 356 437 356q191 0 281.5 -66t90.5 -211q0 -19 -4 -59q0 -8 -18 -8q-21 0 -21 8q19 160 -60 229.5t-271 69.5q-396 0 -396 -317q0 -55 19 -98.5 t48.5 -73.5t82 -56.5t101 -43t124.5 -38.5q99 -28 160 -52.5t112 -61.5t73 -87t22 -120q0 -198 -117.5 -293.5t-335.5 -95.5t-328 85t-92 259q0 6 3 7t16 1q12 0 15 -1t3 -7q-17 -157 83 -232t304 -75z" />
<glyph unicode="T" horiz-adv-x="1044" d="M1051 1321h-412l-137 -1313q0 -8 -21 -8q-13 0 -15.5 1t-2.5 7l137 1313h-412q-8 0 -6 16q0 19 8 19h865q9 0 6 -19q0 -10 -2 -13t-8 -3z" />
<glyph unicode="U" horiz-adv-x="1275" d="M600 -10q-210 0 -305.5 88t-95.5 280q0 52 6 111l92 879q0 8 20 8q13 0 16 -1t3 -7l-92 -875q-6 -59 -6 -108q0 -176 85 -256t277 -80q217 0 319.5 104t129.5 340l90 875q1 6 4 7t16 1q12 0 16 -1t3 -7l-93 -879q-27 -254 -138 -366.5t-347 -112.5z" />
<glyph unicode="V" horiz-adv-x="1114" d="M1114 1356h10t7 -1t3 -3t-1 -6q-119 -304 -292 -696.5t-300 -641.5q-4 -8 -27 -8q-18 0 -22 8q-76 251 -167 643.5t-145 694.5q-1 7 3 8.5t16 1.5q13 0 16 -1t4 -7q50 -282 137 -658.5t164 -640.5q132 269 299 646t275 653q1 6 4.5 7t15.5 1z" />
<glyph unicode="W" horiz-adv-x="1880" d="M1870 1356q13 0 16 -1t0 -7q-102 -287 -260.5 -681.5t-277.5 -658.5q-4 -8 -25 -8q-16 0 -20 8q-69 270 -148 641t-123 651q-105 -284 -261 -656.5t-277 -635.5q-4 -8 -23 -8q-18 0 -22 8q-66 267 -142.5 661t-116.5 679q-1 6 2.5 7t16.5 1q18 0 20 -8 q38 -264 109.5 -639.5t136.5 -661.5q128 283 284.5 658t256.5 643q4 8 24 8q19 0 21 -8q44 -270 121.5 -646.5t144.5 -656.5q123 279 274.5 656.5t245.5 646.5q4 8 23 8z" />
<glyph unicode="X" horiz-adv-x="1175" d="M672 698l375 -688q3 -6 -1 -8t-16 -2q-22 0 -26 8l-363 672h-49l-502 -672q-4 -8 -29 -8q-12 0 -14.5 2t0.5 8l518 688l-370 648q-2 6 0.5 8t15.5 2q23 0 27 -8l358 -633h47l494 633q6 8 28 8q13 0 15.5 -2t-0.5 -8z" />
<glyph unicode="Y" horiz-adv-x="1101" d="M1073 1346q6 8 23 8q14 0 16.5 -1t-0.5 -7q-115 -199 -265 -435.5t-263 -396.5h-2l-52 -506q0 -8 -20 -8q-12 0 -15 1t-3 7l51 508q-82 161 -183 396.5t-172 433.5q-1 6 2.5 7t18.5 1q11 0 14 -1t4 -7q71 -193 167 -420t173 -377q110 154 255 382.5t251 414.5z" />
<glyph unicode="Z" horiz-adv-x="1112" d="M250 1356h811q6 0 7 -4t1 -17q-2 -9 -8 -18l-930 -1280h805q11 0 8 -19q-3 -18 -10 -18h-842q-10 0 -8 20q0 11 6 17l930 1282h-774q-9 0 -6 18q0 19 10 19z" />
<glyph unicode="[" horiz-adv-x="655" d="M150 -365l186 1778q0 8 16 8h293q9 0 6 -16q0 -16 -8 -16h-274l-183 -1729h281q9 0 6 -16q0 -17 -8 -17h-301q-14 0 -14 8z" />
<glyph unicode="\" horiz-adv-x="724" d="M584 -160l-428 1614q-2 4 2 6t14 2q18 0 21 -8l428 -1614q2 -5 -1.5 -6.5t-13.5 -1.5q-19 0 -22 8z" />
<glyph unicode="]" horiz-adv-x="655" d="M506 1413l-187 -1778q0 -8 -16 -8h-293q-9 0 -6 17q0 16 8 16h275l182 1729h-281q-9 0 -6 16q0 16 8 16h302q14 0 14 -8z" />
<glyph unicode="^" d="M643 1358q19 0 21 -8l297 -652q3 -6 -1 -8t-16 -2q-18 0 -22 8l-283 621l-412 -621q-4 -8 -24 -8q-11 0 -14.5 2t-0.5 8l435 652q4 8 20 8z" />
<glyph unicode="_" horiz-adv-x="770" d="M705 -162h-754q-8 0 -8 17q3 16 10 16h756q6 0 6 -16q0 -17 -10 -17z" />
<glyph unicode="`" horiz-adv-x="624" d="M549 1124l-316 158q-6 4 -6 6.5t6 16.5q12 19 21 10l311 -166q7 -4 -2 -16q-5 -9 -6 -9.5t-8 0.5z" />
<glyph unicode="a" horiz-adv-x="1040" d="M258 717q0 -10 -18 -10q-19 0 -19 10q17 138 107.5 203t259.5 65q178 0 251 -71t58 -228l-72 -678q0 -6 -3.5 -7t-14.5 -1t-13.5 1t-2.5 7l22 230q-41 -104 -154 -174t-256 -70q-134 0 -212 55.5t-78 167.5q0 289 350 289h377l20 180q13 145 -51 205.5t-223 60.5 q-154 0 -234.5 -56t-93.5 -179zM836 475h-373q-313 0 -313 -256q0 -99 70 -145.5t188 -46.5q102 0 194.5 42.5t152 116.5t68.5 162z" />
<glyph unicode="b" horiz-adv-x="1118" d="M334 1409l-70 -682q101 258 391 258q181 0 262.5 -95.5t81.5 -281.5q0 -58 -6 -119q-26 -248 -130 -373.5t-312 -125.5q-151 0 -233.5 65t-106.5 193l-25 -240q0 -6 -3 -7t-15 -1q-11 0 -13.5 1t-2.5 7l145 1401q1 6 4 7t16 1q12 0 15 -1t2 -7zM238 487q-7 -72 -7 -114 q0 -174 76 -261t248 -87q192 0 284.5 114.5t116.5 349.5q7 72 7 119q0 171 -73 256.5t-239 85.5q-197 0 -293 -115t-120 -348z" />
<glyph unicode="c" horiz-adv-x="1003" d="M582 950q-195 0 -285.5 -113.5t-114.5 -349.5q-8 -94 -8 -127q0 -172 74 -253.5t250 -81.5q289 0 327 256q0 10 19 10q10 0 13 -2t3 -8q-42 -291 -364 -291q-193 0 -277 91t-84 277q0 35 8 129q26 250 128 374t315 124q161 0 241 -70t74 -194q-2 -6 -5 -8t-13 -2 q-19 0 -19 10q6 110 -65 169.5t-217 59.5z" />
<glyph unicode="d" horiz-adv-x="1118" d="M852 8l22 242q-50 -130 -146 -195t-247 -65q-181 0 -262.5 95t-81.5 284q0 55 6 120q26 245 130.5 370.5t312.5 125.5q151 0 233.5 -66t104.5 -196l71 686q2 8 21 8q12 0 14.5 -1t1.5 -7l-145 -1401q0 -8 -19 -8q-11 0 -13.5 1t-2.5 7zM899 487q6 61 6 115 q0 175 -75.5 261.5t-245.5 86.5q-192 0 -285 -114t-117 -347q-6 -65 -6 -120q0 -173 72.5 -258.5t236.5 -85.5q198 0 294 114.5t120 347.5z" />
<glyph unicode="e" horiz-adv-x="1032" d="M901 492h-721v-7q-6 -62 -6 -110q0 -176 77.5 -263t252.5 -87q282 0 327 241q5 10 21 10q11 0 14 -2t2 -8q-25 -133 -116.5 -204.5t-247.5 -71.5q-191 0 -279 96t-88 285q0 53 6 114q26 248 132 374t315 126q173 0 254.5 -87.5t81.5 -240.5q0 -21 -4 -71l-9 -74 q-2 -12 -4 -16t-8 -4zM590 950q-186 0 -281.5 -106.5t-124.5 -321.5h695l6 66q4 46 4 67q0 138 -71.5 216.5t-227.5 78.5z" />
<glyph unicode="f" horiz-adv-x="688" d="M674 940h-312l-98 -932q0 -6 -3 -7t-15 -1q-19 0 -19 8l99 932h-193q-9 0 -6 16q0 19 10 19h193l16 153q16 151 75 221t187 70q88 0 154 -24q8 -3 0 -21q-7 -12 -17 -10q-55 20 -139 20q-113 0 -161.5 -61t-61.5 -197l-18 -151h311q6 -7 6 -17q0 -18 -8 -18z" />
<glyph unicode="g" horiz-adv-x="1038" d="M127 -90q-14 -134 62 -197t251 -63q69 0 127 14t107 44.5t76.5 86t27.5 131.5q0 108 -79 159t-228 62q-171 0 -252.5 81.5t-81.5 246.5q0 41 6 90q22 211 122 315.5t294 104.5q65 0 117 -12l307 4q9 0 6 -16q0 -19 -8 -19h-223q135 -75 135 -289q0 -26 -4 -88 q-38 -349 -301 -405q227 -48 227 -236q0 -157 -101 -232t-274 -75q-192 0 -278.5 72.5t-71.5 220.5q0 10 19 10q18 0 18 -10zM475 180q178 0 267 94t110 291q4 62 4 88q0 151 -71.5 224t-229.5 73q-177 0 -265.5 -94t-109.5 -291q-6 -47 -6 -88q0 -151 71.5 -224t229.5 -73z " />
<glyph unicode="h" horiz-adv-x="1118" d="M334 1409l-74 -711l4 37q38 100 145 175t259 75q158 0 237.5 -83t61.5 -251l-68 -643q0 -8 -20 -8q-11 0 -14 1t-3 7l68 643q28 297 -266 297q-168 0 -283.5 -100t-128.5 -232l-64 -608q0 -8 -20 -8q-11 0 -13.5 1t-2.5 7l145 1401q1 6 4 7t16 1q12 0 15 -1t2 -7z" />
<glyph unicode="i" horiz-adv-x="419" d="M152 8l100 959q0 6 3 7t15 1q19 0 19 -8l-101 -959q0 -6 -3.5 -7t-16.5 -1q-11 0 -13.5 1t-2.5 7zM311 1360q12 0 15.5 -2t3.5 -10l-17 -158q-2 -8 -5 -10t-15 -2t-16 2.5t-3 9.5l17 158q0 7 4 9.5t16 2.5z" />
<glyph unicode="j" horiz-adv-x="450" d="M-111 -336q2 0 12.5 -3t30.5 -6t45 -3q92 0 134 55t59 211l111 1049q0 8 18 8q13 0 16 -1t2 -7l-108 -1051q-18 -171 -70.5 -234t-158.5 -63q-71 0 -95 12q-6 2 -6 15q6 17 10 18zM340 1360q13 0 16.5 -2t1.5 -10l-16 -158q0 -7 -4 -9.5t-16 -2.5t-16 2.5t-3 9.5l16 158 q0 12 21 12z" />
<glyph unicode="k" horiz-adv-x="942" d="M334 1409l-90 -868h180l450 424q10 10 31 10q19 0 19 -5l-4 -7l-465 -439l376 -514q-1 -8 -16 -10q-21 0 -29 8l-366 498h-180l-52 -498q0 -8 -20 -8q-11 0 -13.5 1t-2.5 7l145 1401q1 6 4 7t16 1q12 0 15 -1t2 -7z" />
<glyph unicode="l" horiz-adv-x="442" d="M315 35h41q9 0 6 -17q0 -18 -10 -18h-43q-90 0 -120 43t-19 143l127 1219q3 10 20 10q11 0 14.5 -2t2.5 -8l-127 -1215q-8 -87 13 -121t95 -34z" />
<glyph unicode="m" horiz-adv-x="1708" d="M287 967l-23 -219q17 43 47.5 82.5t75.5 75.5t109.5 57.5t138.5 21.5q127 0 196.5 -61t75.5 -179q47 104 143 172t234 68q304 0 272 -317l-69 -660q0 -8 -19 -8q-12 0 -15 1t-3 7l70 662q27 278 -236 278q-150 0 -253 -87t-126 -208v-4v-10l-67 -631q0 -6 -4 -7t-17 -1 q-16 0 -16 8l69 662q27 278 -235 278q-157 0 -262.5 -96.5t-118.5 -222.5l-66 -621q0 -8 -20 -8q-11 0 -13.5 1t-2.5 7l100 959q0 6 3 7t15 1q11 0 14 -1t3 -7z" />
<glyph unicode="n" horiz-adv-x="1118" d="M287 967l-23 -232q38 100 145 175t259 75q158 0 237.5 -83t61.5 -251l-68 -643q0 -8 -20 -8q-11 0 -14 1t-3 7l68 643q28 297 -266 297q-168 0 -283.5 -100t-128.5 -232l-64 -608q0 -8 -20 -8q-11 0 -13.5 1t-2.5 7l100 959q0 6 3 7t15 1q11 0 14 -1t3 -7z" />
<glyph unicode="o" horiz-adv-x="1060" d="M592 985q185 0 267.5 -94t82.5 -281q0 -58 -6 -123q-26 -250 -129.5 -373.5t-317.5 -123.5q-187 0 -269.5 93.5t-82.5 281.5q0 55 6 122q26 249 130 373.5t319 124.5zM492 25q197 0 290 114t117 348q8 86 8 123q0 171 -74.5 255.5t-244.5 84.5q-196 0 -289 -114 t-117 -349q-8 -86 -8 -120q0 -173 74 -257.5t244 -84.5z" />
<glyph unicode="p" horiz-adv-x="1118" d="M287 967l-25 -244q51 130 146.5 196t246.5 66q181 0 262.5 -95.5t81.5 -281.5q0 -58 -6 -119q-26 -248 -130 -373.5t-312 -125.5q-150 0 -232 63.5t-106 188.5l-63 -602q0 -9 -21 -9q-11 0 -13.5 1.5t-2.5 7.5l139 1327q0 6 3 7t15 1q11 0 14 -1t3 -7zM238 487 q-7 -72 -7 -114q0 -174 76 -261t248 -87q192 0 284.5 114.5t116.5 349.5q7 72 7 119q0 171 -73 256.5t-239 85.5q-197 0 -293 -115t-120 -348z" />
<glyph unicode="q" horiz-adv-x="1118" d="M827 -369q-16 0 -16 9l61 606q-50 -128 -145.5 -192t-245.5 -64q-181 0 -262.5 95t-81.5 284q0 55 6 120q26 245 130.5 370.5t312.5 125.5q152 0 235 -67.5t105 -200.5l26 250q0 8 19 8q16 0 16 -8l-139 -1327q0 -9 -21 -9zM899 487q6 61 6 115q0 175 -75.5 261.5 t-245.5 86.5q-192 0 -285 -114t-117 -347q-6 -65 -6 -120q0 -173 72.5 -258.5t236.5 -85.5q198 0 294 114.5t120 347.5z" />
<glyph unicode="r" horiz-adv-x="677" d="M662 944q-178 0 -288 -100t-126 -256l-60 -580q0 -8 -20 -8q-11 0 -13.5 1t-2.5 7l100 959q0 6 3 7t15 1q11 0 14 -1t3 -7l-25 -248q36 110 141 186t265 76q9 0 6 -18q-1 -10 -2 -12.5t-3 -4.5t-7 -2z" />
<glyph unicode="s" horiz-adv-x="968" d="M145 266q-12 -124 68 -182.5t248 -58.5q61 0 115 12t102 38.5t76 76t28 116.5q0 92 -64 135t-218 76q-167 34 -244.5 88.5t-77.5 153.5q0 72 26.5 124.5t75.5 82.5t109.5 43.5t136.5 13.5q172 0 251 -63.5t65 -188.5q0 -10 -19 -10q-10 0 -13 2t-3 8q11 109 -57.5 163 t-225.5 54q-309 0 -309 -227q0 -87 68 -130.5t229 -78.5q164 -36 235.5 -87.5t71.5 -156.5q0 -143 -97.5 -211.5t-260.5 -68.5q-185 0 -275 69.5t-77 206.5q2 6 5 8t13 2q18 0 18 -10z" />
<glyph unicode="t" horiz-adv-x="720" d="M662 940h-316l-74 -688q-4 -46 -4 -64q0 -85 37 -123t119 -38q87 0 149 26q7 5 13 -10q4 -15 -4 -18q-72 -31 -160 -31q-99 0 -145 44.5t-46 143.5q0 8 5 66l71 692h-174q-9 0 -6 16q0 19 10 19h172l31 276q0 11 18 11q21 0 21 -11l-29 -276h316q6 0 6 -17 q-6 -17 -10 -18z" />
<glyph unicode="u" horiz-adv-x="1105" d="M840 8l22 230q-39 -102 -134.5 -175t-240.5 -73q-162 0 -248.5 87.5t-66.5 262.5l66 627q0 6 3 7t15 1t15 -1t3 -7l-65 -625q-18 -161 57 -238t223 -77q160 0 265 99.5t120 231.5l64 609q0 6 3 7t15 1q19 0 19 -8l-101 -959q0 -6 -3.5 -7t-14.5 -1t-13.5 1t-2.5 7z" />
<glyph unicode="v" horiz-adv-x="935" d="M897 975q13 0 16.5 -2t1.5 -8q-90 -217 -223 -492t-241 -465q-2 -8 -25 -8q-21 0 -23 8q-70 194 -146 469t-118 488q-1 6 3 8t16 2q17 0 20 -8q40 -203 112 -466.5t140 -463.5q107 194 234 457.5t213 472.5q5 8 20 8z" />
<glyph unicode="w" horiz-adv-x="1523" d="M1475 975q11 0 13.5 -1t2.5 -7q0 -3 -8 -19q-206 -511 -416 -940q-2 -8 -23 -8q-16 0 -20 8q-118 482 -207 920q-177 -435 -399 -920q-4 -8 -23 -8q-18 0 -20 8q-103 370 -219 940q0 2 -1 9.5t-1 9.5q0 6 2.5 7t13.5 1q18 0 20 -10q94 -496 209 -922q255 565 400 924 q5 8 24 8q18 0 21 -8q84 -432 207 -924q204 435 401 922q5 10 23 10z" />
<glyph unicode="x" horiz-adv-x="950" d="M780 8l-278 488h-33l-381 -488q-6 -8 -27 -8q-5 0 -8 0.5t-5 1.5t-2.5 2t0 2.5t1.5 3.5l393 502l-282 451q-3 6 0.5 9t15.5 3q10 0 14 -0.5t6.5 -2.5t4.5 -7l272 -437h35l364 437q4 7 8 8.5t17 1.5t16.5 -3t-0.5 -9l-376 -451l286 -502q2 -5 -1.5 -7.5t-14.5 -2.5 q-21 0 -25 8z" />
<glyph unicode="y" horiz-adv-x="962" d="M129 -348q38 0 72 15t61 38.5t58.5 69t56.5 89t63 116.5l11 20q-8 0 -11 8q-77 203 -163.5 478t-133.5 479q-1 7 2 8.5t17 1.5q18 0 18 -8q52 -214 133.5 -480.5t153.5 -455.5q252 497 438 936q5 8 21 8q10 0 13 -0.5t6 -3t-1 -8.5q-98 -237 -240.5 -534t-230.5 -462 q-34 -63 -56.5 -102.5t-51.5 -84t-53.5 -70.5t-54 -49t-61.5 -32.5t-69 -9.5q-73 0 -117 19q-6 1 -7 4t1 12q2 16 10 16q2 0 15.5 -4.5t40 -9t59.5 -4.5z" />
<glyph unicode="z" horiz-adv-x="946" d="M862 942l-735 -909h649q9 0 6 -17q0 -16 -8 -16h-686q-9 0 -6 16q0 11 2 15l739 911h-620q-9 0 -6 16q0 17 8 17h657q9 0 6 -19q0 -10 -6 -14z" />
<glyph unicode="{" horiz-adv-x="655" d="M70 524q5 16 10 17h57q78 0 118.5 89.5t61.5 278.5q23 225 44 303q38 147 130 189q45 20 107 20h53q9 0 6 -16q0 -16 -8 -16h-53q-56 0 -96 -24t-62.5 -53t-39 -100t-22.5 -116.5t-16 -151.5q-3 -26 -4 -39q-39 -362 -174 -381q103 -14 103 -237q0 -61 -9 -144 q-22 -194 -22 -274q0 -106 35 -157.5t127 -51.5h51q9 0 6 -16q0 -17 -8 -17h-55q-109 0 -152 60.5t-43 181.5q0 35 3 74t10.5 106t9.5 90q10 95 10 156q0 107 -27.5 160t-87.5 53h-55q-8 0 -8 16z" />
<glyph unicode="|" horiz-adv-x="557" d="M297 1409v-1810q0 -9 -18 -9q-19 0 -19 9v1810q0 8 19 8q11 0 14.5 -1t3.5 -7z" />
<glyph unicode="}" horiz-adv-x="655" d="M586 524q-2 -10 -3.5 -13t-7.5 -3h-57q-78 0 -118.5 -90t-61.5 -279q-23 -225 -44 -303q-38 -147 -130 -189q-45 -20 -107 -20h-53q-9 0 -6 17q0 16 8 16h53q47 0 82 11.5t59 47.5t38.5 61t26.5 94t16.5 102.5t13.5 128.5q3 25 4 38q39 362 174 381q-102 14 -102 238 q0 70 8 143q22 194 22 275q0 106 -34.5 157.5t-126.5 51.5h-52q-9 0 -6 16q0 16 8 16h56q109 0 151.5 -60t42.5 -181q0 -47 -22 -271q-10 -95 -10 -155q0 -107 27 -160t87 -53h56q8 0 8 -17z" />
<glyph unicode="~" d="M496 631l145 -84q51 -31 96 -31q52 0 89.5 31.5t68.5 99.5q3 6 14 6q8 0 12 -2t1 -8q-37 -84 -81 -122t-106 -38q-47 0 -108 33l-146 84q-54 33 -96 33q-51 0 -87.5 -31.5t-68.5 -99.5q-2 -6 -16 -6q-15 0 -12 8q39 85 81.5 122.5t104.5 37.5q59 0 109 -33z" />
<glyph unicode="&#xa1;" horiz-adv-x="483" d="M260 592q10 0 13 -2t1 -8l-92 -955q0 -10 -24 -10t-21 10l107 955q2 10 16 10zM283 797q-9 0 -12.5 0.5t-6 2.5t-2.5 7l17 158q0 12 22 12q14 0 18.5 -2.5t4.5 -9.5l-17 -158q0 -7 -4.5 -8.5t-19.5 -1.5z" />
<glyph unicode="&#xa2;" horiz-adv-x="1032" d="M510 0q-11 0 -13.5 1t-2.5 7l16 172q-188 4 -268 97t-80 278q0 59 6 127q14 123 43.5 212.5t82 155.5t132.5 99.5t190 34.5l19 164q0 6 3 8t15 2q17 0 17 -10l-19 -166q154 -6 229.5 -75t69.5 -187q-3 -11 -20 -11q-9 0 -13.5 2.5t-3.5 6.5q6 106 -61 165.5t-205 65.5 l-98 -934q285 3 323 256q0 10 19 10q18 0 18 -10q-45 -285 -364 -291l-17 -172q0 -6 -3 -7t-15 -1zM199 557q0 -169 73 -253.5t244 -88.5l98 934q-197 -1 -289 -116t-118 -351q-8 -90 -8 -125z" />
<glyph unicode="&#xa3;" horiz-adv-x="1175" d="M113 0q-8 -4 -17 10q-8 18 0 23q121 76 201 179.5t80 233.5q0 40 -10 84t-19 69t-29 75h-176q-9 0 -6 16q0 17 8 17h160q-55 133 -55 243q0 194 117 305t323 111q191 0 277 -75t86 -226q0 -18 -4 -64q0 -6 -4 -7t-17 -1q-12 0 -14.5 1t-1.5 7q2 20 2 62 q0 137 -75.5 201.5t-250.5 64.5q-179 0 -288 -95t-109 -282q0 -113 57 -245h381q9 0 6 -17q0 -16 -10 -16h-363q18 -47 27 -72.5t18 -68.5t9 -82q0 -144 -101 -273q208 -151 396 -151q65 0 113.5 17.5t79 46t51 76.5t31 96t18.5 118q1 6 4.5 7t15.5 1t14.5 -1t1.5 -7 q-9 -74 -21.5 -129t-37 -106.5t-59 -83.5t-88 -51t-123.5 -19q-194 0 -418 158q-75 -83 -180 -150z" />
<glyph unicode="&#xa4;" horiz-adv-x="1120" d="M133 291l109 110q-60 105 -60 277t60 274l-109 113q-7 5 4 16q13 13 19 6l104 -104q94 129 301 129q204 0 297 -131l107 106q5 4 7.5 3t10.5 -9q11 -11 4 -16l-108 -111q59 -104 59 -276q0 -176 -59 -277l108 -110q8 -5 -4 -17q-8 -8 -10.5 -9t-7.5 3l-107 105 q-94 -129 -297 -129q-207 0 -301 129l-104 -105q-5 -4 -8 -3t-11 9q-12 12 -4 17zM561 274q176 0 259 102t83 302q0 199 -83 301t-259 102t-259 -102t-83 -301q0 -200 83 -302t259 -102z" />
<glyph unicode="&#xa5;" horiz-adv-x="1126" d="M948 440h-360l-45 -432q0 -8 -21 -8q-12 0 -15 1t-3 7l45 432h-361q-6 0 -6 17q0 16 8 16h363v8q-60 123 -111 244h-237q-9 0 -6 16q5 16 10 17h219q-139 322 -231 588q-3 6 0 7t18 1q19 0 23 -8q67 -192 165 -434.5t172 -397.5q110 162 261 405.5t254 426.5q4 8 22 8 q14 0 17.5 -1t0.5 -7q-169 -293 -358 -588h223q9 0 6 -17q-3 -16 -10 -16h-239q-75 -121 -160 -244v-8h358q8 0 8 -16q-2 -17 -10 -17z" />
<glyph unicode="&#xa6;" horiz-adv-x="557" d="M297 324v-725q0 -9 -18 -9q-19 0 -19 9v725q0 8 19 8q11 0 14.5 -1t3.5 -7zM297 1409v-725q0 -6 -3.5 -7t-14.5 -1q-19 0 -19 8v725q0 8 19 8q11 0 14.5 -1t3.5 -7z" />
<glyph unicode="&#xa7;" horiz-adv-x="1120" d="M168 -82q-12 -129 65 -196.5t246 -67.5q71 0 129.5 15.5t106 49t74 91.5t26.5 137q0 103 -64.5 156t-213.5 85q-174 35 -261.5 100t-87.5 191q0 145 82 230t226 108q-102 35 -150.5 92t-48.5 154q0 156 98 229.5t271 73.5q176 0 246.5 -71t54.5 -214q0 -10 -19 -10 q-11 0 -14 2t-2 8q11 127 -49 188.5t-221 61.5q-328 0 -328 -266q0 -109 70 -159t235 -87q81 -18 134.5 -38t96.5 -51.5t62.5 -77.5t19.5 -111q0 -153 -75 -241t-215 -110q97 -35 143.5 -91t46.5 -148q0 -161 -100 -246.5t-275 -85.5q-186 0 -273 77.5t-73 219.5 q1 7 4.5 8.5t14.5 1.5q18 0 18 -8zM625 784q-36 6 -62 15q-144 -5 -240 -85.5t-96 -228.5q0 -114 78.5 -170.5t245.5 -93.5q7 -3 35 -8q151 3 240 84.5t89 241.5q0 111 -67 162.5t-223 82.5z" />
<glyph unicode="&#xa8;" horiz-adv-x="624" d="M238 1311q12 0 15 -2t3 -9l-16 -155q0 -6 -4 -8t-17 -2q-12 0 -15 2t-3 8l16 155q0 7 4 9t17 2zM578 1311q12 0 15 -2t3 -9l-16 -155q0 -6 -4 -8t-17 -2q-12 0 -15 2t-3 8l16 155q0 7 4 9t17 2z" />
<glyph unicode="&#xa9;" horiz-adv-x="1589" d="M500 680q0 212 67 312t242 100q133 0 200 -58t70 -164q0 -6 -14 -6q-16 0 -16 6q-5 95 -62.5 143t-177.5 48q-83 0 -137.5 -23.5t-85 -74t-42.5 -117.5t-12 -166q0 -100 12 -167t43 -118t88 -74.5t144 -23.5q121 0 175 52t59 161q0 8 16 8t16 -8q-5 -121 -68.5 -182.5 t-197.5 -61.5q-95 0 -158 26t-98 81.5t-49 128t-14 178.5zM795 1366q324 0 469 -170t145 -518t-145 -518t-469 -170q-325 0 -470 170t-145 518t145 518t470 170zM795 23q312 0 446.5 159.5t134.5 495.5t-134.5 495.5t-446.5 159.5t-447 -159.5t-135 -495.5t135 -495.5 t447 -159.5z" />
<glyph unicode="&#xaa;" horiz-adv-x="679" d="M588 1038h-232q-83 0 -134.5 -37t-51.5 -116q0 -113 154 -113q97 0 173 58t83 141zM238 1196q-2 -6 -17 -6q-11 0 -13.5 1t-2.5 7q9 87 66 126.5t165 39.5q114 0 161.5 -45t37.5 -145l-43 -416q0 -10 -17 -10q-16 0 -16 10l14 135q-27 -64 -96 -107t-158 -43 q-85 0 -134.5 36t-49.5 106q0 91 60.5 136.5t162.5 45.5h234l10 109q9 87 -31 123t-137 36q-95 0 -142 -32t-54 -107z" />
<glyph unicode="&#xab;" horiz-adv-x="888" d="M152 549q0 2 6 14l250 301q6 6 22 6q10 0 13 -2t-1 -8l-256 -311l191 -309q3 -6 -1 -8.5t-14 -2.5q-17 0 -22 7l-184 299q-4 6 -4 14zM494 549q0 2 6 14l250 301q6 6 22 6q10 0 13 -2t-1 -8l-256 -311l191 -309q3 -6 -1 -8.5t-13 -2.5q-18 0 -23 7l-184 299q-4 6 -4 14z " />
<glyph unicode="&#xad;" horiz-adv-x="786" d="M168 567h487q10 0 7 -18q-3 -17 -11 -17h-487q-9 0 -6 17q3 18 10 18z" />
<glyph unicode="&#xae;" horiz-adv-x="1069" d="M535 1366q212 0 305.5 -109.5t93.5 -334.5t-93.5 -335t-305.5 -110q-211 0 -305.5 110t-94.5 335t94.5 334.5t305.5 109.5zM535 502q201 0 287.5 101.5t86.5 318.5t-86.5 318t-287.5 101q-202 0 -288.5 -101t-86.5 -318t87 -318.5t288 -101.5zM532 889h-106v-217 q0 -6 -14 -6q-13 0 -13 6v504q0 6 13 6h129q92 0 134 -34.5t42 -111.5q0 -120 -117 -141q70 -17 94 -104q15 -49 25 -125q0 -7 -10 -7q-13 0 -15 7q-14 98 -20 118q-14 54 -46.5 79.5t-95.5 25.5zM426 1159v-250h113q79 0 116 30t37 97q0 70 -34.5 96.5t-118.5 26.5h-113z " />
<glyph unicode="&#xaf;" horiz-adv-x="624" d="M633 1153h-483q-7 0 -7 16q3 17 13 17h481q6 0 6 -11v-6q-3 -16 -10 -16z" />
<glyph unicode="&#xb0;" horiz-adv-x="704" d="M453 1366q93 0 141.5 -46t48.5 -134q0 -111 -59.5 -183.5t-175.5 -72.5q-191 0 -191 180q0 109 61.5 182.5t174.5 73.5zM410 956q96 0 151 62.5t55 167.5q0 153 -165 153q-94 0 -149.5 -62t-55.5 -165q0 -156 164 -156z" />
<glyph unicode="&#xb1;" d="M629 1038l-41 -376h360q8 0 6 -17q0 -16 -8 -16h-360l-41 -377q0 -10 -19 -10q-16 0 -16 10l39 377h-361q-6 0 -6 16q2 17 11 17h360l41 376q0 9 18 9q11 0 14 -1.5t3 -7.5zM127 33h756q6 0 6 -17q0 -16 -8 -16h-758q-6 0 -6 16q5 16 10 17z" />
<glyph unicode="&#xb2;" horiz-adv-x="645" d="M563 664h-428q-8 0 -6 14l2 14q4 39 21.5 72t55.5 65t65 50.5t83 52.5q42 25 64.5 39t58.5 42.5t54.5 53.5t33.5 61.5t15 77.5q0 129 -162 129q-102 0 -145 -40t-54 -124q0 -8 -18 -8q-17 0 -17 8q11 95 66.5 145t169.5 50q192 0 192 -160q0 -51 -18.5 -95t-55.5 -80.5 t-73.5 -62.5t-91.5 -59q-95 -54 -149.5 -103t-61.5 -110h401q6 0 6 -16t-8 -16z" />
<glyph unicode="&#xb3;" horiz-adv-x="645" d="M406 1012h-76q-6 0 -6 14q3 14 8 14h78q77 0 122.5 45t45.5 127q0 121 -164 121q-100 0 -143 -33.5t-54 -107.5q-3 -8 -18 -8h-7t-4.5 1t-3.5 2.5t0 4.5q11 87 66 130.5t168 43.5q95 0 144.5 -41.5t49.5 -114.5q0 -66 -33.5 -117t-99.5 -67q54 -9 84.5 -45.5t30.5 -99.5 q0 -101 -66 -162.5t-176 -61.5q-117 0 -168 45t-45 134q2 8 19 8q10 0 12.5 -1t1.5 -7q-3 -75 37.5 -110.5t144.5 -35.5q88 0 146.5 49t58.5 140q0 133 -153 133z" />
<glyph unicode="&#xb4;" horiz-adv-x="624" d="M575 1282l-350 -158q-7 -4 -12 9q-6 11 2 16l346 166q12 9 19 -10q5 -14 3.5 -16.5t-8.5 -6.5z" />
<glyph unicode="&#xb6;" horiz-adv-x="1028" d="M944 1350h-86q-59 0 -84.5 -24t-32.5 -89l-137 -1313q-18 -172 -72.5 -238.5t-160.5 -66.5q-73 0 -97 12q-6 1 -7 4t1 13q0 16 11 16q2 0 13 -2.5t31.5 -5t45.5 -2.5q94 0 138.5 57t61.5 213l64 615h-94q-183 0 -255.5 60.5t-72.5 225.5q0 70 8 138q13 130 38.5 210 t75 128.5t118.5 66.5t178 18h319q9 0 6 -18q0 -18 -10 -18z" />
<glyph unicode="&#xb7;" horiz-adv-x="378" d="M195 453q-9 0 -12.5 0.5t-6 2.5t-2.5 7l16 158q0 12 23 12q14 0 18.5 -2.5t4.5 -9.5l-17 -158q0 -7 -4.5 -8.5t-19.5 -1.5z" />
<glyph unicode="&#xb8;" horiz-adv-x="624" d="M252 -129h84q78 0 115.5 -20t37.5 -78q0 -138 -178 -138h-168q-6 0 -6 15q0 14 8 14h168q65 0 103.5 22.5t38.5 86.5q0 45 -29 58t-94 13h-107q-17 0 -10 15l64 141q4 8 14 8q6 0 8.5 -0.5t4.5 -2t1 -5.5z" />
<glyph unicode="&#xb9;" horiz-adv-x="645" d="M537 664h-359q-6 0 -6 16t8 16h170l64 623l-166 -55q-3 -1 -4.5 3.5t-1.5 12.5q3 14 8 16l190 64q13 6 13 -6l-70 -658h156q6 0 6 -16q-3 -16 -8 -16z" />
<glyph unicode="&#xba;" horiz-adv-x="710" d="M203 1053q-4 -54 -4 -74q0 -105 45.5 -157t148.5 -52q122 0 180 70t72 213q4 50 4 69q0 107 -45.5 159t-150.5 52q-121 0 -178.5 -69t-71.5 -211zM170 1053q16 155 82.5 233t202.5 78q120 0 173.5 -59.5t53.5 -178.5q0 -19 -4 -73q-18 -158 -84.5 -236t-202.5 -78 q-118 0 -171.5 59.5t-53.5 176.5q0 49 4 78z" />
<glyph unicode="&#xbb;" horiz-adv-x="888" d="M395 549q0 -2 -6 -14l-250 -302q-6 -6 -22 -6q-21 0 -13 11l256 311l-190 309q-3 6 0.5 8t13.5 2q19 0 23 -6l184 -299q4 -6 4 -14zM737 549q0 -2 -6 -14l-250 -302q-6 -6 -22 -6q-21 0 -13 11l256 311l-190 309q-3 6 0.5 8t13.5 2q19 0 23 -6l184 -299q4 -6 4 -14z" />
<glyph unicode="&#xbc;" horiz-adv-x="1593" d="M1329 0q-16 0 -16 8l16 170h-360q-8 0 -4 19q3 16 8 18l401 479q4 6 25 6h8.5t5.5 -1t4 -2.5t0 -4.5l-51 -483h111q8 0 6 -14q0 -17 -8 -17h-113l-16 -170q0 -8 -17 -8zM1004 209h329l47 448zM1352 1348l-910 -1340q-4 -8 -22 -8q-9 0 -12 2t0 6l909 1340q6 8 22 8 q21 0 13 -8zM537 664h-359q-6 0 -6 16t8 16h170l64 623l-166 -55q-3 -1 -4.5 3.5t-1.5 12.5q3 14 8 16l190 64q13 6 13 -6l-70 -658h156q6 0 6 -16q-3 -16 -8 -16z" />
<glyph unicode="&#xbd;" horiz-adv-x="1593" d="M1440 0h-428q-8 0 -6 14l2 15q3 32 18 61.5t32 49.5t52.5 47t56 40t66.5 41q52 30 81.5 50.5t68 55.5t57 77t18.5 92q0 129 -162 129q-101 0 -144 -40t-54 -124q0 -8 -19 -8q-16 0 -16 8q11 95 66 144.5t169 49.5q193 0 193 -159q0 -51 -18.5 -95t-56 -80.5t-73.5 -62.5 t-92 -59q-95 -54 -149.5 -103t-61.5 -110h402q6 0 6 -17q0 -16 -8 -16zM1313 1348l-910 -1340q-4 -8 -22 -8q-9 0 -12 2t0 6l909 1340q6 8 22 8q21 0 13 -8zM537 664h-359q-6 0 -6 16t8 16h170l64 623l-166 -55q-3 -1 -4.5 3.5t-1.5 12.5q3 14 8 16l190 64q13 6 13 -6 l-70 -658h156q6 0 6 -16q-3 -16 -8 -16z" />
<glyph unicode="&#xbe;" horiz-adv-x="1593" d="M1329 0q-16 0 -16 8l16 170h-360q-8 0 -4 19q3 16 8 18l401 479q4 6 25 6h8.5t5.5 -1t4 -2.5t0 -4.5l-51 -483h111q8 0 6 -14q0 -17 -8 -17h-113l-16 -170q0 -8 -17 -8zM1004 209h329l47 448zM406 1012h-76q-6 0 -6 14q3 14 8 14h78q77 0 122.5 45t45.5 127 q0 121 -164 121q-100 0 -143 -33.5t-54 -107.5q-3 -8 -18 -8h-7t-4.5 1t-3.5 2.5t0 4.5q11 87 66 130.5t168 43.5q95 0 144.5 -41.5t49.5 -114.5q0 -66 -33.5 -117t-99.5 -67q54 -9 84.5 -45.5t30.5 -99.5q0 -101 -66 -162.5t-176 -61.5q-117 0 -168 45t-45 134q2 8 19 8 q10 0 12.5 -1t1.5 -7q-3 -75 37.5 -110.5t144.5 -35.5q88 0 146.5 49t58.5 140q0 133 -153 133zM1331 1348l-909 -1340q-4 -8 -23 -8q-9 0 -12 2t0 6l909 1340q6 8 23 8q16 0 14 -5q-1 -2 -2 -3z" />
<glyph unicode="&#xbf;" horiz-adv-x="1056" d="M516 528l8 56q0 8 17 8q16 0 16 -8l-6 -56q-5 -53 -27 -98.5t-53.5 -77.5t-70.5 -64.5t-78 -59t-76.5 -61.5t-66.5 -72t-46.5 -90.5t-17.5 -117.5q0 -123 80 -182t243 -59q109 0 185.5 22.5t124 68.5t73 106t37.5 145q0 10 19 10q18 0 18 -8q-12 -93 -41.5 -161t-83 -119 t-137.5 -76t-199 -25q-360 0 -360 278q0 76 22.5 138t59 104t81 77.5t90.5 68t85 66.5t68 82t36 105zM561 797q-9 0 -12.5 0.5t-5.5 2.5t-2 7l16 158q0 12 23 12q14 0 18 -2.5t4 -9.5l-16 -158q0 -7 -5 -8.5t-20 -1.5z" />
<glyph unicode="&#xc0;" horiz-adv-x="1126" d="M989 0q-11 0 -14 1t-4 7q-75 354 -94 434h-619q-145 -337 -184 -434q-2 -8 -23 -8q-11 0 -14 1t-2 7q120 298 296.5 690t307.5 650q4 8 25 8q14 0 17.5 -1t4.5 -7q77 -256 171.5 -647.5t152.5 -692.5q1 -6 -3 -7t-18 -1zM659 1313q-150 -299 -385 -836h594 q-117 507 -209 836zM670 1489l-328 160q-7 3 -7.5 6.5t7.5 17.5q5 11 10 12.5t10 -2.5l324 -170q7 -4 -2 -16q-4 -7 -4.5 -7.5t-3.5 -2.5t-6 2z" />
<glyph unicode="&#xc1;" horiz-adv-x="1126" d="M989 0q-11 0 -14 1t-4 7q-75 354 -94 434h-619q-145 -337 -184 -434q-2 -8 -23 -8q-11 0 -14 1t-2 7q120 298 296.5 690t307.5 650q4 8 25 8q14 0 17.5 -1t4.5 -7q77 -256 171.5 -647.5t152.5 -692.5q1 -6 -3 -7t-18 -1zM659 1313q-150 -299 -385 -836h594 q-117 507 -209 836zM1049 1649l-363 -160q-6 -2 -7 -1.5t-4 7.5q-1 1 -1 2q-5 9 2 14l360 172q10 7 19 -10q3 -9 2.5 -13.5t-2 -6.5t-6.5 -4z" />
<glyph unicode="&#xc2;" horiz-adv-x="1126" d="M989 0q-11 0 -14 1t-4 7q-75 354 -94 434h-619q-145 -337 -184 -434q-2 -8 -23 -8q-11 0 -14 1t-2 7q120 298 296.5 690t307.5 650q4 8 25 8q14 0 17.5 -1t4.5 -7q77 -256 171.5 -647.5t152.5 -692.5q1 -6 -3 -7t-18 -1zM659 1313q-150 -299 -385 -836h594 q-117 507 -209 836zM700 1675l-208 -182q-9 -6 -25 -6q-11 0 -11 4q0 2 3 4l225 211q8 8 21 8q12 0 16 -8l178 -211q2 -6 -10 -8q-17 0 -23 6z" />
<glyph unicode="&#xc3;" horiz-adv-x="1126" d="M989 0q-11 0 -14 1t-4 7q-75 354 -94 434h-619q-145 -337 -184 -434q-2 -8 -23 -8q-11 0 -14 1t-2 7q120 298 296.5 690t307.5 650q4 8 25 8q14 0 17.5 -1t4.5 -7q77 -256 171.5 -647.5t152.5 -692.5q1 -6 -3 -7t-18 -1zM659 1313q-150 -299 -385 -836h594 q-117 507 -209 836zM934 1614l4 33q0 8 14 8q10 0 12.5 -2t2.5 -8l-6 -35q-13 -123 -117 -123q-58 0 -115 39l-102 69q-53 33 -99 33q-38 0 -60 -22t-26 -76l-4 -33q0 -6 -14 -6q-11 0 -13.5 1t-2.5 7l6 37q16 123 116 123q54 0 117 -39l103 -72q48 -32 96 -32q39 0 60.5 22 t27.5 76z" />
<glyph unicode="&#xc4;" horiz-adv-x="1126" d="M989 0q-11 0 -14 1t-4 7q-75 354 -94 434h-619q-145 -337 -184 -434q-2 -8 -23 -8q-11 0 -14 1t-2 7q120 298 296.5 690t307.5 650q4 8 25 8q14 0 17.5 -1t4.5 -7q77 -256 171.5 -647.5t152.5 -692.5q1 -6 -3 -7t-18 -1zM659 1313q-150 -299 -385 -836h594 q-117 507 -209 836zM877 1673h9.5t5 -1t3 -3t0.5 -6l-16 -156q0 -12 -21 -12q-12 0 -15 2t-3 10l16 156q0 7 4 8.5t17 1.5zM520 1673q9 0 12.5 -0.5t5 -2.5t1.5 -7l-17 -156q0 -7 -4 -9.5t-16 -2.5t-15.5 2t-3.5 10l17 156q0 7 3.5 8.5t16.5 1.5z" />
<glyph unicode="&#xc5;" horiz-adv-x="1126" d="M989 0q-11 0 -14 1t-4 7q-75 354 -94 434h-619q-145 -337 -184 -434q-2 -8 -23 -8q-11 0 -14 1t-2 7q118 291 292 677t306 648q-115 14 -115 127q0 76 46.5 124t127.5 48q146 0 146 -127q0 -73 -39 -119t-109 -53q76 -254 169 -639t151 -686q1 -6 -3 -7t-18 -1zM659 1313 q-150 -299 -385 -836h594q-117 507 -209 836zM664 1360q67 0 107 38t40 107q0 101 -119 101q-67 0 -107 -39t-40 -107q0 -51 28 -75.5t91 -24.5z" />
<glyph unicode="&#xc6;" horiz-adv-x="1714" d="M1649 1319h-639l-64 -606h580q9 0 6 -19q0 -16 -10 -16h-578l-67 -641h645q8 0 8 -19q-3 -18 -10 -18h-666q-18 0 -18 8l43 418h-580q-87 -140 -252 -418q-4 -8 -24 -8q-12 0 -15 1t-2 7q173 299 422.5 690.5t431.5 649.5q5 8 27 8h766q9 0 6 -19q0 -18 -10 -18z M881 1321q-246 -351 -562 -860h564l88 860h-90z" />
<glyph unicode="&#xc7;" horiz-adv-x="1212" d="M508 -133h86q75 0 115.5 -22.5t40.5 -80.5q0 -139 -179 -139h-172q-9 0 -6 15q0 14 8 14h170q28 0 49 3.5t45 13.5t37 33t13 58q0 48 -30 62t-95 14h-109q-19 0 -12 15l63 139q-196 15 -282 130t-86 351q0 95 12 209q39 362 168 523t393 161q215 0 310 -94.5t77 -280.5 q0 -6 -3 -7t-15 -1q-19 0 -19 8q12 170 -72 254t-282 84q-244 0 -361.5 -149t-154.5 -498q-12 -117 -12 -207q0 -241 92.5 -344.5t312.5 -103.5q198 0 297 87t123 269q0 10 19 10q12 0 15.5 -2t2.5 -8q-24 -198 -135 -295.5t-328 -97.5q-29 0 -43 2z" />
<glyph unicode="&#xc8;" horiz-adv-x="1103" d="M1038 1319h-696l-63 -606h636q10 0 7 -19q0 -16 -11 -16h-635l-67 -641h702q10 0 7 -19q0 -18 -9 -18h-723q-18 0 -18 8l139 1340q3 8 21 8h714q10 0 7 -19q0 -18 -11 -18zM768 1489l-328 160q-7 3 -7.5 6.5t7.5 17.5q8 16 21 10l323 -170q7 -4 -2 -16q-4 -7 -4.5 -7.5 t-3.5 -2.5t-6 2z" />
<glyph unicode="&#xc9;" horiz-adv-x="1103" d="M1038 1319h-696l-63 -606h636q10 0 7 -19q0 -16 -11 -16h-635l-67 -641h702q10 0 7 -19q0 -18 -9 -18h-723q-18 0 -18 8l139 1340q3 8 21 8h714q10 0 7 -19q0 -18 -11 -18zM1063 1649l-363 -160q-6 -2 -7 -1.5t-4 7.5q-1 1 -1 2q-5 9 2 14l361 172q10 7 18 -10 q3 -9 2.5 -13.5t-2 -6.5t-6.5 -4z" />
<glyph unicode="&#xca;" horiz-adv-x="1103" d="M1038 1319h-696l-63 -606h636q10 0 7 -19q0 -16 -11 -16h-635l-67 -641h702q10 0 7 -19q0 -18 -9 -18h-723q-18 0 -18 8l139 1340q3 8 21 8h714q10 0 7 -19q0 -18 -11 -18zM715 1675l-209 -182q-9 -6 -25 -6q-11 0 -11 4q0 2 3 4l225 211q8 8 21 8q12 0 16 -8l178 -211 q2 -6 -10 -8q-16 0 -22 6z" />
<glyph unicode="&#xcb;" horiz-adv-x="1103" d="M1038 1319h-696l-63 -606h636q10 0 7 -19q0 -16 -11 -16h-635l-67 -641h702q10 0 7 -19q0 -18 -9 -18h-723q-18 0 -18 8l139 1340q3 8 21 8h714q10 0 7 -19q0 -18 -11 -18zM537 1673h9.5t5 -1t3 -3t0.5 -6l-16 -156q0 -12 -21 -12q-12 0 -15 2t-3 10l16 156q0 7 4 8.5 t17 1.5zM893 1673h9.5t5 -1t3 -3t0.5 -6l-16 -156q0 -12 -21 -12q-12 0 -15 2t-3 10l16 156q0 7 4 8.5t17 1.5z" />
<glyph unicode="&#xcc;" horiz-adv-x="471" d="M195 0q-13 0 -16 1t-3 7l139 1340q2 8 21 8q13 0 16 -1t2 -7l-139 -1340q0 -8 -20 -8zM354 1489l-327 160q-7 3 -7.5 6.5t7.5 17.5q5 11 10 12.5t10 -2.5l324 -170q7 -4 -2 -16q-2 -4 -3 -5t-2.5 -3t-2.5 -2t-3 0.5t-4 1.5z" />
<glyph unicode="&#xcd;" horiz-adv-x="471" d="M195 0q-13 0 -16 1t-3 7l139 1340q2 8 21 8q13 0 16 -1t2 -7l-139 -1340q0 -8 -20 -8zM707 1649l-363 -160q-6 -2 -7 -1.5t-4 7.5q-1 1 -1 2q-5 9 2 14l360 172q10 7 19 -10q3 -9 2.5 -13.5t-2 -6.5t-6.5 -4z" />
<glyph unicode="&#xce;" horiz-adv-x="471" d="M195 0q-13 0 -16 1t-3 7l139 1340q2 8 21 8q13 0 16 -1t2 -7l-139 -1340q0 -8 -20 -8zM373 1675l-209 -182q-9 -6 -25 -6q-11 0 -11 4q0 2 3 4l225 211q8 8 21 8q12 0 16 -8l178 -211q2 -6 -10 -8q-16 0 -22 6z" />
<glyph unicode="&#xcf;" horiz-adv-x="471" d="M195 0q-13 0 -16 1t-3 7l139 1340q2 8 21 8q13 0 16 -1t2 -7l-139 -1340q0 -8 -20 -8zM193 1673h9.5t5 -1t3 -3t0.5 -6l-16 -156q0 -12 -21 -12q-12 0 -15 2t-3 10l16 156q0 7 4 8.5t17 1.5zM549 1673h9.5t5 -1t3 -3t0.5 -6l-16 -156q0 -12 -21 -12q-12 0 -15 2t-3 10 l16 156q0 7 4 8.5t17 1.5z" />
<glyph unicode="&#xd0;" horiz-adv-x="1273" d="M557 0h-367q-18 0 -18 8l64 619h-144q-6 0 -7 2.5t-1 13.5q5 15 10 16h146l71 689q3 8 21 8h366q245 0 356 -117.5t111 -376.5q0 -74 -10 -184q-37 -360 -176 -519t-422 -159zM213 37h348q264 0 391 147t162 494q10 83 10 182q0 246 -101 352.5t-329 106.5h-348l-70 -660 h381q10 0 7 -16q0 -16 -11 -16h-379z" />
<glyph unicode="&#xd1;" horiz-adv-x="1304" d="M1180 1356q12 0 14.5 -1t1.5 -7l-139 -1340q0 -8 -25 -8q-14 0 -17.5 1t-6.5 7l-668 1286l-135 -1286q0 -8 -19 -8q-12 0 -15 1t-3 7l139 1340q2 8 25 8q14 0 17.5 -1t6.5 -7l666 -1289l137 1289q1 6 4.5 7t16.5 1zM1022 1614l4 33q0 8 14 8q10 0 12.5 -2t2.5 -8l-6 -35 q-13 -123 -117 -123q-58 0 -115 39l-102 69q-53 33 -99 33q-38 0 -60 -22t-26 -76l-4 -33q0 -6 -14 -6q-11 0 -13.5 1t-2.5 7l6 37q16 123 116 123q54 0 117 -39l103 -72q48 -32 96 -32q39 0 60.5 22t27.5 76z" />
<glyph unicode="&#xd2;" horiz-adv-x="1273" d="M739 1366q226 0 327 -115t101 -370q0 -92 -12 -203q-37 -365 -165.5 -526.5t-395.5 -161.5q-226 0 -327 116.5t-101 372.5q0 109 10 199q39 366 167.5 527t395.5 161zM598 27q247 0 364 149t154 502q12 111 12 203q0 239 -92 343.5t-301 104.5q-247 0 -364 -149 t-154 -502q-12 -111 -12 -201q0 -239 92 -344.5t301 -105.5zM756 1489l-328 160q-7 3 -7.5 6.5t7.5 17.5q8 16 21 10l323 -170q7 -4 -2 -16q-4 -7 -4.5 -7.5t-3.5 -2.5t-6 2z" />
<glyph unicode="&#xd3;" horiz-adv-x="1273" d="M739 1366q226 0 327 -115t101 -370q0 -92 -12 -203q-37 -365 -165.5 -526.5t-395.5 -161.5q-226 0 -327 116.5t-101 372.5q0 109 10 199q39 366 167.5 527t395.5 161zM598 27q247 0 364 149t154 502q12 111 12 203q0 239 -92 343.5t-301 104.5q-247 0 -364 -149 t-154 -502q-12 -111 -12 -201q0 -239 92 -344.5t301 -105.5zM1110 1649l-362 -160q-6 -3 -8 -1.5t-5 9.5q-5 9 2 14l361 172q10 7 18 -10q4 -14 2.5 -17.5t-8.5 -6.5z" />
<glyph unicode="&#xd4;" horiz-adv-x="1273" d="M739 1366q226 0 327 -115t101 -370q0 -92 -12 -203q-37 -365 -165.5 -526.5t-395.5 -161.5q-226 0 -327 116.5t-101 372.5q0 109 10 199q39 366 167.5 527t395.5 161zM598 27q247 0 364 149t154 502q12 111 12 203q0 239 -92 343.5t-301 104.5q-247 0 -364 -149 t-154 -502q-12 -111 -12 -201q0 -239 92 -344.5t301 -105.5zM774 1675l-209 -182q-9 -6 -24 -6q-12 0 -12 4q0 2 3 4l226 211q8 8 20 8q13 0 17 -8l178 -211q2 -6 -10 -8q-17 0 -23 6z" />
<glyph unicode="&#xd5;" horiz-adv-x="1273" d="M739 1366q226 0 327 -115t101 -370q0 -92 -12 -203q-37 -365 -165.5 -526.5t-395.5 -161.5q-226 0 -327 116.5t-101 372.5q0 109 10 199q39 366 167.5 527t395.5 161zM598 27q247 0 364 149t154 502q12 111 12 203q0 239 -92 343.5t-301 104.5q-247 0 -364 -149 t-154 -502q-12 -111 -12 -201q0 -239 92 -344.5t301 -105.5zM1008 1614l4 33q0 8 14 8q10 0 12 -1.5t2 -8.5l-6 -35q-13 -123 -116 -123q-58 0 -115 39l-103 69q-53 33 -98 33q-38 0 -60 -22t-26 -76l-4 -33q0 -6 -14 -6q-11 0 -14 1t-3 7l6 37q16 123 117 123q54 0 117 -39 l102 -72q48 -32 97 -32q39 0 60.5 22t27.5 76z" />
<glyph unicode="&#xd6;" horiz-adv-x="1273" d="M739 1366q226 0 327 -115t101 -370q0 -92 -12 -203q-37 -365 -165.5 -526.5t-395.5 -161.5q-226 0 -327 116.5t-101 372.5q0 109 10 199q39 366 167.5 527t395.5 161zM598 27q247 0 364 149t154 502q12 111 12 203q0 239 -92 343.5t-301 104.5q-247 0 -364 -149 t-154 -502q-12 -111 -12 -201q0 -239 92 -344.5t301 -105.5zM594 1673h9.5t5 -1t3 -3t0.5 -6l-16 -156q0 -12 -21 -12q-12 0 -15 2t-3 10l16 156q0 7 4 8.5t17 1.5zM950 1673q9 0 12.5 -0.5t5 -2.5t1.5 -7l-17 -156q0 -7 -4 -9.5t-16 -2.5t-15.5 2t-3.5 10l17 156 q0 7 3.5 8.5t16.5 1.5z" />
<glyph unicode="&#xd7;" d="M842 295l-279 309l-342 -309q-6 -4 -18 6q-8 15 -4 21l342 309l-277 309q-1 7 -0.5 7.5l10.5 10.5q15 12 19 9l276 -312l344 312q5 3 17 -9q10 -12 4 -18l-342 -309l276 -309q5 -8 -6 -21q-14 -10 -20 -6z" />
<glyph unicode="&#xd8;" horiz-adv-x="1282" d="M743 1366q226 0 328 -117l119 162q4 8 20 8q14 0 15 -4q0 -1 -2 -4l-136 -184q84 -115 84 -346q0 -92 -12 -203q-37 -365 -165.5 -526.5t-395.5 -161.5q-224 0 -326 114l-118 -161q-7 -9 -25 -9q-13 0 -13 4q0 2 3 5l135 184q-84 118 -84 352q0 109 10 199 q39 366 167.5 527t395.5 161zM209 477q0 -212 70 -315l768 1052q-91 115 -308 115q-247 0 -364 -149t-154 -502q-12 -111 -12 -201zM602 27q247 0 364 149t154 502q13 120 13 203q0 206 -70 313l-768 -1055q90 -112 307 -112z" />
<glyph unicode="&#xd9;" horiz-adv-x="1275" d="M600 -10q-210 0 -305.5 88t-95.5 280q0 52 6 111l92 879q0 8 20 8q13 0 16 -1t3 -7l-92 -875q-6 -59 -6 -108q0 -176 85 -256t277 -80q217 0 319.5 104t129.5 340l90 875q1 6 4 7t16 1q12 0 16 -1t3 -7l-93 -879q-27 -254 -138 -366.5t-347 -112.5zM764 1489l-328 160 q-7 3 -7.5 6.5t7.5 17.5q8 16 21 10l323 -170q7 -4 -2 -16q-4 -7 -4.5 -7.5t-3.5 -2.5t-6 2z" />
<glyph unicode="&#xda;" horiz-adv-x="1275" d="M600 -10q-210 0 -305.5 88t-95.5 280q0 52 6 111l92 879q0 8 20 8q13 0 16 -1t3 -7l-92 -875q-6 -59 -6 -108q0 -176 85 -256t277 -80q217 0 319.5 104t129.5 340l90 875q1 6 4 7t16 1q12 0 16 -1t3 -7l-93 -879q-27 -254 -138 -366.5t-347 -112.5zM1102 1649l-363 -160 q-6 -2 -7 -1.5t-4 7.5q-1 1 -1 2q-5 9 2 14l361 172q10 7 18 -10q4 -14 2.5 -17.5t-8.5 -6.5z" />
<glyph unicode="&#xdb;" horiz-adv-x="1275" d="M600 -10q-210 0 -305.5 88t-95.5 280q0 52 6 111l92 879q0 8 20 8q13 0 16 -1t3 -7l-92 -875q-6 -59 -6 -108q0 -176 85 -256t277 -80q217 0 319.5 104t129.5 340l90 875q1 6 4 7t16 1q12 0 16 -1t3 -7l-93 -879q-27 -254 -138 -366.5t-347 -112.5zM774 1675l-209 -182 q-9 -6 -24 -6q-12 0 -12 4q0 2 3 4l226 211q8 8 20 8q13 0 17 -8l178 -211q2 -6 -10 -8q-17 0 -23 6z" />
<glyph unicode="&#xdc;" horiz-adv-x="1275" d="M600 -10q-210 0 -305.5 88t-95.5 280q0 52 6 111l92 879q0 8 20 8q13 0 16 -1t3 -7l-92 -875q-6 -59 -6 -108q0 -176 85 -256t277 -80q217 0 319.5 104t129.5 340l90 875q1 6 4 7t16 1q12 0 16 -1t3 -7l-93 -879q-27 -254 -138 -366.5t-347 -112.5zM594 1673h9.5t5 -1 t3 -3t0.5 -6l-16 -156q0 -12 -21 -12q-12 0 -15 2t-3 10l16 156q0 7 4 8.5t17 1.5zM950 1673q9 0 12.5 -0.5t5 -2.5t1.5 -7l-17 -156q0 -7 -4 -9.5t-16 -2.5t-15.5 2t-3.5 10l17 156q0 7 3.5 8.5t16.5 1.5z" />
<glyph unicode="&#xdd;" horiz-adv-x="1101" d="M1073 1346q6 8 23 8q14 0 16.5 -1t-0.5 -7q-115 -199 -265 -435.5t-263 -396.5h-2l-52 -506q0 -8 -20 -8q-12 0 -15 1t-3 7l51 508q-82 161 -183 396.5t-172 433.5q-1 6 2.5 7t18.5 1q11 0 14 -1t4 -7q71 -193 167 -420t173 -377q110 154 255 382.5t251 414.5zM1024 1649 l-362 -160q-6 -3 -8 -1.5t-5 9.5q-5 9 2 14l361 172q10 7 18 -10q4 -14 2.5 -17.5t-8.5 -6.5z" />
<glyph unicode="&#xde;" horiz-adv-x="1130" d="M567 401h-319l-41 -393q0 -8 -21 -8q-12 0 -15 1t-3 7l115 1092l24 248q2 8 21 8q13 0 16 -1t2 -7l-22 -234h317q211 0 304 -65t93 -222q0 -19 -4 -69q-22 -197 -128.5 -277t-338.5 -80zM317 1075l-65 -637h315q216 0 312 69.5t116 250.5q4 50 4 67q0 140 -84.5 195 t-279.5 55h-318z" />
<glyph unicode="&#xdf;" horiz-adv-x="1251" d="M664 774q-7 0 -7 19q0 16 11 16q395 23 395 340q0 115 -84 175t-250 60q-197 0 -303.5 -79t-124.5 -248l-111 -1049q0 -6 -3.5 -7t-16.5 -1q-16 0 -16 8l110 1053q20 182 136.5 270t330.5 88q179 0 274 -70t97 -198q0 -171 -103 -260t-292 -98q96 -10 165.5 -31.5 t126 -62t85 -108t28.5 -161.5q0 -90 -18.5 -166t-58.5 -139t-111 -99t-168 -36q-296 0 -271 264q1 6 4.5 7t16.5 1q16 0 16 -8q-11 -116 46 -173.5t190 -57.5q86 0 148.5 32t98 90t52 128.5t16.5 156.5q0 72 -18 126.5t-50.5 91t-85 62t-112.5 40t-143 24.5z" />
<glyph unicode="&#xe0;" horiz-adv-x="1040" d="M258 717q0 -10 -18 -10q-19 0 -19 10q17 138 107.5 203t259.5 65q178 0 251 -71t58 -228l-72 -678q0 -6 -3.5 -7t-14.5 -1t-13.5 1t-2.5 7l22 230q-41 -104 -154 -174t-256 -70q-134 0 -212 55.5t-78 167.5q0 289 350 289h377l20 180q13 145 -51 205.5t-223 60.5 q-154 0 -234.5 -56t-93.5 -179zM836 475h-373q-313 0 -313 -256q0 -99 70 -145.5t188 -46.5q102 0 194.5 42.5t152 116.5t68.5 162zM610 1124l-315 158q-6 4 -6 6.5t6 16.5q7 11 11.5 13t8.5 -3l312 -166q7 -4 -2 -16q-5 -9 -6.5 -10t-8.5 1z" />
<glyph unicode="&#xe1;" horiz-adv-x="1040" d="M258 717q0 -10 -18 -10q-19 0 -19 10q17 138 107.5 203t259.5 65q178 0 251 -71t58 -228l-72 -678q0 -6 -3.5 -7t-14.5 -1t-13.5 1t-2.5 7l22 230q-41 -104 -154 -174t-256 -70q-134 0 -212 55.5t-78 167.5q0 289 350 289h377l20 180q13 145 -51 205.5t-223 60.5 q-154 0 -234.5 -56t-93.5 -179zM836 475h-373q-313 0 -313 -256q0 -99 70 -145.5t188 -46.5q102 0 194.5 42.5t152 116.5t68.5 162zM930 1282l-350 -158q-7 -5 -13 9q-5 11 2 16l346 166q12 9 19 -10q5 -14 4 -16.5t-8 -6.5z" />
<glyph unicode="&#xe2;" horiz-adv-x="1040" d="M258 717q0 -10 -18 -10q-19 0 -19 10q17 138 107.5 203t259.5 65q178 0 251 -71t58 -228l-72 -678q0 -6 -3.5 -7t-14.5 -1t-13.5 1t-2.5 7l22 230q-41 -104 -154 -174t-256 -70q-134 0 -212 55.5t-78 167.5q0 289 350 289h377l20 180q13 145 -51 205.5t-223 60.5 q-154 0 -234.5 -56t-93.5 -179zM836 475h-373q-313 0 -313 -256q0 -99 70 -145.5t188 -46.5q102 0 194.5 42.5t152 116.5t68.5 162zM618 1313l-200 -180q-9 -9 -27 -9q-17 0 -6 11l219 208q7 7 19 7q13 0 16 -7l172 -208q4 -5 2 -8t-10 -3q-16 0 -25 9z" />
<glyph unicode="&#xe3;" horiz-adv-x="1040" d="M258 717q0 -10 -18 -10q-19 0 -19 10q17 138 107.5 203t259.5 65q178 0 251 -71t58 -228l-72 -678q0 -6 -3.5 -7t-14.5 -1t-13.5 1t-2.5 7l22 230q-41 -104 -154 -174t-256 -70q-134 0 -212 55.5t-78 167.5q0 289 350 289h377l20 180q13 145 -51 205.5t-223 60.5 q-154 0 -234.5 -56t-93.5 -179zM836 475h-373q-313 0 -313 -256q0 -99 70 -145.5t188 -46.5q102 0 194.5 42.5t152 116.5t68.5 162zM844 1251l4 31q0 10 14 10q10 0 12.5 -2t2.5 -8l-7 -37q-13 -123 -112 -123q-48 0 -111 39l-102 72q-53 33 -94 33q-36 0 -56 -22.5 t-26 -76.5l-2 -32q0 -9 -17 -9q-14 0 -14 9l4 36q16 125 113 125q49 0 112 -39l103 -71q53 -33 94 -33q37 0 56.5 21.5t25.5 76.5z" />
<glyph unicode="&#xe4;" horiz-adv-x="1040" d="M258 717q0 -10 -18 -10q-19 0 -19 10q17 138 107.5 203t259.5 65q178 0 251 -71t58 -228l-72 -678q0 -6 -3.5 -7t-14.5 -1t-13.5 1t-2.5 7l22 230q-41 -104 -154 -174t-256 -70q-134 0 -212 55.5t-78 167.5q0 289 350 289h377l20 180q13 145 -51 205.5t-223 60.5 q-154 0 -234.5 -56t-93.5 -179zM836 475h-373q-313 0 -313 -256q0 -99 70 -145.5t188 -46.5q102 0 194.5 42.5t152 116.5t68.5 162zM444 1311q12 0 15.5 -2t3.5 -9l-17 -155q0 -6 -3.5 -8t-16.5 -2q-12 0 -15 2t-3 8l16 155q0 7 4 9t16 2zM786 1311q12 0 15.5 -2t3.5 -9 l-17 -155q0 -6 -3.5 -8t-16.5 -2q-12 0 -15 2t-3 8l16 155q0 7 4 9t16 2z" />
<glyph unicode="&#xe5;" horiz-adv-x="1040" d="M258 717q0 -10 -18 -10q-19 0 -19 10q17 138 107.5 203t259.5 65q178 0 251 -71t58 -228l-72 -678q0 -6 -3.5 -7t-14.5 -1t-13.5 1t-2.5 7l22 230q-41 -104 -154 -174t-256 -70q-134 0 -212 55.5t-78 167.5q0 289 350 289h377l20 180q13 145 -51 205.5t-223 60.5 q-154 0 -234.5 -56t-93.5 -179zM836 475h-373q-313 0 -313 -256q0 -99 70 -145.5t188 -46.5q102 0 194.5 42.5t152 116.5t68.5 162zM631 1419q141 0 141 -123q0 -78 -44.5 -126t-129.5 -48q-143 0 -143 127q0 76 46.5 123t129.5 47zM602 1147q67 0 105 39t38 110 q0 49 -27.5 74t-90.5 25q-65 0 -104.5 -40t-39.5 -108q0 -100 119 -100z" />
<glyph unicode="&#xe6;" horiz-adv-x="1622" d="M1493 481h-649q-6 -62 -6 -116q0 -170 70.5 -255t226.5 -85q123 0 196 59.5t94 169.5q2 8 19 8q12 0 14.5 -1t1.5 -7q-22 -125 -106.5 -194.5t-220.5 -69.5q-289 0 -324 282q-44 -132 -161 -205t-253 -73q-129 0 -205.5 57.5t-76.5 169.5q0 148 91 220.5t253 72.5h354 l18 172q13 142 -47 204t-209 62q-148 0 -225 -56t-90 -179q0 -10 -18 -10q-19 0 -19 10q17 138 104 203t250 65q155 0 223.5 -60.5t65.5 -189.5q97 250 355 250q152 0 224.5 -86t72.5 -235q0 -8 -5 -80l-8 -82q-3 -21 -10 -21zM807 483h-350q-138 0 -222.5 -61.5 t-84.5 -200.5q0 -100 68.5 -147t182.5 -47q149 0 264 91.5t128 229.5zM1219 950q-167 0 -255.5 -108.5t-117.5 -327.5h622l9 70q4 58 4 78q0 135 -64 211.5t-198 76.5z" />
<glyph unicode="&#xe7;" horiz-adv-x="1003" d="M379 -129h84q78 0 115.5 -20t37.5 -78q0 -138 -178 -138h-168q-6 0 -6 15q0 14 8 14h168q65 0 103.5 22.5t38.5 86.5q0 45 -29 58t-94 13h-107q-18 0 -10 15l61 137q-142 21 -205 110.5t-63 251.5q0 35 8 129q26 250 128 374t315 124q161 0 241 -70t74 -194q-2 -6 -5 -8 t-13 -2q-19 0 -19 10q6 110 -65 169.5t-217 59.5q-195 0 -285.5 -113.5t-114.5 -349.5q-8 -94 -8 -127q0 -172 74 -253.5t250 -81.5q289 0 327 256q0 10 19 10q10 0 13 -2t3 -8q-42 -291 -364 -291q-26 0 -66 4z" />
<glyph unicode="&#xe8;" horiz-adv-x="1032" d="M901 492h-721v-7q-6 -62 -6 -110q0 -176 77.5 -263t252.5 -87q282 0 327 241q5 10 21 10q11 0 14 -2t2 -8q-25 -133 -116.5 -204.5t-247.5 -71.5q-191 0 -279 96t-88 285q0 53 6 114q26 248 132 374t315 126q173 0 254.5 -87.5t81.5 -240.5q0 -21 -4 -71l-9 -74 q-2 -12 -4 -16t-8 -4zM590 950q-186 0 -281.5 -106.5t-124.5 -321.5h695l6 66q4 46 4 67q0 138 -71.5 216.5t-227.5 78.5zM627 1124l-316 158q-6 4 -6 6.5t6 16.5q12 19 21 10l311 -166q7 -4 -2 -16q-5 -9 -6 -9.5t-8 0.5z" />
<glyph unicode="&#xe9;" horiz-adv-x="1032" d="M901 492h-721v-7q-6 -62 -6 -110q0 -176 77.5 -263t252.5 -87q282 0 327 241q5 10 21 10q11 0 14 -2t2 -8q-25 -133 -116.5 -204.5t-247.5 -71.5q-191 0 -279 96t-88 285q0 53 6 114q26 248 132 374t315 126q173 0 254.5 -87.5t81.5 -240.5q0 -21 -4 -71l-9 -74 q-2 -12 -4 -16t-8 -4zM590 950q-186 0 -281.5 -106.5t-124.5 -321.5h695l6 66q4 46 4 67q0 138 -71.5 216.5t-227.5 78.5zM930 1282l-350 -158q-7 -5 -13 9q-5 11 2 16l346 166q12 9 19 -10q5 -14 4 -16.5t-8 -6.5z" />
<glyph unicode="&#xea;" horiz-adv-x="1032" d="M901 492h-721v-7q-6 -62 -6 -110q0 -176 77.5 -263t252.5 -87q282 0 327 241q5 10 21 10q11 0 14 -2t2 -8q-25 -133 -116.5 -204.5t-247.5 -71.5q-191 0 -279 96t-88 285q0 53 6 114q26 248 132 374t315 126q173 0 254.5 -87.5t81.5 -240.5q0 -21 -4 -71l-9 -74 q-2 -12 -4 -16t-8 -4zM590 950q-186 0 -281.5 -106.5t-124.5 -321.5h695l6 66q4 46 4 67q0 138 -71.5 216.5t-227.5 78.5zM623 1313l-201 -180q-9 -9 -27 -9q-17 0 -6 11l219 208q7 7 19 7q13 0 16 -7l172 -208q4 -5 2 -8t-10 -3q-16 0 -25 9z" />
<glyph unicode="&#xeb;" horiz-adv-x="1032" d="M901 492h-721v-7q-6 -62 -6 -110q0 -176 77.5 -263t252.5 -87q282 0 327 241q5 10 21 10q11 0 14 -2t2 -8q-25 -133 -116.5 -204.5t-247.5 -71.5q-191 0 -279 96t-88 285q0 53 6 114q26 248 132 374t315 126q173 0 254.5 -87.5t81.5 -240.5q0 -21 -4 -71l-9 -74 q-2 -12 -4 -16t-8 -4zM590 950q-186 0 -281.5 -106.5t-124.5 -321.5h695l6 66q4 46 4 67q0 138 -71.5 216.5t-227.5 78.5zM451 1311q12 0 15 -2t3 -9l-16 -155q0 -6 -4 -8t-17 -2q-12 0 -15 2t-3 8l16 155q0 7 4 9t17 2zM793 1311q12 0 15 -2t3 -9l-16 -155q0 -6 -4 -8 t-17 -2q-12 0 -15 2t-3 8l16 155q0 7 4 9t17 2z" />
<glyph unicode="&#xec;" horiz-adv-x="428" d="M156 8l100 959q0 6 3 7t15 1q19 0 19 -8l-100 -959q0 -6 -4 -7t-17 -1q-11 0 -13.5 1t-2.5 7zM289 1124l-316 158q-6 4 -6 6.5t6 16.5q12 19 21 10l311 -166q7 -4 -2 -16q-5 -9 -6 -9.5t-8 0.5z" />
<glyph unicode="&#xed;" horiz-adv-x="428" d="M156 8l100 959q0 6 3 7t15 1q19 0 19 -8l-100 -959q0 -6 -4 -7t-17 -1q-11 0 -13.5 1t-2.5 7zM643 1282l-350 -158q-7 -4 -12 9q-5 11 2 16l346 166q6 5 10 3t8 -13q5 -14 4 -16.5t-8 -6.5z" />
<glyph unicode="&#xee;" horiz-adv-x="428" d="M156 8l100 959q0 6 3 7t15 1q19 0 19 -8l-100 -959q0 -6 -4 -7t-17 -1q-11 0 -13.5 1t-2.5 7zM311 1313l-200 -180q-9 -9 -27 -9q-17 0 -6 11l219 208q7 7 18 7q13 0 17 -7l172 -208q4 -5 2 -8t-10 -3q-16 0 -25 9z" />
<glyph unicode="&#xef;" horiz-adv-x="428" d="M156 8l100 959q0 6 3 7t15 1q19 0 19 -8l-100 -959q0 -6 -4 -7t-17 -1q-11 0 -13.5 1t-2.5 7zM139 1311q12 0 15.5 -2t3.5 -9l-17 -155q0 -6 -3.5 -8t-16.5 -2q-19 0 -19 10l17 155q0 7 3.5 9t16.5 2zM479 1311q12 0 15.5 -2t3.5 -9l-17 -155q0 -6 -3.5 -8t-16.5 -2 q-19 0 -19 10l17 155q0 7 3.5 9t16.5 2z" />
<glyph unicode="&#xf0;" horiz-adv-x="1067" d="M1040 1331l-166 -69q87 -133 87 -412q0 -152 -21 -352q-29 -259 -133 -383.5t-318 -124.5q-187 0 -269.5 93.5t-82.5 281.5q0 55 6 122q26 248 131 373t320 125q292 0 332 -250v82q0 146 -18.5 252t-69.5 178l-252 -104q-12 -6 -17 8q-7 15 4 18l246 103 q-95 106 -293 106q-10 0 -8 17q3 16 10 16q229 0 328 -125l170 72q11 6 16 -6q7 -15 -2 -21zM492 25q197 0 291 114t118 348q6 65 6 121q0 173 -73.5 257.5t-243.5 84.5q-197 0 -290.5 -114.5t-117.5 -348.5q-6 -65 -6 -120q0 -173 73.5 -257.5t242.5 -84.5z" />
<glyph unicode="&#xf1;" horiz-adv-x="1118" d="M287 967l-23 -232q38 100 145 175t259 75q158 0 237.5 -83t61.5 -251l-68 -643q0 -8 -20 -8q-11 0 -14 1t-3 7l68 643q28 297 -266 297q-168 0 -283.5 -100t-128.5 -232l-64 -608q0 -8 -20 -8q-11 0 -13.5 1t-2.5 7l100 959q0 6 3 7t15 1q11 0 14 -1t3 -7zM883 1251l4 31 q0 10 14 10q10 0 12 -2t2 -8l-6 -37q-13 -123 -112 -123q-48 0 -111 39l-102 72q-53 33 -95 33q-36 0 -55.5 -22t-25.5 -77l-2 -32q0 -9 -17 -9q-14 0 -14 9l4 36q16 125 113 125q49 0 112 -39l103 -71q53 -33 94 -33q37 0 56.5 21.5t25.5 76.5z" />
<glyph unicode="&#xf2;" horiz-adv-x="1060" d="M592 985q185 0 267.5 -94t82.5 -281q0 -58 -6 -123q-26 -250 -129.5 -373.5t-317.5 -123.5q-187 0 -269.5 93.5t-82.5 281.5q0 55 6 122q26 249 130 373.5t319 124.5zM492 25q197 0 290 114t117 348q8 86 8 123q0 171 -74.5 255.5t-244.5 84.5q-196 0 -289 -114 t-117 -349q-8 -86 -8 -120q0 -173 74 -257.5t244 -84.5zM625 1124l-316 158q-6 4 -6 6.5t6 16.5q12 19 21 10l311 -166q7 -4 -2 -16q-5 -9 -6 -9.5t-8 0.5z" />
<glyph unicode="&#xf3;" horiz-adv-x="1060" d="M592 985q185 0 267.5 -94t82.5 -281q0 -58 -6 -123q-26 -250 -129.5 -373.5t-317.5 -123.5q-187 0 -269.5 93.5t-82.5 281.5q0 55 6 122q26 249 130 373.5t319 124.5zM492 25q197 0 290 114t117 348q8 86 8 123q0 171 -74.5 255.5t-244.5 84.5q-196 0 -289 -114 t-117 -349q-8 -86 -8 -120q0 -173 74 -257.5t244 -84.5zM938 1282l-350 -158q-7 -5 -13 9q-5 11 3 16l346 166q6 5 10 3t8 -13q5 -14 4 -16.5t-8 -6.5z" />
<glyph unicode="&#xf4;" horiz-adv-x="1060" d="M592 985q185 0 267.5 -94t82.5 -281q0 -58 -6 -123q-26 -250 -129.5 -373.5t-317.5 -123.5q-187 0 -269.5 93.5t-82.5 281.5q0 55 6 122q26 249 130 373.5t319 124.5zM492 25q197 0 290 114t117 348q8 86 8 123q0 171 -74.5 255.5t-244.5 84.5q-196 0 -289 -114 t-117 -349q-8 -86 -8 -120q0 -173 74 -257.5t244 -84.5zM629 1313l-201 -180q-9 -9 -27 -9q-17 0 -6 11l219 208q7 7 19 7q13 0 16 -7l172 -208q4 -5 2 -8t-10 -3q-16 0 -25 9z" />
<glyph unicode="&#xf5;" horiz-adv-x="1060" d="M592 985q185 0 267.5 -94t82.5 -281q0 -58 -6 -123q-26 -250 -129.5 -373.5t-317.5 -123.5q-187 0 -269.5 93.5t-82.5 281.5q0 55 6 122q26 249 130 373.5t319 124.5zM492 25q197 0 290 114t117 348q8 86 8 123q0 171 -74.5 255.5t-244.5 84.5q-196 0 -289 -114 t-117 -349q-8 -86 -8 -120q0 -173 74 -257.5t244 -84.5zM854 1251l4 31q0 10 14 10q10 0 12.5 -2t2.5 -8l-6 -37q-13 -123 -113 -123q-48 0 -111 39l-102 72q-53 33 -94 33q-36 0 -56 -22.5t-26 -76.5l-2 -32q0 -9 -17 -9q-14 0 -14 9l4 36q16 125 113 125q49 0 112 -39 l103 -71q53 -33 94 -33q37 0 56.5 21.5t25.5 76.5z" />
<glyph unicode="&#xf6;" horiz-adv-x="1060" d="M592 985q185 0 267.5 -94t82.5 -281q0 -58 -6 -123q-26 -250 -129.5 -373.5t-317.5 -123.5q-187 0 -269.5 93.5t-82.5 281.5q0 55 6 122q26 249 130 373.5t319 124.5zM492 25q197 0 290 114t117 348q8 86 8 123q0 171 -74.5 255.5t-244.5 84.5q-196 0 -289 -114 t-117 -349q-8 -86 -8 -120q0 -173 74 -257.5t244 -84.5zM455 1311q12 0 15 -2t3 -9l-16 -155q0 -6 -4 -8t-17 -2q-12 0 -15 2t-3 8l16 155q0 7 4 9t17 2zM797 1311q12 0 15 -2t3 -9l-16 -155q0 -6 -4 -8t-17 -2q-12 0 -15 2t-3 8l16 155q0 7 4 9t17 2z" />
<glyph unicode="&#xf7;" d="M197 649h745q9 0 6 -18q0 -19 -10 -19h-745q-7 0 -7 19q3 18 11 18zM522 217q-9 0 -12.5 0.5t-5.5 2.5t-2 7l16 158q0 12 23 12q14 0 18 -2.5t4 -9.5l-16 -158q0 -7 -5 -8.5t-20 -1.5zM592 862q-9 0 -12.5 0.5t-6 2.5t-2.5 7l17 158q0 12 22 12q14 0 18.5 -2.5t4.5 -9.5 l-17 -158q0 -7 -4.5 -8.5t-19.5 -1.5z" />
<glyph unicode="&#xf8;" horiz-adv-x="1069" d="M596 985q165 0 254 -80l100 127q3 8 21 8q17 0 10 -10l-113 -145q78 -93 78 -275q0 -58 -6 -123q-26 -250 -129 -373.5t-317 -123.5q-173 0 -256 80l-99 -127q-7 -9 -24 -9q-9 0 -11.5 3t2.5 8l111 145q-76 90 -76 275q0 55 6 122q26 249 130 373.5t319 124.5zM496 25 q197 0 290 114t117 348q8 86 8 123q0 165 -67 246l-586 -756q75 -75 238 -75zM178 367q0 -165 64 -246l587 751q-78 78 -237 78q-196 0 -289 -114t-117 -349q-8 -86 -8 -120z" />
<glyph unicode="&#xf9;" horiz-adv-x="1105" d="M840 8l22 230q-39 -102 -134.5 -175t-240.5 -73q-162 0 -248.5 87.5t-66.5 262.5l66 627q0 6 3 7t15 1t15 -1t3 -7l-65 -625q-18 -161 57 -238t223 -77q160 0 265 99.5t120 231.5l64 609q0 6 3 7t15 1q19 0 19 -8l-101 -959q0 -6 -3.5 -7t-14.5 -1t-13.5 1t-2.5 7z M633 1124l-316 158q-6 4 -6 6.5t6 16.5q12 19 21 10l311 -166q7 -4 -2 -16q-5 -9 -6 -9.5t-8 0.5z" />
<glyph unicode="&#xfa;" horiz-adv-x="1105" d="M840 8l22 230q-39 -102 -134.5 -175t-240.5 -73q-162 0 -248.5 87.5t-66.5 262.5l66 627q0 6 3 7t15 1t15 -1t3 -7l-65 -625q-18 -161 57 -238t223 -77q160 0 265 99.5t120 231.5l64 609q0 6 3 7t15 1q19 0 19 -8l-101 -959q0 -6 -3.5 -7t-14.5 -1t-13.5 1t-2.5 7z M956 1282l-350 -158q-7 -4 -12 9q-6 11 2 16l346 166q12 9 19 -10q5 -14 3.5 -16.5t-8.5 -6.5z" />
<glyph unicode="&#xfb;" horiz-adv-x="1105" d="M840 8l22 230q-39 -102 -134.5 -175t-240.5 -73q-162 0 -248.5 87.5t-66.5 262.5l66 627q0 6 3 7t15 1t15 -1t3 -7l-65 -625q-18 -161 57 -238t223 -77q160 0 265 99.5t120 231.5l64 609q0 6 3 7t15 1q19 0 19 -8l-101 -959q0 -6 -3.5 -7t-14.5 -1t-13.5 1t-2.5 7z M649 1313l-200 -180q-9 -9 -27 -9q-17 0 -6 11l219 208q7 7 18 7q13 0 17 -7l172 -208q4 -5 2 -8t-10 -3q-16 0 -25 9z" />
<glyph unicode="&#xfc;" horiz-adv-x="1105" d="M840 8l22 230q-39 -102 -134.5 -175t-240.5 -73q-162 0 -248.5 87.5t-66.5 262.5l66 627q0 6 3 7t15 1t15 -1t3 -7l-65 -625q-18 -161 57 -238t223 -77q160 0 265 99.5t120 231.5l64 609q0 6 3 7t15 1q19 0 19 -8l-101 -959q0 -6 -3.5 -7t-14.5 -1t-13.5 1t-2.5 7z M477 1311q12 0 15.5 -2t3.5 -9l-17 -155q0 -6 -3.5 -8t-16.5 -2q-19 0 -19 10l17 155q0 7 3.5 9t16.5 2zM817 1311q12 0 15.5 -2t3.5 -9l-17 -155q0 -6 -3.5 -8t-16.5 -2q-19 0 -19 10l17 155q0 7 3.5 9t16.5 2z" />
<glyph unicode="&#xfd;" horiz-adv-x="962" d="M129 -348q38 0 72 15t61 38.5t58.5 69t56.5 89t63 116.5l11 20q-8 0 -11 8q-77 203 -163.5 478t-133.5 479q-1 7 2 8.5t17 1.5q18 0 18 -8q52 -214 133.5 -480.5t153.5 -455.5q252 497 438 936q5 8 21 8q10 0 13 -0.5t6 -3t-1 -8.5q-98 -237 -240.5 -534t-230.5 -462 q-34 -63 -56.5 -102.5t-51.5 -84t-53.5 -70.5t-54 -49t-61.5 -32.5t-69 -9.5q-73 0 -117 19q-6 1 -7 4t1 12q2 16 10 16q2 0 15.5 -4.5t40 -9t59.5 -4.5zM905 1282l-350 -158q-7 -4 -12 9q-5 11 2 16l346 166q6 5 10 3t8 -13q5 -14 4 -16.5t-8 -6.5z" />
<glyph unicode="&#xfe;" horiz-adv-x="1118" d="M334 1409l-72 -686q51 130 146.5 196t246.5 66q181 0 262.5 -95.5t81.5 -281.5q0 -58 -6 -119q-26 -248 -129.5 -373.5t-312.5 -125.5q-150 0 -232 63.5t-106 188.5l-63 -602q0 -9 -21 -9q-11 0 -13.5 1.5t-2.5 7.5l184 1769q2 8 20 8q12 0 15 -1t2 -7zM238 487 q-7 -72 -7 -114q0 -174 76 -261t248 -87q192 0 284.5 114.5t116.5 349.5q7 72 7 119q0 171 -73 256.5t-239 85.5q-197 0 -293 -115t-120 -348z" />
<glyph unicode="&#xff;" horiz-adv-x="962" d="M129 -348q38 0 72 15t61 38.5t58.5 69t56.5 89t63 116.5l11 20q-8 0 -11 8q-77 203 -163.5 478t-133.5 479q-1 7 2 8.5t17 1.5q18 0 18 -8q52 -214 133.5 -480.5t153.5 -455.5q252 497 438 936q5 8 21 8q10 0 13 -0.5t6 -3t-1 -8.5q-98 -237 -240.5 -534t-230.5 -462 q-34 -63 -56.5 -102.5t-51.5 -84t-53.5 -70.5t-54 -49t-61.5 -32.5t-69 -9.5q-73 0 -117 19q-6 1 -7 4t1 12q2 16 10 16q2 0 15.5 -4.5t40 -9t59.5 -4.5zM748 1311q12 0 15 -2t3 -9l-16 -155q0 -6 -4 -8t-17 -2q-12 0 -15 2t-3 8l16 155q0 7 4 9t17 2zM406 1311q12 0 15 -2 t3 -9l-16 -155q0 -6 -4 -8t-17 -2q-12 0 -15 2t-3 8l16 155q0 7 4 9t17 2z" />
<glyph unicode="&#x152;" horiz-adv-x="1753" d="M1686 1319h-644l-63 -606h586q9 0 6 -19q-3 -16 -10 -16h-586l-68 -641h654q9 0 6 -19q0 -18 -8 -18h-926q-245 0 -356 119t-111 381q0 68 10 178q38 360 176.5 519t419.5 159h920q9 0 6 -19q-3 -18 -12 -18zM635 35h233l136 1286h-234q-263 0 -390.5 -148t-164.5 -495 q-10 -110 -10 -180q0 -247 101.5 -355t328.5 -108z" />
<glyph unicode="&#x153;" horiz-adv-x="1660" d="M1532 485h-651q-7 -68 -7 -112q0 -174 71.5 -261t228.5 -87q121 0 194 59.5t94 169.5q2 8 21 8q11 0 14 -1t2 -7q-22 -124 -107.5 -194t-222.5 -70q-155 0 -234 77.5t-91 231.5q-43 -156 -134 -232.5t-251 -76.5q-171 0 -247.5 91.5t-76.5 274.5q0 37 8 131 q26 248 124 373t296 125q159 0 235 -77t85 -232q44 153 135 231t239 78q153 0 225 -86t72 -235q0 -22 -4 -80l-8 -78q-3 -21 -10 -21zM463 25q184 0 271.5 113.5t111.5 348.5q8 90 8 129q0 167 -69 250.5t-226 83.5q-182 0 -267.5 -113.5t-109.5 -349.5q-8 -94 -8 -131 q0 -167 67 -249t222 -82zM1255 950q-168 0 -254.5 -107.5t-115.5 -324.5h622l6 66q5 36 5 78q0 136 -64 212t-199 76z" />
<glyph unicode="&#x178;" horiz-adv-x="1101" d="M1073 1346q6 8 23 8q14 0 16.5 -1t-0.5 -7q-115 -199 -265 -435.5t-263 -396.5h-2l-52 -506q0 -8 -20 -8q-12 0 -15 1t-3 7l51 508q-82 161 -183 396.5t-172 433.5q-1 6 2.5 7t18.5 1q11 0 14 -1t4 -7q71 -193 167 -420t173 -377q110 154 255 382.5t251 414.5zM864 1673 q9 0 12.5 -0.5t5 -2.5t1.5 -7l-17 -156q0 -7 -4 -9.5t-16 -2.5t-15.5 2t-3.5 10l17 156q0 7 3.5 8.5t16.5 1.5zM508 1673h9.5t5 -1t3 -3t0.5 -6l-16 -156q0 -12 -21 -12q-12 0 -15 2t-3 10l16 156q0 7 4 8.5t17 1.5z" />
<glyph unicode="&#x2c6;" horiz-adv-x="624" d="M410 1313l-201 -180q-9 -9 -27 -9q-17 0 -6 11l219 208q7 7 19 7t16 -7l172 -208q4 -5 2 -8t-10 -3q-16 0 -25 9z" />
<glyph unicode="&#x2dc;" horiz-adv-x="624" d="M635 1251l4 31q0 10 14 10q10 0 12.5 -2t2.5 -8l-6 -37q-13 -123 -113 -123q-48 0 -111 39l-102 72q-53 33 -94 33q-36 0 -56 -22.5t-26 -76.5l-2 -32q0 -9 -17 -9q-14 0 -14 9l4 36q16 125 113 125q49 0 112 -39l103 -71q53 -33 94 -33q37 0 56.5 21.5t25.5 76.5z" />
<glyph unicode="&#x2000;" horiz-adv-x="857" />
<glyph unicode="&#x2001;" horiz-adv-x="1714" />
<glyph unicode="&#x2002;" horiz-adv-x="857" />
<glyph unicode="&#x2003;" horiz-adv-x="1714" />
<glyph unicode="&#x2004;" horiz-adv-x="571" />
<glyph unicode="&#x2005;" horiz-adv-x="428" />
<glyph unicode="&#x2006;" horiz-adv-x="285" />
<glyph unicode="&#x2007;" horiz-adv-x="285" />
<glyph unicode="&#x2008;" horiz-adv-x="214" />
<glyph unicode="&#x2009;" horiz-adv-x="342" />
<glyph unicode="&#x200a;" horiz-adv-x="95" />
<glyph unicode="&#x2010;" horiz-adv-x="786" d="M168 567h487q10 0 7 -18q-3 -17 -11 -17h-487q-9 0 -6 17q3 18 10 18z" />
<glyph unicode="&#x2011;" horiz-adv-x="786" d="M168 567h487q10 0 7 -18q-3 -17 -11 -17h-487q-9 0 -6 17q3 18 10 18z" />
<glyph unicode="&#x2012;" horiz-adv-x="786" d="M168 567h487q10 0 7 -18q-3 -17 -11 -17h-487q-9 0 -6 17q3 18 10 18z" />
<glyph unicode="&#x2013;" horiz-adv-x="1028" d="M166 567h731q8 0 8 -18q-3 -17 -10 -17h-733q-6 7 -6 17q3 18 10 18z" />
<glyph unicode="&#x2014;" horiz-adv-x="1425" d="M160 567h1138q9 0 9 -18q-3 -8 -3.5 -10t-3 -4.5t-6.5 -2.5h-1136q-9 0 -6 17q0 18 8 18z" />
<glyph unicode="&#x2018;" horiz-adv-x="370" d="M252 1137l-14 -127q0 -9 -19 -9q-16 0 -16 9l14 127q22 206 164 276q9 5 14 -10q5 -13 -4 -17q-121 -64 -139 -249z" />
<glyph unicode="&#x2019;" horiz-adv-x="370" d="M289 1276l14 127q0 8 19 8q16 0 16 -8l-14 -127q-22 -207 -164 -277q-10 -5 -15 11q-5 11 5 16q120 64 139 250z" />
<glyph unicode="&#x201a;" horiz-adv-x="370" d="M164 78l14 127q0 8 19 8q16 0 16 -8l-14 -127q-22 -207 -164 -277q-10 -5 -15 11q-3 8 -2 10.5t7 5.5q120 64 139 250z" />
<glyph unicode="&#x201c;" horiz-adv-x="649" d="M252 1137l-14 -127q0 -9 -19 -9q-16 0 -16 9l14 127q22 206 164 276q9 5 14 -10q5 -13 -4 -17q-121 -64 -139 -249zM530 1137l-14 -127q0 -9 -18 -9q-17 0 -17 9l15 127q22 206 163 276q10 5 15 -10q5 -13 -4 -17q-122 -65 -140 -249z" />
<glyph unicode="&#x201d;" horiz-adv-x="649" d="M289 1276l14 127q0 8 19 8q16 0 16 -8l-14 -127q-22 -207 -164 -277q-10 -5 -15 11q-5 11 5 16q120 64 139 250zM569 1276l15 127q0 8 18 8q16 0 16 -8l-14 -127q-22 -207 -164 -277q-6 -3 -8.5 -0.5t-5.5 11.5q-5 12 4 16q120 64 139 250z" />
<glyph unicode="&#x201e;" horiz-adv-x="649" d="M164 78l14 127q0 8 19 8q16 0 16 -8l-14 -127q-22 -207 -164 -277q-10 -5 -15 11q-3 8 -2 10.5t7 5.5q120 64 139 250zM442 78l15 127q0 8 18 8q17 0 17 -8l-15 -127q-22 -207 -164 -277q-6 -3 -8.5 -0.5t-5.5 11.5q-5 12 4 16q120 64 139 250z" />
<glyph unicode="&#x2022;" horiz-adv-x="641" d="M322 410q-66 0 -88.5 14.5t-22.5 64.5q0 14 4 54q9 87 33.5 111t101.5 24q64 0 86.5 -15.5t22.5 -64.5q0 -9 -4 -55q-7 -87 -31 -110t-102 -23z" />
<glyph unicode="&#x2026;" horiz-adv-x="1138" d="M147 0q-9 0 -12.5 0.5t-5.5 2.5t-2 7l16 158q0 12 23 12q14 0 18 -2.5t4 -9.5l-16 -158q0 -7 -5 -8.5t-20 -1.5zM528 0q-10 0 -14 0.5t-6 2.5t-2 7l16 158q0 12 23 12q14 0 18.5 -2.5t3.5 -9.5l-14 -158q-2 -10 -25 -10zM907 0h-10t-6.5 1t-4 3t0.5 6l14 158q2 12 25 12 q22 0 22 -12l-16 -158q0 -7 -5 -8.5t-20 -1.5z" />
<glyph unicode="&#x202f;" horiz-adv-x="342" />
<glyph unicode="&#x2039;" horiz-adv-x="546" d="M152 549q0 2 6 14l250 301q6 6 22 6q10 0 13 -2t-1 -8l-256 -311l191 -309q3 -6 -1 -8.5t-14 -2.5q-17 0 -22 7l-184 299q-4 6 -4 14z" />
<glyph unicode="&#x203a;" horiz-adv-x="546" d="M395 549q0 -2 -6 -14l-250 -302q-6 -6 -22 -6q-21 0 -13 11l256 311l-190 309q-3 6 0.5 8t13.5 2q19 0 23 -6l184 -299q4 -6 4 -14z" />
<glyph unicode="&#x205f;" horiz-adv-x="428" />
<glyph unicode="&#x20ac;" horiz-adv-x="1251" d="M682 537h-391v-58q0 -240 89.5 -346t287.5 -106q189 0 283 86t118 268q0 6 3.5 7t14.5 1q19 0 19 -8q-24 -197 -129 -294t-311 -97q-216 0 -315 117.5t-99 373.5v56h-154q-6 0 -7 2.5t1 11.5q0 11 1 14.5t7 3.5h154q1 25 10 113q6 56 15 113h-154q-6 0 -7 2.5t1 13.5 q3 16 8 16h158q50 282 169 410.5t334 128.5q205 0 298.5 -94.5t78.5 -276.5q0 -10 -18 -10q-19 0 -19 10q14 167 -69 250.5t-271 83.5q-199 0 -309 -118t-157 -384h503q9 0 6 -16q0 -11 -1 -13.5t-7 -2.5h-506q-7 -40 -14 -113q-8 -78 -10 -113h393q9 0 6 -18q0 -9 -2 -11.5 t-8 -2.5z" />
<glyph unicode="&#x2122;" horiz-adv-x="1540" d="M838 1356q18 0 20 -8l219 -617l348 617q2 8 21 8q14 0 18 -1t4 -7l-77 -736q0 -8 -17 -8q-14 0 -14 8l70 686l-336 -593q-6 -9 -21 -9q-13 0 -16 9l-217 600l-72 -693q0 -8 -16 -8q-15 0 -15 8l76 736q2 8 25 8zM666 1325h-226l-73 -713q0 -8 -17 -8q-16 0 -16 8l76 713 h-224q-6 0 -6 10v6q3 15 8 15h482q7 0 4 -15q0 -16 -8 -16z" />
<glyph unicode="&#x25fc;" horiz-adv-x="972" d="M0 973h973v-973h-973v973z" />
</font>
</defs>
</svg>
