<?xml version="1.0" standalone="no"?>
<!DOCTYPE svg PUBLIC "-//W3C//DTD SVG 1.1//EN" "http://www.w3.org/Graphics/SVG/1.1/DTD/svg11.dtd" >
<svg xmlns="http://www.w3.org/2000/svg">
<metadata></metadata>
<defs>
<font id="gibsonlight" horiz-adv-x="1146" >
<font-face units-per-em="2048" ascent="1638" descent="-410" />
<missing-glyph horiz-adv-x="409" />
<glyph unicode="ff" horiz-adv-x="983" d="M41 850v96h143v129q0 169 56 250q29 44 80 76.5t120 32.5q45 0 78.5 -5t43.5 -11l11 -5l-10 -92q-51 20 -102 20q-45 0 -77 -14.5t-49.5 -36.5t-27.5 -58t-13 -68.5t-3 -78.5v-139h385v129q0 170 55 250q29 43 80.5 76t120.5 33q45 0 78.5 -5t43.5 -11l11 -5l-10 -92 q-52 20 -103 20q-45 0 -77 -14.5t-49.5 -36.5t-27.5 -58t-13 -68.5t-3 -78.5v-139h242v-96h-242v-850h-106v850h-385v-850h-107v850h-143z" />
<glyph unicode="fi" horiz-adv-x="942" d="M41 850v96h143v129q0 169 56 250q29 44 80 76.5t120 32.5q45 0 78.5 -5t43.5 -11l11 -5l-10 -92q-51 20 -102 20q-45 0 -77 -14.5t-49.5 -36.5t-27.5 -58t-13 -68.5t-3 -78.5v-139h241v-96h-241v-850h-107v850h-143zM637 1288q0 37 25.5 62.5t62.5 25.5t62.5 -25.5 t25.5 -62.5t-25.5 -62.5t-62.5 -25.5t-62.5 25.5t-25.5 62.5zM672 0v950h108v-950h-108z" />
<glyph unicode="fl" horiz-adv-x="942" d="M41 850v96h143v129q0 169 56 250q29 44 80 76.5t120 32.5q45 0 78.5 -5t43.5 -11l11 -5l-10 -92q-51 20 -102 20q-45 0 -77 -14.5t-49.5 -36.5t-27.5 -58t-13 -68.5t-3 -78.5v-139h241v-96h-241v-850h-107v850h-143zM670 0v1413h108v-1413h-108z" />
<glyph unicode="ffi" horiz-adv-x="1417" d="M41 850v96h143v129q0 169 56 250q29 44 80 76.5t120 32.5q45 0 78.5 -5t43.5 -11l11 -5l-10 -92q-51 20 -102 20q-45 0 -77 -14.5t-49.5 -36.5t-27.5 -58t-13 -68.5t-3 -78.5v-139h385v129q0 170 55 250q29 43 80.5 76t120.5 33q45 0 78.5 -5t43.5 -11l11 -5l-10 -92 q-52 20 -103 20q-45 0 -77 -14.5t-49.5 -36.5t-27.5 -58t-13 -68.5t-3 -78.5v-139h242v-96h-242v-850h-106v850h-385v-850h-107v850h-143zM1112 1288q0 37 25.5 62.5t62.5 25.5t62.5 -25.5t25.5 -62.5t-25.5 -62.5t-62.5 -25.5t-62.5 25.5t-25.5 62.5zM1147 0v950h106v-950 h-106z" />
<glyph unicode="ffl" horiz-adv-x="1417" d="M41 850v96h143v129q0 169 56 250q29 44 80 76.5t120 32.5q45 0 78.5 -5t43.5 -11l11 -5l-10 -92q-51 20 -102 20q-45 0 -77 -14.5t-49.5 -36.5t-27.5 -58t-13 -68.5t-3 -78.5v-139h385v129q0 170 55 250q29 43 80.5 76t120.5 33q45 0 78.5 -5t43.5 -11l11 -5l-10 -92 q-52 20 -103 20q-45 0 -77 -14.5t-49.5 -36.5t-27.5 -58t-13 -68.5t-3 -78.5v-139h242v-96h-242v-850h-106v850h-385v-850h-107v850h-143zM1147 0v1413h106v-1413h-106z" />
<glyph unicode="fj" horiz-adv-x="925" d="M41 850v96h143v129q0 169 56 250q29 44 80 76.5t120 32.5q45 0 78.5 -5t43.5 -11l11 -5l-10 -92q-51 20 -102 20q-45 0 -77 -14.5t-49.5 -36.5t-27.5 -58t-13 -68.5t-3 -78.5v-139h241v-96h-241v-850h-107v850h-143zM403 -303q42 -14 93 -14q37 0 65 10.5t45 33.5 t27.5 46t15 62.5t5.5 68.5t1 76v970h107v-970q0 -185 -45 -263q-77 -127 -221 -127q-27 0 -50.5 4t-33.5 8l-9 3v92zM621 1288q0 37 25.5 62.5t62.5 25.5t62.5 -25.5t25.5 -62.5t-25.5 -62.5t-62.5 -25.5t-62.5 25.5t-25.5 62.5z" />
<glyph unicode="ft" horiz-adv-x="1064" d="M41 850v96h143v129q0 169 56 250q29 44 80 76.5t120 32.5q45 0 78.5 -5t43.5 -11l11 -5l-10 -92q-51 20 -102 20q-45 0 -77 -14.5t-49.5 -36.5t-27.5 -58t-13 -68.5t-3 -78.5v-139h385v303h108v-303h240v-96h-242v-545q0 -47 4.5 -81t17.5 -71t43 -57t75 -20 q27 0 52.5 6.5t37.5 13.5l12 6l10 -92q-51 -30 -143 -30q-123 0 -180 102q-23 44 -29 101.5t-6 185.5v481h-385v-850h-107v850h-143z" />
<glyph unicode=" "  horiz-adv-x="409" />
<glyph unicode="&#x09;" horiz-adv-x="409" />
<glyph unicode="&#xa0;" horiz-adv-x="409" />
<glyph unicode="!" horiz-adv-x="583" d="M195 76q0 43 27.5 70.5t68.5 27.5q43 0 70.5 -27.5t27.5 -70.5q0 -41 -27.5 -68.5t-70.5 -27.5q-41 0 -68.5 27.5t-27.5 68.5zM236 1413h112l-10 -1075h-92z" />
<glyph unicode="&#x22;" horiz-adv-x="819" d="M225 1413h111l-10 -389h-90zM483 1413h111l-12 -389h-88z" />
<glyph unicode="#" d="M72 485v99h237l47 321h-223v99h238l61 430h92l-61 -430h285l63 430h92l-63 -430h235v-99h-248l-47 -321h234v-99h-246l-61 -430h-93l62 430h-287l-61 -430h-92l61 430h-225zM401 584h287l47 321h-286z" />
<glyph unicode="$" d="M133 260l96 51q42 -109 128 -172t190 -63v614l-86 41q-60 29 -102.5 57.5t-82.5 70t-60.5 98.5t-20.5 128q0 144 99.5 239t252.5 110v159h96v-159q217 -18 324 -205l-82 -62q-38 76 -101.5 121t-140.5 53v-573l115 -55q56 -28 96.5 -56.5t79.5 -71t59.5 -101t20.5 -132.5 q0 -149 -109.5 -252.5t-261.5 -119.5v-175h-96v172q-139 1 -249.5 76.5t-164.5 206.5zM301 1085q0 -51 17.5 -92.5t51 -72.5t63.5 -50t73 -41l41 -20v532q-111 -12 -178.5 -81t-67.5 -175zM643 76q98 5 178 80.5t80 185.5q0 74 -26.5 128.5t-66 86.5t-101.5 61l-64 31v-573z " />
<glyph unicode="%" horiz-adv-x="1478" d="M92 1096q0 140 88.5 230.5t222.5 90.5q136 0 225 -90.5t89 -230.5q0 -142 -89 -233t-225 -91q-134 0 -222.5 91t-88.5 233zM188 1096q0 -104 60 -170t155 -66q96 0 155.5 65.5t59.5 170.5q0 103 -59.5 169t-155.5 66q-95 0 -155 -66t-60 -169zM266 0l871 1444l75 -47 l-870 -1444zM762 301q0 142 88.5 233t224.5 91q134 0 222.5 -91t88.5 -233q0 -140 -88.5 -230.5t-222.5 -90.5q-136 0 -224.5 90.5t-88.5 230.5zM860 301q0 -103 59.5 -169t155.5 -66q95 0 155 66t60 169q0 104 -60 170t-155 66q-96 0 -155.5 -65.5t-59.5 -170.5z" />
<glyph unicode="&#x26;" horiz-adv-x="1331" d="M82 358q0 49 11.5 94t29 80.5t48.5 70.5t60 61t74 56t79.5 50t86.5 49q-7 9 -43.5 53t-49.5 63.5t-36 59.5t-32 79t-9 83q0 119 85 198t228 79q142 0 225 -79t83 -198q0 -107 -78.5 -193.5t-214.5 -164.5l344 -406q37 42 93.5 141t80.5 162l102 -30q-19 -48 -88.5 -167.5 t-122.5 -181.5l273 -307v-10h-140l-198 236q-53 -60 -96.5 -100t-104.5 -80.5t-133.5 -60.5t-157.5 -20q-179 0 -289 104t-110 279zM199 369q0 -130 86.5 -213.5t220.5 -83.5q64 0 128 23.5t115 61.5t90 76.5t66 77.5l-368 437l-72 -41q-58 -34 -95.5 -60.5t-81.5 -68.5 t-66.5 -94.5t-22.5 -114.5zM414 1147q0 -29 8 -59.5t18.5 -52.5t29.5 -50.5t31 -42.5t34 -39.5t28 -32.5l31 19q34 21 54.5 34t55 41t54.5 53.5t35.5 62.5t15.5 77q0 89 -53.5 136.5t-141.5 47.5q-87 0 -143.5 -52t-56.5 -142z" />
<glyph unicode="'" horiz-adv-x="561" d="M225 1413h111l-10 -389h-90z" />
<glyph unicode="(" horiz-adv-x="512" d="M102 645q0 481 287 911l72 -40q-91 -137 -168.5 -381.5t-77.5 -489.5t77.5 -489t168.5 -381l-72 -41q-287 430 -287 911z" />
<glyph unicode=")" horiz-adv-x="512" d="M51 -225q91 137 168.5 381t77.5 489t-77.5 489.5t-168.5 381.5l72 40q287 -430 287 -911t-287 -911z" />
<glyph unicode="*" horiz-adv-x="1075" d="M174 1167l35 93l293 -119l-17 303h103l-15 -303l291 119l37 -93l-307 -98l199 -266l-82 -55l-174 280l-175 -280l-81 55l200 266z" />
<glyph unicode="+" horiz-adv-x="1320" d="M143 659v93h471v471h93v-471h471v-93h-471v-471h-93v471h-471z" />
<glyph unicode="," horiz-adv-x="583" d="M164 -287l123 451h123l-164 -451h-82z" />
<glyph unicode="-" horiz-adv-x="534" d="M43 518v103h449v-103h-449z" />
<glyph unicode="." horiz-adv-x="583" d="M195 76q0 43 27.5 70.5t68.5 27.5q43 0 70.5 -27.5t27.5 -70.5q0 -41 -27.5 -68.5t-70.5 -27.5q-41 0 -68.5 27.5t-27.5 68.5z" />
<glyph unicode="/" horiz-adv-x="1034" d="M45 -139l856 1751l88 -43l-856 -1751z" />
<glyph unicode="0" d="M61 705q0 141 31 268.5t91 232t160.5 166.5t229.5 62t230 -62t161 -166.5t90.5 -232t30.5 -268.5q0 -111 -18.5 -215t-59 -197.5t-99 -163.5t-145 -111t-190.5 -41t-190.5 41t-145 111t-99 163.5t-59 197.5t-18.5 215zM178 709q0 -186 44.5 -326.5t135 -221.5t215.5 -81 t215 81t134.5 221.5t44.5 326.5t-44.5 326.5t-134.5 221t-215 80.5t-215.5 -80.5t-135 -221t-44.5 -326.5z" />
<glyph unicode="1" horiz-adv-x="849" d="M123 1321v92h399v-1413h-108v1321h-291z" />
<glyph unicode="2" d="M123 1137q18 39 40 75t60 78t82.5 72.5t109.5 51t138 20.5q194 0 319 -114.5t125 -301.5q0 -51 -11.5 -102t-36.5 -98.5t-46.5 -83.5t-59 -78.5t-55 -62t-54.5 -55t-38 -36.5l-409 -400h768v-102h-901l-21 82l512 502q47 47 78.5 83t74 95t65 123t22.5 129 q0 141 -90.5 231t-241.5 90q-72 0 -133.5 -25t-103 -66.5t-67.5 -79.5t-44 -79z" />
<glyph unicode="3" d="M113 225l82 66q5 -9 15 -23t43.5 -51t70.5 -65t95 -51t118 -23q165 0 264.5 79.5t99.5 225.5q0 97 -46.5 167t-122 103t-169.5 33h-92v107h92q133 0 215 72t82 200q0 125 -89 197.5t-218 72.5q-77 0 -143.5 -27.5t-106 -61.5t-88.5 -89l-72 62q80 101 176.5 158t243.5 57 q109 0 201.5 -42t150.5 -125t58 -192q0 -64 -18 -118t-44.5 -88.5t-61.5 -61t-64.5 -39.5t-57.5 -20v-7q42 -6 88.5 -29t92.5 -63.5t76 -110.5t30 -155q0 -179 -135 -291t-347 -112q-58 0 -112 13.5t-95 35t-76.5 47.5t-60 52.5t-42 48t-25.5 35.5z" />
<glyph unicode="4" d="M51 328v82l737 1013h101v-993h217v-102h-217v-328h-109v328h-729zM174 430h606v830z" />
<glyph unicode="5" d="M92 215l82 61q42 -84 135.5 -142t222.5 -58q71 0 135.5 23t117.5 66.5t84.5 114.5t31.5 160t-31.5 160t-84.5 114.5t-117.5 66t-135.5 22.5q-73 0 -140.5 -19.5t-104.5 -56.5l-72 41l133 645h635v-98h-553l-98 -455q81 41 211 41q90 0 173.5 -31t150.5 -87.5t107 -145.5 t40 -197t-40.5 -197.5t-109.5 -147t-157 -89t-185 -31.5q-90 0 -168 25t-129 65t-83 77t-50 73z" />
<glyph unicode="6" d="M113 676q0 347 149 563q133 195 387 195q71 0 134.5 -15.5t104.5 -37.5t72 -44t44 -37l14 -16l-62 -76q-66 62 -139 97.5t-172 35.5q-104 0 -175.5 -40t-127.5 -123q-123 -186 -123 -553q49 115 146.5 188.5t252.5 73.5q114 0 213 -52.5t161.5 -154t62.5 -229.5 q0 -204 -124 -340t-327 -136q-282 0 -409 250q-82 161 -82 451zM260 432q0 -70 22 -133.5t63 -114t108 -80.5t151 -30q110 0 188.5 52t114 131.5t35.5 174.5q0 96 -35.5 175t-114 131.5t-188.5 52.5q-84 0 -151 -30t-108 -81t-63 -114.5t-22 -133.5z" />
<glyph unicode="7" d="M123 1315v98h932l30 -61l-716 -1352h-113l696 1315h-829z" />
<glyph unicode="8" d="M123 383q0 134 74 229.5t196 135.5v4q-33 14 -57.5 27t-58.5 41t-55.5 60t-37.5 84t-16 115q0 160 118.5 257.5t286.5 97.5t286 -97.5t118 -257.5q0 -63 -15.5 -114.5t-37.5 -84.5t-55.5 -60t-58.5 -40.5t-58 -27.5v-4q124 -39 198 -135t74 -230q0 -189 -124 -297.5 t-327 -108.5t-326.5 108.5t-123.5 297.5zM236 389q0 -142 97.5 -228.5t239.5 -86.5q143 0 240.5 86.5t97.5 228.5q0 144 -94.5 227.5t-243.5 83.5t-243 -83.5t-94 -227.5zM281 1067q0 -126 82 -197t210 -71t209.5 70.5t81.5 197.5t-81.5 197.5t-209.5 70.5t-210 -71 t-82 -197z" />
<glyph unicode="9" d="M92 958q0 204 124 340t327 136q282 0 409 -250q82 -161 82 -447q0 -181 -41 -326.5t-108 -242.5q-135 -193 -379 -193q-241 0 -389 148l61 76q138 -127 328 -127q105 0 173 37.5t124 119.5q123 186 123 559q-22 -53 -55 -98t-80.5 -84t-115.5 -61.5t-149 -22.5 q-114 0 -212 52.5t-160 154t-62 229.5zM205 979q0 -71 21 -134t61 -113.5t106 -80.5t150 -30q110 0 189.5 52t116 131.5t36.5 174.5t-36.5 174.5t-116 131.5t-189.5 52q-84 0 -150 -30t-106 -80.5t-61 -113.5t-21 -134z" />
<glyph unicode=":" horiz-adv-x="583" d="M195 76q0 43 27.5 70.5t68.5 27.5q43 0 70.5 -27.5t27.5 -70.5q0 -41 -27.5 -68.5t-70.5 -27.5q-41 0 -68.5 27.5t-27.5 68.5zM195 864q0 43 27.5 71t68.5 28q43 0 70.5 -28t27.5 -71q0 -41 -27.5 -68.5t-70.5 -27.5q-41 0 -68.5 27.5t-27.5 68.5z" />
<glyph unicode=";" horiz-adv-x="583" d="M164 -287l123 451h123l-164 -451h-82zM195 864q0 43 27.5 71t68.5 28q43 0 70.5 -28t27.5 -71q0 -41 -27.5 -68.5t-70.5 -27.5q-41 0 -68.5 27.5t-27.5 68.5z" />
<glyph unicode="&#x3c;" horiz-adv-x="1320" d="M143 655v103l1035 481v-102l-932 -430l932 -431v-102z" />
<glyph unicode="=" horiz-adv-x="1320" d="M143 502v92h1035v-92h-1035zM143 819v92h1035v-92h-1035z" />
<glyph unicode="&#x3e;" horiz-adv-x="1320" d="M143 174v102l932 431l-932 430v102l1035 -481v-103z" />
<glyph unicode="?" horiz-adv-x="952" d="M137 1219q14 33 37 65t63 68.5t104.5 59t143.5 22.5q162 0 258.5 -94t96.5 -224q0 -56 -12.5 -103t-41.5 -89t-50.5 -66.5t-65.5 -68.5l-11 -11q-77 -77 -95 -101q-49 -66 -52 -165l-6 -174h-92l-4 154q-2 65 10.5 118t40 94t47.5 62t55 53q34 32 44 41t40.5 43.5 t42.5 58.5t24.5 63.5t12.5 80.5q0 105 -71 167t-181 62q-99 0 -164.5 -49t-91.5 -119zM362 76q0 43 28 70.5t71 27.5q41 0 68.5 -27.5t27.5 -70.5q0 -41 -27.5 -68.5t-68.5 -27.5q-43 0 -71 27.5t-28 68.5z" />
<glyph unicode="@" horiz-adv-x="1638" d="M86 430q0 168 65 315t172.5 247.5t247.5 158t289 57.5q196 0 355 -80.5t248 -221t89 -312.5q0 -126 -43.5 -239t-112.5 -189.5t-153 -121t-166 -44.5q-148 0 -166 133q-133 -133 -276 -133q-25 0 -52 7t-60.5 28t-59 53t-43 89t-17.5 130q0 130 60.5 264.5t173.5 229 t244 94.5q52 0 95.5 -11.5t68.5 -28.5t43 -33.5t25 -27.5l7 -12l27 72h106l-198 -578q-25 -77 -25 -110q0 -70 76 -70q58 0 119.5 38t112.5 102.5t83.5 159.5t32.5 198q0 107 -43 202.5t-119.5 166t-188.5 112t-243 41.5q-178 0 -331.5 -87t-247 -246t-93.5 -353 q0 -147 46.5 -270.5t128 -207.5t194 -130.5t242.5 -46.5q98 0 192 17.5t158 41.5t118.5 52t80 46t34.5 27l43 -70q-12 -12 -34.5 -29.5t-80 -51t-124.5 -59.5t-171 -46t-216 -20q-149 0 -279.5 52.5t-226.5 147.5t-151.5 236.5t-55.5 310.5zM512 317q0 -68 16.5 -115 t43.5 -68.5t52 -29.5t52 -8q21 0 47.5 6.5t63 26t70 49.5t67.5 83t57 120l104 305q-2 5 -5.5 13t-19.5 28t-37.5 35.5t-63 28t-91.5 12.5q-78 0 -147 -48.5t-113 -122t-70 -157t-26 -158.5z" />
<glyph unicode="A" horiz-adv-x="1290" d="M10 0l604 1417h62l604 -1417h-129l-174 424h-674l-176 -424h-117zM344 526h590l-295 723z" />
<glyph unicode="B" horiz-adv-x="1150" d="M174 0v1413h311q117 0 194 -14.5t134 -57.5q66 -49 99.5 -114.5t33.5 -167.5q0 -107 -63.5 -194t-159.5 -115q153 -25 242.5 -116.5t89.5 -234.5q0 -184 -150 -307q-62 -52 -143 -72t-209 -20h-379zM285 100h231q65 0 107 2.5t97 16t93 39.5q123 85 123 235q0 80 -30 134 t-93 98q-55 37 -127 48t-170 11h-231v-584zM285 782h190q175 0 246 52q51 36 82 87t31 134q0 154 -113 215q-76 43 -225 43h-211v-531z" />
<glyph unicode="C" horiz-adv-x="1382" d="M86 705q0 158 55.5 294.5t151 231.5t227 149t279.5 54q307 0 512 -205l-72 -82q-60 76 -178 131t-262 55q-262 0 -428 -174t-166 -450q0 -277 166.5 -453t427.5 -176q282 0 450 186l72 -71q-199 -220 -522 -220q-203 0 -365.5 92t-255 259t-92.5 379z" />
<glyph unicode="D" horiz-adv-x="1382" d="M174 0v1413h389q169 0 302.5 -57t213.5 -137q215 -215 215 -512t-215 -512q-81 -81 -214 -138t-302 -57h-389zM285 100h268q139 0 248 41t182 109q197 184 197 457q0 270 -197 454q-73 68 -182.5 110t-247.5 42h-268v-1213z" />
<glyph unicode="E" horiz-adv-x="1054" d="M174 0v1413h768v-100h-657v-512h620v-101h-620v-600h671v-100h-782z" />
<glyph unicode="F" horiz-adv-x="972" d="M174 0v1413h717v-100h-606v-555h569v-101h-569v-657h-111z" />
<glyph unicode="G" horiz-adv-x="1536" d="M86 707q0 155 54 290.5t148 231t225 150.5t280 55q100 0 190 -21t145 -46.5t109.5 -67t73 -61t45.5 -50.5l-76 -82q-87 105 -203 166t-284 61q-124 0 -232 -43.5t-187 -123t-124 -198t-45 -261.5q0 -190 81 -334t217 -218.5t306 -74.5q95 0 177.5 16t133 39t87.5 46 t52 39l15 16v382h-434v101h542v-524q-4 -5 -11 -12.5t-33 -30.5t-56.5 -44t-81 -46t-106.5 -43.5t-133.5 -31t-161.5 -12.5q-202 0 -365.5 95t-255.5 262.5t-92 374.5z" />
<glyph unicode="H" horiz-adv-x="1443" d="M174 0v1413h111v-606h874v606h111v-1413h-111v707h-874v-707h-111z" />
<glyph unicode="I" horiz-adv-x="458" d="M174 0v1413h111v-1413h-111z" />
<glyph unicode="J" horiz-adv-x="458" d="M-88 -307q39 -17 108 -17q35 0 61 11t42.5 34t27 48.5t15.5 64t6.5 70t1.5 76.5v1433h111v-1423q0 -199 -49 -287q-28 -51 -81.5 -87t-123.5 -36q-32 0 -62 5t-43 11l-14 5v92z" />
<glyph unicode="K" horiz-adv-x="1116" d="M174 0v1413h111v-661l667 661h144l-570 -553l611 -860h-140l-546 788l-166 -163v-625h-111z" />
<glyph unicode="L" horiz-adv-x="808" d="M174 0v1413h111v-1313h503v-100h-614z" />
<glyph unicode="M" horiz-adv-x="1720" d="M102 0l144 1413h127l485 -1206l488 1206h129l143 -1413h-111l-121 1227l-522 -1252h-10l-524 1254l-117 -1229h-111z" />
<glyph unicode="N" horiz-adv-x="1501" d="M174 0v1413h111l932 -1218v1218h110v-1413h-100l-942 1239v-1239h-111z" />
<glyph unicode="O" horiz-adv-x="1607" d="M86 705q0 132 37.5 248.5t104.5 203.5t157 150t196.5 95t221.5 32q144 0 274 -51t228.5 -143.5t156.5 -231t58 -303.5t-58 -303.5t-156 -231t-228.5 -144t-274.5 -51.5q-115 0 -221.5 32t-196.5 95.5t-157 150.5t-104.5 203.5t-37.5 248.5zM203 707q0 -143 49 -263 t131.5 -198.5t191 -122t228.5 -43.5q122 0 231 43.5t191.5 122t131 198.5t48.5 263q0 144 -48.5 264t-131 199t-191.5 122t-231 43q-121 0 -229.5 -43t-191 -121.5t-131 -198.5t-48.5 -265z" />
<glyph unicode="P" horiz-adv-x="1024" d="M174 0v1413h324q213 0 325 -98q129 -113 129 -279q0 -165 -129 -278q-113 -99 -325 -99h-213v-659h-111zM285 760h217q147 0 235 63q44 33 71.5 88.5t27.5 124.5q0 70 -27.5 125t-71.5 88q-89 64 -235 64h-217v-553z" />
<glyph unicode="Q" horiz-adv-x="1607" d="M86 705q0 132 37.5 248.5t104.5 203.5t157 150t196.5 95t221.5 32q144 0 274 -51t228.5 -143.5t156.5 -231t58 -303.5q0 -167 -58.5 -305t-163.5 -236l160 -184l-80 -70l-161 188q-183 -123 -414 -123q-115 0 -221.5 32t-196.5 95.5t-157 150.5t-104.5 203.5t-37.5 248.5 zM203 707q0 -143 49 -263t131.5 -198.5t191 -122t228.5 -43.5q194 0 342 100l-135 158l80 70l137 -160q84 82 131 199t47 260q0 144 -48.5 264t-131 199t-191.5 122t-231 43q-121 0 -229.5 -43t-191 -121.5t-131 -198.5t-48.5 -265z" />
<glyph unicode="R" horiz-adv-x="1024" d="M174 0v1413h328q201 0 320.5 -101.5t119.5 -277.5q0 -85 -29 -153.5t-79 -113t-110 -71t-130 -37.5l430 -659h-141l-418 655h-180v-655h-111zM285 756h155q70 0 109 2.5t87.5 15.5t84.5 39q104 76 104 221q0 146 -104 219q-52 39 -115 49.5t-166 10.5h-155v-557z" />
<glyph unicode="S" horiz-adv-x="1069" d="M92 229l86 62q46 -85 139.5 -152t217.5 -67q140 0 234.5 81t94.5 216q0 51 -20 95t-46.5 71.5t-67 53t-67 37.5t-61.5 26q-5 2 -8 3q-164 66 -232 103q-204 115 -204 327q0 153 117.5 251t297.5 98q82 0 154.5 -25t117 -61.5t66.5 -60t31 -38.5l-78 -67q-24 31 -47 53.5 t-59.5 47.5t-85.5 38.5t-107 13.5q-128 0 -211.5 -64.5t-83.5 -180.5q0 -57 17.5 -102t51.5 -76t65.5 -50.5t76.5 -38.5q275 -118 291 -127q19 -10 35 -20.5t50.5 -40.5t58 -63.5t42.5 -87.5t19 -115q0 -165 -126 -279.5t-327 -114.5q-78 0 -147.5 21.5t-114.5 50.5 t-83.5 68.5t-56 64.5t-30.5 49z" />
<glyph unicode="T" horiz-adv-x="991" d="M20 1313v100h951v-100h-420v-1313h-111v1313h-420z" />
<glyph unicode="U" horiz-adv-x="1331" d="M164 569v844h110v-854q0 -52 1.5 -85.5t8 -82t22 -89.5t40.5 -75q110 -149 320 -149q209 0 319 149q25 34 40.5 75t22 89.5t8 82t1.5 85.5v854h110v-844q0 -147 -18 -242.5t-82 -176.5q-140 -175 -401 -175q-262 0 -402 175q-64 81 -82 176.5t-18 242.5z" />
<glyph unicode="V" horiz-adv-x="1136" d="M10 1413h121l440 -1229l441 1229h114l-516 -1415h-86z" />
<glyph unicode="W" horiz-adv-x="1857" d="M20 1413h117l355 -1225l378 1225h117l379 -1225l354 1225h117l-414 -1415h-102l-393 1255l-391 -1255h-103z" />
<glyph unicode="X" horiz-adv-x="1089" d="M10 0l465 727l-430 686h129l371 -610l370 610h129l-430 -686l465 -727h-133l-401 649l-402 -649h-133z" />
<glyph unicode="Y" horiz-adv-x="1116" d="M10 1413h127l420 -706l420 706h129l-494 -809v-604h-110v604z" />
<glyph unicode="Z" horiz-adv-x="1095" d="M61 0v92l824 1221h-801v100h950v-74l-839 -1239h849v-100h-983z" />
<glyph unicode="[" horiz-adv-x="512" d="M102 -272v1828h328v-88h-221v-1652h221v-88h-328z" />
<glyph unicode="\" horiz-adv-x="1024" d="M41 1583l86 45l856 -1608l-88 -45z" />
<glyph unicode="]" horiz-adv-x="512" d="M102 -184h220v1652h-220v88h328v-1828h-328v88z" />
<glyph unicode="^" horiz-adv-x="1320" d="M240 614l368 799h103l368 -799h-102l-318 697l-317 -697h-102z" />
<glyph unicode="_" horiz-adv-x="1024" d="M0 49h1024v-100h-1024v100z" />
<glyph unicode="`" horiz-adv-x="573" d="M123 1413h133l195 -297h-93z" />
<glyph unicode="a" horiz-adv-x="942" d="M61 266q0 127 96 203.5t283 83.5l260 10v51q0 126 -74 193t-192 67q-95 0 -173.5 -29t-106.5 -52l-41 77q144 97 317 97q187 0 287 -107q46 -51 69 -116.5t23 -180.5v-563h-109v133q-131 -153 -321 -153q-138 0 -228 81.5t-90 204.5zM168 266q0 -82 60.5 -138t170.5 -56 q104 0 181 53t120 121v235l-270 -16q-140 -7 -201 -61t-61 -138z" />
<glyph unicode="b" horiz-adv-x="1177" d="M164 0v1413h106v-645q128 199 359 199q210 0 338.5 -138.5t128.5 -353.5q0 -214 -129.5 -354.5t-341.5 -140.5q-112 0 -204.5 49.5t-150.5 150.5v-180h-106zM266 475q0 -171 96 -285t263 -114q166 0 262 114t96 285q0 172 -96 285.5t-262 113.5q-168 0 -263.5 -113.5 t-95.5 -285.5z" />
<glyph unicode="c" horiz-adv-x="962" d="M82 475q0 142 66.5 256t175 175t233.5 61q71 0 134 -15t101 -34t72 -46.5t45.5 -40.5t22.5 -28l-68 -72q-22 26 -41 43t-57.5 42.5t-92.5 39.5t-120 14q-147 0 -252.5 -108.5t-105.5 -280.5q0 -178 100.5 -291.5t261.5 -113.5q60 0 115 14.5t90 35t61.5 40.5t38.5 34 l12 15l62 -72q-18 -22 -29.5 -34t-48 -40t-74.5 -44.5t-101.5 -30.5t-135.5 -14q-195 0 -330 140t-135 355z" />
<glyph unicode="d" horiz-adv-x="1177" d="M82 475q0 215 128.5 353.5t338.5 138.5q227 0 356 -195v641h109v-1413h-109v176q-58 -98 -149.5 -147t-202.5 -49q-212 0 -341.5 140.5t-129.5 354.5zM195 475q0 -171 96 -285t262 -114q167 0 262.5 114t95.5 285q0 172 -95 285.5t-263 113.5q-166 0 -262 -113.5 t-96 -285.5z" />
<glyph unicode="e" horiz-adv-x="1044" d="M82 475q0 107 36.5 200t99 156.5t147 99.5t178.5 36q187 0 308.5 -126.5t121.5 -318.5l-6 -71h-772q8 -172 100.5 -273.5t251.5 -101.5q60 0 116.5 12.5t94.5 31t67 36.5t43 30l13 13l51 -76q-5 -6 -14.5 -15.5t-45 -34t-77 -43.5t-111.5 -34.5t-147 -15.5 q-205 0 -330 137.5t-125 357.5zM199 543h665q0 39 -11 82t-36.5 87.5t-62 80.5t-93 58.5t-124.5 22.5t-125 -22t-94.5 -56.5t-64.5 -79t-39.5 -88t-14.5 -85.5z" />
<glyph unicode="f" horiz-adv-x="491" d="M41 850v96h143v129q0 169 56 250q29 44 80 76.5t120 32.5q45 0 78.5 -5t43.5 -11l11 -5l-10 -92q-51 20 -102 20q-45 0 -77 -14.5t-49.5 -36.5t-27.5 -58t-13 -68.5t-3 -78.5v-139h241v-96h-241v-850h-107v850h-143z" />
<glyph unicode="g" horiz-adv-x="1167" d="M82 483q0 144 64.5 256t169.5 170t231 58q123 0 215.5 -54t142.5 -143v180h109v-745q0 -156 -19 -251t-59 -159q-128 -205 -410 -205q-69 0 -135.5 15t-112 36t-81.5 42t-53 36l-17 15l61 82q46 -46 145 -87.5t204 -41.5t177 36.5t109 86.5q82 114 82 323v70 q-116 -203 -358 -203q-126 0 -231 58t-169.5 169.5t-64.5 255.5zM195 485q0 -169 94 -279t264 -110t264 110t94 279q0 110 -39.5 196t-122 138.5t-196.5 52.5t-196.5 -52.5t-122 -138.5t-39.5 -196z" />
<glyph unicode="h" horiz-adv-x="1067" d="M164 0v1413h106v-639q35 85 120.5 139t187.5 54q99 0 166.5 -30t103.5 -87t50.5 -124.5t14.5 -158.5v-567h-108v563q0 52 -4 92t-18.5 83.5t-39 71.5t-68 46t-102.5 18q-99 0 -169 -54.5t-102 -144t-32 -204.5v-471h-106z" />
<glyph unicode="i" horiz-adv-x="434" d="M129 1288q0 37 25.5 62.5t62.5 25.5t62.5 -25.5t25.5 -62.5t-25.5 -62.5t-62.5 -25.5t-62.5 25.5t-25.5 62.5zM164 0v950h106v-950h-106z" />
<glyph unicode="j" horiz-adv-x="434" d="M-88 -303q41 -14 92 -14q37 0 65 10.5t45 33t27.5 46.5t15 62.5t6 68t1.5 76.5v970h106v-970q0 -185 -45 -263q-77 -127 -221 -127q-27 0 -50 4t-32 8l-10 3v92zM129 1288q0 37 25.5 62.5t62.5 25.5t62.5 -25.5t25.5 -62.5t-25.5 -62.5t-62.5 -25.5t-62.5 25.5 t-25.5 62.5z" />
<glyph unicode="k" horiz-adv-x="911" d="M164 0v1413h106v-891l457 428h133l-389 -362l451 -588h-134l-389 522l-129 -119v-403h-106z" />
<glyph unicode="l" horiz-adv-x="434" d="M164 0v1413h106v-1413h-106z" />
<glyph unicode="m" horiz-adv-x="1591" d="M154 0v950h106v-176q30 80 112 136.5t175 56.5q216 0 282 -199q46 93 126 146t175 53q318 0 318 -389v-578h-107v578q0 296 -204 296q-132 0 -207.5 -109.5t-75.5 -268.5v-496h-106v578q0 64 -9.5 114.5t-31.5 93t-63.5 65.5t-100.5 23q-132 0 -207.5 -109.5 t-75.5 -268.5v-496h-106z" />
<glyph unicode="n" horiz-adv-x="1046" d="M154 0v950h106v-176q36 85 120.5 139t186.5 54q99 0 167 -30t103.5 -87t50.5 -124.5t15 -158.5v-567h-108v563q0 52 -4 92t-18.5 83.5t-39 71.5t-68 46t-102.5 18q-99 0 -169 -54.5t-102 -144t-32 -204.5v-471h-106z" />
<glyph unicode="o" horiz-adv-x="1136" d="M82 471q0 213 140.5 354.5t344.5 141.5q206 0 347 -141.5t141 -354.5t-141 -352t-347 -139q-134 0 -244.5 62t-175.5 175t-65 254zM195 475q0 -169 102.5 -284t269.5 -115q169 0 272 115t103 284q0 170 -103 284.5t-272 114.5q-168 0 -270 -114.5t-102 -284.5z" />
<glyph unicode="p" horiz-adv-x="1177" d="M164 -389v1339h106v-184q59 99 152 150t203 51q215 0 343 -140t128 -356q0 -215 -128.5 -353t-338.5 -138q-232 0 -359 198v-567h-106zM266 471q0 -170 96 -282.5t263 -112.5t262.5 111.5t95.5 283.5q0 171 -96 287t-262 116q-168 0 -263.5 -114.5t-95.5 -288.5z" />
<glyph unicode="q" horiz-adv-x="1167" d="M82 471q0 216 128 356t343 140q110 0 202.5 -51t151.5 -150v184h107v-1339h-107v567q-125 -198 -358 -198q-138 0 -245.5 65t-164.5 176.5t-57 249.5zM195 471q0 -172 95.5 -283.5t262.5 -111.5t262.5 112.5t95.5 282.5q0 113 -40.5 203.5t-123 145t-194.5 54.5 q-114 0 -196.5 -55.5t-122 -145.5t-39.5 -202z" />
<glyph unicode="r" horiz-adv-x="614" d="M154 0v950h106v-178q25 93 93 144t149 51q27 0 52.5 -3.5t37.5 -7.5l12 -4l-10 -104q-46 16 -102 16q-60 0 -102 -28.5t-62 -57.5q-68 -98 -68 -266v-512h-106z" />
<glyph unicode="s" horiz-adv-x="798" d="M51 164l76 61q101 -149 274 -149q96 0 160 46t64 134q0 22 -8 42.5t-19 35.5t-31.5 30t-36 24.5t-42 20.5t-41 16.5t-41 14t-33.5 11.5q-27 9 -41 14.5t-45.5 20t-51 27t-45.5 34t-40.5 44.5t-25.5 55t-11 67q0 82 44 141.5t107.5 86t136.5 26.5q100 0 170 -33t129 -100 l-65 -66q-52 56 -106.5 82.5t-131.5 26.5q-82 0 -132 -40t-50 -112q0 -35 16.5 -63t50.5 -50t67 -36.5t85 -32.5q41 -14 64.5 -23t64.5 -28t65.5 -39t51 -48t39 -65t12.5 -80q0 -128 -97.5 -204t-236.5 -76q-123 0 -210 51.5t-136 132.5z" />
<glyph unicode="t" horiz-adv-x="573" d="M41 850v96h143v303h109v-303h239v-96h-241v-545q0 -37 2 -64.5t10.5 -60.5t22.5 -54t40.5 -35.5t63.5 -14.5q27 0 52.5 6.5t37.5 13.5l12 6l11 -92q-52 -30 -144 -30q-123 0 -180 102q-23 44 -29 101.5t-6 185.5v481h-143z" />
<glyph unicode="u" horiz-adv-x="1038" d="M143 385v565h107v-581q0 -49 4 -86.5t18.5 -79t39 -68.5t69 -45t104.5 -18q76 0 134 31t92 84.5t50.5 117t16.5 135.5v510h107v-950h-107v154q-45 -84 -125.5 -129t-181.5 -45q-174 0 -256 106q-72 93 -72 299z" />
<glyph unicode="v" horiz-adv-x="901" d="M10 950h113l328 -796l327 796h113l-399 -950h-82z" />
<glyph unicode="w" horiz-adv-x="1474" d="M31 950h112l256 -796l297 798h82l297 -798l256 796h113l-318 -950h-92l-297 799l-297 -799h-92z" />
<glyph unicode="x" horiz-adv-x="921" d="M10 0l389 502l-344 448h119l287 -383l287 383h116l-342 -448l389 -502h-123l-327 434l-328 -434h-123z" />
<glyph unicode="y" horiz-adv-x="890" d="M10 950h113l328 -827l327 827h113l-481 -1171q-24 -56 -51 -94t-56 -55t-53 -23t-53 -6t-58 6t-43 12l-14 6l20 103q38 -21 95 -21q47 0 78 29.5t63 120.5l55 157z" />
<glyph unicode="z" horiz-adv-x="880" d="M51 0v76l608 774h-577v96h717v-76l-611 -774h641v-96h-778z" />
<glyph unicode="{" horiz-adv-x="512" d="M31 588v108q133 0 133 174v379q0 82 10 135.5t36 94t75 59t125 18.5h30v-88h-30q-77 0 -108.5 -30.5t-31.5 -106.5v-430q0 -90 -16 -142t-43 -74.5t-78 -39.5v-6q51 -17 78 -39.5t43 -74.5t16 -142v-430q0 -76 31.5 -106.5t108.5 -30.5h30v-88h-30q-76 0 -125 18.5 t-75 59t-36 94t-10 135.5v379q0 174 -133 174z" />
<glyph unicode="|" horiz-adv-x="512" d="M209 -205v1843h92v-1843h-92z" />
<glyph unicode="}" horiz-adv-x="512" d="M72 -184h30q77 0 107.5 30.5t30.5 106.5v430q0 68 8 113t27.5 73t42.5 42.5t61 27.5v6q-38 13 -61 27.5t-42.5 42.5t-27.5 73t-8 113v430q0 76 -30.5 106.5t-107.5 30.5h-30v88h30q76 0 125 -18.5t75 -59t36 -94t10 -135.5v-379q0 -174 133 -174v-108q-133 0 -133 -174 v-379q0 -82 -10 -135.5t-36 -94t-75 -59t-125 -18.5h-30v88z" />
<glyph unicode="~" horiz-adv-x="1320" d="M164 492q110 204 276 204q38 0 83.5 -13t75.5 -27t77 -38q7 -3 35 -17t37.5 -18.5t33 -14.5t37 -14t32 -7.5t34.5 -3.5q110 0 194 153l78 -51q-115 -205 -276 -205q-38 0 -84.5 13.5t-73 25.5t-78.5 37q-4 2 -30 15.5t-32.5 16.5t-28.5 13.5t-32 14t-28 9t-32 7.5t-28 2 q-106 0 -194 -154z" />
<glyph unicode="&#xa1;" horiz-adv-x="583" d="M195 872q0 43 27.5 71t68.5 28q43 0 70.5 -28t27.5 -71q0 -41 -27.5 -68.5t-70.5 -27.5q-41 0 -68.5 27.5t-27.5 68.5zM236 -463l10 1075h92l10 -1075h-112z" />
<glyph unicode="&#xa2;" d="M143 625q0 192 118.5 330t305.5 161v195h92v-193q110 -3 204.5 -47t133.5 -94l-55 -76q-37 43 -113.5 81.5t-169.5 41.5v-793q84 3 168 39.5t125 81.5l52 -76q-53 -53 -151 -98t-194 -45v-194h-92v198q-186 15 -305 154.5t-119 333.5zM254 627q0 -150 87.5 -263 t225.5 -128v786q-138 -17 -225.5 -131t-87.5 -264z" />
<glyph unicode="&#xa3;" d="M133 0v102h236q39 62 65.5 151t26.5 157q0 41 -5.5 84.5t-10.5 66.5l-5 23h-245v92h219l-56 143q-61 151 -61 266q0 144 102 246q103 103 267 103q239 0 338 -185l-82 -61q-7 14 -13 24.5t-28.5 37t-48 44t-70 32.5t-96.5 15q-66 0 -117 -22t-80.5 -58.5t-44 -78.5 t-14.5 -86q0 -78 14.5 -138t46.5 -139l55 -143h314v-92h-287q20 -82 20 -174q0 -68 -26.5 -157t-65.5 -151h563v-102h-911z" />
<glyph unicode="&#xa4;" d="M51 539v96h135q-2 49 -2 80l2 80h-135v96h144q30 236 162.5 389.5t326.5 153.5q75 0 140 -19t102 -40.5t71 -55t41 -44t17 -26.5l-72 -71q-53 73 -124 115t-179 42q-61 0 -117.5 -25.5t-107.5 -77t-89 -139t-55 -202.5h590v-96h-598q-2 -49 -2 -80l2 -80h598v-96h-590 q27 -218 127 -337.5t248 -119.5q55 0 105 14.5t81.5 33.5t60 45.5t39.5 41t21 29.5l72 -62q-6 -13 -17.5 -30t-44 -51.5t-72 -60.5t-105 -46.5t-140.5 -20.5q-198 0 -330 153t-161 411h-144z" />
<glyph unicode="&#xa5;" d="M51 1413h127l395 -696l394 696h129l-359 -614h256v-94h-307l-55 -95v-78h362v-96h-362v-436h-117v436h-360v96h360v78l-53 95h-307v94h256z" />
<glyph unicode="&#xa6;" horiz-adv-x="512" d="M209 0v635h92v-635h-92zM209 1004v634h92v-634h-92z" />
<glyph unicode="&#xa7;" d="M184 -154l92 41q37 -103 115 -153.5t182 -50.5q106 0 176 57.5t70 167.5q0 45 -15.5 83.5t-40.5 66.5t-64.5 54t-77 44t-89.5 39q-317 126 -317 352q0 54 18 102.5t43.5 81t58 59t58.5 40t47 20.5q-7 4 -18.5 11t-40.5 33t-51.5 55.5t-41 77t-18.5 99.5q0 137 93.5 222.5 t240.5 85.5q140 0 229.5 -60.5t129.5 -165.5l-82 -51q-78 189 -277 189q-102 0 -163.5 -55.5t-61.5 -153.5q0 -92 66.5 -153.5t189.5 -113.5q50 -21 87.5 -41t81.5 -52t72 -68t47 -87t19 -110q0 -42 -12 -80.5t-31 -67t-42 -53.5t-45.5 -41.5t-41.5 -28t-31 -17.5l-12 -5 q86 -46 142.5 -124.5t56.5 -182.5q0 -140 -104 -231t-259 -91q-149 0 -244 68t-135 188zM322 553q0 -43 14 -79t40 -61.5t46 -40t49 -30.5q26 -15 69.5 -35.5t73.5 -33.5l31 -13q189 67 189 256q0 42 -14 77.5t-39 61t-46 41t-49 31.5q-26 15 -69.5 35.5t-74.5 33.5l-30 13 q-92 -31 -141 -97t-49 -159z" />
<glyph unicode="&#xa8;" horiz-adv-x="573" d="M61 1264q0 41 25.5 66.5t60.5 25.5q37 0 63 -25.5t26 -66.5q0 -40 -26.5 -66.5t-62.5 -26.5q-35 0 -60.5 26.5t-25.5 66.5zM338 1264q0 41 25.5 66.5t60.5 25.5q37 0 62.5 -25.5t25.5 -66.5q0 -40 -26 -66.5t-62 -26.5q-35 0 -60.5 26.5t-25.5 66.5z" />
<glyph unicode="&#xa9;" horiz-adv-x="1638" d="M90 707q0 150 57 285.5t154 232.5t232.5 154t285.5 57t285.5 -57t232.5 -154t154 -232.5t57 -285.5t-57 -285.5t-154 -233t-232.5 -154.5t-285.5 -57t-285.5 57t-232.5 154.5t-154 233t-57 285.5zM178 707q0 -129 51.5 -247.5t137.5 -204.5t204.5 -137.5t247.5 -51.5 t247.5 51.5t204.5 137.5t137.5 204.5t51.5 247.5t-51.5 247.5t-137.5 204.5t-204.5 137.5t-247.5 51.5t-247.5 -51.5t-204.5 -137.5t-137.5 -204.5t-51.5 -247.5zM430 707q0 187 120.5 309.5t297.5 122.5q107 0 187.5 -35.5t123.5 -85.5l-57 -74q-34 43 -99.5 76t-148.5 33 q-134 0 -225.5 -92t-91.5 -250q0 -159 89 -251.5t228 -92.5q157 0 256 102l59 -63q-44 -53 -126 -92.5t-195 -39.5q-177 0 -297.5 123t-120.5 310z" />
<glyph unicode="&#xaa;" horiz-adv-x="686" d="M61 543q0 87 63 129t167 45l176 4v16q0 75 -47.5 114.5t-118.5 39.5q-56 0 -105.5 -19t-62.5 -32l-41 61q35 26 93 46t122 20q129 0 195 -66q32 -32 46.5 -76t14.5 -118v-334h-96v78q-26 -30 -82.5 -59.5t-118.5 -29.5q-36 0 -71 11.5t-65.5 32.5t-49.5 57t-19 80z M168 547q0 -50 34.5 -78.5t98.5 -28.5q40 0 78.5 17.5t57 33.5t30.5 31v133l-160 -6q-64 -2 -101.5 -27.5t-37.5 -74.5z" />
<glyph unicode="&#xab;" horiz-adv-x="890" d="M100 475l289 381l74 -57l-244 -324l246 -325l-76 -56zM393 475l289 381l74 -57l-244 -324l246 -325l-76 -56z" />
<glyph unicode="&#xac;" horiz-adv-x="1325" d="M143 819v92h1035v-563h-93v471h-942z" />
<glyph unicode="&#xad;" horiz-adv-x="534" d="M43 518v103h449v-103h-449z" />
<glyph unicode="&#xae;" horiz-adv-x="1638" d="M90 707q0 150 57 285.5t154 232.5t232.5 154t285.5 57t285.5 -57t232.5 -154t154 -232.5t57 -285.5t-57 -285.5t-154 -233t-232.5 -154.5t-285.5 -57t-285.5 57t-232.5 154.5t-154 233t-57 285.5zM178 707q0 -129 51.5 -247.5t137.5 -204.5t204.5 -137.5t247.5 -51.5 t247.5 51.5t204.5 137.5t137.5 204.5t51.5 247.5t-51.5 247.5t-137.5 204.5t-204.5 137.5t-247.5 51.5t-247.5 -51.5t-204.5 -137.5t-137.5 -204.5t-51.5 -247.5zM567 289v835h238q128 0 205 -61.5t77 -175.5q0 -55 -18 -98.5t-48.5 -69.5t-62 -40.5t-65.5 -21.5l237 -368 h-126l-220 358h-116v-358h-101zM668 735h123q188 0 188 152q0 149 -188 149h-123v-301z" />
<glyph unicode="&#xaf;" horiz-adv-x="573" d="M61 1167v82h451v-82h-451z" />
<glyph unicode="&#xb0;" horiz-adv-x="819" d="M106 1208q0 128 89.5 212.5t214.5 84.5t213 -84.5t88 -212.5t-88 -212.5t-213 -84.5t-214.5 84.5t-89.5 212.5zM199 1208q0 -87 60 -149t151 -62q90 0 149 62t59 149t-59 148t-149 61q-91 0 -151 -61.5t-60 -147.5z" />
<glyph unicode="&#xb1;" horiz-adv-x="1320" d="M143 219v92h1035v-92h-1035zM143 834v92h471v430h93v-430h471v-92h-471v-431h-93v431h-471z" />
<glyph unicode="&#xb2;" horiz-adv-x="727" d="M72 1260q15 113 90.5 181t195.5 68q124 0 205.5 -69t81.5 -176q0 -23 -3.5 -45.5t-12.5 -45t-15.5 -39t-23 -39.5t-24 -34t-29.5 -35t-28 -30.5t-30.5 -31.5t-27.5 -28l-252 -254h456v-84h-573v78l338 348q69 70 101 123t32 117q0 70 -55 116.5t-146 46.5 q-167 0 -194 -174z" />
<glyph unicode="&#xb3;" horiz-adv-x="727" d="M82 797l84 18q15 -68 66 -106.5t130 -38.5q85 0 146 48.5t61 125.5q0 86 -59.5 134t-151.5 50h-32v82l45 2q74 3 127 48t53 120q0 64 -49.5 105.5t-126.5 41.5q-72 0 -121 -35.5t-64 -97.5l-75 25q26 87 96 138.5t164 51.5q113 0 189.5 -65t76.5 -164q0 -69 -44 -124.5 t-116 -82.5v-2q81 -20 129.5 -81.5t48.5 -143.5q0 -114 -83.5 -186t-210.5 -72q-109 0 -187 55t-96 154z" />
<glyph unicode="&#xb4;" horiz-adv-x="573" d="M123 1116l194 297h134l-236 -297h-92z" />
<glyph unicode="&#xb5;" horiz-adv-x="1052" d="M154 -389v1335h106v-547q0 -72 10 -125t35 -100.5t75 -72.5t124 -25q99 0 165 46t94 119t28 169v536h108v-946h-108v143q-35 -61 -117 -113.5t-170 -52.5q-91 0 -157 31.5t-87 73.5v-471h-106z" />
<glyph unicode="&#xb6;" d="M123 1014q0 193 113 296t327 103h461v-92h-113v-1710h-102v1710h-184v-1710h-103v1003q-181 0 -290 105.5t-109 294.5z" />
<glyph unicode="&#xb7;" horiz-adv-x="583" d="M195 588q0 43 27.5 70.5t68.5 27.5q43 0 70.5 -27.5t27.5 -70.5q0 -41 -27.5 -68.5t-70.5 -27.5q-41 0 -68.5 27.5t-27.5 68.5z" />
<glyph unicode="&#xb8;" horiz-adv-x="614" d="M154 -297l215 297h92l-174 -297h-133z" />
<glyph unicode="&#xb9;" horiz-adv-x="727" d="M219 1413v76h268v-891h-90v815h-178z" />
<glyph unicode="&#xba;" horiz-adv-x="768" d="M82 666q0 129 87 215t214 86q128 0 215.5 -85.5t87.5 -215.5t-87.5 -217t-215.5 -87q-127 0 -214 87t-87 217zM182 670q0 -99 59 -158t142 -59q85 0 144 59t59 158q0 100 -58.5 156.5t-144.5 56.5q-84 0 -142.5 -56.5t-58.5 -156.5z" />
<glyph unicode="&#xbb;" horiz-adv-x="890" d="M133 801l74 55l291 -381l-291 -381l-72 58l242 323zM426 801l74 55l291 -381l-291 -381l-72 58l242 323z" />
<glyph unicode="&#xbc;" horiz-adv-x="1748" d="M143 1335v78h269v-850h-90v772h-179zM276 0l871 1444l76 -47l-871 -1444zM881 188v52l485 671h70v-639h133v-84h-133v-188h-90v188h-465zM997 272h349v486z" />
<glyph unicode="&#xbd;" horiz-adv-x="1751" d="M143 1335v78h269v-850h-90v772h-179zM276 0l871 1444l76 -47l-871 -1444zM1034 686q48 97 116 146t171 49q109 0 187.5 -70.5t78.5 -175.5q0 -51 -14 -97t-42.5 -87t-53.5 -69t-64 -65l-242 -231h447v-86h-563l-17 61l303 297q42 40 69.5 71.5t56 86.5t28.5 105 q0 79 -54 128.5t-136 49.5q-72 0 -121.5 -44.5t-77.5 -109.5z" />
<glyph unicode="&#xbe;" horiz-adv-x="1748" d="M82 797l84 18q15 -68 66 -106.5t130 -38.5q85 0 146 48.5t61 125.5q0 86 -59.5 134t-151.5 50h-32v82l45 2q74 3 127 48t53 120q0 64 -49.5 105.5t-126.5 41.5q-72 0 -121 -35.5t-64 -97.5l-75 25q26 87 96 138.5t164 51.5q113 0 189.5 -65t76.5 -164q0 -69 -44 -124.5 t-116 -82.5v-2q81 -20 129.5 -81.5t48.5 -143.5q0 -114 -83.5 -186t-210.5 -72q-109 0 -187 55t-96 154zM358 0l871 1444l76 -47l-871 -1444zM881 188v52l485 671h70v-639h133v-84h-133v-188h-90v188h-465zM997 272h349v486z" />
<glyph unicode="&#xbf;" horiz-adv-x="952" d="M123 -166q0 47 11 90.5t23.5 71.5t42.5 65.5t46 54.5t55 56l28.5 28.5l27.5 27.5t22 23.5t21.5 26t16 24.5t15 29t9 30t7.5 36.5t3 40.5l4 174h92l6 -153q2 -53 -8.5 -100t-23 -76.5t-39 -63.5t-40.5 -47.5t-43 -40.5q-37 -33 -56 -52.5t-49 -58t-44 -82t-14 -94.5 q0 -105 70 -168t179 -63q99 0 164 50t92 120l82 -51q-14 -33 -37 -65t-63 -68.5t-104.5 -59t-143.5 -22.5q-162 0 -257 93.5t-95 223.5zM403 872q0 43 28 71t71 28q41 0 68.5 -28t27.5 -71q0 -41 -27.5 -68.5t-68.5 -27.5q-43 0 -71 27.5t-28 68.5z" />
<glyph unicode="&#xc0;" horiz-adv-x="1290" d="M10 0l604 1417h62l604 -1417h-129l-174 424h-674l-176 -424h-117zM344 526h590l-295 723zM362 1833h134l194 -297h-92z" />
<glyph unicode="&#xc1;" horiz-adv-x="1290" d="M10 0l604 1417h62l604 -1417h-129l-174 424h-674l-176 -424h-117zM344 526h590l-295 723zM598 1536l195 297h133l-236 -297h-92z" />
<glyph unicode="&#xc2;" horiz-adv-x="1290" d="M10 0l604 1417h62l604 -1417h-129l-174 424h-674l-176 -424h-117zM344 526h590l-295 723zM420 1536l194 297h62l194 -297h-92l-133 215l-133 -215h-92z" />
<glyph unicode="&#xc3;" horiz-adv-x="1290" d="M10 0l604 1417h62l604 -1417h-129l-174 424h-674l-176 -424h-117zM344 526h590l-295 723zM358 1618q7 73 53.5 115.5t104.5 42.5q25 0 50 -6t38 -12t32 -16l19 -11q1 -1 26.5 -16.5t49.5 -25.5t47 -10q36 0 59.5 26t26.5 60l68 -20q-7 -73 -54.5 -115.5t-105.5 -42.5 q-25 0 -49.5 6t-37.5 12t-31 16t-19 11q-1 0 -26.5 16t-49.5 25.5t-47 9.5q-36 0 -59.5 -26t-28.5 -60z" />
<glyph unicode="&#xc4;" horiz-adv-x="1290" d="M10 0l604 1417h62l604 -1417h-129l-174 424h-674l-176 -424h-117zM344 526h590l-295 723zM420 1673q0 41 25.5 66.5t60.5 25.5q37 0 62.5 -25.5t25.5 -66.5q0 -40 -26 -66t-62 -26q-35 0 -60.5 26t-25.5 66zM696 1673q0 41 25.5 66.5t60.5 25.5q37 0 62.5 -25.5 t25.5 -66.5q0 -40 -26 -66t-62 -26q-35 0 -60.5 26t-25.5 66z" />
<glyph unicode="&#xc5;" horiz-adv-x="1290" d="M10 0l604 1417h62l604 -1417h-129l-174 424h-674l-176 -424h-117zM344 526h590l-295 723zM461 1694q0 76 53.5 130t130.5 54t130.5 -54t53.5 -130q0 -77 -54 -131t-130 -54t-130 54t-54 131zM537 1694q0 -46 31.5 -79.5t76.5 -33.5t76 33.5t31 79.5t-31 79t-76 33 t-76.5 -33t-31.5 -79z" />
<glyph unicode="&#xc6;" horiz-adv-x="1714" d="M-51 0l891 1413h764v-100h-603v-502h566v-100h-566v-611h617v-100h-727v430h-553l-266 -430h-123zM401 532h490v783h-6z" />
<glyph unicode="&#xc7;" horiz-adv-x="1382" d="M86 705q0 158 55.5 294.5t151 231.5t227 149t279.5 54q307 0 512 -205l-72 -82q-60 76 -178 131t-262 55q-262 0 -428 -174t-166 -450q0 -277 166.5 -453t427.5 -176q282 0 450 186l72 -71q-199 -220 -518 -220l-133 -282h-133l174 289q-126 12 -238 66.5t-198.5 144.5 t-137.5 222.5t-51 289.5z" />
<glyph unicode="&#xc8;" horiz-adv-x="1054" d="M174 0v1413h768v-100h-657v-512h620v-101h-620v-600h671v-100h-782zM305 1833h133l195 -297h-92z" />
<glyph unicode="&#xc9;" horiz-adv-x="1054" d="M174 0v1413h768v-100h-657v-512h620v-101h-620v-600h671v-100h-782zM449 1536l194 297h133l-235 -297h-92z" />
<glyph unicode="&#xca;" horiz-adv-x="1054" d="M174 0v1413h768v-100h-657v-512h620v-101h-620v-600h671v-100h-782zM332 1536l194 297h62l194 -297h-92l-133 215l-133 -215h-92z" />
<glyph unicode="&#xcb;" horiz-adv-x="1054" d="M174 0v1413h768v-100h-657v-512h620v-101h-620v-600h671v-100h-782zM332 1673q0 41 25.5 66.5t62.5 25.5q35 0 60.5 -25.5t25.5 -66.5q0 -40 -25.5 -66t-60.5 -26q-36 0 -62 26t-26 66zM608 1673q0 41 25.5 66.5t62.5 25.5q35 0 60.5 -25.5t25.5 -66.5q0 -40 -25.5 -66 t-60.5 -26q-36 0 -62 26t-26 66z" />
<glyph unicode="&#xcc;" horiz-adv-x="458" d="M-43 1833h133l195 -297h-92zM174 0v1413h111v-1413h-111z" />
<glyph unicode="&#xcd;" horiz-adv-x="458" d="M174 0v1413h111v-1413h-111zM174 1536l195 297h133l-236 -297h-92z" />
<glyph unicode="&#xce;" horiz-adv-x="458" d="M4 1536l195 297h61l195 -297h-93l-133 215l-133 -215h-92zM174 0v1413h111v-1413h-111z" />
<glyph unicode="&#xcf;" horiz-adv-x="458" d="M4 1683q0 41 25.5 67t60.5 26q36 0 62 -26t26 -67q0 -40 -26 -66t-62 -26q-35 0 -60.5 26t-25.5 66zM174 0v1413h111v-1413h-111zM281 1683q0 41 25.5 67t60.5 26q37 0 62.5 -26t25.5 -67q0 -40 -26 -66t-62 -26q-35 0 -60.5 26t-25.5 66z" />
<glyph unicode="&#xd0;" horiz-adv-x="1382" d="M31 696v101h143v616h389q169 0 302.5 -57t213.5 -137q215 -215 215 -512t-215 -512q-81 -81 -214 -138t-302 -57h-389v696h-143zM285 100h268q139 0 248 41t182 109q197 184 197 457q0 270 -197 454q-73 68 -182.5 110t-247.5 42h-268v-516h411v-101h-411v-596z" />
<glyph unicode="&#xd1;" horiz-adv-x="1501" d="M174 0v1413h111l932 -1218v1218h110v-1413h-100l-942 1239v-1239h-111zM463 1618q7 73 54.5 115.5t105.5 42.5q25 0 49.5 -6t37.5 -12t31 -16t19 -11t26.5 -16.5t49.5 -25.5t47 -10q36 0 59.5 26t28.5 60l65 -20q-7 -73 -53 -115.5t-104 -42.5q-20 0 -39.5 3.5t-35.5 9.5 t-27 11.5t-23 12.5t-15 8q-1 0 -26.5 16t-49.5 25.5t-47 9.5q-36 0 -59.5 -26t-26.5 -60z" />
<glyph unicode="&#xd2;" horiz-adv-x="1607" d="M86 705q0 132 37.5 248.5t104.5 203.5t157 150t196.5 95t221.5 32q144 0 274 -51t228.5 -143.5t156.5 -231t58 -303.5t-58 -303.5t-156 -231t-228.5 -144t-274.5 -51.5q-115 0 -221.5 32t-196.5 95.5t-157 150.5t-104.5 203.5t-37.5 248.5zM203 707q0 -143 49 -263 t131.5 -198.5t191 -122t228.5 -43.5q122 0 231 43.5t191.5 122t131 198.5t48.5 263q0 144 -48.5 264t-131 199t-191.5 122t-231 43q-121 0 -229.5 -43t-191 -121.5t-131 -198.5t-48.5 -265zM522 1833h133l195 -297h-92z" />
<glyph unicode="&#xd3;" horiz-adv-x="1607" d="M86 705q0 132 37.5 248.5t104.5 203.5t157 150t196.5 95t221.5 32q144 0 274 -51t228.5 -143.5t156.5 -231t58 -303.5t-58 -303.5t-156 -231t-228.5 -144t-274.5 -51.5q-115 0 -221.5 32t-196.5 95.5t-157 150.5t-104.5 203.5t-37.5 248.5zM203 707q0 -143 49 -263 t131.5 -198.5t191 -122t228.5 -43.5q122 0 231 43.5t191.5 122t131 198.5t48.5 263q0 144 -48.5 264t-131 199t-191.5 122t-231 43q-121 0 -229.5 -43t-191 -121.5t-131 -198.5t-48.5 -265zM758 1536l194 297h133l-235 -297h-92z" />
<glyph unicode="&#xd4;" horiz-adv-x="1607" d="M86 705q0 132 37.5 248.5t104.5 203.5t157 150t196.5 95t221.5 32q144 0 274 -51t228.5 -143.5t156.5 -231t58 -303.5t-58 -303.5t-156 -231t-228.5 -144t-274.5 -51.5q-115 0 -221.5 32t-196.5 95.5t-157 150.5t-104.5 203.5t-37.5 248.5zM203 707q0 -143 49 -263 t131.5 -198.5t191 -122t228.5 -43.5q122 0 231 43.5t191.5 122t131 198.5t48.5 263q0 144 -48.5 264t-131 199t-191.5 122t-231 43q-121 0 -229.5 -43t-191 -121.5t-131 -198.5t-48.5 -265zM578 1536l194 297h62l194 -297h-92l-133 215l-133 -215h-92z" />
<glyph unicode="&#xd5;" horiz-adv-x="1607" d="M86 705q0 132 37.5 248.5t104.5 203.5t157 150t196.5 95t221.5 32q144 0 274 -51t228.5 -143.5t156.5 -231t58 -303.5t-58 -303.5t-156 -231t-228.5 -144t-274.5 -51.5q-115 0 -221.5 32t-196.5 95.5t-157 150.5t-104.5 203.5t-37.5 248.5zM203 707q0 -143 49 -263 t131.5 -198.5t191 -122t228.5 -43.5q122 0 231 43.5t191.5 122t131 198.5t48.5 263q0 144 -48.5 264t-131 199t-191.5 122t-231 43q-121 0 -229.5 -43t-191 -121.5t-131 -198.5t-48.5 -265zM516 1618q7 73 54.5 115.5t105.5 42.5q25 0 49.5 -6t37.5 -12t31 -16t19 -11 t26.5 -16.5t49.5 -25.5t47 -10q36 0 59.5 26t28.5 60l66 -20q-7 -73 -53.5 -115.5t-104.5 -42.5q-25 0 -50 6t-38 12t-32 17l-19 10q-1 0 -26.5 16t-49.5 25.5t-47 9.5q-36 0 -59.5 -26t-26.5 -60z" />
<glyph unicode="&#xd6;" horiz-adv-x="1607" d="M86 705q0 132 37.5 248.5t104.5 203.5t157 150t196.5 95t221.5 32q144 0 274 -51t228.5 -143.5t156.5 -231t58 -303.5t-58 -303.5t-156 -231t-228.5 -144t-274.5 -51.5q-115 0 -221.5 32t-196.5 95.5t-157 150.5t-104.5 203.5t-37.5 248.5zM203 707q0 -143 49 -263 t131.5 -198.5t191 -122t228.5 -43.5q122 0 231 43.5t191.5 122t131 198.5t48.5 263q0 144 -48.5 264t-131 199t-191.5 122t-231 43q-121 0 -229.5 -43t-191 -121.5t-131 -198.5t-48.5 -265zM578 1673q0 41 25.5 66.5t62.5 25.5q35 0 60.5 -25.5t25.5 -66.5q0 -40 -25.5 -66 t-60.5 -26q-36 0 -62 26t-26 66zM854 1673q0 41 25.5 66.5t62.5 25.5q35 0 60.5 -25.5t25.5 -66.5q0 -40 -25.5 -66t-60.5 -26q-36 0 -62 26t-26 66z" />
<glyph unicode="&#xd7;" horiz-adv-x="1320" d="M164 270l430 435l-430 432l61 65l434 -434l437 434l61 -65l-430 -432l430 -435l-61 -65l-437 434l-434 -434z" />
<glyph unicode="&#xd8;" horiz-adv-x="1607" d="M86 705q0 132 37.5 248.5t104.5 203.5t157 150t196.5 95t221.5 32q137 0 260.5 -44.5t218.5 -129.5l172 174l66 -68l-170 -174q170 -197 170 -487q0 -165 -58 -303.5t-156 -231t-228.5 -144t-274.5 -51.5q-277 0 -477 175l-168 -170l-66 65l166 170q-172 200 -172 490z M203 707q0 -246 135 -410l872 887q-168 151 -407 151q-121 0 -229.5 -43t-191 -121.5t-131 -198.5t-48.5 -265zM403 227q79 -71 183 -109t217 -38q122 0 231 43.5t191.5 122t131 198.5t48.5 263q0 243 -131 409z" />
<glyph unicode="&#xd9;" horiz-adv-x="1331" d="M164 569v844h110v-854q0 -52 1.5 -85.5t8 -82t22 -89.5t40.5 -75q110 -149 320 -149q209 0 319 149q25 34 40.5 75t22 89.5t8 82t1.5 85.5v854h110v-844q0 -147 -18 -242.5t-82 -176.5q-140 -175 -401 -175q-262 0 -402 175q-64 81 -82 176.5t-18 242.5zM432 1833h133 l195 -297h-92z" />
<glyph unicode="&#xda;" horiz-adv-x="1331" d="M164 569v844h110v-854q0 -52 1.5 -85.5t8 -82t22 -89.5t40.5 -75q110 -149 320 -149q209 0 319 149q25 34 40.5 75t22 89.5t8 82t1.5 85.5v854h110v-844q0 -147 -18 -242.5t-82 -176.5q-140 -175 -401 -175q-262 0 -402 175q-64 81 -82 176.5t-18 242.5zM571 1536 l195 297h133l-235 -297h-93z" />
<glyph unicode="&#xdb;" horiz-adv-x="1331" d="M164 569v844h110v-854q0 -52 1.5 -85.5t8 -82t22 -89.5t40.5 -75q110 -149 320 -149q209 0 319 149q25 34 40.5 75t22 89.5t8 82t1.5 85.5v854h110v-844q0 -147 -18 -242.5t-82 -176.5q-140 -175 -401 -175q-262 0 -402 175q-64 81 -82 176.5t-18 242.5zM440 1536 l195 297h61l195 -297h-92l-133 215l-134 -215h-92z" />
<glyph unicode="&#xdc;" horiz-adv-x="1331" d="M164 569v844h110v-854q0 -52 1.5 -85.5t8 -82t22 -89.5t40.5 -75q110 -149 320 -149q209 0 319 149q25 34 40.5 75t22 89.5t8 82t1.5 85.5v854h110v-844q0 -147 -18 -242.5t-82 -176.5q-140 -175 -401 -175q-262 0 -402 175q-64 81 -82 176.5t-18 242.5zM440 1673 q0 41 25.5 66.5t60.5 25.5q37 0 62.5 -25.5t25.5 -66.5q0 -40 -26 -66t-62 -26q-35 0 -60.5 26t-25.5 66zM717 1673q0 41 25.5 66.5t60.5 25.5q37 0 62.5 -25.5t25.5 -66.5q0 -40 -26 -66t-62 -26q-35 0 -60.5 26t-25.5 66z" />
<glyph unicode="&#xdd;" horiz-adv-x="1116" d="M10 1413h127l420 -706l420 706h129l-494 -809v-604h-110v604zM465 1536l194 297h134l-236 -297h-92z" />
<glyph unicode="&#xde;" horiz-adv-x="1013" d="M174 0v1413h111v-293h192q217 0 326 -96q129 -113 129 -279q0 -167 -129 -280q-109 -96 -326 -96h-192v-369h-111zM285 467h196q146 0 236 65q44 33 71 88t27 125q0 69 -27 123.5t-71 87.5q-92 66 -236 66h-196v-555z" />
<glyph unicode="&#xdf;" horiz-adv-x="1075" d="M164 0v956q0 189 20 252q32 98 103 154q90 72 235 72q133 0 227.5 -84.5t94.5 -212.5q0 -120 -64 -199t-135 -88v-6q63 -5 124 -36.5t111.5 -83.5t81.5 -130.5t31 -169.5q0 -191 -131 -313.5t-350 -122.5q-24 0 -49.5 3t-38.5 6l-14 3l10 98q7 -1 22.5 -4.5t33.5 -5.5 t46 -2q51 0 100.5 12t96.5 38.5t83 64.5t57.5 96t21.5 127q0 175 -106.5 266.5t-282.5 91.5h-62v99h62q116 0 180.5 64.5t64.5 180.5q0 55 -22 98t-57.5 67.5t-75.5 37t-80 12.5q-127 0 -185 -88q-25 -36 -36 -85t-11 -144v-1024h-106z" />
<glyph unicode="&#xe0;" horiz-adv-x="942" d="M61 266q0 127 96 203.5t283 83.5l260 10v51q0 126 -74 193t-192 67q-95 0 -173.5 -29t-106.5 -52l-41 77q144 97 317 97q187 0 287 -107q46 -51 69 -116.5t23 -180.5v-563h-109v133q-131 -153 -321 -153q-138 0 -228 81.5t-90 204.5zM168 266q0 -82 60.5 -138t170.5 -56 q104 0 181 53t120 121v235l-270 -16q-140 -7 -201 -61t-61 -138zM199 1413h133l194 -297h-92z" />
<glyph unicode="&#xe1;" horiz-adv-x="942" d="M61 266q0 127 96 203.5t283 83.5l260 10v51q0 126 -74 193t-192 67q-95 0 -173.5 -29t-106.5 -52l-41 77q144 97 317 97q187 0 287 -107q46 -51 69 -116.5t23 -180.5v-563h-109v133q-131 -153 -321 -153q-138 0 -228 81.5t-90 204.5zM168 266q0 -82 60.5 -138t170.5 -56 q104 0 181 53t120 121v235l-270 -16q-140 -7 -201 -61t-61 -138zM342 1116l195 297h133l-236 -297h-92z" />
<glyph unicode="&#xe2;" horiz-adv-x="942" d="M61 266q0 127 96 203.5t283 83.5l260 10v51q0 126 -74 193t-192 67q-95 0 -173.5 -29t-106.5 -52l-41 77q144 97 317 97q187 0 287 -107q46 -51 69 -116.5t23 -180.5v-563h-109v133q-131 -153 -321 -153q-138 0 -228 81.5t-90 204.5zM168 266q0 -82 60.5 -138t170.5 -56 q104 0 181 53t120 121v235l-270 -16q-140 -7 -201 -61t-61 -138zM209 1116l194 297h62l194 -297h-92l-133 215l-133 -215h-92z" />
<glyph unicode="&#xe3;" horiz-adv-x="942" d="M61 266q0 127 96 203.5t283 83.5l260 10v51q0 126 -74 193t-192 67q-95 0 -173.5 -29t-106.5 -52l-41 77q144 97 317 97q187 0 287 -107q46 -51 69 -116.5t23 -180.5v-563h-109v133q-131 -153 -321 -153q-138 0 -228 81.5t-90 204.5zM168 266q0 -82 60.5 -138t170.5 -56 q104 0 181 53t120 121v235l-270 -16q-140 -7 -201 -61t-61 -138zM184 1208q7 73 53.5 115.5t104.5 42.5q25 0 50 -6t38 -12t32 -16l19 -11q1 0 26.5 -16t49.5 -25.5t47 -9.5q36 0 59.5 26t26.5 60l68 -21q-7 -73 -54.5 -115t-105.5 -42q-25 0 -49.5 6t-37.5 12t-31 16 t-19 11q-1 0 -26.5 16t-49.5 25.5t-47 9.5q-36 0 -59.5 -26t-28.5 -60z" />
<glyph unicode="&#xe4;" horiz-adv-x="942" d="M61 266q0 127 96 203.5t283 83.5l260 10v51q0 126 -74 193t-192 67q-95 0 -173.5 -29t-106.5 -52l-41 77q144 97 317 97q187 0 287 -107q46 -51 69 -116.5t23 -180.5v-563h-109v133q-131 -153 -321 -153q-138 0 -228 81.5t-90 204.5zM168 266q0 -82 60.5 -138t170.5 -56 q104 0 181 53t120 121v235l-270 -16q-140 -7 -201 -61t-61 -138zM209 1264q0 41 25.5 66.5t62.5 25.5q35 0 60.5 -25.5t25.5 -66.5q0 -40 -25.5 -66.5t-60.5 -26.5q-36 0 -62 26.5t-26 66.5zM485 1264q0 41 25.5 66.5t62.5 25.5q35 0 60.5 -25.5t25.5 -66.5 q0 -40 -25.5 -66.5t-60.5 -26.5q-36 0 -62 26.5t-26 66.5z" />
<glyph unicode="&#xe5;" horiz-adv-x="942" d="M61 266q0 127 96 203.5t283 83.5l260 10v51q0 126 -74 193t-192 67q-95 0 -173.5 -29t-106.5 -52l-41 77q144 97 317 97q187 0 287 -107q46 -51 69 -116.5t23 -180.5v-563h-109v133q-131 -153 -321 -153q-138 0 -228 81.5t-90 204.5zM168 266q0 -82 60.5 -138t170.5 -56 q104 0 181 53t120 121v235l-270 -16q-140 -7 -201 -61t-61 -138zM250 1294q0 77 54 131t130 54t130 -54t54 -131q0 -76 -54 -130t-130 -54t-130 54t-54 130zM328 1294q0 -46 30.5 -79t75.5 -33t77 33t32 79t-32 79.5t-77 33.5t-75.5 -33.5t-30.5 -79.5z" />
<glyph unicode="&#xe6;" horiz-adv-x="1658" d="M61 266q0 127 96 203.5t283 83.5l260 10v51q0 126 -74 193t-192 67q-95 0 -173.5 -29t-106.5 -52l-41 77q144 97 317 97q187 0 287 -107q24 -27 39.5 -52.5t18.5 -37.5l3 -12q61 99 162 154t217 55q187 0 308.5 -126.5t121.5 -318.5q0 -18 -1.5 -36t-3.5 -26l-1 -9h-772 q8 -172 100.5 -273.5t251.5 -101.5q60 0 116.5 12.5t94.5 31t67 36.5t43 30l13 13l51 -76q-5 -6 -14.5 -15.5t-45 -34t-77 -43.5t-111.5 -34.5t-147 -15.5q-40 0 -77.5 5.5t-67 15t-57.5 23t-48.5 27t-40 30.5t-32 30.5t-24.5 29t-18 25l-12 19t-6 10.5 q-77 -103 -168.5 -159t-220.5 -56q-138 0 -228 81.5t-90 204.5zM168 266q0 -82 60.5 -138t170.5 -56q108 0 202 64t128 140q-29 90 -29 205l-270 -16q-140 -7 -201 -61t-61 -138zM813 543h666q0 50 -19 104.5t-56 106.5t-103 86t-150 34q-68 0 -125 -22t-94.5 -56.5 t-64.5 -79t-39.5 -88t-14.5 -85.5z" />
<glyph unicode="&#xe7;" horiz-adv-x="962" d="M82 475q0 142 66.5 256t175 175t233.5 61q71 0 134 -15t101 -34t72 -46.5t45.5 -40.5t22.5 -28l-68 -72q-22 26 -41 43t-57.5 42.5t-92.5 39.5t-120 14q-147 0 -252.5 -108.5t-105.5 -280.5q0 -178 100.5 -291.5t261.5 -113.5q60 0 115 14.5t90 35t61.5 40.5t38.5 34 l12 15l62 -72q-17 -20 -27.5 -31.5t-43 -37.5t-65.5 -42t-88 -31.5t-118 -18.5l-160 -279h-133l199 279q-178 19 -298 156t-120 337z" />
<glyph unicode="&#xe8;" horiz-adv-x="1044" d="M82 475q0 107 36.5 200t99 156.5t147 99.5t178.5 36q187 0 308.5 -126.5t121.5 -318.5l-6 -71h-772q8 -172 100.5 -273.5t251.5 -101.5q60 0 116.5 12.5t94.5 31t67 36.5t43 30l13 13l51 -76q-5 -6 -14.5 -15.5t-45 -34t-77 -43.5t-111.5 -34.5t-147 -15.5 q-205 0 -330 137.5t-125 357.5zM199 543h665q0 39 -11 82t-36.5 87.5t-62 80.5t-93 58.5t-124.5 22.5t-125 -22t-94.5 -56.5t-64.5 -79t-39.5 -88t-14.5 -85.5zM307 1413h133l195 -297h-92z" />
<glyph unicode="&#xe9;" horiz-adv-x="1044" d="M82 475q0 107 36.5 200t99 156.5t147 99.5t178.5 36q187 0 308.5 -126.5t121.5 -318.5l-6 -71h-772q8 -172 100.5 -273.5t251.5 -101.5q60 0 116.5 12.5t94.5 31t67 36.5t43 30l13 13l51 -76q-5 -6 -14.5 -15.5t-45 -34t-77 -43.5t-111.5 -34.5t-147 -15.5 q-205 0 -330 137.5t-125 357.5zM199 543h665q0 39 -11 82t-36.5 87.5t-62 80.5t-93 58.5t-124.5 22.5t-125 -22t-94.5 -56.5t-64.5 -79t-39.5 -88t-14.5 -85.5zM451 1116l194 297h133l-235 -297h-92z" />
<glyph unicode="&#xea;" horiz-adv-x="1044" d="M82 475q0 107 36.5 200t99 156.5t147 99.5t178.5 36q187 0 308.5 -126.5t121.5 -318.5l-6 -71h-772q8 -172 100.5 -273.5t251.5 -101.5q60 0 116.5 12.5t94.5 31t67 36.5t43 30l13 13l51 -76q-5 -6 -14.5 -15.5t-45 -34t-77 -43.5t-111.5 -34.5t-147 -15.5 q-205 0 -330 137.5t-125 357.5zM199 543h665q0 39 -11 82t-36.5 87.5t-62 80.5t-93 58.5t-124.5 22.5t-125 -22t-94.5 -56.5t-64.5 -79t-39.5 -88t-14.5 -85.5zM317 1116l195 297h61l195 -297h-92l-133 215l-133 -215h-93z" />
<glyph unicode="&#xeb;" horiz-adv-x="1044" d="M82 475q0 107 36.5 200t99 156.5t147 99.5t178.5 36q187 0 308.5 -126.5t121.5 -318.5l-6 -71h-772q8 -172 100.5 -273.5t251.5 -101.5q60 0 116.5 12.5t94.5 31t67 36.5t43 30l13 13l51 -76q-5 -6 -14.5 -15.5t-45 -34t-77 -43.5t-111.5 -34.5t-147 -15.5 q-205 0 -330 137.5t-125 357.5zM199 543h665q0 39 -11 82t-36.5 87.5t-62 80.5t-93 58.5t-124.5 22.5t-125 -22t-94.5 -56.5t-64.5 -79t-39.5 -88t-14.5 -85.5zM317 1264q0 41 25.5 66.5t60.5 25.5q37 0 63 -25.5t26 -66.5q0 -40 -26.5 -66.5t-62.5 -26.5q-35 0 -60.5 26.5 t-25.5 66.5zM594 1264q0 41 25.5 66.5t60.5 25.5q37 0 62.5 -25.5t25.5 -66.5q0 -40 -26 -66.5t-62 -26.5q-35 0 -60.5 26.5t-25.5 66.5z" />
<glyph unicode="&#xec;" horiz-adv-x="434" d="M-57 1413h133l194 -297h-92zM164 0v950h106v-950h-106z" />
<glyph unicode="&#xed;" horiz-adv-x="434" d="M164 0v950h106v-950h-106zM164 1116l194 297h134l-236 -297h-92z" />
<glyph unicode="&#xee;" horiz-adv-x="434" d="M-8 1116l194 297h62l194 -297h-92l-133 215l-133 -215h-92zM164 0v950h106v-950h-106z" />
<glyph unicode="&#xef;" horiz-adv-x="434" d="M-8 1264q0 41 25.5 66.5t62.5 25.5q35 0 60.5 -25.5t25.5 -66.5q0 -40 -25.5 -66.5t-60.5 -26.5q-36 0 -62 26.5t-26 66.5zM164 0v950h106v-950h-106zM268 1264q0 41 25.5 66.5t62.5 25.5q35 0 60.5 -25.5t25.5 -66.5q0 -40 -25.5 -66.5t-60.5 -26.5q-36 0 -62 26.5 t-26 66.5z" />
<glyph unicode="&#xf0;" horiz-adv-x="1136" d="M82 461q0 131 64.5 242.5t175 177t241.5 65.5q181 0 318 -123q-59 123 -137 221.5t-187 194.5l-240 -160l-47 68l226 147q-102 87 -209 154l61 61q140 -86 230 -163l251 163l45 -65l-235 -154q46 -38 112 -107t119 -149q37 -55 64.5 -106.5t57.5 -124t46.5 -160 t16.5 -182.5q0 -200 -143 -340.5t-349 -140.5q-205 0 -343 140t-138 341zM195 465q0 -166 104.5 -277.5t267.5 -111.5q164 0 269.5 111.5t105.5 277.5q0 167 -105.5 278t-269.5 111q-163 0 -267.5 -111t-104.5 -278z" />
<glyph unicode="&#xf1;" horiz-adv-x="1044" d="M154 0v950h106v-176q36 85 120.5 139t186.5 54q99 0 167 -30t103.5 -87t50.5 -124.5t15 -158.5v-567h-108v563q0 52 -4 92t-18.5 83.5t-39 71.5t-68 46t-102.5 18q-99 0 -169 -54.5t-102 -144t-32 -204.5v-471h-106zM229 1208q7 73 54.5 115.5t105.5 42.5q25 0 49.5 -6 t37.5 -12t31 -16t19 -11q1 0 26.5 -16t49.5 -25.5t47 -9.5q36 0 59.5 26t28.5 60l66 -21q-7 -73 -53.5 -115t-104.5 -42q-25 0 -50 6t-38 12t-32 16l-19 11q-1 0 -26.5 16t-49.5 25.5t-47 9.5q-36 0 -59.5 -26t-26.5 -60z" />
<glyph unicode="&#xf2;" horiz-adv-x="1136" d="M82 471q0 213 140.5 354.5t344.5 141.5q206 0 347 -141.5t141 -354.5t-141 -352t-347 -139q-134 0 -244.5 62t-175.5 175t-65 254zM195 475q0 -169 102.5 -284t269.5 -115q169 0 272 115t103 284q0 170 -103 284.5t-272 114.5q-168 0 -270 -114.5t-102 -284.5zM332 1413 h133l194 -297h-92z" />
<glyph unicode="&#xf3;" horiz-adv-x="1136" d="M82 471q0 213 140.5 354.5t344.5 141.5q206 0 347 -141.5t141 -354.5t-141 -352t-347 -139q-134 0 -244.5 62t-175.5 175t-65 254zM195 475q0 -169 102.5 -284t269.5 -115q169 0 272 115t103 284q0 170 -103 284.5t-272 114.5q-168 0 -270 -114.5t-102 -284.5zM475 1116 l195 297h133l-236 -297h-92z" />
<glyph unicode="&#xf4;" horiz-adv-x="1136" d="M82 471q0 213 140.5 354.5t344.5 141.5q206 0 347 -141.5t141 -354.5t-141 -352t-347 -139q-134 0 -244.5 62t-175.5 175t-65 254zM195 475q0 -169 102.5 -284t269.5 -115q169 0 272 115t103 284q0 170 -103 284.5t-272 114.5q-168 0 -270 -114.5t-102 -284.5zM342 1116 l195 297h61l195 -297h-93l-133 215l-133 -215h-92z" />
<glyph unicode="&#xf5;" horiz-adv-x="1136" d="M82 471q0 213 140.5 354.5t344.5 141.5q206 0 347 -141.5t141 -354.5t-141 -352t-347 -139q-134 0 -244.5 62t-175.5 175t-65 254zM195 475q0 -169 102.5 -284t269.5 -115q169 0 272 115t103 284q0 170 -103 284.5t-272 114.5q-168 0 -270 -114.5t-102 -284.5zM281 1208 q7 73 54 115.5t105 42.5q25 0 50 -6t37.5 -12t31 -16.5t19.5 -10.5t26 -16t49 -25.5t47 -9.5q36 0 59.5 26t28.5 60l66 -21q-7 -73 -53.5 -115t-104.5 -42q-25 0 -50 6t-38 12t-32 16l-19 11q-1 0 -26.5 16t-49.5 25.5t-47 9.5q-36 0 -59.5 -26t-26.5 -60z" />
<glyph unicode="&#xf6;" horiz-adv-x="1136" d="M82 471q0 213 140.5 354.5t344.5 141.5q206 0 347 -141.5t141 -354.5t-141 -352t-347 -139q-134 0 -244.5 62t-175.5 175t-65 254zM195 475q0 -169 102.5 -284t269.5 -115q169 0 272 115t103 284q0 170 -103 284.5t-272 114.5q-168 0 -270 -114.5t-102 -284.5zM342 1264 q0 41 25.5 66.5t62.5 25.5q35 0 60.5 -25.5t25.5 -66.5q0 -40 -25.5 -66.5t-60.5 -26.5q-36 0 -62 26.5t-26 66.5zM618 1264q0 41 26 66.5t63 25.5q35 0 60.5 -25.5t25.5 -66.5q0 -40 -25.5 -66.5t-60.5 -26.5q-36 0 -62.5 26.5t-26.5 66.5z" />
<glyph unicode="&#xf7;" horiz-adv-x="1320" d="M143 659v93h1035v-93h-1035zM565 408q0 39 27.5 66.5t66.5 27.5t67 -28t28 -66q0 -40 -27.5 -67.5t-67.5 -27.5q-39 0 -66.5 27.5t-27.5 67.5zM565 1006q0 38 28 66t66 28q39 0 67 -28t28 -66q0 -40 -27.5 -67.5t-67.5 -27.5q-39 0 -66.5 27.5t-27.5 67.5z" />
<glyph unicode="&#xf8;" horiz-adv-x="1136" d="M61 25l129 131q-108 130 -108 315q0 213 140.5 354.5t344.5 141.5q186 0 318 -113l129 129l61 -61l-129 -131q109 -135 109 -320q0 -213 -141 -352t-347 -139q-183 0 -317 112l-127 -129zM195 475q0 -141 71 -244l549 553q-100 90 -248 90q-168 0 -270 -114.5 t-102 -284.5zM324 166q100 -90 243 -90q169 0 272 115t103 284q0 138 -70 244z" />
<glyph unicode="&#xf9;" horiz-adv-x="1038" d="M143 385v565h107v-581q0 -49 4 -86.5t18.5 -79t39 -68.5t69 -45t104.5 -18q76 0 134 31t92 84.5t50.5 117t16.5 135.5v510h107v-950h-107v154q-45 -84 -125.5 -129t-181.5 -45q-174 0 -256 106q-72 93 -72 299zM260 1413h133l195 -297h-92z" />
<glyph unicode="&#xfa;" horiz-adv-x="1038" d="M143 385v565h107v-581q0 -49 4 -86.5t18.5 -79t39 -68.5t69 -45t104.5 -18q76 0 134 31t92 84.5t50.5 117t16.5 135.5v510h107v-950h-107v154q-45 -84 -125.5 -129t-181.5 -45q-174 0 -256 106q-72 93 -72 299zM440 1116l195 297h133l-236 -297h-92z" />
<glyph unicode="&#xfb;" horiz-adv-x="1038" d="M143 385v565h107v-581q0 -49 4 -86.5t18.5 -79t39 -68.5t69 -45t104.5 -18q76 0 134 31t92 84.5t50.5 117t16.5 135.5v510h107v-950h-107v154q-45 -84 -125.5 -129t-181.5 -45q-174 0 -256 106q-72 93 -72 299zM289 1116l194 297h62l194 -297h-92l-133 215l-133 -215h-92 z" />
<glyph unicode="&#xfc;" horiz-adv-x="1038" d="M143 385v565h107v-581q0 -49 4 -86.5t18.5 -79t39 -68.5t69 -45t104.5 -18q76 0 134 31t92 84.5t50.5 117t16.5 135.5v510h107v-950h-107v154q-45 -84 -125.5 -129t-181.5 -45q-174 0 -256 106q-72 93 -72 299zM289 1264q0 41 25.5 66.5t62.5 25.5q35 0 60.5 -25.5 t25.5 -66.5q0 -40 -25.5 -66.5t-60.5 -26.5q-36 0 -62 26.5t-26 66.5zM565 1264q0 41 25.5 66.5t62.5 25.5q35 0 60.5 -25.5t25.5 -66.5q0 -40 -25.5 -66.5t-60.5 -26.5q-36 0 -62 26.5t-26 66.5z" />
<glyph unicode="&#xfd;" horiz-adv-x="890" d="M10 950h113l328 -827l327 827h113l-481 -1171q-24 -56 -51 -94t-56 -55t-53 -23t-53 -6t-58 6t-43 12l-14 6l20 103q38 -21 95 -21q47 0 78 29.5t63 120.5l55 157zM358 1116l195 297h133l-235 -297h-93z" />
<glyph unicode="&#xfe;" horiz-adv-x="1177" d="M164 -389v1804h106v-649q59 99 152 150t203 51q215 0 343 -140t128 -356q0 -215 -128.5 -353t-338.5 -138q-232 0 -359 198v-567h-106zM266 471q0 -170 96 -282.5t263 -112.5t262.5 111.5t95.5 283.5q0 171 -96 287t-262 116q-168 0 -263.5 -114.5t-95.5 -288.5z" />
<glyph unicode="&#xff;" horiz-adv-x="890" d="M10 950h113l328 -827l327 827h113l-481 -1171q-24 -56 -51 -94t-56 -55t-53 -23t-53 -6t-58 6t-43 12l-14 6l20 103q38 -21 95 -21q47 0 78 29.5t63 120.5l55 157zM225 1274q0 41 25.5 66.5t60.5 25.5q37 0 62.5 -25.5t25.5 -66.5q0 -40 -26 -66t-62 -26q-35 0 -60.5 26 t-25.5 66zM502 1274q0 41 25.5 66.5t60.5 25.5q37 0 62.5 -25.5t25.5 -66.5q0 -40 -26 -66t-62 -26q-35 0 -60.5 26t-25.5 66z" />
<glyph unicode="&#x100;" horiz-adv-x="1290" d="M10 0l604 1417h62l604 -1417h-129l-174 424h-674l-176 -424h-117zM344 526h590l-295 723zM414 1630v82h450v-82h-450z" />
<glyph unicode="&#x101;" horiz-adv-x="942" d="M61 266q0 127 96 203.5t283 83.5l260 10v51q0 126 -74 193t-192 67q-95 0 -173.5 -29t-106.5 -52l-41 77q144 97 317 97q187 0 287 -107q46 -51 69 -116.5t23 -180.5v-563h-109v133q-131 -153 -321 -153q-138 0 -228 81.5t-90 204.5zM168 266q0 -82 60.5 -138t170.5 -56 q104 0 181 53t120 121v235l-270 -16q-140 -7 -201 -61t-61 -138zM225 1167v82h451v-82h-451z" />
<glyph unicode="&#x102;" horiz-adv-x="1290" d="M10 0l604 1417h62l604 -1417h-129l-174 424h-674l-176 -424h-117zM344 526h590l-295 723zM362 1845h72q14 -73 69 -108t136 -35t136 35t69 108h71q-15 -114 -87 -174.5t-189 -60.5t-189.5 60.5t-87.5 174.5z" />
<glyph unicode="&#x103;" horiz-adv-x="942" d="M61 266q0 127 96 203.5t283 83.5l260 10v51q0 126 -74 193t-192 67q-95 0 -173.5 -29t-106.5 -52l-41 77q144 97 317 97q187 0 287 -107q46 -51 69 -116.5t23 -180.5v-563h-109v133q-131 -153 -321 -153q-138 0 -228 81.5t-90 204.5zM168 266q0 -82 60.5 -138t170.5 -56 q104 0 181 53t120 121v235l-270 -16q-140 -7 -201 -61t-61 -138zM174 1382h72q14 -73 69 -108t136 -35t135.5 35t68.5 108h72q-15 -114 -87 -174.5t-189 -60.5t-189.5 60.5t-87.5 174.5z" />
<glyph unicode="&#x104;" horiz-adv-x="1290" d="M10 0l604 1417h62l604 -1417q-86 -34 -139.5 -101.5t-53.5 -129.5q0 -54 35 -83.5t88 -29.5q31 0 64.5 10.5t51 19.5t28.5 17l26 -51q-3 -3 -9.5 -8.5t-26.5 -20t-41 -25t-53 -19.5t-64 -9q-86 0 -140.5 50t-54.5 134q0 128 160 246l-174 424h-674l-176 -424h-117z M344 526h590l-295 723z" />
<glyph unicode="&#x105;" horiz-adv-x="942" d="M61 266q0 127 96 203.5t283 83.5l260 10v51q0 126 -74 193t-192 67q-95 0 -173.5 -29t-106.5 -52l-41 77q144 97 317 97q187 0 287 -107q46 -51 69 -116.5t23 -180.5v-563q-71 -35 -121.5 -103.5t-50.5 -127.5q0 -54 35 -83.5t88 -29.5q77 0 143 47l27 -51 q-3 -3 -9.5 -8.5t-26.5 -20t-41.5 -25t-53.5 -19.5t-64 -9q-86 0 -140 50t-54 134q0 129 159 246v133q-131 -153 -321 -153q-138 0 -228 81.5t-90 204.5zM168 266q0 -82 60.5 -138t170.5 -56q104 0 181 53t120 121v235l-270 -16q-140 -7 -201 -61t-61 -138z" />
<glyph unicode="&#x106;" horiz-adv-x="1382" d="M86 705q0 158 55.5 294.5t151 231.5t227 149t279.5 54q307 0 512 -205l-72 -82q-60 76 -178 131t-262 55q-262 0 -428 -174t-166 -450q0 -277 166.5 -453t427.5 -176q282 0 450 186l72 -71q-199 -220 -522 -220q-203 0 -365.5 92t-255 259t-92.5 379zM649 1579l195 297 h133l-236 -297h-92z" />
<glyph unicode="&#x107;" horiz-adv-x="962" d="M82 475q0 142 66.5 256t175 175t233.5 61q71 0 134 -15t101 -34t72 -46.5t45.5 -40.5t22.5 -28l-68 -72q-22 26 -41 43t-57.5 42.5t-92.5 39.5t-120 14q-147 0 -252.5 -108.5t-105.5 -280.5q0 -178 100.5 -291.5t261.5 -113.5q60 0 115 14.5t90 35t61.5 40.5t38.5 34 l12 15l62 -72q-18 -22 -29.5 -34t-48 -40t-74.5 -44.5t-101.5 -30.5t-135.5 -14q-195 0 -330 140t-135 355zM406 1116l194 297h133l-235 -297h-92z" />
<glyph unicode="&#x108;" horiz-adv-x="1382" d="M86 705q0 158 55.5 294.5t151 231.5t227 149t279.5 54q307 0 512 -205l-72 -82q-60 76 -178 131t-262 55q-262 0 -428 -174t-166 -450q0 -277 166.5 -453t427.5 -176q282 0 450 186l72 -71q-199 -220 -522 -220q-203 0 -365.5 92t-255 259t-92.5 379zM547 1579l194 297 h62l194 -297h-92l-133 215l-133 -215h-92z" />
<glyph unicode="&#x109;" horiz-adv-x="962" d="M82 475q0 142 66.5 256t175 175t233.5 61q71 0 134 -15t101 -34t72 -46.5t45.5 -40.5t22.5 -28l-68 -72q-22 26 -41 43t-57.5 42.5t-92.5 39.5t-120 14q-147 0 -252.5 -108.5t-105.5 -280.5q0 -178 100.5 -291.5t261.5 -113.5q60 0 115 14.5t90 35t61.5 40.5t38.5 34 l12 15l62 -72q-18 -22 -29.5 -34t-48 -40t-74.5 -44.5t-101.5 -30.5t-135.5 -14q-195 0 -330 140t-135 355zM313 1116l195 297h61l195 -297h-92l-133 215l-133 -215h-93z" />
<glyph unicode="&#x10a;" horiz-adv-x="1382" d="M86 705q0 158 55.5 294.5t151 231.5t227 149t279.5 54q307 0 512 -205l-72 -82q-60 76 -178 131t-262 55q-262 0 -428 -174t-166 -450q0 -277 166.5 -453t427.5 -176q282 0 450 186l72 -71q-199 -220 -522 -220q-203 0 -365.5 92t-255 259t-92.5 379zM676 1729 q0 38 26 64t64 26t64 -26t26 -64t-26 -64.5t-64 -26.5t-64 26.5t-26 64.5z" />
<glyph unicode="&#x10b;" horiz-adv-x="962" d="M82 475q0 142 66.5 256t175 175t233.5 61q71 0 134 -15t101 -34t72 -46.5t45.5 -40.5t22.5 -28l-68 -72q-22 26 -41 43t-57.5 42.5t-92.5 39.5t-120 14q-147 0 -252.5 -108.5t-105.5 -280.5q0 -178 100.5 -291.5t261.5 -113.5q60 0 115 14.5t90 35t61.5 40.5t38.5 34 l12 15l62 -72q-18 -22 -29.5 -34t-48 -40t-74.5 -44.5t-101.5 -30.5t-135.5 -14q-195 0 -330 140t-135 355zM451 1266q0 38 26 64t64 26t64 -26t26 -64t-26 -64t-64 -26t-64 26t-26 64z" />
<glyph unicode="&#x10c;" horiz-adv-x="1382" d="M86 705q0 158 55.5 294.5t151 231.5t227 149t279.5 54q307 0 512 -205l-72 -82q-60 76 -178 131t-262 55q-262 0 -428 -174t-166 -450q0 -277 166.5 -453t427.5 -176q282 0 450 186l72 -71q-199 -220 -522 -220q-203 0 -365.5 92t-255 259t-92.5 379zM535 1876h92 l133 -215l133 215h92l-194 -297h-62z" />
<glyph unicode="&#x10d;" horiz-adv-x="962" d="M82 475q0 142 66.5 256t175 175t233.5 61q71 0 134 -15t101 -34t72 -46.5t45.5 -40.5t22.5 -28l-68 -72q-22 26 -41 43t-57.5 42.5t-92.5 39.5t-120 14q-147 0 -252.5 -108.5t-105.5 -280.5q0 -178 100.5 -291.5t261.5 -113.5q60 0 115 14.5t90 35t61.5 40.5t38.5 34 l12 15l62 -72q-18 -22 -29.5 -34t-48 -40t-74.5 -44.5t-101.5 -30.5t-135.5 -14q-195 0 -330 140t-135 355zM315 1413h93l133 -215l133 215h92l-195 -297h-61z" />
<glyph unicode="&#x10e;" horiz-adv-x="1382" d="M174 0v1413h389q169 0 302.5 -57t213.5 -137q215 -215 215 -512t-215 -512q-81 -81 -214 -138t-302 -57h-389zM285 100h268q139 0 248 41t182 109q197 184 197 457q0 270 -197 454q-73 68 -182.5 110t-247.5 42h-268v-1213zM391 1876h92l133 -215l134 215h92l-195 -297 h-61z" />
<glyph unicode="&#x10f;" horiz-adv-x="1312" d="M82 475q0 215 128.5 353.5t338.5 138.5q227 0 356 -195v641h109v-1413h-109v176q-58 -98 -149.5 -147t-202.5 -49q-212 0 -341.5 140.5t-129.5 354.5zM195 475q0 -171 96 -285t262 -114q167 0 262.5 114t95.5 285q0 172 -95 285.5t-263 113.5q-166 0 -262 -113.5 t-96 -285.5zM1128 1024l123 389h123l-164 -389h-82z" />
<glyph unicode="&#x110;" horiz-adv-x="1382" d="M31 696v101h143v616h389q169 0 302.5 -57t213.5 -137q215 -215 215 -512t-215 -512q-81 -81 -214 -138t-302 -57h-389v696h-143zM285 100h268q139 0 248 41t182 109q197 184 197 457q0 270 -197 454q-73 68 -182.5 110t-247.5 42h-268v-516h411v-101h-411v-596z" />
<glyph unicode="&#x111;" horiz-adv-x="1177" d="M82 475q0 215 128.5 353.5t338.5 138.5q227 0 356 -195v402h-393v102h393v137h109v-137h143v-102h-143v-1174h-109v176q-58 -98 -149.5 -147t-202.5 -49q-212 0 -341.5 140.5t-129.5 354.5zM195 475q0 -171 96 -285t262 -114q167 0 262.5 114t95.5 285q0 172 -95 285.5 t-263 113.5q-166 0 -262 -113.5t-96 -285.5z" />
<glyph unicode="&#x112;" horiz-adv-x="1054" d="M174 0v1413h768v-100h-657v-512h620v-101h-620v-600h671v-100h-782zM350 1630v82h451v-82h-451z" />
<glyph unicode="&#x113;" horiz-adv-x="1044" d="M82 475q0 107 36.5 200t99 156.5t147 99.5t178.5 36q187 0 308.5 -126.5t121.5 -318.5l-6 -71h-772q8 -172 100.5 -273.5t251.5 -101.5q60 0 116.5 12.5t94.5 31t67 36.5t43 30l13 13l51 -76q-5 -6 -14.5 -15.5t-45 -34t-77 -43.5t-111.5 -34.5t-147 -15.5 q-205 0 -330 137.5t-125 357.5zM199 543h665q0 39 -11 82t-36.5 87.5t-62 80.5t-93 58.5t-124.5 22.5t-125 -22t-94.5 -56.5t-64.5 -79t-39.5 -88t-14.5 -85.5zM313 1167v82h451v-82h-451z" />
<glyph unicode="&#x114;" horiz-adv-x="1054" d="M174 0v1413h768v-100h-657v-512h620v-101h-620v-600h671v-100h-782zM291 1845h71q14 -73 69 -108t136 -35t136 35t69 108h72q-15 -114 -87.5 -174.5t-189.5 -60.5t-189 60.5t-87 174.5z" />
<glyph unicode="&#x115;" horiz-adv-x="1044" d="M82 475q0 107 36.5 200t99 156.5t147 99.5t178.5 36q187 0 308.5 -126.5t121.5 -318.5l-6 -71h-772q8 -172 100.5 -273.5t251.5 -101.5q60 0 116.5 12.5t94.5 31t67 36.5t43 30l13 13l51 -76q-5 -6 -14.5 -15.5t-45 -34t-77 -43.5t-111.5 -34.5t-147 -15.5 q-205 0 -330 137.5t-125 357.5zM199 543h665q0 39 -11 82t-36.5 87.5t-62 80.5t-93 58.5t-124.5 22.5t-125 -22t-94.5 -56.5t-64.5 -79t-39.5 -88t-14.5 -85.5zM246 1382h71q14 -73 69 -108t136 -35t136 35t69 108h72q-15 -114 -87.5 -174.5t-189.5 -60.5t-189 60.5 t-87 174.5z" />
<glyph unicode="&#x116;" horiz-adv-x="1054" d="M174 0v1413h768v-100h-657v-512h620v-101h-620v-600h671v-100h-782zM477 1729q0 38 26 64t64 26t64 -26t26 -64t-26 -64.5t-64 -26.5t-64 26.5t-26 64.5z" />
<glyph unicode="&#x117;" horiz-adv-x="1044" d="M82 475q0 107 36.5 200t99 156.5t147 99.5t178.5 36q187 0 308.5 -126.5t121.5 -318.5l-6 -71h-772q8 -172 100.5 -273.5t251.5 -101.5q60 0 116.5 12.5t94.5 31t67 36.5t43 30l13 13l51 -76q-5 -6 -14.5 -15.5t-45 -34t-77 -43.5t-111.5 -34.5t-147 -15.5 q-205 0 -330 137.5t-125 357.5zM199 543h665q0 39 -11 82t-36.5 87.5t-62 80.5t-93 58.5t-124.5 22.5t-125 -22t-94.5 -56.5t-64.5 -79t-39.5 -88t-14.5 -85.5zM432 1266q0 38 26 64t64 26t64 -26t26 -64t-26 -64t-64 -26t-64 26t-26 64z" />
<glyph unicode="&#x118;" horiz-adv-x="1054" d="M174 0v1413h768v-100h-657v-512h620v-101h-620v-600h671v-100h-129q-66 -39 -114.5 -106.5t-48.5 -124.5q0 -54 34.5 -83.5t87.5 -29.5q31 0 64.5 10.5t51 19.5t28.5 17l26 -51q-3 -3 -9.5 -8.5t-26.5 -20t-41 -25t-53 -19.5t-64 -9q-86 0 -140.5 50t-54.5 134 q0 128 160 246h-553z" />
<glyph unicode="&#x119;" horiz-adv-x="1044" d="M82 475q0 107 36.5 200t99 156.5t147 99.5t178.5 36q187 0 308.5 -126.5t121.5 -318.5l-6 -71h-772q8 -172 100.5 -273.5t251.5 -101.5q60 0 116.5 12.5t94.5 31t67 36.5t43 30l13 13l51 -76q-6 -8 -19 -20.5t-61 -42.5t-104 -48q-63 -39 -109.5 -105t-46.5 -122 q0 -54 35 -83.5t88 -29.5q77 0 143 47l27 -51q-3 -3 -9.5 -8.5t-26.5 -20t-41.5 -25t-53.5 -19.5t-64 -9q-86 0 -140 50.5t-54 134.5q0 107 118 213q-50 -4 -77 -4q-205 0 -330 137.5t-125 357.5zM199 543h665q0 39 -11 82t-36.5 87.5t-62 80.5t-93 58.5t-124.5 22.5 t-125 -22t-94.5 -56.5t-64.5 -79t-39.5 -88t-14.5 -85.5z" />
<glyph unicode="&#x11a;" horiz-adv-x="1054" d="M174 0v1413h768v-100h-657v-512h620v-101h-620v-600h671v-100h-782zM342 1876h92l133 -215l133 215h93l-195 -297h-61z" />
<glyph unicode="&#x11b;" horiz-adv-x="1044" d="M82 475q0 107 36.5 200t99 156.5t147 99.5t178.5 36q187 0 308.5 -126.5t121.5 -318.5l-6 -71h-772q8 -172 100.5 -273.5t251.5 -101.5q60 0 116.5 12.5t94.5 31t67 36.5t43 30l13 13l51 -76q-5 -6 -14.5 -15.5t-45 -34t-77 -43.5t-111.5 -34.5t-147 -15.5 q-205 0 -330 137.5t-125 357.5zM199 543h665q0 39 -11 82t-36.5 87.5t-62 80.5t-93 58.5t-124.5 22.5t-125 -22t-94.5 -56.5t-64.5 -79t-39.5 -88t-14.5 -85.5zM297 1413h92l133 -215l133 215h93l-195 -297h-61z" />
<glyph unicode="&#x11c;" horiz-adv-x="1536" d="M86 707q0 155 54 290.5t148 231t225 150.5t280 55q100 0 190 -21t145 -46.5t109.5 -67t73 -61t45.5 -50.5l-76 -82q-87 105 -203 166t-284 61q-124 0 -232 -43.5t-187 -123t-124 -198t-45 -261.5q0 -190 81 -334t217 -218.5t306 -74.5q95 0 177.5 16t133 39t87.5 46 t52 39l15 16v382h-434v101h542v-524q-4 -5 -11 -12.5t-33 -30.5t-56.5 -44t-81 -46t-106.5 -43.5t-133.5 -31t-161.5 -12.5q-202 0 -365.5 95t-255.5 262.5t-92 374.5zM543 1579l194 297h62l194 -297h-92l-133 215l-133 -215h-92z" />
<glyph unicode="&#x11d;" horiz-adv-x="1167" d="M82 483q0 144 64.5 256t169.5 170t231 58q123 0 215.5 -54t142.5 -143v180h109v-745q0 -156 -19 -251t-59 -159q-128 -205 -410 -205q-69 0 -135.5 15t-112 36t-81.5 42t-53 36l-17 15l61 82q46 -46 145 -87.5t204 -41.5t177 36.5t109 86.5q82 114 82 323v70 q-116 -203 -358 -203q-126 0 -231 58t-169.5 169.5t-64.5 255.5zM195 485q0 -169 94 -279t264 -110t264 110t94 279q0 110 -39.5 196t-122 138.5t-196.5 52.5t-196.5 -52.5t-122 -138.5t-39.5 -196zM328 1116l194 297h62l194 -297h-92l-133 215l-133 -215h-92z" />
<glyph unicode="&#x11e;" horiz-adv-x="1536" d="M86 707q0 155 54 290.5t148 231t225 150.5t280 55q100 0 190 -21t145 -46.5t109.5 -67t73 -61t45.5 -50.5l-76 -82q-87 105 -203 166t-284 61q-124 0 -232 -43.5t-187 -123t-124 -198t-45 -261.5q0 -190 81 -334t217 -218.5t306 -74.5q95 0 177.5 16t133 39t87.5 46 t52 39l15 16v382h-434v101h542v-524q-4 -5 -11 -12.5t-33 -30.5t-56.5 -44t-81 -46t-106.5 -43.5t-133.5 -31t-161.5 -12.5q-202 0 -365.5 95t-255.5 262.5t-92 374.5zM492 1845h71q14 -73 69 -108t136 -35t136 35t69 108h71q-15 -114 -87 -174.5t-189 -60.5t-189 60.5 t-87 174.5z" />
<glyph unicode="&#x11f;" horiz-adv-x="1167" d="M82 483q0 144 64.5 256t169.5 170t231 58q123 0 215.5 -54t142.5 -143v180h109v-745q0 -156 -19 -251t-59 -159q-128 -205 -410 -205q-69 0 -135.5 15t-112 36t-81.5 42t-53 36l-17 15l61 82q46 -46 145 -87.5t204 -41.5t177 36.5t109 86.5q82 114 82 323v70 q-116 -203 -358 -203q-126 0 -231 58t-169.5 169.5t-64.5 255.5zM195 485q0 -169 94 -279t264 -110t264 110t94 279q0 110 -39.5 196t-122 138.5t-196.5 52.5t-196.5 -52.5t-122 -138.5t-39.5 -196zM276 1382h72q14 -73 69 -108t136 -35t136 35t69 108h71 q-15 -114 -87 -174.5t-189 -60.5t-189.5 60.5t-87.5 174.5z" />
<glyph unicode="&#x120;" horiz-adv-x="1536" d="M86 707q0 155 54 290.5t148 231t225 150.5t280 55q100 0 190 -21t145 -46.5t109.5 -67t73 -61t45.5 -50.5l-76 -82q-87 105 -203 166t-284 61q-124 0 -232 -43.5t-187 -123t-124 -198t-45 -261.5q0 -190 81 -334t217 -218.5t306 -74.5q95 0 177.5 16t133 39t87.5 46 t52 39l15 16v382h-434v101h542v-524q-4 -5 -11 -12.5t-33 -30.5t-56.5 -44t-81 -46t-106.5 -43.5t-133.5 -31t-161.5 -12.5q-202 0 -365.5 95t-255.5 262.5t-92 374.5zM678 1729q0 38 26 64t64 26t64 -26t26 -64t-26 -64.5t-64 -26.5t-64 26.5t-26 64.5z" />
<glyph unicode="&#x121;" horiz-adv-x="1167" d="M82 483q0 144 64.5 256t169.5 170t231 58q123 0 215.5 -54t142.5 -143v180h109v-745q0 -156 -19 -251t-59 -159q-128 -205 -410 -205q-69 0 -135.5 15t-112 36t-81.5 42t-53 36l-17 15l61 82q46 -46 145 -87.5t204 -41.5t177 36.5t109 86.5q82 114 82 323v70 q-116 -203 -358 -203q-126 0 -231 58t-169.5 169.5t-64.5 255.5zM195 485q0 -169 94 -279t264 -110t264 110t94 279q0 110 -39.5 196t-122 138.5t-196.5 52.5t-196.5 -52.5t-122 -138.5t-39.5 -196zM463 1266q0 38 26 64t64 26t64 -26t26 -64t-26 -64t-64 -26t-64 26t-26 64 z" />
<glyph unicode="&#x122;" horiz-adv-x="1536" d="M86 707q0 155 54 290.5t148 231t225 150.5t280 55q100 0 190 -21t145 -46.5t109.5 -67t73 -61t45.5 -50.5l-76 -82q-87 105 -203 166t-284 61q-124 0 -232 -43.5t-187 -123t-124 -198t-45 -261.5q0 -190 81 -334t217 -218.5t306 -74.5q95 0 177.5 16t133 39t87.5 46 t52 39l15 16v382h-434v101h542v-524q-4 -5 -11 -12.5t-33 -30.5t-56.5 -44t-81 -46t-106.5 -43.5t-133.5 -31t-161.5 -12.5q-202 0 -365.5 95t-255.5 262.5t-92 374.5zM670 -389l71 287h123l-112 -287h-82z" />
<glyph unicode="&#x123;" horiz-adv-x="1167" d="M82 483q0 144 64.5 256t169.5 170t231 58q123 0 215.5 -54t142.5 -143v180h109v-745q0 -156 -19 -251t-59 -159q-128 -205 -410 -205q-69 0 -135.5 15t-112 36t-81.5 42t-53 36l-17 15l61 82q46 -46 145 -87.5t204 -41.5t177 36.5t109 86.5q82 114 82 323v70 q-116 -203 -358 -203q-126 0 -231 58t-169.5 169.5t-64.5 255.5zM195 485q0 -169 94 -279t264 -110t264 110t94 279q0 110 -39.5 196t-122 138.5t-196.5 52.5t-196.5 -52.5t-122 -138.5t-39.5 -196zM463 1151l112 287h82l-71 -287h-123z" />
<glyph unicode="&#x124;" horiz-adv-x="1443" d="M174 0v1413h111v-606h874v606h111v-1413h-111v707h-874v-707h-111zM496 1579l194 297h62l194 -297h-92l-133 215l-133 -215h-92z" />
<glyph unicode="&#x125;" horiz-adv-x="1067" d="M-8 1536l194 297h62l194 -297h-92l-133 215l-133 -215h-92zM164 0v1413h106v-639q35 85 120.5 139t187.5 54q99 0 166.5 -30t103.5 -87t50.5 -124.5t14.5 -158.5v-567h-108v563q0 52 -4 92t-18.5 83.5t-39 71.5t-68 46t-102.5 18q-99 0 -169 -54.5t-102 -144t-32 -204.5 v-471h-106z" />
<glyph unicode="&#x126;" horiz-adv-x="1443" d="M10 1116v92h164v205h111v-205h874v205h111v-205h164v-92h-164v-1116h-111v707h-874v-707h-111v1116h-164zM285 807h874v309h-874v-309z" />
<glyph unicode="&#x127;" horiz-adv-x="1067" d="M20 1174v102h144v137h106v-137h396v-102h-396v-400q35 85 120.5 139t187.5 54q99 0 166.5 -30t103.5 -87t50.5 -124.5t14.5 -158.5v-567h-108v563q0 52 -4 92t-18.5 83.5t-39 71.5t-68 46t-102.5 18q-99 0 -169 -54.5t-102 -144t-32 -204.5v-471h-106v1174h-144z" />
<glyph unicode="&#x128;" horiz-adv-x="458" d="M-57 1671q7 73 53 115.5t104 42.5q20 0 39.5 -3.5t35.5 -9.5t27 -11.5t23 -12.5t15 -8q1 0 26 -16t49 -25.5t47 -9.5q36 0 60 26.5t27 59.5l67 -21q-7 -73 -54.5 -115.5t-105.5 -42.5q-25 0 -49.5 6.5t-38 12.5t-30.5 16t-19 11q-1 0 -26.5 16t-49.5 25.5t-47 9.5 q-36 0 -59.5 -26t-28.5 -60zM174 0v1413h111v-1413h-111z" />
<glyph unicode="&#x129;" horiz-adv-x="434" d="M-70 1208q7 73 53.5 115.5t104.5 42.5q25 0 50 -6t38 -12t32 -16l19 -11q1 0 26.5 -16t49.5 -25.5t47 -9.5q36 0 59.5 26t26.5 60l68 -21q-7 -73 -54.5 -115t-105.5 -42q-25 0 -49.5 6t-37.5 12t-31 16t-19 11q-1 0 -26.5 16t-49.5 25.5t-47 9.5q-36 0 -59.5 -26 t-28.5 -60zM164 0v950h106v-950h-106z" />
<glyph unicode="&#x12a;" horiz-adv-x="458" d="M4 1630v82h451v-82h-451zM174 0v1413h111v-1413h-111z" />
<glyph unicode="&#x12b;" horiz-adv-x="434" d="M-8 1167v82h450v-82h-450zM164 0v950h106v-950h-106z" />
<glyph unicode="&#x12c;" horiz-adv-x="458" d="M-47 1845h72q14 -73 68.5 -108t135.5 -35t136 35t69 108h72q-15 -114 -87.5 -174.5t-189.5 -60.5t-189 60.5t-87 174.5zM174 0v1413h111v-1413h-111z" />
<glyph unicode="&#x12d;" horiz-adv-x="434" d="M-59 1382h71q14 -73 69 -108t136 -35t136 35t69 108h72q-15 -114 -87.5 -174.5t-189.5 -60.5t-189 60.5t-87 174.5zM164 0v950h106v-950h-106z" />
<glyph unicode="&#x12e;" horiz-adv-x="458" d="M12 -246q0 72 48 135.5t114 110.5v1413h111v-1413q-74 -36 -125 -104t-51 -127q0 -54 34.5 -83.5t87.5 -29.5q31 0 64.5 10.5t51 19.5t28.5 17l26 -51q-3 -3 -9.5 -8.5t-26.5 -20t-41 -25t-53 -19.5t-64 -9q-86 0 -140.5 50t-54.5 134z" />
<glyph unicode="&#x12f;" horiz-adv-x="434" d="M4 -246q0 128 160 246v950h106v-950q-72 -38 -121 -105t-49 -126q0 -54 35 -83.5t88 -29.5q31 0 64.5 10.5t51 19.5t28.5 17l26 -51q-3 -3 -9.5 -8.5t-26.5 -20t-41 -25t-53 -19.5t-64 -9q-86 0 -140.5 50t-54.5 134zM129 1288q0 37 25.5 62.5t62.5 25.5t62.5 -25.5 t25.5 -62.5t-25.5 -62.5t-62.5 -25.5t-62.5 25.5t-25.5 62.5z" />
<glyph unicode="&#x130;" horiz-adv-x="458" d="M139 1726q0 38 26 64.5t64 26.5t64 -26.5t26 -64.5t-26 -64t-64 -26t-64 26t-26 64zM174 0v1413h111v-1413h-111z" />
<glyph unicode="&#x131;" horiz-adv-x="434" d="M164 0v950h106v-950h-106z" />
<glyph unicode="&#x132;" horiz-adv-x="917" d="M174 0v1413h111v-1413h-111zM371 -307q39 -17 108 -17q35 0 61 11t42.5 34t27 48.5t15.5 64t6.5 70t1.5 76.5v1433h110v-1423q0 -199 -49 -287q-28 -51 -81.5 -87t-123.5 -36q-32 0 -61.5 5t-43.5 11l-13 5v92z" />
<glyph unicode="&#x133;" horiz-adv-x="868" d="M129 1288q0 37 25.5 62.5t62.5 25.5t62.5 -25.5t25.5 -62.5t-25.5 -62.5t-62.5 -25.5t-62.5 25.5t-25.5 62.5zM164 0v950h106v-950h-106zM346 -303q41 -14 92 -14q37 0 65 10.5t45 33t27.5 46.5t15 62.5t6 68t1.5 76.5v970h107v-970q0 -183 -46 -263q-77 -127 -221 -127 q-27 0 -50 4t-32 8l-10 3v92zM563 1288q0 37 25.5 62.5t62.5 25.5t62.5 -25.5t25.5 -62.5t-25.5 -62.5t-62.5 -25.5t-62.5 25.5t-25.5 62.5z" />
<glyph unicode="&#x134;" horiz-adv-x="458" d="M-88 -307q39 -17 108 -17q35 0 61 11t42.5 34t27 48.5t15.5 64t6.5 70t1.5 76.5v1433h111v-1423q0 -199 -49 -287q-28 -51 -81.5 -87t-123.5 -36q-32 0 -62 5t-43 11l-14 5v92zM4 1577l195 297h61l195 -297h-93l-133 215l-133 -215h-92z" />
<glyph unicode="&#x135;" horiz-adv-x="434" d="M-88 -303q41 -14 92 -14q37 0 65 10.5t45 33t27.5 46.5t15 62.5t6 68t1.5 76.5v970h106v-970q0 -185 -45 -263q-77 -127 -221 -127q-27 0 -50 4t-32 8l-10 3v92zM-8 1116l194 297h62l194 -297h-92l-133 215l-133 -215h-92z" />
<glyph unicode="&#x136;" horiz-adv-x="1116" d="M174 0v1413h111v-661l667 661h144l-570 -553l611 -860h-140l-546 788l-166 -163v-625h-111zM461 -389l71 287h123l-112 -287h-82z" />
<glyph unicode="&#x137;" horiz-adv-x="911" d="M164 0v1413h106v-891l457 428h133l-389 -362l451 -588h-134l-389 522l-129 -119v-403h-106zM379 -389l72 287h122l-112 -287h-82z" />
<glyph unicode="&#x138;" horiz-adv-x="901" d="M154 0v950h106v-428l457 428h133l-389 -362l450 -588h-133l-389 522l-129 -119v-403h-106z" />
<glyph unicode="&#x139;" horiz-adv-x="808" d="M166 1579l194 297h134l-236 -297h-92zM174 0v1413h111v-1313h503v-100h-614z" />
<glyph unicode="&#x13a;" horiz-adv-x="434" d="M147 1565l195 297h133l-235 -297h-93zM164 0v1413h106v-1413h-106z" />
<glyph unicode="&#x13b;" horiz-adv-x="808" d="M174 0v1413h111v-1313h503v-100h-614zM369 -389l71 287h123l-112 -287h-82z" />
<glyph unicode="&#x13c;" horiz-adv-x="434" d="M100 -389l72 287h123l-113 -287h-82zM164 0v1413h106v-1413h-106z" />
<glyph unicode="&#x13d;" horiz-adv-x="808" d="M174 0v1413h111v-1313h503v-100h-614zM522 1024l123 389h123l-164 -389h-82z" />
<glyph unicode="&#x13e;" horiz-adv-x="569" d="M164 0v1413h106v-1413h-106zM385 1024l123 389h123l-164 -389h-82z" />
<glyph unicode="&#x13f;" horiz-adv-x="808" d="M174 0v1413h111v-1313h503v-100h-614zM508 715q0 43 27.5 70.5t68.5 27.5q43 0 70.5 -27.5t27.5 -70.5q0 -41 -28 -69t-70 -28q-41 0 -68.5 28t-27.5 69z" />
<glyph unicode="&#x140;" horiz-adv-x="716" d="M164 0v1413h106v-1413h-106zM453 588q0 43 27.5 70.5t68.5 27.5q43 0 70.5 -27.5t27.5 -70.5q0 -41 -27.5 -68.5t-70.5 -27.5q-41 0 -68.5 27.5t-27.5 68.5z" />
<glyph unicode="&#x141;" horiz-adv-x="808" d="M31 461v112l143 113v727h111v-645l247 195v-113l-247 -195v-555h503v-100h-614v573z" />
<glyph unicode="&#x142;" horiz-adv-x="434" d="M31 522v123l133 133v635h106v-532l133 133v-123l-133 -133v-758h-106v655z" />
<glyph unicode="&#x143;" horiz-adv-x="1501" d="M174 0v1413h111l932 -1218v1218h110v-1413h-100l-942 1239v-1239h-111zM702 1579l195 297h133l-235 -297h-93z" />
<glyph unicode="&#x144;" horiz-adv-x="1046" d="M154 0v950h106v-176q36 85 120.5 139t186.5 54q99 0 167 -30t103.5 -87t50.5 -124.5t15 -158.5v-567h-108v563q0 52 -4 92t-18.5 83.5t-39 71.5t-68 46t-102.5 18q-99 0 -169 -54.5t-102 -144t-32 -204.5v-471h-106zM428 1116l195 297h133l-236 -297h-92z" />
<glyph unicode="&#x145;" horiz-adv-x="1501" d="M174 0v1413h111l932 -1218v1218h110v-1413h-100l-942 1239v-1239h-111zM653 -389l72 287h123l-113 -287h-82z" />
<glyph unicode="&#x146;" horiz-adv-x="1046" d="M154 0v950h106v-176q36 85 120.5 139t186.5 54q99 0 167 -30t103.5 -87t50.5 -124.5t15 -158.5v-567h-108v563q0 52 -4 92t-18.5 83.5t-39 71.5t-68 46t-102.5 18q-99 0 -169 -54.5t-102 -144t-32 -204.5v-471h-106zM426 -389l72 287h123l-113 -287h-82z" />
<glyph unicode="&#x147;" horiz-adv-x="1501" d="M174 0v1413h111l932 -1218v1218h110v-1413h-100l-942 1239v-1239h-111zM524 1876h92l134 -215l133 215h92l-195 -297h-61z" />
<glyph unicode="&#x148;" horiz-adv-x="1046" d="M154 0v950h106v-176q36 85 120.5 139t186.5 54q99 0 167 -30t103.5 -87t50.5 -124.5t15 -158.5v-567h-108v563q0 52 -4 92t-18.5 83.5t-39 71.5t-68 46t-102.5 18q-99 0 -169 -54.5t-102 -144t-32 -204.5v-471h-106zM297 1413h92l133 -215l133 215h93l-195 -297h-61z" />
<glyph unicode="&#x14a;" horiz-adv-x="1501" d="M174 0v1413h111l932 -1218v1218h110v-1423q0 -199 -49 -287q-28 -51 -81.5 -87t-123.5 -36q-32 0 -62 5t-43 11l-14 5v92q39 -17 109 -17q35 0 61 11t42.5 34t27 48.5t15.5 64t6.5 70t1.5 76.5v32l-932 1227v-1239h-111z" />
<glyph unicode="&#x14b;" horiz-adv-x="1046" d="M154 0v950h106v-176q36 85 120.5 139t186.5 54q99 0 167 -30t103.5 -87t50.5 -124.5t15 -158.5v-587q0 -181 -47 -263q-77 -127 -221 -127q-27 0 -50 4t-33 8l-9 3v92q41 -14 92 -14q37 0 65 10.5t45 33t27.5 46.5t15 62.5t6 68t1.5 76.5v583q0 52 -4 92t-18.5 83.5 t-39 71.5t-68 46t-102.5 18q-99 0 -169 -54.5t-102 -144t-32 -204.5v-471h-106z" />
<glyph unicode="&#x14c;" horiz-adv-x="1607" d="M86 705q0 132 37.5 248.5t104.5 203.5t157 150t196.5 95t221.5 32q144 0 274 -51t228.5 -143.5t156.5 -231t58 -303.5t-58 -303.5t-156 -231t-228.5 -144t-274.5 -51.5q-115 0 -221.5 32t-196.5 95.5t-157 150.5t-104.5 203.5t-37.5 248.5zM203 707q0 -143 49 -263 t131.5 -198.5t191 -122t228.5 -43.5q122 0 231 43.5t191.5 122t131 198.5t48.5 263q0 144 -48.5 264t-131 199t-191.5 122t-231 43q-121 0 -229.5 -43t-191 -121.5t-131 -198.5t-48.5 -265zM578 1630v82h450v-82h-450z" />
<glyph unicode="&#x14d;" horiz-adv-x="1136" d="M82 471q0 213 140.5 354.5t344.5 141.5q206 0 347 -141.5t141 -354.5t-141 -352t-347 -139q-134 0 -244.5 62t-175.5 175t-65 254zM195 475q0 -169 102.5 -284t269.5 -115q169 0 272 115t103 284q0 170 -103 284.5t-272 114.5q-168 0 -270 -114.5t-102 -284.5zM342 1167 v82h451v-82h-451z" />
<glyph unicode="&#x14e;" horiz-adv-x="1607" d="M86 705q0 132 37.5 248.5t104.5 203.5t157 150t196.5 95t221.5 32q144 0 274 -51t228.5 -143.5t156.5 -231t58 -303.5t-58 -303.5t-156 -231t-228.5 -144t-274.5 -51.5q-115 0 -221.5 32t-196.5 95.5t-157 150.5t-104.5 203.5t-37.5 248.5zM203 707q0 -143 49 -263 t131.5 -198.5t191 -122t228.5 -43.5q122 0 231 43.5t191.5 122t131 198.5t48.5 263q0 144 -48.5 264t-131 199t-191.5 122t-231 43q-121 0 -229.5 -43t-191 -121.5t-131 -198.5t-48.5 -265zM526 1845h72q14 -73 69 -108t136 -35t136 35t69 108h71q-15 -114 -87 -174.5 t-189 -60.5t-189.5 60.5t-87.5 174.5z" />
<glyph unicode="&#x14f;" horiz-adv-x="1136" d="M82 471q0 213 140.5 354.5t344.5 141.5q206 0 347 -141.5t141 -354.5t-141 -352t-347 -139q-134 0 -244.5 62t-175.5 175t-65 254zM195 475q0 -169 102.5 -284t269.5 -115q169 0 272 115t103 284q0 170 -103 284.5t-272 114.5q-168 0 -270 -114.5t-102 -284.5zM291 1382 h71q14 -73 69 -108t136 -35t136 35t69 108h72q-15 -114 -87.5 -174.5t-189.5 -60.5t-189 60.5t-87 174.5z" />
<glyph unicode="&#x150;" horiz-adv-x="1607" d="M86 705q0 132 37.5 248.5t104.5 203.5t157 150t196.5 95t221.5 32q144 0 274 -51t228.5 -143.5t156.5 -231t58 -303.5t-58 -303.5t-156 -231t-228.5 -144t-274.5 -51.5q-115 0 -221.5 32t-196.5 95.5t-157 150.5t-104.5 203.5t-37.5 248.5zM203 707q0 -143 49 -263 t131.5 -198.5t191 -122t228.5 -43.5q122 0 231 43.5t191.5 122t131 198.5t48.5 263q0 144 -48.5 264t-131 199t-191.5 122t-231 43q-121 0 -229.5 -43t-191 -121.5t-131 -198.5t-48.5 -265zM608 1579l195 297h133l-236 -297h-92zM834 1579l194 297h133l-235 -297h-92z" />
<glyph unicode="&#x151;" horiz-adv-x="1136" d="M82 471q0 213 140.5 354.5t344.5 141.5q206 0 347 -141.5t141 -354.5t-141 -352t-347 -139q-134 0 -244.5 62t-175.5 175t-65 254zM195 475q0 -169 102.5 -284t269.5 -115q169 0 272 115t103 284q0 170 -103 284.5t-272 114.5q-168 0 -270 -114.5t-102 -284.5zM334 1116 l194 297h134l-236 -297h-92zM559 1116l195 297h133l-236 -297h-92z" />
<glyph unicode="&#x152;" horiz-adv-x="2037" d="M86 705q0 164 58 303t155.5 231t225.5 143.5t268 51.5q133 0 232.5 -31.5t193.5 -91.5v102h706v-100h-596v-512h559v-101h-559v-600h610v-100h-720v102q-180 -127 -426 -127q-140 0 -268 51.5t-225.5 143.5t-155.5 231.5t-58 303.5zM203 707q0 -143 48.5 -263t130 -198.5 t188 -122t223.5 -43.5q253 0 426 156v942q-174 157 -426 157q-117 0 -223.5 -43.5t-188 -122t-130 -198.5t-48.5 -264z" />
<glyph unicode="&#x153;" horiz-adv-x="1894" d="M82 471q0 213 140.5 354.5t344.5 141.5q146 0 257 -70t167 -186q56 117 160 186.5t242 69.5q187 0 308.5 -126.5t121.5 -318.5q0 -18 -1.5 -36t-3.5 -26l-1 -9h-773q8 -171 101 -273t252 -102q60 0 116.5 12.5t94.5 31t67 36.5t43 30l13 13l51 -76q-5 -6 -14.5 -15.5 t-45.5 -34t-77.5 -43.5t-111.5 -34.5t-147 -15.5q-75 0 -140.5 20t-106.5 48t-75 65.5t-49.5 64t-25.5 51.5q-59 -115 -167.5 -182t-254.5 -67q-134 0 -244.5 62t-175.5 175t-65 254zM195 475q0 -169 102.5 -284t269.5 -115q169 0 272 115t103 284q0 170 -103 284.5 t-272 114.5q-168 0 -270 -114.5t-102 -284.5zM1049 543h665q0 50 -19 104.5t-56 106.5t-103 86t-150 34t-150.5 -32.5t-105 -84t-59 -106t-22.5 -108.5z" />
<glyph unicode="&#x154;" horiz-adv-x="1024" d="M174 0v1413h328q201 0 320.5 -101.5t119.5 -277.5q0 -85 -29 -153.5t-79 -113t-110 -71t-130 -37.5l430 -659h-141l-418 655h-180v-655h-111zM285 756h155q70 0 109 2.5t87.5 15.5t84.5 39q104 76 104 221q0 146 -104 219q-52 39 -115 49.5t-166 10.5h-155v-557z M399 1579l195 297h133l-235 -297h-93z" />
<glyph unicode="&#x155;" horiz-adv-x="614" d="M154 0v950h106v-178q25 93 93 144t149 51q27 0 52.5 -3.5t37.5 -7.5l12 -4l-10 -104q-46 16 -102 16q-60 0 -102 -28.5t-62 -57.5q-68 -98 -68 -266v-512h-106zM266 1116l195 297h133l-236 -297h-92z" />
<glyph unicode="&#x156;" horiz-adv-x="1024" d="M174 0v1413h328q201 0 320.5 -101.5t119.5 -277.5q0 -85 -29 -153.5t-79 -113t-110 -71t-130 -37.5l430 -659h-141l-418 655h-180v-655h-111zM285 756h155q70 0 109 2.5t87.5 15.5t84.5 39q104 76 104 221q0 146 -104 219q-52 39 -115 49.5t-166 10.5h-155v-557z M451 -389l71 287h123l-113 -287h-81z" />
<glyph unicode="&#x157;" horiz-adv-x="614" d="M117 -389l71 287h123l-112 -287h-82zM154 0v950h106v-178q25 93 93 144t149 51q27 0 52.5 -3.5t37.5 -7.5l12 -4l-10 -104q-46 16 -102 16q-60 0 -102 -28.5t-62 -57.5q-68 -98 -68 -266v-512h-106z" />
<glyph unicode="&#x158;" horiz-adv-x="1024" d="M174 0v1413h328q201 0 320.5 -101.5t119.5 -277.5q0 -85 -29 -153.5t-79 -113t-110 -71t-130 -37.5l430 -659h-141l-418 655h-180v-655h-111zM240 1876h92l133 -215l133 215h92l-194 -297h-62zM285 756h155q70 0 109 2.5t87.5 15.5t84.5 39q104 76 104 221 q0 146 -104 219q-52 39 -115 49.5t-166 10.5h-155v-557z" />
<glyph unicode="&#x159;" horiz-adv-x="614" d="M127 1413h92l133 -215l133 215h93l-195 -297h-61zM154 0v950h106v-178q25 93 93 144t149 51q27 0 52.5 -3.5t37.5 -7.5l12 -4l-10 -104q-46 16 -102 16q-60 0 -102 -28.5t-62 -57.5q-68 -98 -68 -266v-512h-106z" />
<glyph unicode="&#x15a;" horiz-adv-x="1069" d="M92 229l86 62q46 -85 139.5 -152t217.5 -67q140 0 234.5 81t94.5 216q0 51 -20 95t-46.5 71.5t-67 53t-67 37.5t-61.5 26q-5 2 -8 3q-164 66 -232 103q-204 115 -204 327q0 153 117.5 251t297.5 98q82 0 154.5 -25t117 -61.5t66.5 -60t31 -38.5l-78 -67q-24 31 -47 53.5 t-59.5 47.5t-85.5 38.5t-107 13.5q-128 0 -211.5 -64.5t-83.5 -180.5q0 -57 17.5 -102t51.5 -76t65.5 -50.5t76.5 -38.5q275 -118 291 -127q19 -10 35 -20.5t50.5 -40.5t58 -63.5t42.5 -87.5t19 -115q0 -165 -126 -279.5t-327 -114.5q-78 0 -147.5 21.5t-114.5 50.5 t-83.5 68.5t-56 64.5t-30.5 49zM451 1579l194 297h133l-235 -297h-92z" />
<glyph unicode="&#x15b;" horiz-adv-x="798" d="M51 164l76 61q101 -149 274 -149q96 0 160 46t64 134q0 22 -8 42.5t-19 35.5t-31.5 30t-36 24.5t-42 20.5t-41 16.5t-41 14t-33.5 11.5q-27 9 -41 14.5t-45.5 20t-51 27t-45.5 34t-40.5 44.5t-25.5 55t-11 67q0 82 44 141.5t107.5 86t136.5 26.5q100 0 170 -33t129 -100 l-65 -66q-52 56 -106.5 82.5t-131.5 26.5q-82 0 -132 -40t-50 -112q0 -35 16.5 -63t50.5 -50t67 -36.5t85 -32.5q41 -14 64.5 -23t64.5 -28t65.5 -39t51 -48t39 -65t12.5 -80q0 -128 -97.5 -204t-236.5 -76q-123 0 -210 51.5t-136 132.5zM274 1116l195 297h133l-235 -297 h-93z" />
<glyph unicode="&#x15c;" horiz-adv-x="1069" d="M92 229l86 62q46 -85 139.5 -152t217.5 -67q140 0 234.5 81t94.5 216q0 51 -20 95t-46.5 71.5t-67 53t-67 37.5t-61.5 26q-5 2 -8 3q-164 66 -232 103q-204 115 -204 327q0 153 117.5 251t297.5 98q82 0 154.5 -25t117 -61.5t66.5 -60t31 -38.5l-78 -67q-24 31 -47 53.5 t-59.5 47.5t-85.5 38.5t-107 13.5q-128 0 -211.5 -64.5t-83.5 -180.5q0 -57 17.5 -102t51.5 -76t65.5 -50.5t76.5 -38.5q275 -118 291 -127q19 -10 35 -20.5t50.5 -40.5t58 -63.5t42.5 -87.5t19 -115q0 -165 -126 -279.5t-327 -114.5q-78 0 -147.5 21.5t-114.5 50.5 t-83.5 68.5t-56 64.5t-30.5 49zM330 1579l194 297h62l194 -297h-92l-133 215l-133 -215h-92z" />
<glyph unicode="&#x15d;" horiz-adv-x="798" d="M51 164l76 61q101 -149 274 -149q96 0 160 46t64 134q0 22 -8 42.5t-19 35.5t-31.5 30t-36 24.5t-42 20.5t-41 16.5t-41 14t-33.5 11.5q-27 9 -41 14.5t-45.5 20t-51 27t-45.5 34t-40.5 44.5t-25.5 55t-11 67q0 82 44 141.5t107.5 86t136.5 26.5q100 0 170 -33t129 -100 l-65 -66q-52 56 -106.5 82.5t-131.5 26.5q-82 0 -132 -40t-50 -112q0 -35 16.5 -63t50.5 -50t67 -36.5t85 -32.5q41 -14 64.5 -23t64.5 -28t65.5 -39t51 -48t39 -65t12.5 -80q0 -128 -97.5 -204t-236.5 -76q-123 0 -210 51.5t-136 132.5zM172 1116l195 297h61l195 -297h-93 l-133 215l-133 -215h-92z" />
<glyph unicode="&#x15e;" horiz-adv-x="1069" d="M92 229l86 62q46 -85 139.5 -152t217.5 -67q140 0 234.5 81t94.5 216q0 51 -20 95t-46.5 71.5t-67 53t-67 37.5t-61.5 26q-5 2 -8 3q-164 66 -232 103q-204 115 -204 327q0 153 117.5 251t297.5 98q82 0 154.5 -25t117 -61.5t66.5 -60t31 -38.5l-78 -67q-24 31 -47 53.5 t-59.5 47.5t-85.5 38.5t-107 13.5q-128 0 -211.5 -64.5t-83.5 -180.5q0 -57 17.5 -102t51.5 -76t65.5 -50.5t76.5 -38.5q275 -118 291 -127q19 -10 35 -20.5t50.5 -40.5t58 -63.5t42.5 -87.5t19 -115q0 -140 -92 -245.5t-246 -135.5l-166 -285h-133l197 272h-13 q-78 0 -147.5 21.5t-114.5 50.5t-83.5 68.5t-56 64.5t-30.5 49z" />
<glyph unicode="&#x15f;" horiz-adv-x="798" d="M51 164l76 61q101 -149 274 -149q96 0 160 46t64 134q0 22 -8 42.5t-19 35.5t-31.5 30t-36 24.5t-42 20.5t-41 16.5t-41 14t-33.5 11.5q-27 9 -41 14.5t-45.5 20t-51 27t-45.5 34t-40.5 44.5t-25.5 55t-11 67q0 82 44 141.5t107.5 86t136.5 26.5q100 0 170 -33t129 -100 l-65 -66q-52 56 -106.5 82.5t-131.5 26.5q-82 0 -132 -40t-50 -112q0 -35 16.5 -63t50.5 -50t67 -36.5t85 -32.5q41 -14 64.5 -23t64.5 -28t65.5 -39t51 -48t39 -65t12.5 -80q0 -104 -65.5 -174.5t-169.5 -93.5l-168 -289h-133l200 277q-124 1 -209.5 52t-134.5 132z" />
<glyph unicode="&#x160;" horiz-adv-x="1069" d="M92 229l86 62q46 -85 139.5 -152t217.5 -67q140 0 234.5 81t94.5 216q0 51 -20 95t-46.5 71.5t-67 53t-67 37.5t-61.5 26q-5 2 -8 3q-164 66 -232 103q-204 115 -204 327q0 153 117.5 251t297.5 98q82 0 154.5 -25t117 -61.5t66.5 -60t31 -38.5l-78 -67q-24 31 -47 53.5 t-59.5 47.5t-85.5 38.5t-107 13.5q-128 0 -211.5 -64.5t-83.5 -180.5q0 -57 17.5 -102t51.5 -76t65.5 -50.5t76.5 -38.5q275 -118 291 -127q19 -10 35 -20.5t50.5 -40.5t58 -63.5t42.5 -87.5t19 -115q0 -165 -126 -279.5t-327 -114.5q-78 0 -147.5 21.5t-114.5 50.5 t-83.5 68.5t-56 64.5t-30.5 49zM342 1833h92l133 -215l133 215h93l-195 -297h-61z" />
<glyph unicode="&#x161;" horiz-adv-x="798" d="M51 164l76 61q101 -149 274 -149q96 0 160 46t64 134q0 22 -8 42.5t-19 35.5t-31.5 30t-36 24.5t-42 20.5t-41 16.5t-41 14t-33.5 11.5q-27 9 -41 14.5t-45.5 20t-51 27t-45.5 34t-40.5 44.5t-25.5 55t-11 67q0 82 44 141.5t107.5 86t136.5 26.5q100 0 170 -33t129 -100 l-65 -66q-52 56 -106.5 82.5t-131.5 26.5q-82 0 -132 -40t-50 -112q0 -35 16.5 -63t50.5 -50t67 -36.5t85 -32.5q41 -14 64.5 -23t64.5 -28t65.5 -39t51 -48t39 -65t12.5 -80q0 -128 -97.5 -204t-236.5 -76q-123 0 -210 51.5t-136 132.5zM174 1413h92l133 -215l133 215h93 l-195 -297h-61z" />
<glyph unicode="&#x162;" horiz-adv-x="991" d="M20 1313v100h951v-100h-420v-1313h-111v1313h-420zM397 -389l72 287h123l-113 -287h-82z" />
<glyph unicode="&#x163;" horiz-adv-x="573" d="M41 850v96h143v303h109v-303h239v-96h-241v-545q0 -37 2 -64.5t10.5 -60.5t22.5 -54t40.5 -35.5t63.5 -14.5q27 0 52.5 6.5t37.5 13.5l12 6l11 -92q-52 -30 -144 -30q-123 0 -180 102q-23 44 -29 101.5t-6 185.5v481h-143zM254 -389l72 287h123l-113 -287h-82z" />
<glyph unicode="&#x164;" horiz-adv-x="991" d="M20 1313v100h951v-100h-420v-1313h-111v1313h-420zM270 1876h92l134 -215l133 215h92l-195 -297h-61z" />
<glyph unicode="&#x165;" horiz-adv-x="677" d="M41 850v96h143v303h109v-303h239v-96h-241v-545q0 -37 2 -64.5t10.5 -60.5t22.5 -54t40.5 -35.5t63.5 -14.5q27 0 52.5 6.5t37.5 13.5l12 6l11 -92q-52 -30 -144 -30q-123 0 -180 102q-23 44 -29 101.5t-6 185.5v481h-143zM461 1024l123 389h123l-164 -389h-82z" />
<glyph unicode="&#x166;" horiz-adv-x="991" d="M20 1313v100h951v-100h-420v-363h231v-82h-231v-868h-111v868h-231v82h231v363h-420z" />
<glyph unicode="&#x167;" horiz-adv-x="573" d="M41 850v96h143v303h109v-303h239v-96h-241v-195h221v-82h-221v-268q0 -37 2 -64.5t10.5 -60.5t22.5 -54t40.5 -35.5t63.5 -14.5q27 0 52.5 6.5t37.5 13.5l12 6l11 -92q-52 -30 -144 -30q-123 0 -180 102q-23 44 -29 101.5t-6 185.5v204h-123v82h123v195h-143z" />
<glyph unicode="&#x168;" horiz-adv-x="1331" d="M164 569v844h110v-854q0 -52 1.5 -85.5t8 -82t22 -89.5t40.5 -75q110 -149 320 -149q209 0 319 149q25 34 40.5 75t22 89.5t8 82t1.5 85.5v854h110v-844q0 -147 -18 -242.5t-82 -176.5q-140 -175 -401 -175q-262 0 -402 175q-64 81 -82 176.5t-18 242.5zM379 1671 q7 73 53.5 115.5t104.5 42.5q25 0 50 -6t38 -12t32 -17l19 -10q1 0 26.5 -16t49.5 -25.5t47 -9.5q36 0 59.5 26t26.5 60l67 -21q-7 -73 -54 -115.5t-105 -42.5q-25 0 -50 6.5t-38 12.5t-31 16t-19 11q-1 0 -26.5 16t-49.5 25.5t-47 9.5q-36 0 -59.5 -26t-28.5 -60z" />
<glyph unicode="&#x169;" horiz-adv-x="1038" d="M143 385v565h107v-581q0 -49 4 -86.5t18.5 -79t39 -68.5t69 -45t104.5 -18q76 0 134 31t92 84.5t50.5 117t16.5 135.5v510h107v-950h-107v154q-45 -84 -125.5 -129t-181.5 -45q-174 0 -256 106q-72 93 -72 299zM231 1208q7 73 53.5 115.5t104.5 42.5q25 0 50 -6t38 -12 t32 -16l19 -11q1 0 26.5 -16t49.5 -25.5t47 -9.5q36 0 59.5 26t26.5 60l68 -21q-7 -73 -54.5 -115t-105.5 -42q-25 0 -49.5 6t-37.5 12t-31 16t-19 11q-1 0 -26.5 16t-49.5 25.5t-47 9.5q-36 0 -59.5 -26t-28.5 -60z" />
<glyph unicode="&#x16a;" horiz-adv-x="1331" d="M164 569v844h110v-854q0 -52 1.5 -85.5t8 -82t22 -89.5t40.5 -75q110 -149 320 -149q209 0 319 149q25 34 40.5 75t22 89.5t8 82t1.5 85.5v854h110v-844q0 -147 -18 -242.5t-82 -176.5q-140 -175 -401 -175q-262 0 -402 175q-64 81 -82 176.5t-18 242.5zM440 1630v82h451 v-82h-451z" />
<glyph unicode="&#x16b;" horiz-adv-x="1038" d="M143 385v565h107v-581q0 -49 4 -86.5t18.5 -79t39 -68.5t69 -45t104.5 -18q76 0 134 31t92 84.5t50.5 117t16.5 135.5v510h107v-950h-107v154q-45 -84 -125.5 -129t-181.5 -45q-174 0 -256 106q-72 93 -72 299zM293 1167v82h450v-82h-450z" />
<glyph unicode="&#x16c;" horiz-adv-x="1331" d="M164 569v844h110v-854q0 -52 1.5 -85.5t8 -82t22 -89.5t40.5 -75q110 -149 320 -149q209 0 319 149q25 34 40.5 75t22 89.5t8 82t1.5 85.5v854h110v-844q0 -147 -18 -242.5t-82 -176.5q-140 -175 -401 -175q-262 0 -402 175q-64 81 -82 176.5t-18 242.5zM389 1845h72 q14 -73 69 -108t136 -35t135.5 35t68.5 108h72q-15 -114 -87 -174.5t-189 -60.5t-189.5 60.5t-87.5 174.5z" />
<glyph unicode="&#x16d;" horiz-adv-x="1038" d="M143 385v565h107v-581q0 -49 4 -86.5t18.5 -79t39 -68.5t69 -45t104.5 -18q76 0 134 31t92 84.5t50.5 117t16.5 135.5v510h107v-950h-107v154q-45 -84 -125.5 -129t-181.5 -45q-174 0 -256 106q-72 93 -72 299zM242 1382h71q14 -73 69 -108t136 -35t136 35t69 108h72 q-15 -114 -87.5 -174.5t-189.5 -60.5t-189 60.5t-87 174.5z" />
<glyph unicode="&#x16e;" horiz-adv-x="1331" d="M164 569v844h110v-854q0 -52 1.5 -85.5t8 -82t22 -89.5t40.5 -75q110 -149 320 -149q209 0 319 149q25 34 40.5 75t22 89.5t8 82t1.5 85.5v854h110v-844q0 -147 -18 -242.5t-82 -176.5q-140 -175 -401 -175q-262 0 -402 175q-64 81 -82 176.5t-18 242.5zM481 1757 q0 77 54.5 131t130.5 54t130 -54t54 -131t-54 -130.5t-130 -53.5q-77 0 -131 54t-54 130zM557 1757q0 -46 32 -79t77 -33t75.5 33t30.5 79t-30.5 79.5t-75.5 33.5t-77 -33.5t-32 -79.5z" />
<glyph unicode="&#x16f;" horiz-adv-x="1038" d="M143 385v565h107v-581q0 -49 4 -86.5t18.5 -79t39 -68.5t69 -45t104.5 -18q76 0 134 31t92 84.5t50.5 117t16.5 135.5v510h107v-950h-107v154q-45 -84 -125.5 -129t-181.5 -45q-174 0 -256 106q-72 93 -72 299zM334 1294q0 77 54 131t130 54t130 -54t54 -131 q0 -76 -54 -130t-130 -54t-130 54t-54 130zM410 1294q0 -46 31.5 -79t76.5 -33t76 33t31 79t-31 79.5t-76 33.5t-76.5 -33.5t-31.5 -79.5z" />
<glyph unicode="&#x170;" horiz-adv-x="1331" d="M164 569v844h110v-854q0 -52 1.5 -85.5t8 -82t22 -89.5t40.5 -75q110 -149 320 -149q209 0 319 149q25 34 40.5 75t22 89.5t8 82t1.5 85.5v854h110v-844q0 -147 -18 -242.5t-82 -176.5q-140 -175 -401 -175q-262 0 -402 175q-64 81 -82 176.5t-18 242.5zM449 1579 l194 297h133l-235 -297h-92zM674 1579l194 297h133l-235 -297h-92z" />
<glyph unicode="&#x171;" horiz-adv-x="1038" d="M143 385v565h107v-581q0 -49 4 -86.5t18.5 -79t39 -68.5t69 -45t104.5 -18q76 0 134 31t92 84.5t50.5 117t16.5 135.5v510h107v-950h-107v154q-45 -84 -125.5 -129t-181.5 -45q-174 0 -256 106q-72 93 -72 299zM303 1116l195 297h133l-236 -297h-92zM528 1116l195 297 h133l-235 -297h-93z" />
<glyph unicode="&#x172;" horiz-adv-x="1331" d="M164 569v844h110v-854q0 -52 1.5 -85.5t8 -82t22 -89.5t40.5 -75q110 -149 320 -149q209 0 319 149q25 34 40.5 75t22 89.5t8 82t1.5 85.5v854h110v-844q0 -147 -18 -242.5t-82 -176.5q-114 -141 -307 -168q-57 -41 -96 -101.5t-39 -111.5q0 -54 35 -83.5t88 -29.5 q77 0 143 47l27 -51q-3 -3 -9.5 -8.5t-26.5 -20t-41.5 -25t-53.5 -19.5t-64 -9q-86 0 -140.5 50t-54.5 134q0 112 129 221q-256 3 -393 175q-64 81 -82 176.5t-18 242.5z" />
<glyph unicode="&#x173;" horiz-adv-x="1038" d="M143 385v565h107v-581q0 -49 4 -86.5t18.5 -79t39 -68.5t69 -45t104.5 -18q76 0 134 31t92 84.5t50.5 117t16.5 135.5v510h107v-950q-71 -39 -121.5 -106t-50.5 -125q0 -54 35 -83.5t88 -29.5q77 0 143 47l27 -51q-3 -3 -9.5 -8.5t-26.5 -20t-41.5 -25t-53.5 -19.5 t-64 -9q-86 0 -140.5 50t-54.5 134q0 72 48 135.5t114 110.5v154q-45 -84 -125.5 -129t-181.5 -45q-174 0 -256 106q-72 93 -72 299z" />
<glyph unicode="&#x174;" horiz-adv-x="1857" d="M20 1413h117l355 -1225l378 1225h117l379 -1225l354 1225h117l-414 -1415h-102l-393 1255l-391 -1255h-103zM702 1579l195 297h61l195 -297h-92l-133 215l-133 -215h-93z" />
<glyph unicode="&#x175;" horiz-adv-x="1474" d="M31 950h112l256 -796l297 798h82l297 -798l256 796h113l-318 -950h-92l-297 799l-297 -799h-92zM512 1116l195 297h61l195 -297h-93l-133 215l-133 -215h-92z" />
<glyph unicode="&#x176;" horiz-adv-x="1116" d="M10 1413h127l420 -706l420 706h129l-494 -809v-604h-110v604zM332 1579l194 297h62l194 -297h-92l-133 215l-133 -215h-92z" />
<glyph unicode="&#x177;" horiz-adv-x="890" d="M10 950h113l328 -827l327 827h113l-481 -1171q-24 -56 -51 -94t-56 -55t-53 -23t-53 -6t-58 6t-43 12l-14 6l20 103q38 -21 95 -21q47 0 78 29.5t63 120.5l55 157zM219 1116l195 297h61l195 -297h-92l-134 215l-133 -215h-92z" />
<glyph unicode="&#x178;" horiz-adv-x="1116" d="M10 1413h127l420 -706l420 706h129l-494 -809v-604h-110v604zM332 1694q0 41 25.5 66.5t62.5 25.5q35 0 60.5 -25.5t25.5 -66.5q0 -40 -25.5 -66t-60.5 -26q-36 0 -62 26t-26 66zM608 1694q0 41 25.5 66.5t62.5 25.5q35 0 60.5 -25.5t25.5 -66.5q0 -40 -25.5 -66 t-60.5 -26q-36 0 -62 26t-26 66z" />
<glyph unicode="&#x179;" horiz-adv-x="1095" d="M61 0v92l824 1221h-801v100h950v-74l-839 -1239h849v-100h-983zM424 1577l194 297h134l-236 -297h-92z" />
<glyph unicode="&#x17a;" horiz-adv-x="880" d="M51 0v76l608 774h-577v96h717v-76l-611 -774h641v-96h-778zM317 1116l195 297h133l-235 -297h-93z" />
<glyph unicode="&#x17b;" horiz-adv-x="1095" d="M61 0v92l824 1221h-801v100h950v-74l-839 -1239h849v-100h-983zM457 1726q0 38 26 64.5t64 26.5t64 -26.5t26 -64.5t-26 -64t-64 -26t-64 26t-26 64z" />
<glyph unicode="&#x17c;" horiz-adv-x="880" d="M51 0v76l608 774h-577v96h717v-76l-611 -774h641v-96h-778zM350 1266q0 38 26 64t64 26t64 -26t26 -64t-26 -64t-64 -26t-64 26t-26 64z" />
<glyph unicode="&#x17d;" horiz-adv-x="1095" d="M61 0v92l824 1221h-801v100h950v-74l-839 -1239h849v-100h-983zM334 1833h92l133 -215l133 215h92l-194 -297h-62z" />
<glyph unicode="&#x17e;" horiz-adv-x="880" d="M51 0v76l608 774h-577v96h717v-76l-611 -774h641v-96h-778zM215 1413h92l133 -215l133 215h93l-195 -297h-61z" />
<glyph unicode="&#x192;" d="M86 -195l41 86q58 -30 119 -30q67 0 112 51q37 44 62 190l115 627h-187l14 94h191l72 365q22 112 82 178q68 78 174 78q49 0 96.5 -16t66.5 -31l-40 -86q-54 35 -123 35q-26 0 -47 -7.5t-35.5 -17.5t-27.5 -30t-20 -35.5t-14.5 -44t-10.5 -44t-9 -47.5l-58 -297h236 l-14 -94h-238l-127 -668q-9 -49 -19 -86t-30.5 -80t-48 -71t-72 -47t-100.5 -19q-41 0 -81 12t-59 24z" />
<glyph unicode="&#x1fc;" horiz-adv-x="1714" d="M-51 0l891 1413h764v-100h-603v-502h566v-100h-566v-611h617v-100h-727v430h-553l-266 -430h-123zM401 532h490v783h-6zM1133 1577l194 297h133l-235 -297h-92z" />
<glyph unicode="&#x1fd;" horiz-adv-x="1658" d="M61 266q0 127 96 203.5t283 83.5l260 10v51q0 126 -74 193t-192 67q-95 0 -173.5 -29t-106.5 -52l-41 77q144 97 317 97q187 0 287 -107q24 -27 39.5 -52.5t18.5 -37.5l3 -12q61 99 162 154t217 55q187 0 308.5 -126.5t121.5 -318.5q0 -18 -1.5 -36t-3.5 -26l-1 -9h-772 q8 -172 100.5 -273.5t251.5 -101.5q60 0 116.5 12.5t94.5 31t67 36.5t43 30l13 13l51 -76q-5 -6 -14.5 -15.5t-45 -34t-77 -43.5t-111.5 -34.5t-147 -15.5q-40 0 -77.5 5.5t-67 15t-57.5 23t-48.5 27t-40 30.5t-32 30.5t-24.5 29t-18 25l-12 19t-6 10.5 q-77 -103 -168.5 -159t-220.5 -56q-138 0 -228 81.5t-90 204.5zM168 266q0 -82 60.5 -138t170.5 -56q108 0 202 64t128 140q-29 90 -29 205l-270 -16q-140 -7 -201 -61t-61 -138zM739 1116l195 297h133l-236 -297h-92zM813 543h666q0 50 -19 104.5t-56 106.5t-103 86 t-150 34q-68 0 -125 -22t-94.5 -56.5t-64.5 -79t-39.5 -88t-14.5 -85.5z" />
<glyph unicode="&#x1fe;" horiz-adv-x="1607" d="M86 705q0 132 37.5 248.5t104.5 203.5t157 150t196.5 95t221.5 32q137 0 260.5 -44.5t218.5 -129.5l172 174l66 -68l-170 -174q170 -197 170 -487q0 -165 -58 -303.5t-156 -231t-228.5 -144t-274.5 -51.5q-277 0 -477 175l-168 -170l-66 65l166 170q-172 200 -172 490z M203 707q0 -246 135 -410l872 887q-168 151 -407 151q-121 0 -229.5 -43t-191 -121.5t-131 -198.5t-48.5 -265zM403 227q79 -71 183 -109t217 -38q122 0 231 43.5t191.5 122t131 198.5t48.5 263q0 243 -131 409zM758 1536l194 297h133l-235 -297h-92z" />
<glyph unicode="&#x1ff;" horiz-adv-x="1136" d="M61 25l129 131q-108 130 -108 315q0 213 140.5 354.5t344.5 141.5q186 0 318 -113l129 129l61 -61l-129 -131q109 -135 109 -320q0 -213 -141 -352t-347 -139q-183 0 -317 112l-127 -129zM195 475q0 -141 71 -244l549 553q-100 90 -248 90q-168 0 -270 -114.5 t-102 -284.5zM324 166q100 -90 243 -90q169 0 272 115t103 284q0 138 -70 244zM475 1116l195 297h133l-236 -297h-92z" />
<glyph unicode="&#x237;" horiz-adv-x="434" d="M-88 -303q41 -14 92 -14q37 0 65 10.5t45 33t27.5 46.5t15 62.5t6 68t1.5 76.5v970h106v-970q0 -185 -45 -263q-77 -127 -221 -127q-27 0 -50 4t-32 8l-10 3v92z" />
<glyph unicode="&#x2c6;" horiz-adv-x="573" d="M61 1116l195 297h61l195 -297h-92l-133 215l-133 -215h-93z" />
<glyph unicode="&#x2c7;" horiz-adv-x="573" d="M61 1413h93l133 -215l133 215h92l-195 -297h-61z" />
<glyph unicode="&#x2d8;" horiz-adv-x="573" d="M10 1382h72q14 -73 69 -108t136 -35t136 35t69 108h71q-15 -114 -87 -174.5t-189 -60.5t-189.5 60.5t-87.5 174.5z" />
<glyph unicode="&#x2d9;" horiz-adv-x="573" d="M197 1266q0 38 26 64t64 26t64 -26t26 -64t-26 -64t-64 -26t-64 26t-26 64z" />
<glyph unicode="&#x2da;" horiz-adv-x="573" d="M102 1294q0 76 54 130.5t131 54.5q76 0 130 -54t54 -131q0 -76 -53.5 -130t-130.5 -54t-131 54t-54 130zM178 1294q0 -46 32 -79t77 -33t75.5 33t30.5 79t-30.5 79.5t-75.5 33.5t-77 -33.5t-32 -79.5z" />
<glyph unicode="&#x2db;" horiz-adv-x="573" d="M92 -246q0 133 174 256h86v-10q-66 -39 -115 -106.5t-49 -124.5q0 -54 35 -83.5t88 -29.5q31 0 64.5 10.5t51 19.5t28.5 17l26 -51q-3 -3 -9.5 -8.5t-26.5 -20t-41 -25t-53 -19.5t-64 -9q-86 0 -140.5 50t-54.5 134z" />
<glyph unicode="&#x2dc;" horiz-adv-x="573" d="M0 1208q7 73 53.5 115.5t104.5 42.5q25 0 50 -6t38 -12t32 -16l19 -11q1 0 26.5 -16t49.5 -25.5t47 -9.5q36 0 59.5 26t26.5 60l67 -21q-7 -73 -54 -115t-105 -42q-25 0 -50 6t-37.5 12t-31 16.5t-19.5 10.5t-26 16t-49 25.5t-47 9.5q-36 0 -59.5 -26t-28.5 -60z" />
<glyph unicode="&#x2dd;" horiz-adv-x="573" d="M10 1116l195 297h133l-236 -297h-92zM236 1116l194 297h133l-235 -297h-92z" />
<glyph unicode="&#x1e80;" horiz-adv-x="1857" d="M20 1413h117l355 -1225l378 1225h117l379 -1225l354 1225h117l-414 -1415h-102l-393 1255l-391 -1255h-103zM713 1876h133l194 -297h-92z" />
<glyph unicode="&#x1e81;" horiz-adv-x="1474" d="M31 950h112l256 -796l297 798h82l297 -798l256 796h113l-318 -950h-92l-297 799l-297 -799h-92zM530 1413h134l194 -297h-92z" />
<glyph unicode="&#x1e82;" horiz-adv-x="1857" d="M20 1413h117l355 -1225l378 1225h117l379 -1225l354 1225h117l-414 -1415h-102l-393 1255l-391 -1255h-103zM776 1579l195 297h133l-236 -297h-92z" />
<glyph unicode="&#x1e83;" horiz-adv-x="1474" d="M31 950h112l256 -796l297 798h82l297 -798l256 796h113l-318 -950h-92l-297 799l-297 -799h-92zM604 1116l195 297h133l-236 -297h-92z" />
<glyph unicode="&#x1e84;" horiz-adv-x="1857" d="M20 1413h117l355 -1225l378 1225h117l379 -1225l354 1225h117l-414 -1415h-102l-393 1255l-391 -1255h-103zM702 1726q0 41 25.5 67t60.5 26q37 0 63 -26t26 -67q0 -40 -26.5 -66t-62.5 -26q-35 0 -60.5 26t-25.5 66zM979 1726q0 41 25.5 67t60.5 26q37 0 62.5 -25.5 t25.5 -67.5q0 -40 -26 -66t-62 -26q-35 0 -60.5 26t-25.5 66z" />
<glyph unicode="&#x1e85;" horiz-adv-x="1474" d="M31 950h112l256 -796l297 798h82l297 -798l256 796h113l-318 -950h-92l-297 799l-297 -799h-92zM512 1264q0 41 25.5 66.5t60.5 25.5q37 0 62.5 -25.5t25.5 -66.5q0 -40 -26 -66.5t-62 -26.5q-35 0 -60.5 26.5t-25.5 66.5zM788 1264q0 41 25.5 66.5t60.5 25.5 q37 0 63 -25.5t26 -66.5q0 -40 -26.5 -66.5t-62.5 -26.5q-35 0 -60.5 26.5t-25.5 66.5z" />
<glyph unicode="&#x1ef2;" horiz-adv-x="1116" d="M10 1413h127l420 -706l420 706h129l-494 -809v-604h-110v604zM336 1876h133l195 -297h-93z" />
<glyph unicode="&#x1ef3;" horiz-adv-x="890" d="M10 950h113l328 -827l327 827h113l-481 -1171q-24 -56 -51 -94t-56 -55t-53 -23t-53 -6t-58 6t-43 12l-14 6l20 103q38 -21 95 -21q47 0 78 29.5t63 120.5l55 157zM199 1413h133l194 -297h-92z" />
<glyph unicode="&#x2000;" horiz-adv-x="971" />
<glyph unicode="&#x2001;" horiz-adv-x="1942" />
<glyph unicode="&#x2002;" horiz-adv-x="971" />
<glyph unicode="&#x2003;" horiz-adv-x="1942" />
<glyph unicode="&#x2004;" horiz-adv-x="647" />
<glyph unicode="&#x2005;" horiz-adv-x="485" />
<glyph unicode="&#x2006;" horiz-adv-x="323" />
<glyph unicode="&#x2007;" horiz-adv-x="323" />
<glyph unicode="&#x2008;" horiz-adv-x="242" />
<glyph unicode="&#x2009;" horiz-adv-x="388" />
<glyph unicode="&#x200a;" horiz-adv-x="107" />
<glyph unicode="&#x2010;" horiz-adv-x="534" d="M43 518v103h449v-103h-449z" />
<glyph unicode="&#x2011;" horiz-adv-x="534" d="M43 518v103h449v-103h-449z" />
<glyph unicode="&#x2012;" horiz-adv-x="534" d="M43 518v103h449v-103h-449z" />
<glyph unicode="&#x2013;" horiz-adv-x="921" d="M0 522v92h922v-92h-922z" />
<glyph unicode="&#x2014;" horiz-adv-x="1638" d="M0 522v92h1638v-92h-1638z" />
<glyph unicode="&#x2018;" horiz-adv-x="583" d="M174 1024l164 389h82l-123 -389h-123z" />
<glyph unicode="&#x2019;" horiz-adv-x="583" d="M164 1024l123 389h123l-164 -389h-82z" />
<glyph unicode="&#x201a;" horiz-adv-x="583" d="M164 -236l123 390h123l-164 -390h-82z" />
<glyph unicode="&#x201c;" horiz-adv-x="890" d="M174 1024l164 389h82l-123 -389h-123zM481 1024l164 389h82l-123 -389h-123z" />
<glyph unicode="&#x201d;" horiz-adv-x="890" d="M164 1024l123 389h123l-164 -389h-82zM471 1024l123 389h123l-164 -389h-82z" />
<glyph unicode="&#x201e;" horiz-adv-x="890" d="M164 -236l123 390h123l-164 -390h-82zM471 -236l123 390h123l-164 -390h-82z" />
<glyph unicode="&#x2020;" d="M133 850v96h389v539h103v-539h389v-96h-389v-1239h-103v1239h-389z" />
<glyph unicode="&#x2021;" d="M133 147v99h389v604h-389v96h389v539h103v-539h389v-96h-389v-604h389v-99h-389v-536h-103v536h-389z" />
<glyph unicode="&#x2022;" horiz-adv-x="1024" d="M225 748q0 115 85.5 200.5t201.5 85.5t201.5 -85.5t85.5 -200.5q0 -116 -85.5 -201.5t-201.5 -85.5t-201.5 85.5t-85.5 201.5z" />
<glyph unicode="&#x2026;" horiz-adv-x="1894" d="M246 78q0 38 26 64t64 26t65 -26t27 -64t-27 -65t-65 -27t-64 27t-26 65zM856 78q0 38 26 64t64 26t65 -26t27 -64t-27 -65t-65 -27t-64 27t-26 65zM1466 78q0 38 26 64t64 26q39 0 66 -26t27 -64t-27.5 -65t-65.5 -27t-64 27t-26 65z" />
<glyph unicode="&#x202f;" horiz-adv-x="388" />
<glyph unicode="&#x2030;" horiz-adv-x="2191" d="M92 1096q0 140 88.5 230.5t222.5 90.5q136 0 225 -90.5t89 -230.5q0 -142 -89 -233t-225 -91q-134 0 -222.5 91t-88.5 233zM188 1096q0 -104 60 -170t155 -66q96 0 155.5 65.5t59.5 170.5q0 103 -59.5 169t-155.5 66q-95 0 -155 -66t-60 -169zM266 0l871 1444l75 -47 l-870 -1444zM762 301q0 142 88.5 233t224.5 91q134 0 222.5 -91t88.5 -233q0 -140 -88.5 -230.5t-222.5 -90.5q-136 0 -224.5 90.5t-88.5 230.5zM860 301q0 -103 59.5 -169t155.5 -66q95 0 155 66t60 169q0 104 -60 170t-155 66q-96 0 -155.5 -65.5t-59.5 -170.5zM1475 301 q0 142 88.5 233t222.5 91q136 0 224.5 -91t88.5 -233q0 -140 -88.5 -230.5t-224.5 -90.5q-134 0 -222.5 90.5t-88.5 230.5zM1571 301q0 -103 60 -169t155 -66q96 0 155.5 66t59.5 169q0 105 -59.5 170.5t-155.5 65.5q-95 0 -155 -66t-60 -170z" />
<glyph unicode="&#x2039;" horiz-adv-x="583" d="M102 475l289 381l74 -57l-244 -324l246 -325l-76 -56z" />
<glyph unicode="&#x203a;" horiz-adv-x="583" d="M117 801l73 55l291 -381l-291 -381l-71 58l241 323z" />
<glyph unicode="&#x2044;" horiz-adv-x="303" d="M-350 -6l923 1556l80 -47l-925 -1556z" />
<glyph unicode="&#x205f;" horiz-adv-x="485" />
<glyph unicode="&#x20ac;" d="M51 539v96h135q-2 49 -2 80l2 80h-135v96h144q30 236 162.5 389.5t326.5 153.5q75 0 140 -19t102 -40.5t71 -55t41 -44t17 -26.5l-72 -71q-53 73 -124 115t-179 42q-61 0 -117.5 -25.5t-107.5 -77t-89 -139t-55 -202.5h590v-96h-598q-2 -49 -2 -80l2 -80h598v-96h-590 q27 -218 127 -337.5t248 -119.5q55 0 105 14.5t81.5 33.5t60 45.5t39.5 41t21 29.5l72 -62q-6 -13 -17.5 -30t-44 -51.5t-72 -60.5t-105 -46.5t-140.5 -20.5q-198 0 -330 153t-161 411h-144z" />
<glyph unicode="&#x2122;" horiz-adv-x="1689" d="M102 1321v92h574v-92h-236v-707h-102v707h-236zM721 614l67 799h144l215 -635h4l215 635h143l68 -799h-102l-52 666h-6l-229 -666h-78l-229 666h-7l-51 -666h-102z" />
<glyph unicode="&#x220f;" horiz-adv-x="1656" d="M102 477v92h174v285h-174v92h174v467h390q169 0 302.5 -57t213.5 -137q121 -121 174 -273h198v-92h-172q15 -84 15 -147q0 -68 -13 -138h170v-92h-194q-52 -156 -178 -282q-81 -81 -214 -138t-302 -57h-390v477h-174zM387 100h268q139 0 248 41t182 109q104 97 154 227 h-852v-377zM387 569h881q14 57 14 138q0 75 -16 147h-879v-285zM387 946h848q-51 124 -150 215q-73 68 -182.5 110t-247.5 42h-268v-367z" />
<glyph unicode="&#x2212;" horiz-adv-x="1320" d="M143 659v93h1035v-93h-1035z" />
<glyph unicode="&#x2260;" horiz-adv-x="1320" d="M143 502v92h443l55 225h-498v92h521l77 318h93l-78 -318h422v-92h-445l-55 -225h500v-92h-523l-77 -318h-93l78 318h-420z" />
<glyph unicode="&#x2264;" horiz-adv-x="2015" d="M96 819q0 47 34 81t81 34t81 -34t34 -81t-34 -80.5t-81 -33.5t-81 33.5t-34 80.5zM270 584q0 47 34 80.5t81 33.5t81 -33.5t34 -80.5t-34 -81t-81 -34t-81 34t-34 81zM270 1055q0 47 34 80.5t81 33.5t81 -33.5t34 -80.5t-34 -81t-81 -34t-81 34t-34 81zM434 819 q0 47 34 81t81 34t81 -34t34 -81t-34 -80.5t-81 -33.5t-81 33.5t-34 80.5zM444 348q0 47 34 81t81 34t81 -34t34 -81t-34 -81t-81 -34t-81 34t-34 81zM444 1290q0 47 34 81t81 34t81 -34t34 -81t-34 -80.5t-81 -33.5t-81 33.5t-34 80.5zM618 113q0 47 34 80.5t81 33.5 t81 -33.5t34 -80.5t-34 -81t-81 -34t-81 34t-34 81zM618 1526q0 47 34 80.5t81 33.5t81 -33.5t34 -80.5t-34 -81t-81 -34t-81 34t-34 81zM772 819q0 47 34.5 81t80.5 34q47 0 80.5 -34t33.5 -81t-33.5 -80.5t-80.5 -33.5q-46 0 -80.5 33.5t-34.5 80.5zM1110 819q0 47 34 81 t81 34t80.5 -34t33.5 -81t-33.5 -80.5t-80.5 -33.5t-81 33.5t-34 80.5zM1448 819q0 47 34 81t81 34t80.5 -34t33.5 -81t-33.5 -80.5t-80.5 -33.5t-81 33.5t-34 80.5zM1786 819q0 47 34 81t81 34t80.5 -34t33.5 -81t-33.5 -80.5t-80.5 -33.5t-81 33.5t-34 80.5z" />
<glyph unicode="&#x2265;" horiz-adv-x="2015" d="M0 819q0 47 34 81t81 34t80.5 -34t33.5 -81t-33.5 -80.5t-80.5 -33.5t-81 33.5t-34 80.5zM338 819q0 47 34 81t81 34t80.5 -34t33.5 -81t-33.5 -80.5t-80.5 -33.5t-81 33.5t-34 80.5zM676 819q0 47 34 81t81 34t80.5 -34t33.5 -81t-33.5 -80.5t-80.5 -33.5t-81 33.5 t-34 80.5zM1014 819q0 47 33.5 81t80.5 34q46 0 80.5 -34t34.5 -81t-34.5 -80.5t-80.5 -33.5q-47 0 -80.5 33.5t-33.5 80.5zM1167 113q0 47 34 80.5t81 33.5t81 -33.5t34 -80.5t-34 -81t-81 -34t-81 34t-34 81zM1167 1526q0 47 34 80.5t81 33.5t81 -33.5t34 -80.5t-34 -81 t-81 -34t-81 34t-34 81zM1341 348q0 47 34 81t81 34t81 -34t34 -81t-34 -81t-81 -34t-81 34t-34 81zM1341 1290q0 47 34 81t81 34t81 -34t34 -81t-34 -80.5t-81 -33.5t-81 33.5t-34 80.5zM1352 819q0 47 33.5 81t80.5 34t81 -34t34 -81t-34 -80.5t-81 -33.5t-80.5 33.5 t-33.5 80.5zM1516 584q0 47 33.5 80.5t80.5 33.5t81 -33.5t34 -80.5t-34 -81t-81 -34t-80.5 34t-33.5 81zM1516 1055q0 47 33.5 80.5t80.5 33.5t81 -33.5t34 -80.5t-34 -81t-81 -34t-80.5 34t-33.5 81zM1690 819q0 47 33.5 81t80.5 34t81 -34t34 -81t-34 -80.5t-81 -33.5 t-80.5 33.5t-33.5 80.5z" />
<glyph unicode="&#x25fc;" horiz-adv-x="952" d="M0 0v952h952v-952h-952z" />
<glyph unicode="&#xf6c3;" horiz-adv-x="583" d="M184 -389l72 287h123l-113 -287h-82z" />
<glyph unicode="&#xf8ff;" horiz-adv-x="2947" d="M45 49q38 14 87.5 29t62.5 20q72 26 129 90t57 121q0 68 -46.5 107t-115.5 39q-145 0 -145 -84q0 -25 27.5 -40.5t60.5 -15.5q19 0 40.5 10.5t30.5 17.5t35 28v-15q-17 -24 -47 -43.5t-59 -19.5q-42 0 -73.5 22t-31.5 56q0 98 154 98q89 0 138.5 -46t49.5 -122 q0 -58 -51.5 -115.5t-93.5 -83.5l29 -8q86 -19 143 -52t109 -105h-3v-3q-6 1 -17.5 4t-16.5 3q-26 0 -39 -13t-13 -32q0 -42 50 -66.5t96 -24.5q28 0 55.5 12t40.5 31h-8q-36 0 -75.5 20t-39.5 58q0 43 53 43q38 0 69.5 -25.5t31.5 -58.5q0 -2 -1 -8t-1 -8q49 12 86 47 t37 90q0 26 -11 60h7q12 -18 12 -60q0 -58 -40.5 -101t-98.5 -52q-14 -27 -48.5 -42.5t-68.5 -15.5q-56 0 -106 26t-50 75q0 24 14 40.5t39 16.5q15 0 25 -2q-72 62 -138 88.5t-157 26.5q-45 0 -174 -17zM113 1204q0 76 48 142.5t115 66.5q6 0 15 -1t12 -1v-10h-18 q-65 0 -112.5 -61.5t-47.5 -133.5q0 -68 49 -102q55 125 162 248t176 123q63 0 63 -109q0 -88 -72.5 -169.5t-166.5 -115.5q0 -1 -1 -3t-1 -3q-2 -9 -11 -46.5t-13 -54.5t-10 -46.5t-8.5 -51t-2.5 -38.5q0 -31 18.5 -50.5t33.5 -23.5t24 -4q50 0 100 37q-29 20 -70 20 q-14 0 -34 -4.5t-23 -7.5v6q7 7 24.5 12.5t26.5 5.5q51 0 86 -24q39 34 62.5 84t23.5 102q0 90 -57 90q-55 0 -90 -47.5t-35 -103.5q0 -13 2.5 -25.5t11.5 -24.5t23 -12q29 0 46 35.5t17 71.5q0 8 -4 24h12q5 -10 5 -24q0 -39 -23 -79t-53 -40q-49 0 -49 78q0 57 37.5 109.5 t93.5 52.5q43 0 68.5 -38t25.5 -91q0 -51 -26 -99t-72 -80q24 -24 24 -69q0 -77 -88 -113q2 -2 2 -8q0 -29 -26.5 -50.5t-55.5 -21.5h-8l6 6q19 0 43.5 17.5t24.5 42.5v10q-38 -14 -80 -14q-24 0 -53.5 5.5t-57.5 22.5t-28 41q0 25 28.5 37.5t55.5 12.5q35 0 80 -23.5 t65 -54.5q72 30 72 94q0 37 -17 57q-56 -32 -114 -32q-96 0 -159 67.5t-63 181.5q0 27 21 88q-53 39 -53 119zM217 657q0 -49 109 -49q40 0 84 15q-18 30 -57.5 50.5t-71.5 20.5q-64 0 -64 -37zM340 1100q83 36 142 126t59 187q0 41 -29 41q-19 0 -34.5 -20t-43.5 -78 q0 -1 -7.5 -20.5t-18.5 -48.5t-23.5 -62t-24.5 -67t-20 -58zM444 152q0 42 25 77t63 35q27 0 39.5 -17.5t12.5 -41.5q0 -43 -22.5 -77t-61.5 -34q-6 0 -17.5 4.5t-15.5 5.5q6 -24 26.5 -41.5t41.5 -17.5q23 0 42 10t34.5 32.5t26 43t22 57.5t17 58.5t15.5 62.5 q-45 18 -71 64q-18 -6 -29 -6q-115 0 -115 118q0 92 65 165t158 73q56 0 95.5 -12.5t64 -25.5t43.5 -13q13 0 33 4v-8q-53 -12 -104 -47.5t-84 -81.5q-4 38 -33 62t-70 24q-59 0 -105 -50.5t-46 -111.5q0 -86 92 -86q16 0 28 6q-10 20 -10 57q0 41 22 70t44 29q17 0 26 -12 t9 -29q0 -33 -22 -66t-52 -51q16 -38 63 -57q33 135 97 215q20 26 63.5 59t79.5 37v-10q-96 -46 -96 -224q0 -19 4 -77q65 33 65 94q0 51 -24 78v2q11 -6 19.5 -24.5t10.5 -37.5q13 26 39 46t62 20q47 0 71.5 -44t24.5 -108q0 -23 -36 -117.5t-36 -136.5q0 -35 19 -35 q24 0 44.5 31t36 85.5t27 106.5t24 118t19.5 96q34 -17 54 -17q11 0 22 4t16 7t17 11.5t14 10.5q-5 -26 -25.5 -116.5t-33 -161t-12.5 -119.5v-15l2 -28q34 -8 54.5 -35t20.5 -68q0 -56 -49 -98h-14q51 44 51 92q0 73 -59 84q10 -63 10 -106q0 -78 -66 -119t-147 -41 q-54 0 -95.5 30t-41.5 81q0 47 31.5 66.5t62.5 19.5q15 0 27 -3q27 56 92 82v7q-6 14 -6 47q-41 -84 -113 -84q-39 0 -65.5 42t-26.5 103q0 44 36.5 137t36.5 121q0 47 -18 47q-23 0 -44 -24t-24 -37q0 -74 -69 -109q0 -291 -238 -291q-69 0 -116.5 33t-47.5 101zM582 -84 q0 -26 30 -39.5t62 -13.5q17 0 24 5t7 21q0 28 -26 48t-54 20q-43 0 -43 -41zM618 438q0 -29 9 -47q26 18 46.5 48.5t20.5 56.5q0 30 -24 30q-27 0 -39.5 -29t-12.5 -59zM629 965q0 46 36.5 109.5t88.5 110t92 46.5q32 0 49 -47l10 41q40 -15 53 -15q15 0 26 4t26.5 15 t17.5 12q-4 -25 -25 -126t-38 -191t-17 -115q0 -27 17 -27q13 0 24.5 14.5t17.5 28.5t17 43h14q-25 -108 -94 -108q-34 0 -61 24.5t-35 73.5q-30 -61 -53.5 -80.5t-53.5 -19.5q-37 0 -64 38t-37.5 83t-10.5 86zM750 797q0 -17 12 -17q46 0 84 146q4 48 35 198q0 90 -29 90 q-19 0 -33.5 -36.5t-19.5 -67.5q-11 -48 -30 -163t-19 -150zM944 -113q0 -42 34.5 -67t80.5 -25q43 0 83 28.5t40 72.5q0 20 -7 46t-19 57.5t-15 43.5q-59 -20 -82 -70q28 -10 44.5 -32.5t16.5 -40.5q0 -13 -10.5 -26t-30.5 -13q-19 0 -33 19t-14 40t4 31h-24 q-32 0 -50 -16.5t-18 -47.5zM991 602q0 26 22 38.5t48 12.5l94 -10q51 0 51 37q0 23 -18 36t-43 13q-16 0 -30.5 -8t-14.5 -21q0 -22 24 -22q18 0 35 10l2 -12q-16 -8 -35 -8q-16 0 -27.5 8t-11.5 22q0 17 20 29t40 12q30 0 51 -15.5t21 -41.5q0 -25 -20 -36t-44 -11l-94 10 q-22 0 -42 -10.5t-20 -32.5q0 -15 13.5 -22t29.5 -7q27 0 80.5 26t71.5 26q42 0 69 -29t27 -74l-8 2v4q-7 41 -30.5 60.5t-45.5 19.5q-14 0 -63.5 -23.5t-98.5 -23.5q-27 0 -40 12t-13 29zM1051 -74q0 -19 6.5 -34t17.5 -15q12 0 18.5 6t6.5 13q0 32 -47 51q-2 -8 -2 -21z M1067 1122q7 23 14 38.5t19 33t29.5 26.5t41.5 9q83 0 97 -92q4 6 15.5 23.5t19 26.5t19.5 21t26 17.5t30 5.5q48 0 75.5 -56.5t27.5 -130.5q0 -82 -41 -202.5t-41 -177.5q0 -41 11 -67.5t28 -38t37.5 -22.5t39 -20.5t34 -33t20.5 -58.5q28 47 48.5 62.5t45.5 15.5 q38 0 67.5 -38.5t42.5 -83.5t13 -81q0 -61 -27 -125q31 -46 31 -94q0 -71 -41.5 -131t-110.5 -60q-27 0 -45 16t-18 42q0 19 13 32t32 13h12v-8q-16 0 -30.5 -10t-14.5 -27q0 -19 13.5 -31t31.5 -12q60 0 103 61t43 121q0 34 -23 72q-61 -129 -143 -129q-32 0 -47 25t-15 61 q0 56 29.5 88.5t60.5 38.5q23 149 23 223q0 5 -4.5 10.5t-13.5 5.5q-8 0 -19 -7.5t-22.5 -22t-20 -40t-8.5 -57.5q0 -43 -46.5 -282t-55.5 -267q-34 17 -54 17q-11 0 -21.5 -4t-16.5 -8t-15.5 -11t-13.5 -10q4 23 34 185t56 309t26 172q0 29 -9 49t-23 33t-31 25.5t-34.5 31 t-31.5 44.5t-23 72t-9 107q0 56 37.5 178t37.5 181q0 34 -14 34q-19 0 -48.5 -34.5t-49.5 -88.5q-5 -36 -33.5 -182.5t-28.5 -148.5q-36 18 -53 18q-37 0 -63 -20q3 21 21.5 125t32 190t13.5 111q0 28 -14 28q-28 0 -62 -86h-16zM1487 645v2q73 -80 155 -80q44 0 68 21 q-29 4 -61 15t-66.5 30t-57 51t-22.5 72q0 35 17 55l8 -6q-8 -28 -8 -45q0 -35 21 -64t54 -46t67 -27t67 -13q6 12 6 29q0 36 -30.5 62t-72.5 26q-36 0 -63 -16l-6 2q24 24 67 24q44 0 79.5 -27.5t35.5 -68.5q0 -15 -4 -31h6q59 0 109 30.5t61 88.5l16 -8 q-12 -56 -67.5 -95.5t-124.5 -39.5h-17q-27 -27 -77 -27t-94 22.5t-66 63.5zM1546 965q0 46 36 109.5t88 110t91 46.5q40 0 54 -47l10 41q40 -15 55 -15q9 0 19.5 3.5t16.5 7t17 11t15 9.5q-1 -5 -24.5 -121.5t-38.5 -201t-15 -109.5q0 -27 12 -27q30 0 62 86h14 q-25 -108 -92 -108q-79 0 -99 98q-32 -60 -54.5 -80t-49.5 -20q-38 0 -66 38t-39.5 83.5t-11.5 85.5zM1561 106q0 -57 36 -57q8 0 14.5 12t11 35.5t7 41t5 48t3.5 37.5q-33 -3 -55 -39.5t-22 -77.5zM1669 797q0 -17 10 -17q51 0 86 146q2 35 35 198q0 90 -28 90 q-12 0 -20.5 -7t-14.5 -22.5t-9 -24t-6 -29.5l-4 -21q-49 -276 -49 -313zM1829 252q0 44 36.5 102t99 103t124.5 45q34 0 58 -26.5t24 -80.5q0 -70 -66.5 -121t-140.5 -59q-20 -103 -20 -135q0 -17 11.5 -26t29.5 -9q8 0 12 2v2q0 63 40 130t97 67q27 0 27 -41 q0 -52 -48.5 -109t-101.5 -63q0 -91 31 -134.5t84 -43.5q91 0 201 110q-58 27 -93.5 78.5t-35.5 118.5q0 51 30 96t78 55v-6q-47 -13 -71.5 -55.5t-24.5 -95.5q0 -58 36 -104t95 -72q89 100 123 208l-185 56l80 32l-106 220l86 -27l-19 129l84 -92l50 72l49 -160l69 219 l35 -57l127 75v-145h78l-168 -166l166 47l-27 -86l125 -12l-121 -57l66 -52l-232 -45l17 -82l-144 115q-51 -118 -131 -201q35 -14 84 -14q59 0 94 21t56 63h4q-7 -47 -51 -75.5t-94 -28.5q-51 0 -109 20q-118 -121 -231 -121q-119 0 -119 195q-2 -2 -12 -2q-64 0 -110 58.5 t-46 164.5zM1966 231q39 6 70.5 48.5t46 89.5t14.5 82q0 34 -16 34q-65 0 -115 -254zM1980 965q0 46 36 109.5t88 110t91 46.5q36 0 50 -39q9 49 19.5 102t17.5 85.5t8 35.5q32 -16 53 -16q11 0 21.5 3.5t17 7.5t17.5 11.5t16 10.5q-1 -5 -33 -169.5t-56 -296t-24 -157.5 q0 -27 14 -27q27 0 54.5 52.5t39.5 101.5h19q-45 -176 -125 -176q-35 0 -64.5 25.5t-37.5 74.5q-32 -62 -55 -82t-52 -20q-38 0 -65.5 38t-38.5 83t-11 86zM1997 639q0 31 26 60t60 30v-6q-27 -5 -48.5 -26t-21.5 -46q0 -84 117 -84q124 0 129 80q-4 -2 -12 -2 q-38 0 -63 15.5t-25 41.5q0 11 12.5 21t23.5 10q24 0 45 -19t29 -46q51 6 95.5 42.5t56.5 84.5h4q-10 -64 -54.5 -102t-101.5 -46q0 -42 -42.5 -75t-100.5 -33q-30 0 -57.5 8t-49.5 32t-22 60zM2009 49q39 0 87 56t48 106q0 22 -14 22q-46 0 -83.5 -62t-37.5 -118v-4z M2099 797q0 -17 15 -17q39 0 61 69.5t59 291.5q-5 73 -30 73q-8 0 -15 -4t-12 -12t-8.5 -15.5t-7 -19.5t-5 -19t-3.5 -19t-3 -15q-11 -51 -31 -165.5t-20 -147.5zM2177 700q0 -32 74 -32h6q-5 23 -19.5 38t-35.5 15q-25 0 -25 -21zM2456 965q0 46 37 109.5t89 110t91 46.5 q36 0 53 -47l10 41q40 -15 53 -15q8 0 16 2t15.5 6t12.5 7t13 8.5t11 7.5q-4 -25 -24.5 -126.5t-37 -191t-16.5 -114.5q0 -27 14 -27q28 0 60 86h16q-9 -31 -17.5 -51.5t-28.5 -38.5t-48 -18q-36 0 -61.5 24t-34.5 74q-33 -61 -55.5 -80.5t-49.5 -19.5q-38 0 -66.5 38 t-40 83.5t-11.5 85.5zM2578 797q0 -17 13 -17q49 0 84 146q4 48 35 198q0 90 -29 90q-39 0 -53 -104q-50 -281 -50 -313z" />
</font>
</defs>
</svg>
