<?xml version="1.0" standalone="no"?>
<!DOCTYPE svg PUBLIC "-//W3C//DTD SVG 1.1//EN" "http://www.w3.org/Graphics/SVG/1.1/DTD/svg11.dtd" >
<svg xmlns="http://www.w3.org/2000/svg" xmlns:xlink="http://www.w3.org/1999/xlink" version="1.1">
<metadata></metadata>
<defs>
<font id="gibsonsemibold" horiz-adv-x="1282" >
<font-face units-per-em="2048" ascent="1638" descent="-410" />
<missing-glyph horiz-adv-x="403" />
<glyph unicode="ff" horiz-adv-x="1327" d="M23 760v248h129v55q0 188 81 272q98 105 283 105q57 0 113 -7t83 -13l27 -7l-16 -227q-64 18 -121 18q-67 0 -94 -34t-27 -97v-65h334v55q0 187 82 272q98 105 283 105q57 0 113 -7t83 -13l27 -7l-17 -227q-63 18 -120 18q-67 0 -94 -34t-27 -97v-65h217v-248h-217v-760 h-330v760h-334v-760h-329v760h-129z" />
<glyph unicode="fi" horiz-adv-x="1243" d="M23 760v248h129v55q0 191 81 272q102 105 287 105q50 0 104 -7t82 -13l29 -7l-16 -227q-60 18 -117 18q-39 0 -64.5 -12.5t-37 -37t-15.5 -48.5t-4 -57v-41h217v-248h-217v-760h-329v760h-129zM780 1296q0 75 52 122.5t135 47.5t134.5 -47.5t51.5 -122.5 q0 -76 -51.5 -123t-134.5 -47t-135 47t-52 123zM803 0v1010h327v-1010h-327z" />
<glyph unicode="fl" horiz-adv-x="1253" d="M23 760v248h129v59q0 176 79 264q98 109 289 109q54 0 107.5 -7t80.5 -13l27 -7l-16 -227q-56 18 -117 18q-67 0 -94 -34t-27 -97v-65h217v-248h-217v-760h-329v760h-129zM809 0v1413h328v-1413h-328z" />
<glyph unicode="ffi" horiz-adv-x="1880" d="M23 760v248h129v55q0 188 81 272q98 105 283 105q57 0 113 -7t83 -13l27 -7l-16 -227q-64 18 -121 18q-67 0 -94 -34t-27 -97v-65h334v55q0 187 82 272q98 105 283 105q57 0 113 -7t83 -13l27 -7l-17 -227q-63 18 -120 18q-67 0 -94 -34t-27 -97v-65h217v-248h-217v-760 h-330v760h-334v-760h-329v760h-129zM1417 1296q0 75 52 122.5t135 47.5t134.5 -47.5t51.5 -122.5q0 -76 -51.5 -123t-134.5 -47t-135 47t-52 123zM1440 0v1010h327v-1010h-327z" />
<glyph unicode="ffl" horiz-adv-x="1886" d="M23 760v248h129v55q0 188 81 272q98 105 283 105q57 0 113 -7t83 -13l27 -7l-16 -227q-64 18 -121 18q-67 0 -94 -34t-27 -97v-65h334v55q0 187 82 272q98 105 283 105q57 0 113 -7t83 -13l27 -7l-17 -227q-63 18 -120 18q-67 0 -94 -34t-27 -97v-65h217v-248h-217v-760 h-330v760h-334v-760h-329v760h-129zM1444 0v1413h328v-1413h-328z" />
<glyph unicode="fj" horiz-adv-x="1216" d="M23 760v248h129v55q0 188 81 272q98 105 283 105q57 0 113 -7t83 -13l27 -7l-16 -227q-64 18 -121 18q-67 0 -94 -34t-27 -97v-65h217v-248h-217v-760h-329v760h-129zM567 -373l6 254q42 -12 93 -12q64 0 87 42t23 130v969h328v-985q0 -210 -84 -304q-100 -112 -281 -112 q-49 0 -92 4.5t-61 8.5zM754 1296q0 75 51.5 122.5t134.5 47.5t134.5 -47.5t51.5 -122.5q0 -76 -51.5 -123t-134.5 -47t-134.5 47t-51.5 123z" />
<glyph unicode="ft" horiz-adv-x="1396" d="M23 760v248h129v55q0 188 81 272q98 105 283 105q57 0 113 -7t83 -13l27 -7l-16 -227q-64 18 -121 18q-67 0 -94 -34t-27 -97v-65h340v274h330v-274h223v-248h-223v-363q0 -58 7 -83.5t22 -41.5q21 -24 77 -24q23 0 47.5 4.5t37.5 9.5l14 4l16 -256q-1 0 -17.5 -4.5 t-28 -7t-35 -7t-45 -7.5t-50.5 -5t-57 -2q-164 0 -246 95q-38 44 -55 113t-17 184v391h-340v-760h-329v760h-129z" />
<glyph unicode=" "  horiz-adv-x="403" />
<glyph unicode="&#x09;" horiz-adv-x="403" />
<glyph unicode="&#xa0;" horiz-adv-x="403" />
<glyph unicode="!" horiz-adv-x="667" d="M139 154q0 82 53.5 129t141.5 47q86 0 139 -47t53 -129t-53 -129.5t-139 -47.5q-88 0 -141.5 47.5t-53.5 129.5zM162 1413h344l-31 -979h-285z" />
<glyph unicode="&#x22;" horiz-adv-x="1056" d="M156 1413h303l-37 -510h-232zM598 1413h303l-37 -510h-231z" />
<glyph unicode="#" horiz-adv-x="1339" d="M84 434v174h244l49 289h-221v174h252l73 424h189l-74 -424h254l76 424h186l-74 -424h215v-174h-245l-50 -289h226v-174h-256l-74 -422h-188l73 422h-254l-73 -422h-189l74 422h-213zM516 608h254l49 289h-254z" />
<glyph unicode="$" d="M143 207l152 205q42 -67 133.5 -116.5t161.5 -51.5l6 342l-70 28q-126 53 -184 101q-143 111 -143 293q0 180 135 297q103 89 287 106l4 111h147l-2 -115q96 -8 190.5 -51.5t153.5 -114.5l-127 -203q-51 57 -115.5 93.5t-123.5 44.5l-9 -328l129 -55q271 -121 271 -373 q0 -101 -45 -181.5t-113 -134.5q-52 -41 -128 -69t-138 -33l-4 -113h-148l4 109q-119 5 -234.5 60t-189.5 149zM485 1040q0 -51 28.5 -82.5t76.5 -54.5l22 -10l6 285q-59 -5 -96 -42t-37 -96zM719 240q51 5 94 44.5t43 96.5q0 55 -24.5 88.5t-73.5 58.5l-33 17z" />
<glyph unicode="%" horiz-adv-x="1769" d="M84 1061q0 164 103 265t264 101q162 0 264 -100.5t102 -265.5t-102 -267t-264 -102q-161 0 -264 102t-103 267zM301 1063q0 -79 39.5 -128.5t110.5 -49.5q73 0 114 49.5t41 128.5q0 80 -41 129t-114 49q-72 0 -111 -49t-39 -129zM375 35l880 1415l140 -84l-879 -1415z M952 340q0 165 102.5 266t264.5 101t264.5 -101t102.5 -266t-102.5 -266t-264.5 -101t-264.5 101t-102.5 266zM1167 344q0 -80 40 -129t112 -49q73 0 113.5 49t40.5 129q0 79 -40.5 127.5t-113.5 48.5q-72 0 -112 -48.5t-40 -127.5z" />
<glyph unicode="&#x26;" horiz-adv-x="1542" d="M70 391q0 260 340 406q-33 37 -53 62.5t-44.5 65.5t-36.5 84t-12 93q0 109 62 187.5t158.5 114.5t213.5 36q115 0 208 -36t151.5 -112t58.5 -182q0 -114 -75.5 -207t-190.5 -155l186 -211q34 36 94 120t87 136l231 -127q-44 -71 -114.5 -168t-121.5 -148l322 -334v-16 h-377l-139 152q-112 -92 -216 -134.5t-237 -42.5q-100 0 -188 26t-157.5 76t-109.5 131t-40 183zM389 401q0 -81 58.5 -131.5t140.5 -50.5q73 0 141.5 35t112.5 84l-262 289l-41 -23q-30 -17 -52 -33t-46.5 -40.5t-38 -57.5t-13.5 -72zM567 1096q0 -13 2 -25t7.5 -24 t9.5 -20t13 -20l12 -16t13 -16l11 -12l47 -52q33 21 51.5 34.5t47.5 39.5t43 54.5t14 60.5q0 58 -36 89.5t-97 31.5q-62 0 -100 -33.5t-38 -91.5z" />
<glyph unicode="'" horiz-adv-x="716" d="M207 1413h303l-37 -510h-231z" />
<glyph unicode="(" horiz-adv-x="684" d="M96 627q0 161 29 310.5t81.5 274t101.5 213t114 183.5l205 -105q-93 -140 -172.5 -384t-79.5 -492q0 -249 79.5 -494t172.5 -385l-205 -104q-51 76 -90.5 142t-86 165t-77 196t-51.5 223t-21 257z" />
<glyph unicode=")" horiz-adv-x="684" d="M57 -252q93 140 172.5 385t79.5 494q0 248 -79.5 492t-172.5 384l207 105q50 -75 89 -141t86 -165t77 -196t51 -223t21 -256q0 -131 -21 -257t-51 -222.5t-77 -196.5t-85.5 -165t-89.5 -142z" />
<glyph unicode="*" horiz-adv-x="1075" d="M129 1128l59 170l279 -114l-23 284h187l-23 -284l279 114l59 -170l-301 -79l203 -261l-146 -102l-165 277l-164 -277l-146 102l203 261z" />
<glyph unicode="+" horiz-adv-x="1435" d="M156 588v237h442v441h240v-441h442v-237h-442v-441h-240v441h-442z" />
<glyph unicode="," horiz-adv-x="667" d="M68 -287l174 586h315l-221 -586h-268z" />
<glyph unicode="-" horiz-adv-x="694" d="M61 422v256h572v-256h-572z" />
<glyph unicode="." horiz-adv-x="667" d="M139 154q0 82 53.5 129t141.5 47q86 0 139 -47t53 -129t-53 -129.5t-139 -47.5q-88 0 -141.5 47.5t-53.5 129.5z" />
<glyph unicode="/" horiz-adv-x="1110" d="M39 -113l844 1743l192 -86l-846 -1745z" />
<glyph unicode="0" d="M55 705q0 115 21 219.5t67 198t113.5 162.5t166 109t218.5 40t218.5 -40t166 -109t113.5 -162.5t67 -198t21 -219.5t-21 -219.5t-67 -198.5t-113.5 -162.5t-166 -109t-218.5 -40.5q-121 0 -219.5 40.5t-166 109t-113 162.5t-66.5 198.5t-21 219.5zM381 711 q0 -202 65 -326.5t195 -124.5t195 124.5t65 326.5q0 131 -26.5 229t-86 157.5t-147.5 59.5t-147.5 -59.5t-86 -157.5t-26.5 -229z" />
<glyph unicode="1" horiz-adv-x="958" d="M133 1186v227h576v-1413h-320v1186h-256z" />
<glyph unicode="2" d="M104 1200q6 15 29 41t68 60t101.5 63t140 49.5t173.5 20.5q237 0 375.5 -115t138.5 -303q0 -57 -11.5 -109.5t-36.5 -99t-47.5 -81.5t-61.5 -75.5t-60.5 -60.5t-61.5 -55q-11 -10 -17 -15l-293 -264h655v-256h-1036l-39 209l479 432q111 101 162 175t51 159 q0 91 -61.5 145t-165.5 54q-98 0 -187.5 -54.5t-154.5 -136.5z" />
<glyph unicode="3" d="M100 213l152 197q50 -62 151 -119.5t195 -57.5q108 0 178 53t70 146q0 91 -63 141t-162 50h-125v231h125q86 0 137 42.5t51 123.5q0 80 -58 123t-147 43q-167 0 -338 -137l-123 208q43 38 83 65t99 55t136.5 42.5t169.5 14.5q130 0 240.5 -43.5t180.5 -131t70 -202.5 q0 -225 -202 -309v-7q46 -12 89 -39t79 -67t57.5 -97.5t21.5 -123.5q0 -103 -45 -187t-121.5 -138t-175.5 -83t-209 -29q-103 0 -195.5 26t-155.5 66t-103 76t-62 68z" />
<glyph unicode="4" d="M45 283v241l641 893h367v-878h188v-256h-188v-283h-320v283h-688zM346 532h395v547z" />
<glyph unicode="5" d="M92 209l152 194q56 -79 153.5 -124.5t192.5 -45.5q47 0 92.5 14t85.5 41.5t64 75.5t24 109q0 80 -41 135.5t-99 79t-126 23.5q-69 0 -140 -20t-118 -54l-144 86l109 690h827v-254h-587l-41 -254q74 31 188 31q85 0 168.5 -27t158 -80.5t121 -146t46.5 -209.5 q0 -96 -32 -178t-86.5 -139.5t-127 -98.5t-154 -60.5t-166.5 -19.5q-101 0 -190 21.5t-152.5 57t-107 74t-70.5 79.5z" />
<glyph unicode="6" d="M100 688q0 187 49.5 333t139.5 239q165 174 432 174q243 0 438 -138l-121 -217q-56 43 -139 74t-164 31q-122 0 -209 -84q-48 -48 -80 -135t-32 -197q132 145 356 145q83 0 160.5 -29t138.5 -82t98 -136.5t37 -184.5q0 -105 -36.5 -196.5t-103 -160t-167 -108 t-221.5 -39.5q-85 0 -160 21t-130.5 58t-94.5 75t-70 82q-121 169 -121 475zM436 459q0 -98 62.5 -166t167.5 -68q103 0 164 68t61 166q0 97 -61 165t-164 68q-105 0 -167.5 -68t-62.5 -165z" />
<glyph unicode="7" d="M123 1159v254h1007l91 -196l-629 -1217h-348l620 1159h-741z" />
<glyph unicode="8" d="M100 399q0 127 67.5 213.5t186.5 124.5v4q-42 15 -77.5 38t-68 58.5t-51 88.5t-18.5 118q0 124 70 214t182 133t250 43q137 0 248.5 -43t181.5 -133.5t70 -213.5q0 -87 -33.5 -152t-78 -98t-101.5 -53v-6q118 -36 186 -123t68 -213q0 -136 -74.5 -233t-195 -143 t-271.5 -46t-271.5 46t-195 143t-74.5 233zM422 430q0 -92 62.5 -146.5t156.5 -54.5t156.5 54.5t62.5 146.5q0 93 -62 147t-157 54q-96 0 -157.5 -54t-61.5 -147zM455 1020q0 -80 50.5 -125t135.5 -45q84 0 135 45t51 125q0 81 -51 126.5t-135 45.5q-85 0 -135.5 -45 t-50.5 -127z" />
<glyph unicode="9" d="M76 930q0 105 36.5 196.5t103 160t167 108t221.5 39.5q155 0 269.5 -67.5t185.5 -168.5q123 -172 123 -477q0 -184 -50 -329.5t-141 -241.5q-163 -173 -430 -173q-81 0 -155.5 14.5t-130 38.5t-91.5 45t-63 42l119 215q31 -31 120.5 -67t188.5 -36q126 0 209 86 q108 111 108 338q-14 -25 -39.5 -50t-66.5 -50.5t-106 -41t-142 -15.5q-83 0 -160.5 29t-139.5 82t-99 137t-37 186zM391 958q0 -97 61 -165t164 -68t165.5 68.5t62.5 164.5q0 98 -62 166t-166 68q-103 0 -164 -68t-61 -166z" />
<glyph unicode=":" horiz-adv-x="667" d="M139 154q0 82 53.5 129t141.5 47q86 0 139 -47t53 -129t-53 -129.5t-139 -47.5q-88 0 -141.5 47.5t-53.5 129.5zM139 852q0 82 53.5 129t141.5 47q86 0 139 -47t53 -129t-53 -128t-139 -46q-88 0 -141.5 46t-53.5 128z" />
<glyph unicode=";" horiz-adv-x="667" d="M68 -287l174 586h315l-221 -586h-268zM139 852q0 82 53.5 129t141.5 47q86 0 139 -47t53 -129t-53 -128t-139 -46q-88 0 -141.5 46t-53.5 128z" />
<glyph unicode="&#x3c;" horiz-adv-x="1435" d="M156 571v271l1124 422v-263l-805 -294l805 -295v-265z" />
<glyph unicode="=" horiz-adv-x="1435" d="M156 360v240h1124v-240h-1124zM156 813v240h1124v-240h-1124z" />
<glyph unicode="&#x3e;" horiz-adv-x="1435" d="M156 147v265l805 295l-805 294v263l1124 -422v-271z" />
<glyph unicode="?" horiz-adv-x="1093" d="M102 1276q21 23 51.5 45.5t83 50.5t132 45t172.5 17q192 0 315 -106t123 -257q0 -115 -37.5 -182.5t-112.5 -136.5q-35 -30 -102.5 -79t-83.5 -67q-22 -28 -22 -76l-3 -96h-278l-2 133q-1 91 29.5 147t99.5 105l125 90q43 31 66.5 60t23.5 67q0 64 -52 98.5t-145 34.5 q-162 0 -288 -122zM287 154q0 82 52.5 129t139.5 47t140 -47t53 -129t-53 -129.5t-140 -47.5t-139.5 47.5t-52.5 129.5z" />
<glyph unicode="@" horiz-adv-x="1638" d="M78 412q0 163 63.5 305.5t169 240t246 153.5t291.5 56q324 0 524 -184q85 -78 137 -189.5t52 -238.5q0 -131 -41.5 -238t-110.5 -178q-62 -65 -143 -102t-158 -37t-124.5 33t-59.5 90q-123 -123 -244 -123q-47 0 -92.5 17t-87 52.5t-67 102t-25.5 154.5q0 126 52 240.5 t152 188.5t224 74q46 0 86.5 -9t65 -22t42 -26t24.5 -22l7 -9l16 54h168l-133 -500q-9 -34 -12 -57t0 -45.5t18.5 -34t44.5 -11.5q39 0 81.5 27.5t79.5 76.5t61 126t24 166q0 218 -149.5 353.5t-405.5 135.5q-129 0 -242 -45.5t-195.5 -126t-130.5 -197t-48 -251.5 q0 -276 162.5 -440.5t430.5 -164.5q53 0 102.5 4t95 14.5t77 18t72.5 24t55.5 22t52.5 24t39 18.5l53 -106q-1 -1 -30.5 -18t-42 -24t-49.5 -24.5t-64 -26.5t-73.5 -22.5t-90.5 -20.5t-102.5 -12.5t-120.5 -5.5q-152 0 -285.5 53t-231 148t-154 234.5t-56.5 304.5zM588 342 q0 -91 40.5 -138.5t110.5 -47.5q74 0 135.5 54t88.5 157l65 241q-2 3 -6.5 8.5t-20 19t-33.5 23.5t-47.5 18.5t-62.5 8.5q-112 0 -190 -100q-35 -46 -57.5 -112.5t-22.5 -131.5z" />
<glyph unicode="A" horiz-adv-x="1392" d="M-8 0l532 1415h344l533 -1415h-361l-100 285h-504l-100 -285h-344zM512 543h352l-176 508z" />
<glyph unicode="B" horiz-adv-x="1275" d="M129 0v1413h481q235 0 348 -59q80 -42 130.5 -115.5t50.5 -181.5q0 -111 -61 -196.5t-146 -115.5v-4q135 -33 214 -120t79 -215q0 -200 -156 -314q-125 -92 -362 -92h-578zM459 252h182q62 0 102 7.5t74 31.5q72 48 72 141q0 90 -72 141q-34 24 -74 31.5t-102 7.5h-182 v-360zM459 842h129q62 0 95 5.5t60 24.5q70 50 70 136q0 88 -70 131q-28 18 -58 23t-89 5h-137v-325z" />
<glyph unicode="C" horiz-adv-x="1331" d="M57 705q0 167 58 306t158.5 230.5t235.5 142t290 50.5q102 0 191.5 -18.5t148 -47.5t93 -52t52.5 -42l-102 -275q-32 41 -137.5 94.5t-227.5 53.5q-185 0 -304.5 -117t-119.5 -319q0 -200 122 -317.5t302 -117.5q123 0 219.5 42t161.5 108l111 -258q-188 -193 -510 -193 q-209 0 -376.5 86.5t-266.5 254t-99 389.5z" />
<glyph unicode="D" horiz-adv-x="1439" d="M129 0v1413h479q346 0 545 -170q229 -189 229 -536t-229 -539q-201 -168 -545 -168h-479zM459 281h168q189 0 295 102q125 117 125 324q0 210 -125 331q-108 101 -295 101h-168v-858z" />
<glyph unicode="E" horiz-adv-x="1138" d="M129 0v1413h915v-264h-585v-289h553v-264h-553v-328h604v-268h-934z" />
<glyph unicode="F" horiz-adv-x="1069" d="M129 0v1413h883v-264h-553v-346h520v-264h-520v-539h-330z" />
<glyph unicode="G" horiz-adv-x="1523" d="M57 707q0 172 60 311.5t162.5 229.5t235 138t282.5 48q359 0 575 -239q2 -2 3.5 -4t2.5 -3l-219 -191q-145 162 -362 162q-176 0 -290 -121t-114 -331q0 -209 116.5 -331t293.5 -122q64 0 118 9.5t85.5 22.5t53.5 26t30 22l8 10v209h-297v252h620v-586q-3 -3 -24 -22 t-32 -28t-37.5 -29.5t-46.5 -33t-54.5 -31.5t-65.5 -31t-74 -26t-86.5 -22t-97 -13.5t-110.5 -5.5q-148 0 -280 48.5t-234 139t-162 231t-60 311.5z" />
<glyph unicode="H" horiz-adv-x="1488" d="M129 0v1413h332v-547h567v547h332v-1413h-332v592h-567v-592h-332z" />
<glyph unicode="I" horiz-adv-x="589" d="M129 0v1413h332v-1413h-332z" />
<glyph unicode="J" horiz-adv-x="587" d="M-96 -365l12 244q49 -18 111 -18q57 0 79.5 41t22.5 123v1388h330v-1384q0 -218 -88 -320q-90 -104 -256 -104q-67 0 -131 10.5t-80 19.5z" />
<glyph unicode="K" horiz-adv-x="1288" d="M129 0v1413h330v-516l436 516h393l-497 -563l532 -850h-397l-355 590l-112 -125v-465h-330z" />
<glyph unicode="L" horiz-adv-x="968" d="M129 0v1413h330v-1139h489v-274h-819z" />
<glyph unicode="M" horiz-adv-x="1789" d="M76 0l106 1413h418l295 -930h4l291 930h420l104 -1413h-325l-56 963h-4l-303 -963h-262l-305 963h-6l-52 -963h-325z" />
<glyph unicode="N" horiz-adv-x="1536" d="M129 0v1413h354l607 -950q-7 159 -7 309v641h324v-1413h-340l-621 958q7 -169 7 -319v-639h-324z" />
<glyph unicode="O" horiz-adv-x="1613" d="M57 705q0 168 58 306.5t159.5 231t238.5 143t294 50.5t294 -50.5t238 -143t159 -231t58 -306.5t-58 -306.5t-159 -230.5t-238 -142.5t-294 -50.5q-211 0 -380 86t-269.5 253.5t-100.5 390.5zM393 713q0 -199 117 -321t297 -122t297 122t117 321q0 198 -117 319t-297 121 t-297 -120.5t-117 -319.5z" />
<glyph unicode="P" horiz-adv-x="1183" d="M129 0v1413h506q241 0 369 -106q147 -122 147 -338q0 -215 -147 -340q-129 -107 -369 -107h-174v-522h-332zM459 778h129q105 0 160 39q67 50 67 152q0 99 -67 149q-55 39 -160 39h-129v-379z" />
<glyph unicode="Q" horiz-adv-x="1613" d="M57 705q0 168 58 306.5t159.5 231t238.5 143t294 50.5t294 -50.5t238 -143t159 -231t58 -306.5q0 -287 -165 -482l153 -174l-203 -178l-163 186q-169 -82 -371 -82q-211 0 -380 86t-269.5 253.5t-100.5 390.5zM393 713q0 -199 117 -321t297 -122q84 0 156 29l-84 96 l202 180l86 -98q54 102 54 236q0 198 -117 319t-297 121t-297 -120.5t-117 -319.5z" />
<glyph unicode="R" horiz-adv-x="1228" d="M129 0v1413h508q238 0 373 -100q73 -54 114 -137.5t41 -186.5q0 -95 -27.5 -170.5t-72.5 -121.5t-88 -72.5t-88 -40.5l358 -584h-385l-297 541h-104v-541h-332zM459 795h131q118 0 170 39q71 51 71 143t-71 143q-49 37 -170 37h-131v-362z" />
<glyph unicode="S" horiz-adv-x="1130" d="M33 188l164 242q75 -78 180 -128t188 -50t136 38.5t53 106.5q0 27 -12.5 51t-27 38.5t-43 29.5t-41.5 20.5t-42 16.5l-99 36t-116 44q-3 1 -20 8.5t-26 12t-27.5 14t-32 18.5t-30.5 22t-32 27q-111 104 -111 273q0 96 41 175t107 134q133 113 372 113q121 0 248 -50.5 t201 -124.5l-141 -231q-63 63 -150.5 103t-165.5 40q-83 0 -133.5 -32.5t-50.5 -94.5q0 -30 12 -54t37.5 -41.5t43.5 -26t50 -21.5q34 -14 113.5 -43.5t97.5 -36.5q128 -46 197 -115q110 -110 110 -272q0 -100 -44 -188.5t-121 -149.5q-146 -117 -383 -117q-142 0 -273 61 t-229 152z" />
<glyph unicode="T" horiz-adv-x="1077" d="M8 1151v262h1061v-262h-364v-1151h-332v1151h-365z" />
<glyph unicode="U" horiz-adv-x="1421" d="M119 590v823h334v-823q0 -85 11 -140.5t44 -95.5q75 -88 203 -88q127 0 202 88q33 40 44.5 96t11.5 140v823h334v-823q0 -153 -31.5 -259t-104.5 -186q-155 -168 -456 -168t-459 168q-72 80 -102.5 186t-30.5 259z" />
<glyph unicode="V" horiz-adv-x="1347" d="M-8 1413h352l332 -973l330 973h350l-525 -1413h-315z" />
<glyph unicode="W" horiz-adv-x="2011" d="M-6 1413h346l246 -952l254 952h331l256 -952l244 952h346l-409 -1413h-334l-268 969l-269 -969h-334z" />
<glyph unicode="X" horiz-adv-x="1331" d="M-23 0l469 733l-438 680h393l265 -465l264 465h393l-440 -680l469 -733h-396l-290 526l-293 -526h-396z" />
<glyph unicode="Y" horiz-adv-x="1269" d="M-23 1413h369l289 -563l289 563h368l-491 -842v-571h-332v571z" />
<glyph unicode="Z" horiz-adv-x="1255" d="M61 0v240l693 905h-672v268h1100v-225l-699 -914h721v-274h-1143z" />
<glyph unicode="[" horiz-adv-x="684" d="M115 -309v1870h475v-158h-213v-1555h213v-157h-475z" />
<glyph unicode="\" horiz-adv-x="1107" d="M49 1544l178 84l832 -1685l-178 -84z" />
<glyph unicode="]" horiz-adv-x="684" d="M102 -152h213v1555h-213v158h476v-1870h-476v157z" />
<glyph unicode="^" horiz-adv-x="1435" d="M203 614l381 844h268l381 -844h-262l-252 582l-254 -582h-262z" />
<glyph unicode="_" horiz-adv-x="1024" d="M0 -123v246h1024v-246h-1024z" />
<glyph unicode="`" horiz-adv-x="854" d="M207 1413h278l164 -297h-233z" />
<glyph unicode="a" horiz-adv-x="1107" d="M39 299q0 81 34.5 141.5t93 95t124.5 52t141 20.5l254 10v23q0 79 -54 120.5t-153 41.5q-87 0 -173.5 -29t-135.5 -61l-86 213q204 102 432 102q251 0 377 -117q61 -58 91 -138.5t30 -203.5v-569h-314l-6 106q-26 -26 -42.5 -40t-54 -39t-85.5 -37.5t-106 -12.5 q-69 0 -133 19t-117 57t-85 101.5t-32 144.5zM367 311q0 -58 42.5 -91.5t110.5 -33.5q59 0 104 29.5t64 63.5v165l-162 -10q-76 -3 -117.5 -34.5t-41.5 -88.5z" />
<glyph unicode="b" horiz-adv-x="1290" d="M117 0v1413h327v-340l-4 -186h6q40 56 120.5 98.5t197.5 42.5q214 0 344.5 -148.5t130.5 -375.5q0 -149 -57.5 -268t-167 -189t-252.5 -70q-222 0 -334 156h-2l2 -133h-311zM432 508q0 -117 66 -189.5t172 -72.5t170.5 72.5t64.5 189.5t-64.5 189.5t-170.5 72.5 t-172 -72.5t-66 -189.5z" />
<glyph unicode="c" horiz-adv-x="987" d="M49 502q0 123 45 224.5t120.5 166t171 100t200.5 35.5q72 0 137.5 -11t107 -26.5t72.5 -31t45 -26.5l13 -11l-72 -248q-113 90 -260 90q-107 0 -178.5 -69.5t-71.5 -186.5q0 -120 69 -190t185 -70q68 0 132 24.5t94 49.5l30 24l78 -248l-6 -6l-12 -10t-18.5 -13.5 t-26 -16.5t-33.5 -17.5t-41 -17.5t-48.5 -15.5t-57.5 -13t-66.5 -8.5t-75.5 -3q-104 0 -199.5 35.5t-170 100.5t-119 166t-44.5 223z" />
<glyph unicode="d" horiz-adv-x="1290" d="M49 504q0 149 57.5 267.5t167 187.5t252.5 69q122 0 204 -45t116 -96v526h328v-1413h-312l2 133l-6 -2q-56 -75 -142.5 -114.5t-189.5 -39.5q-143 0 -252.5 70t-167 189t-57.5 268zM383 508q0 -117 66 -189.5t172 -72.5t170.5 72.5t64.5 189.5t-64.5 189.5t-170.5 72.5 t-172 -72.5t-66 -189.5z" />
<glyph unicode="e" horiz-adv-x="1142" d="M49 504q0 122 43 222t117.5 165.5t173 101t211.5 35.5q225 0 365.5 -136t140.5 -357l-4 -109h-719q10 -104 81 -157.5t177 -53.5q88 0 168.5 29.5t134.5 66.5l129 -170q-1 0 -20 -16.5t-35.5 -27.5t-47.5 -30.5t-67 -33.5t-82 -27.5t-104.5 -21t-122.5 -7.5 q-239 0 -389 141t-150 386zM379 612h416q-2 78 -57 140.5t-150 62.5t-150.5 -61.5t-58.5 -141.5z" />
<glyph unicode="f" horiz-adv-x="663" d="M23 760v248h129v55q0 188 81 272q98 105 283 105q57 0 113 -7t83 -13l27 -7l-16 -227q-64 18 -121 18q-67 0 -94 -34t-27 -97v-65h217v-248h-217v-760h-329v760h-129z" />
<glyph unicode="g" horiz-adv-x="1286" d="M49 530q0 118 39.5 214.5t106.5 157.5t152 93.5t179 32.5q209 0 320 -147h4l-4 129h328v-805q0 -157 -38.5 -260.5t-115.5 -175.5q-170 -160 -465 -160q-154 0 -285 48t-204 101l135 219q52 -40 154 -77t194 -37q161 0 237 80q62 69 62 200v33h-4q-109 -143 -318 -143 q-94 0 -179 32.5t-152 93t-106.5 157t-39.5 214.5zM383 528q0 -106 65.5 -175.5t172.5 -69.5t171 69.5t64 175.5q0 105 -64.5 174.5t-170.5 69.5q-107 0 -172.5 -69.5t-65.5 -174.5z" />
<glyph unicode="h" horiz-adv-x="1206" d="M117 0v1413h327v-336l-2 -213q42 74 116.5 119t180.5 45q107 0 181 -32t114 -93t57 -135t17 -172v-596h-330v530q0 53 -5 89t-20 71t-47 52.5t-81 17.5q-181 0 -181 -264v-496h-327z" />
<glyph unicode="i" horiz-adv-x="552" d="M90 1296q0 75 51.5 122.5t134.5 47.5t135 -47.5t52 -122.5q0 -76 -52 -123t-135 -47t-134.5 47t-51.5 123zM113 0v1010h327v-1010h-327z" />
<glyph unicode="j" horiz-adv-x="552" d="M-96 -373l6 254q41 -12 92 -12q64 0 87.5 42t23.5 130v969h327v-985q0 -210 -84 -304q-100 -112 -280 -112q-49 0 -92 4.5t-62 8.5zM90 1296q0 75 51.5 122.5t134.5 47.5t135 -47.5t52 -122.5q0 -76 -52 -123t-135 -47t-134.5 47t-51.5 123z" />
<glyph unicode="k" horiz-adv-x="1128" d="M117 0v1413h327v-737l308 334h376l-368 -379l399 -631h-377l-247 393l-91 -88v-305h-327z" />
<glyph unicode="l" horiz-adv-x="559" d="M117 0v1413h327v-1413h-327z" />
<glyph unicode="m" horiz-adv-x="1789" d="M109 0v1010h327l-2 -146l4 2q42 69 115 115.5t164 46.5q233 0 301 -184q55 93 132.5 138.5t188.5 45.5q94 0 163 -31t109.5 -88t59.5 -131.5t19 -169.5v-608h-330v549q0 46 -5 80t-18.5 65.5t-41 48.5t-68.5 17q-83 0 -123.5 -66t-40.5 -176v-518h-328v549 q0 102 -30 156.5t-105 54.5q-83 0 -123.5 -66t-40.5 -176v-518h-327z" />
<glyph unicode="n" horiz-adv-x="1202" d="M109 0v1010h327l-2 -146h4q100 164 293 164q86 0 151 -22t106 -59.5t66.5 -93.5t35.5 -118t10 -139v-596h-328v526q0 55 -5.5 93.5t-21.5 72.5t-48 51t-81 17q-180 0 -180 -260v-500h-327z" />
<glyph unicode="o" horiz-adv-x="1220" d="M49 502q0 159 74 280t200.5 183.5t286.5 62.5t286 -62.5t199.5 -183.5t73.5 -280t-73.5 -279.5t-199.5 -183t-286 -62.5t-286.5 62.5t-200.5 183t-74 279.5zM381 508q0 -115 61.5 -188.5t167.5 -73.5q105 0 167.5 73.5t62.5 188.5t-62.5 188.5t-167.5 73.5 q-106 0 -167.5 -73.5t-61.5 -188.5z" />
<glyph unicode="p" horiz-adv-x="1286" d="M113 -371v1381h311l-2 -129h4q124 147 336 147q214 0 344.5 -148.5t130.5 -375.5q0 -149 -57.5 -268t-167 -189t-252.5 -70q-219 0 -320 150v-498h-327zM430 508q0 -117 65.5 -189.5t170.5 -72.5q106 0 171.5 72.5t65.5 189.5t-65.5 189.5t-171.5 72.5 q-105 0 -170.5 -72.5t-65.5 -189.5z" />
<glyph unicode="q" d="M49 504q0 149 57.5 267.5t167 187.5t252.5 69q212 0 336 -147h4l-4 129h312v-1381h-328v357l2 141h-4q-99 -150 -318 -150q-143 0 -252.5 70t-167 189t-57.5 268zM383 508q0 -117 66 -189.5t172 -72.5t170.5 72.5t64.5 189.5t-64.5 189.5t-170.5 72.5t-172 -72.5 t-66 -189.5z" />
<glyph unicode="r" horiz-adv-x="792" d="M109 0v1010h327l-2 -144h4q83 162 250 162q30 0 56 -4.5t36 -9.5l11 -4l-19 -301h-14q-43 24 -119 24q-50 0 -90 -22t-62 -52q-51 -67 -51 -210v-449h-327z" />
<glyph unicode="s" horiz-adv-x="923" d="M25 133l122 195q61 -52 148.5 -87.5t150.5 -35.5q140 0 140 86q0 19 -14.5 35.5t-41.5 29t-46.5 20t-50.5 16.5t-32 9q-76 19 -143 48q-19 8 -36.5 17.5t-44 32t-45 49.5t-32.5 70.5t-14 94.5q0 144 110 230.5t273 86.5q235 0 387 -125l-106 -192q-47 37 -121.5 67.5 t-132.5 30.5q-121 0 -121 -74q0 -25 24.5 -45t51.5 -30t71 -23q76 -22 144 -47q81 -29 131 -76q82 -82 82 -205q0 -150 -119 -245q-116 -89 -309 -89q-120 0 -231.5 38.5t-194.5 117.5z" />
<glyph unicode="t" horiz-adv-x="733" d="M14 760v248h144v274h329v-274h224v-248h-224v-363q0 -58 7 -83.5t22 -41.5q21 -24 78 -24q23 0 47.5 4.5t37.5 9.5l13 4l17 -256q-137 -33 -234 -33q-164 0 -246 95q-38 44 -54.5 112.5t-16.5 184.5v391h-144z" />
<glyph unicode="u" horiz-adv-x="1185" d="M102 399v611h328v-566q0 -95 33.5 -145.5t116.5 -50.5q85 0 127.5 60.5t42.5 164.5v537h327v-1010h-315l-2 115q-38 -54 -116.5 -96t-178.5 -42q-200 0 -289 119q-74 106 -74 303z" />
<glyph unicode="v" horiz-adv-x="1118" d="M-8 1010h342l229 -639l228 639h337l-415 -1010h-307z" />
<glyph unicode="w" horiz-adv-x="1685" d="M4 1010h332l178 -645l195 645h268l194 -645l179 645h331l-331 -1010h-310l-196 618l-199 -618h-309z" />
<glyph unicode="x" horiz-adv-x="1159" d="M-23 0l406 526l-363 484h371l189 -303l186 303h371l-363 -484l406 -526h-373l-227 336l-230 -336h-373z" />
<glyph unicode="y" horiz-adv-x="1114" d="M-8 1010h342l229 -650l228 650h337l-450 -1106q-61 -148 -134 -219.5t-194 -71.5q-76 0 -146 12.5t-102 24.5l-32 12l65 242q72 -27 121 -27q24 0 37 2t30.5 17.5t30.5 46.5l37 88z" />
<glyph unicode="z" horiz-adv-x="1015" d="M33 0v188l510 572h-488v248h903v-183l-503 -565h528v-260h-950z" />
<glyph unicode="{" horiz-adv-x="684" d="M12 522v207q25 0 44.5 6t39 22t30.5 51t11 87v360q0 162 64 234t219 72h180v-158h-70q-76 0 -103.5 -28t-27.5 -105v-375q0 -129 -40.5 -185t-122.5 -77v-15q53 -14 86.5 -38.5t55 -80.5t21.5 -145v-374q0 -77 27.5 -104.5t103.5 -27.5h70v-157h-180q-156 0 -219.5 71 t-63.5 232v360q0 99 -35.5 133.5t-89.5 34.5z" />
<glyph unicode="|" horiz-adv-x="684" d="M231 -301v1939h222v-1939h-222z" />
<glyph unicode="}" horiz-adv-x="684" d="M84 -152h70q76 0 103.5 27.5t27.5 104.5v374q0 129 41 186t123 78v15q-82 21 -123 77t-41 185v375q0 77 -27.5 105t-103.5 28h-70v158h182q155 0 218 -72t63 -234v-360q0 -52 11.5 -87t31.5 -51t39.5 -22t44.5 -6v-207q-25 0 -44.5 -6t-39.5 -22.5t-31.5 -52t-11.5 -87.5 v-360q0 -162 -63 -232.5t-218 -70.5h-182v157z" />
<glyph unicode="~" horiz-adv-x="1435" d="M152 639q63 93 153 152t193 59q21 0 40.5 -1.5t37.5 -5t32.5 -6.5t31.5 -9t26.5 -9.5t25.5 -11.5t21.5 -10.5t21 -11t17.5 -9.5q120 -61 188 -61q53 0 107.5 36.5t93.5 92.5l143 -174q-63 -93 -153 -152t-193 -59q-19 0 -37 1.5t-33 3.5t-31.5 6t-27.5 6.5t-26.5 9t-23 9 t-22.5 10l-19 9.5t-18 9.5t-16 8.5q-39 20 -59.5 29.5t-59 21t-69.5 11.5q-53 0 -107.5 -36.5t-93.5 -92.5z" />
<glyph unicode="&#xa1;" horiz-adv-x="667" d="M139 856q0 82 53.5 128t141.5 46q86 0 139 -46t53 -128t-53 -129t-139 -47q-88 0 -141.5 47t-53.5 129zM162 -403l28 978h285l31 -978h-344z" />
<glyph unicode="&#xa2;" d="M172 623q0 114 39 210t106.5 161.5t157 105.5t193.5 49v162h166v-164q85 -8 159 -37t105 -59l-66 -240q-89 67 -198 80v-529q61 4 120 28.5t88 49.5l64 -233q-18 -25 -98 -61t-174 -44v-163h-166v161q-140 13 -250.5 76t-178 179t-67.5 268zM487 629q0 -95 48 -162 t133 -90v506q-83 -22 -132 -90.5t-49 -163.5z" />
<glyph unicode="&#xa3;" d="M121 0v244h235q15 23 29 86t16 108q1 26 0 62.5t-3 59.5l-1 24h-215v188h201l-29 102q-28 98 -28 185q0 81 32.5 152.5t85.5 119.5q115 103 312 103q232 0 374 -146l-112 -190q-1 1 -8.5 8t-12 10.5t-15.5 12t-19 14t-21.5 14t-25.5 13.5t-28 11.5t-31.5 10t-34 6 t-36.5 2.5q-88 0 -128 -48.5t-40 -117.5q0 -23 3 -47.5t8 -47.5t9 -39.5t9 -33.5t6 -20l21 -74h301v-188h-287q1 -10 2 -26t2 -55t0 -65q-2 -44 -16 -107.5t-27 -86.5h537v-244h-1065z" />
<glyph unicode="&#xa4;" d="M102 467v190h105q-2 31 -2 60v55h-103v189h136q23 108 78 201t128 153q143 119 365 119q120 0 218.5 -31t148.5 -64l-76 -260q-109 103 -271 103q-217 0 -258 -221h394v-189h-430q-3 -30 -3 -55l3 -60h430v-190h-394q14 -103 81.5 -163t174.5 -60q66 0 128 22.5t94 45 t71 55.5l99 -234l-15 -15q-14 -14 -28 -25t-40 -29.5t-58 -32t-72 -27t-93 -20.5t-112 -7q-219 0 -367 123.5t-201 366.5h-131z" />
<glyph unicode="&#xa5;" d="M12 1413h363l266 -555l266 555h361l-338 -582h235v-190h-348l-18 -66v-53h366v-188h-368v-334h-314v334h-368v188h368v53l-18 66h-350v190h237z" />
<glyph unicode="&#xa6;" horiz-adv-x="684" d="M231 0v647h222v-647h-222zM231 991v647h222v-647h-222z" />
<glyph unicode="&#xa7;" horiz-adv-x="1357" d="M176 -154l180 162q38 -74 126 -126t177 -52q88 0 132.5 34.5t44.5 94.5q0 55 -43 96t-129 76l-209 86q-114 46 -186 129.5t-72 204.5q0 69 24.5 127.5t59 92t60 51t40.5 22.5q-5 3 -13 9.5t-28.5 29t-36 48t-28.5 68t-13 88.5q0 110 61 190.5t157.5 118.5t213.5 38 q303 0 451 -207l-152 -160q-57 75 -133 115.5t-149 40.5t-115.5 -30.5t-42.5 -90.5q0 -30 13.5 -53.5t44 -44.5t58.5 -35t79 -35l165 -68q117 -49 193 -135.5t76 -212.5q0 -57 -19 -107t-46 -80t-53.5 -52t-45.5 -31l-19 -8q42 -22 88 -94.5t46 -172.5q0 -89 -39 -159.5 t-106 -114.5t-151 -67t-178 -23q-341 0 -483 237zM451 598q0 -53 29 -88.5t91 -60.5l263 -107q39 12 61.5 46.5t22.5 86.5q0 107 -119 156l-264 108q-35 -13 -59.5 -51t-24.5 -90z" />
<glyph unicode="&#xa8;" horiz-adv-x="854" d="M102 1264q0 61 40 99t100 38q59 0 98 -38t39 -99t-39 -98.5t-98 -37.5q-60 0 -100 38t-40 98zM475 1264q0 61 40 99t99 38t98.5 -38t39.5 -99t-39.5 -98.5t-98.5 -37.5q-60 0 -99.5 37.5t-39.5 98.5z" />
<glyph unicode="&#xa9;" horiz-adv-x="1574" d="M59 707q0 151 56.5 286t153.5 231.5t231.5 153t285.5 56.5q202 0 369.5 -95.5t264 -262.5t96.5 -369t-96.5 -369t-264 -262.5t-369.5 -95.5q-151 0 -285.5 56.5t-231.5 153t-153.5 231.5t-56.5 286zM168 707q0 -171 81.5 -313.5t223.5 -224t313 -81.5q129 0 244 48 t197 130.5t130 197.5t48 243t-48 243t-130 197t-197 130t-244 48q-171 0 -313 -81.5t-223.5 -223.5t-81.5 -313zM379 707q0 194 125.5 316t316.5 122q112 0 189 -36.5t116 -80.5l-73 -135q-30 34 -88.5 65t-139.5 31q-113 0 -189.5 -72.5t-76.5 -205.5q0 -132 76.5 -205.5 t189.5 -73.5q142 0 238 96l74 -133q-26 -28 -60.5 -52.5t-105 -49.5t-150.5 -25q-191 0 -316.5 122.5t-125.5 316.5z" />
<glyph unicode="&#xaa;" horiz-adv-x="770" d="M66 588q0 50 22.5 87.5t60 57.5t78 29.5t86.5 11.5l156 6v8q0 93 -125 93q-52 0 -107.5 -17.5t-86.5 -36.5l-58 136q48 24 123.5 43.5t153.5 19.5q164 0 241 -74q74 -68 74 -213v-336h-205l-6 66q-71 -76 -182 -76q-89 0 -157 49t-68 146zM285 596q0 -72 88 -72 q23 0 47 11t36 23l13 11v103l-98 -6q-86 -4 -86 -70z" />
<glyph unicode="&#xab;" horiz-adv-x="1165" d="M127 504l326 444l159 -110l-241 -334l241 -332l-159 -111zM541 504l325 444l160 -110l-242 -334l242 -332l-160 -111z" />
<glyph unicode="&#xac;" horiz-adv-x="1437" d="M156 780v240h1124v-684h-240v444h-884z" />
<glyph unicode="&#xad;" horiz-adv-x="694" d="M61 422v256h572v-256h-572z" />
<glyph unicode="&#xae;" horiz-adv-x="1574" d="M59 707q0 151 56.5 286t153.5 231.5t231.5 153t285.5 56.5q202 0 369.5 -95.5t264 -262.5t96.5 -369t-96.5 -369t-264 -262.5t-369.5 -95.5q-151 0 -285.5 56.5t-231.5 153t-153.5 231.5t-56.5 286zM168 707q0 -171 81.5 -313.5t223.5 -224t313 -81.5q129 0 244 48 t197 130.5t130 197.5t48 243t-48 243t-130 197t-197 130t-244 48q-171 0 -313 -81.5t-223.5 -223.5t-81.5 -313zM504 281v852h301q141 0 223 -68t82 -188q0 -57 -17 -102.5t-45 -72.5t-55.5 -42t-56.5 -23l211 -356h-207l-178 333h-84v-333h-174zM678 756h98q71 0 112.5 25 t41.5 91q0 68 -41.5 93.5t-112.5 25.5h-98v-235z" />
<glyph unicode="&#xaf;" horiz-adv-x="854" d="M102 1188v158h650v-158h-650z" />
<glyph unicode="&#xb0;" horiz-adv-x="882" d="M106 1176q0 140 98.5 234.5t237.5 94.5q138 0 236 -94.5t98 -234.5q0 -138 -98 -233t-236 -95q-139 0 -237.5 95t-98.5 233zM260 1176q0 -75 52.5 -130t129.5 -55q76 0 130.5 55.5t54.5 129.5q0 75 -54.5 129.5t-130.5 54.5q-77 0 -129.5 -54t-52.5 -130z" />
<glyph unicode="&#xb1;" horiz-adv-x="1435" d="M156 109v239h1124v-239h-1124zM156 774v240h440v352h246v-352h438v-240h-438v-354h-246v354h-440z" />
<glyph unicode="&#xb2;" horiz-adv-x="847" d="M78 1292q7 51 103.5 110.5t232.5 59.5q148 0 237.5 -69.5t89.5 -182.5q0 -27 -6 -54t-12 -46.5t-23.5 -45t-24.5 -37.5t-32.5 -37t-30.5 -30.5t-34.5 -31.5t-30.5 -27l-152 -137h375v-180h-655l-27 147l299 266q72 64 100.5 104.5t28.5 80.5q0 44 -32 70t-89 26 q-125 0 -215 -129z" />
<glyph unicode="&#xb3;" horiz-adv-x="847" d="M88 741l121 127q33 -55 92 -85.5t117 -30.5q56 0 95.5 27t39.5 73q0 48 -36 75t-95 27l-76 2v162h82q49 0 76.5 24.5t27.5 67.5q0 36 -29 58t-81 22q-118 0 -201 -98l-94 137q105 133 309 133q129 0 222.5 -64t93.5 -169q0 -129 -115 -187h-2q66 -22 104.5 -75t38.5 -125 q0 -83 -50 -146.5t-126.5 -95t-163.5 -31.5q-241 0 -350 172z" />
<glyph unicode="&#xb4;" horiz-adv-x="854" d="M207 1116l162 297h280l-211 -297h-231z" />
<glyph unicode="&#xb5;" horiz-adv-x="1191" d="M106 -371v1379h328v-551q0 -102 34.5 -154.5t117.5 -52.5q168 0 168 211v547h329v-1008h-315l-4 111q-33 -42 -99 -76.5t-135 -34.5q-40 0 -70 11.5t-42 25.5l12 -408h-324z" />
<glyph unicode="&#xb6;" horiz-adv-x="1357" d="M78 956q0 223 129.5 340t361.5 117h678v-213h-92v-1571h-219v1571h-191v-1571h-217v871q-200 5 -325 122t-125 334z" />
<glyph unicode="&#xb7;" horiz-adv-x="858" d="M240 596q0 78 52 126t138 48q85 0 136.5 -48t51.5 -126t-51.5 -126t-136.5 -48q-86 0 -138 48t-52 126z" />
<glyph unicode="&#xb8;" horiz-adv-x="870" d="M233 -303l197 303h207l-156 -303h-248z" />
<glyph unicode="&#xb9;" horiz-adv-x="847" d="M211 1278v164h393v-864h-231v700h-162z" />
<glyph unicode="&#xba;" horiz-adv-x="864" d="M86 709q0 144 97 230.5t249 86.5q151 0 248.5 -86.5t97.5 -230.5q0 -142 -98 -229t-248 -87q-151 0 -248.5 86.5t-97.5 229.5zM301 713q0 -70 37.5 -111t93.5 -41t92.5 41t36.5 111t-36.5 109.5t-92.5 39.5t-93.5 -39.5t-37.5 -109.5z" />
<glyph unicode="&#xbb;" horiz-adv-x="1165" d="M139 172l242 332l-242 334l160 110l326 -444l-326 -443zM553 838l160 110l325 -444l-325 -443l-158 111l240 332z" />
<glyph unicode="&#xbc;" horiz-adv-x="1935" d="M131 1249v164h395v-835h-233v671h-162zM362 35l881 1415l141 -84l-880 -1415zM1022 166v147l444 559h244v-534h119v-172h-119v-166h-233v166h-455zM1245 338h236v305z" />
<glyph unicode="&#xbd;" horiz-adv-x="1937" d="M117 1249v164h395v-850h-231v686h-164zM344 35l879 1415l141 -84l-879 -1415zM1130 719q24 47 116 98t218 51q145 0 233.5 -69.5t88.5 -182.5q0 -41 -11.5 -79.5t-26 -65t-41.5 -57.5t-44.5 -47t-48.5 -43q-10 -9 -15 -13l-149 -129h373v-182h-654l-30 141l286 250 q71 61 104.5 104.5t33.5 86.5q0 47 -32.5 74.5t-86.5 27.5q-107 0 -217 -123z" />
<glyph unicode="&#xbe;" horiz-adv-x="1935" d="M88 741l121 127q33 -55 92 -85.5t117 -30.5q56 0 95.5 27t39.5 73q0 48 -36 75t-95 27l-76 2v162h82q49 0 76.5 24.5t27.5 67.5q0 36 -29 58t-81 22q-118 0 -201 -98l-94 137q105 133 309 133q129 0 222.5 -64t93.5 -169q0 -129 -115 -187h-2q66 -22 104.5 -75t38.5 -125 q0 -83 -50 -146.5t-126.5 -95t-163.5 -31.5q-241 0 -350 172zM467 35l881 1415l141 -84l-881 -1415zM1022 166v147l444 559h244v-534h119v-172h-119v-166h-233v166h-455zM1245 338h236v305z" />
<glyph unicode="&#xbf;" horiz-adv-x="1093" d="M113 -61q0 61 11.5 109.5t35.5 87.5t46 63.5t58 58.5q35 31 103 79t84 66q22 32 22 76l2 96h277l2 -133q1 -91 -29 -147.5t-98 -104.5l-125 -90q-43 -31 -66.5 -60t-23.5 -67q0 -63 51 -98t145 -35q85 0 160 35.5t127 87.5l96 -229q-23 -24 -52.5 -45.5t-82.5 -50 t-132 -45.5t-171 -17q-194 0 -317 106t-123 257zM420 856q0 82 53 129t141 47q86 0 139.5 -47t53.5 -129t-53.5 -129t-139.5 -47q-88 0 -141 47t-53 129z" />
<glyph unicode="&#xc0;" horiz-adv-x="1392" d="M-8 0l532 1415h344l533 -1415h-361l-100 285h-504l-100 -285h-344zM383 1794h281l161 -297h-233zM512 543h352l-176 508z" />
<glyph unicode="&#xc1;" horiz-adv-x="1392" d="M-8 0l532 1415h344l533 -1415h-361l-100 285h-504l-100 -285h-344zM512 543h352l-176 508zM567 1497l162 297h281l-209 -297h-234z" />
<glyph unicode="&#xc2;" horiz-adv-x="1392" d="M-8 0l532 1415h344l533 -1415h-361l-100 285h-504l-100 -285h-344zM365 1497l176 297h311l176 -297h-221l-111 184l-110 -184h-221zM512 543h352l-176 508z" />
<glyph unicode="&#xc3;" horiz-adv-x="1392" d="M-8 0l532 1415h344l533 -1415h-361l-100 285h-504l-100 -285h-344zM326 1540q3 97 72 166.5t161 69.5q20 0 39.5 -2.5t31.5 -5t28.5 -9t22 -9t20.5 -11t16 -8.5q4 -2 23.5 -13.5t30 -17t29 -11.5t34.5 -6q32 0 56.5 23t35.5 63l141 -20q-3 -96 -72 -166t-161 -70 q-14 0 -26.5 1t-24 3t-20.5 4t-19.5 6t-16.5 6.5t-15 7.5t-12.5 6.5t-12.5 7t-11 6.5t-23 13.5t-31 17t-28.5 10.5t-34.5 6q-32 0 -57 -23.5t-35 -64.5zM512 543h352l-176 508z" />
<glyph unicode="&#xc4;" horiz-adv-x="1392" d="M-8 0l532 1415h344l533 -1415h-361l-100 285h-504l-100 -285h-344zM375 1638q0 61 39.5 99.5t99.5 38.5q59 0 98 -38.5t39 -99.5t-39 -99t-98 -38q-61 0 -100 38t-39 99zM512 543h352l-176 508zM741 1638q0 61 39.5 99.5t98.5 38.5t99 -38.5t40 -99.5t-40 -99t-99 -38 t-98.5 38t-39.5 99z" />
<glyph unicode="&#xc5;" horiz-adv-x="1392" d="M-8 0l532 1415h344l533 -1415h-361l-100 285h-504l-100 -285h-344zM461 1665q0 98 67 154.5t168 56.5q100 0 168 -56.5t68 -154.5q0 -96 -68 -152.5t-168 -56.5q-101 0 -168 56t-67 153zM512 543h352l-176 508zM592 1665q0 -45 29 -71.5t75 -26.5q47 0 76 26.5t29 71.5 t-29.5 72.5t-75.5 27.5t-75 -27.5t-29 -72.5z" />
<glyph unicode="&#xc6;" horiz-adv-x="1898" d="M-78 0l854 1413h1030v-264h-526v-285h494v-264h-494v-332h545v-268h-875v287h-493l-162 -287h-373zM602 545h348v608h-6z" />
<glyph unicode="&#xc7;" horiz-adv-x="1331" d="M57 705q0 167 58 306t158.5 230.5t235.5 142t290 50.5q102 0 191.5 -18.5t148 -47.5t93 -52t52.5 -42l-102 -275q-32 41 -137.5 94.5t-227.5 53.5q-185 0 -304.5 -117t-119.5 -319q0 -200 122 -317.5t302 -117.5q123 0 219.5 42t161.5 108l111 -258q-67 -69 -172 -122.5 t-244 -61.5l-129 -291h-299l164 301q-80 13 -158 46t-154 92.5t-133 137.5t-92 191t-35 244z" />
<glyph unicode="&#xc8;" horiz-adv-x="1138" d="M129 0v1413h915v-264h-585v-289h553v-264h-553v-328h604v-268h-934zM313 1794h281l162 -297h-234z" />
<glyph unicode="&#xc9;" horiz-adv-x="1138" d="M129 0v1413h915v-264h-585v-289h553v-264h-553v-328h604v-268h-934zM406 1497l161 297h281l-209 -297h-233z" />
<glyph unicode="&#xca;" horiz-adv-x="1138" d="M129 0v1413h915v-264h-585v-289h553v-264h-553v-328h604v-268h-934zM256 1497l176 297h309l177 -297h-220l-110 184l-113 -184h-219z" />
<glyph unicode="&#xcb;" horiz-adv-x="1138" d="M129 0v1413h915v-264h-585v-289h553v-264h-553v-328h604v-268h-934zM266 1638q0 61 39 99.5t98 38.5t99.5 -38.5t40.5 -99.5t-40 -99t-100 -38q-59 0 -98 38t-39 99zM635 1638q0 61 39 99.5t98 38.5q60 0 99.5 -38.5t39.5 -99.5t-39 -99t-100 -38q-59 0 -98 38t-39 99z " />
<glyph unicode="&#xcc;" horiz-adv-x="589" d="M14 1794h281l162 -297h-234zM129 0v1413h332v-1413h-332z" />
<glyph unicode="&#xcd;" horiz-adv-x="589" d="M129 0v1413h332v-1413h-332zM133 1497l162 297h280l-210 -297h-232z" />
<glyph unicode="&#xce;" horiz-adv-x="589" d="M-37 1497l176 297h312l174 -297h-219l-111 184l-111 -184h-221zM129 0v1413h332v-1413h-332z" />
<glyph unicode="&#xcf;" horiz-adv-x="589" d="M-29 1642q0 61 40.5 99.5t99.5 38.5t98 -38.5t39 -99.5t-39 -99t-98 -38q-60 0 -100 38t-40 99zM129 0v1413h332v-1413h-332zM342 1642q0 61 39 99.5t98 38.5t99 -38.5t40 -99.5t-40 -99t-99 -38t-98 38t-39 99z" />
<glyph unicode="&#xd0;" horiz-adv-x="1439" d="M12 618v218h117v577h479q346 0 545 -170q229 -189 229 -536t-229 -539q-201 -168 -545 -168h-479v618h-117zM459 281h168q189 0 295 102q125 117 125 324q0 210 -125 331q-108 101 -295 101h-168v-303h278v-209h-278v-346z" />
<glyph unicode="&#xd1;" horiz-adv-x="1536" d="M129 0v1413h354l607 -950q-7 159 -7 309v641h324v-1413h-340l-621 958q7 -169 7 -319v-639h-324zM397 1540q3 97 72.5 166.5t161.5 69.5q20 0 39 -2.5t31.5 -5.5t28.5 -9t22 -9t20 -10.5t16 -8.5q4 -2 23 -13.5t30 -17t29 -11.5t33 -6q34 0 58.5 23t35.5 63l142 -20 q-3 -95 -72.5 -165.5t-161.5 -70.5q-15 0 -29.5 1.5t-25.5 3.5t-23.5 6t-19.5 6t-18 8t-15 8t-14.5 8t-11.5 7q-2 1 -23 13.5t-31 17t-28.5 10.5t-34.5 6q-33 0 -57 -23t-35 -65z" />
<glyph unicode="&#xd2;" horiz-adv-x="1613" d="M57 705q0 168 58 306.5t159.5 231t238.5 143t294 50.5t294 -50.5t238 -143t159 -231t58 -306.5t-58 -306.5t-159 -230.5t-238 -142.5t-294 -50.5q-211 0 -380 86t-269.5 253.5t-100.5 390.5zM393 713q0 -199 117 -321t297 -122t297 122t117 321q0 198 -117 319t-297 121 t-297 -120.5t-117 -319.5zM481 1794h281l162 -297h-234z" />
<glyph unicode="&#xd3;" horiz-adv-x="1613" d="M57 705q0 168 58 306.5t159.5 231t238.5 143t294 50.5t294 -50.5t238 -143t159 -231t58 -306.5t-58 -306.5t-159 -230.5t-238 -142.5t-294 -50.5q-211 0 -380 86t-269.5 253.5t-100.5 390.5zM393 713q0 -199 117 -321t297 -122t297 122t117 321q0 198 -117 319t-297 121 t-297 -120.5t-117 -319.5zM690 1497l164 297h279l-209 -297h-234z" />
<glyph unicode="&#xd4;" horiz-adv-x="1613" d="M57 705q0 168 58 306.5t159.5 231t238.5 143t294 50.5t294 -50.5t238 -143t159 -231t58 -306.5t-58 -306.5t-159 -230.5t-238 -142.5t-294 -50.5q-211 0 -380 86t-269.5 253.5t-100.5 390.5zM393 713q0 -199 117 -321t297 -122t297 122t117 321q0 198 -117 319t-297 121 t-297 -120.5t-117 -319.5zM475 1497l176 297h312l176 -297h-221l-111 184l-111 -184h-221z" />
<glyph unicode="&#xd5;" horiz-adv-x="1613" d="M57 705q0 168 58 306.5t159.5 231t238.5 143t294 50.5t294 -50.5t238 -143t159 -231t58 -306.5t-58 -306.5t-159 -230.5t-238 -142.5t-294 -50.5q-211 0 -380 86t-269.5 253.5t-100.5 390.5zM393 713q0 -199 117 -321t297 -122t297 122t117 321q0 198 -117 319t-297 121 t-297 -120.5t-117 -319.5zM436 1540q3 97 72.5 166.5t161.5 69.5q20 0 39 -2.5t31.5 -5.5t28.5 -9t22 -9t20 -10.5t16 -8.5q4 -2 23.5 -13.5t30 -17t29 -11.5t34.5 -6q32 0 56.5 23t35.5 63l142 -20q-3 -95 -72.5 -165.5t-161.5 -70.5q-14 0 -26.5 1t-24 3t-20.5 4t-19.5 6 t-16.5 6.5t-15 7.5t-12.5 6.5t-12.5 7t-11 6.5q-3 2 -23 13.5t-30 16.5t-28.5 11t-34.5 6q-32 0 -57 -23.5t-35 -64.5z" />
<glyph unicode="&#xd6;" horiz-adv-x="1613" d="M57 705q0 168 58 306.5t159.5 231t238.5 143t294 50.5t294 -50.5t238 -143t159 -231t58 -306.5t-58 -306.5t-159 -230.5t-238 -142.5t-294 -50.5q-211 0 -380 86t-269.5 253.5t-100.5 390.5zM393 713q0 -199 117 -321t297 -122t297 122t117 321q0 198 -117 319t-297 121 t-297 -120.5t-117 -319.5zM485 1638q0 61 39.5 99.5t98.5 38.5t99 -38.5t40 -99.5t-40 -99t-99 -38t-98.5 38t-39.5 99zM854 1638q0 61 39 99.5t98 38.5t99 -38.5t40 -99.5t-40 -99t-99 -38t-98 38t-39 99z" />
<glyph unicode="&#xd7;" horiz-adv-x="1435" d="M168 330l379 377l-379 374l172 176l379 -376l377 376l174 -176l-379 -374l379 -377l-174 -176l-377 376l-379 -376z" />
<glyph unicode="&#xd8;" horiz-adv-x="1613" d="M57 705q0 168 58 306.5t159.5 231t238.5 143t294 50.5q259 0 448 -129l154 155l147 -143l-149 -152q149 -189 149 -462q0 -168 -58 -306.5t-159 -230.5t-238 -142.5t-294 -50.5q-260 0 -449 129l-151 -153l-148 143l148 150q-150 190 -150 461zM393 713q0 -128 51 -230 l594 604q-101 66 -231 66q-180 0 -297 -120.5t-117 -319.5zM584 332q100 -62 223 -62q180 0 297 122t117 321q0 123 -47 219z" />
<glyph unicode="&#xd9;" horiz-adv-x="1421" d="M119 590v823h334v-823q0 -85 11 -140.5t44 -95.5q75 -88 203 -88q127 0 202 88q33 40 44.5 96t11.5 140v823h334v-823q0 -153 -31.5 -259t-104.5 -186q-155 -168 -456 -168t-459 168q-72 80 -102.5 186t-30.5 259zM408 1794h280l164 -297h-234z" />
<glyph unicode="&#xda;" horiz-adv-x="1421" d="M119 590v823h334v-823q0 -85 11 -140.5t44 -95.5q75 -88 203 -88q127 0 202 88q33 40 44.5 96t11.5 140v823h334v-823q0 -153 -31.5 -259t-104.5 -186q-155 -168 -456 -168t-459 168q-72 80 -102.5 186t-30.5 259zM569 1497l162 297h281l-209 -297h-234z" />
<glyph unicode="&#xdb;" horiz-adv-x="1421" d="M119 590v823h334v-823q0 -85 11 -140.5t44 -95.5q75 -88 203 -88q127 0 202 88q33 40 44.5 96t11.5 140v823h334v-823q0 -153 -31.5 -259t-104.5 -186q-155 -168 -456 -168t-459 168q-72 80 -102.5 186t-30.5 259zM379 1497l176 297h311l174 -297h-219l-110 184 l-111 -184h-221z" />
<glyph unicode="&#xdc;" horiz-adv-x="1421" d="M119 590v823h334v-823q0 -85 11 -140.5t44 -95.5q75 -88 203 -88q127 0 202 88q33 40 44.5 96t11.5 140v823h334v-823q0 -153 -31.5 -259t-104.5 -186q-155 -168 -456 -168t-459 168q-72 80 -102.5 186t-30.5 259zM387 1638q0 61 40 99.5t99 38.5t98.5 -38.5t39.5 -99.5 t-39.5 -99t-98.5 -38t-99 38t-40 99zM758 1638q0 61 39 99.5t98 38.5t99 -38.5t40 -99.5t-40 -99t-99 -38t-98 38t-39 99z" />
<glyph unicode="&#xdd;" horiz-adv-x="1269" d="M-23 1413h369l289 -563l289 563h368l-491 -842v-571h-332v571zM487 1497l164 297h281l-211 -297h-234z" />
<glyph unicode="&#xde;" horiz-adv-x="1179" d="M129 0v1413h332v-227h160q239 0 368 -107q148 -126 148 -340q0 -215 -148 -338q-128 -106 -368 -106h-160v-295h-332zM459 549h112q103 0 158 41q70 50 70 149q0 102 -70 152q-52 39 -158 39h-112v-381z" />
<glyph unicode="&#xdf;" horiz-adv-x="1247" d="M117 0v893q0 202 49 303q49 104 149 166q116 72 310 72q116 0 206.5 -29.5t143 -79t79.5 -109t27 -124.5q0 -114 -57.5 -188t-118.5 -89v-4q125 -28 209 -131.5t84 -257.5q0 -214 -143.5 -327t-382.5 -113q-30 0 -65.5 4.5t-56.5 9.5l-20 4l17 236q39 -11 88 -11 q105 0 173.5 53t68.5 162q0 112 -69.5 169t-184.5 57h-58v227h47q93 0 138 44t45 120q0 70 -50.5 112.5t-128.5 42.5q-94 0 -139 -63q-33 -49 -33 -170v-979h-327z" />
<glyph unicode="&#xe0;" horiz-adv-x="1107" d="M39 299q0 81 34.5 141.5t93 95t124.5 52t141 20.5l254 10v23q0 79 -54 120.5t-153 41.5q-87 0 -173.5 -29t-135.5 -61l-86 213q204 102 432 102q251 0 377 -117q61 -58 91 -138.5t30 -203.5v-569h-314l-6 106q-26 -26 -42.5 -40t-54 -39t-85.5 -37.5t-106 -12.5 q-69 0 -133 19t-117 57t-85 101.5t-32 144.5zM248 1413h280l162 -297h-233zM367 311q0 -58 42.5 -91.5t110.5 -33.5q59 0 104 29.5t64 63.5v165l-162 -10q-76 -3 -117.5 -34.5t-41.5 -88.5z" />
<glyph unicode="&#xe1;" horiz-adv-x="1107" d="M39 299q0 81 34.5 141.5t93 95t124.5 52t141 20.5l254 10v23q0 79 -54 120.5t-153 41.5q-87 0 -173.5 -29t-135.5 -61l-86 213q204 102 432 102q251 0 377 -117q61 -58 91 -138.5t30 -203.5v-569h-314l-6 106q-26 -26 -42.5 -40t-54 -39t-85.5 -37.5t-106 -12.5 q-69 0 -133 19t-117 57t-85 101.5t-32 144.5zM367 311q0 -58 42.5 -91.5t110.5 -33.5q59 0 104 29.5t64 63.5v165l-162 -10q-76 -3 -117.5 -34.5t-41.5 -88.5zM381 1116l164 297h278l-209 -297h-233z" />
<glyph unicode="&#xe2;" horiz-adv-x="1107" d="M39 299q0 81 34.5 141.5t93 95t124.5 52t141 20.5l254 10v23q0 79 -54 120.5t-153 41.5q-87 0 -173.5 -29t-135.5 -61l-86 213q204 102 432 102q251 0 377 -117q61 -58 91 -138.5t30 -203.5v-569h-314l-6 106q-26 -26 -42.5 -40t-54 -39t-85.5 -37.5t-106 -12.5 q-69 0 -133 19t-117 57t-85 101.5t-32 144.5zM217 1116l174 297h311l177 -297h-222l-110 189l-111 -189h-219zM367 311q0 -58 42.5 -91.5t110.5 -33.5q59 0 104 29.5t64 63.5v165l-162 -10q-76 -3 -117.5 -34.5t-41.5 -88.5z" />
<glyph unicode="&#xe3;" horiz-adv-x="1107" d="M39 299q0 81 34.5 141.5t93 95t124.5 52t141 20.5l254 10v23q0 79 -54 120.5t-153 41.5q-87 0 -173.5 -29t-135.5 -61l-86 213q204 102 432 102q251 0 377 -117q61 -58 91 -138.5t30 -203.5v-569h-314l-6 106q-26 -26 -42.5 -40t-54 -39t-85.5 -37.5t-106 -12.5 q-69 0 -133 19t-117 57t-85 101.5t-32 144.5zM197 1163q3 97 72 166.5t161 69.5q20 0 39.5 -2.5t31.5 -5t28.5 -9t22 -9t20.5 -11t16 -8.5q3 -2 15 -9.5t18 -11.5t18.5 -10t21 -9.5t20 -6t21.5 -2.5q34 0 59.5 23.5t35.5 64.5l139 -21q-1 -96 -69.5 -165.5t-161.5 -69.5 q-20 0 -39.5 2.5t-31.5 5t-28.5 9t-22 9t-20.5 11t-16 8.5q-4 2 -30.5 18t-46.5 23.5t-40 7.5q-33 0 -57 -23.5t-35 -64.5zM367 311q0 -58 42.5 -91.5t110.5 -33.5q59 0 104 29.5t64 63.5v165l-162 -10q-76 -3 -117.5 -34.5t-41.5 -88.5z" />
<glyph unicode="&#xe4;" horiz-adv-x="1107" d="M39 299q0 81 34.5 141.5t93 95t124.5 52t141 20.5l254 10v23q0 79 -54 120.5t-153 41.5q-87 0 -173.5 -29t-135.5 -61l-86 213q204 102 432 102q251 0 377 -117q61 -58 91 -138.5t30 -203.5v-569h-314l-6 106q-26 -26 -42.5 -40t-54 -39t-85.5 -37.5t-106 -12.5 q-69 0 -133 19t-117 57t-85 101.5t-32 144.5zM219 1264q0 61 40 99t99 38t98.5 -38t39.5 -99t-39.5 -98.5t-98.5 -37.5q-60 0 -99.5 37.5t-39.5 98.5zM367 311q0 -58 42.5 -91.5t110.5 -33.5q59 0 104 29.5t64 63.5v165l-162 -10q-76 -3 -117.5 -34.5t-41.5 -88.5zM586 1264 q0 61 39 99t98 38q61 0 100 -38t39 -99t-39 -98.5t-100 -37.5q-59 0 -98 37.5t-39 98.5z" />
<glyph unicode="&#xe5;" horiz-adv-x="1107" d="M39 299q0 81 34.5 141.5t93 95t124.5 52t141 20.5l254 10v23q0 79 -54 120.5t-153 41.5q-87 0 -173.5 -29t-135.5 -61l-86 213q204 102 432 102q251 0 377 -117q61 -58 91 -138.5t30 -203.5v-569h-314l-6 106q-26 -26 -42.5 -40t-54 -39t-85.5 -37.5t-106 -12.5 q-69 0 -133 19t-117 57t-85 101.5t-32 144.5zM311 1317q0 95 67 153t167 58t165.5 -58t65.5 -153q0 -94 -65.5 -151.5t-165.5 -57.5t-167 57.5t-67 151.5zM367 311q0 -58 42.5 -91.5t110.5 -33.5q59 0 104 29.5t64 63.5v165l-162 -10q-76 -3 -117.5 -34.5t-41.5 -88.5z M442 1317q0 -42 27.5 -70t75.5 -28q46 0 73 28.5t27 69.5q0 43 -27 71.5t-73 28.5q-48 0 -75.5 -28.5t-27.5 -71.5z" />
<glyph unicode="&#xe6;" horiz-adv-x="1771" d="M39 299q0 82 34.5 143t94 95t125.5 51t143 20l250 10v25q0 77 -53.5 118.5t-153.5 41.5q-88 0 -173.5 -29t-135.5 -61l-86 213q204 102 432 102q184 0 281 -61q13 -9 25.5 -18.5t21 -18t15 -14.5t11.5 -12l4 -5q126 129 349 129q224 0 365 -137.5t141 -355.5 q0 -24 -1.5 -51t-3.5 -42l-2 -16h-718q9 -100 81.5 -155.5t176.5 -55.5q88 0 168.5 29.5t134.5 66.5l129 -170q-1 0 -20 -16.5t-35.5 -27.5t-47.5 -30.5t-67 -33.5t-81.5 -27.5t-103.5 -21t-122 -7.5q-261 0 -406 166q-88 -88 -177 -127t-226 -39q-99 0 -180.5 33.5 t-135 108t-53.5 180.5zM367 311q0 -58 41.5 -91.5t109.5 -33.5q62 0 118.5 33.5t80.5 69.5q-33 85 -33 155l-156 -8q-78 -4 -119.5 -37t-41.5 -88zM1006 612h415q-2 78 -56 140.5t-148 62.5q-96 0 -151 -61.5t-60 -141.5z" />
<glyph unicode="&#xe7;" horiz-adv-x="987" d="M49 502q0 123 45 224.5t120.5 166t171 100t200.5 35.5q72 0 137.5 -11t107 -26.5t72.5 -31t45 -26.5l13 -11l-72 -248q-113 90 -260 90q-107 0 -178.5 -69.5t-71.5 -186.5q0 -120 69 -190t185 -70q68 0 132 24.5t94 49.5l30 24l78 -248l-5 -5q-6 -5 -10.5 -8.5t-14 -10.5 t-19 -13t-24 -14t-28.5 -14.5t-33.5 -14t-39.5 -13t-44.5 -11t-50.5 -8.5l-145 -283h-281l193 285q-81 16 -153.5 56t-132.5 102t-95 154.5t-35 201.5z" />
<glyph unicode="&#xe8;" horiz-adv-x="1142" d="M49 504q0 122 43 222t117.5 165.5t173 101t211.5 35.5q225 0 365.5 -136t140.5 -357l-4 -109h-719q10 -104 81 -157.5t177 -53.5q88 0 168.5 29.5t134.5 66.5l129 -170q-1 0 -20 -16.5t-35.5 -27.5t-47.5 -30.5t-67 -33.5t-82 -27.5t-104.5 -21t-122.5 -7.5 q-239 0 -389 141t-150 386zM289 1413h280l162 -297h-233zM379 612h416q-2 78 -57 140.5t-150 62.5t-150.5 -61.5t-58.5 -141.5z" />
<glyph unicode="&#xe9;" horiz-adv-x="1142" d="M49 504q0 122 43 222t117.5 165.5t173 101t211.5 35.5q225 0 365.5 -136t140.5 -357l-4 -109h-719q10 -104 81 -157.5t177 -53.5q88 0 168.5 29.5t134.5 66.5l129 -170q-1 0 -20 -16.5t-35.5 -27.5t-47.5 -30.5t-67 -33.5t-82 -27.5t-104.5 -21t-122.5 -7.5 q-239 0 -389 141t-150 386zM379 612h416q-2 78 -57 140.5t-150 62.5t-150.5 -61.5t-58.5 -141.5zM440 1116l164 297h281l-211 -297h-234z" />
<glyph unicode="&#xea;" horiz-adv-x="1142" d="M49 504q0 122 43 222t117.5 165.5t173 101t211.5 35.5q225 0 365.5 -136t140.5 -357l-4 -109h-719q10 -104 81 -157.5t177 -53.5q88 0 168.5 29.5t134.5 66.5l129 -170q-1 0 -20 -16.5t-35.5 -27.5t-47.5 -30.5t-67 -33.5t-82 -27.5t-104.5 -21t-122.5 -7.5 q-239 0 -389 141t-150 386zM256 1116l176 297h311l177 -297h-222l-110 189l-111 -189h-221zM379 612h416q-2 78 -57 140.5t-150 62.5t-150.5 -61.5t-58.5 -141.5z" />
<glyph unicode="&#xeb;" horiz-adv-x="1142" d="M49 504q0 122 43 222t117.5 165.5t173 101t211.5 35.5q225 0 365.5 -136t140.5 -357l-4 -109h-719q10 -104 81 -157.5t177 -53.5q88 0 168.5 29.5t134.5 66.5l129 -170q-1 0 -20 -16.5t-35.5 -27.5t-47.5 -30.5t-67 -33.5t-82 -27.5t-104.5 -21t-122.5 -7.5 q-239 0 -389 141t-150 386zM272 1264q0 61 40 99t100 38q59 0 98 -38t39 -99t-39 -98.5t-98 -37.5q-60 0 -100 38t-40 98zM379 612h416q-2 78 -57 140.5t-150 62.5t-150.5 -61.5t-58.5 -141.5zM639 1264q0 61 39 99t100 38q59 0 98 -38t39 -99t-39 -98.5t-98 -37.5 q-61 0 -100 37.5t-39 98.5z" />
<glyph unicode="&#xec;" horiz-adv-x="552" d="M-2 1413h281l161 -297h-231zM113 0v1010h327v-1010h-327z" />
<glyph unicode="&#xed;" horiz-adv-x="552" d="M113 0v1010h327v-1010h-327zM113 1116l161 297h281l-209 -297h-233z" />
<glyph unicode="&#xee;" horiz-adv-x="552" d="M-53 1116l174 297h311l176 -297h-221l-111 189l-110 -189h-219zM113 0v1010h327v-1010h-327z" />
<glyph unicode="&#xef;" horiz-adv-x="552" d="M-45 1264q0 61 40 99t99 38t98 -38t39 -99t-39 -98.5t-98 -37.5q-60 0 -99.5 37.5t-39.5 98.5zM113 0v1010h327v-1010h-327zM322 1264q0 61 39 99t100 38q59 0 98 -38t39 -99t-39 -98.5t-98 -37.5q-61 0 -100 37.5t-39 98.5z" />
<glyph unicode="&#xf0;" horiz-adv-x="1220" d="M49 496q0 113 45 208.5t117.5 156t159.5 94.5t174 34q69 0 123 -18.5t77 -40.5q-66 118 -217 246l-229 -132l-76 136l178 100q-117 80 -184 121l227 125q102 -57 193 -125l244 139l75 -135l-192 -107q1 -1 23.5 -21.5t45.5 -42.5t52.5 -53.5t48.5 -56.5q48 -62 80 -113 t70.5 -130.5t58.5 -177t20 -207.5q0 -154 -73 -273t-200 -182.5t-286 -63.5q-241 0 -398 143t-157 376zM381 502q0 -112 62 -184t163 -72q102 0 165 72.5t63 183.5q0 110 -63 182t-165 72q-101 0 -163 -72t-62 -182z" />
<glyph unicode="&#xf1;" horiz-adv-x="1202" d="M109 0v1010h327l-2 -146h4q100 164 293 164q86 0 151 -22t106 -59.5t66.5 -93.5t35.5 -118t10 -139v-596h-328v526q0 55 -5.5 93.5t-21.5 72.5t-48 51t-81 17q-180 0 -180 -260v-500h-327zM233 1163q3 97 71.5 166.5t160.5 69.5q16 0 31 -1.5t26 -3t23.5 -5.5t19.5 -6.5 t18 -7.5t14.5 -7l14 -8t11.5 -6q3 -2 23.5 -14.5t30.5 -17.5t28 -11t34 -6q34 0 59.5 23.5t35.5 64.5l139 -21q-3 -97 -71.5 -166t-160.5 -69q-20 0 -39 2.5t-31.5 5.5t-28.5 9t-22 9t-20 10.5t-16 8.5q-4 2 -30.5 18t-46.5 23.5t-40 7.5q-67 0 -94 -88z" />
<glyph unicode="&#xf2;" horiz-adv-x="1220" d="M49 502q0 159 74 280t200.5 183.5t286.5 62.5t286 -62.5t199.5 -183.5t73.5 -280t-73.5 -279.5t-199.5 -183t-286 -62.5t-286.5 62.5t-200.5 183t-74 279.5zM307 1413h277l164 -297h-234zM381 508q0 -115 61.5 -188.5t167.5 -73.5q105 0 167.5 73.5t62.5 188.5 t-62.5 188.5t-167.5 73.5q-106 0 -167.5 -73.5t-61.5 -188.5z" />
<glyph unicode="&#xf3;" horiz-adv-x="1220" d="M49 502q0 159 74 280t200.5 183.5t286.5 62.5t286 -62.5t199.5 -183.5t73.5 -280t-73.5 -279.5t-199.5 -183t-286 -62.5t-286.5 62.5t-200.5 183t-74 279.5zM381 508q0 -115 61.5 -188.5t167.5 -73.5q105 0 167.5 73.5t62.5 188.5t-62.5 188.5t-167.5 73.5 q-106 0 -167.5 -73.5t-61.5 -188.5zM473 1116l162 297h280l-208 -297h-234z" />
<glyph unicode="&#xf4;" horiz-adv-x="1220" d="M49 502q0 159 74 280t200.5 183.5t286.5 62.5t286 -62.5t199.5 -183.5t73.5 -280t-73.5 -279.5t-199.5 -183t-286 -62.5t-286.5 62.5t-200.5 183t-74 279.5zM279 1116l176 297h311l174 -297h-219l-111 189l-110 -189h-221zM381 508q0 -115 61.5 -188.5t167.5 -73.5 q105 0 167.5 73.5t62.5 188.5t-62.5 188.5t-167.5 73.5q-106 0 -167.5 -73.5t-61.5 -188.5z" />
<glyph unicode="&#xf5;" horiz-adv-x="1220" d="M49 502q0 159 74 280t200.5 183.5t286.5 62.5t286 -62.5t199.5 -183.5t73.5 -280t-73.5 -279.5t-199.5 -183t-286 -62.5t-286.5 62.5t-200.5 183t-74 279.5zM240 1163q3 97 72 166.5t161 69.5q15 0 30 -1.5t25.5 -3t23 -5.5t19.5 -6.5t18 -7.5t15 -7t14 -7.5t11 -6.5 q3 -2 23.5 -14.5t30.5 -17.5t28 -11t34 -6q34 0 59.5 23.5t35.5 64.5l139 -21q-1 -96 -69.5 -165.5t-161.5 -69.5q-20 0 -39.5 2.5t-31.5 5t-28.5 9t-22 9t-20.5 11t-16 8.5q-4 2 -30.5 18t-46.5 23.5t-40 7.5q-33 0 -57 -23.5t-35 -64.5zM381 508q0 -115 61.5 -188.5 t167.5 -73.5q105 0 167.5 73.5t62.5 188.5t-62.5 188.5t-167.5 73.5q-106 0 -167.5 -73.5t-61.5 -188.5z" />
<glyph unicode="&#xf6;" horiz-adv-x="1220" d="M49 502q0 159 74 280t200.5 183.5t286.5 62.5t286 -62.5t199.5 -183.5t73.5 -280t-73.5 -279.5t-199.5 -183t-286 -62.5t-286.5 62.5t-200.5 183t-74 279.5zM289 1264q0 61 39 99t98 38q61 0 100 -38t39 -99t-39 -98.5t-100 -37.5q-59 0 -98 37.5t-39 98.5zM381 508 q0 -115 61.5 -188.5t167.5 -73.5q105 0 167.5 73.5t62.5 188.5t-62.5 188.5t-167.5 73.5q-106 0 -167.5 -73.5t-61.5 -188.5zM655 1264q0 61 39.5 99t98.5 38t99 -38t40 -99t-39.5 -98.5t-99.5 -37.5q-59 0 -98.5 37.5t-39.5 98.5z" />
<glyph unicode="&#xf7;" horiz-adv-x="1435" d="M156 588v237h1124v-237h-1124zM545 311q0 72 51 123t123 51q71 0 121.5 -51t50.5 -123q0 -71 -50.5 -121.5t-121.5 -50.5q-72 0 -123 50.5t-51 121.5zM545 1102q0 71 51 121.5t123 50.5q71 0 121.5 -51t50.5 -121q0 -72 -50.5 -123t-121.5 -51q-72 0 -123 51t-51 123z " />
<glyph unicode="&#xf8;" horiz-adv-x="1220" d="M45 76l107 104q-103 141 -103 322q0 159 74 280t200.5 183.5t286.5 62.5q181 0 324 -84l113 109l124 -121l-106 -105q104 -136 104 -325q0 -159 -73.5 -279.5t-199.5 -183t-286 -62.5q-186 0 -327 86l-113 -108zM375 508q0 -52 16 -102l342 335q-50 35 -123 35 q-107 0 -171 -74.5t-64 -193.5zM492 272q53 -32 118 -32q108 0 173 75t65 193q0 49 -17 98z" />
<glyph unicode="&#xf9;" horiz-adv-x="1185" d="M102 399v611h328v-566q0 -95 33.5 -145.5t116.5 -50.5q85 0 127.5 60.5t42.5 164.5v537h327v-1010h-315l-2 115q-38 -54 -116.5 -96t-178.5 -42q-200 0 -289 119q-74 106 -74 303zM283 1413h280l164 -297h-233z" />
<glyph unicode="&#xfa;" horiz-adv-x="1185" d="M102 399v611h328v-566q0 -95 33.5 -145.5t116.5 -50.5q85 0 127.5 60.5t42.5 164.5v537h327v-1010h-315l-2 115q-38 -54 -116.5 -96t-178.5 -42q-200 0 -289 119q-74 106 -74 303zM446 1116l162 297h281l-209 -297h-234z" />
<glyph unicode="&#xfb;" horiz-adv-x="1185" d="M102 399v611h328v-566q0 -95 33.5 -145.5t116.5 -50.5q85 0 127.5 60.5t42.5 164.5v537h327v-1010h-315l-2 115q-38 -54 -116.5 -96t-178.5 -42q-200 0 -289 119q-74 106 -74 303zM258 1116l176 297h311l177 -297h-222l-110 189l-111 -189h-221z" />
<glyph unicode="&#xfc;" horiz-adv-x="1185" d="M102 399v611h328v-566q0 -95 33.5 -145.5t116.5 -50.5q85 0 127.5 60.5t42.5 164.5v537h327v-1010h-315l-2 115q-38 -54 -116.5 -96t-178.5 -42q-200 0 -289 119q-74 106 -74 303zM268 1264q0 61 40 99t100 38q59 0 98 -38t39 -99t-39 -98.5t-98 -37.5q-60 0 -100 38 t-40 98zM635 1264q0 61 39 99t98 38q61 0 100 -38t39 -99t-39 -98.5t-100 -37.5q-59 0 -98 37.5t-39 98.5z" />
<glyph unicode="&#xfd;" horiz-adv-x="1114" d="M-8 1010h342l229 -650l228 650h337l-450 -1106q-61 -148 -134 -219.5t-194 -71.5q-76 0 -146 12.5t-102 24.5l-32 12l65 242q72 -27 121 -27q24 0 37 2t30.5 17.5t30.5 46.5l37 88zM422 1116l164 297h278l-209 -297h-233z" />
<glyph unicode="&#xfe;" horiz-adv-x="1290" d="M117 -371v1784h327v-338l-2 -188q15 22 40 43.5t63.5 45t95.5 38t123 14.5q214 0 344.5 -148.5t130.5 -375.5q0 -149 -57.5 -268t-167 -189t-252.5 -70q-216 0 -320 150q2 -86 2 -178v-320h-327zM432 508q0 -117 66 -189.5t172 -72.5t170.5 72.5t64.5 189.5t-64.5 189.5 t-170.5 72.5t-172 -72.5t-66 -189.5z" />
<glyph unicode="&#xff;" horiz-adv-x="1114" d="M-8 1010h342l229 -650l228 650h337l-450 -1106q-61 -148 -134 -219.5t-194 -71.5q-76 0 -146 12.5t-102 24.5l-32 12l65 242q72 -27 121 -27q24 0 37 2t30.5 17.5t30.5 46.5l37 88zM242 1268q0 61 39 99t98 38t99 -38t40 -99t-40 -99.5t-99 -38.5t-98 38.5t-39 99.5z M608 1268q0 61 39 99t98 38q60 0 100 -38t40 -99t-40.5 -99.5t-99.5 -38.5t-98 38.5t-39 99.5z" />
<glyph unicode="&#x100;" horiz-adv-x="1392" d="M-8 0l532 1415h344l533 -1415h-361l-100 285h-504l-100 -285h-344zM365 1591v158h649v-158h-649zM512 543h352l-176 508z" />
<glyph unicode="&#x101;" horiz-adv-x="1107" d="M39 299q0 81 34.5 141.5t93 95t124.5 52t141 20.5l254 10v23q0 79 -54 120.5t-153 41.5q-87 0 -173.5 -29t-135.5 -61l-86 213q204 102 432 102q251 0 377 -117q61 -58 91 -138.5t30 -203.5v-569h-314l-6 106q-26 -26 -42.5 -40t-54 -39t-85.5 -37.5t-106 -12.5 q-69 0 -133 19t-117 57t-85 101.5t-32 144.5zM209 1188v158h649v-158h-649zM367 311q0 -58 42.5 -91.5t110.5 -33.5q59 0 104 29.5t64 63.5v165l-162 -10q-76 -3 -117.5 -34.5t-41.5 -88.5z" />
<glyph unicode="&#x102;" horiz-adv-x="1392" d="M-8 0l532 1415h344l533 -1415h-361l-100 285h-504l-100 -285h-344zM340 1804h143q19 -59 74 -87.5t131 -28.5t131 28.5t74 87.5h141q-20 -134 -112 -203t-234 -69q-144 0 -236 69t-112 203zM512 543h352l-176 508z" />
<glyph unicode="&#x103;" horiz-adv-x="1107" d="M39 299q0 81 34.5 141.5t93 95t124.5 52t141 20.5l254 10v23q0 79 -54 120.5t-153 41.5q-87 0 -173.5 -29t-135.5 -61l-86 213q204 102 432 102q251 0 377 -117q61 -58 91 -138.5t30 -203.5v-569h-314l-6 106q-26 -26 -42.5 -40t-54 -39t-85.5 -37.5t-106 -12.5 q-69 0 -133 19t-117 57t-85 101.5t-32 144.5zM186 1401h144q19 -59 74 -88t131 -29t130.5 29t73.5 88h142q-20 -134 -112 -203.5t-234 -69.5q-144 0 -236.5 69.5t-112.5 203.5zM367 311q0 -58 42.5 -91.5t110.5 -33.5q59 0 104 29.5t64 63.5v165l-162 -10 q-76 -3 -117.5 -34.5t-41.5 -88.5z" />
<glyph unicode="&#x104;" horiz-adv-x="1392" d="M-8 0l532 1415h344l533 -1415h-86q-60 -33 -105 -85t-45 -103q0 -50 35 -72.5t80 -22.5q34 0 74 14t63 29l43 -84q-4 -4 -12.5 -10t-34 -22.5t-52 -29t-65 -22.5t-75.5 -10q-105 0 -172.5 47.5t-67.5 137.5q0 77 45 135.5t107 97.5h-93l-100 285h-504l-100 -285h-344z M512 543h352l-176 508z" />
<glyph unicode="&#x105;" horiz-adv-x="1107" d="M39 299q0 81 34.5 141.5t93 95t124.5 52t141 20.5l254 10v23q0 79 -54 120.5t-153 41.5q-87 0 -173.5 -29t-135.5 -61l-86 213q204 102 432 102q251 0 377 -117q61 -58 91 -138.5t30 -203.5v-569h-64q-59 -33 -104 -85t-45 -103q0 -50 34.5 -72.5t79.5 -22.5 q34 0 74.5 14t63.5 29l43 -84q-4 -4 -12.5 -10t-34 -22.5t-52.5 -29t-65.5 -22.5t-75.5 -10q-105 0 -172.5 47.5t-67.5 137.5q0 77 45 135.5t107 97.5h-68l-6 106q-26 -26 -42.5 -40t-54 -39t-85.5 -37.5t-106 -12.5q-69 0 -133 19t-117 57t-85 101.5t-32 144.5zM367 311 q0 -58 42.5 -91.5t110.5 -33.5q59 0 104 29.5t64 63.5v165l-162 -10q-159 -10 -159 -123z" />
<glyph unicode="&#x106;" horiz-adv-x="1331" d="M57 705q0 167 58 306t158.5 230.5t235.5 142t290 50.5q102 0 191.5 -18.5t148 -47.5t93 -52t52.5 -42l-102 -275q-32 41 -137.5 94.5t-227.5 53.5q-185 0 -304.5 -117t-119.5 -319q0 -200 122 -317.5t302 -117.5q123 0 219.5 42t161.5 108l111 -258q-188 -193 -510 -193 q-209 0 -376.5 86.5t-266.5 254t-99 389.5zM557 1520l162 297h280l-211 -297h-231z" />
<glyph unicode="&#x107;" horiz-adv-x="987" d="M49 502q0 123 45 224.5t120.5 166t171 100t200.5 35.5q72 0 137.5 -11t107 -26.5t72.5 -31t45 -26.5l13 -11l-72 -248q-113 90 -260 90q-107 0 -178.5 -69.5t-71.5 -186.5q0 -120 69 -190t185 -70q68 0 132 24.5t94 49.5l30 24l78 -248l-6 -6l-12 -10t-18.5 -13.5 t-26 -16.5t-33.5 -17.5t-41 -17.5t-48.5 -15.5t-57.5 -13t-66.5 -8.5t-75.5 -3q-104 0 -199.5 35.5t-170 100.5t-119 166t-44.5 223zM354 1116l162 297h281l-211 -297h-232z" />
<glyph unicode="&#x108;" horiz-adv-x="1331" d="M57 705q0 167 58 306t158.5 230.5t235.5 142t290 50.5q102 0 191.5 -18.5t148 -47.5t93 -52t52.5 -42l-102 -275q-32 41 -137.5 94.5t-227.5 53.5q-185 0 -304.5 -117t-119.5 -319q0 -200 122 -317.5t302 -117.5q123 0 219.5 42t161.5 108l111 -258q-188 -193 -510 -193 q-209 0 -376.5 86.5t-266.5 254t-99 389.5zM410 1520l176 297h311l174 -297h-219l-111 188l-110 -188h-221z" />
<glyph unicode="&#x109;" horiz-adv-x="987" d="M49 502q0 123 45 224.5t120.5 166t171 100t200.5 35.5q72 0 137.5 -11t107 -26.5t72.5 -31t45 -26.5l13 -11l-72 -248q-113 90 -260 90q-107 0 -178.5 -69.5t-71.5 -186.5q0 -120 69 -190t185 -70q68 0 132 24.5t94 49.5l30 24l78 -248l-6 -6l-12 -10t-18.5 -13.5 t-26 -16.5t-33.5 -17.5t-41 -17.5t-48.5 -15.5t-57.5 -13t-66.5 -8.5t-75.5 -3q-104 0 -199.5 35.5t-170 100.5t-119 166t-44.5 223zM205 1116l176 297h311l174 -297h-219l-110 189l-111 -189h-221z" />
<glyph unicode="&#x10a;" horiz-adv-x="1331" d="M57 705q0 167 58 306t158.5 230.5t235.5 142t290 50.5q102 0 191.5 -18.5t148 -47.5t93 -52t52.5 -42l-102 -275q-32 41 -137.5 94.5t-227.5 53.5q-185 0 -304.5 -117t-119.5 -319q0 -200 122 -317.5t302 -117.5q123 0 219.5 42t161.5 108l111 -258q-188 -193 -510 -193 q-209 0 -376.5 86.5t-266.5 254t-99 389.5zM561 1671q0 59 40 98t99 39q58 0 99 -39t41 -98t-41 -99t-99 -40q-59 0 -99 39.5t-40 99.5z" />
<glyph unicode="&#x10b;" horiz-adv-x="987" d="M49 502q0 123 45 224.5t120.5 166t171 100t200.5 35.5q72 0 137.5 -11t107 -26.5t72.5 -31t45 -26.5l13 -11l-72 -248q-113 90 -260 90q-107 0 -178.5 -69.5t-71.5 -186.5q0 -120 69 -190t185 -70q68 0 132 24.5t94 49.5l30 24l78 -248l-6 -6l-12 -10t-18.5 -13.5 t-26 -16.5t-33.5 -17.5t-41 -17.5t-48.5 -15.5t-57.5 -13t-66.5 -8.5t-75.5 -3q-104 0 -199.5 35.5t-170 100.5t-119 166t-44.5 223zM375 1268q0 59 40 98t99 39q58 0 98.5 -39t40.5 -98t-40.5 -99.5t-98.5 -40.5q-59 0 -99 40t-40 100z" />
<glyph unicode="&#x10c;" horiz-adv-x="1331" d="M57 705q0 167 58 306t158.5 230.5t235.5 142t290 50.5q102 0 191.5 -18.5t148 -47.5t93 -52t52.5 -42l-102 -275q-32 41 -137.5 94.5t-227.5 53.5q-185 0 -304.5 -117t-119.5 -319q0 -200 122 -317.5t302 -117.5q123 0 219.5 42t161.5 108l111 -258q-188 -193 -510 -193 q-209 0 -376.5 86.5t-266.5 254t-99 389.5zM375 1817h221l111 -191l110 191h219l-174 -297h-311z" />
<glyph unicode="&#x10d;" horiz-adv-x="987" d="M49 502q0 123 45 224.5t120.5 166t171 100t200.5 35.5q72 0 137.5 -11t107 -26.5t72.5 -31t45 -26.5l13 -11l-72 -248q-113 90 -260 90q-107 0 -178.5 -69.5t-71.5 -186.5q0 -120 69 -190t185 -70q68 0 132 24.5t94 49.5l30 24l78 -248l-6 -6l-12 -10t-18.5 -13.5 t-26 -16.5t-33.5 -17.5t-41 -17.5t-48.5 -15.5t-57.5 -13t-66.5 -8.5t-75.5 -3q-104 0 -199.5 35.5t-170 100.5t-119 166t-44.5 223zM184 1413h222l110 -190l111 190h219l-174 -297h-312z" />
<glyph unicode="&#x10e;" horiz-adv-x="1439" d="M129 0v1413h479q346 0 545 -170q229 -189 229 -536t-229 -539q-201 -168 -545 -168h-479zM305 1817h221l111 -191l111 191h219l-174 -297h-312zM459 281h168q189 0 295 102q125 117 125 324q0 210 -125 331q-108 101 -295 101h-168v-858z" />
<glyph unicode="&#x10f;" horiz-adv-x="1650" d="M49 504q0 149 57.5 267.5t167 187.5t252.5 69q122 0 204 -45t116 -96v526h328v-1413h-312l2 133l-6 -2q-56 -75 -142.5 -114.5t-189.5 -39.5q-143 0 -252.5 70t-167 189t-57.5 268zM383 508q0 -117 66 -189.5t172 -72.5t170.5 72.5t64.5 189.5t-64.5 189.5t-170.5 72.5 t-172 -72.5t-66 -189.5zM1241 903l162 510h313l-207 -510h-268z" />
<glyph unicode="&#x110;" horiz-adv-x="1439" d="M12 618v218h117v577h479q346 0 545 -170q229 -189 229 -536t-229 -539q-201 -168 -545 -168h-479v618h-117zM459 281h168q189 0 295 102q125 117 125 324q0 210 -125 331q-108 101 -295 101h-168v-303h278v-209h-278v-346z" />
<glyph unicode="&#x111;" horiz-adv-x="1290" d="M49 504q0 149 57.5 267.5t167 187.5t252.5 69q122 0 204 -45t116 -96v260h-338v158h338v108h328v-108h106v-158h-106v-1147h-312l2 133l-6 -2q-56 -75 -142.5 -114.5t-189.5 -39.5q-143 0 -252.5 70t-167 189t-57.5 268zM383 508q0 -117 66 -189.5t172 -72.5t170.5 72.5 t64.5 189.5t-64.5 189.5t-170.5 72.5t-172 -72.5t-66 -189.5z" />
<glyph unicode="&#x112;" horiz-adv-x="1138" d="M129 0v1413h915v-264h-585v-289h553v-264h-553v-328h604v-268h-934zM266 1591v158h649v-158h-649z" />
<glyph unicode="&#x113;" horiz-adv-x="1142" d="M49 504q0 122 43 222t117.5 165.5t173 101t211.5 35.5q225 0 365.5 -136t140.5 -357l-4 -109h-719q10 -104 81 -157.5t177 -53.5q88 0 168.5 29.5t134.5 66.5l129 -170q-1 0 -20 -16.5t-35.5 -27.5t-47.5 -30.5t-67 -33.5t-82 -27.5t-104.5 -21t-122.5 -7.5 q-239 0 -389 141t-150 386zM246 1188v158h649v-158h-649zM379 612h416q-2 78 -57 140.5t-150 62.5t-150.5 -61.5t-58.5 -141.5z" />
<glyph unicode="&#x114;" horiz-adv-x="1138" d="M129 0v1413h915v-264h-585v-289h553v-264h-553v-328h604v-268h-934zM256 1804h143q19 -59 74 -87.5t131 -28.5t131 28.5t74 87.5h141q-20 -134 -112 -203t-234 -69q-144 0 -236 69t-112 203z" />
<glyph unicode="&#x115;" horiz-adv-x="1142" d="M49 504q0 122 43 222t117.5 165.5t173 101t211.5 35.5q225 0 365.5 -136t140.5 -357l-4 -109h-719q10 -104 81 -157.5t177 -53.5q88 0 168.5 29.5t134.5 66.5l129 -170q-1 0 -20 -16.5t-35.5 -27.5t-47.5 -30.5t-67 -33.5t-82 -27.5t-104.5 -21t-122.5 -7.5 q-239 0 -389 141t-150 386zM223 1401h144q19 -59 73.5 -88t130.5 -29t131 29t74 88h142q-20 -134 -112.5 -203.5t-234.5 -69.5q-144 0 -236 69t-112 204zM379 612h416q-2 78 -57 140.5t-150 62.5t-150.5 -61.5t-58.5 -141.5z" />
<glyph unicode="&#x116;" horiz-adv-x="1138" d="M129 0v1413h915v-264h-585v-289h553v-264h-553v-328h604v-268h-934zM469 1671q0 59 40 98t99 39q58 0 99 -39t41 -98t-41 -99t-99 -40q-59 0 -99 39.5t-40 99.5z" />
<glyph unicode="&#x117;" horiz-adv-x="1142" d="M49 504q0 122 43 222t117.5 165.5t173 101t211.5 35.5q225 0 365.5 -136t140.5 -357l-4 -109h-719q10 -104 81 -157.5t177 -53.5q88 0 168.5 29.5t134.5 66.5l129 -170q-1 0 -20 -16.5t-35.5 -27.5t-47.5 -30.5t-67 -33.5t-82 -27.5t-104.5 -21t-122.5 -7.5 q-239 0 -389 141t-150 386zM379 612h416q-2 78 -57 140.5t-150 62.5t-150.5 -61.5t-58.5 -141.5zM432 1268q0 59 40 98t99 39q58 0 99 -39t41 -98t-41 -99.5t-99 -40.5q-59 0 -99 40t-40 100z" />
<glyph unicode="&#x118;" horiz-adv-x="1138" d="M129 0v1413h915v-264h-585v-289h553v-264h-553v-328h604v-268h-145q-60 -33 -105 -85t-45 -103q0 -50 35 -72.5t80 -22.5q34 0 74 14t63 29l43 -84q-4 -4 -12.5 -10t-34 -22.5t-52.5 -29t-65.5 -22.5t-75.5 -10q-105 0 -172 47.5t-67 137.5q0 139 151 233h-606z" />
<glyph unicode="&#x119;" horiz-adv-x="1142" d="M49 504q0 122 43 222t117.5 165.5t173 101t211.5 35.5q225 0 365.5 -136t140.5 -357l-4 -109h-719q10 -104 81 -157.5t177 -53.5q88 0 168.5 29.5t134.5 66.5l129 -170q-1 -1 -21 -17.5t-40.5 -30t-53.5 -32.5t-77.5 -35.5t-94.5 -27.5q-59 -33 -102 -83.5t-43 -102.5 q0 -50 35 -72.5t80 -22.5q34 0 74 14t63 29l43 -84q-4 -4 -12.5 -10t-34 -22.5t-52.5 -29t-65.5 -22.5t-75.5 -10q-105 0 -172 47.5t-67 137.5q0 120 118 210q-233 6 -376.5 146t-143.5 381zM379 612h416q-2 78 -57 140.5t-150 62.5t-150.5 -61.5t-58.5 -141.5z" />
<glyph unicode="&#x11a;" horiz-adv-x="1138" d="M129 0v1413h915v-264h-585v-289h553v-264h-553v-328h604v-268h-934zM272 1817h222l110 -191l111 191h219l-174 -297h-311z" />
<glyph unicode="&#x11b;" horiz-adv-x="1142" d="M49 504q0 122 43 222t117.5 165.5t173 101t211.5 35.5q225 0 365.5 -136t140.5 -357l-4 -109h-719q10 -104 81 -157.5t177 -53.5q88 0 168.5 29.5t134.5 66.5l129 -170q-1 0 -20 -16.5t-35.5 -27.5t-47.5 -30.5t-67 -33.5t-82 -27.5t-104.5 -21t-122.5 -7.5 q-239 0 -389 141t-150 386zM240 1413h221l110 -190l111 190h219l-174 -297h-311zM379 612h416q-2 78 -57 140.5t-150 62.5t-150.5 -61.5t-58.5 -141.5z" />
<glyph unicode="&#x11c;" horiz-adv-x="1523" d="M57 707q0 172 60 311.5t162.5 229.5t235 138t282.5 48q359 0 575 -239q2 -2 3.5 -4t2.5 -3l-219 -191q-145 162 -362 162q-176 0 -290 -121t-114 -331q0 -209 116.5 -331t293.5 -122q64 0 118 9.5t85.5 22.5t53.5 26t30 22l8 10v209h-297v252h620v-586q-3 -3 -24 -22 t-32 -28t-37.5 -29.5t-46.5 -33t-54.5 -31.5t-65.5 -31t-74 -26t-86.5 -22t-97 -13.5t-110.5 -5.5q-148 0 -280 48.5t-234 139t-162 231t-60 311.5zM446 1520l177 297h311l174 -297h-219l-111 188l-110 -188h-222z" />
<glyph unicode="&#x11d;" horiz-adv-x="1286" d="M49 530q0 118 39.5 214.5t106.5 157.5t152 93.5t179 32.5q209 0 320 -147h4l-4 129h328v-805q0 -157 -38.5 -260.5t-115.5 -175.5q-170 -160 -465 -160q-154 0 -285 48t-204 101l135 219q52 -40 154 -77t194 -37q161 0 237 80q62 69 62 200v33h-4q-109 -143 -318 -143 q-94 0 -179 32.5t-152 93t-106.5 157t-39.5 214.5zM281 1116l176 297h311l174 -297h-219l-111 189l-110 -189h-221zM383 528q0 -106 65.5 -175.5t172.5 -69.5t171 69.5t64 175.5q0 105 -64.5 174.5t-170.5 69.5q-107 0 -172.5 -69.5t-65.5 -174.5z" />
<glyph unicode="&#x11e;" horiz-adv-x="1523" d="M57 707q0 172 60 311.5t162.5 229.5t235 138t282.5 48q359 0 575 -239q2 -2 3.5 -4t2.5 -3l-219 -191q-145 162 -362 162q-176 0 -290 -121t-114 -331q0 -209 116.5 -331t293.5 -122q64 0 118 9.5t85.5 22.5t53.5 26t30 22l8 10v209h-297v252h620v-586q-3 -3 -24 -22 t-32 -28t-37.5 -29.5t-46.5 -33t-54.5 -31.5t-65.5 -31t-74 -26t-86.5 -22t-97 -13.5t-110.5 -5.5q-148 0 -280 48.5t-234 139t-162 231t-60 311.5zM422 1804h143q19 -59 74 -87.5t131 -28.5t131 28.5t74 87.5h141q-20 -134 -112 -203t-234 -69q-144 0 -236 69t-112 203z " />
<glyph unicode="&#x11f;" horiz-adv-x="1286" d="M49 530q0 118 39.5 214.5t106.5 157.5t152 93.5t179 32.5q209 0 320 -147h4l-4 129h328v-805q0 -157 -38.5 -260.5t-115.5 -175.5q-170 -160 -465 -160q-154 0 -285 48t-204 101l135 219q52 -40 154 -77t194 -37q161 0 237 80q62 69 62 200v33h-4q-109 -143 -318 -143 q-94 0 -179 32.5t-152 93t-106.5 157t-39.5 214.5zM270 1401h144q19 -59 73.5 -88t130.5 -29t131 29t74 88h142q-20 -134 -112.5 -203.5t-234.5 -69.5q-144 0 -236 69t-112 204zM383 528q0 -106 65.5 -175.5t172.5 -69.5t171 69.5t64 175.5q0 105 -64.5 174.5t-170.5 69.5 q-107 0 -172.5 -69.5t-65.5 -174.5z" />
<glyph unicode="&#x120;" horiz-adv-x="1523" d="M57 707q0 172 60 311.5t162.5 229.5t235 138t282.5 48q359 0 575 -239q2 -2 3.5 -4t2.5 -3l-219 -191q-145 162 -362 162q-176 0 -290 -121t-114 -331q0 -209 116.5 -331t293.5 -122q64 0 118 9.5t85.5 22.5t53.5 26t30 22l8 10v209h-297v252h620v-586q-3 -3 -24 -22 t-32 -28t-37.5 -29.5t-46.5 -33t-54.5 -31.5t-65.5 -31t-74 -26t-86.5 -22t-97 -13.5t-110.5 -5.5q-148 0 -280 48.5t-234 139t-162 231t-60 311.5zM618 1671q0 59 40.5 98t99.5 39q58 0 98.5 -39t40.5 -98t-40.5 -99t-98.5 -40q-59 0 -99.5 39.5t-40.5 99.5z" />
<glyph unicode="&#x121;" horiz-adv-x="1286" d="M49 530q0 118 39.5 214.5t106.5 157.5t152 93.5t179 32.5q209 0 320 -147h4l-4 129h328v-805q0 -157 -38.5 -260.5t-115.5 -175.5q-170 -160 -465 -160q-154 0 -285 48t-204 101l135 219q52 -40 154 -77t194 -37q161 0 237 80q62 69 62 200v33h-4q-109 -143 -318 -143 q-94 0 -179 32.5t-152 93t-106.5 157t-39.5 214.5zM383 528q0 -106 65.5 -175.5t172.5 -69.5t171 69.5t64 175.5q0 105 -64.5 174.5t-170.5 69.5q-107 0 -172.5 -69.5t-65.5 -174.5zM440 1268q0 59 40.5 98t99.5 39q58 0 98.5 -39t40.5 -98t-40.5 -99.5t-98.5 -40.5 q-59 0 -99.5 40t-40.5 100z" />
<glyph unicode="&#x122;" horiz-adv-x="1523" d="M57 707q0 172 60 311.5t162.5 229.5t235 138t282.5 48q359 0 575 -239q2 -2 3.5 -4t2.5 -3l-219 -191q-145 162 -362 162q-176 0 -290 -121t-114 -331q0 -209 116.5 -331t293.5 -122q64 0 118 9.5t85.5 22.5t53.5 26t30 22l8 10v209h-297v252h620v-586q-3 -3 -24 -22 t-32 -28t-37.5 -29.5t-46.5 -33t-54.5 -31.5t-65.5 -31t-74 -26t-86.5 -22t-97 -13.5t-110.5 -5.5q-148 0 -280 48.5t-234 139t-162 231t-60 311.5zM608 -389l70 287h315l-116 -287h-269z" />
<glyph unicode="&#x123;" horiz-adv-x="1286" d="M49 530q0 118 39.5 214.5t106.5 157.5t152 93.5t179 32.5q209 0 320 -147h4l-4 129h328v-805q0 -157 -38.5 -260.5t-115.5 -175.5q-170 -160 -465 -160q-154 0 -285 48t-204 101l135 219q52 -40 154 -77t194 -37q161 0 237 80q62 69 62 200v33h-4q-109 -143 -318 -143 q-94 0 -179 32.5t-152 93t-106.5 157t-39.5 214.5zM383 528q0 -106 65.5 -175.5t172.5 -69.5t171 69.5t64 175.5q0 105 -64.5 174.5t-170.5 69.5q-107 0 -172.5 -69.5t-65.5 -174.5zM389 1186l117 287h268l-69 -287h-316z" />
<glyph unicode="&#x124;" horiz-adv-x="1488" d="M129 0v1413h332v-547h567v547h332v-1413h-332v592h-567v-592h-332zM414 1520l176 297h311l174 -297h-219l-111 188l-110 -188h-221z" />
<glyph unicode="&#x125;" horiz-adv-x="1206" d="M-45 1556l176 297h311l174 -297h-219l-110 189l-111 -189h-221zM117 0v1413h327v-336l-2 -213q42 74 116.5 119t180.5 45q107 0 181 -32t114 -93t57 -135t17 -172v-596h-330v530q0 53 -5 89t-20 71t-47 52.5t-81 17.5q-181 0 -181 -264v-496h-327z" />
<glyph unicode="&#x126;" horiz-adv-x="1488" d="M10 1069v199h119v145h332v-145h567v145h332v-145h119v-199h-119v-1069h-332v592h-567v-592h-332v1069h-119zM461 866h567v203h-567v-203z" />
<glyph unicode="&#x127;" horiz-adv-x="1206" d="M10 1147v158h107v108h327v-108h338v-158h-338v-70l-2 -213q42 74 116.5 119t180.5 45q107 0 181 -32t114 -93t57 -135t17 -172v-596h-330v530q0 53 -5 89t-20 71t-47 52.5t-81 17.5q-181 0 -181 -264v-496h-327v1147h-107z" />
<glyph unicode="&#x128;" horiz-adv-x="589" d="M-74 1567q3 96 72.5 165.5t161.5 69.5q17 0 33 -1.5t30 -5t23.5 -6t22.5 -8.5t17 -8t16 -9l13 -7q5 -3 19 -12t23 -13.5t22.5 -11t26.5 -9.5t26 -3q34 0 58.5 23.5t35.5 64.5l140 -20q-3 -97 -71.5 -166.5t-160.5 -69.5q-20 0 -39.5 2.5t-31.5 5t-28.5 9t-22 9t-20.5 11 t-16 8.5q-4 2 -30.5 18t-46 23.5t-39.5 7.5q-33 0 -57 -23.5t-35 -64.5zM129 0v1413h332v-1413h-332z" />
<glyph unicode="&#x129;" horiz-adv-x="552" d="M-92 1163q3 97 72 166.5t161 69.5q15 0 30 -1.5t25.5 -3t23 -5.5t19.5 -6.5t18 -7.5t15 -7t14 -7.5t11 -6.5q5 -3 19 -12t23 -13.5t22.5 -11t26.5 -9.5t26 -3q34 0 58.5 23.5t35.5 64.5l139 -21q-3 -97 -71 -166t-160 -69q-20 0 -39.5 2.5t-31.5 5t-28.5 9t-22 9 t-20.5 11t-16 8.5q-4 2 -30.5 18t-46.5 23.5t-40 7.5q-33 0 -57 -23.5t-35 -64.5zM113 0v1010h327v-1010h-327z" />
<glyph unicode="&#x12a;" horiz-adv-x="589" d="M-29 1591v158h650v-158h-650zM129 0v1413h332v-1413h-332z" />
<glyph unicode="&#x12b;" horiz-adv-x="552" d="M-47 1188v158h649v-158h-649zM113 0v1010h327v-1010h-327z" />
<glyph unicode="&#x12c;" horiz-adv-x="589" d="M-51 1804h143q19 -59 74 -87.5t131 -28.5t131 28.5t74 87.5h141q-20 -134 -112 -203t-234 -69q-144 0 -236 69t-112 203zM129 0v1413h332v-1413h-332z" />
<glyph unicode="&#x12d;" horiz-adv-x="552" d="M-70 1401h144q19 -59 74 -88t131 -29t130.5 29t73.5 88h142q-20 -134 -112 -203.5t-234 -69.5q-144 0 -236.5 69.5t-112.5 203.5zM113 0v1010h327v-1010h-327z" />
<glyph unicode="&#x12e;" horiz-adv-x="589" d="M61 -233q0 77 45 135.5t107 97.5h-84v1413h332v-1413h-66q-59 -33 -104 -85t-45 -103q0 -50 34.5 -72.5t79.5 -22.5q34 0 74.5 14t63.5 29l43 -84q-4 -4 -12.5 -10t-34 -22.5t-52.5 -29t-65.5 -22.5t-75.5 -10q-105 0 -172.5 47.5t-67.5 137.5z" />
<glyph unicode="&#x12f;" horiz-adv-x="552" d="M55 -233q0 77 45 135.5t107 97.5h-94v1010h327v-1010h-51q-59 -33 -104 -85t-45 -103q0 -50 34.5 -72.5t79.5 -22.5q34 0 74.5 14t63.5 29l43 -84q-4 -4 -12.5 -10t-34 -22.5t-52.5 -29t-65.5 -22.5t-75.5 -10q-105 0 -172.5 47.5t-67.5 137.5zM90 1296q0 75 51.5 122.5 t134.5 47.5t135 -47.5t52 -122.5q0 -76 -52 -123t-135 -47t-134.5 47t-51.5 123z" />
<glyph unicode="&#x130;" horiz-adv-x="589" d="M129 0v1413h332v-1413h-332zM156 1671q0 59 40 98t99 39q58 0 98.5 -39t40.5 -98t-40.5 -99t-98.5 -40q-59 0 -99 39.5t-40 99.5z" />
<glyph unicode="&#x131;" horiz-adv-x="552" d="M113 0v1010h327v-1010h-327z" />
<glyph unicode="&#x132;" horiz-adv-x="1177" d="M129 0v1413h332v-1413h-332zM494 -365l12 244q49 -18 110 -18q57 0 80 41t23 123v1388h330v-1384q0 -218 -88 -320q-90 -104 -256 -104q-67 0 -131 10.5t-80 19.5z" />
<glyph unicode="&#x133;" horiz-adv-x="1105" d="M90 1296q0 75 51.5 122.5t134.5 47.5t135 -47.5t52 -122.5q0 -76 -52 -123t-135 -47t-134.5 47t-51.5 123zM113 0v1010h327v-1010h-327zM457 -373l6 254q41 -12 92 -12q64 0 87.5 42t23.5 130v969h327v-985q0 -210 -84 -304q-100 -112 -280 -112q-49 0 -92 4.5t-61 8.5z M643 1296q0 75 51.5 122.5t134.5 47.5t135 -47.5t52 -122.5q0 -76 -52 -123t-135 -47t-134.5 47t-51.5 123z" />
<glyph unicode="&#x134;" horiz-adv-x="587" d="M-96 -365l12 244q49 -18 111 -18q57 0 79.5 41t22.5 123v1388h330v-1384q0 -218 -88 -320q-90 -104 -256 -104q-67 0 -131 10.5t-80 19.5zM-37 1520l176 297h312l174 -297h-219l-111 188l-111 -188h-221z" />
<glyph unicode="&#x135;" horiz-adv-x="552" d="M-96 -373l6 254q41 -12 92 -12q64 0 87.5 42t23.5 130v969h327v-985q0 -210 -84 -304q-100 -112 -280 -112q-49 0 -92 4.5t-62 8.5zM-53 1116l176 297h311l174 -297h-219l-110 189l-111 -189h-221z" />
<glyph unicode="&#x136;" horiz-adv-x="1288" d="M129 0v1413h330v-516l436 516h393l-497 -563l532 -850h-397l-355 590l-112 -125v-465h-330zM483 -389l70 287h315l-116 -287h-269z" />
<glyph unicode="&#x137;" horiz-adv-x="1128" d="M117 0v1413h327v-737l308 334h376l-368 -379l399 -631h-377l-247 393l-91 -88v-305h-327zM389 -389l70 287h315l-117 -287h-268z" />
<glyph unicode="&#x138;" horiz-adv-x="1120" d="M109 0v1010h327v-334l307 334h377l-368 -379l399 -631h-377l-248 393l-90 -88v-305h-327z" />
<glyph unicode="&#x139;" horiz-adv-x="968" d="M129 0v1413h330v-1139h489v-274h-819zM168 1520l162 297h280l-211 -297h-231z" />
<glyph unicode="&#x13a;" horiz-adv-x="559" d="M117 0v1413h327v-1413h-327zM150 1556l161 297h281l-211 -297h-231z" />
<glyph unicode="&#x13b;" horiz-adv-x="968" d="M129 0v1413h330v-1139h489v-274h-819zM338 -389l70 287h315l-117 -287h-268z" />
<glyph unicode="&#x13c;" horiz-adv-x="559" d="M72 -389l69 287h316l-117 -287h-268zM117 0v1413h327v-1413h-327z" />
<glyph unicode="&#x13d;" horiz-adv-x="968" d="M129 0v1413h330v-1139h489v-274h-819zM584 903l161 510h314l-207 -510h-268z" />
<glyph unicode="&#x13e;" horiz-adv-x="921" d="M117 0v1413h327v-1413h-327zM512 903l162 510h313l-207 -510h-268z" />
<glyph unicode="&#x13f;" horiz-adv-x="1089" d="M129 0v1413h330v-1139h489v-274h-819zM670 729q0 78 52 126t138 48q85 0 137 -48t52 -126t-52 -126t-137 -48q-86 0 -138 48t-52 126z" />
<glyph unicode="&#x140;" horiz-adv-x="1044" d="M117 0v1413h327v-1413h-327zM578 614q0 78 52 126t138 48q85 0 136.5 -48t51.5 -126t-51.5 -126t-136.5 -48q-86 0 -138 48t-52 126z" />
<glyph unicode="&#x141;" horiz-adv-x="968" d="M31 377v248l98 73v715h330v-491l215 161v-245l-215 -164v-400h489v-274h-819v453z" />
<glyph unicode="&#x142;" horiz-adv-x="567" d="M18 432v246l101 88v647h327v-391l103 88v-246l-103 -88v-776h-327v520z" />
<glyph unicode="&#x143;" horiz-adv-x="1536" d="M129 0v1413h354l607 -950q-7 159 -7 309v641h324v-1413h-340l-621 958q7 -169 7 -319v-639h-324zM635 1520l162 297h280l-211 -297h-231z" />
<glyph unicode="&#x144;" horiz-adv-x="1202" d="M109 0v1010h327l-2 -146h4q100 164 293 164q86 0 151 -22t106 -59.5t66.5 -93.5t35.5 -118t10 -139v-596h-328v526q0 55 -5.5 93.5t-21.5 72.5t-48 51t-81 17q-180 0 -180 -260v-500h-327zM420 1116l162 297h280l-211 -297h-231z" />
<glyph unicode="&#x145;" horiz-adv-x="1536" d="M129 0v1413h354l607 -950q-7 159 -7 309v641h324v-1413h-340l-621 958q7 -169 7 -319v-639h-324zM569 -389l70 287h315l-116 -287h-269z" />
<glyph unicode="&#x146;" horiz-adv-x="1202" d="M109 0v1010h327l-2 -146h4q100 164 293 164q86 0 151 -22t106 -59.5t66.5 -93.5t35.5 -118t10 -139v-596h-328v526q0 55 -5.5 93.5t-21.5 72.5t-48 51t-81 17q-180 0 -180 -260v-500h-327zM391 -389l70 287h315l-117 -287h-268z" />
<glyph unicode="&#x147;" horiz-adv-x="1536" d="M129 0v1413h354l607 -950q-7 159 -7 309v641h324v-1413h-340l-621 958q7 -169 7 -319v-639h-324zM444 1817h222l110 -191l111 191h219l-174 -297h-311z" />
<glyph unicode="&#x148;" horiz-adv-x="1202" d="M109 0v1010h327l-2 -146h4q100 164 293 164q86 0 151 -22t106 -59.5t66.5 -93.5t35.5 -118t10 -139v-596h-328v526q0 55 -5.5 93.5t-21.5 72.5t-48 51t-81 17q-180 0 -180 -260v-500h-327zM270 1413h222l110 -190l111 190h219l-174 -297h-312z" />
<glyph unicode="&#x14a;" horiz-adv-x="1536" d="M129 0v1413h354l600 -942v942h324v-1384q0 -218 -88 -320q-90 -104 -256 -104q-67 0 -131 10.5t-80 19.5l12 244q49 -18 111 -18q102 0 108 139h-16l-621 958q7 -169 7 -319v-639h-324z" />
<glyph unicode="&#x14b;" horiz-adv-x="1202" d="M109 0v1010h327l-2 -146h4q100 164 293 164q86 0 151 -22t106 -59.5t66.5 -93.5t35.5 -118t10 -139v-571q0 -210 -84 -304q-100 -112 -281 -112q-49 0 -92 4.5t-61 8.5l-19 5l6 254q42 -12 93 -12q64 0 87 42t23 130v485q0 55 -5.5 93.5t-21.5 72.5t-48 51t-81 17 q-180 0 -180 -260v-500h-327z" />
<glyph unicode="&#x14c;" horiz-adv-x="1613" d="M57 705q0 168 58 306.5t159.5 231t238.5 143t294 50.5t294 -50.5t238 -143t159 -231t58 -306.5t-58 -306.5t-159 -230.5t-238 -142.5t-294 -50.5q-211 0 -380 86t-269.5 253.5t-100.5 390.5zM393 713q0 -199 117 -321t297 -122t297 122t117 321q0 198 -117 319t-297 121 t-297 -120.5t-117 -319.5zM481 1591v158h649v-158h-649z" />
<glyph unicode="&#x14d;" horiz-adv-x="1220" d="M49 502q0 159 74 280t200.5 183.5t286.5 62.5t286 -62.5t199.5 -183.5t73.5 -280t-73.5 -279.5t-199.5 -183t-286 -62.5t-286.5 62.5t-200.5 183t-74 279.5zM285 1188v158h649v-158h-649zM381 508q0 -115 61.5 -188.5t167.5 -73.5q105 0 167.5 73.5t62.5 188.5 t-62.5 188.5t-167.5 73.5q-106 0 -167.5 -73.5t-61.5 -188.5z" />
<glyph unicode="&#x14e;" horiz-adv-x="1613" d="M57 705q0 168 58 306.5t159.5 231t238.5 143t294 50.5t294 -50.5t238 -143t159 -231t58 -306.5t-58 -306.5t-159 -230.5t-238 -142.5t-294 -50.5q-211 0 -380 86t-269.5 253.5t-100.5 390.5zM393 713q0 -199 117 -321t297 -122t297 122t117 321q0 198 -117 319t-297 121 t-297 -120.5t-117 -319.5zM459 1804h143q19 -59 74 -87.5t131 -28.5t131 28.5t74 87.5h141q-20 -134 -112 -203t-234 -69q-144 0 -236 69t-112 203z" />
<glyph unicode="&#x14f;" horiz-adv-x="1220" d="M49 502q0 159 74 280t200.5 183.5t286.5 62.5t286 -62.5t199.5 -183.5t73.5 -280t-73.5 -279.5t-199.5 -183t-286 -62.5t-286.5 62.5t-200.5 183t-74 279.5zM262 1401h144q19 -59 73.5 -88t130.5 -29t131 29t74 88h141q-20 -134 -112 -203.5t-234 -69.5q-144 0 -236 69 t-112 204zM381 508q0 -115 61.5 -188.5t167.5 -73.5q105 0 167.5 73.5t62.5 188.5t-62.5 188.5t-167.5 73.5q-106 0 -167.5 -73.5t-61.5 -188.5z" />
<glyph unicode="&#x150;" horiz-adv-x="1613" d="M57 705q0 168 58 306.5t159.5 231t238.5 143t294 50.5t294 -50.5t238 -143t159 -231t58 -306.5t-58 -306.5t-159 -230.5t-238 -142.5t-294 -50.5q-211 0 -380 86t-269.5 253.5t-100.5 390.5zM393 713q0 -199 117 -321t297 -122t297 122t117 321q0 198 -117 319t-297 121 t-297 -120.5t-117 -319.5zM451 1520l170 297h272l-215 -297h-227zM817 1520l168 297h275l-216 -297h-227z" />
<glyph unicode="&#x151;" horiz-adv-x="1220" d="M49 502q0 159 74 280t200.5 183.5t286.5 62.5t286 -62.5t199.5 -183.5t73.5 -280t-73.5 -279.5t-199.5 -183t-286 -62.5t-286.5 62.5t-200.5 183t-74 279.5zM242 1116l170 297h272l-215 -297h-227zM381 508q0 -115 61.5 -188.5t167.5 -73.5q105 0 167.5 73.5t62.5 188.5 t-62.5 188.5t-167.5 73.5q-106 0 -167.5 -73.5t-61.5 -188.5zM608 1116l168 297h275l-215 -297h-228z" />
<glyph unicode="&#x152;" horiz-adv-x="2025" d="M57 705q0 168 58 306.5t159 231t237 143t292 50.5q169 0 287 -62v39h841v-264h-530v-289h497v-264h-497v-328h549v-268h-860v37q-111 -62 -287 -62q-156 0 -292 50.5t-237 142.5t-159 231t-58 306zM393 713q0 -199 116.5 -321t293.5 -122q168 0 268 80v725 q-97 78 -268 78q-177 0 -293.5 -121t-116.5 -319z" />
<glyph unicode="&#x153;" horiz-adv-x="1923" d="M49 502q0 159 74 280t200.5 183.5t286.5 62.5q242 0 389 -160q144 160 377 160q224 0 364 -136.5t140 -356.5l-4 -109h-721q9 -101 80 -156t178 -55q91 0 170.5 29t134.5 67l127 -170q-1 -1 -14 -12t-23.5 -19t-30.5 -22.5t-41.5 -25.5t-50.5 -24.5t-62.5 -23.5t-72 -19 t-85.5 -13.5t-97 -4.5q-244 0 -373 158q-134 -158 -385 -158q-160 0 -286.5 62.5t-200.5 183t-74 279.5zM381 508q0 -115 61.5 -188.5t167.5 -73.5q105 0 167.5 73.5t62.5 188.5t-62.5 188.5t-167.5 73.5q-106 0 -167.5 -73.5t-61.5 -188.5zM1159 612h416q-3 78 -57.5 140.5 t-149.5 62.5t-150.5 -61.5t-58.5 -141.5z" />
<glyph unicode="&#x154;" horiz-adv-x="1228" d="M129 0v1413h508q238 0 373 -100q73 -54 114 -137.5t41 -186.5q0 -95 -27.5 -170.5t-72.5 -121.5t-88 -72.5t-88 -40.5l358 -584h-385l-297 541h-104v-541h-332zM426 1520l162 297h280l-211 -297h-231zM459 795h131q118 0 170 39q71 51 71 143t-71 143q-49 37 -170 37 h-131v-362z" />
<glyph unicode="&#x155;" horiz-adv-x="792" d="M109 0v1010h327l-2 -144h4q83 162 250 162q30 0 56 -4.5t36 -9.5l11 -4l-19 -301h-14q-43 24 -119 24q-50 0 -90 -22t-62 -52q-51 -67 -51 -210v-449h-327zM272 1116l162 297h281l-211 -297h-232z" />
<glyph unicode="&#x156;" horiz-adv-x="1228" d="M129 0v1413h508q238 0 373 -100q73 -54 114 -137.5t41 -186.5q0 -95 -27.5 -170.5t-72.5 -121.5t-88 -72.5t-88 -40.5l358 -584h-385l-297 541h-104v-541h-332zM436 -389l70 287h315l-116 -287h-269zM459 795h131q118 0 170 39q71 51 71 143t-71 143q-49 37 -170 37h-131 v-362z" />
<glyph unicode="&#x157;" horiz-adv-x="792" d="M109 0v1010h327l-2 -144h4q83 162 250 162q30 0 56 -4.5t36 -9.5l11 -4l-19 -310q-61 33 -133 33q-50 0 -90 -22t-62 -52q-51 -67 -51 -210v-449h-327zM117 -389l69 287h316l-117 -287h-268z" />
<glyph unicode="&#x158;" horiz-adv-x="1228" d="M129 0v1413h508q238 0 373 -100q73 -54 114 -137.5t41 -186.5q0 -95 -27.5 -170.5t-72.5 -121.5t-88 -72.5t-88 -40.5l358 -584h-385l-297 541h-104v-541h-332zM250 1817h221l111 -191l110 191h219l-174 -297h-311zM459 795h131q118 0 170 39q71 51 71 143t-71 143 q-49 37 -170 37h-131v-362z" />
<glyph unicode="&#x159;" horiz-adv-x="792" d="M104 1413h222l110 -190l111 190h219l-174 -297h-311zM109 0v1010h327l-2 -144h4q83 162 250 162q30 0 56 -4.5t36 -9.5l11 -4l-19 -301h-14q-43 24 -119 24q-50 0 -90 -22t-62 -52q-51 -67 -51 -210v-449h-327z" />
<glyph unicode="&#x15a;" horiz-adv-x="1130" d="M33 188l164 242q75 -78 180 -128t188 -50t136 38.5t53 106.5q0 27 -12.5 51t-27 38.5t-43 29.5t-41.5 20.5t-42 16.5l-99 36t-116 44q-3 1 -20 8.5t-26 12t-27.5 14t-32 18.5t-30.5 22t-32 27q-111 104 -111 273q0 96 41 175t107 134q133 113 372 113q121 0 248 -50.5 t201 -124.5l-141 -231q-63 63 -150.5 103t-165.5 40q-83 0 -133.5 -32.5t-50.5 -94.5q0 -30 12 -54t37.5 -41.5t43.5 -26t50 -21.5q34 -14 113.5 -43.5t97.5 -36.5q128 -46 197 -115q110 -110 110 -272q0 -100 -44 -188.5t-121 -149.5q-146 -117 -383 -117q-142 0 -273 61 t-229 152zM430 1520l162 297h280l-210 -297h-232z" />
<glyph unicode="&#x15b;" horiz-adv-x="923" d="M25 133l122 195q61 -52 148.5 -87.5t150.5 -35.5q140 0 140 86q0 19 -14.5 35.5t-41.5 29t-46.5 20t-50.5 16.5t-32 9q-76 19 -143 48q-19 8 -36.5 17.5t-44 32t-45 49.5t-32.5 70.5t-14 94.5q0 144 110 230.5t273 86.5q235 0 387 -125l-106 -192q-47 37 -121.5 67.5 t-132.5 30.5q-121 0 -121 -74q0 -25 24.5 -45t51.5 -30t71 -23q76 -22 144 -47q81 -29 131 -76q82 -82 82 -205q0 -150 -119 -245q-116 -89 -309 -89q-120 0 -231.5 38.5t-194.5 117.5zM299 1116l162 297h280l-211 -297h-231z" />
<glyph unicode="&#x15c;" horiz-adv-x="1130" d="M33 188l164 242q75 -78 180 -128t188 -50t136 38.5t53 106.5q0 27 -12.5 51t-27 38.5t-43 29.5t-41.5 20.5t-42 16.5l-99 36t-116 44q-3 1 -20 8.5t-26 12t-27.5 14t-32 18.5t-30.5 22t-32 27q-111 104 -111 273q0 96 41 175t107 134q133 113 372 113q121 0 248 -50.5 t201 -124.5l-141 -231q-63 63 -150.5 103t-165.5 40q-83 0 -133.5 -32.5t-50.5 -94.5q0 -30 12 -54t37.5 -41.5t43.5 -26t50 -21.5q34 -14 113.5 -43.5t97.5 -36.5q128 -46 197 -115q110 -110 110 -272q0 -100 -44 -188.5t-121 -149.5q-146 -117 -383 -117q-142 0 -273 61 t-229 152zM248 1520l176 297h311l174 -297h-219l-110 188l-111 -188h-221z" />
<glyph unicode="&#x15d;" horiz-adv-x="923" d="M25 133l122 195q61 -52 148.5 -87.5t150.5 -35.5q140 0 140 86q0 19 -14.5 35.5t-41.5 29t-46.5 20t-50.5 16.5t-32 9q-76 19 -143 48q-19 8 -36.5 17.5t-44 32t-45 49.5t-32.5 70.5t-14 94.5q0 144 110 230.5t273 86.5q235 0 387 -125l-106 -192q-47 37 -121.5 67.5 t-132.5 30.5q-121 0 -121 -74q0 -25 24.5 -45t51.5 -30t71 -23q76 -22 144 -47q81 -29 131 -76q82 -82 82 -205q0 -150 -119 -245q-116 -89 -309 -89q-120 0 -231.5 38.5t-194.5 117.5zM139 1116l176 297h312l174 -297h-219l-111 189l-111 -189h-221z" />
<glyph unicode="&#x15e;" horiz-adv-x="1130" d="M33 188l164 242q75 -78 180 -128t188 -50t136 38.5t53 106.5q0 27 -12.5 51t-27 38.5t-43 29.5t-41.5 20.5t-42 16.5l-99 36t-116 44q-3 1 -20 8.5t-26 12t-27.5 14t-32 18.5t-30.5 22t-32 27q-111 104 -111 273q0 96 41 175t107 134q133 113 372 113q121 0 248 -50.5 t201 -124.5l-141 -231q-63 63 -150.5 103t-165.5 40q-83 0 -133.5 -32.5t-50.5 -94.5q0 -30 12 -54t37.5 -41.5t43.5 -26t50 -21.5q34 -14 113.5 -43.5t97.5 -36.5q128 -46 197 -115q110 -110 110 -272q0 -100 -44 -188.5t-121 -149.5q-73 -58 -177 -90l-149 -291h-248 l172 264q-138 4 -263.5 64.5t-219.5 148.5z" />
<glyph unicode="&#x15f;" horiz-adv-x="923" d="M25 133l122 195q61 -52 148.5 -87.5t150.5 -35.5q140 0 140 86q0 19 -14.5 35.5t-41.5 29t-46.5 20t-50.5 16.5t-32 9q-76 19 -143 48q-19 8 -36.5 17.5t-44 32t-45 49.5t-32.5 70.5t-14 94.5q0 144 110 230.5t273 86.5q235 0 387 -125l-106 -192q-47 37 -121.5 67.5 t-132.5 30.5q-121 0 -121 -74q0 -25 24.5 -45t51.5 -30t71 -23q76 -22 144 -47q81 -29 131 -76q82 -82 82 -205q0 -150 -119 -245q-58 -45 -123 -64l-145 -285h-248l168 263q-110 5 -211 43t-176 110z" />
<glyph unicode="&#x160;" horiz-adv-x="1130" d="M33 188l164 242q75 -78 180 -128t188 -50t136 38.5t53 106.5q0 27 -12.5 51t-27 38.5t-43 29.5t-41.5 20.5t-42 16.5l-99 36t-116 44q-3 1 -20 8.5t-26 12t-27.5 14t-32 18.5t-30.5 22t-32 27q-111 104 -111 273q0 96 41 175t107 134q133 113 372 113q121 0 248 -50.5 t201 -124.5l-141 -231q-63 63 -150.5 103t-165.5 40q-83 0 -133.5 -32.5t-50.5 -94.5q0 -30 12 -54t37.5 -41.5t43.5 -26t50 -21.5q34 -14 113.5 -43.5t97.5 -36.5q128 -46 197 -115q110 -110 110 -272q0 -100 -44 -188.5t-121 -149.5q-146 -117 -383 -117q-142 0 -273 61 t-229 152zM279 1794h221l110 -188l111 188h219l-174 -297h-311z" />
<glyph unicode="&#x161;" horiz-adv-x="923" d="M25 133l122 195q61 -52 148.5 -87.5t150.5 -35.5q140 0 140 86q0 19 -14.5 35.5t-41.5 29t-46.5 20t-50.5 16.5t-32 9q-76 19 -143 48q-19 8 -36.5 17.5t-44 32t-45 49.5t-32.5 70.5t-14 94.5q0 144 110 230.5t273 86.5q235 0 387 -125l-106 -192q-47 37 -121.5 67.5 t-132.5 30.5q-121 0 -121 -74q0 -25 24.5 -45t51.5 -30t71 -23q76 -22 144 -47q81 -29 131 -76q82 -82 82 -205q0 -150 -119 -245q-116 -89 -309 -89q-120 0 -231.5 38.5t-194.5 117.5zM139 1413h219l111 -190l111 190h221l-176 -297h-312z" />
<glyph unicode="&#x162;" horiz-adv-x="1077" d="M8 1151v262h1061v-262h-364v-1151h-332v1151h-365zM346 -389l70 287h315l-117 -287h-268z" />
<glyph unicode="&#x163;" horiz-adv-x="733" d="M14 760v248h144v274h329v-274h224v-248h-224v-363q0 -58 7 -83.5t22 -41.5q21 -24 78 -24q23 0 47.5 4.5t37.5 9.5l13 4l17 -256q-137 -33 -234 -33q-164 0 -246 95q-38 44 -54.5 112.5t-16.5 184.5v391h-144zM215 -389l70 287h315l-117 -287h-268z" />
<glyph unicode="&#x164;" horiz-adv-x="1077" d="M8 1151v262h1061v-262h-364v-1151h-332v1151h-365zM207 1817h221l111 -191l110 191h219l-174 -297h-311z" />
<glyph unicode="&#x165;" horiz-adv-x="733" d="M14 760v248h144v274h329v-274h224v-248h-224v-363q0 -58 7 -83.5t22 -41.5q21 -24 78 -24q23 0 47.5 4.5t37.5 9.5l13 4l17 -256q-137 -33 -234 -33q-164 0 -246 95q-38 44 -54.5 112.5t-16.5 184.5v391h-144zM580 1126l161 510h314l-207 -510h-268z" />
<glyph unicode="&#x166;" horiz-adv-x="1077" d="M8 1151v262h1061v-262h-364v-332h178v-256h-178v-563h-332v563h-180v256h180v332h-365z" />
<glyph unicode="&#x167;" horiz-adv-x="733" d="M14 760v248h144v274h329v-274h224v-248h-224v-109h195v-211h-195v-43q0 -58 7 -83.5t22 -41.5q21 -24 78 -24q23 0 47.5 4.5t37.5 9.5l13 4l17 -256q-137 -33 -234 -33q-164 0 -246 95q-38 44 -54.5 112.5t-16.5 184.5v71h-125v211h125v109h-144z" />
<glyph unicode="&#x168;" horiz-adv-x="1421" d="M119 590v823h334v-823q0 -85 11 -140.5t44 -95.5q75 -88 203 -88q127 0 202 88q33 40 44.5 96t11.5 140v823h334v-823q0 -153 -31.5 -259t-104.5 -186q-155 -168 -456 -168t-459 168q-72 80 -102.5 186t-30.5 259zM340 1567q3 97 72 166t161 69q15 0 30 -1.5t25.5 -3 t23 -5.5t19.5 -6.5t18 -7.5t15 -7t14 -7.5t11 -6.5q5 -3 19 -12t23 -13.5t22.5 -11t26.5 -9.5t26 -3q34 0 58.5 23.5t35.5 64.5l139 -20q-3 -97 -71 -166.5t-160 -69.5q-20 0 -39.5 2.5t-31.5 5t-28.5 9t-22 9t-20.5 11t-16 8.5q-4 2 -30.5 18t-46.5 23.5t-40 7.5 q-33 0 -57 -23.5t-35 -64.5z" />
<glyph unicode="&#x169;" horiz-adv-x="1185" d="M102 399v611h328v-566q0 -95 33.5 -145.5t116.5 -50.5q85 0 127.5 60.5t42.5 164.5v537h327v-1010h-315l-2 115q-38 -54 -116.5 -96t-178.5 -42q-200 0 -289 119q-74 106 -74 303zM223 1163q3 97 72.5 166.5t161.5 69.5q17 0 33 -1.5t30 -5t23.5 -6t22.5 -8.5t17 -8 t17 -9l12 -7q5 -3 19 -12t23 -13.5t22.5 -11t26.5 -9.5t26 -3q34 0 58.5 23.5t35.5 64.5l140 -21q-3 -97 -71.5 -166t-160.5 -69q-20 0 -39.5 2.5t-31.5 5t-28.5 9t-22 9t-20.5 11t-16 8.5q-4 2 -30.5 18t-46 23.5t-39.5 7.5q-33 0 -57 -23.5t-35 -64.5z" />
<glyph unicode="&#x16a;" horiz-adv-x="1421" d="M119 590v823h334v-823q0 -85 11 -140.5t44 -95.5q75 -88 203 -88q127 0 202 88q33 40 44.5 96t11.5 140v823h334v-823q0 -153 -31.5 -259t-104.5 -186q-155 -168 -456 -168t-459 168q-72 80 -102.5 186t-30.5 259zM385 1591v158h649v-158h-649z" />
<glyph unicode="&#x16b;" horiz-adv-x="1185" d="M102 399v611h328v-566q0 -95 33.5 -145.5t116.5 -50.5q85 0 127.5 60.5t42.5 164.5v537h327v-1010h-315l-2 115q-38 -54 -116.5 -96t-178.5 -42q-200 0 -289 119q-74 106 -74 303zM268 1188v158h650v-158h-650z" />
<glyph unicode="&#x16c;" horiz-adv-x="1421" d="M119 590v823h334v-823q0 -85 11 -140.5t44 -95.5q75 -88 203 -88q127 0 202 88q33 40 44.5 96t11.5 140v823h334v-823q0 -153 -31.5 -259t-104.5 -186q-155 -168 -456 -168t-459 168q-72 80 -102.5 186t-30.5 259zM362 1804h144q19 -59 74 -87.5t131 -28.5t130.5 28.5 t73.5 87.5h142q-20 -134 -112 -203t-234 -69q-144 0 -236.5 69t-112.5 203z" />
<glyph unicode="&#x16d;" horiz-adv-x="1185" d="M102 399v611h328v-566q0 -95 33.5 -145.5t116.5 -50.5q85 0 127.5 60.5t42.5 164.5v537h327v-1010h-315l-2 115q-38 -54 -116.5 -96t-178.5 -42q-200 0 -289 119q-74 106 -74 303zM246 1401h143q19 -59 74 -88t131 -29t131 29t74 88h141q-20 -134 -112 -203.5t-234 -69.5 q-144 0 -236 69t-112 204z" />
<glyph unicode="&#x16e;" horiz-adv-x="1421" d="M119 590v823h334v-823q0 -85 11 -140.5t44 -95.5q75 -88 203 -88q127 0 202 88q33 40 44.5 96t11.5 140v823h334v-823q0 -153 -31.5 -259t-104.5 -186q-155 -168 -456 -168t-459 168q-72 80 -102.5 186t-30.5 259zM475 1720q0 98 67.5 154.5t168.5 56.5 q100 0 167.5 -56.5t67.5 -154.5q0 -96 -68 -152.5t-167 -56.5q-101 0 -168.5 56t-67.5 153zM606 1720q0 -45 29 -71.5t76 -26.5q46 0 75 26.5t29 71.5t-29 73t-75 28t-75.5 -28t-29.5 -73z" />
<glyph unicode="&#x16f;" horiz-adv-x="1185" d="M102 399v611h328v-566q0 -95 33.5 -145.5t116.5 -50.5q85 0 127.5 60.5t42.5 164.5v537h327v-1010h-315l-2 115q-38 -54 -116.5 -96t-178.5 -42q-200 0 -289 119q-74 106 -74 303zM356 1317q0 98 67.5 154.5t168.5 56.5q100 0 167.5 -56.5t67.5 -154.5q0 -96 -68 -152.5 t-167 -56.5q-101 0 -168.5 56t-67.5 153zM487 1317q0 -45 29 -71.5t76 -26.5q46 0 75 26.5t29 71.5t-29 72.5t-75 27.5t-75.5 -27.5t-29.5 -72.5z" />
<glyph unicode="&#x170;" horiz-adv-x="1421" d="M119 590v823h334v-823q0 -85 11 -140.5t44 -95.5q75 -88 203 -88q127 0 202 88q33 40 44.5 96t11.5 140v823h334v-823q0 -153 -31.5 -259t-104.5 -186q-155 -168 -456 -168t-459 168q-72 80 -102.5 186t-30.5 259zM397 1520l170 297h273l-215 -297h-228zM764 1520 l168 297h274l-215 -297h-227z" />
<glyph unicode="&#x171;" horiz-adv-x="1185" d="M102 399v611h328v-566q0 -95 33.5 -145.5t116.5 -50.5q85 0 127.5 60.5t42.5 164.5v537h327v-1010h-315l-2 115q-38 -54 -116.5 -96t-178.5 -42q-200 0 -289 119q-74 106 -74 303zM223 1116l170 297h273l-215 -297h-228zM590 1116l168 297h274l-215 -297h-227z" />
<glyph unicode="&#x172;" horiz-adv-x="1421" d="M119 590v823h334v-823q0 -85 11 -140.5t44 -95.5q75 -88 203 -88q127 0 202 88q33 40 44.5 96t11.5 140v823h334v-823q0 -153 -31.5 -259t-104.5 -186q-119 -128 -321 -157q-53 -35 -90 -82t-37 -94q0 -50 35 -72.5t80 -22.5q34 0 74 14t63 29l43 -84q-4 -4 -12.5 -10 t-34 -22.5t-52.5 -29t-65.5 -22.5t-75.5 -10q-105 0 -172 47.5t-67 137.5q0 126 120 213q-265 15 -403 165q-72 80 -102.5 186t-30.5 259z" />
<glyph unicode="&#x173;" horiz-adv-x="1185" d="M102 399v611h328v-566q0 -95 33.5 -145.5t116.5 -50.5q85 0 127.5 60.5t42.5 164.5v537h327v-1010q-72 0 -129 -18.5t-89 -48t-48 -60.5t-16 -61q0 -50 34.5 -72.5t79.5 -22.5q34 0 74.5 14t63.5 29l43 -84q-4 -4 -12.5 -10t-34 -22.5t-52.5 -29t-65.5 -22.5t-75.5 -10 q-105 0 -172.5 47.5t-67.5 137.5q0 77 45 135.5t107 97.5l-2 115q-38 -54 -116.5 -96t-178.5 -42q-200 0 -289 119q-74 106 -74 303z" />
<glyph unicode="&#x174;" horiz-adv-x="2011" d="M-6 1413h346l246 -952l254 952h331l256 -952l244 952h346l-409 -1413h-334l-268 969l-269 -969h-334zM674 1520l176 297h311l174 -297h-219l-110 188l-111 -188h-221z" />
<glyph unicode="&#x175;" horiz-adv-x="1685" d="M4 1010h332l178 -645l195 645h268l194 -645l179 645h331l-331 -1010h-310l-196 618l-199 -618h-309zM512 1116l176 297h311l175 -297h-220l-110 189l-111 -189h-221z" />
<glyph unicode="&#x176;" horiz-adv-x="1269" d="M-23 1413h369l289 -563l289 563h368l-491 -842v-571h-332v571zM303 1520l176 297h312l174 -297h-220l-110 188l-111 -188h-221z" />
<glyph unicode="&#x177;" horiz-adv-x="1114" d="M-8 1010h342l229 -650l228 650h337l-450 -1106q-61 -148 -134 -219.5t-194 -71.5q-76 0 -146 12.5t-102 24.5l-32 12l65 242q72 -27 121 -27q24 0 37 2t30.5 17.5t30.5 46.5l37 88zM225 1116l176 297h312l174 -297h-219l-111 189l-111 -189h-221z" />
<glyph unicode="&#x178;" horiz-adv-x="1269" d="M-23 1413h369l289 -563l289 563h368l-491 -842v-571h-332v571zM311 1647q0 61 40 99t100 38q59 0 98 -38t39 -99t-39 -99.5t-98 -38.5t-99.5 38.5t-40.5 99.5zM682 1647q0 61 39 99t98 38t99 -38t40 -99t-40 -99.5t-99 -38.5t-98 38.5t-39 99.5z" />
<glyph unicode="&#x179;" horiz-adv-x="1255" d="M61 0v240l693 905h-672v268h1100v-225l-699 -914h721v-274h-1143zM459 1520l162 297h280l-211 -297h-231z" />
<glyph unicode="&#x17a;" horiz-adv-x="1015" d="M33 0v188l510 572h-488v248h903v-183l-503 -565h528v-260h-950zM326 1116l161 297h281l-211 -297h-231z" />
<glyph unicode="&#x17b;" horiz-adv-x="1255" d="M61 0v240l693 905h-672v268h1100v-225l-699 -914h721v-274h-1143zM487 1671q0 59 40.5 98t99.5 39q58 0 98.5 -39t40.5 -98t-40.5 -99t-98.5 -40q-59 0 -99.5 39.5t-40.5 99.5z" />
<glyph unicode="&#x17c;" horiz-adv-x="1015" d="M33 0v188l510 572h-488v248h903v-183l-503 -565h528v-260h-950zM369 1268q0 59 40 98t99 39q58 0 98.5 -39t40.5 -98t-40.5 -99.5t-98.5 -40.5q-59 0 -99 40t-40 100z" />
<glyph unicode="&#x17d;" horiz-adv-x="1255" d="M61 0v240l693 905h-672v268h1100v-225l-699 -914h721v-274h-1143zM301 1794h221l111 -188l110 188h220l-175 -297h-311z" />
<glyph unicode="&#x17e;" horiz-adv-x="1015" d="M33 0v188l510 572h-488v248h903v-183l-503 -565h528v-260h-950zM176 1413h221l111 -190l110 190h220l-174 -297h-312z" />
<glyph unicode="&#x192;" d="M90 -213l80 236q45 -23 106 -23q33 0 59 20.5t36.5 40t17.5 41.5q9 28 35 150l82 430h-193l41 221h193l35 191q26 135 55 190q56 106 119 150q77 51 182 51q120 0 248 -64l-74 -227q-55 35 -115 35q-56 0 -84 -41t-43 -121l-30 -164h219l-41 -221h-219l-105 -563 q-18 -94 -46.5 -161t-75 -119t-117 -77.5t-166.5 -25.5q-44 0 -92 11.5t-74 22.5t-33 17z" />
<glyph unicode="&#x1fc;" horiz-adv-x="1898" d="M-78 0l854 1413h1030v-264h-526v-285h494v-264h-494v-332h545v-268h-875v287h-493l-162 -287h-373zM602 545h348v608h-6zM1092 1520l161 297h281l-211 -297h-231z" />
<glyph unicode="&#x1fd;" horiz-adv-x="1771" d="M39 299q0 82 34.5 143t94 95t125.5 51t143 20l250 10v25q0 77 -53.5 118.5t-153.5 41.5q-88 0 -173.5 -29t-135.5 -61l-86 213q204 102 432 102q184 0 281 -61q13 -9 25.5 -18.5t21 -18t15 -14.5t11.5 -12l4 -5q126 129 349 129q224 0 365 -137.5t141 -355.5 q0 -24 -1.5 -51t-3.5 -42l-2 -16h-718q9 -100 81.5 -155.5t176.5 -55.5q88 0 168.5 29.5t134.5 66.5l129 -170q-1 0 -20 -16.5t-35.5 -27.5t-47.5 -30.5t-67 -33.5t-81.5 -27.5t-103.5 -21t-122 -7.5q-261 0 -406 166q-88 -88 -177 -127t-226 -39q-99 0 -180.5 33.5 t-135 108t-53.5 180.5zM367 311q0 -58 41.5 -91.5t109.5 -33.5q62 0 118.5 33.5t80.5 69.5q-33 85 -33 155l-156 -8q-78 -4 -119.5 -37t-41.5 -88zM725 1116l162 297h280l-211 -297h-231zM1006 612h415q-2 78 -56 140.5t-148 62.5q-96 0 -151 -61.5t-60 -141.5z" />
<glyph unicode="&#x1fe;" horiz-adv-x="1613" d="M57 705q0 168 58 306.5t159.5 231t238.5 143t294 50.5q259 0 448 -129l154 155l147 -143l-149 -152q149 -189 149 -462q0 -168 -58 -306.5t-159 -230.5t-238 -142.5t-294 -50.5q-260 0 -449 129l-151 -153l-148 143l148 150q-150 190 -150 461zM393 713q0 -128 51 -230 l594 604q-101 66 -231 66q-180 0 -297 -120.5t-117 -319.5zM584 332q100 -62 223 -62q180 0 297 122t117 321q0 123 -47 219zM690 1497l164 297h279l-209 -297h-234z" />
<glyph unicode="&#x1ff;" horiz-adv-x="1220" d="M45 76l107 104q-103 141 -103 322q0 159 74 280t200.5 183.5t286.5 62.5q181 0 324 -84l113 109l124 -121l-106 -105q104 -136 104 -325q0 -159 -73.5 -279.5t-199.5 -183t-286 -62.5q-186 0 -327 86l-113 -108zM375 508q0 -52 16 -102l342 335q-50 35 -123 35 q-107 0 -171 -74.5t-64 -193.5zM473 1116l162 297h280l-208 -297h-234zM492 272q53 -32 118 -32q108 0 173 75t65 193q0 49 -17 98z" />
<glyph unicode="&#x237;" horiz-adv-x="552" d="M-96 -373l6 254q41 -12 92 -12q64 0 87.5 42t23.5 130v969h327v-985q0 -210 -84 -304q-100 -112 -280 -112q-49 0 -92 4.5t-62 8.5z" />
<glyph unicode="&#x2c6;" horiz-adv-x="854" d="M96 1116l176 297h312l174 -297h-219l-111 189l-111 -189h-221z" />
<glyph unicode="&#x2c7;" horiz-adv-x="854" d="M96 1413h221l111 -190l111 190h219l-174 -297h-312z" />
<glyph unicode="&#x2d8;" horiz-adv-x="854" d="M80 1401h143q19 -59 74 -88t131 -29t131 29t74 88h141q-20 -134 -112 -203.5t-234 -69.5q-144 0 -236 69t-112 204z" />
<glyph unicode="&#x2d9;" horiz-adv-x="854" d="M289 1268q0 59 40 98t99 39q58 0 98.5 -39t40.5 -98t-40.5 -99.5t-98.5 -40.5q-59 0 -99 40t-40 100z" />
<glyph unicode="&#x2da;" horiz-adv-x="854" d="M193 1317q0 98 67 154.5t168 56.5q100 0 168 -56.5t68 -154.5q0 -96 -68 -152.5t-168 -56.5q-101 0 -168 56t-67 153zM324 1317q0 -45 29 -71.5t75 -26.5t75 26.5t29 71.5t-29 72.5t-75 27.5t-75 -27.5t-29 -72.5z" />
<glyph unicode="&#x2db;" horiz-adv-x="854" d="M188 -233q0 144 168 243h166v-10q-59 -33 -104 -85t-45 -103q0 -50 34.5 -72.5t79.5 -22.5q34 0 74.5 14t63.5 29l43 -84q-4 -4 -12.5 -10t-34 -22.5t-52.5 -29t-65.5 -22.5t-75.5 -10q-105 0 -172.5 47.5t-67.5 137.5z" />
<glyph unicode="&#x2dc;" horiz-adv-x="854" d="M57 1163q3 97 72.5 166.5t161.5 69.5q17 0 33 -1.5t30 -5t23.5 -6t22.5 -8.5t17 -8t17 -9l12 -7q5 -3 19 -12t23 -13.5t22.5 -11t26.5 -9.5t26 -3q34 0 58.5 23.5t35.5 64.5l140 -21q-3 -97 -71.5 -166t-160.5 -69q-20 0 -39 2.5t-31.5 5.5t-28.5 9t-22 9t-20 10.5 t-16 8.5q-4 2 -30.5 18t-46.5 23.5t-40 7.5q-33 0 -57 -23.5t-35 -64.5z" />
<glyph unicode="&#x2dd;" horiz-adv-x="854" d="M23 1116l170 297h272l-215 -297h-227zM389 1116l168 297h274l-215 -297h-227z" />
<glyph unicode="&#x1e80;" horiz-adv-x="2011" d="M-6 1413h346l246 -952l254 952h331l256 -952l244 952h346l-409 -1413h-334l-268 969l-269 -969h-334zM784 1817h279l164 -297h-234z" />
<glyph unicode="&#x1e81;" horiz-adv-x="1685" d="M4 1010h332l178 -645l195 645h268l194 -645l179 645h331l-331 -1010h-310l-196 618l-199 -618h-309zM621 1413h278l164 -297h-234z" />
<glyph unicode="&#x1e82;" horiz-adv-x="2011" d="M-6 1413h346l246 -952l254 952h331l256 -952l244 952h346l-409 -1413h-334l-268 969l-269 -969h-334zM784 1520l162 297h281l-211 -297h-232z" />
<glyph unicode="&#x1e83;" horiz-adv-x="1685" d="M4 1010h332l178 -645l195 645h268l194 -645l179 645h331l-331 -1010h-310l-196 618l-199 -618h-309zM621 1116l161 297h281l-211 -297h-231z" />
<glyph unicode="&#x1e84;" horiz-adv-x="2011" d="M-6 1413h346l246 -952l254 952h331l256 -952l244 952h346l-409 -1413h-334l-268 969l-269 -969h-334zM680 1667q0 61 40 99t99 38t98 -38t39 -99t-39 -98t-98 -37q-60 0 -99.5 37.5t-39.5 97.5zM1053 1667q0 61 40 99t99 38t98 -38t39 -99t-39 -98t-98 -37 q-60 0 -99.5 37.5t-39.5 97.5z" />
<glyph unicode="&#x1e85;" horiz-adv-x="1685" d="M4 1010h332l178 -645l195 645h268l194 -645l179 645h331l-331 -1010h-310l-196 618l-199 -618h-309zM518 1264q0 61 40 99t99 38t98.5 -38t39.5 -99t-39.5 -98.5t-98.5 -37.5q-60 0 -99.5 37.5t-39.5 98.5zM891 1264q0 61 40 99t99 38t98 -38t39 -99t-39 -98.5t-98 -37.5 q-60 0 -99.5 37.5t-39.5 98.5z" />
<glyph unicode="&#x1ef2;" horiz-adv-x="1269" d="M-23 1413h369l289 -563l289 563h368l-491 -842v-571h-332v571zM352 1817h279l164 -297h-234z" />
<glyph unicode="&#x1ef3;" horiz-adv-x="1114" d="M-8 1010h342l229 -650l228 650h337l-450 -1106q-61 -148 -134 -219.5t-194 -71.5q-76 0 -146 12.5t-102 24.5l-32 12l65 242q72 -27 121 -27q24 0 37 2t30.5 17.5t30.5 46.5l37 88zM274 1413h279l164 -297h-234z" />
<glyph unicode="&#x2000;" horiz-adv-x="965" />
<glyph unicode="&#x2001;" horiz-adv-x="1931" />
<glyph unicode="&#x2002;" horiz-adv-x="965" />
<glyph unicode="&#x2003;" horiz-adv-x="1931" />
<glyph unicode="&#x2004;" horiz-adv-x="643" />
<glyph unicode="&#x2005;" horiz-adv-x="482" />
<glyph unicode="&#x2006;" horiz-adv-x="321" />
<glyph unicode="&#x2007;" horiz-adv-x="321" />
<glyph unicode="&#x2008;" horiz-adv-x="241" />
<glyph unicode="&#x2009;" horiz-adv-x="386" />
<glyph unicode="&#x200a;" horiz-adv-x="107" />
<glyph unicode="&#x2010;" horiz-adv-x="694" d="M61 422v256h572v-256h-572z" />
<glyph unicode="&#x2011;" horiz-adv-x="694" d="M61 422v256h572v-256h-572z" />
<glyph unicode="&#x2012;" horiz-adv-x="694" d="M61 422v256h572v-256h-572z" />
<glyph unicode="&#x2013;" horiz-adv-x="985" d="M0 426v246h985v-246h-985z" />
<glyph unicode="&#x2014;" horiz-adv-x="1894" d="M33 426v246h1829v-246h-1829z" />
<glyph unicode="&#x2018;" horiz-adv-x="724" d="M135 903l209 510h268l-161 -510h-316z" />
<glyph unicode="&#x2019;" horiz-adv-x="724" d="M113 903l161 510h314l-207 -510h-268z" />
<glyph unicode="&#x201a;" horiz-adv-x="724" d="M113 -242l161 510h314l-207 -510h-268z" />
<glyph unicode="&#x201c;" horiz-adv-x="1165" d="M141 903l209 510h256l-162 -510h-303zM584 903l209 510h254l-162 -510h-301z" />
<glyph unicode="&#x201d;" horiz-adv-x="1165" d="M119 903l162 510h301l-209 -510h-254zM561 903l160 510h303l-209 -510h-254z" />
<glyph unicode="&#x201e;" horiz-adv-x="1165" d="M119 -242l162 510h301l-209 -510h-254zM561 -242l160 510h303l-209 -510h-254z" />
<glyph unicode="&#x2020;" horiz-adv-x="1357" d="M145 766v242h402v483h264v-483h401v-242h-401v-1085h-264v1085h-402z" />
<glyph unicode="&#x2021;" horiz-adv-x="1357" d="M145 139v242h402v412h-402v241h402v457h264v-457h401v-241h-401v-412h401v-242h-401v-458h-264v458h-402z" />
<glyph unicode="&#x2022;" horiz-adv-x="1234" d="M276 748q0 140 101 241t241 101q138 0 239 -101.5t101 -240.5t-101 -240.5t-239 -101.5q-140 0 -241 101t-101 241z" />
<glyph unicode="&#x2026;" horiz-adv-x="1990" d="M160 154q0 81 52 127.5t138 46.5t138.5 -46.5t52.5 -127.5q0 -80 -52.5 -126t-138.5 -46t-138 45.5t-52 126.5zM805 154q0 81 52 127.5t138 46.5t138.5 -46.5t52.5 -127.5q0 -80 -52.5 -126t-138.5 -46t-138 45.5t-52 126.5zM1450 154q0 81 52 127.5t138 46.5 q85 0 138 -47t53 -127t-53 -126t-138 -46q-86 0 -138 45.5t-52 126.5z" />
<glyph unicode="&#x202f;" horiz-adv-x="386" />
<glyph unicode="&#x2030;" horiz-adv-x="2578" d="M84 1061q0 164 103 265t264 101q162 0 264 -100.5t102 -265.5t-102 -267t-264 -102q-161 0 -264 102t-103 267zM301 1063q0 -79 39.5 -128.5t110.5 -49.5q73 0 114 49.5t41 128.5q0 80 -41 129t-114 49q-72 0 -111 -49t-39 -129zM375 35l880 1415l140 -84l-879 -1415z M952 340q0 165 102.5 266t264.5 101t264.5 -101t102.5 -266t-102.5 -266t-264.5 -101t-264.5 101t-102.5 266zM1167 344q0 -80 40 -129t112 -49q73 0 113.5 49t40.5 129q0 79 -40.5 127.5t-113.5 48.5q-72 0 -112 -48.5t-40 -127.5zM1759 340q0 164 103 265.5t264 101.5 q162 0 264 -101t102 -266t-102 -266t-264 -101q-161 0 -264 101.5t-103 265.5zM1976 344q0 -80 39 -129t111 -49q73 0 114 49t41 129q0 79 -41 127.5t-114 48.5q-72 0 -111 -48.5t-39 -127.5z" />
<glyph unicode="&#x2039;" horiz-adv-x="749" d="M127 504l328 444l161 -114l-241 -330l241 -330l-161 -113z" />
<glyph unicode="&#x203a;" horiz-adv-x="749" d="M133 176l242 328l-242 332l162 112l328 -444l-328 -443z" />
<glyph unicode="&#x2044;" horiz-adv-x="561" d="M-242 31l906 1466l139 -86l-905 -1464z" />
<glyph unicode="&#x205f;" horiz-adv-x="482" />
<glyph unicode="&#x20ac;" d="M102 467v190h105q-2 31 -2 60v55h-103v189h136q23 108 78 201t128 153q143 119 365 119q120 0 218.5 -31t148.5 -64l-76 -260q-109 103 -271 103q-217 0 -258 -221h394v-189h-430q-3 -30 -3 -55l3 -60h430v-190h-394q14 -103 81.5 -163t174.5 -60q66 0 128 22.5t94 45 t71 55.5l99 -234l-15 -15q-14 -14 -28 -25t-40 -29.5t-58 -32t-72 -27t-93 -20.5t-112 -7q-219 0 -367 123.5t-201 366.5h-131z" />
<glyph unicode="&#x2122;" horiz-adv-x="1816" d="M96 1266v147h621v-147h-221v-691h-177v691h-223zM760 575l57 838h240l170 -577h6l170 577h239l56 -838h-178l-33 603h-4l-180 -603h-148l-178 603h-6l-31 -603h-180z" />
<glyph unicode="&#x220f;" horiz-adv-x="1787" d="M102 408v225h187v158h-187v225h187v397h479q342 0 545 -170q114 -100 170 -227h203v-225h-148q4 -54 4 -84q0 -28 -4 -74h148v-225h-199q-58 -144 -174 -240q-201 -168 -545 -168h-479v408h-187zM618 281h168q189 0 295 102q13 9 25 25h-488v-127zM618 633h584q4 46 4 74 q0 43 -6 84h-582v-158zM618 1016h484l-21 22q-108 101 -295 101h-168v-123z" />
<glyph unicode="&#x2212;" horiz-adv-x="1435" d="M156 588v237h1124v-237h-1124z" />
<glyph unicode="&#x2260;" horiz-adv-x="1435" d="M156 360v240h417l43 213h-460v240h506l49 233h245l-49 -233h373v-240h-418l-43 -213h461v-240h-506l-49 -233h-246l49 233h-372z" />
<glyph unicode="&#x2264;" horiz-adv-x="2015" d="M96 819q0 47 34 81t81 34t81 -34t34 -81t-34 -80.5t-81 -33.5t-81 33.5t-34 80.5zM270 584q0 47 34 80.5t81 33.5t81 -33.5t34 -80.5t-34 -81t-81 -34t-81 34t-34 81zM270 1055q0 47 34 80.5t81 33.5t81 -33.5t34 -80.5t-34 -81t-81 -34t-81 34t-34 81zM434 819 q0 47 34 81t81 34t81 -34t34 -81t-34 -80.5t-81 -33.5t-81 33.5t-34 80.5zM444 348q0 47 34 81t81 34t81 -34t34 -81t-34 -81t-81 -34t-81 34t-34 81zM444 1290q0 47 34 81t81 34t81 -34t34 -81t-34 -80.5t-81 -33.5t-81 33.5t-34 80.5zM618 113q0 47 34 80.5t81 33.5 t81 -33.5t34 -80.5t-34 -81t-81 -34t-81 34t-34 81zM618 1526q0 47 34 80.5t81 33.5t81 -33.5t34 -80.5t-34 -81t-81 -34t-81 34t-34 81zM772 819q0 47 34.5 81t80.5 34q47 0 80.5 -34t33.5 -81t-33.5 -80.5t-80.5 -33.5q-46 0 -80.5 33.5t-34.5 80.5zM1110 819q0 47 34 81 t81 34t80.5 -34t33.5 -81t-33.5 -80.5t-80.5 -33.5t-81 33.5t-34 80.5zM1448 819q0 47 34 81t81 34t80.5 -34t33.5 -81t-33.5 -80.5t-80.5 -33.5t-81 33.5t-34 80.5zM1786 819q0 47 34 81t81 34t80.5 -34t33.5 -81t-33.5 -80.5t-80.5 -33.5t-81 33.5t-34 80.5z" />
<glyph unicode="&#x2265;" horiz-adv-x="2015" d="M0 819q0 47 34 81t81 34t80.5 -34t33.5 -81t-33.5 -80.5t-80.5 -33.5t-81 33.5t-34 80.5zM338 819q0 47 34 81t81 34t80.5 -34t33.5 -81t-33.5 -80.5t-80.5 -33.5t-81 33.5t-34 80.5zM676 819q0 47 34 81t81 34t80.5 -34t33.5 -81t-33.5 -80.5t-80.5 -33.5t-81 33.5 t-34 80.5zM1014 819q0 47 33.5 81t80.5 34q46 0 80.5 -34t34.5 -81t-34.5 -80.5t-80.5 -33.5q-47 0 -80.5 33.5t-33.5 80.5zM1167 113q0 47 34 80.5t81 33.5t81 -33.5t34 -80.5t-34 -81t-81 -34t-81 34t-34 81zM1167 1526q0 47 34 80.5t81 33.5t81 -33.5t34 -80.5t-34 -81 t-81 -34t-81 34t-34 81zM1341 348q0 47 34 81t81 34t81 -34t34 -81t-34 -81t-81 -34t-81 34t-34 81zM1341 1290q0 47 34 81t81 34t81 -34t34 -81t-34 -80.5t-81 -33.5t-81 33.5t-34 80.5zM1352 819q0 47 33.5 81t80.5 34t81 -34t34 -81t-34 -80.5t-81 -33.5t-80.5 33.5 t-33.5 80.5zM1516 584q0 47 33.5 80.5t80.5 33.5t81 -33.5t34 -80.5t-34 -81t-81 -34t-80.5 34t-33.5 81zM1516 1055q0 47 33.5 80.5t80.5 33.5t81 -33.5t34 -80.5t-34 -81t-81 -34t-80.5 34t-33.5 81zM1690 819q0 47 33.5 81t80.5 34t81 -34t34 -81t-34 -80.5t-81 -33.5 t-80.5 33.5t-33.5 80.5z" />
<glyph unicode="&#x25fc;" horiz-adv-x="1013" d="M0 0v1014h1014v-1014h-1014z" />
<glyph unicode="&#xf6c3;" horiz-adv-x="667" d="M143 -389l70 287h315l-116 -287h-269z" />
<glyph unicode="&#xf8ff;" horiz-adv-x="2947" d="M45 49q38 14 87.5 29t62.5 20q72 26 129 90t57 121q0 68 -46.5 107t-115.5 39q-145 0 -145 -84q0 -25 27.5 -40.5t60.5 -15.5q19 0 40.5 10.5t30.5 17.5t35 28v-15q-17 -24 -47 -43.5t-59 -19.5q-42 0 -73.5 22t-31.5 56q0 98 154 98q89 0 138.5 -46t49.5 -122 q0 -58 -51.5 -115.5t-93.5 -83.5l29 -8q86 -19 143 -52t109 -105h-3v-3q-6 1 -17.5 4t-16.5 3q-26 0 -39 -13t-13 -32q0 -42 50 -66.5t96 -24.5q28 0 55.5 12t40.5 31h-8q-36 0 -75.5 20t-39.5 58q0 43 53 43q38 0 69.5 -25.5t31.5 -58.5q0 -2 -1 -8t-1 -8q49 12 86 47 t37 90q0 26 -11 60h7q12 -18 12 -60q0 -58 -40.5 -101t-98.5 -52q-14 -27 -48.5 -42.5t-68.5 -15.5q-56 0 -106 26t-50 75q0 24 14 40.5t39 16.5q15 0 25 -2q-72 62 -138 88.5t-157 26.5q-45 0 -174 -17zM113 1204q0 76 48 142.5t115 66.5q6 0 15 -1t12 -1v-10h-18 q-65 0 -112.5 -61.5t-47.5 -133.5q0 -68 49 -102q55 125 162 248t176 123q63 0 63 -109q0 -88 -72.5 -169.5t-166.5 -115.5q0 -1 -1 -3t-1 -3q-2 -9 -11 -46.5t-13 -54.5t-10 -46.5t-8.5 -51t-2.5 -38.5q0 -31 18.5 -50.5t33.5 -23.5t24 -4q50 0 100 37q-29 20 -70 20 q-14 0 -34 -4.5t-23 -7.5v6q7 7 24.5 12.5t26.5 5.5q51 0 86 -24q39 34 62.5 84t23.5 102q0 90 -57 90q-55 0 -90 -47.5t-35 -103.5q0 -13 2.5 -25.5t11.5 -24.5t23 -12q29 0 46 35.5t17 71.5q0 8 -4 24h12q5 -10 5 -24q0 -39 -23 -79t-53 -40q-49 0 -49 78q0 57 37.5 109.5 t93.5 52.5q43 0 68.5 -38t25.5 -91q0 -51 -26 -99t-72 -80q24 -24 24 -69q0 -77 -88 -113q2 -2 2 -8q0 -29 -26.5 -50.5t-55.5 -21.5h-8l6 6q19 0 43.5 17.5t24.5 42.5v10q-38 -14 -80 -14q-24 0 -53.5 5.5t-57.5 22.5t-28 41q0 25 28.5 37.5t55.5 12.5q35 0 80 -23.5 t65 -54.5q72 30 72 94q0 37 -17 57q-56 -32 -114 -32q-96 0 -159 67.5t-63 181.5q0 27 21 88q-53 39 -53 119zM217 657q0 -49 109 -49q40 0 84 15q-18 30 -57.5 50.5t-71.5 20.5q-64 0 -64 -37zM340 1100q83 36 142 126t59 187q0 41 -29 41q-19 0 -34.5 -20t-43.5 -78 q0 -1 -7.5 -20.5t-18.5 -48.5t-23.5 -62t-24.5 -67t-20 -58zM444 152q0 42 25 77t63 35q27 0 39.5 -17.5t12.5 -41.5q0 -43 -22.5 -77t-61.5 -34q-6 0 -17.5 4.5t-15.5 5.5q6 -24 26.5 -41.5t41.5 -17.5q23 0 42 10t34.5 32.5t26 43t22 57.5t17 58.5t15.5 62.5 q-45 18 -71 64q-18 -6 -29 -6q-115 0 -115 118q0 92 65 165t158 73q56 0 95.5 -12.5t64 -25.5t43.5 -13q13 0 33 4v-8q-53 -12 -104 -47.5t-84 -81.5q-4 38 -33 62t-70 24q-59 0 -105 -50.5t-46 -111.5q0 -86 92 -86q16 0 28 6q-10 20 -10 57q0 41 22 70t44 29q17 0 26 -12 t9 -29q0 -33 -22 -66t-52 -51q16 -38 63 -57q33 135 97 215q20 26 63.5 59t79.5 37v-10q-96 -46 -96 -224q0 -19 4 -77q65 33 65 94q0 51 -24 78v2q11 -6 19.5 -24.5t10.5 -37.5q13 26 39 46t62 20q47 0 71.5 -44t24.5 -108q0 -23 -36 -117.5t-36 -136.5q0 -35 19 -35 q24 0 44.5 31t36 85.5t27 106.5t24 118t19.5 96q34 -17 54 -17q11 0 22 4t16 7t17 11.5t14 10.5q-5 -26 -25.5 -116.5t-33 -161t-12.5 -119.5v-15l2 -28q34 -8 54.5 -35t20.5 -68q0 -56 -49 -98h-14q51 44 51 92q0 73 -59 84q10 -63 10 -106q0 -78 -66 -119t-147 -41 q-54 0 -95.5 30t-41.5 81q0 47 31.5 66.5t62.5 19.5q15 0 27 -3q27 56 92 82v7q-6 14 -6 47q-41 -84 -113 -84q-39 0 -65.5 42t-26.5 103q0 44 36.5 137t36.5 121q0 47 -18 47q-23 0 -44 -24t-24 -37q0 -74 -69 -109q0 -291 -238 -291q-69 0 -116.5 33t-47.5 101zM582 -84 q0 -26 30 -39.5t62 -13.5q17 0 24 5t7 21q0 28 -26 48t-54 20q-43 0 -43 -41zM618 438q0 -29 9 -47q26 18 46.5 48.5t20.5 56.5q0 30 -24 30q-27 0 -39.5 -29t-12.5 -59zM629 965q0 46 36.5 109.5t88.5 110t92 46.5q32 0 49 -47l10 41q40 -15 53 -15q15 0 26 4t26.5 15 t17.5 12q-4 -25 -25 -126t-38 -191t-17 -115q0 -27 17 -27q13 0 24.5 14.5t17.5 28.5t17 43h14q-25 -108 -94 -108q-34 0 -61 24.5t-35 73.5q-30 -61 -53.5 -80.5t-53.5 -19.5q-37 0 -64 38t-37.5 83t-10.5 86zM750 797q0 -17 12 -17q46 0 84 146q4 48 35 198q0 90 -29 90 q-19 0 -33.5 -36.5t-19.5 -67.5q-11 -48 -30 -163t-19 -150zM944 -113q0 -42 34.5 -67t80.5 -25q43 0 83 28.5t40 72.5q0 20 -7 46t-19 57.5t-15 43.5q-59 -20 -82 -70q28 -10 44.5 -32.5t16.5 -40.5q0 -13 -10.5 -26t-30.5 -13q-19 0 -33 19t-14 40t4 31h-24 q-32 0 -50 -16.5t-18 -47.5zM991 602q0 26 22 38.5t48 12.5l94 -10q51 0 51 37q0 23 -18 36t-43 13q-16 0 -30.5 -8t-14.5 -21q0 -22 24 -22q18 0 35 10l2 -12q-16 -8 -35 -8q-16 0 -27.5 8t-11.5 22q0 17 20 29t40 12q30 0 51 -15.5t21 -41.5q0 -25 -20 -36t-44 -11l-94 10 q-22 0 -42 -10.5t-20 -32.5q0 -15 13.5 -22t29.5 -7q27 0 80.5 26t71.5 26q42 0 69 -29t27 -74l-8 2v4q-7 41 -30.5 60.5t-45.5 19.5q-14 0 -63.5 -23.5t-98.5 -23.5q-27 0 -40 12t-13 29zM1051 -74q0 -19 6.5 -34t17.5 -15q12 0 18.5 6t6.5 13q0 32 -47 51q-2 -8 -2 -21z M1067 1122q7 23 14 38.5t19 33t29.5 26.5t41.5 9q83 0 97 -92q4 6 15.5 23.5t19 26.5t19.5 21t26 17.5t30 5.5q48 0 75.5 -56.5t27.5 -130.5q0 -82 -41 -202.5t-41 -177.5q0 -41 11 -67.5t28 -38t37.5 -22.5t39 -20.5t34 -33t20.5 -58.5q28 47 48.5 62.5t45.5 15.5 q38 0 67.5 -38.5t42.5 -83.5t13 -81q0 -61 -27 -125q31 -46 31 -94q0 -71 -41.5 -131t-110.5 -60q-27 0 -45 16t-18 42q0 19 13 32t32 13h12v-8q-16 0 -30.5 -10t-14.5 -27q0 -19 13.5 -31t31.5 -12q60 0 103 61t43 121q0 34 -23 72q-61 -129 -143 -129q-32 0 -47 25t-15 61 q0 56 29.5 88.5t60.5 38.5q23 150 23 223q0 5 -4.5 10.5t-13.5 5.5q-8 0 -19 -7.5t-22.5 -22t-20 -40t-8.5 -57.5q0 -43 -46.5 -282t-55.5 -267q-34 17 -54 17q-11 0 -21.5 -4t-16.5 -8t-15.5 -11t-13.5 -10q4 23 34 185t56 309t26 172q0 29 -9 49t-23 33t-31 25.5t-34.5 31 t-31.5 44.5t-23 72t-9 107q0 56 37.5 178t37.5 181q0 34 -14 34q-19 0 -48.5 -34.5t-49.5 -88.5q-5 -36 -33.5 -182.5t-28.5 -148.5q-36 18 -53 18q-37 0 -63 -20q3 21 21.5 125t32 190t13.5 111q0 28 -14 28q-28 0 -62 -86h-16zM1487 645v2q73 -80 155 -80q44 0 68 21 q-29 4 -61 15t-66.5 30t-57 51t-22.5 72q0 35 17 55l8 -6q-8 -28 -8 -45q0 -35 21 -64t54 -46t67 -27t67 -13q6 12 6 29q0 36 -30.5 62t-72.5 26q-36 0 -63 -16l-6 2q24 24 67 24q44 0 79.5 -27.5t35.5 -68.5q0 -15 -4 -31h6q59 0 109 30.5t61 88.5l16 -8 q-12 -56 -67.5 -95.5t-124.5 -39.5h-17q-27 -27 -77 -27t-94 22.5t-66 63.5zM1546 965q0 46 36 109.5t88 110t91 46.5q40 0 54 -47l10 41q40 -15 55 -15q9 0 19.5 3.5t16.5 7t17 11t15 9.5q-1 -5 -24.5 -121.5t-38.5 -201t-15 -109.5q0 -27 12 -27q30 0 62 86h14 q-25 -108 -92 -108q-79 0 -99 98q-32 -60 -54.5 -80t-49.5 -20q-38 0 -66 38t-39.5 83.5t-11.5 85.5zM1561 106q0 -57 36 -57q8 0 14.5 12t11 35.5t7 41t5 48t3.5 37.5q-33 -3 -55 -39.5t-22 -77.5zM1669 797q0 -17 10 -17q51 0 86 146q2 35 35 198q0 90 -28 90 q-12 0 -20.5 -7t-14.5 -22.5t-9 -24t-6 -29.5l-4 -21q-49 -276 -49 -313zM1829 252q0 44 36.5 102t99 103t124.5 45q34 0 58 -26.5t24 -80.5q0 -70 -66.5 -121t-140.5 -59q-20 -103 -20 -135q0 -17 11.5 -26t29.5 -9q8 0 12 2v2q0 63 40 130t97 67q27 0 27 -41 q0 -52 -48.5 -109t-101.5 -63q0 -91 31 -134.5t84 -43.5q91 0 201 110q-58 27 -93.5 78.5t-35.5 118.5q0 51 30 96t78 55v-6q-47 -13 -71.5 -55.5t-24.5 -95.5q0 -58 36 -104t95 -72q89 100 123 208l-185 56l80 32l-106 220l86 -27l-19 129l84 -92l50 72l49 -160l69 219 l35 -57l127 75v-145h78l-168 -166l166 47l-27 -86l125 -12l-121 -57l66 -52l-232 -45l17 -82l-144 115q-51 -118 -131 -201q35 -14 84 -14q59 0 94 21t56 63h4q-7 -47 -51 -75.5t-94 -28.5q-51 0 -109 20q-118 -121 -231 -121q-119 0 -119 195q-2 -2 -12 -2q-64 0 -110 58.5 t-46 164.5zM1966 231q39 6 70.5 48.5t46 89.5t14.5 82q0 34 -16 34q-65 0 -115 -254zM1980 965q0 46 36 109.5t88 110t91 46.5q36 0 50 -39q9 49 19.5 102t17.5 85.5t8 35.5q32 -16 53 -16q11 0 21.5 3.5t17 7.5t17.5 11.5t16 10.5q-1 -5 -33 -169.5t-56 -296t-24 -157.5 q0 -27 14 -27q27 0 54.5 52.5t39.5 101.5h19q-45 -176 -125 -176q-35 0 -64.5 25.5t-37.5 74.5q-32 -62 -55 -82t-52 -20q-38 0 -65.5 38t-38.5 83t-11 86zM1997 639q0 31 26 60t60 30v-6q-27 -5 -48.5 -26t-21.5 -46q0 -84 117 -84q124 0 129 80q-4 -2 -12 -2 q-38 0 -63 15.5t-25 41.5q0 11 12.5 21t23.5 10q24 0 45 -19t29 -46q51 6 95.5 42.5t56.5 84.5h4q-10 -64 -54.5 -102t-101.5 -46q0 -42 -42.5 -75t-100.5 -33q-30 0 -57.5 8t-49.5 32t-22 60zM2009 49q39 0 87 56t48 106q0 22 -14 22q-46 0 -83.5 -62t-37.5 -118v-4z M2099 797q0 -17 15 -17q39 0 61 69.5t59 291.5q-5 73 -30 73q-8 0 -15 -4t-12 -12t-8.5 -15.5t-7 -19.5t-5 -19t-3.5 -19t-3 -15q-11 -51 -31 -165.5t-20 -147.5zM2177 700q0 -32 74 -32h6q-5 23 -19.5 38t-35.5 15q-25 0 -25 -21zM2456 965q0 46 37 109.5t89 110t91 46.5 q36 0 53 -47l10 41q40 -15 53 -15q8 0 16 2t15.5 6t12.5 7t13 8.5t11 7.5q-4 -25 -24.5 -126.5t-37 -191t-16.5 -114.5q0 -27 14 -27q28 0 60 86h16q-9 -31 -17.5 -51.5t-28.5 -38.5t-48 -18q-36 0 -61.5 24t-34.5 74q-33 -61 -55.5 -80.5t-49.5 -19.5q-38 0 -66.5 38 t-40 83.5t-11.5 85.5zM2578 797q0 -17 13 -17q49 0 84 146q4 48 35 198q0 90 -29 90q-39 0 -53 -104q-50 -281 -50 -313z" />
</font>
</defs>
</svg>
