<?xml version="1.0" standalone="no"?>
<!DOCTYPE svg PUBLIC "-//W3C//DTD SVG 1.1//EN" "http://www.w3.org/Graphics/SVG/1.1/DTD/svg11.dtd" >
<svg xmlns="http://www.w3.org/2000/svg" xmlns:xlink="http://www.w3.org/1999/xlink" version="1.1">
<metadata></metadata>
<defs>
<font id="gibsonregular" horiz-adv-x="1366" >
<font-face units-per-em="2048" ascent="1638" descent="-410" />
<missing-glyph horiz-adv-x="407" />
<glyph unicode="ff" horiz-adv-x="1122" d="M33 813v158h139v98q0 178 66 260q87 107 233 107q50 0 92 -6t59 -12l17 -5l-12 -145q-56 18 -111 18q-46 0 -77 -16t-46 -47t-20.5 -64t-5.5 -80v-108h366v98q0 178 66 260q87 107 233 107q50 0 92 -6t59 -12l17 -5l-12 -145q-56 18 -111 18q-46 0 -77 -16t-46 -47 t-20.5 -64t-5.5 -80v-108h231v-158h-231v-813h-195v813h-366v-813h-195v813h-139z" />
<glyph unicode="fi" horiz-adv-x="1062" d="M33 813v158h139v98q0 186 66 260q43 49 98.5 78t142.5 29q36 0 74.5 -6t58.5 -12l21 -5l-15 -145q-47 18 -102 18q-31 0 -55 -8.5t-39.5 -20t-26.5 -33.5t-16.5 -39t-8 -47.5t-3 -47t-0.5 -49.5v-11v-59h231v-158h-231v-813h-195v813h-139zM694 1292q0 53 36 87t91 34 q57 0 93 -34t36 -87t-36 -87t-93 -34q-55 0 -91 34t-36 87zM725 0v973h195v-973h-195z" />
<glyph unicode="fl" horiz-adv-x="1067" d="M33 813v158h139v106q0 155 61 246q36 49 98.5 81t147.5 32q43 0 81.5 -6t55.5 -12l17 -5l-15 -145q-41 18 -102 18q-46 0 -77 -16t-46 -47t-20.5 -64t-5.5 -80v-108h231v-158h-231v-813h-195v813h-139zM725 0v1413h197v-1413h-197z" />
<glyph unicode="ffi" horiz-adv-x="1605" d="M33 813v158h139v98q0 178 66 260q87 107 233 107q50 0 92 -6t59 -12l17 -5l-12 -145q-56 18 -111 18q-46 0 -77 -16t-46 -47t-20.5 -64t-5.5 -80v-108h366v98q0 178 66 260q87 107 233 107q50 0 92 -6t59 -12l17 -5l-12 -145q-56 18 -111 18q-46 0 -77 -16t-46 -47 t-20.5 -64t-5.5 -80v-108h231v-158h-231v-813h-195v813h-366v-813h-195v813h-139zM1235 1292q0 53 36 87t93 34q55 0 91 -34t36 -87t-36 -87t-91 -34q-57 0 -93 34t-36 87zM1266 0v973h196v-973h-196z" />
<glyph unicode="ffl" horiz-adv-x="1607" d="M33 813v158h139v98q0 178 66 260q87 107 233 107q50 0 92 -6t59 -12l17 -5l-12 -145q-56 18 -111 18q-46 0 -77 -16t-46 -47t-20.5 -64t-5.5 -80v-108h366v98q0 178 66 260q87 107 233 107q50 0 92 -6t59 -12l17 -5l-12 -145q-56 18 -111 18q-46 0 -77 -16t-46 -47 t-20.5 -64t-5.5 -80v-108h231v-158h-231v-813h-195v813h-366v-813h-195v813h-139zM1268 0v1413h194v-1413h-194z" />
<glyph unicode="fj" horiz-adv-x="1044" d="M33 813v158h139v98q0 178 66 260q87 107 233 107q50 0 92 -6t59 -12l17 -5l-12 -145q-56 18 -111 18q-46 0 -77 -16t-46 -47t-20.5 -64t-5.5 -80v-108h231v-158h-231v-813h-195v813h-139zM471 -385l2 156q41 -15 92 -15q37 0 63.5 13.5t41 34t22.5 55.5t10.5 67t2.5 78 v969h196v-975q0 -194 -61 -279q-90 -120 -246 -120q-36 0 -66.5 4t-43.5 8zM674 1292q0 53 36 87t93 34q55 0 91 -34t36 -87t-36 -87t-91 -34q-57 0 -93 34t-36 87z" />
<glyph unicode="ft" horiz-adv-x="1198" d="M33 813v158h139v98q0 178 66 260q87 107 233 107q50 0 92 -6t59 -12l17 -5l-12 -145q-56 18 -111 18q-46 0 -77 -16t-46 -47t-20.5 -64t-5.5 -80v-108h368v291h197v-291h233v-158h-233v-440q0 -73 4 -111.5t20 -66.5q29 -50 101 -50q25 0 50 5.5t37 11.5l13 6l12 -158 q-76 -33 -178 -33q-139 0 -207 101q-30 44 -39.5 106.5t-9.5 184.5v444h-368v-813h-195v813h-139z" />
<glyph unicode=" "  horiz-adv-x="407" />
<glyph unicode="&#x09;" horiz-adv-x="407" />
<glyph unicode="&#xa0;" horiz-adv-x="407" />
<glyph unicode="!" horiz-adv-x="616" d="M172 106q0 59 38 94.5t99 35.5q59 0 97 -35.5t38 -94.5q0 -58 -37.5 -92t-97.5 -34q-61 0 -99 34t-38 92zM207 1413h205l-19 -1036h-170z" />
<glyph unicode="&#x22;" horiz-adv-x="913" d="M197 1413h188l-20 -438h-148zM528 1413h189l-23 -438h-145z" />
<glyph unicode="#" horiz-adv-x="1222" d="M76 465v129h241l48 309h-224v127h244l68 428h129l-66 -428h272l68 428h131l-67 -428h227v-127h-248l-47 -309h229v-129h-250l-65 -426h-131l65 426h-272l-68 -426h-131l68 426h-221zM446 594h275l47 309h-272z" />
<glyph unicode="$" horiz-adv-x="1200" d="M137 240l119 112q42 -93 129.5 -150t179.5 -59l2 506l-75 35q-111 51 -160 90q-135 107 -135 281q0 163 120 268q100 86 261 102l2 140h114v-142q221 -18 332 -190l-100 -117q-42 68 -106.5 109t-135.5 49l-2 -473l123 -58q258 -115 258 -362q0 -91 -40 -167t-105 -126 q-107 -86 -246 -100l-2 -150h-115v148q-131 2 -243 69t-175 185zM375 1067q0 -78 45 -124.5t121 -84.5l32 -16l2 434q-92 -9 -146 -65t-54 -144zM674 141q79 5 144 66.5t65 150.5q0 86 -39.5 137t-116.5 89l-51 24z" />
<glyph unicode="%" horiz-adv-x="1595" d="M63 1083q0 150 94 245t240 95t240 -95t94 -245q0 -151 -94 -246.5t-240 -95.5t-240 95.5t-94 246.5zM207 1083q0 -94 51.5 -152.5t138.5 -58.5t139 59t52 152q0 95 -52 154t-139 59t-138.5 -59t-51.5 -154zM309 14l875 1432l102 -62l-874 -1431zM864 315q0 151 94 245.5 t240 94.5t240 -94.5t94 -245.5t-94 -245.5t-240 -94.5t-240 94.5t-94 245.5zM1008 317q0 -95 51.5 -154t138.5 -59t139 59t52 154q0 94 -52 153.5t-139 59.5q-86 0 -138 -59.5t-52 -153.5z" />
<glyph unicode="&#x26;" horiz-adv-x="1415" d="M76 371q0 80 28.5 147t84.5 120.5t114.5 91.5t142.5 81q-2 3 -23 28t-25.5 30.5t-23 29t-24 34.5t-19.5 33.5t-19 38.5t-12.5 38.5t-10 45t-2.5 46.5q0 136 101 218.5t259 82.5q156 0 254 -81.5t98 -215.5q0 -204 -280 -361l274 -323q33 38 91 132.5t85 153.5l154 -69 q-30 -59 -99.5 -169.5t-119.5 -166.5l297 -324v-12h-236l-174 203q-111 -113 -219.5 -170.5t-257.5 -57.5q-191 0 -314.5 105.5t-123.5 290.5zM274 381q0 -109 75.5 -179.5t189.5 -70.5q102 0 194.5 58.5t147.5 132.5l-326 376l-59 -32q-47 -27 -78.5 -49t-68.5 -57.5 t-56 -80.5t-19 -98zM475 1126q0 -83 78 -174l57 -65q26 15 40 23.5t44 28.5t48 38.5t38.5 43.5t30.5 54t10 60q0 76 -47 116.5t-125 40.5q-76 0 -125 -45t-49 -121z" />
<glyph unicode="'" horiz-adv-x="622" d="M217 1413h189l-21 -438h-147z" />
<glyph unicode="(" horiz-adv-x="581" d="M100 637q0 490 301 940l125 -68q-91 -138 -169 -382t-78 -490t78 -490.5t169 -382.5l-125 -67q-301 450 -301 940z" />
<glyph unicode=")" horiz-adv-x="581" d="M53 -236q56 85 110 213t96 310t42 350t-42 350t-96 309.5t-110 212.5l125 68q303 -447 303 -940t-303 -940z" />
<glyph unicode="*" horiz-adv-x="1075" d="M156 1151l45 123l286 -115l-18 295h137l-18 -295l286 115l46 -123l-306 -90l201 -264l-106 -74l-172 278l-170 -278l-107 74l201 264z" />
<glyph unicode="+" d="M147 631v151h461v459h152v-459h459v-151h-459v-459h-152v459h-461z" />
<glyph unicode="," horiz-adv-x="616" d="M125 -287l143 504h201l-188 -504h-156z" />
<glyph unicode="-" horiz-adv-x="598" d="M51 479v164h496v-164h-496z" />
<glyph unicode="." horiz-adv-x="616" d="M172 106q0 59 38 94.5t99 35.5q59 0 97 -35.5t38 -94.5q0 -58 -37.5 -92t-97.5 -34q-61 0 -99 34t-38 92z" />
<glyph unicode="/" horiz-adv-x="1064" d="M43 -131l852 1747l131 -57l-852 -1749z" />
<glyph unicode="0" horiz-adv-x="1200" d="M59 705q0 113 19.5 217.5t62 198.5t104.5 163t153.5 109.5t201.5 40.5q111 0 202 -40.5t153 -109.5t104.5 -163t62 -198.5t19.5 -217.5t-19.5 -217t-62 -197.5t-104.5 -163t-153 -110t-202 -40.5t-202 40.5t-153 110t-104.5 163t-62 197.5t-19.5 217zM260 709 q0 -164 37 -287.5t114.5 -196.5t188.5 -73t188.5 73t114.5 196.5t37 287.5q0 252 -87.5 404.5t-252.5 152.5t-252.5 -152.5t-87.5 -404.5z" />
<glyph unicode="1" horiz-adv-x="892" d="M127 1268v145h469v-1413h-193v1268h-276z" />
<glyph unicode="2" horiz-adv-x="1200" d="M115 1161q13 29 35.5 61.5t63.5 71.5t90.5 69t121.5 50.5t152 20.5q212 0 342.5 -114.5t130.5 -301.5q0 -37 -6.5 -73.5t-15 -66.5t-27 -65t-30.5 -57.5t-38 -55l-38 -47.5t-41.5 -44.5t-37 -37.5t-36.5 -35l-29 -26l-363 -346h721v-164h-954l-29 133l500 473 q49 47 83 84.5t71 89t56 106.5t19 111q0 122 -79 198.5t-212 76.5q-63 0 -120 -21.5t-99.5 -58t-72 -72t-54.5 -76.5z" />
<glyph unicode="3" horiz-adv-x="1200" d="M106 219l111 121q13 -16 27 -32.5t50.5 -49.5t73 -56.5t89 -42t104.5 -18.5q142 0 230 69t88 193q0 123 -82.5 189.5t-210.5 66.5h-105v158h105q115 0 184.5 61t69.5 169t-77 168.5t-190 60.5q-99 0 -178 -42t-159 -120l-93 119q84 93 187 147t260 54q117 0 216.5 -42.5 t162.5 -128t63 -196.5q0 -74 -22.5 -133t-60 -95t-72.5 -57t-74 -34v-7q45 -8 90 -32.5t87 -65t68.5 -105.5t26.5 -143q0 -189 -144.5 -302t-365.5 -113q-80 0 -155.5 23.5t-123 51.5t-92.5 69t-59.5 58.5t-28.5 36.5z" />
<glyph unicode="4" horiz-adv-x="1200" d="M49 309v146l699 966h206v-948h205v-164h-205v-309h-192v309h-713zM244 471h520v717z" />
<glyph unicode="5" horiz-adv-x="1200" d="M92 213l111 115q48 -82 143 -135.5t209 -53.5q62 0 119 19.5t104.5 56.5t76 98.5t28.5 139.5t-28 139.5t-75.5 98.5t-104.5 56t-120 19q-72 0 -141 -20t-109 -56l-100 60l123 663h710v-160h-567l-74 -374q79 36 201 36q88 0 172 -29.5t154 -85t112.5 -146t42.5 -201.5 q0 -112 -44 -204.5t-117.5 -151t-166.5 -90.5t-194 -32q-94 0 -176.5 24t-138 62t-92 76t-58.5 76z" />
<glyph unicode="6" horiz-adv-x="1200" d="M106 680q0 184 45 328.5t121 238.5q150 187 406 187q72 0 135 -13.5t116.5 -40.5t76 -41t59.5 -42q7 -5 10 -7l-84 -133q-145 121 -311 121q-89 0 -149.5 -32t-112.5 -99q-121 -158 -121 -451q21 38 51 70.5t75 63.5t111 49t146 18q113 0 211 -51t160.5 -152t62.5 -231 q0 -136 -57.5 -246.5t-168 -176t-255.5 -65.5q-284 0 -428 244q-99 164 -99 461zM332 442q0 -128 78.5 -218.5t218.5 -90.5q94 0 162 44.5t99.5 113t31.5 151.5t-31.5 151.5t-99.5 113.5t-162 45q-140 0 -218.5 -90.5t-78.5 -219.5z" />
<glyph unicode="7" horiz-adv-x="1200" d="M123 1253v160h962l54 -115l-680 -1298h-209l668 1253h-795z" />
<glyph unicode="8" horiz-adv-x="1200" d="M115 391q0 131 71.5 222.5t192.5 129.5v7q-221 84 -221 317q0 113 61.5 197.5t160.5 127t220 42.5t220 -42.5t160.5 -127t61.5 -197.5q0 -73 -20 -130.5t-56 -94t-69 -57t-74 -37.5v-5q121 -40 192.5 -131t71.5 -221q0 -194 -136 -304t-351 -110t-350 109.5t-135 304.5z M309 406q0 -122 84 -195.5t207 -73.5q124 0 207.5 73t83.5 196t-82 195.5t-209 72.5t-209 -72.5t-82 -195.5zM350 1049q0 -109 70 -169.5t180 -60.5t180 60.5t70 169.5q0 107 -70.5 168t-179.5 61t-179.5 -61t-70.5 -168z" />
<glyph unicode="9" horiz-adv-x="1200" d="M86 946q0 136 57.5 246.5t168 176t255.5 65.5q280 0 428 -244q99 -160 99 -461q0 -181 -45 -326t-121 -241q-149 -187 -400 -187q-86 0 -159 16.5t-127.5 47t-74 44t-48.5 38.5l84 131q50 -46 135.5 -81.5t185.5 -35.5q89 0 150.5 31.5t109.5 97.5q119 156 119 457 q-19 -39 -49 -73.5t-75.5 -66.5t-112 -50.5t-146.5 -18.5q-112 0 -210 51t-161 152t-63 231zM279 971q0 -83 31.5 -151.5t99 -113t161.5 -44.5q140 0 218.5 90.5t78.5 218.5t-78.5 218.5t-218.5 90.5q-94 0 -161.5 -44.5t-99 -113t-31.5 -151.5z" />
<glyph unicode=":" horiz-adv-x="616" d="M172 106q0 59 38 94.5t99 35.5q59 0 97 -35.5t38 -94.5q0 -58 -37.5 -92t-97.5 -34q-61 0 -99 34t-38 92zM172 860q0 58 38 93.5t99 35.5q59 0 97 -35.5t38 -93.5t-38 -93.5t-97 -35.5q-61 0 -99 35.5t-38 93.5z" />
<glyph unicode=";" horiz-adv-x="616" d="M125 -287l143 504h201l-188 -504h-156zM172 860q0 58 38 93.5t99 35.5q59 0 97 -35.5t38 -93.5t-38 -93.5t-97 -35.5q-61 0 -99 35.5t-38 93.5z" />
<glyph unicode="&#x3c;" d="M147 623v168l1072 458v-166l-881 -376l881 -377v-166z" />
<glyph unicode="=" d="M147 444v152h1072v-152h-1072zM147 817v150h1072v-150h-1072z" />
<glyph unicode="&#x3e;" d="M147 164v166l881 377l-881 376v166l1072 -458v-168z" />
<glyph unicode="?" horiz-adv-x="1007" d="M121 1241q16 29 42 57t71 61.5t115.5 54t154.5 20.5q175 0 282 -99t107 -237q0 -59 -12.5 -107.5t-41 -90.5t-50 -66t-64.5 -66q-19 -18 -50.5 -47t-47.5 -44.5t-33.5 -37.5t-26.5 -43q-13 -30 -16 -76l-4 -143h-166l-4 145q-1 47 8 88t19.5 67t35 56.5t37.5 44t43 41.5 l119 109q66 63 66 149q0 90 -63 141.5t-167 51.5q-93 0 -162 -44t-106 -108zM330 106q0 59 37 94.5t98 35.5t98 -35.5t37 -94.5q0 -58 -37 -92t-98 -34t-98 34t-37 92z" />
<glyph unicode="@" horiz-adv-x="1638" d="M84 422q0 167 64 312.5t170.5 244.5t246 156t289.5 57q320 0 518 -188q85 -80 133.5 -190t48.5 -236q0 -129 -43 -239.5t-116 -186.5q-66 -72 -148 -112t-160 -40q-148 0 -172 129q-129 -129 -262 -129q-30 0 -60.5 8t-65 30t-60.5 56t-43.5 91t-17.5 130q0 76 21.5 155 t62.5 149.5t95.5 126.5t126.5 89t150 33q49 0 91.5 -10.5t68 -25.5t44 -30t25.5 -26l7 -10l20 65h133l-174 -546q-16 -52 -19.5 -86.5t13 -58t57.5 -23.5q50 0 104 34t99.5 92t75 145.5t29.5 184.5q0 219 -159.5 364.5t-418.5 145.5q-176 0 -324 -83.5t-236.5 -236 t-88.5 -341.5q0 -190 77.5 -335t214 -222.5t310.5 -77.5q294 0 539 156q7 4 10 6l45 -84q-2 -1 -22 -15.5t-37 -25.5t-50.5 -30t-66.5 -33t-82 -30.5t-99 -27.5t-114.5 -18t-132.5 -7q-150 0 -281 53t-228 148t-152.5 235.5t-55.5 307.5zM543 328q0 -113 45.5 -160 t111.5 -47q32 0 67 12.5t74.5 39.5t74.5 79t57 123l90 280l-4 6q-4 6 -11 15t-17 19.5t-26 21t-35.5 19.5t-47 14.5t-58.5 5.5q-132 0 -223 -131q-45 -63 -71.5 -143t-26.5 -154z" />
<glyph unicode="A" horiz-adv-x="1331" d="M2 0l576 1417h174l577 -1417h-221l-145 369h-607l-145 -369h-209zM412 535h495l-248 634z" />
<glyph unicode="B" horiz-adv-x="1202" d="M156 0v1413h381q114 0 194 -13.5t141 -53.5q152 -97 152 -287q0 -110 -61.5 -195t-153.5 -114v-5q146 -30 229.5 -118.5t83.5 -225.5q0 -189 -151 -309q-64 -51 -149 -71.5t-208 -20.5h-458zM354 162h213q57 0 91 2t79 13.5t78 33.5q103 69 103 199q0 67 -25 112.5 t-78 81.5q-47 32 -106 41.5t-142 9.5h-213v-493zM354 807h166q79 0 128.5 9t82.5 34q43 32 68.5 74.5t25.5 111.5q0 129 -94 181q-67 38 -194 38h-183v-448z" />
<glyph unicode="C" horiz-adv-x="1361" d="M76 705q0 215 96 382.5t260 257t367 89.5q94 0 177 -18t144.5 -48t103.5 -59t76 -62l-83 -160q-50 63 -163 118t-247 55q-231 0 -378.5 -152t-147.5 -399q0 -246 148 -398.5t378 -152.5q134 0 241.5 46.5t180.5 125.5l86 -146q-188 -209 -516 -209q-205 0 -369.5 90 t-259 257t-94.5 383z" />
<glyph unicode="D" horiz-adv-x="1404" d="M156 0v1413h426q171 0 306.5 -52.5t221.5 -131.5q219 -202 219 -522q0 -321 -219 -523q-86 -79 -221.5 -131.5t-306.5 -52.5h-426zM354 172h228q238 0 376 131q168 159 168 404q0 246 -168 405q-138 131 -376 131h-228v-1071z" />
<glyph unicode="E" horiz-adv-x="1087" d="M156 0v1413h827v-166h-629v-422h594v-166h-594v-491h645v-168h-843z" />
<glyph unicode="F" horiz-adv-x="1011" d="M156 0v1413h784v-166h-586v-471h551v-166h-551v-610h-198z" />
<glyph unicode="G" horiz-adv-x="1529" d="M76 707q0 215 96 382t259.5 256t363.5 89q340 0 560 -235l11 -11l-135 -125q-172 201 -436 201q-224 0 -369 -151t-145 -406q0 -128 40.5 -233.5t111.5 -176t167 -109t207 -38.5q82 0 153 13.5t114 32t74 37.5t44 33l12 13v313h-381v162h574v-549q-49 -49 -78 -71 q-206 -159 -522 -159q-150 0 -282.5 53t-229.5 147.5t-153 232t-56 299.5z" />
<glyph unicode="H" horiz-adv-x="1462" d="M156 0v1413h198v-584h752v584h199v-1413h-199v659h-752v-659h-198z" />
<glyph unicode="I" horiz-adv-x="509" d="M156 0v1413h198v-1413h-198z" />
<glyph unicode="J" horiz-adv-x="509" d="M-90 -385l4 152q43 -17 109 -17q35 0 59.5 13.5t38.5 35t22 55.5t10.5 66.5t2.5 77.5v1415h198v-1409q0 -202 -63 -299q-84 -115 -228 -115q-37 0 -74 5.5t-56 11t-23 8.5z" />
<glyph unicode="K" horiz-adv-x="1185" d="M156 0v1413h198v-602l576 602h241l-538 -557l577 -856h-241l-469 709l-146 -148v-561h-198z" />
<glyph unicode="L" horiz-adv-x="872" d="M156 0v1413h198v-1243h498v-170h-696z" />
<glyph unicode="M" horiz-adv-x="1748" d="M92 0l127 1413h246l407 -1091h5l407 1091h244l129 -1413h-197l-92 1116h-6l-432 -1128h-113l-432 1128h-6l-90 -1116h-197z" />
<glyph unicode="N" horiz-adv-x="1515" d="M156 0v1413h209l800 -1110q-2 175 -2 361v749h195v-1413h-195l-815 1126q4 -190 4 -374v-752h-196z" />
<glyph unicode="O" horiz-adv-x="1609" d="M76 705q0 166 58 304.5t157.5 230.5t232 143t281.5 51t281.5 -51t232 -143t157.5 -230.5t58 -304.5t-58 -304.5t-157.5 -231t-232 -143.5t-281.5 -51t-281.5 51t-232 143.5t-157.5 231t-58 304.5zM279 709q0 -126 42 -231t113.5 -175t167 -108.5t203.5 -38.5t204 38.5 t167.5 108.5t113 175t41.5 231q0 127 -41.5 232t-113 174.5t-167.5 108t-204 38.5t-204 -38.5t-167.5 -108t-113 -174.5t-41.5 -232z" />
<glyph unicode="P" horiz-adv-x="1087" d="M156 0v1413h397q226 0 342 -100q137 -118 137 -303q0 -188 -137 -303q-117 -101 -342 -101h-199v-606h-198zM354 768h183q127 0 204 53q86 65 86 189q0 62 -23.5 110t-62.5 76q-76 55 -204 55h-183v-483z" />
<glyph unicode="Q" horiz-adv-x="1609" d="M76 705q0 166 58 304.5t157.5 230.5t232 143t281.5 51t281.5 -51t232 -143t157.5 -230.5t58 -304.5q0 -315 -197 -519l156 -178l-129 -114l-162 186q-178 -105 -397 -105q-149 0 -281.5 51t-232 143.5t-157.5 231t-58 304.5zM279 709q0 -126 42 -231t113.5 -175 t167 -108.5t203.5 -38.5q147 0 270 69l-119 135l129 115l121 -139q125 151 125 373q0 127 -41.5 232t-113 174.5t-167.5 108t-204 38.5t-204 -38.5t-167.5 -108t-113 -174.5t-41.5 -232z" />
<glyph unicode="R" horiz-adv-x="1105" d="M156 0v1413h399q215 0 340 -98q137 -111 137 -299q0 -89 -28.5 -160.5t-76.5 -116t-102 -71.5t-114 -39l403 -629h-240l-368 608h-152v-608h-198zM354 772h146q87 0 140.5 9t96.5 40q90 67 90 191t-90 188q-43 32 -96.5 41.5t-140.5 9.5h-146v-479z" />
<glyph unicode="S" horiz-adv-x="1093" d="M70 213l116 133q62 -83 157.5 -143t201.5 -60q119 0 197.5 64t78.5 174q0 30 -10 58t-21.5 47t-37 39.5t-39 30.5t-46 25.5t-39 18t-36.5 14.5q-167 65 -225 95q-85 38 -142 100q-92 96 -92 246q0 165 129 272q124 105 326 105q231 0 405 -183l-104 -135 q-144 152 -311 152q-109 0 -177.5 -51t-68.5 -146q0 -47 15 -83t44.5 -61t56.5 -40t66 -31l260 -109q31 -14 80 -46t80 -68q86 -105 86 -238q0 -91 -39 -170t-109 -137q-136 -111 -346 -111q-71 0 -137 18.5t-110.5 41.5t-91 61.5t-67 60.5t-50.5 56z" />
<glyph unicode="T" horiz-adv-x="1026" d="M14 1247v166h996v-166h-398v-1247h-198v1247h-400z" />
<glyph unicode="U" d="M145 578v835h201v-817q0 -74 3 -119t18 -102t45 -96q91 -125 272 -125q177 0 272 125q30 39 45 96.5t18 102.5t3 118v817h199v-835q0 -148 -23 -249.5t-90 -181.5q-149 -172 -424 -172q-278 0 -424 172q-68 80 -91.5 181t-23.5 250z" />
<glyph unicode="V" horiz-adv-x="1220" d="M2 1413h213l397 -1126l398 1126h209l-521 -1415h-176z" />
<glyph unicode="W" horiz-adv-x="1902" d="M10 1413h209l305 -1114l326 1114h203l325 -1114l305 1114h209l-407 -1415h-195l-340 1143l-338 -1143h-194z" />
<glyph unicode="X" horiz-adv-x="1185" d="M-2 0l467 729l-434 684h233l328 -551l330 551h233l-434 -684l469 -729h-240l-358 600l-356 -600h-238z" />
<glyph unicode="Y" horiz-adv-x="1177" d="M-2 1413h223l367 -649l368 649h224l-492 -821v-592h-199v592z" />
<glyph unicode="Z" horiz-adv-x="1159" d="M61 0v152l773 1093h-750v168h1010v-135l-785 -1108h799v-170h-1047z" />
<glyph unicode="[" horiz-adv-x="581" d="M106 -287v1846h388v-117h-218v-1614h218v-115h-388z" />
<glyph unicode="\" horiz-adv-x="1056" d="M45 1571l123 57l846 -1638l-125 -60z" />
<glyph unicode="]" horiz-adv-x="581" d="M102 -172h217v1614h-217v117h387v-1846h-387v115z" />
<glyph unicode="^" d="M225 614l373 818h170l373 -818h-166l-291 650l-293 -650h-166z" />
<glyph unicode="_" horiz-adv-x="1024" d="M0 76h1024v-154h-1024v154z" />
<glyph unicode="`" horiz-adv-x="686" d="M156 1413h192l182 -297h-149z" />
<glyph unicode="a" horiz-adv-x="1007" d="M53 279q0 138 103 213t278 83l260 11v39q0 107 -66 164t-175 57q-64 0 -131.5 -18t-101.5 -34t-60 -32l-60 131q172 98 365 98q211 0 321 -110q53 -55 79 -126.5t26 -189.5v-565h-191l-2 123q-22 -23 -31 -32t-42.5 -35.5t-62 -40t-76 -26t-97.5 -12.5q-140 0 -238 82.5 t-98 219.5zM248 285q0 -72 54 -120t147 -48q85 0 147.5 43t99.5 98v209l-227 -14q-113 -6 -167 -50.5t-54 -117.5z" />
<glyph unicode="b" horiz-adv-x="1222" d="M145 0v1413h195v-592h4q121 170 340 170q140 0 247.5 -66t164.5 -180.5t57 -257.5q0 -221 -130 -365.5t-343 -144.5q-223 0 -342 177h-4v-154h-189zM332 489q0 -150 84 -247t227 -97t226 97t83 247t-83 246t-226 96t-227 -96t-84 -246z" />
<glyph unicode="c" horiz-adv-x="972" d="M70 485q0 114 41.5 210.5t110.5 160.5t158.5 99.5t186.5 35.5q73 0 138 -14t104 -31t73 -40.5t44 -34t18 -19.5l-70 -143q-118 118 -290 118q-133 0 -224.5 -92.5t-91.5 -242.5q0 -154 88.5 -250.5t229.5 -96.5q53 0 103 12.5t83.5 30.5t59 36.5t37.5 31.5l12 12l69 -143 q-46 -46 -80 -68q-123 -80 -309 -80q-132 0 -243 61t-179.5 178.5t-68.5 268.5z" />
<glyph unicode="d" horiz-adv-x="1222" d="M70 487q0 143 57 257.5t164.5 180.5t247.5 66q114 0 200 -45.5t140 -124.5h4v592h194v-1413h-188v156h-4q-59 -88 -147 -133.5t-195 -45.5q-213 0 -343 144.5t-130 365.5zM270 489q0 -150 83.5 -247t226.5 -97t226 97t83 247t-83 246t-226 96t-226.5 -96t-83.5 -246z" />
<glyph unicode="e" horiz-adv-x="1083" d="M70 487q0 149 67 265.5t179 177.5t247 61q202 0 331.5 -130.5t129.5 -334.5l-6 -86h-750q7 -144 92.5 -226.5t221.5 -82.5q43 0 85.5 7.5t73.5 18.5t61.5 25.5t47.5 25.5t34 23t19 13l82 -113l-8 -7q-8 -8 -17.5 -16.5t-26 -21t-36.5 -24t-45.5 -24.5t-57 -23.5t-67 -19 t-79.5 -13.5t-91 -5q-218 0 -352.5 139.5t-134.5 370.5zM270 571h568q-1 44 -18 90t-49 89.5t-88 71.5t-126 28t-126 -26.5t-89 -69.5t-51.5 -90t-20.5 -93z" />
<glyph unicode="f" horiz-adv-x="561" d="M33 813v158h139v98q0 178 66 260q87 107 233 107q50 0 92 -6t59 -12l17 -5l-12 -145q-56 18 -111 18q-46 0 -77 -16t-46 -47t-20.5 -64t-5.5 -80v-108h231v-158h-231v-813h-195v813h-139z" />
<glyph unicode="g" horiz-adv-x="1214" d="M70 502q0 113 38 206.5t103 154.5t149.5 94.5t178.5 33.5q119 0 206 -48.5t134 -123.5h6l-2 154h194v-768q0 -158 -25.5 -256t-80.5 -164q-152 -186 -434 -186q-225 0 -435 145l93 137q47 -42 148.5 -82.5t199.5 -40.5q99 0 165 31.5t101 75.5q74 89 74 272v49h-4 q-117 -174 -340 -174q-127 0 -232.5 57t-171 170.5t-65.5 262.5zM270 502q0 -143 82.5 -236.5t227.5 -93.5q146 0 227.5 93t81.5 237t-81.5 238t-227.5 94q-145 0 -227.5 -94.5t-82.5 -237.5z" />
<glyph unicode="h" horiz-adv-x="1122" d="M145 0v1413h195v-594h4q40 76 119 124t180 48q82 0 144 -21t100.5 -56.5t62 -89.5t32.5 -112t9 -132v-580h-196v551q0 47 -3.5 83t-16 74.5t-33.5 63.5t-58.5 41t-89.5 16q-127 0 -190.5 -96t-63.5 -252v-481h-195z" />
<glyph unicode="i" horiz-adv-x="483" d="M113 1292q0 53 36 87t93 34q55 0 91 -34t36 -87t-36 -87t-91 -34q-57 0 -93 34t-36 87zM143 0v973h197v-973h-197z" />
<glyph unicode="j" horiz-adv-x="483" d="M-90 -385l2 156q41 -15 92 -15q37 0 63 13.5t40.5 34t23 55.5t10.5 66.5t2 78.5v969h197v-975q0 -194 -61 -279q-90 -120 -246 -120q-36 0 -66.5 4t-43.5 8zM113 1292q0 53 36 87t93 34q55 0 91 -34t36 -87t-36 -87t-91 -34q-57 0 -93 34t-36 87z" />
<glyph unicode="k" horiz-adv-x="997" d="M145 0v1413h195v-829l397 389h230l-381 -367l430 -606h-230l-333 471l-113 -106v-365h-195z" />
<glyph unicode="l" horiz-adv-x="485" d="M145 0v1413h195v-1413h-195z" />
<glyph unicode="m" horiz-adv-x="1671" d="M135 0v973h197l-2 -154h6q36 72 112 122t168 50q221 0 289 -192q103 192 309 192q330 0 330 -401v-590h-194v567q0 262 -179 262q-112 0 -172.5 -92.5t-60.5 -230.5v-506h-197v567q0 58 -8 102t-27 82t-54.5 58t-86.5 20q-112 0 -172.5 -92.5t-60.5 -230.5v-506h-197z " />
<glyph unicode="n" horiz-adv-x="1107" d="M135 0v973h197l-2 -154h6q40 76 118 124t179 48q100 0 170 -31.5t108 -90.5t54 -130t16 -164v-575h-197v543q0 68 -7.5 115t-28 88.5t-62 62t-104.5 20.5q-66 0 -115.5 -26.5t-78 -74t-42.5 -107.5t-14 -132v-489h-197z" />
<glyph unicode="o" horiz-adv-x="1169" d="M70 483q0 223 147.5 365.5t368.5 142.5q144 0 261 -63.5t185 -180.5t68 -264q0 -224 -147 -365t-367 -141q-221 0 -368.5 141t-147.5 365zM268 489q0 -148 86.5 -246t231.5 -98q143 0 229 98t86 246q0 146 -86 244t-229 98q-144 0 -231 -98t-87 -244z" />
<glyph unicode="p" horiz-adv-x="1220" d="M143 -381v1354h189v-154h4q129 172 346 172q212 0 340.5 -142t128.5 -362q0 -221 -130 -365.5t-343 -144.5q-224 0 -336 175l-2 2v-535h-197zM332 489q0 -150 83 -247t226 -97t226 97t83 247t-83 246t-226 96t-226 -96t-83 -246z" />
<glyph unicode="q" horiz-adv-x="1212" d="M70 487q0 220 129 362t340 142q220 0 346 -172h6l-2 154h188v-1354h-194v533h-4q-116 -175 -336 -175q-213 0 -343 144.5t-130 365.5zM270 489q0 -150 83.5 -247t226.5 -97t226 97t83 247t-83 246t-226 96t-226.5 -96t-83.5 -246z" />
<glyph unicode="r" horiz-adv-x="686" d="M135 0v973h197l-2 -150h6q35 82 97.5 125t141.5 43q29 0 55 -4t37 -8l11 -4l-12 -182h-9q-45 20 -106 20q-57 0 -97.5 -26t-62.5 -56q-59 -89 -59 -246v-485h-197z" />
<glyph unicode="s" horiz-adv-x="847" d="M41 152l94 114q53 -65 134 -102t153 -37q78 0 132 33t54 106q0 25 -12.5 47.5t-28.5 36.5t-45 28.5t-46 20.5t-49 16.5t-38 12.5q-18 6 -41 13.5t-34 11.5t-26.5 10.5t-31.5 15.5q-154 78 -154 234q0 129 96 203.5t232 74.5q215 0 332 -127l-82 -121q-44 46 -111 75.5 t-135 29.5q-72 0 -113.5 -31t-41.5 -90q0 -23 11.5 -43t27 -33.5t43.5 -27t50.5 -22t57.5 -19.5q81 -28 131 -47q73 -30 113 -70q78 -74 78 -180q0 -137 -101 -222q-106 -86 -270 -86q-120 0 -218 46.5t-161 128.5z" />
<glyph unicode="t" horiz-adv-x="636" d="M31 813v158h143v291h197v-291h233v-158h-233v-440q0 -73 4 -111.5t20 -66.5q29 -50 101 -50q25 0 50 5.5t38 11.5l12 6l12 -158q-76 -33 -178 -33q-139 0 -207 101q-30 44 -39.5 106.5t-9.5 184.5v444h-143z" />
<glyph unicode="u" horiz-adv-x="1097" d="M127 391v584h195v-576q0 -56 7.5 -97.5t28 -80.5t62 -59.5t104.5 -20.5q121 0 181.5 89t60.5 223v522h197v-975h-191l-2 139q-41 -73 -121 -117.5t-180 -44.5q-183 0 -270 113q-72 97 -72 301z" />
<glyph unicode="v" horiz-adv-x="987" d="M2 973h205l289 -733l286 733h203l-405 -973h-172z" />
<glyph unicode="w" horiz-adv-x="1558" d="M20 973h199l225 -735l256 737h158l256 -737l225 735h199l-321 -973h-181l-256 727l-258 -727h-180z" />
<glyph unicode="x" horiz-adv-x="1015" d="M-2 0l395 512l-350 461h217l248 -350l248 350h219l-352 -461l395 -512h-221l-289 395l-289 -395h-221z" />
<glyph unicode="y" horiz-adv-x="980" d="M2 975l205 -2l289 -756l286 758l203 -2l-469 -1143q-50 -122 -110.5 -173.5t-145.5 -51.5q-48 0 -94 8.5t-68 17.5l-22 9l39 159q53 -22 102 -22q19 0 25.5 0.5t23.5 5.5t27 16t24.5 34.5t26.5 57.5l47 129z" />
<glyph unicode="z" horiz-adv-x="933" d="M43 0v121l569 692h-540v158h790v-119l-567 -690h596v-162h-848z" />
<glyph unicode="{" horiz-adv-x="581" d="M23 561v148q131 0 131 172v370q0 163 55.5 235.5t204.5 72.5h90v-117h-45q-77 0 -107 -29.5t-30 -105.5v-408q0 -89 -18.5 -143t-48 -77.5t-81.5 -39.5v-8q52 -16 81.5 -39t48 -76.5t18.5 -142.5v-410q0 -76 30 -105.5t107 -29.5h45v-115h-90q-149 0 -204.5 71t-55.5 234 v373q0 170 -131 170z" />
<glyph unicode="|" horiz-adv-x="581" d="M219 -244v1882h143v-1882h-143z" />
<glyph unicode="}" horiz-adv-x="581" d="M76 -172h47q77 0 106 29t29 106v410q0 89 18.5 142.5t48.5 76.5t83 39v8q-53 16 -83 39.5t-48.5 77.5t-18.5 143v408q0 77 -29 106t-106 29h-47v117h92q149 0 204.5 -72.5t55.5 -235.5v-370q0 -172 129 -172v-148q-129 0 -129 -170v-373q0 -163 -55.5 -234t-204.5 -71 h-92v115z" />
<glyph unicode="~" d="M158 551q129 207 305 207q46 0 96 -14t76.5 -26.5t71.5 -35.5q43 -22 67.5 -34t63 -24t69.5 -12q110 0 197 144l104 -101q-125 -206 -305 -206q-46 0 -96.5 14t-73.5 24.5t-74 36.5q-6 3 -26.5 13.5t-29.5 14.5t-27.5 12.5t-30 12t-27.5 8.5t-30.5 7t-28.5 2 q-109 0 -197 -143z" />
<glyph unicode="&#xa1;" horiz-adv-x="616" d="M172 866q0 58 38 93.5t99 35.5q59 0 97 -35.5t38 -93.5t-38 -93.5t-97 -35.5q-61 0 -99 35.5t-38 93.5zM207 -440l16 1038h170l19 -1038h-205z" />
<glyph unicode="&#xa2;" horiz-adv-x="1200" d="M156 625q0 206 127 343.5t325 159.5v183h121v-181q96 -6 184 -44t125 -78l-61 -144q-35 37 -101 69.5t-147 39.5v-690q71 1 147 34t111 70l57 -139q-34 -39 -129 -81.5t-186 -45.5v-182h-121v184q-198 21 -325 158.5t-127 343.5zM346 627q0 -127 70 -220t192 -116v676 q-118 -21 -190 -116.5t-72 -223.5z" />
<glyph unicode="&#xa3;" horiz-adv-x="1200" d="M127 0v158h240q28 46 49.5 125.5t21.5 138.5q0 35 -3.5 75.5t-6.5 63.5l-4 23h-236v131h213l-45 127q-47 129 -47 233q0 155 109 256q106 103 282 103q241 0 355 -170l-94 -113q-1 1 -7.5 9.5t-12 15.5t-16 18.5t-21.5 20.5t-26 20t-32 19t-37 15.5t-44 11t-50 3.5 q-112 0 -166.5 -64.5t-54.5 -150.5q0 -103 51 -238l41 -116h307v-131h-285q15 -84 15 -162q0 -59 -22 -138t-50 -126h549v-158h-973z" />
<glyph unicode="&#xa4;" horiz-adv-x="1200" d="M72 510v133l123 2q-2 39 -2 72v69h-121v134h139q17 107 64 204t112 164q140 146 348 146q72 0 134 -14.5t109.5 -42t67.5 -42.5t50 -41l-68 -153q-105 133 -289 133q-123 0 -209.5 -88t-113.5 -266h510v-134h-529v-69l2 -74h527v-133h-510q22 -171 108 -267t217 -96 q58 0 109 15t87.5 40t58.5 44.5t42 41.5q4 5 6 7l82 -131l-8 -10q-7 -10 -13 -17.5t-19.5 -22t-26.5 -26t-33.5 -26.5t-41.5 -26.5t-49.5 -23.5t-58.5 -19.5t-67.5 -12.5t-77.5 -5q-205 0 -343 141t-179 394h-137z" />
<glyph unicode="&#xa5;" horiz-adv-x="1200" d="M35 1413h223l342 -641l344 641h221l-352 -600h250v-133h-324l-41 -82v-70h365v-133h-365v-395h-196v395h-365v133h365v68l-39 84h-326v133h250z" />
<glyph unicode="&#xa6;" horiz-adv-x="581" d="M219 0v639h143v-639h-143zM219 997v641h143v-641h-143z" />
<glyph unicode="&#xa7;" horiz-adv-x="1251" d="M197 -154l129 91q37 -93 118.5 -144t180.5 -51q98 0 157.5 48t59.5 138q0 44 -17.5 80t-55 65t-73.5 49t-94 46l-176 82q-91 43 -147 119.5t-56 179.5q0 68 25.5 125.5t63.5 92.5t67.5 54t52.5 27q-6 4 -16 10.5t-35 31t-44.5 52.5t-35.5 73.5t-16 94.5 q0 149 105.5 236.5t266.5 87.5q281 0 396 -217l-111 -97q-45 87 -117 131.5t-161 44.5q-91 0 -145 -45.5t-54 -128.5q0 -41 16.5 -74t52 -60.5t70.5 -47t92 -45.5l142 -64q97 -46 157 -124.5t60 -192.5q0 -57 -21 -108t-50.5 -82t-59.5 -54.5t-51 -33.5l-21 -9 q69 -36 121.5 -111.5t52.5 -178.5q0 -153 -118 -245.5t-290 -92.5q-310 0 -421 247zM391 571q0 -69 36.5 -111t98.5 -75l211 -92q148 52 148 207q0 122 -137 188l-211 92q-69 -23 -107.5 -78t-38.5 -131z" />
<glyph unicode="&#xa8;" horiz-adv-x="686" d="M78 1264q0 50 31 80t77 30q44 0 75.5 -30.5t31.5 -79.5q0 -48 -31.5 -78.5t-75.5 -30.5q-45 0 -76.5 30.5t-31.5 78.5zM393 1264q0 49 31.5 79.5t75.5 30.5q46 0 77 -30t31 -80q0 -48 -31.5 -78.5t-76.5 -30.5q-44 0 -75.5 30.5t-31.5 78.5z" />
<glyph unicode="&#xa9;" horiz-adv-x="1611" d="M78 707q0 151 56.5 286.5t153.5 232.5t232.5 153.5t286.5 56.5t286 -56.5t232 -153.5t154 -232.5t57 -286.5q0 -202 -96.5 -369.5t-264 -264t-368.5 -96.5q-202 0 -369.5 96.5t-263.5 264t-96 369.5zM174 707q0 -129 50 -246t135 -202t202 -135t246 -50t246 50t202 135 t135 202t50 246q0 172 -85 317.5t-231 230t-317 84.5q-172 0 -318 -84.5t-230.5 -230t-84.5 -317.5zM410 707q0 190 122.5 312t305.5 122q110 0 188.5 -36t120.5 -83l-66 -98q-31 39 -93.5 70.5t-145.5 31.5q-125 0 -210 -83t-85 -232t83 -233.5t212 -84.5q148 0 250 99 l63 -91q-42 -49 -123 -89t-194 -40q-183 0 -305.5 122.5t-122.5 312.5z" />
<glyph unicode="&#xaa;" horiz-adv-x="718" d="M63 561q0 62 35.5 103t86 57t116.5 18l166 6v13q0 64 -41 96.5t-107 32.5q-56 0 -109 -18.5t-71 -34.5l-47 92q39 25 104.5 45t135.5 20q144 0 213 -69q67 -64 67 -203v-334h-141l-2 74q-26 -30 -78.5 -57t-114.5 -27q-52 0 -99 18.5t-80.5 62t-33.5 105.5zM215 567 q0 -45 30.5 -69.5t84.5 -24.5q48 0 85.5 24t51.5 44v121l-135 -5q-53 -3 -85 -25.5t-32 -64.5z" />
<glyph unicode="&#xab;" horiz-adv-x="1001" d="M111 487l305 406l106 -80l-241 -326l243 -329l-108 -76zM453 487l303 406l108 -80l-243 -326l243 -329l-108 -76z" />
<glyph unicode="&#xac;" horiz-adv-x="1370" d="M147 803v151h1072v-612h-152v461h-920z" />
<glyph unicode="&#xad;" horiz-adv-x="598" d="M51 479v164h496v-164h-496z" />
<glyph unicode="&#xae;" horiz-adv-x="1611" d="M78 707q0 151 56.5 286.5t153.5 232.5t232.5 153.5t286.5 56.5t286 -56.5t232 -153.5t154 -232.5t57 -286.5q0 -202 -96.5 -369.5t-264 -264t-368.5 -96.5q-202 0 -369.5 96.5t-263.5 264t-96 369.5zM174 707q0 -129 50 -246t135 -202t202 -135t246 -50q128 0 245 50 t202 135t135.5 202t50.5 246q0 172 -85 317.5t-231 230t-317 84.5q-172 0 -318 -84.5t-230.5 -230t-84.5 -317.5zM541 285v843l290 -2q110 0 187.5 -65t77.5 -178q0 -56 -17.5 -100.5t-47 -70.5t-59.5 -41t-63 -22l228 -364h-158l-203 350h-104v-350h-131zM672 743h112 q177 0 177 138q0 137 -177 137h-112v-275z" />
<glyph unicode="&#xaf;" horiz-adv-x="686" d="M78 1212v113h530v-113h-530z" />
<glyph unicode="&#xb0;" horiz-adv-x="843" d="M106 1196q0 132 92.5 220.5t223.5 88.5t223 -88.5t92 -220.5q0 -133 -92 -222t-223 -89t-223.5 89t-92.5 222zM223 1196q0 -83 57 -142t142 -59t143 59t58 142q0 81 -58 140t-143 59t-142 -59t-57 -140z" />
<glyph unicode="&#xb1;" d="M147 176v150h1072v-150h-1072zM147 811v150h459v399h154v-399h459v-150h-459v-399h-154v399h-459z" />
<glyph unicode="&#xb2;" horiz-adv-x="776" d="M74 1272q13 90 96 154.5t211 64.5q132 0 217.5 -69.5t85.5 -178.5q0 -26 -6 -52.5t-12.5 -46.5t-23 -46t-25 -39t-32.5 -38.5t-31 -33t-34.5 -34t-30.5 -29.5l-210 -209h421v-123h-606l-10 106l324 316q71 71 101 117t30 100q0 61 -45.5 99t-122.5 38q-146 0 -203 -156z " />
<glyph unicode="&#xb3;" horiz-adv-x="776" d="M84 774l98 64q23 -64 77.5 -100t125.5 -36q73 0 125.5 40.5t52.5 105.5q0 69 -50.5 109t-127.5 42h-51v115h59q64 2 107 38.5t43 98.5q0 54 -41.5 88.5t-108.5 34.5q-63 0 -112.5 -31.5t-77.5 -89.5l-82 70q34 77 105.5 122.5t172.5 45.5q120 0 203.5 -64.5t83.5 -166.5 q0 -70 -38.5 -120.5t-104.5 -76.5v-4q74 -20 120 -78.5t46 -134.5q0 -118 -92 -191t-224 -73q-114 0 -195 49t-114 143z" />
<glyph unicode="&#xb4;" horiz-adv-x="686" d="M156 1116l182 297h192l-225 -297h-149z" />
<glyph unicode="&#xb5;" horiz-adv-x="1107" d="M135 -381v1352h195v-549q0 -63 9 -110t31 -86.5t64 -60t103 -20.5q122 0 180.5 77t58.5 208v541h197v-971h-191l-2 131q-35 -54 -111.5 -99.5t-160.5 -45.5q-70 0 -119.5 23t-64.5 54l4 -444h-193z" />
<glyph unicode="&#xb6;" horiz-adv-x="1230" d="M104 991q0 204 119.5 313t341.5 109h549v-141h-106v-1653h-148v1653h-186v-1653h-150v948q-189 3 -304.5 113.5t-115.5 310.5z" />
<glyph unicode="&#xb7;" horiz-adv-x="694" d="M213 592q0 57 37 92t96 35q60 0 97.5 -35t37.5 -92t-37.5 -93t-97.5 -36q-59 0 -96 36t-37 93z" />
<glyph unicode="&#xb8;" horiz-adv-x="716" d="M186 -299l207 299h137l-165 -299h-179z" />
<glyph unicode="&#xb9;" horiz-adv-x="776" d="M217 1360v110h318v-880h-148v770h-170z" />
<glyph unicode="&#xba;" horiz-adv-x="806" d="M84 682q0 135 91.5 222t227.5 87q137 0 228.5 -87t91.5 -222q0 -134 -92 -220.5t-228 -86.5t-227.5 86.5t-91.5 220.5zM229 688q0 -89 50 -140.5t124 -51.5q72 0 122 51.5t50 140.5q0 87 -49.5 136.5t-122.5 49.5q-74 0 -124 -49.5t-50 -136.5z" />
<glyph unicode="&#xbb;" horiz-adv-x="1001" d="M135 815l109 78l305 -406l-305 -405l-107 78l242 327zM477 815l109 78l303 -406l-303 -405l-107 78l242 327z" />
<glyph unicode="&#xbc;" horiz-adv-x="1822" d="M137 1303v110h320v-819h-148v709h-172zM311 14l875 1432l102 -62l-874 -1431zM936 180v90l471 625h137v-596h129v-119h-129v-180h-145v180h-463zM1098 299h301v412z" />
<glyph unicode="&#xbd;" horiz-adv-x="1824" d="M133 1303v110h320v-850h-148v740h-172zM303 14l875 1432l102 -62l-874 -1431zM1073 698q38 77 115 128t190 51q124 0 206.5 -71t82.5 -179q0 -42 -12 -82t-27 -68t-43.5 -62t-46.5 -51.5t-51 -48.5l-203 -190h416v-125h-600l-21 94l295 277q45 43 72 72.5t51.5 74.5 t24.5 86q0 67 -45.5 107.5t-116.5 40.5q-120 0 -205 -140z" />
<glyph unicode="&#xbe;" horiz-adv-x="1822" d="M84 774l98 64q23 -64 77.5 -100t125.5 -36q73 0 125.5 40.5t52.5 105.5q0 69 -50.5 109t-127.5 42h-51v115h59q64 2 107 38.5t43 98.5q0 54 -41.5 88.5t-108.5 34.5q-63 0 -112.5 -31.5t-77.5 -89.5l-82 70q34 77 105.5 122.5t172.5 45.5q120 0 203.5 -64.5t83.5 -166.5 q0 -70 -38.5 -120.5t-104.5 -76.5v-4q74 -20 120 -78.5t46 -134.5q0 -118 -92 -191t-224 -73q-114 0 -195 49t-114 143zM401 14l875 1432l102 -62l-874 -1431zM936 180v90l471 625h137v-596h129v-119h-129v-180h-145v180h-463zM1098 299h301v412z" />
<glyph unicode="&#xbf;" horiz-adv-x="1007" d="M117 -127q0 60 12.5 109t40 90.5t50.5 67t65 65.5q18 17 49 45.5t47 44t33.5 37.5t27.5 43q15 43 15 78l4 143h166l4 -145q1 -58 -9.5 -103.5t-36 -83t-43.5 -57.5t-55 -53l-118 -111q-66 -59 -66 -149q0 -88 63 -139.5t166 -51.5q94 0 163 43.5t106 106.5l88 -123 q-14 -22 -31 -43.5t-51 -49.5t-73.5 -48.5t-100 -35t-129.5 -14.5q-174 0 -280.5 98t-106.5 236zM408 864q0 58 38 93.5t99 35.5q59 0 97 -35.5t38 -93.5t-38 -93.5t-97 -35.5q-61 0 -99 35.5t-38 93.5z" />
<glyph unicode="&#xc0;" horiz-adv-x="1331" d="M2 0l576 1417h174l577 -1417h-221l-145 369h-607l-145 -369h-209zM371 1817h192l182 -297h-149zM412 535h495l-248 634z" />
<glyph unicode="&#xc1;" horiz-adv-x="1331" d="M2 0l576 1417h174l577 -1417h-221l-145 369h-607l-145 -369h-209zM412 535h495l-248 634zM586 1520l182 297h193l-226 -297h-149z" />
<glyph unicode="&#xc2;" horiz-adv-x="1331" d="M2 0l576 1417h174l577 -1417h-221l-145 369h-607l-145 -369h-209zM397 1520l189 297h159l189 -297h-143l-125 202l-125 -202h-144zM412 535h495l-248 634z" />
<glyph unicode="&#xc3;" horiz-adv-x="1331" d="M2 0l576 1417h174l577 -1417h-221l-145 369h-607l-145 -369h-209zM346 1587q4 82 60.5 135.5t128.5 53.5q26 0 52 -6t38.5 -11.5t32.5 -16t22 -11.5q4 -2 28.5 -17t47.5 -24t45 -9q34 0 58 25t30 61l96 -20q-6 -82 -61.5 -135t-126.5 -53q-26 0 -52 6t-39 11.5 t-33.5 16.5t-21.5 11q-3 2 -28.5 17t-48 23.5t-44.5 8.5q-34 0 -58 -25t-30 -61zM412 535h495l-248 634z" />
<glyph unicode="&#xc4;" horiz-adv-x="1331" d="M2 0l576 1417h174l577 -1417h-221l-145 369h-607l-145 -369h-209zM401 1661q0 48 31.5 78t77.5 30q44 0 75 -30t31 -78q0 -50 -31 -80.5t-75 -30.5q-46 0 -77.5 30.5t-31.5 80.5zM412 535h495l-248 634zM715 1661q0 48 30.5 78t75.5 30q46 0 77.5 -30t31.5 -78 q0 -50 -31.5 -80.5t-77.5 -30.5q-45 0 -75.5 30.5t-30.5 80.5z" />
<glyph unicode="&#xc5;" horiz-adv-x="1331" d="M2 0l576 1417h174l577 -1417h-221l-145 369h-607l-145 -369h-209zM412 535h495l-248 634zM461 1683q0 85 59.5 140t145.5 55t145 -55t59 -140t-59 -139.5t-145 -54.5t-145.5 54.5t-59.5 139.5zM559 1683q0 -46 30.5 -77t76.5 -31t76 31t30 77t-30 76.5t-76 30.5 t-76.5 -30.5t-30.5 -76.5z" />
<glyph unicode="&#xc6;" horiz-adv-x="1800" d="M-61 0l888 1413h869v-166h-572v-413h537v-166h-537v-500h588v-168h-786v373h-539l-225 -373h-223zM487 537h439v714h-4z" />
<glyph unicode="&#xc7;" horiz-adv-x="1361" d="M76 705q0 215 96 382.5t260 257t367 89.5q94 0 177 -18t144.5 -48t103.5 -59t76 -62l-83 -160q-50 63 -163 118t-247 55q-231 0 -378.5 -152t-147.5 -399q0 -246 148 -398.5t378 -152.5q134 0 241.5 46.5t180.5 125.5l86 -146q-77 -85 -196.5 -144t-278.5 -63l-131 -284 h-201l170 293q-92 11 -178.5 46t-163.5 96.5t-134.5 143.5t-91.5 193.5t-34 239.5z" />
<glyph unicode="&#xc8;" horiz-adv-x="1087" d="M156 0v1413h827v-166h-629v-422h594v-166h-594v-491h645v-168h-843zM309 1817h193l180 -297h-147z" />
<glyph unicode="&#xc9;" horiz-adv-x="1087" d="M156 0v1413h827v-166h-629v-422h594v-166h-594v-491h645v-168h-843zM432 1520l182 297h191l-225 -297h-148z" />
<glyph unicode="&#xca;" horiz-adv-x="1087" d="M156 0v1413h827v-166h-629v-422h594v-166h-594v-491h645v-168h-843zM301 1520l188 297h160l189 -297h-144l-125 202l-125 -202h-143z" />
<glyph unicode="&#xcb;" horiz-adv-x="1087" d="M156 0v1413h827v-166h-629v-422h594v-166h-594v-491h645v-168h-843zM305 1661q0 48 31.5 78t77.5 30q45 0 75.5 -30t30.5 -78q0 -50 -30.5 -80.5t-75.5 -30.5q-46 0 -77.5 30.5t-31.5 80.5zM618 1661q0 48 31.5 78t77.5 30q45 0 76 -30t31 -78q0 -50 -31 -80.5t-76 -30.5 q-46 0 -77.5 30.5t-31.5 80.5z" />
<glyph unicode="&#xcc;" horiz-adv-x="509" d="M-20 1817h192l182 -297h-149zM156 0v1413h198v-1413h-198z" />
<glyph unicode="&#xcd;" horiz-adv-x="509" d="M156 0v1413h198v-1413h-198zM158 1520l182 297h190l-225 -297h-147z" />
<glyph unicode="&#xce;" horiz-adv-x="509" d="M-12 1520l186 297h162l186 -297h-143l-123 202l-125 -202h-143zM156 0v1413h198v-1413h-198z" />
<glyph unicode="&#xcf;" horiz-adv-x="509" d="M-8 1667q0 50 30.5 80.5t75.5 30.5q46 0 77.5 -30.5t31.5 -80.5q0 -48 -31.5 -78t-77.5 -30q-45 0 -75.5 30t-30.5 78zM156 0v1413h198v-1413h-198zM305 1667q0 49 31.5 80t75.5 31q46 0 77 -30.5t31 -80.5q0 -48 -31 -78t-77 -30q-44 0 -75.5 30t-31.5 78z" />
<glyph unicode="&#xd0;" horiz-adv-x="1404" d="M23 666v147h133v600h426q171 0 306.5 -52.5t221.5 -131.5q219 -202 219 -522q0 -321 -219 -523q-86 -79 -221.5 -131.5t-306.5 -52.5h-426v666h-133zM354 172h228q238 0 376 131q168 159 168 404q0 246 -168 405q-138 131 -376 131h-228v-430h359v-145h-359v-496z" />
<glyph unicode="&#xd1;" horiz-adv-x="1515" d="M156 0v1413h209l800 -1110q-2 175 -2 361v749h195v-1413h-195l-815 1126q4 -190 4 -374v-752h-196zM438 1587q4 82 60 135.5t127 53.5q27 0 53.5 -6t39 -11.5t33 -16t21.5 -11.5q4 -2 28.5 -17t47 -24t43.5 -9q35 0 59.5 25t30.5 61l96 -20q-6 -82 -61.5 -135t-126.5 -53 q-26 0 -52 6t-39 11.5t-33.5 16.5t-21.5 11q-4 2 -28.5 17t-47 23.5t-44.5 8.5q-35 0 -59 -25t-32 -61z" />
<glyph unicode="&#xd2;" horiz-adv-x="1609" d="M76 705q0 166 58 304.5t157.5 230.5t232 143t281.5 51t281.5 -51t232 -143t157.5 -230.5t58 -304.5t-58 -304.5t-157.5 -231t-232 -143.5t-281.5 -51t-281.5 51t-232 143.5t-157.5 231t-58 304.5zM279 709q0 -126 42 -231t113.5 -175t167 -108.5t203.5 -38.5t204 38.5 t167.5 108.5t113 175t41.5 231q0 127 -41.5 232t-113 174.5t-167.5 108t-204 38.5t-204 -38.5t-167.5 -108t-113 -174.5t-41.5 -232zM506 1817h192l181 -297h-148z" />
<glyph unicode="&#xd3;" horiz-adv-x="1609" d="M76 705q0 166 58 304.5t157.5 230.5t232 143t281.5 51t281.5 -51t232 -143t157.5 -230.5t58 -304.5t-58 -304.5t-157.5 -231t-232 -143.5t-281.5 -51t-281.5 51t-232 143.5t-157.5 231t-58 304.5zM279 709q0 -126 42 -231t113.5 -175t167 -108.5t203.5 -38.5t204 38.5 t167.5 108.5t113 175t41.5 231q0 127 -41.5 232t-113 174.5t-167.5 108t-204 38.5t-204 -38.5t-167.5 -108t-113 -174.5t-41.5 -232zM731 1520l182 297h191l-225 -297h-148z" />
<glyph unicode="&#xd4;" horiz-adv-x="1609" d="M76 705q0 166 58 304.5t157.5 230.5t232 143t281.5 51t281.5 -51t232 -143t157.5 -230.5t58 -304.5t-58 -304.5t-157.5 -231t-232 -143.5t-281.5 -51t-281.5 51t-232 143.5t-157.5 231t-58 304.5zM279 709q0 -126 42 -231t113.5 -175t167 -108.5t203.5 -38.5t204 38.5 t167.5 108.5t113 175t41.5 231q0 127 -41.5 232t-113 174.5t-167.5 108t-204 38.5t-204 -38.5t-167.5 -108t-113 -174.5t-41.5 -232zM537 1520l188 297h160l188 -297h-143l-125 202l-125 -202h-143z" />
<glyph unicode="&#xd5;" horiz-adv-x="1609" d="M76 705q0 166 58 304.5t157.5 230.5t232 143t281.5 51t281.5 -51t232 -143t157.5 -230.5t58 -304.5t-58 -304.5t-157.5 -231t-232 -143.5t-281.5 -51t-281.5 51t-232 143.5t-157.5 231t-58 304.5zM279 709q0 -126 42 -231t113.5 -175t167 -108.5t203.5 -38.5t204 38.5 t167.5 108.5t113 175t41.5 231t-41.5 231t-113 175t-167.5 108.5t-204 38.5t-204 -38.5t-167.5 -108t-113 -174.5t-41.5 -232zM485 1587q6 82 62 135.5t127 53.5q26 0 52 -6t38.5 -11.5t32.5 -16t22 -11.5q4 -2 28.5 -17t47.5 -24t45 -9q34 0 58 25t30 61l96 -20 q-4 -82 -60 -135t-128 -53q-26 0 -52 6t-38.5 11.5t-32.5 16t-22 11.5q-3 2 -28.5 17t-48 23.5t-44.5 8.5q-34 0 -58 -25t-30 -61z" />
<glyph unicode="&#xd6;" horiz-adv-x="1609" d="M76 705q0 166 58 304.5t157.5 230.5t232 143t281.5 51t281.5 -51t232 -143t157.5 -230.5t58 -304.5t-58 -304.5t-157.5 -231t-232 -143.5t-281.5 -51t-281.5 51t-232 143.5t-157.5 231t-58 304.5zM279 709q0 -126 42 -231t113.5 -175t167 -108.5t203.5 -38.5t204 38.5 t167.5 108.5t113 175t41.5 231t-41.5 231t-113 175t-167.5 108.5t-204 38.5t-204 -38.5t-167.5 -108t-113 -174.5t-41.5 -232zM541 1661q0 48 31 78t77 30q44 0 75.5 -30t31.5 -78q0 -49 -31.5 -80t-75.5 -31q-46 0 -77 30.5t-31 80.5zM854 1661q0 48 31.5 78t77.5 30 q44 0 75 -30t31 -78q0 -50 -31 -80.5t-75 -30.5q-46 0 -77.5 30.5t-31.5 80.5z" />
<glyph unicode="&#xd7;" d="M166 295l409 410l-409 409l104 111l414 -412l412 412l106 -111l-409 -409l409 -410l-106 -111l-412 412l-414 -412z" />
<glyph unicode="&#xd8;" horiz-adv-x="1609" d="M76 705q0 166 58 304.5t157.5 230.5t232 143t281.5 51q270 0 469 -154l162 166l98 -98l-162 -166q162 -192 162 -477q0 -166 -58 -304.5t-157 -231t-231.5 -143.5t-282.5 -51q-269 0 -467 156l-160 -164l-98 99l158 161q-162 196 -162 478zM279 709q0 -198 100 -338 l764 776q-143 115 -338 115q-108 0 -204 -38.5t-167.5 -108t-113 -174.5t-41.5 -232zM473 268q143 -112 332 -112q108 0 204 38.5t167.5 108.5t113 175t41.5 231q0 193 -96 335z" />
<glyph unicode="&#xd9;" d="M145 578v835h201v-817q0 -74 3 -119t18 -102t45 -96q91 -125 272 -125q177 0 272 125q30 39 45 96.5t18 102.5t3 118v817h199v-835q0 -148 -23 -249.5t-90 -181.5q-149 -172 -424 -172q-278 0 -424 172q-68 80 -91.5 181t-23.5 250zM422 1817h192l183 -297h-150z" />
<glyph unicode="&#xda;" d="M145 578v835h201v-817q0 -74 3 -119t18 -102t45 -96q91 -125 272 -125q177 0 272 125q30 39 45 96.5t18 102.5t3 118v817h199v-835q0 -148 -23 -249.5t-90 -181.5q-149 -172 -424 -172q-278 0 -424 172q-68 80 -91.5 181t-23.5 250zM571 1520l181 297h192l-225 -297h-148 z" />
<glyph unicode="&#xdb;" d="M145 578v835h201v-817q0 -74 3 -119t18 -102t45 -96q91 -125 272 -125q177 0 272 125q30 39 45 96.5t18 102.5t3 118v817h199v-835q0 -148 -23 -249.5t-90 -181.5q-149 -172 -424 -172q-278 0 -424 172q-68 80 -91.5 181t-23.5 250zM416 1520l186 297h162l186 -297h-143 l-123 202l-125 -202h-143z" />
<glyph unicode="&#xdc;" d="M145 578v835h201v-817q0 -74 3 -119t18 -102t45 -96q91 -125 272 -125q177 0 272 125q30 39 45 96.5t18 102.5t3 118v817h199v-835q0 -148 -23 -249.5t-90 -181.5q-149 -172 -424 -172q-278 0 -424 172q-68 80 -91.5 181t-23.5 250zM420 1661q0 48 30.5 78t75.5 30 q46 0 77.5 -30t31.5 -78q0 -50 -31.5 -80.5t-77.5 -30.5q-45 0 -75.5 30.5t-30.5 80.5zM733 1661q0 48 31.5 78t75.5 30q46 0 77 -30t31 -78q0 -50 -31 -80.5t-77 -30.5q-44 0 -75.5 31t-31.5 80z" />
<glyph unicode="&#xdd;" horiz-adv-x="1177" d="M-2 1413h223l367 -649l368 649h224l-492 -821v-592h-199v592zM475 1520l182 297h191l-225 -297h-148z" />
<glyph unicode="&#xde;" horiz-adv-x="1079" d="M156 0v1413h198v-266h181q225 0 344 -100q135 -119 135 -304q0 -187 -135 -303q-119 -100 -344 -100h-181v-340h-198zM354 500h162q128 0 205 55q88 64 88 188q0 62 -24 111t-64 76q-73 55 -205 55h-162v-485z" />
<glyph unicode="&#xdf;" horiz-adv-x="1144" d="M145 0v915q0 207 31 287q38 102 123 160q102 72 264 72q170 0 273.5 -91.5t103.5 -224.5q0 -117 -62 -194t-128 -88v-5q131 -20 228 -130t97 -277q0 -201 -136 -319.5t-364 -118.5q-26 0 -55 3t-45 6l-16 3l12 154q39 -11 96 -11q59 0 112.5 17t99 50.5t73 91.5t27.5 132 q0 148 -91.5 225.5t-242.5 77.5h-62v150h58q106 0 162.5 56.5t56.5 156.5q0 92 -64 142t-149 50q-111 0 -166 -78q-22 -34 -31.5 -79t-9.5 -127v-1006h-195z" />
<glyph unicode="&#xe0;" horiz-adv-x="1007" d="M53 279q0 138 103 213t278 83l260 11v39q0 107 -66 164t-175 57q-64 0 -131.5 -18t-101.5 -34t-60 -32l-60 131q172 98 365 98q211 0 321 -110q53 -55 79 -126.5t26 -189.5v-565h-191l-2 123q-22 -23 -31 -32t-42.5 -35.5t-62 -40t-76 -26t-97.5 -12.5q-140 0 -238 82.5 t-98 219.5zM219 1413h193l180 -297h-148zM248 285q0 -72 54 -120t147 -48q85 0 147.5 43t99.5 98v209l-227 -14q-113 -6 -167 -50.5t-54 -117.5z" />
<glyph unicode="&#xe1;" horiz-adv-x="1007" d="M53 279q0 138 103 213t278 83l260 11v39q0 107 -66 164t-175 57q-64 0 -131.5 -18t-101.5 -34t-60 -32l-60 131q172 98 365 98q211 0 321 -110q53 -55 79 -126.5t26 -189.5v-565h-191l-2 123q-22 -23 -31 -32t-42.5 -35.5t-62 -40t-76 -26t-97.5 -12.5q-140 0 -238 82.5 t-98 219.5zM248 285q0 -72 54 -120t147 -48q85 0 147.5 43t99.5 98v209l-227 -14q-113 -6 -167 -50.5t-54 -117.5zM358 1116l183 297h190l-225 -297h-148z" />
<glyph unicode="&#xe2;" horiz-adv-x="1007" d="M53 279q0 138 103 213t278 83l260 11v39q0 107 -66 164t-175 57q-64 0 -131.5 -18t-101.5 -34t-60 -32l-60 131q172 98 365 98q211 0 321 -110q53 -55 79 -126.5t26 -189.5v-565h-191l-2 123q-22 -23 -31 -32t-42.5 -35.5t-62 -40t-76 -26t-97.5 -12.5q-140 0 -238 82.5 t-98 219.5zM213 1116l186 297h162l187 -297h-144l-125 205l-123 -205h-143zM248 285q0 -72 54 -120t147 -48q85 0 147.5 43t99.5 98v209l-227 -14q-113 -6 -167 -50.5t-54 -117.5z" />
<glyph unicode="&#xe3;" horiz-adv-x="1007" d="M53 279q0 138 103 213t278 83l260 11v39q0 107 -66 164t-175 57q-64 0 -131.5 -18t-101.5 -34t-60 -32l-60 131q172 98 365 98q211 0 321 -110q53 -55 79 -126.5t26 -189.5v-565h-191l-2 123q-22 -23 -31 -32t-42.5 -35.5t-62 -40t-76 -26t-97.5 -12.5q-140 0 -238 82.5 t-98 219.5zM188 1190q6 82 62 136t127 54q27 0 53 -6t39.5 -12.5t32.5 -17t22 -11.5q4 -2 21 -12t30 -17t32.5 -13.5t35.5 -6.5q35 0 59.5 25t30.5 61l96 -20q-6 -82 -61.5 -135.5t-126.5 -53.5q-26 0 -52 6t-38.5 11.5t-32.5 16t-22 11.5q-4 2 -22 13.5t-30 18t-32 13 t-37 6.5q-35 0 -58.5 -25t-31.5 -63zM248 285q0 -72 54 -120t147 -48q85 0 147.5 43t99.5 98v209l-227 -14q-113 -6 -167 -50.5t-54 -117.5z" />
<glyph unicode="&#xe4;" horiz-adv-x="1007" d="M53 279q0 138 103 213t278 83l260 11v39q0 107 -66 164t-175 57q-64 0 -131.5 -18t-101.5 -34t-60 -32l-60 131q172 98 365 98q211 0 321 -110q53 -55 79 -126.5t26 -189.5v-565h-191l-2 123q-22 -23 -31 -32t-42.5 -35.5t-62 -40t-76 -26t-97.5 -12.5q-140 0 -238 82.5 t-98 219.5zM213 1264q0 50 31.5 80t77.5 30q45 0 75.5 -30t30.5 -80q0 -49 -30.5 -79t-75.5 -30q-46 0 -77.5 30.5t-31.5 78.5zM248 285q0 -72 54 -120t147 -48q85 0 147.5 43t99.5 98v209l-227 -14q-113 -6 -167 -50.5t-54 -117.5zM526 1264q0 49 31.5 79.5t75.5 30.5 q46 0 77 -30t31 -80q0 -48 -31.5 -78.5t-76.5 -30.5q-44 0 -75.5 30.5t-31.5 78.5z" />
<glyph unicode="&#xe5;" horiz-adv-x="1007" d="M53 279q0 138 103 213t278 83l260 11v39q0 107 -66 164t-175 57q-64 0 -131.5 -18t-101.5 -34t-60 -32l-60 131q172 98 365 98q211 0 321 -110q53 -55 79 -126.5t26 -189.5v-565h-191l-2 123q-22 -23 -31 -32t-42.5 -35.5t-62 -40t-76 -26t-97.5 -12.5q-140 0 -238 82.5 t-98 219.5zM248 285q0 -72 54 -120t147 -48q85 0 147.5 43t99.5 98v209l-227 -14q-113 -6 -167 -50.5t-54 -117.5zM274 1305q0 84 59 139t146 55q86 0 144.5 -55t58.5 -139t-58.5 -139.5t-144.5 -55.5q-87 0 -146 55.5t-59 139.5zM373 1305q0 -45 30 -77t76 -32q45 0 75 32 t30 77t-30 75.5t-75 30.5q-47 0 -76.5 -30.5t-29.5 -75.5z" />
<glyph unicode="&#xe6;" horiz-adv-x="1703" d="M53 279q0 140 103.5 215t281.5 81l256 11v41q0 106 -65.5 162.5t-175.5 56.5q-64 0 -131.5 -18t-101.5 -34t-60 -32l-60 131q172 98 365 98q188 0 283 -88q24 -22 41 -44.5t23 -34.5l5 -11q59 85 154.5 131.5t212.5 46.5q202 0 330 -131t128 -334l-4 -86h-751 q7 -142 92.5 -225.5t222.5 -83.5q51 0 99 10t86 26.5t63.5 30.5t48.5 29.5t25 16.5l82 -113q-1 0 -12.5 -11.5t-28 -24t-42 -29.5t-60 -32t-75.5 -28t-96 -21t-114 -8q-69 0 -130.5 15.5t-100 35t-75 50t-51 47t-32.5 40.5q-5 6 -7 9q-81 -98 -170.5 -147.5t-220.5 -49.5 q-145 0 -241.5 83t-96.5 219zM248 285q0 -72 53 -120t145 -48q90 0 169 51.5t110 112.5q-31 80 -31 186l-225 -14q-115 -6 -168 -51.5t-53 -116.5zM891 571h565q0 43 -16.5 90t-48 90t-87.5 71t-126 28t-126.5 -26.5t-90 -69.5t-51 -90t-19.5 -93z" />
<glyph unicode="&#xe7;" horiz-adv-x="972" d="M70 485q0 114 41.5 210.5t110.5 160.5t158.5 99.5t186.5 35.5q73 0 138 -14t104 -31t73 -40.5t44 -34t18 -19.5l-70 -143q-118 118 -290 118q-133 0 -224.5 -92.5t-91.5 -242.5q0 -154 88.5 -250.5t229.5 -96.5q53 0 103 12.5t83.5 30.5t59 36.5t37.5 31.5l12 12l69 -143 q-1 -1 -12.5 -12t-19 -18t-25 -20.5t-33.5 -23t-41.5 -22t-51 -20.5t-60.5 -15.5t-72 -11.5l-152 -279h-192l194 281q-178 26 -296.5 161.5t-118.5 339.5z" />
<glyph unicode="&#xe8;" horiz-adv-x="1083" d="M70 487q0 149 67 265.5t179 177.5t247 61q202 0 331.5 -130.5t129.5 -334.5l-6 -86h-750q7 -144 92.5 -226.5t221.5 -82.5q43 0 85.5 7.5t73.5 18.5t61.5 25.5t47.5 25.5t34 23t19 13l82 -113l-8 -7q-8 -8 -17.5 -16.5t-26 -21t-36.5 -24t-45.5 -24.5t-57 -23.5t-67 -19 t-79.5 -13.5t-91 -5q-218 0 -352.5 139.5t-134.5 370.5zM270 571h568q-1 44 -18 90t-49 89.5t-88 71.5t-126 28t-126 -26.5t-89 -69.5t-51.5 -90t-20.5 -93zM299 1413h193l182 -297h-150z" />
<glyph unicode="&#xe9;" horiz-adv-x="1083" d="M70 487q0 149 67 265.5t179 177.5t247 61q202 0 331.5 -130.5t129.5 -334.5l-6 -86h-750q7 -144 92.5 -226.5t221.5 -82.5q43 0 85.5 7.5t73.5 18.5t61.5 25.5t47.5 25.5t34 23t19 13l82 -113l-8 -7q-8 -8 -17.5 -16.5t-26 -21t-36.5 -24t-45.5 -24.5t-57 -23.5t-67 -19 t-79.5 -13.5t-91 -5q-218 0 -352.5 139.5t-134.5 370.5zM270 571h568q-1 44 -18 90t-49 89.5t-88 71.5t-126 28t-126 -26.5t-89 -69.5t-51.5 -90t-20.5 -93zM446 1116l183 297h192l-225 -297h-150z" />
<glyph unicode="&#xea;" horiz-adv-x="1083" d="M70 487q0 149 67 265.5t179 177.5t247 61q202 0 331.5 -130.5t129.5 -334.5l-6 -86h-750q7 -144 92.5 -226.5t221.5 -82.5q43 0 85.5 7.5t73.5 18.5t61.5 25.5t47.5 25.5t34 23t19 13l82 -113l-8 -7q-8 -8 -17.5 -16.5t-26 -21t-36.5 -24t-45.5 -24.5t-57 -23.5t-67 -19 t-79.5 -13.5t-91 -5q-218 0 -352.5 139.5t-134.5 370.5zM270 571h568q-1 44 -18 90t-49 89.5t-88 71.5t-126 28t-126 -26.5t-89 -69.5t-51.5 -90t-20.5 -93zM293 1116l186 297h162l186 -297h-143l-123 205l-125 -205h-143z" />
<glyph unicode="&#xeb;" horiz-adv-x="1083" d="M70 487q0 149 67 265.5t179 177.5t247 61q202 0 331.5 -130.5t129.5 -334.5l-6 -86h-750q7 -144 92.5 -226.5t221.5 -82.5q43 0 85.5 7.5t73.5 18.5t61.5 25.5t47.5 25.5t34 23t19 13l82 -113l-8 -7q-8 -8 -17.5 -16.5t-26 -21t-36.5 -24t-45.5 -24.5t-57 -23.5t-67 -19 t-79.5 -13.5t-91 -5q-218 0 -352.5 139.5t-134.5 370.5zM270 571h568q-1 44 -18 90t-49 89.5t-88 71.5t-126 28t-126 -26.5t-89 -69.5t-51.5 -90t-20.5 -93zM299 1264q0 50 31.5 80t77.5 30q45 0 75.5 -30t30.5 -80q0 -49 -30.5 -79t-75.5 -30q-46 0 -77.5 30.5t-31.5 78.5z M612 1264q0 49 31.5 79.5t75.5 30.5q46 0 77 -30t31 -80q0 -48 -31.5 -78.5t-76.5 -30.5q-44 0 -75.5 30.5t-31.5 78.5z" />
<glyph unicode="&#xec;" horiz-adv-x="483" d="M-35 1413h193l182 -297h-150zM143 0v973h197v-973h-197z" />
<glyph unicode="&#xed;" horiz-adv-x="483" d="M143 0v973h197v-973h-197zM143 1116l183 297h190l-225 -297h-148z" />
<glyph unicode="&#xee;" horiz-adv-x="483" d="M-27 1116l189 297h160l188 -297h-143l-125 205l-125 -205h-144zM143 0v973h197v-973h-197z" />
<glyph unicode="&#xef;" horiz-adv-x="483" d="M-23 1264q0 50 31.5 80t77.5 30q44 0 75.5 -30.5t31.5 -79.5q0 -48 -31.5 -78.5t-75.5 -30.5q-46 0 -77.5 30.5t-31.5 78.5zM143 0v973h197v-973h-197zM291 1264q0 50 30.5 80t75.5 30q46 0 77.5 -30t31.5 -80q0 -48 -31.5 -78.5t-77.5 -30.5q-45 0 -75.5 30t-30.5 79z " />
<glyph unicode="&#xf0;" horiz-adv-x="1169" d="M70 475q0 104 40.5 196t108 155.5t155.5 100t181 36.5q167 0 272 -97q-93 183 -280 348l-238 -147l-57 92l207 129q-108 84 -201 142l129 88q117 -72 215 -150l248 154l57 -95l-217 -135q123 -105 205 -223q41 -57 71 -108t63 -126t51 -167t18 -193q0 -214 -148.5 -356 t-369.5 -142q-220 0 -365 141.5t-145 356.5zM268 479q0 -144 89 -239t227 -95t226.5 95t88.5 239t-88.5 240t-226.5 96t-227 -96t-89 -240z" />
<glyph unicode="&#xf1;" horiz-adv-x="1107" d="M135 0v973h197l-2 -154h6q40 76 118 124t179 48q100 0 170 -31.5t108 -90.5t54 -130t16 -164v-575h-197v543q0 68 -7.5 115t-28 88.5t-62 62t-104.5 20.5q-66 0 -115.5 -26.5t-78 -74t-42.5 -107.5t-14 -132v-489h-197zM231 1190q6 82 62 136t127 54q26 0 51.5 -6 t39.5 -12.5t32.5 -16.5t21.5 -12t28.5 -17t48 -23.5t44.5 -8.5q35 0 58.5 24.5t31.5 61.5l96 -20q-6 -82 -61.5 -135.5t-126.5 -53.5q-27 0 -53.5 6t-39 11.5t-33 16t-21.5 11.5q-2 1 -16 10t-23 14.5t-23.5 12.5t-29 10.5t-27.5 3.5q-35 0 -59.5 -25.5t-30.5 -62.5z" />
<glyph unicode="&#xf2;" horiz-adv-x="1169" d="M70 483q0 223 147.5 365.5t368.5 142.5q144 0 261 -63.5t185 -180.5t68 -264q0 -224 -147 -365t-367 -141q-221 0 -368.5 141t-147.5 365zM268 489q0 -148 86.5 -246t231.5 -98q143 0 229 98t86 246q0 146 -86 244t-229 98q-144 0 -231 -98t-87 -244zM322 1413h192 l180 -297h-147z" />
<glyph unicode="&#xf3;" horiz-adv-x="1169" d="M70 483q0 223 147.5 365.5t368.5 142.5q144 0 261 -63.5t185 -180.5t68 -264q0 -224 -147 -365t-367 -141q-221 0 -368.5 141t-147.5 365zM268 489q0 -148 86.5 -246t231.5 -98q143 0 229 98t86 246q0 146 -86 244t-229 98q-144 0 -231 -98t-87 -244zM475 1116l182 297 h191l-225 -297h-148z" />
<glyph unicode="&#xf4;" horiz-adv-x="1169" d="M70 483q0 223 147.5 365.5t368.5 142.5q144 0 261 -63.5t185 -180.5t68 -264q0 -224 -147 -365t-367 -141q-221 0 -368.5 141t-147.5 365zM268 489q0 -148 86.5 -246t231.5 -98q143 0 229 98t86 246q0 146 -86 244t-229 98q-144 0 -231 -98t-87 -244zM317 1116l187 297 h162l186 -297h-143l-123 205l-125 -205h-144z" />
<glyph unicode="&#xf5;" horiz-adv-x="1169" d="M70 483q0 223 147.5 365.5t368.5 142.5q144 0 261 -63.5t185 -180.5t68 -264q0 -224 -147 -365t-367 -141q-221 0 -368.5 141t-147.5 365zM264 1190q6 82 62 136t127 54q22 0 42 -3.5t36.5 -10t27.5 -11.5t23.5 -12.5t15.5 -9.5t28.5 -17t48 -23.5t44.5 -8.5 q35 0 59.5 25t30.5 61l96 -20q-6 -82 -61.5 -135.5t-126.5 -53.5q-27 0 -53 6t-39 11.5t-32.5 16t-21.5 11.5q-4 2 -21.5 13t-30 18t-32 13.5t-36.5 6.5q-35 0 -59 -25t-32 -63zM268 489q0 -148 86.5 -246t231.5 -98q143 0 229 98t86 246q0 146 -86 244t-229 98 q-144 0 -231 -98t-87 -244z" />
<glyph unicode="&#xf6;" horiz-adv-x="1169" d="M70 483q0 223 147.5 365.5t368.5 142.5q144 0 261 -63.5t185 -180.5t68 -264q0 -224 -147 -365t-367 -141q-221 0 -368.5 141t-147.5 365zM268 489q0 -148 86.5 -246t231.5 -98q143 0 229 98t86 246q0 146 -86 244t-229 98q-144 0 -231 -98t-87 -244zM322 1264 q0 49 31 79.5t75 30.5q46 0 77.5 -30t31.5 -80q0 -48 -31.5 -78.5t-77.5 -30.5q-44 0 -75 30.5t-31 78.5zM633 1264q0 50 31 80t77 30t76.5 -30t30.5 -80q0 -48 -31 -78.5t-76 -30.5t-76.5 30.5t-31.5 78.5z" />
<glyph unicode="&#xf7;" d="M147 631v151h1072v-151h-1072zM557 369q0 54 37 90.5t90 36.5q52 0 88.5 -37t36.5 -90t-36.5 -89t-88.5 -36q-53 0 -90 36.5t-37 88.5zM557 1044q0 51 37.5 88t89.5 37t88.5 -37t36.5 -88q0 -53 -36.5 -89.5t-88.5 -36.5q-53 0 -90 37t-37 89z" />
<glyph unicode="&#xf8;" horiz-adv-x="1169" d="M55 45l119 121q-104 132 -104 317q0 223 147.5 365.5t368.5 142.5q179 0 319 -100l121 121l88 -86l-121 -121q107 -132 107 -322q0 -224 -146.5 -365t-367.5 -141q-187 0 -324 103l-121 -119zM268 489q0 -104 45 -186l467 465q-78 63 -194 63q-145 0 -231.5 -97 t-86.5 -245zM391 209q80 -64 195 -64q143 0 229 98t86 246q0 104 -43 183z" />
<glyph unicode="&#xf9;" horiz-adv-x="1097" d="M127 391v584h195v-576q0 -56 7.5 -97.5t28 -80.5t62 -59.5t104.5 -20.5q121 0 181.5 89t60.5 223v522h197v-975h-191l-2 139q-41 -73 -121 -117.5t-180 -44.5q-183 0 -270 113q-72 97 -72 301zM270 1413h193l180 -297h-147z" />
<glyph unicode="&#xfa;" horiz-adv-x="1097" d="M127 391v584h195v-576q0 -56 7.5 -97.5t28 -80.5t62 -59.5t104.5 -20.5q121 0 181.5 89t60.5 223v522h197v-975h-191l-2 139q-41 -73 -121 -117.5t-180 -44.5q-183 0 -270 113q-72 97 -72 301zM442 1116l183 297h192l-225 -297h-150z" />
<glyph unicode="&#xfb;" horiz-adv-x="1097" d="M127 391v584h195v-576q0 -56 7.5 -97.5t28 -80.5t62 -59.5t104.5 -20.5q121 0 181.5 89t60.5 223v522h197v-975h-191l-2 139q-41 -73 -121 -117.5t-180 -44.5q-183 0 -270 113q-72 97 -72 301zM276 1116l189 297h160l188 -297h-143l-125 205l-125 -205h-144z" />
<glyph unicode="&#xfc;" horiz-adv-x="1097" d="M127 391v584h195v-576q0 -56 7.5 -97.5t28 -80.5t62 -59.5t104.5 -20.5q121 0 181.5 89t60.5 223v522h197v-975h-191l-2 139q-41 -73 -121 -117.5t-180 -44.5q-183 0 -270 113q-72 97 -72 301zM281 1264q0 50 31 80t77 30t76.5 -30t30.5 -80q0 -48 -31 -78.5t-76 -30.5 t-76.5 30.5t-31.5 78.5zM594 1264q0 49 31 79.5t75 30.5q46 0 77.5 -30t31.5 -80q0 -48 -31.5 -78.5t-77.5 -30.5q-44 0 -75 30.5t-31 78.5z" />
<glyph unicode="&#xfd;" horiz-adv-x="980" d="M2 975l205 -2l289 -756l286 758l203 -2l-469 -1143q-50 -122 -110.5 -173.5t-145.5 -51.5q-48 0 -94 8.5t-68 17.5l-22 9l39 159q53 -22 102 -22q19 0 25.5 0.5t23.5 5.5t27 16t24.5 34.5t26.5 57.5l47 129zM383 1116l182 297h193l-226 -297h-149z" />
<glyph unicode="&#xfe;" horiz-adv-x="1222" d="M145 -381v1794h195v-592h4q55 79 141.5 124.5t198.5 45.5q140 0 247.5 -66t164.5 -180.5t57 -257.5q0 -221 -130 -365.5t-343 -144.5q-220 0 -336 175h-4v-533h-195zM332 489q0 -150 84 -247t227 -97t226 97t83 247t-83 246t-226 96t-227 -96t-84 -246z" />
<glyph unicode="&#xff;" horiz-adv-x="980" d="M2 975l205 -2l289 -756l286 758l203 -2l-469 -1143q-50 -122 -110.5 -173.5t-145.5 -51.5q-48 0 -94 8.5t-68 17.5l-22 9l39 159q53 -22 102 -22q19 0 25.5 0.5t23.5 5.5t27 16t24.5 34.5t26.5 57.5l47 129zM231 1272q0 50 31.5 80t77.5 30q44 0 75 -30.5t31 -79.5 q0 -48 -31 -79.5t-75 -31.5q-45 0 -77 31.5t-32 79.5zM545 1272q0 50 30.5 80t75.5 30q46 0 77.5 -30t31.5 -80q0 -48 -32 -79.5t-77 -31.5t-75.5 31t-30.5 80z" />
<glyph unicode="&#x100;" horiz-adv-x="1331" d="M2 0l576 1417h174l577 -1417h-221l-145 369h-607l-145 -369h-209zM395 1651v112h531v-112h-531zM412 535h495l-248 634z" />
<glyph unicode="&#x101;" horiz-adv-x="1007" d="M53 279q0 138 103 213t278 83l260 11v39q0 107 -66 164t-175 57q-64 0 -131.5 -18t-101.5 -34t-60 -32l-60 131q172 98 365 98q211 0 321 -110q53 -55 79 -126.5t26 -189.5v-565h-191l-2 123q-22 -23 -31 -32t-42.5 -35.5t-62 -40t-76 -26t-97.5 -12.5q-140 0 -238 82.5 t-98 219.5zM223 1212v113h531v-113h-531zM248 285q0 -72 54 -120t147 -48q85 0 147.5 43t99.5 98v209l-227 -14q-113 -6 -167 -50.5t-54 -117.5z" />
<glyph unicode="&#x102;" horiz-adv-x="1331" d="M2 0l576 1417h174l577 -1417h-221l-145 369h-607l-145 -369h-209zM356 1829h99q35 -133 204 -133q173 0 205 133h101q-17 -124 -97.5 -188t-208.5 -64q-127 0 -206.5 64t-96.5 188zM412 535h495l-248 634z" />
<glyph unicode="&#x103;" horiz-adv-x="1007" d="M53 279q0 138 103 213t278 83l260 11v39q0 107 -66 164t-175 57q-64 0 -131.5 -18t-101.5 -34t-60 -32l-60 131q172 98 365 98q211 0 321 -110q53 -55 79 -126.5t26 -189.5v-565h-191l-2 123q-22 -23 -31 -32t-42.5 -35.5t-62 -40t-76 -26t-97.5 -12.5q-140 0 -238 82.5 t-98 219.5zM178 1391h98q18 -69 72.5 -101.5t132.5 -32.5q80 0 134.5 32.5t70.5 101.5h100q-17 -124 -97 -188t-208 -64q-127 0 -206.5 64t-96.5 188zM248 285q0 -72 54 -120t147 -48q85 0 147.5 43t99.5 98v209l-227 -14q-113 -6 -167 -50.5t-54 -117.5z" />
<glyph unicode="&#x104;" horiz-adv-x="1331" d="M2 0l576 1417h174l577 -1417q-118 -20 -183 -84.5t-65 -128.5q0 -53 35 -79.5t86 -26.5q66 0 141 45l31 -64q-4 -4 -11 -9.5t-29 -21t-45.5 -27t-58.5 -21t-69 -9.5q-92 0 -151.5 49.5t-59.5 134.5q0 133 158 242l-145 369h-607l-145 -369h-209zM412 535h495l-248 634z " />
<glyph unicode="&#x105;" horiz-adv-x="1007" d="M53 279q0 138 103 213t278 83l260 11v39q0 107 -66 164t-175 57q-64 0 -131.5 -18t-101.5 -34t-60 -32l-60 131q172 98 365 98q211 0 321 -110q53 -55 79 -126.5t26 -189.5v-565q-97 -26 -156 -89.5t-59 -123.5q0 -53 35 -79.5t86 -26.5q66 0 141 45l31 -64 q-4 -4 -11 -9.5t-29 -21t-45.5 -27t-58.5 -21t-69 -9.5q-92 0 -151.5 49.5t-59.5 134.5q0 130 155 242l-2 123q-22 -23 -31 -32t-42.5 -35.5t-62 -40t-76 -26t-97.5 -12.5q-140 0 -238 82.5t-98 219.5zM248 285q0 -72 54 -120t147 -48q85 0 147.5 43t99.5 98v209l-227 -14 q-113 -6 -167 -50.5t-54 -117.5z" />
<glyph unicode="&#x106;" horiz-adv-x="1361" d="M76 705q0 215 96 382.5t260 257t367 89.5q94 0 177 -18t144.5 -48t103.5 -59t76 -62l-83 -160q-50 63 -163 118t-247 55q-231 0 -378.5 -152t-147.5 -399q0 -246 148 -398.5t378 -152.5q134 0 241.5 46.5t180.5 125.5l86 -146q-188 -209 -516 -209q-205 0 -369.5 90 t-259 257t-94.5 383zM629 1554l182 297h193l-226 -297h-149z" />
<glyph unicode="&#x107;" horiz-adv-x="972" d="M70 485q0 114 41.5 210.5t110.5 160.5t158.5 99.5t186.5 35.5q73 0 138 -14t104 -31t73 -40.5t44 -34t18 -19.5l-70 -143q-118 118 -290 118q-133 0 -224.5 -92.5t-91.5 -242.5q0 -154 88.5 -250.5t229.5 -96.5q53 0 103 12.5t83.5 30.5t59 36.5t37.5 31.5l12 12l69 -143 q-46 -46 -80 -68q-123 -80 -309 -80q-132 0 -243 61t-179.5 178.5t-68.5 268.5zM383 1116l182 297h193l-226 -297h-149z" />
<glyph unicode="&#x108;" horiz-adv-x="1361" d="M76 705q0 215 96 382.5t260 257t367 89.5q94 0 177 -18t144.5 -48t103.5 -59t76 -62l-83 -160q-50 63 -163 118t-247 55q-231 0 -378.5 -152t-147.5 -399q0 -246 148 -398.5t378 -152.5q134 0 241.5 46.5t180.5 125.5l86 -146q-188 -209 -516 -209q-205 0 -369.5 90 t-259 257t-94.5 383zM487 1554l187 297h162l186 -297h-143l-125 205l-123 -205h-144z" />
<glyph unicode="&#x109;" horiz-adv-x="972" d="M70 485q0 114 41.5 210.5t110.5 160.5t158.5 99.5t186.5 35.5q73 0 138 -14t104 -31t73 -40.5t44 -34t18 -19.5l-70 -143q-118 118 -290 118q-133 0 -224.5 -92.5t-91.5 -242.5q0 -154 88.5 -250.5t229.5 -96.5q53 0 103 12.5t83.5 30.5t59 36.5t37.5 31.5l12 12l69 -143 q-46 -46 -80 -68q-123 -80 -309 -80q-132 0 -243 61t-179.5 178.5t-68.5 268.5zM279 1116l186 297h162l186 -297h-143l-125 205l-123 -205h-143z" />
<glyph unicode="&#x10a;" horiz-adv-x="1361" d="M76 705q0 215 96 382.5t260 257t367 89.5q94 0 177 -18t144.5 -48t103.5 -59t76 -62l-83 -160q-50 63 -163 118t-247 55q-231 0 -378.5 -152t-147.5 -399q0 -246 148 -398.5t378 -152.5q134 0 241.5 46.5t180.5 125.5l86 -146q-188 -209 -516 -209q-205 0 -369.5 90 t-259 257t-94.5 383zM629 1704q0 47 31 77.5t77 30.5t78.5 -30.5t32.5 -77.5q0 -46 -32.5 -77.5t-78.5 -31.5t-77 31.5t-31 77.5z" />
<glyph unicode="&#x10b;" horiz-adv-x="972" d="M70 485q0 114 41.5 210.5t110.5 160.5t158.5 99.5t186.5 35.5q73 0 138 -14t104 -31t73 -40.5t44 -34t18 -19.5l-70 -143q-118 118 -290 118q-133 0 -224.5 -92.5t-91.5 -242.5q0 -154 88.5 -250.5t229.5 -96.5q53 0 103 12.5t83.5 30.5t59 36.5t37.5 31.5l12 12l69 -143 q-46 -46 -80 -68q-123 -80 -309 -80q-132 0 -243 61t-179.5 178.5t-68.5 268.5zM420 1266q0 47 31 77.5t77 30.5t78.5 -30.5t32.5 -77.5q0 -46 -32.5 -77.5t-78.5 -31.5t-77 31.5t-31 77.5z" />
<glyph unicode="&#x10c;" horiz-adv-x="1361" d="M76 705q0 215 96 382.5t260 257t367 89.5q94 0 177 -18t144.5 -48t103.5 -59t76 -62l-83 -160q-50 63 -163 118t-247 55q-231 0 -378.5 -152t-147.5 -399q0 -246 148 -398.5t378 -152.5q134 0 241.5 46.5t180.5 125.5l86 -146q-188 -209 -516 -209q-205 0 -369.5 90 t-259 257t-94.5 383zM485 1851h144l123 -204l125 204h143l-186 -297h-162z" />
<glyph unicode="&#x10d;" horiz-adv-x="972" d="M70 485q0 114 41.5 210.5t110.5 160.5t158.5 99.5t186.5 35.5q73 0 138 -14t104 -31t73 -40.5t44 -34t18 -19.5l-70 -143q-118 118 -290 118q-133 0 -224.5 -92.5t-91.5 -242.5q0 -154 88.5 -250.5t229.5 -96.5q53 0 103 12.5t83.5 30.5t59 36.5t37.5 31.5l12 12l69 -143 q-46 -46 -80 -68q-123 -80 -309 -80q-132 0 -243 61t-179.5 178.5t-68.5 268.5zM281 1413h143l123 -205l125 205h143l-186 -297h-162z" />
<glyph unicode="&#x10e;" horiz-adv-x="1404" d="M156 0v1413h426q171 0 306.5 -52.5t221.5 -131.5q219 -202 219 -522q0 -321 -219 -523q-86 -79 -221.5 -131.5t-306.5 -52.5h-426zM354 172h228q238 0 376 131q168 159 168 404q0 246 -168 405q-138 131 -376 131h-228v-1071zM367 1851h143l123 -204l125 204h143 l-186 -297h-162z" />
<glyph unicode="&#x10f;" horiz-adv-x="1392" d="M70 487q0 143 57 257.5t164.5 180.5t247.5 66q114 0 200 -45.5t140 -124.5h4v592h194v-1413h-188v156h-4q-59 -88 -147 -133.5t-195 -45.5q-213 0 -343 144.5t-130 365.5zM270 489q0 -150 83.5 -247t226.5 -97t226 97t83 247t-83 246t-226 96t-226.5 -96t-83.5 -246z M1147 975l137 438h201l-182 -438h-156z" />
<glyph unicode="&#x110;" horiz-adv-x="1404" d="M23 666v147h133v600h426q171 0 306.5 -52.5t221.5 -131.5q219 -202 219 -522q0 -321 -219 -523q-86 -79 -221.5 -131.5t-306.5 -52.5h-426v666h-133zM354 172h228q238 0 376 131q168 159 168 404q0 246 -168 405q-138 131 -376 131h-228v-430h359v-145h-359v-496z" />
<glyph unicode="&#x111;" horiz-adv-x="1222" d="M70 487q0 143 57 257.5t164.5 180.5t247.5 66q114 0 200 -45.5t140 -124.5h4v312h-391v163h391v117h194v-117h135v-163h-135v-1133h-188v156h-4q-59 -88 -147 -133.5t-195 -45.5q-213 0 -343 144.5t-130 365.5zM270 489q0 -150 83.5 -247t226.5 -97t226 97t83 247 t-83 246t-226 96t-226.5 -96t-83.5 -246z" />
<glyph unicode="&#x112;" horiz-adv-x="1087" d="M156 0v1413h827v-166h-629v-422h594v-166h-594v-491h645v-168h-843zM319 1651v112h531v-112h-531z" />
<glyph unicode="&#x113;" horiz-adv-x="1083" d="M70 487q0 149 67 265.5t179 177.5t247 61q202 0 331.5 -130.5t129.5 -334.5l-6 -86h-750q7 -144 92.5 -226.5t221.5 -82.5q43 0 85.5 7.5t73.5 18.5t61.5 25.5t47.5 25.5t34 23t19 13l82 -113l-8 -7q-8 -8 -17.5 -16.5t-26 -21t-36.5 -24t-45.5 -24.5t-57 -23.5t-67 -19 t-79.5 -13.5t-91 -5q-218 0 -352.5 139.5t-134.5 370.5zM270 571h568q-1 44 -18 90t-49 89.5t-88 71.5t-126 28t-126 -26.5t-89 -69.5t-51.5 -90t-20.5 -93zM295 1212v113h530v-113h-530z" />
<glyph unicode="&#x114;" horiz-adv-x="1087" d="M156 0v1413h827v-166h-629v-422h594v-166h-594v-491h645v-168h-843zM293 1829h98q35 -133 205 -133q173 0 205 133h100q-17 -124 -97 -188t-208 -64q-127 0 -206.5 64t-96.5 188z" />
<glyph unicode="&#x115;" horiz-adv-x="1083" d="M70 487q0 149 67 265.5t179 177.5t247 61q202 0 331.5 -130.5t129.5 -334.5l-6 -86h-750q7 -144 92.5 -226.5t221.5 -82.5q43 0 85.5 7.5t73.5 18.5t61.5 25.5t47.5 25.5t34 23t19 13l82 -113l-8 -7q-8 -8 -17.5 -16.5t-26 -21t-36.5 -24t-45.5 -24.5t-57 -23.5t-67 -19 t-79.5 -13.5t-91 -5q-218 0 -352.5 139.5t-134.5 370.5zM238 1391h98q18 -69 72.5 -101.5t132.5 -32.5q172 0 204 134h101q-17 -124 -97 -188t-208 -64q-127 0 -206.5 64t-96.5 188zM270 571h568q-1 44 -18 90t-49 89.5t-88 71.5t-126 28t-126 -26.5t-89 -69.5t-51.5 -90 t-20.5 -93z" />
<glyph unicode="&#x116;" horiz-adv-x="1087" d="M156 0v1413h827v-166h-629v-422h594v-166h-594v-491h645v-168h-843zM496 1704q0 47 31 77.5t77 30.5t78.5 -30.5t32.5 -77.5q0 -46 -32.5 -77.5t-78.5 -31.5t-77 31.5t-31 77.5z" />
<glyph unicode="&#x117;" horiz-adv-x="1083" d="M70 487q0 149 67 265.5t179 177.5t247 61q202 0 331.5 -130.5t129.5 -334.5l-6 -86h-750q7 -144 92.5 -226.5t221.5 -82.5q43 0 85.5 7.5t73.5 18.5t61.5 25.5t47.5 25.5t34 23t19 13l82 -113l-8 -7q-8 -8 -17.5 -16.5t-26 -21t-36.5 -24t-45.5 -24.5t-57 -23.5t-67 -19 t-79.5 -13.5t-91 -5q-218 0 -352.5 139.5t-134.5 370.5zM270 571h568q-1 44 -18 90t-49 89.5t-88 71.5t-126 28t-126 -26.5t-89 -69.5t-51.5 -90t-20.5 -93zM432 1266q0 47 31.5 77.5t77.5 30.5t78 -30.5t32 -77.5q0 -46 -32 -77.5t-78 -31.5t-77.5 31.5t-31.5 77.5z" />
<glyph unicode="&#x118;" horiz-adv-x="1087" d="M156 0v1413h827v-166h-629v-422h594v-166h-594v-491h645v-168h-133q-64 -37 -111.5 -98t-47.5 -115q0 -53 34.5 -79.5t85.5 -26.5q67 0 142 45l30 -64q-4 -4 -11 -9.5t-29 -21t-45.5 -27t-58.5 -21t-69 -9.5q-92 0 -151.5 49.5t-59.5 134.5q0 130 156 242h-575z" />
<glyph unicode="&#x119;" horiz-adv-x="1083" d="M70 487q0 149 67 265.5t179 177.5t247 61q202 0 331.5 -130.5t129.5 -334.5l-6 -86h-750q7 -144 92.5 -226.5t221.5 -82.5q43 0 85.5 7.5t73.5 18.5t61.5 25.5t47.5 25.5t34 23t19 13l82 -113q-47 -47 -123 -88q-65 -35 -112.5 -97t-47.5 -116q0 -53 35 -79.5t86 -26.5 q67 0 142 45l30 -64q-4 -4 -11 -9.5t-29 -21t-45.5 -27t-58.5 -21t-69 -9.5q-92 0 -151.5 49.5t-59.5 134.5q0 95 84 183q-54 -7 -98 -7q-218 0 -352.5 139.5t-134.5 370.5zM270 571h568q-1 44 -18 90t-49 89.5t-88 71.5t-126 28t-126 -26.5t-89 -69.5t-51.5 -90t-20.5 -93z " />
<glyph unicode="&#x11a;" horiz-adv-x="1087" d="M156 0v1413h827v-166h-629v-422h594v-166h-594v-491h645v-168h-843zM313 1851h144l123 -204l125 204h143l-186 -297h-162z" />
<glyph unicode="&#x11b;" horiz-adv-x="1083" d="M70 487q0 149 67 265.5t179 177.5t247 61q202 0 331.5 -130.5t129.5 -334.5l-6 -86h-750q7 -144 92.5 -226.5t221.5 -82.5q43 0 85.5 7.5t73.5 18.5t61.5 25.5t47.5 25.5t34 23t19 13l82 -113l-8 -7q-8 -8 -17.5 -16.5t-26 -21t-36.5 -24t-45.5 -24.5t-57 -23.5t-67 -19 t-79.5 -13.5t-91 -5q-218 0 -352.5 139.5t-134.5 370.5zM270 571h568q-1 44 -18 90t-49 89.5t-88 71.5t-126 28t-126 -26.5t-89 -69.5t-51.5 -90t-20.5 -93zM274 1413h144l123 -205l125 205h143l-186 -297h-162z" />
<glyph unicode="&#x11c;" horiz-adv-x="1529" d="M76 707q0 215 96 382t259.5 256t363.5 89q340 0 560 -235l11 -11l-135 -125q-172 201 -436 201q-224 0 -369 -151t-145 -406q0 -128 40.5 -233.5t111.5 -176t167 -109t207 -38.5q82 0 153 13.5t114 32t74 37.5t44 33l12 13v313h-381v162h574v-549q-49 -49 -78 -71 q-206 -159 -522 -159q-150 0 -282.5 53t-229.5 147.5t-153 232t-56 299.5zM498 1554l186 297h162l186 -297h-143l-125 205l-123 -205h-143z" />
<glyph unicode="&#x11d;" horiz-adv-x="1214" d="M70 502q0 113 38 206.5t103 154.5t149.5 94.5t178.5 33.5q119 0 206 -48.5t134 -123.5h6l-2 154h194v-768q0 -158 -25.5 -256t-80.5 -164q-152 -186 -434 -186q-225 0 -435 145l93 137q47 -42 148.5 -82.5t199.5 -40.5q99 0 165 31.5t101 75.5q74 89 74 272v49h-4 q-117 -174 -340 -174q-127 0 -232.5 57t-171 170.5t-65.5 262.5zM270 502q0 -143 82.5 -236.5t227.5 -93.5q146 0 227.5 93t81.5 237t-81.5 238t-227.5 94q-145 0 -227.5 -94.5t-82.5 -237.5zM274 1116l187 297h162l186 -297h-143l-125 205l-123 -205h-144z" />
<glyph unicode="&#x11e;" horiz-adv-x="1529" d="M76 707q0 215 96 382t259.5 256t363.5 89q340 0 560 -235l11 -11l-135 -125q-172 201 -436 201q-224 0 -369 -151t-145 -406q0 -128 40.5 -233.5t111.5 -176t167 -109t207 -38.5q82 0 153 13.5t114 32t74 37.5t44 33l12 13v313h-381v162h574v-549q-49 -49 -78 -71 q-206 -159 -522 -159q-150 0 -282.5 53t-229.5 147.5t-153 232t-56 299.5zM465 1829h98q35 -133 205 -133q173 0 205 133h100q-17 -124 -97 -188t-208 -64q-127 0 -206.5 64t-96.5 188z" />
<glyph unicode="&#x11f;" horiz-adv-x="1214" d="M70 502q0 113 38 206.5t103 154.5t149.5 94.5t178.5 33.5q119 0 206 -48.5t134 -123.5h6l-2 154h194v-768q0 -158 -25.5 -256t-80.5 -164q-152 -186 -434 -186q-225 0 -435 145l93 137q47 -42 148.5 -82.5t199.5 -40.5q99 0 165 31.5t101 75.5q74 89 74 272v49h-4 q-117 -174 -340 -174q-127 0 -232.5 57t-171 170.5t-65.5 262.5zM246 1391h98q18 -69 72.5 -101.5t132.5 -32.5q80 0 134.5 32.5t70.5 101.5h100q-17 -124 -97 -188t-208 -64q-127 0 -206.5 64t-96.5 188zM270 502q0 -143 82.5 -236.5t227.5 -93.5q146 0 227.5 93t81.5 237 t-81.5 238t-227.5 94q-145 0 -227.5 -94.5t-82.5 -237.5z" />
<glyph unicode="&#x120;" horiz-adv-x="1529" d="M76 707q0 215 96 382t259.5 256t363.5 89q340 0 560 -235l11 -11l-135 -125q-172 201 -436 201q-224 0 -369 -151t-145 -406q0 -128 40.5 -233.5t111.5 -176t167 -109t207 -38.5q82 0 153 13.5t114 32t74 37.5t44 33l12 13v313h-381v162h574v-549q-49 -49 -78 -71 q-206 -159 -522 -159q-150 0 -282.5 53t-229.5 147.5t-153 232t-56 299.5zM655 1704q0 47 31.5 77.5t77.5 30.5t78 -30.5t32 -77.5q0 -46 -32 -77.5t-78 -31.5t-77.5 31.5t-31.5 77.5z" />
<glyph unicode="&#x121;" horiz-adv-x="1214" d="M70 502q0 113 38 206.5t103 154.5t149.5 94.5t178.5 33.5q119 0 206 -48.5t134 -123.5h6l-2 154h194v-768q0 -158 -25.5 -256t-80.5 -164q-152 -186 -434 -186q-225 0 -435 145l93 137q47 -42 148.5 -82.5t199.5 -40.5q99 0 165 31.5t101 75.5q74 89 74 272v49h-4 q-117 -174 -340 -174q-127 0 -232.5 57t-171 170.5t-65.5 262.5zM270 502q0 -143 82.5 -236.5t227.5 -93.5q146 0 227.5 93t81.5 237t-81.5 238t-227.5 94q-145 0 -227.5 -94.5t-82.5 -237.5zM449 1266q0 47 31 77.5t77 30.5t78.5 -30.5t32.5 -77.5q0 -46 -32.5 -77.5 t-78.5 -31.5t-77 31.5t-31 77.5z" />
<glyph unicode="&#x122;" horiz-adv-x="1529" d="M76 707q0 215 96 382t259.5 256t363.5 89q340 0 560 -235l11 -11l-135 -125q-172 201 -436 201q-224 0 -369 -151t-145 -406q0 -128 40.5 -233.5t111.5 -176t167 -109t207 -38.5q82 0 153 13.5t114 32t74 37.5t44 33l12 13v313h-381v162h574v-549q-49 -49 -78 -71 q-206 -159 -522 -159q-150 0 -282.5 53t-229.5 147.5t-153 232t-56 299.5zM647 -389l74 287h201l-129 -287h-146z" />
<glyph unicode="&#x123;" horiz-adv-x="1214" d="M70 502q0 113 38 206.5t103 154.5t149.5 94.5t178.5 33.5q119 0 206 -48.5t134 -123.5h6l-2 154h194v-768q0 -158 -25.5 -256t-80.5 -164q-152 -186 -434 -186q-225 0 -435 145l93 137q47 -42 148.5 -82.5t199.5 -40.5q99 0 165 31.5t101 75.5q74 89 74 272v49h-4 q-117 -174 -340 -174q-127 0 -232.5 57t-171 170.5t-65.5 262.5zM270 502q0 -143 82.5 -236.5t227.5 -93.5q146 0 227.5 93t81.5 237t-81.5 238t-227.5 94q-145 0 -227.5 -94.5t-82.5 -237.5zM432 1169l129 287h146l-74 -287h-201z" />
<glyph unicode="&#x124;" horiz-adv-x="1462" d="M156 0v1413h198v-584h752v584h199v-1413h-199v659h-752v-659h-198zM463 1554l186 297h162l186 -297h-143l-125 205l-123 -205h-143z" />
<glyph unicode="&#x125;" horiz-adv-x="1122" d="M-23 1536l187 297h162l186 -297h-143l-125 205l-123 -205h-144zM145 0v1413h195v-594h4q40 76 119 124t180 48q82 0 144 -21t100.5 -56.5t62 -89.5t32.5 -112t9 -132v-580h-196v551q0 47 -3.5 83t-16 74.5t-33.5 63.5t-58.5 41t-89.5 16q-127 0 -190.5 -96t-63.5 -252 v-481h-195z" />
<glyph unicode="&#x126;" horiz-adv-x="1462" d="M10 1075v154h146v184h198v-184h752v184h199v-184h147v-154h-147v-1075h-199v659h-752v-659h-198v1075h-146zM354 829h752v246h-752v-246z" />
<glyph unicode="&#x127;" horiz-adv-x="1122" d="M10 1133v163h135v117h195v-117h391v-163h-391v-314h4q40 76 119 124t180 48q82 0 144 -21t100.5 -56.5t62 -89.5t32.5 -112t9 -132v-580h-196v551q0 47 -3.5 83t-16 74.5t-33.5 63.5t-58.5 41t-89.5 16q-127 0 -190.5 -96t-63.5 -252v-481h-195v1133h-135z" />
<glyph unicode="&#x128;" horiz-adv-x="509" d="M-66 1628q6 83 62 137t127 54q27 0 52.5 -6t39 -12.5t31.5 -16.5t22 -12t28.5 -17t47.5 -24t45 -9q35 0 58.5 24.5t31.5 61.5l96 -20q-6 -82 -61.5 -135.5t-126.5 -53.5q-22 0 -42 3.5t-36.5 9.5t-27 11t-23.5 13t-16 9q-4 2 -22 13.5t-30 18t-32 13t-37 6.5 q-35 0 -59.5 -25.5t-30.5 -62.5zM156 0v1413h198v-1413h-198z" />
<glyph unicode="&#x129;" horiz-adv-x="483" d="M-78 1190q6 82 62 136t127 54q27 0 52.5 -6t39 -12.5t31.5 -16.5t22 -12q3 -2 28.5 -17t48 -23.5t44.5 -8.5q35 0 58.5 24.5t31.5 61.5l96 -20q-6 -82 -61.5 -135.5t-126.5 -53.5q-22 0 -42 3t-37.5 9.5t-27 11t-24 12.5t-15.5 9q-4 2 -21.5 13t-30 18t-32 13.5 t-36.5 6.5q-35 0 -60 -25.5t-31 -62.5zM143 0v973h197v-973h-197z" />
<glyph unicode="&#x12a;" horiz-adv-x="509" d="M-10 1651v112h530v-112h-530zM156 0v1413h198v-1413h-198z" />
<glyph unicode="&#x12b;" horiz-adv-x="483" d="M-23 1212v113h531v-113h-531zM143 0v973h197v-973h-197z" />
<glyph unicode="&#x12c;" horiz-adv-x="509" d="M-49 1829h98q35 -133 205 -133q173 0 205 133h100q-17 -124 -97 -188t-208 -64q-127 0 -206.5 64t-96.5 188zM156 0v1413h198v-1413h-198z" />
<glyph unicode="&#x12d;" horiz-adv-x="483" d="M-61 1391h98q18 -69 72.5 -101.5t132.5 -32.5q172 0 204 134h101q-17 -124 -97 -188t-208 -64q-127 0 -206.5 64t-96.5 188zM143 0v973h197v-973h-197z" />
<glyph unicode="&#x12e;" horiz-adv-x="509" d="M0 -242q0 130 156 242v1413h198v-1413q-114 -39 -168.5 -95.5t-54.5 -117.5q0 -53 35 -79.5t86 -26.5q66 0 141 45l31 -64q-4 -4 -11 -9.5t-29 -21t-45.5 -27t-58.5 -21t-69 -9.5q-92 0 -151.5 49.5t-59.5 134.5z" />
<glyph unicode="&#x12f;" horiz-adv-x="483" d="M-12 -242q0 130 155 242v973h197v-973q-106 -24 -163.5 -87t-57.5 -126q0 -53 35 -79.5t86 -26.5q66 0 141 45l31 -64q-4 -4 -11 -9.5t-29 -21t-45.5 -27t-58.5 -21t-69 -9.5q-92 0 -151.5 49.5t-59.5 134.5zM113 1292q0 53 36 87t93 34q55 0 91 -34t36 -87t-36 -87 t-91 -34q-57 0 -93 34t-36 87z" />
<glyph unicode="&#x130;" horiz-adv-x="509" d="M145 1704q0 47 31.5 77.5t77.5 30.5t78.5 -30.5t32.5 -77.5q0 -46 -32.5 -77.5t-78.5 -31.5t-77.5 31.5t-31.5 77.5zM156 0v1413h198v-1413h-198z" />
<glyph unicode="&#x131;" horiz-adv-x="483" d="M143 0v973h197v-973h-197z" />
<glyph unicode="&#x132;" horiz-adv-x="1019" d="M156 0v1413h198v-1413h-198zM420 -385l4 152q43 -17 108 -17q43 0 71 19t41 56.5t17.5 76.5t4.5 96v1415h198v-1409q0 -202 -63 -299q-84 -115 -228 -115q-37 0 -74 5.5t-56 11t-23 8.5z" />
<glyph unicode="&#x133;" horiz-adv-x="966" d="M113 1292q0 53 36 87t93 34q55 0 91 -34t36 -87t-36 -87t-91 -34q-57 0 -93 34t-36 87zM143 0v973h197v-973h-197zM393 -385l2 156q41 -15 92 -15q37 0 63.5 13.5t41 34t22.5 55.5t10.5 67t2.5 78v969h196v-975q0 -194 -61 -279q-90 -120 -246 -120q-36 0 -66.5 4 t-43.5 8zM596 1292q0 53 36 87t93 34q55 0 91 -34t36 -87t-36 -87t-91 -34q-57 0 -93 34t-36 87z" />
<glyph unicode="&#x134;" horiz-adv-x="509" d="M-90 -385l4 152q43 -17 109 -17q35 0 59.5 13.5t38.5 35t22 55.5t10.5 66.5t2.5 77.5v1415h198v-1409q0 -202 -63 -299q-84 -115 -228 -115q-37 0 -74 5.5t-56 11t-23 8.5zM-12 1554l186 297h162l186 -297h-143l-125 205l-123 -205h-143z" />
<glyph unicode="&#x135;" horiz-adv-x="483" d="M-90 -385l2 156q41 -15 92 -15q37 0 63 13.5t40.5 34t23 55.5t10.5 66.5t2 78.5v969h197v-975q0 -194 -61 -279q-90 -120 -246 -120q-36 0 -66.5 4t-43.5 8zM-25 1116l187 297h162l186 -297h-143l-125 205l-123 -205h-144z" />
<glyph unicode="&#x136;" horiz-adv-x="1185" d="M156 0v1413h198v-602l576 602h241l-538 -557l577 -856h-241l-469 709l-146 -148v-561h-198zM475 -389l74 287h201l-129 -287h-146z" />
<glyph unicode="&#x137;" horiz-adv-x="997" d="M145 0v1413h195v-829l397 389h230l-381 -367l430 -606h-230l-333 471l-113 -106v-365h-195zM397 -389l74 287h201l-129 -287h-146z" />
<glyph unicode="&#x138;" horiz-adv-x="987" d="M135 0v973h195v-389l397 389h229l-381 -367l431 -606h-230l-334 471l-112 -106v-365h-195z" />
<glyph unicode="&#x139;" horiz-adv-x="872" d="M156 0v1413h198v-1243h498v-170h-696zM166 1554l182 297h193l-226 -297h-149z" />
<glyph unicode="&#x13a;" horiz-adv-x="485" d="M125 1567l182 297h193l-226 -297h-149zM145 0v1413h195v-1413h-195z" />
<glyph unicode="&#x13b;" horiz-adv-x="872" d="M156 0v1413h198v-1243h498v-170h-696zM360 -389l74 287h201l-129 -287h-146z" />
<glyph unicode="&#x13c;" horiz-adv-x="485" d="M86 -389l74 287h200l-129 -287h-145zM145 0v1413h195v-1413h-195z" />
<glyph unicode="&#x13d;" horiz-adv-x="872" d="M156 0v1413h198v-1243h498v-170h-696zM549 975l137 438h201l-182 -438h-156z" />
<glyph unicode="&#x13e;" horiz-adv-x="655" d="M145 0v1413h195v-1413h-195zM410 975l137 438h201l-183 -438h-155z" />
<glyph unicode="&#x13f;" horiz-adv-x="872" d="M156 0v1413h198v-1243h498v-170h-696zM551 653q0 57 37 92t96 35q60 0 97.5 -35t37.5 -92t-37.5 -93t-97.5 -36q-59 0 -96 36t-37 93z" />
<glyph unicode="&#x140;" horiz-adv-x="833" d="M145 0v1413h195v-1413h-195zM494 592q0 57 37 92t96 35q60 0 97.5 -35t37.5 -92t-37.5 -93t-97.5 -36q-59 0 -96 36t-37 93z" />
<glyph unicode="&#x141;" horiz-adv-x="872" d="M31 428v166l125 96v723h198v-584l234 183v-168l-234 -180v-494h498v-170h-696v524z" />
<glyph unicode="&#x142;" horiz-adv-x="487" d="M25 485v172l120 115v641h197v-477l121 117v-172l-121 -115v-766h-197v602z" />
<glyph unicode="&#x143;" horiz-adv-x="1515" d="M156 0v1413h209l800 -1110q-2 175 -2 361v749h195v-1413h-195l-815 1126q4 -190 4 -374v-752h-196zM647 1554l182 297h193l-225 -297h-150z" />
<glyph unicode="&#x144;" horiz-adv-x="1107" d="M135 0v973h197l-2 -154h6q40 76 118 124t179 48q100 0 170 -31.5t108 -90.5t54 -130t16 -164v-575h-197v543q0 68 -7.5 115t-28 88.5t-62 62t-104.5 20.5q-66 0 -115.5 -26.5t-78 -74t-42.5 -107.5t-14 -132v-489h-197zM367 1116l182 297h192l-225 -297h-149z" />
<glyph unicode="&#x145;" horiz-adv-x="1515" d="M156 0v1413h209l800 -1110q-2 175 -2 361v749h195v-1413h-195l-815 1126q4 -190 4 -374v-752h-196zM621 -389l73 287h201l-129 -287h-145z" />
<glyph unicode="&#x146;" horiz-adv-x="1107" d="M135 0v973h197l-2 -154h6q40 76 118 124t179 48q100 0 170 -31.5t108 -90.5t54 -130t16 -164v-575h-197v543q0 68 -7.5 115t-28 88.5t-62 62t-104.5 20.5q-66 0 -115.5 -26.5t-78 -74t-42.5 -107.5t-14 -132v-489h-197zM416 -389l73 287h201l-129 -287h-145z" />
<glyph unicode="&#x147;" horiz-adv-x="1515" d="M156 0v1413h209l800 -1110q-2 175 -2 361v749h195v-1413h-195l-815 1126q4 -190 4 -374v-752h-196zM489 1851h144l123 -204l125 204h143l-186 -297h-162z" />
<glyph unicode="&#x148;" horiz-adv-x="1107" d="M135 0v973h197l-2 -154h6q40 76 118 124t179 48q100 0 170 -31.5t108 -90.5t54 -130t16 -164v-575h-197v543q0 68 -7.5 115t-28 88.5t-62 62t-104.5 20.5q-66 0 -115.5 -26.5t-78 -74t-42.5 -107.5t-14 -132v-489h-197zM287 1413h143l123 -205l125 205h143l-186 -297 h-162z" />
<glyph unicode="&#x14a;" horiz-adv-x="1515" d="M156 0v1413h209l798 -1108v1108h199v-1409q0 -201 -64 -299q-84 -115 -227 -115q-37 0 -74 5.5t-56 11t-23 8.5l4 152q42 -17 108 -17q35 0 59.5 13.5t38.5 35t22 56t10.5 67t2.5 78.5l-815 1126q4 -190 4 -374v-752h-196z" />
<glyph unicode="&#x14b;" horiz-adv-x="1107" d="M135 0v973h197l-2 -154h6q40 76 118 124t179 48q100 0 170 -31.5t108 -90.5t54 -130t16 -164v-577q0 -194 -61 -279q-90 -120 -246 -120q-36 0 -66.5 4t-43.5 8l-13 4l2 156q41 -15 92 -15q37 0 63 13.5t40.5 34t23 55.5t10.5 66.5t2 78.5v539q0 68 -7.5 115t-28 88.5 t-62 62t-104.5 20.5q-66 0 -115.5 -26.5t-78 -74t-42.5 -107.5t-14 -132v-489h-197z" />
<glyph unicode="&#x14c;" horiz-adv-x="1609" d="M76 705q0 166 58 304.5t157.5 230.5t232 143t281.5 51t281.5 -51t232 -143t157.5 -230.5t58 -304.5t-58 -304.5t-157.5 -231t-232 -143.5t-281.5 -51t-281.5 51t-232 143.5t-157.5 231t-58 304.5zM279 709q0 -126 42 -231t113.5 -175t167 -108.5t203.5 -38.5t204 38.5 t167.5 108.5t113 175t41.5 231q0 127 -41.5 232t-113 174.5t-167.5 108t-204 38.5t-204 -38.5t-167.5 -108t-113 -174.5t-41.5 -232zM539 1651v112h530v-112h-530z" />
<glyph unicode="&#x14d;" horiz-adv-x="1169" d="M70 483q0 223 147.5 365.5t368.5 142.5q144 0 261 -63.5t185 -180.5t68 -264q0 -224 -147 -365t-367 -141q-221 0 -368.5 141t-147.5 365zM268 489q0 -148 86.5 -246t231.5 -98q143 0 229 98t86 246q0 146 -86 244t-229 98q-144 0 -231 -98t-87 -244zM319 1212v113h531 v-113h-531z" />
<glyph unicode="&#x14e;" horiz-adv-x="1609" d="M76 705q0 166 58 304.5t157.5 230.5t232 143t281.5 51t281.5 -51t232 -143t157.5 -230.5t58 -304.5t-58 -304.5t-157.5 -231t-232 -143.5t-281.5 -51t-281.5 51t-232 143.5t-157.5 231t-58 304.5zM279 709q0 -126 42 -231t113.5 -175t167 -108.5t203.5 -38.5t204 38.5 t167.5 108.5t113 175t41.5 231q0 127 -41.5 232t-113 174.5t-167.5 108t-204 38.5t-204 -38.5t-167.5 -108t-113 -174.5t-41.5 -232zM500 1829h98q35 -133 205 -133q173 0 205 133h100q-17 -124 -97 -188t-208 -64q-127 0 -206.5 64t-96.5 188z" />
<glyph unicode="&#x14f;" horiz-adv-x="1169" d="M70 483q0 223 147.5 365.5t368.5 142.5q144 0 261 -63.5t185 -180.5t68 -264q0 -224 -147 -365t-367 -141q-221 0 -368.5 141t-147.5 365zM268 489q0 -148 86.5 -246t231.5 -98q143 0 229 98t86 246q0 146 -86 244t-229 98q-144 0 -231 -98t-87 -244zM281 1391h98 q18 -69 72.5 -101.5t132.5 -32.5q172 0 204 134h101q-17 -124 -97 -188t-208 -64q-127 0 -206.5 64t-96.5 188z" />
<glyph unicode="&#x150;" horiz-adv-x="1609" d="M76 705q0 166 58 304.5t157.5 230.5t232 143t281.5 51t281.5 -51t232 -143t157.5 -230.5t58 -304.5t-58 -304.5t-157.5 -231t-232 -143.5t-281.5 -51t-281.5 51t-232 143.5t-157.5 231t-58 304.5zM279 709q0 -126 42 -231t113.5 -175t167 -108.5t203.5 -38.5t204 38.5 t167.5 108.5t113 175t41.5 231q0 127 -41.5 232t-113 174.5t-167.5 108t-204 38.5t-204 -38.5t-167.5 -108t-113 -174.5t-41.5 -232zM567 1554l185 297h190l-227 -297h-148zM850 1554l184 297h189l-228 -297h-145z" />
<glyph unicode="&#x151;" horiz-adv-x="1169" d="M70 483q0 223 147.5 365.5t368.5 142.5q144 0 261 -63.5t185 -180.5t68 -264q0 -224 -147 -365t-367 -141q-221 0 -368.5 141t-147.5 365zM268 489q0 -148 86.5 -246t231.5 -98q143 0 229 98t86 246q0 146 -86 244t-229 98q-144 0 -231 -98t-87 -244zM313 1116l185 297 h190l-227 -297h-148zM596 1116l184 297h189l-228 -297h-145z" />
<glyph unicode="&#x152;" horiz-adv-x="2031" d="M76 705q0 165 58 304t156.5 231t229.5 143t277 51q208 0 370 -97v76h760v-166h-569v-422h534v-166h-534v-491h586v-168h-775v76q-154 -101 -372 -101q-146 0 -277 51t-229.5 143.5t-156.5 231.5t-58 304zM279 709q0 -126 41.5 -231t112 -175t165 -108.5t199.5 -38.5 q220 0 362 125v856q-142 125 -362 125q-106 0 -199.5 -38.5t-164.5 -108t-112.5 -175t-41.5 -231.5z" />
<glyph unicode="&#x153;" horiz-adv-x="1906" d="M70 483q0 223 147.5 365.5t368.5 142.5q137 0 241.5 -58.5t165.5 -158.5q63 101 162.5 159t230.5 58q202 0 330.5 -130.5t128.5 -334.5l-4 -86h-751q8 -143 91.5 -226t221.5 -83q44 0 86.5 7.5t73.5 18.5t61 25.5t47 25.5t34 23t19 13l82 -113l-8 -7q-8 -8 -17.5 -16.5 t-25.5 -21t-36 -24t-45.5 -24.5t-57 -23.5t-66.5 -19t-79 -13.5t-91 -5q-70 0 -132 17t-102 40.5t-74.5 56.5t-50.5 55.5t-30 46.5q-60 -100 -162.5 -158t-242.5 -58q-221 0 -368.5 141t-147.5 365zM268 489q0 -148 86.5 -246t231.5 -98q143 0 229 98t86 246q0 146 -86 244 t-229 98q-144 0 -231 -98t-87 -244zM1094 571h565q-1 44 -18 90t-48.5 89.5t-87.5 71.5t-125 28q-70 0 -126.5 -26.5t-89.5 -69.5t-50.5 -90t-19.5 -93z" />
<glyph unicode="&#x154;" horiz-adv-x="1105" d="M156 0v1413h399q215 0 340 -98q137 -111 137 -299q0 -89 -28.5 -160.5t-76.5 -116t-102 -71.5t-114 -39l403 -629h-240l-368 608h-152v-608h-198zM354 772h146q87 0 140.5 9t96.5 40q90 67 90 191t-90 188q-43 32 -96.5 41.5t-140.5 9.5h-146v-479zM406 1554l182 297h192 l-225 -297h-149z" />
<glyph unicode="&#x155;" horiz-adv-x="686" d="M135 0v973h197l-2 -150h6q35 82 97.5 125t141.5 43q29 0 55 -4t37 -8l11 -4l-12 -182h-9q-45 20 -106 20q-57 0 -97.5 -26t-62.5 -56q-59 -89 -59 -246v-485h-197zM238 1116l182 297h192l-225 -297h-149z" />
<glyph unicode="&#x156;" horiz-adv-x="1105" d="M156 0v1413h399q215 0 340 -98q137 -111 137 -299q0 -89 -28.5 -160.5t-76.5 -116t-102 -71.5t-114 -39l403 -629h-240l-368 608h-152v-608h-198zM354 772h146q87 0 140.5 9t96.5 40q90 67 90 191t-90 188q-43 32 -96.5 41.5t-140.5 9.5h-146v-479zM434 -389l74 287h201 l-129 -287h-146z" />
<glyph unicode="&#x157;" horiz-adv-x="686" d="M102 -389l74 287h201l-129 -287h-146zM135 0v973h197l-2 -150h6q35 82 97.5 125t141.5 43q29 0 55 -4t37 -8l11 -4l-12 -182h-9q-45 20 -106 20q-57 0 -97.5 -26t-62.5 -56q-59 -89 -59 -246v-485h-197z" />
<glyph unicode="&#x158;" horiz-adv-x="1105" d="M156 0v1413h399q215 0 340 -98q137 -111 137 -299q0 -89 -28.5 -160.5t-76.5 -116t-102 -71.5t-114 -39l403 -629h-240l-368 608h-152v-608h-198zM264 1851h144l122 -204l125 204h144l-187 -297h-161zM354 772h146q87 0 140.5 9t96.5 40q90 67 90 191t-90 188 q-43 32 -96.5 41.5t-140.5 9.5h-146v-479z" />
<glyph unicode="&#x159;" horiz-adv-x="686" d="M117 1413h143l123 -205l125 205h143l-186 -297h-162zM135 0v973h197l-2 -150h6q35 82 97.5 125t141.5 43q29 0 55 -4t37 -8l11 -4l-12 -182h-9q-45 20 -106 20q-57 0 -97.5 -26t-62.5 -56q-59 -89 -59 -246v-485h-197z" />
<glyph unicode="&#x15a;" horiz-adv-x="1093" d="M70 213l116 133q62 -83 157.5 -143t201.5 -60q119 0 197.5 64t78.5 174q0 30 -10 58t-21.5 47t-37 39.5t-39 30.5t-46 25.5t-39 18t-36.5 14.5q-167 65 -225 95q-85 38 -142 100q-92 96 -92 246q0 165 129 272q124 105 326 105q231 0 405 -183l-104 -135 q-144 152 -311 152q-109 0 -177.5 -51t-68.5 -146q0 -47 15 -83t44.5 -61t56.5 -40t66 -31l260 -109q31 -14 80 -46t80 -68q86 -105 86 -238q0 -91 -39 -170t-109 -137q-136 -111 -346 -111q-71 0 -137 18.5t-110.5 41.5t-91 61.5t-67 60.5t-50.5 56zM358 1554l183 297h192 l-225 -297h-150z" />
<glyph unicode="&#x15b;" horiz-adv-x="847" d="M41 152l94 114q53 -65 134 -102t153 -37q78 0 132 33t54 106q0 25 -12.5 47.5t-28.5 36.5t-45 28.5t-46 20.5t-49 16.5t-38 12.5q-18 6 -41 13.5t-34 11.5t-26.5 10.5t-31.5 15.5q-154 78 -154 234q0 129 96 203.5t232 74.5q215 0 332 -127l-82 -121q-44 46 -111 75.5 t-135 29.5q-72 0 -113.5 -31t-41.5 -90q0 -23 11.5 -43t27 -33.5t43.5 -27t50.5 -22t57.5 -19.5q81 -28 131 -47q73 -30 113 -70q78 -74 78 -180q0 -137 -101 -222q-106 -86 -270 -86q-120 0 -218 46.5t-161 128.5zM236 1116l182 297h192l-225 -297h-149z" />
<glyph unicode="&#x15c;" horiz-adv-x="1093" d="M70 213l116 133q62 -83 157.5 -143t201.5 -60q119 0 197.5 64t78.5 174q0 30 -10 58t-21.5 47t-37 39.5t-39 30.5t-46 25.5t-39 18t-36.5 14.5q-167 65 -225 95q-85 38 -142 100q-92 96 -92 246q0 165 129 272q124 105 326 105q231 0 405 -183l-104 -135 q-144 152 -311 152q-109 0 -177.5 -51t-68.5 -146q0 -47 15 -83t44.5 -61t56.5 -40t66 -31l260 -109q31 -14 80 -46t80 -68q86 -105 86 -238q0 -91 -39 -170t-109 -137q-136 -111 -346 -111q-71 0 -137 18.5t-110.5 41.5t-91 61.5t-67 60.5t-50.5 56zM279 1554l186 297h162 l186 -297h-143l-125 205l-123 -205h-143z" />
<glyph unicode="&#x15d;" horiz-adv-x="847" d="M41 152l94 114q53 -65 134 -102t153 -37q78 0 132 33t54 106q0 25 -12.5 47.5t-28.5 36.5t-45 28.5t-46 20.5t-49 16.5t-38 12.5q-18 6 -41 13.5t-34 11.5t-26.5 10.5t-31.5 15.5q-154 78 -154 234q0 129 96 203.5t232 74.5q215 0 332 -127l-82 -121q-44 46 -111 75.5 t-135 29.5q-72 0 -113.5 -31t-41.5 -90q0 -23 11.5 -43t27 -33.5t43.5 -27t50.5 -22t57.5 -19.5q81 -28 131 -47q73 -30 113 -70q78 -74 78 -180q0 -137 -101 -222q-106 -86 -270 -86q-120 0 -218 46.5t-161 128.5zM156 1116l186 297h162l186 -297h-143l-125 205l-123 -205 h-143z" />
<glyph unicode="&#x15e;" horiz-adv-x="1093" d="M70 213l116 133q62 -83 157.5 -143t201.5 -60q119 0 197.5 64t78.5 174q0 30 -10 58t-21.5 47t-37 39.5t-39 30.5t-46 25.5t-39 18t-36.5 14.5q-167 65 -225 95q-85 38 -142 100q-92 96 -92 246q0 165 129 272q124 105 326 105q231 0 405 -183l-104 -135 q-144 152 -311 152q-109 0 -177.5 -51t-68.5 -146q0 -47 15 -83t44.5 -61t56.5 -40t66 -31l260 -109q31 -14 80 -46t80 -68q86 -105 86 -238q0 -91 -39 -170t-109 -137q-87 -72 -208 -96l-160 -289h-178l188 274q-68 2 -132.5 20.5t-108.5 42.5t-88 60.5t-66 59.5t-49 55z " />
<glyph unicode="&#x15f;" horiz-adv-x="847" d="M41 152l94 114q53 -65 134 -102t153 -37q78 0 132 33t54 106q0 25 -12.5 47.5t-28.5 36.5t-45 28.5t-46 20.5t-49 16.5t-38 12.5q-18 6 -41 13.5t-34 11.5t-26.5 10.5t-31.5 15.5q-154 78 -154 234q0 129 96 203.5t232 74.5q215 0 332 -127l-82 -121q-44 46 -111 75.5 t-135 29.5q-72 0 -113.5 -31t-41.5 -90q0 -23 11.5 -43t27 -33.5t43.5 -27t50.5 -22t57.5 -19.5q81 -28 131 -47q73 -30 113 -70q78 -74 78 -180q0 -137 -101 -222q-55 -46 -141 -69l-162 -293h-178l190 276q-113 4 -205.5 50.5t-152.5 124.5z" />
<glyph unicode="&#x160;" horiz-adv-x="1093" d="M70 213l116 133q62 -83 157.5 -143t201.5 -60q119 0 197.5 64t78.5 174q0 30 -10 58t-21.5 47t-37 39.5t-39 30.5t-46 25.5t-39 18t-36.5 14.5q-167 65 -225 95q-85 38 -142 100q-92 96 -92 246q0 165 129 272q124 105 326 105q231 0 405 -183l-104 -135 q-144 152 -311 152q-109 0 -177.5 -51t-68.5 -146q0 -47 15 -83t44.5 -61t56.5 -40t66 -31l260 -109q31 -14 80 -46t80 -68q86 -105 86 -238q0 -91 -39 -170t-109 -137q-136 -111 -346 -111q-71 0 -137 18.5t-110.5 41.5t-91 61.5t-67 60.5t-50.5 56zM317 1817h144l125 -205 l123 205h143l-186 -297h-162z" />
<glyph unicode="&#x161;" horiz-adv-x="847" d="M41 152l94 114q53 -65 134 -102t153 -37q78 0 132 33t54 106q0 25 -12.5 47.5t-28.5 36.5t-45 28.5t-46 20.5t-49 16.5t-38 12.5q-18 6 -41 13.5t-34 11.5t-26.5 10.5t-31.5 15.5q-154 78 -154 234q0 129 96 203.5t232 74.5q215 0 332 -127l-82 -121q-44 46 -111 75.5 t-135 29.5q-72 0 -113.5 -31t-41.5 -90q0 -23 11.5 -43t27 -33.5t43.5 -27t50.5 -22t57.5 -19.5q81 -28 131 -47q73 -30 113 -70q78 -74 78 -180q0 -137 -101 -222q-106 -86 -270 -86q-120 0 -218 46.5t-161 128.5zM160 1413h143l125 -205l123 205h143l-186 -297h-162z" />
<glyph unicode="&#x162;" horiz-adv-x="1026" d="M14 1247v166h996v-166h-398v-1247h-198v1247h-400zM375 -389l74 287h200l-129 -287h-145z" />
<glyph unicode="&#x163;" horiz-adv-x="636" d="M31 813v158h143v291h197v-291h233v-158h-233v-440q0 -73 4 -111.5t20 -66.5q29 -50 101 -50q25 0 50 5.5t38 11.5l12 6l12 -158q-76 -33 -178 -33q-139 0 -207 101q-30 44 -39.5 106.5t-9.5 184.5v444h-143zM215 -389l74 287h200l-129 -287h-145z" />
<glyph unicode="&#x164;" horiz-adv-x="1026" d="M14 1247v166h996v-166h-398v-1247h-198v1247h-400zM246 1851h143l123 -204l125 204h143l-186 -297h-162z" />
<glyph unicode="&#x165;" horiz-adv-x="636" d="M31 813v158h143v291h197v-291h233v-158h-233v-440q0 -73 4 -111.5t20 -66.5q29 -50 101 -50q25 0 50 5.5t38 11.5l12 6l12 -158q-76 -33 -178 -33q-139 0 -207 101q-30 44 -39.5 106.5t-9.5 184.5v444h-143zM485 1081l138 439h200l-182 -439h-156z" />
<glyph unicode="&#x166;" horiz-adv-x="1026" d="M14 1247v166h996v-166h-398v-373h187v-153h-187v-721h-198v721h-187v153h187v373h-400z" />
<glyph unicode="&#x167;" horiz-adv-x="636" d="M31 813v158h143v291h197v-291h233v-158h-233v-149h192v-164h-192v-127q0 -73 4 -111.5t20 -66.5q29 -50 101 -50q25 0 50 5.5t38 11.5l12 6l12 -158q-76 -33 -178 -33q-139 0 -207 101q-30 44 -39.5 106.5t-9.5 184.5v131h-106v164h106v149h-143z" />
<glyph unicode="&#x168;" d="M145 578v835h201v-817q0 -74 3 -119t18 -102t45 -96q91 -125 272 -125q177 0 272 125q30 39 45 96.5t18 102.5t3 118v817h199v-835q0 -148 -23 -249.5t-90 -181.5q-149 -172 -424 -172q-278 0 -424 172q-68 80 -91.5 181t-23.5 250zM362 1628q6 83 62 137t127 54 q27 0 52.5 -6t39 -12.5t31.5 -16.5t22 -12t28.5 -17t47.5 -24t45 -9q35 0 58.5 24.5t31.5 61.5l97 -20q-6 -82 -62 -135.5t-127 -53.5q-22 0 -42 3.5t-36.5 9.5t-27 11t-23.5 13t-16 9q-4 2 -22 13.5t-30 18t-32 13t-37 6.5q-35 0 -59.5 -25.5t-30.5 -62.5z" />
<glyph unicode="&#x169;" horiz-adv-x="1097" d="M127 391v584h195v-576q0 -56 7.5 -97.5t28 -80.5t62 -59.5t104.5 -20.5q121 0 181.5 89t60.5 223v522h197v-975h-191l-2 139q-41 -73 -121 -117.5t-180 -44.5q-183 0 -270 113q-72 97 -72 301zM227 1190q6 82 62 136t127 54q27 0 52.5 -6t39 -12.5t31.5 -16.5t22 -12 q3 -2 28.5 -17t48 -23.5t44.5 -8.5q35 0 58.5 24.5t31.5 61.5l96 -20q-6 -82 -61.5 -135.5t-126.5 -53.5q-22 0 -42 3t-37 9.5t-27 11t-23.5 12.5t-15.5 9q-4 2 -22 13.5t-30 18t-32 13t-37 6.5q-35 0 -59.5 -25.5t-30.5 -62.5z" />
<glyph unicode="&#x16a;" d="M145 578v835h201v-817q0 -74 3 -119t18 -102t45 -96q91 -125 272 -125q177 0 272 125q30 39 45 96.5t18 102.5t3 118v817h199v-835q0 -148 -23 -249.5t-90 -181.5q-149 -172 -424 -172q-278 0 -424 172q-68 80 -91.5 181t-23.5 250zM418 1651v112h530v-112h-530z" />
<glyph unicode="&#x16b;" horiz-adv-x="1097" d="M127 391v584h195v-576q0 -56 7.5 -97.5t28 -80.5t62 -59.5t104.5 -20.5q121 0 181.5 89t60.5 223v522h197v-975h-191l-2 139q-41 -73 -121 -117.5t-180 -44.5q-183 0 -270 113q-72 97 -72 301zM283 1212v113h530v-113h-530z" />
<glyph unicode="&#x16c;" d="M145 578v835h201v-817q0 -74 3 -119t18 -102t45 -96q91 -125 272 -125q177 0 272 125q30 39 45 96.5t18 102.5t3 118v817h199v-835q0 -148 -23 -249.5t-90 -181.5q-149 -172 -424 -172q-278 0 -424 172q-68 80 -91.5 181t-23.5 250zM379 1829h98q35 -133 205 -133 q173 0 205 133h100q-17 -124 -97 -188t-208 -64q-127 0 -206.5 64t-96.5 188z" />
<glyph unicode="&#x16d;" horiz-adv-x="1097" d="M127 391v584h195v-576q0 -56 7.5 -97.5t28 -80.5t62 -59.5t104.5 -20.5q121 0 181.5 89t60.5 223v522h197v-975h-191l-2 139q-41 -73 -121 -117.5t-180 -44.5q-183 0 -270 113q-72 97 -72 301zM244 1391h98q18 -69 72.5 -101.5t132.5 -32.5q80 0 134.5 32.5t70.5 101.5 h100q-17 -124 -97 -188t-208 -64q-127 0 -206.5 64t-96.5 188z" />
<glyph unicode="&#x16e;" d="M145 578v835h201v-817q0 -74 3 -119t18 -102t45 -96q91 -125 272 -125q177 0 272 125q30 39 45 96.5t18 102.5t3 118v817h199v-835q0 -148 -23 -249.5t-90 -181.5q-149 -172 -424 -172q-278 0 -424 172q-68 80 -91.5 181t-23.5 250zM477 1743q0 85 59.5 139.5t145.5 54.5 t145.5 -54.5t59.5 -139.5t-59.5 -140t-145.5 -55t-145.5 55t-59.5 140zM578 1743q0 -46 29.5 -77.5t74.5 -31.5t75.5 31.5t30.5 77.5t-30 76t-76 30t-75 -30t-29 -76z" />
<glyph unicode="&#x16f;" horiz-adv-x="1097" d="M127 391v584h195v-576q0 -56 7.5 -97.5t28 -80.5t62 -59.5t104.5 -20.5q121 0 181.5 89t60.5 223v522h197v-975h-191l-2 139q-41 -73 -121 -117.5t-180 -44.5q-183 0 -270 113q-72 97 -72 301zM344 1305q0 85 59.5 139.5t145.5 54.5t145.5 -54.5t59.5 -139.5t-59.5 -140 t-145.5 -55t-145.5 55t-59.5 140zM444 1305q0 -46 30 -77.5t75 -31.5t75.5 31.5t30.5 77.5t-30 76t-76 30t-75.5 -30t-29.5 -76z" />
<glyph unicode="&#x170;" d="M145 578v835h201v-817q0 -74 3 -119t18 -102t45 -96q91 -125 272 -125q177 0 272 125q30 39 45 96.5t18 102.5t3 118v817h199v-835q0 -148 -23 -249.5t-90 -181.5q-149 -172 -424 -172q-278 0 -424 172q-68 80 -91.5 181t-23.5 250zM436 1554l185 297h190l-227 -297h-148 zM719 1554l184 297h189l-228 -297h-145z" />
<glyph unicode="&#x171;" horiz-adv-x="1097" d="M127 391v584h195v-576q0 -56 7.5 -97.5t28 -80.5t62 -59.5t104.5 -20.5q121 0 181.5 89t60.5 223v522h197v-975h-191l-2 139q-41 -73 -121 -117.5t-180 -44.5q-183 0 -270 113q-72 97 -72 301zM285 1116l184 297h190l-227 -297h-147zM567 1116l185 297h188l-227 -297 h-146z" />
<glyph unicode="&#x172;" d="M145 578v835h201v-817q0 -74 3 -119t18 -102t45 -96q91 -125 272 -125q177 0 272 125q30 39 45 96.5t18 102.5t3 118v817h199v-835q0 -151 -22.5 -252t-90.5 -179q-113 -131 -305 -161q-53 -40 -88 -92.5t-35 -98.5q0 -53 35 -79.5t86 -26.5q66 0 141 45l31 -64 q-4 -4 -11 -9.5t-29 -21t-45.5 -27t-58.5 -21t-69 -9.5q-92 0 -151.5 49.5t-59.5 135.5q0 109 115 208q-263 6 -404 172q-68 80 -91.5 181t-23.5 250z" />
<glyph unicode="&#x173;" horiz-adv-x="1097" d="M127 391v584h195v-576q0 -56 7.5 -97.5t28 -80.5t62 -59.5t104.5 -20.5q121 0 181.5 89t60.5 223v522h197v-975q-100 -26 -157.5 -89t-57.5 -124q0 -53 34.5 -79.5t85.5 -26.5q67 0 142 45l30 -64q-4 -4 -11 -9.5t-29 -21t-45.5 -27t-58.5 -21t-69 -9.5 q-92 0 -151.5 49.5t-59.5 134.5q0 130 156 242l-2 139q-41 -73 -121 -117.5t-180 -44.5q-183 0 -270 113q-72 97 -72 301z" />
<glyph unicode="&#x174;" horiz-adv-x="1902" d="M10 1413h209l305 -1114l326 1114h203l325 -1114l305 1114h209l-407 -1415h-195l-340 1143l-338 -1143h-194zM684 1554l186 297h162l187 -297h-144l-125 205l-123 -205h-143z" />
<glyph unicode="&#x175;" horiz-adv-x="1558" d="M20 973h199l225 -735l256 737h158l256 -737l225 735h199l-321 -973h-181l-256 727l-258 -727h-180zM512 1116l186 297h162l187 -297h-144l-125 205l-123 -205h-143z" />
<glyph unicode="&#x176;" horiz-adv-x="1177" d="M-2 1413h223l367 -649l368 649h224l-492 -821v-592h-199v592zM322 1554l186 297h162l186 -297h-143l-125 205l-123 -205h-143z" />
<glyph unicode="&#x177;" horiz-adv-x="980" d="M2 975l205 -2l289 -756l286 758l203 -2l-469 -1143q-50 -122 -110.5 -173.5t-145.5 -51.5q-48 0 -94 8.5t-68 17.5l-22 9l39 159q53 -22 102 -22q19 0 25.5 0.5t23.5 5.5t27 16t24.5 34.5t26.5 57.5l47 129zM223 1116l187 297h161l187 -297h-144l-125 205l-122 -205h-144 z" />
<glyph unicode="&#x178;" horiz-adv-x="1177" d="M-2 1413h223l367 -649l368 649h224l-492 -821v-592h-199v592zM324 1675q0 50 31 80.5t77 30.5q45 0 76 -30.5t31 -80.5q0 -49 -31 -79.5t-76 -30.5t-76.5 31t-31.5 79zM639 1675q0 50 30.5 80.5t75.5 30.5q46 0 77.5 -30.5t31.5 -80.5q0 -48 -32 -79t-77 -31t-75.5 30.5 t-30.5 79.5z" />
<glyph unicode="&#x179;" horiz-adv-x="1159" d="M61 0v152l773 1093h-750v168h1010v-135l-785 -1108h799v-170h-1047zM453 1554l182 297h192l-225 -297h-149z" />
<glyph unicode="&#x17a;" horiz-adv-x="933" d="M43 0v121l569 692h-540v158h790v-119l-567 -690h596v-162h-848zM338 1116l182 297h193l-226 -297h-149z" />
<glyph unicode="&#x17b;" horiz-adv-x="1159" d="M61 0v152l773 1093h-750v168h1010v-135l-785 -1108h799v-170h-1047zM489 1704q0 47 31.5 77.5t77.5 30.5t78.5 -30.5t32.5 -77.5q0 -46 -32.5 -77.5t-78.5 -31.5t-77.5 31.5t-31.5 77.5z" />
<glyph unicode="&#x17c;" horiz-adv-x="933" d="M43 0v121l569 692h-540v158h790v-119l-567 -690h596v-162h-848zM356 1266q0 47 31.5 77.5t77.5 30.5t78 -30.5t32 -77.5q0 -46 -32 -77.5t-78 -31.5t-77.5 31.5t-31.5 77.5z" />
<glyph unicode="&#x17d;" horiz-adv-x="1159" d="M61 0v152l773 1093h-750v168h1010v-135l-785 -1108h799v-170h-1047zM322 1817h143l123 -205l125 205h143l-186 -297h-162z" />
<glyph unicode="&#x17e;" horiz-adv-x="933" d="M43 0v121l569 692h-540v158h790v-119l-567 -690h596v-162h-848zM199 1413h143l125 -205l125 205h143l-188 -297h-160z" />
<glyph unicode="&#x192;" horiz-adv-x="1200" d="M88 -203l57 148q43 -29 115 -29q60 0 98 47q33 39 56 164l108 584h-188l26 145h191l53 274q23 119 66 185q52 79 96 106q58 39 137 39q62 0 119.5 -19.5t77.5 -33.5l-53 -143q-55 34 -121 34q-30 0 -53.5 -11.5t-38 -28t-26 -45.5t-17.5 -52.5t-13 -60.5l-47 -244h230 l-25 -145h-231l-117 -627q-14 -73 -34.5 -128t-57 -104.5t-95 -75.5t-137.5 -26q-44 0 -88 12t-66 24z" />
<glyph unicode="&#x1fc;" horiz-adv-x="1800" d="M-61 0l888 1413h869v-166h-572v-413h537v-166h-537v-500h588v-168h-786v373h-539l-225 -373h-223zM487 537h439v714h-4zM1145 1554l182 297h193l-226 -297h-149z" />
<glyph unicode="&#x1fd;" horiz-adv-x="1703" d="M53 279q0 140 103.5 215t281.5 81l256 11v41q0 106 -65.5 162.5t-175.5 56.5q-64 0 -131.5 -18t-101.5 -34t-60 -32l-60 131q172 98 365 98q188 0 283 -88q24 -22 41 -44.5t23 -34.5l5 -11q59 85 154.5 131.5t212.5 46.5q202 0 330 -131t128 -334l-4 -86h-751 q7 -142 92.5 -225.5t222.5 -83.5q51 0 99 10t86 26.5t63.5 30.5t48.5 29.5t25 16.5l82 -113q-1 0 -12.5 -11.5t-28 -24t-42 -29.5t-60 -32t-75.5 -28t-96 -21t-114 -8q-69 0 -130.5 15.5t-100 35t-75 50t-51 47t-32.5 40.5q-5 6 -7 9q-81 -98 -170.5 -147.5t-220.5 -49.5 q-145 0 -241.5 83t-96.5 219zM248 285q0 -72 53 -120t145 -48q90 0 169 51.5t110 112.5q-31 80 -31 186l-225 -14q-115 -6 -168 -51.5t-53 -116.5zM743 1116l183 297h192l-225 -297h-150zM891 571h565q0 43 -16.5 90t-48 90t-87.5 71t-126 28t-126.5 -26.5t-90 -69.5 t-51 -90t-19.5 -93z" />
<glyph unicode="&#x1fe;" horiz-adv-x="1609" d="M76 705q0 166 58 304.5t157.5 230.5t232 143t281.5 51q270 0 469 -154l162 166l98 -98l-162 -166q162 -192 162 -477q0 -166 -58 -304.5t-157 -231t-231.5 -143.5t-282.5 -51q-269 0 -467 156l-160 -164l-98 99l158 161q-162 196 -162 478zM279 709q0 -198 100 -338 l764 776q-143 115 -338 115q-108 0 -204 -38.5t-167.5 -108t-113 -174.5t-41.5 -232zM473 268q143 -112 332 -112q108 0 204 38.5t167.5 108.5t113 175t41.5 231q0 193 -96 335zM731 1520l182 297h191l-225 -297h-148z" />
<glyph unicode="&#x1ff;" horiz-adv-x="1169" d="M55 45l119 121q-104 132 -104 317q0 223 147.5 365.5t368.5 142.5q179 0 319 -100l121 121l88 -86l-121 -121q107 -132 107 -322q0 -224 -146.5 -365t-367.5 -141q-187 0 -324 103l-121 -119zM268 489q0 -104 45 -186l467 465q-78 63 -194 63q-145 0 -231.5 -97 t-86.5 -245zM391 209q80 -64 195 -64q143 0 229 98t86 246q0 104 -43 183zM475 1116l182 297h191l-225 -297h-148z" />
<glyph unicode="&#x237;" horiz-adv-x="483" d="M-90 -385l2 156q41 -15 92 -15q37 0 63 13.5t40.5 34t23 55.5t10.5 66.5t2 78.5v969h197v-975q0 -194 -61 -279q-90 -120 -246 -120q-36 0 -66.5 4t-43.5 8z" />
<glyph unicode="&#x2c6;" horiz-adv-x="686" d="M76 1116l186 297h162l186 -297h-143l-125 205l-123 -205h-143z" />
<glyph unicode="&#x2c7;" horiz-adv-x="686" d="M76 1413h143l123 -205l125 205h143l-186 -297h-162z" />
<glyph unicode="&#x2d8;" horiz-adv-x="686" d="M39 1391h98q18 -69 72.5 -101.5t132.5 -32.5q80 0 134.5 32.5t70.5 101.5h100q-17 -124 -97 -188t-208 -64q-127 0 -206.5 64t-96.5 188z" />
<glyph unicode="&#x2d9;" horiz-adv-x="686" d="M233 1266q0 47 31.5 77.5t77.5 30.5t78.5 -30.5t32.5 -77.5q0 -46 -32.5 -77.5t-78.5 -31.5t-77.5 31.5t-31.5 77.5z" />
<glyph unicode="&#x2da;" horiz-adv-x="686" d="M137 1305q0 85 59.5 139.5t145.5 54.5t145.5 -54.5t59.5 -139.5t-59.5 -140t-145.5 -55t-145.5 55t-59.5 140zM238 1305q0 -46 29.5 -77.5t74.5 -31.5q46 0 76.5 31.5t30.5 77.5t-30.5 76t-76.5 30t-75 -30t-29 -76z" />
<glyph unicode="&#x2db;" horiz-adv-x="686" d="M131 -242q0 134 170 252h121v-10q-64 -37 -112 -98t-48 -115q0 -53 35 -79.5t86 -26.5q66 0 141 45l31 -64q-4 -4 -11 -9.5t-29 -21t-45.5 -27t-58.5 -21t-69 -9.5q-92 0 -151.5 49.5t-59.5 134.5z" />
<glyph unicode="&#x2dc;" horiz-adv-x="686" d="M23 1190q6 83 61.5 136.5t126.5 53.5q27 0 52.5 -6t39 -12.5t31.5 -16.5t22 -12q3 -2 28.5 -17t48 -23.5t44.5 -8.5q35 0 58.5 24.5t31.5 61.5l97 -20q-6 -82 -62 -135.5t-127 -53.5q-22 0 -42 3t-37 9.5t-27 11t-23.5 12.5t-15.5 9q-4 2 -22 13.5t-30 18t-32 13t-37 6.5 q-35 0 -59.5 -25.5t-30.5 -62.5z" />
<glyph unicode="&#x2dd;" horiz-adv-x="686" d="M14 1116l185 297h190l-227 -297h-148zM297 1116l184 297h189l-228 -297h-145z" />
<glyph unicode="&#x1e80;" horiz-adv-x="1902" d="M10 1413h209l305 -1114l326 1114h203l325 -1114l305 1114h209l-407 -1415h-195l-340 1143l-338 -1143h-194zM764 1851h192l183 -297h-150z" />
<glyph unicode="&#x1e81;" horiz-adv-x="1558" d="M20 973h199l225 -735l256 737h158l256 -737l225 735h199l-321 -973h-181l-256 727l-258 -727h-180zM551 1413h192l183 -297h-150z" />
<glyph unicode="&#x1e82;" horiz-adv-x="1902" d="M10 1413h209l305 -1114l326 1114h203l325 -1114l305 1114h209l-407 -1415h-195l-340 1143l-338 -1143h-194zM764 1554l182 297h193l-226 -297h-149z" />
<glyph unicode="&#x1e83;" horiz-adv-x="1558" d="M20 973h199l225 -735l256 737h158l256 -737l225 735h199l-321 -973h-181l-256 727l-258 -727h-180zM592 1116l182 297h193l-226 -297h-149z" />
<glyph unicode="&#x1e84;" horiz-adv-x="1902" d="M10 1413h209l305 -1114l326 1114h203l325 -1114l305 1114h209l-407 -1415h-195l-340 1143l-338 -1143h-194zM686 1702q0 50 31.5 80t77.5 30q44 0 75 -30.5t31 -79.5q0 -48 -31 -78.5t-75 -30.5q-46 0 -77.5 30.5t-31.5 78.5zM1001 1702q0 49 31.5 79.5t75.5 30.5 q46 0 77.5 -30t31.5 -80q0 -48 -31.5 -78.5t-77.5 -30.5q-44 0 -75.5 30.5t-31.5 78.5z" />
<glyph unicode="&#x1e85;" horiz-adv-x="1558" d="M20 973h199l225 -735l256 737h158l256 -737l225 735h199l-321 -973h-181l-256 727l-258 -727h-180zM514 1264q0 50 31.5 80t77.5 30q44 0 75 -30.5t31 -79.5q0 -48 -31 -78.5t-75 -30.5q-46 0 -77.5 30.5t-31.5 78.5zM829 1264q0 49 31.5 79.5t75.5 30.5q46 0 77 -30 t31 -80q0 -48 -31.5 -78.5t-76.5 -30.5q-44 0 -75.5 30.5t-31.5 78.5z" />
<glyph unicode="&#x1ef2;" horiz-adv-x="1177" d="M-2 1413h223l367 -649l368 649h224l-492 -821v-592h-199v592zM328 1851h192l182 -297h-149z" />
<glyph unicode="&#x1ef3;" horiz-adv-x="980" d="M2 975l205 -2l289 -756l286 758l203 -2l-469 -1143q-50 -122 -110.5 -173.5t-145.5 -51.5q-48 0 -94 8.5t-68 17.5l-22 9l39 159q53 -22 102 -22q19 0 25.5 0.5t23.5 5.5t27 16t24.5 34.5t26.5 57.5l47 129zM238 1413h192l182 -297h-149z" />
<glyph unicode="&#x2000;" horiz-adv-x="968" />
<glyph unicode="&#x2001;" horiz-adv-x="1937" />
<glyph unicode="&#x2002;" horiz-adv-x="968" />
<glyph unicode="&#x2003;" horiz-adv-x="1937" />
<glyph unicode="&#x2004;" horiz-adv-x="645" />
<glyph unicode="&#x2005;" horiz-adv-x="484" />
<glyph unicode="&#x2006;" horiz-adv-x="322" />
<glyph unicode="&#x2007;" horiz-adv-x="322" />
<glyph unicode="&#x2008;" horiz-adv-x="242" />
<glyph unicode="&#x2009;" horiz-adv-x="387" />
<glyph unicode="&#x200a;" horiz-adv-x="107" />
<glyph unicode="&#x2010;" horiz-adv-x="598" d="M51 479v164h496v-164h-496z" />
<glyph unicode="&#x2011;" horiz-adv-x="598" d="M51 479v164h496v-164h-496z" />
<glyph unicode="&#x2012;" horiz-adv-x="598" d="M51 479v164h496v-164h-496z" />
<glyph unicode="&#x2013;" horiz-adv-x="946" d="M0 483v154h946v-154h-946z" />
<glyph unicode="&#x2014;" horiz-adv-x="1740" d="M12 483v154h1717v-154h-1717z" />
<glyph unicode="&#x2018;" horiz-adv-x="638" d="M158 975l182 438h156l-138 -438h-200z" />
<glyph unicode="&#x2019;" horiz-adv-x="638" d="M143 975l138 438h200l-182 -438h-156z" />
<glyph unicode="&#x201a;" horiz-adv-x="638" d="M143 -238l138 437h200l-182 -437h-156z" />
<glyph unicode="&#x201c;" horiz-adv-x="1001" d="M162 975l180 438h152l-138 -438h-194zM522 975l183 438h149l-137 -438h-195z" />
<glyph unicode="&#x201d;" horiz-adv-x="1001" d="M145 975l140 438h194l-182 -438h-152zM506 975l139 438h195l-183 -438h-151z" />
<glyph unicode="&#x201e;" horiz-adv-x="1001" d="M145 -238l140 437h194l-182 -437h-152zM506 -238l139 437h195l-183 -437h-151z" />
<glyph unicode="&#x2020;" horiz-adv-x="1230" d="M137 817v154h395v516h166v-516h396v-154h-396v-1177h-166v1177h-395z" />
<glyph unicode="&#x2021;" horiz-adv-x="1230" d="M137 145v154h395v528h-395v154h395v506h166v-506h396v-154h-396v-528h396v-154h-396v-505h-166v505h-395z" />
<glyph unicode="&#x2022;" horiz-adv-x="1107" d="M246 748q0 125 91.5 217t217.5 92q124 0 215.5 -92t91.5 -217t-91.5 -217.5t-215.5 -92.5q-126 0 -217.5 92.5t-91.5 217.5z" />
<glyph unicode="&#x2026;" horiz-adv-x="1933" d="M211 109q0 55 36.5 88.5t94.5 33.5t94.5 -33.5t36.5 -88.5t-37 -90t-94 -35t-94 35t-37 90zM836 109q0 55 36.5 88.5t94.5 33.5t94.5 -33.5t36.5 -88.5t-37 -90t-94 -35t-94 35t-37 90zM1460 109q0 55 36.5 88.5t94.5 33.5q56 0 93.5 -33.5t37.5 -88.5t-37.5 -90 t-93.5 -35q-57 0 -94 35t-37 90z" />
<glyph unicode="&#x202f;" horiz-adv-x="387" />
<glyph unicode="&#x2030;" horiz-adv-x="2312" d="M63 1083q0 150 94 245t240 95t240 -95t94 -245q0 -151 -94 -246.5t-240 -95.5t-240 95.5t-94 246.5zM207 1083q0 -94 51.5 -152.5t138.5 -58.5t139 59t52 152q0 95 -52 154t-139 59t-138.5 -59t-51.5 -154zM309 14l875 1432l102 -62l-874 -1431zM864 315q0 151 94 245.5 t240 94.5t240 -94.5t94 -245.5t-94 -245.5t-240 -94.5t-240 94.5t-94 245.5zM1008 317q0 -95 51.5 -154t138.5 -59t139 59t52 154q0 94 -52 153.5t-139 59.5q-86 0 -138 -59.5t-52 -153.5zM1581 315q0 151 94 245.5t240 94.5t240 -94.5t94 -245.5t-94 -245.5t-240 -94.5 t-240 94.5t-94 245.5zM1724 317q0 -95 52 -154t139 -59t138.5 59t51.5 154q0 94 -52 153.5t-138 59.5q-87 0 -139 -59.5t-52 -153.5z" />
<glyph unicode="&#x2039;" horiz-adv-x="649" d="M113 487l305 406l106 -80l-241 -326l243 -327l-108 -80z" />
<glyph unicode="&#x203a;" horiz-adv-x="649" d="M123 815l110 78l304 -406l-304 -407l-108 82l242 325z" />
<glyph unicode="&#x2044;" horiz-adv-x="407" d="M-307 10l917 1518l105 -62l-920 -1519z" />
<glyph unicode="&#x205f;" horiz-adv-x="484" />
<glyph unicode="&#x20ac;" horiz-adv-x="1200" d="M72 510v133l123 2q-2 39 -2 72v69h-121v134h139q17 107 64 204t112 164q140 146 348 146q72 0 134 -14.5t109.5 -42t67.5 -42.5t50 -41l-68 -153q-105 133 -289 133q-123 0 -209.5 -88t-113.5 -266h510v-134h-529v-69l2 -74h527v-133h-510q22 -171 108 -267t217 -96 q58 0 109 15t87.5 40t58.5 44.5t42 41.5q4 5 6 7l82 -131l-8 -10q-7 -10 -13 -17.5t-19.5 -22t-26.5 -26t-33.5 -26.5t-41.5 -26.5t-49.5 -23.5t-58.5 -19.5t-67.5 -12.5t-77.5 -5q-205 0 -343 141t-179 394h-137z" />
<glyph unicode="&#x2122;" horiz-adv-x="1740" d="M100 1298v115h592v-115h-229v-700h-133v700h-230zM737 598l64 815h180l199 -612h4l196 612h183l63 -815h-133l-45 641h-4l-211 -641h-105l-208 641h-7l-43 -641h-133z" />
<glyph unicode="&#x220f;" horiz-adv-x="1699" d="M102 442v154h189v231h-189v154h189v432h426q171 0 306.5 -52.5t221.5 -131.5q118 -114 170 -248h182v-154h-141q8 -78 8 -120q0 -64 -8 -111h141v-154h-178q-53 -145 -174 -258q-86 -79 -221.5 -131.5t-306.5 -52.5h-426v442h-189zM489 172h228q239 0 377 131 q64 64 106 139h-711v-270zM489 596h762q11 60 11 111q0 60 -13 120h-760v-231zM489 981h705q-44 78 -100 131q-138 131 -377 131h-228v-262z" />
<glyph unicode="&#x2212;" d="M147 631v151h1072v-151h-1072z" />
<glyph unicode="&#x2260;" d="M147 444v152h435l51 221h-486v150h517l65 284h154l-66 -284h402v-150h-433l-51 -221h484v-152h-517l-65 -282h-154l66 282h-402z" />
<glyph unicode="&#x2264;" horiz-adv-x="2015" d="M96 819q0 47 34 81t81 34t81 -34t34 -81t-34 -80.5t-81 -33.5t-81 33.5t-34 80.5zM270 584q0 47 34 80.5t81 33.5t81 -33.5t34 -80.5t-34 -81t-81 -34t-81 34t-34 81zM270 1055q0 47 34 80.5t81 33.5t81 -33.5t34 -80.5t-34 -81t-81 -34t-81 34t-34 81zM434 819 q0 47 34 81t81 34t81 -34t34 -81t-34 -80.5t-81 -33.5t-81 33.5t-34 80.5zM444 348q0 47 34 81t81 34t81 -34t34 -81t-34 -81t-81 -34t-81 34t-34 81zM444 1290q0 47 34 81t81 34t81 -34t34 -81t-34 -80.5t-81 -33.5t-81 33.5t-34 80.5zM618 113q0 47 34 80.5t81 33.5 t81 -33.5t34 -80.5t-34 -81t-81 -34t-81 34t-34 81zM618 1526q0 47 34 80.5t81 33.5t81 -33.5t34 -80.5t-34 -81t-81 -34t-81 34t-34 81zM772 819q0 47 34.5 81t80.5 34q47 0 80.5 -34t33.5 -81t-33.5 -80.5t-80.5 -33.5q-46 0 -80.5 33.5t-34.5 80.5zM1110 819q0 47 34 81 t81 34t80.5 -34t33.5 -81t-33.5 -80.5t-80.5 -33.5t-81 33.5t-34 80.5zM1448 819q0 47 34 81t81 34t80.5 -34t33.5 -81t-33.5 -80.5t-80.5 -33.5t-81 33.5t-34 80.5zM1786 819q0 47 34 81t81 34t80.5 -34t33.5 -81t-33.5 -80.5t-80.5 -33.5t-81 33.5t-34 80.5z" />
<glyph unicode="&#x2265;" horiz-adv-x="2015" d="M0 819q0 47 34 81t81 34t80.5 -34t33.5 -81t-33.5 -80.5t-80.5 -33.5t-81 33.5t-34 80.5zM338 819q0 47 34 81t81 34t80.5 -34t33.5 -81t-33.5 -80.5t-80.5 -33.5t-81 33.5t-34 80.5zM676 819q0 47 34 81t81 34t80.5 -34t33.5 -81t-33.5 -80.5t-80.5 -33.5t-81 33.5 t-34 80.5zM1014 819q0 47 33.5 81t80.5 34q46 0 80.5 -34t34.5 -81t-34.5 -80.5t-80.5 -33.5q-47 0 -80.5 33.5t-33.5 80.5zM1167 113q0 47 34 80.5t81 33.5t81 -33.5t34 -80.5t-34 -81t-81 -34t-81 34t-34 81zM1167 1526q0 47 34 80.5t81 33.5t81 -33.5t34 -80.5t-34 -81 t-81 -34t-81 34t-34 81zM1341 348q0 47 34 81t81 34t81 -34t34 -81t-34 -81t-81 -34t-81 34t-34 81zM1341 1290q0 47 34 81t81 34t81 -34t34 -81t-34 -80.5t-81 -33.5t-81 33.5t-34 80.5zM1352 819q0 47 33.5 81t80.5 34t81 -34t34 -81t-34 -80.5t-81 -33.5t-80.5 33.5 t-33.5 80.5zM1516 584q0 47 33.5 80.5t80.5 33.5t81 -33.5t34 -80.5t-34 -81t-81 -34t-80.5 34t-33.5 81zM1516 1055q0 47 33.5 80.5t80.5 33.5t81 -33.5t34 -80.5t-34 -81t-81 -34t-80.5 34t-33.5 81zM1690 819q0 47 33.5 81t80.5 34t81 -34t34 -81t-34 -80.5t-81 -33.5 t-80.5 33.5t-33.5 80.5z" />
<glyph unicode="&#x25fc;" horiz-adv-x="972" d="M0 0v973h973v-973h-973z" />
<glyph unicode="&#xf6c3;" horiz-adv-x="616" d="M168 -389l74 287h200l-129 -287h-145z" />
<glyph unicode="&#xf8ff;" horiz-adv-x="2947" d="M45 49q38 14 87.5 29t62.5 20q72 26 129 90t57 121q0 68 -46.5 107t-115.5 39q-145 0 -145 -84q0 -25 27.5 -40.5t60.5 -15.5q19 0 40.5 10.5t30.5 17.5t35 28v-15q-17 -24 -47 -43.5t-59 -19.5q-42 0 -73.5 22t-31.5 56q0 98 154 98q89 0 138.5 -46t49.5 -122 q0 -58 -51.5 -115.5t-93.5 -83.5l29 -8q86 -19 143 -52t109 -105h-3v-3q-6 1 -17.5 4t-16.5 3q-26 0 -39 -13t-13 -32q0 -42 50 -66.5t96 -24.5q28 0 55.5 12t40.5 31h-8q-36 0 -75.5 20t-39.5 58q0 43 53 43q38 0 69.5 -25.5t31.5 -58.5q0 -2 -1 -8t-1 -8q49 12 86 47 t37 90q0 26 -11 60h7q12 -18 12 -60q0 -58 -40.5 -101t-98.5 -52q-14 -27 -48.5 -42.5t-68.5 -15.5q-56 0 -106 26t-50 75q0 24 14 40.5t39 16.5q15 0 25 -2q-72 62 -138 88.5t-157 26.5q-45 0 -174 -17zM113 1204q0 76 48 142.5t115 66.5q6 0 15 -1t12 -1v-10h-18 q-65 0 -112.5 -61.5t-47.5 -133.5q0 -68 49 -102q55 125 162 248t176 123q63 0 63 -109q0 -88 -72.5 -169.5t-166.5 -115.5q0 -1 -1 -3t-1 -3q-2 -9 -11 -46.5t-13 -54.5t-10 -46.5t-8.5 -51t-2.5 -38.5q0 -31 18.5 -50.5t33.5 -23.5t24 -4q50 0 100 37q-29 20 -70 20 q-14 0 -34 -4.5t-23 -7.5v6q7 7 24.5 12.5t26.5 5.5q51 0 86 -24q39 34 62.5 84t23.5 102q0 90 -57 90q-55 0 -90 -47.5t-35 -103.5q0 -13 2.5 -25.5t11.5 -24.5t23 -12q29 0 46 35.5t17 71.5q0 8 -4 24h12q5 -10 5 -24q0 -39 -23 -79t-53 -40q-49 0 -49 78q0 57 37.5 109.5 t93.5 52.5q43 0 68.5 -38t25.5 -91q0 -51 -26 -99t-72 -80q24 -24 24 -69q0 -77 -88 -113q2 -2 2 -8q0 -29 -26.5 -50.5t-55.5 -21.5h-8l6 6q19 0 43.5 17.5t24.5 42.5v10q-38 -14 -80 -14q-24 0 -53.5 5.5t-57.5 22.5t-28 41q0 25 28.5 37.5t55.5 12.5q35 0 80 -23.5 t65 -54.5q72 30 72 94q0 37 -17 57q-56 -32 -114 -32q-96 0 -159 67.5t-63 181.5q0 27 21 88q-53 39 -53 119zM217 657q0 -49 109 -49q40 0 84 15q-18 30 -57.5 50.5t-71.5 20.5q-64 0 -64 -37zM340 1100q83 36 142 126t59 187q0 41 -29 41q-19 0 -34.5 -20t-43.5 -78 q0 -1 -7.5 -20.5t-18.5 -48.5t-23.5 -62t-24.5 -67t-20 -58zM444 152q0 42 25 77t63 35q27 0 39.5 -17.5t12.5 -41.5q0 -43 -22.5 -77t-61.5 -34q-6 0 -17.5 4.5t-15.5 5.5q6 -24 26.5 -41.5t41.5 -17.5q23 0 42 10t34.5 32.5t26 43t22 57.5t17 58.5t15.5 62.5 q-45 18 -71 64q-18 -6 -29 -6q-115 0 -115 118q0 92 65 165t158 73q56 0 95.5 -12.5t64 -25.5t43.5 -13q13 0 33 4v-8q-53 -12 -104 -47.5t-84 -81.5q-4 38 -33 62t-70 24q-59 0 -105 -50.5t-46 -111.5q0 -86 92 -86q16 0 28 6q-10 20 -10 57q0 41 22 70t44 29q17 0 26 -12 t9 -29q0 -33 -22 -66t-52 -51q16 -38 63 -57q33 135 97 215q20 26 63.5 59t79.5 37v-10q-96 -46 -96 -224q0 -19 4 -77q65 33 65 94q0 51 -24 78v2q11 -6 19.5 -24.5t10.5 -37.5q13 26 39 46t62 20q47 0 71.5 -44t24.5 -108q0 -23 -36 -117.5t-36 -136.5q0 -35 19 -35 q24 0 44.5 31t36 85.5t27 106.5t24 118t19.5 96q34 -17 54 -17q11 0 22 4t16 7t17 11.5t14 10.5q-5 -26 -25.5 -116.5t-33 -161t-12.5 -119.5v-15l2 -28q34 -8 54.5 -35t20.5 -68q0 -56 -49 -98h-14q51 44 51 92q0 73 -59 84q10 -63 10 -106q0 -78 -66 -119t-147 -41 q-54 0 -95.5 30t-41.5 81q0 47 31.5 66.5t62.5 19.5q15 0 27 -3q27 56 92 82v7q-6 14 -6 47q-41 -84 -113 -84q-39 0 -65.5 42t-26.5 103q0 44 36.5 137t36.5 121q0 47 -18 47q-23 0 -44 -24t-24 -37q0 -74 -69 -109q0 -291 -238 -291q-69 0 -116.5 33t-47.5 101zM582 -84 q0 -26 30 -39.5t62 -13.5q17 0 24 5t7 21q0 28 -26 48t-54 20q-43 0 -43 -41zM618 438q0 -29 9 -47q26 18 46.5 48.5t20.5 56.5q0 30 -24 30q-27 0 -39.5 -29t-12.5 -59zM629 965q0 46 36.5 109.5t88.5 110t92 46.5q32 0 49 -47l10 41q40 -15 53 -15q15 0 26 4t26.5 15 t17.5 12q-4 -25 -25 -126t-38 -191t-17 -115q0 -27 17 -27q13 0 24.5 14.5t17.5 28.5t17 43h14q-25 -108 -94 -108q-34 0 -61 24.5t-35 73.5q-30 -61 -53.5 -80.5t-53.5 -19.5q-37 0 -64 38t-37.5 83t-10.5 86zM750 797q0 -17 12 -17q46 0 84 146q4 48 35 198q0 90 -29 90 q-19 0 -33.5 -36.5t-19.5 -67.5q-11 -48 -30 -163t-19 -150zM944 -113q0 -42 34.5 -67t80.5 -25q43 0 83 28.5t40 72.5q0 20 -7 46t-19 57.5t-15 43.5q-59 -20 -82 -70q28 -10 44.5 -32.5t16.5 -40.5q0 -13 -10.5 -26t-30.5 -13q-19 0 -33 19t-14 40t4 31h-24 q-32 0 -50 -16.5t-18 -47.5zM991 602q0 26 22 38.5t48 12.5l94 -10q51 0 51 37q0 23 -18 36t-43 13q-16 0 -30.5 -8t-14.5 -21q0 -22 24 -22q18 0 35 10l2 -12q-16 -8 -35 -8q-16 0 -27.5 8t-11.5 22q0 17 20 29t40 12q30 0 51 -15.5t21 -41.5q0 -25 -20 -36t-44 -11l-94 10 q-22 0 -42 -10.5t-20 -32.5q0 -15 13.5 -22t29.5 -7q27 0 80.5 26t71.5 26q42 0 69 -29t27 -74l-8 2v4q-7 41 -30.5 60.5t-45.5 19.5q-14 0 -63.5 -23.5t-98.5 -23.5q-27 0 -40 12t-13 29zM1051 -74q0 -19 6.5 -34t17.5 -15q12 0 18.5 6t6.5 13q0 32 -47 51q-2 -8 -2 -21z M1067 1122q7 23 14 38.5t19 33t29.5 26.5t41.5 9q83 0 97 -92q4 6 15.5 23.5t19 26.5t19.5 21t26 17.5t30 5.5q48 0 75.5 -56.5t27.5 -130.5q0 -82 -41 -202.5t-41 -177.5q0 -41 11 -67.5t28 -38t37.5 -22.5t39 -20.5t34 -33t20.5 -58.5q28 47 48.5 62.5t45.5 15.5 q38 0 67.5 -38.5t42.5 -83.5t13 -81q0 -61 -27 -125q31 -46 31 -94q0 -71 -41.5 -131t-110.5 -60q-27 0 -45 16t-18 42q0 19 13 32t32 13h12v-8q-16 0 -30.5 -10t-14.5 -27q0 -19 13.5 -31t31.5 -12q60 0 103 61t43 121q0 34 -23 72q-61 -129 -143 -129q-32 0 -47 25t-15 61 q0 56 29.5 88.5t60.5 38.5q23 150 23 223q0 5 -4.5 10.5t-13.5 5.5q-8 0 -19 -7.5t-22.5 -22t-20 -40t-8.5 -57.5q0 -43 -46.5 -282t-55.5 -267q-34 17 -54 17q-11 0 -21.5 -4t-16.5 -8t-15.5 -11t-13.5 -10q4 23 34 185t56 309t26 172q0 29 -9 49t-23 33t-31 25.5t-34.5 31 t-31.5 44.5t-23 72t-9 107q0 56 37.5 178t37.5 181q0 34 -14 34q-19 0 -48.5 -34.5t-49.5 -88.5q-5 -36 -33.5 -182.5t-28.5 -148.5q-36 18 -53 18q-37 0 -63 -20q3 21 21.5 125t32 190t13.5 111q0 28 -14 28q-28 0 -62 -86h-16zM1487 645v2q73 -80 155 -80q44 0 68 21 q-29 4 -61 15t-66.5 30t-57 51t-22.5 72q0 35 17 55l8 -6q-8 -28 -8 -45q0 -35 21 -64t54 -46t67 -27t67 -13q6 12 6 29q0 36 -30.5 62t-72.5 26q-36 0 -63 -16l-6 2q24 24 67 24q44 0 79.5 -27.5t35.5 -68.5q0 -15 -4 -31h6q59 0 109 30.5t61 88.5l16 -8 q-12 -56 -67.5 -95.5t-124.5 -39.5h-17q-27 -27 -77 -27t-94 22.5t-66 63.5zM1546 965q0 46 36 109.5t88 110t91 46.5q40 0 54 -47l10 41q40 -15 55 -15q9 0 19.5 3.5t16.5 7t17 11t15 9.5q-1 -5 -24.5 -121.5t-38.5 -201t-15 -109.5q0 -27 12 -27q30 0 62 86h14 q-25 -108 -92 -108q-79 0 -99 98q-32 -60 -54.5 -80t-49.5 -20q-38 0 -66 38t-39.5 83.5t-11.5 85.5zM1561 106q0 -57 36 -57q8 0 14.5 12t11 35.5t7 41t5 48t3.5 37.5q-33 -3 -55 -39.5t-22 -77.5zM1669 797q0 -17 10 -17q51 0 86 146q2 35 35 198q0 90 -28 90 q-12 0 -20.5 -7t-14.5 -22.5t-9 -24t-6 -29.5l-4 -21q-49 -276 -49 -313zM1829 252q0 44 36.5 102t99 103t124.5 45q34 0 58 -26.5t24 -80.5q0 -70 -66.5 -121t-140.5 -59q-20 -103 -20 -135q0 -17 11.5 -26t29.5 -9q8 0 12 2v2q0 63 40 130t97 67q27 0 27 -41 q0 -52 -48.5 -109t-101.5 -63q0 -91 31 -134.5t84 -43.5q91 0 201 110q-58 27 -93.5 78.5t-35.5 118.5q0 51 30 96t78 55v-6q-47 -13 -71.5 -55.5t-24.5 -95.5q0 -58 36 -104t95 -72q89 100 123 208l-185 56l80 32l-106 220l86 -27l-19 129l84 -92l50 72l49 -160l69 219 l35 -57l127 75v-145h78l-168 -166l166 47l-27 -86l125 -12l-121 -57l66 -52l-232 -45l17 -82l-144 115q-51 -118 -131 -201q35 -14 84 -14q59 0 94 21t56 63h4q-7 -47 -51 -75.5t-94 -28.5q-51 0 -109 20q-118 -121 -231 -121q-119 0 -119 195q-2 -2 -12 -2q-64 0 -110 58.5 t-46 164.5zM1966 231q39 6 70.5 48.5t46 89.5t14.5 82q0 34 -16 34q-65 0 -115 -254zM1980 965q0 46 36 109.5t88 110t91 46.5q36 0 50 -39q9 49 19.5 102t17.5 85.5t8 35.5q32 -16 53 -16q11 0 21.5 3.5t17 7.5t17.5 11.5t16 10.5q-1 -5 -33 -169.5t-56 -296t-24 -157.5 q0 -27 14 -27q27 0 54.5 52.5t39.5 101.5h19q-45 -176 -125 -176q-35 0 -64.5 25.5t-37.5 74.5q-32 -62 -55 -82t-52 -20q-38 0 -65.5 38t-38.5 83t-11 86zM1997 639q0 31 26 60t60 30v-6q-27 -5 -48.5 -26t-21.5 -46q0 -84 117 -84q124 0 129 80q-4 -2 -12 -2 q-38 0 -63 15.5t-25 41.5q0 11 12.5 21t23.5 10q24 0 45 -19t29 -46q51 6 95.5 42.5t56.5 84.5h4q-10 -64 -54.5 -102t-101.5 -46q0 -42 -42.5 -75t-100.5 -33q-30 0 -57.5 8t-49.5 32t-22 60zM2009 49q39 0 87 56t48 106q0 22 -14 22q-46 0 -83.5 -62t-37.5 -118v-4z M2099 797q0 -17 15 -17q39 0 61 69.5t59 291.5q-5 73 -30 73q-8 0 -15 -4t-12 -12t-8.5 -15.5t-7 -19.5t-5 -19t-3.5 -19t-3 -15q-11 -51 -31 -165.5t-20 -147.5zM2177 700q0 -32 74 -32h6q-5 23 -19.5 38t-35.5 15q-25 0 -25 -21zM2456 965q0 46 37 109.5t89 110t91 46.5 q36 0 53 -47l10 41q40 -15 53 -15q8 0 16 2t15.5 6t12.5 7t13 8.5t11 7.5q-4 -25 -24.5 -126.5t-37 -191t-16.5 -114.5q0 -27 14 -27q28 0 60 86h16q-9 -31 -17.5 -51.5t-28.5 -38.5t-48 -18q-36 0 -61.5 24t-34.5 74q-33 -61 -55.5 -80.5t-49.5 -19.5q-38 0 -66.5 38 t-40 83.5t-11.5 85.5zM2578 797q0 -17 13 -17q49 0 84 146q4 48 35 198q0 90 -29 90q-39 0 -53 -104q-50 -281 -50 -313z" />
</font>
</defs>
</svg>
