<?xml version="1.0" standalone="no"?>
<!DOCTYPE svg PUBLIC "-//W3C//DTD SVG 1.1//EN" "http://www.w3.org/Graphics/SVG/1.1/DTD/svg11.dtd" >
<svg xmlns="http://www.w3.org/2000/svg" xmlns:xlink="http://www.w3.org/1999/xlink" version="1.1">
<metadata>
Created by FontForge 20170924 at Wed Oct  1 11:24:44 2014
 By www-data
Copyright (c) 2014 by . All rights reserved.
</metadata>
<defs>
<font id="Selfie" horiz-adv-x="307" >
  <font-face 
    font-family="Selfie"
    font-weight="400"
    font-stretch="normal"
    units-per-em="1000"
    panose-1="0 0 0 0 0 0 0 0 0 0"
    ascent="723"
    descent="-277"
    x-height="360"
    cap-height="670"
    bbox="-1430.04 -475 1646 890.541"
    underline-thickness="50"
    underline-position="-100"
    unicode-range="U+0020-FB02"
  />
<missing-glyph horiz-adv-x="500" 
 />
    <glyph glyph-name="fi" unicode="fi" 
d="M69 367c-12 8 -3 33 15 24c9 -5 21 -10 37 -14l46 100c63 137 140 205 232 205c80 0 119 -42 119 -97c0 -23 -9 -45 -27 -66c-17 -21 -40 -31 -69 -32c-21 0 -21 28 0 28c40 3 66 38 66 70c0 39 -29 69 -89 69c-73 0 -147 -62 -196 -170l-52 -113c17 -3 37 -4 60 -4
c36 0 60 5 72 15c15 8 30 -7 18 -22l-117 -257c-7 -17 -11 -30 -11 -40c0 -23 14 -35 41 -35c35 0 66 28 92 84c0 1 1 2 1 3c8 16 32 6 25 -11c-9 -24 -25 -47 -46 -70s-45 -34 -72 -34c-47 0 -71 21 -71 63c0 17 4 34 13 52l104 227c-15 -2 -31 -3 -48 -3
c-25 0 -50 2 -73 6l-171 -373c-60 -132 -136 -198 -229 -198c-80 0 -119 42 -119 97c0 23 9 45 27 66c17 21 40 31 69 32c21 0 21 -28 0 -28c-40 -3 -66 -38 -66 -70c0 -39 29 -69 89 -69c73 0 148 63 196 170l174 380c-18 4 -31 9 -40 15zM323 432c-16 0 -25 12 -22 27
c2 24 35 37 49 19c15 -17 -4 -46 -27 -46z" />
    <glyph glyph-name="fl" unicode="fl" 
d="M203 342h-65l-170 -370c-60 -132 -136 -198 -229 -198c-80 0 -119 42 -119 97c0 23 9 45 27 66c17 21 40 31 69 32c21 0 21 -28 0 -28c-40 -3 -66 -38 -66 -70c0 -39 29 -69 89 -69c73 0 148 63 196 170l170 370h-19c-9 0 -13 4 -11 13c3 9 9 14 20 15h23l39 84
c63 137 140 205 232 205c21 0 39 -3 56 -10c37 27 75 41 113 41c80 0 119 -42 119 -97c0 -23 -9 -45 -27 -66c-17 -21 -40 -31 -69 -32c-21 0 -21 28 0 28c40 3 66 38 66 70c0 39 -29 69 -89 69c-73 0 -147 -62 -196 -170l-178 -389c-7 -17 -11 -30 -11 -40
c0 -23 14 -35 41 -35c35 0 66 28 92 84c0 1 1 2 1 3c8 16 32 6 25 -11c-9 -24 -25 -47 -46 -70s-45 -34 -72 -34c-47 0 -71 21 -71 63c0 17 4 34 13 52l170 370c29 61 60 109 94 142c-12 3 -22 4 -31 4c-73 0 -147 -62 -196 -170l-42 -91h61c9 0 12 -5 9 -14s-9 -14 -18 -14
z" />
    <glyph glyph-name="f_f" unicode="ff" 
d="M-150 -245c-47 -53 -100 -79 -157 -79c-65 1 -98 20 -98 58c0 29 30 54 102 54c4 0 15 -1 32 -2c33 -4 58 -6 106 -3c21 25 40 56 56 92l213 467h-18c-9 0 -13 4 -11 13c3 9 9 14 20 15h22l39 84c63 137 140 205 232 205c30 0 55 -7 75 -20c25 13 51 20 79 20
c80 0 119 -42 119 -97c0 -23 -9 -45 -27 -66c-17 -21 -40 -31 -69 -32c-21 0 -21 28 0 28c40 3 66 38 66 70c0 39 -29 69 -89 69c-73 0 -147 -62 -196 -170l-42 -91h64c9 0 12 -5 9 -14s-9 -14 -18 -14h-68l-165 -360c-55 -137 -147 -212 -276 -227zM137 342l-213 -467
c-15 -33 -30 -61 -47 -85c102 23 176 92 223 208l158 344h-121zM192 461l-42 -91h121l39 84c35 77 76 134 125 169c-13 5 -28 8 -47 8c-73 0 -147 -62 -196 -170zM-375 -266c0 -19 23 -28 68 -28c39 0 76 15 111 46c-19 -1 -41 0 -66 3c-25 2 -38 3 -41 3
c-48 0 -72 -8 -72 -24z" />
    <glyph glyph-name="T_h" unicode="Th" horiz-adv-x="895" 
d="M552 30l213 469c16 35 34 65 55 91c-11 3 -32 10 -65 20c-32 11 -57 18 -75 23c-35 -37 -72 -106 -111 -206c-51 -129 -92 -221 -124 -276c-83 -143 -181 -215 -293 -215c-72 0 -131 32 -142 79c-4 21 26 27 30 6c7 -33 53 -55 112 -55c206 0 317 288 385 460
c2 5 3 9 4 11c37 96 73 164 109 204c-53 13 -103 20 -148 20c-133 0 -245 -48 -309 -117c-63 -68 -97 -149 -97 -228c0 -96 52 -182 144 -219c9 -4 14 -9 14 -16c0 -12 -18 -17 -26 -12c-104 43 -162 139 -162 247c0 67 21 138 69 203c67 96 194 172 369 172
c55 0 123 -13 167 -26c22 -6 51 -15 87 -26s63 -19 82 -24c59 67 119 100 182 100c67 0 102 -30 102 -69c0 -45 -51 -89 -124 -89c-45 1 -95 9 -152 25c-18 -22 -34 -47 -47 -76l-66 -148c16 11 32 17 47 17c47 0 76 -23 76 -64c0 -16 -4 -33 -13 -51l-73 -157
c-7 -17 -11 -30 -11 -40c0 -23 14 -35 41 -35c35 0 66 28 92 84c0 1 1 2 1 3c8 16 32 6 25 -11c-9 -24 -25 -47 -46 -70s-45 -34 -72 -34c-47 0 -71 21 -71 63c0 17 4 34 13 52l73 157c7 16 11 29 11 39c0 24 -15 36 -46 36c-30 0 -57 -21 -81 -63l-118 -260
c-6 -13 -14 -17 -24 -14c-9 3 -12 10 -7 20zM1022 687c-50 0 -101 -27 -152 -80c49 -11 92 -18 130 -20c56 0 94 28 94 59c0 23 -25 41 -72 41z" />
    <glyph glyph-name="A_g" unicode="Ag" horiz-adv-x="1374" 
d="M911 106l60 129h-213c-35 -59 -72 -110 -112 -155c-39 -45 -87 -82 -142 -113s-112 -47 -170 -47c-77 0 -143 25 -197 75c-54 49 -81 112 -81 189c0 71 25 132 75 185s114 79 191 79c131 0 203 -73 203 -170c0 -37 -15 -70 -44 -98c-19 -15 -42 3 -21 21
c23 21 35 47 35 77c0 81 -62 140 -175 140c-69 0 -125 -23 -169 -70c-43 -46 -65 -101 -65 -164c0 -67 25 -123 75 -168c50 -44 108 -66 173 -66c149 0 285 106 408 318c45 87 96 161 167 232c102 104 230 176 383 176c35 0 63 -7 83 -22c10 -7 12 -15 6 -24s-13 -9 -22 -2
c-15 13 -35 19 -62 20c-67 0 -130 -63 -189 -190l-169 -364c-28 -58 -43 -162 33 -162c6 0 13 1 21 3c11 4 16 1 17 -8c0 -11 -6 -18 -17 -22c-9 -2 -17 -3 -24 -3c-5 0 -8 0 -10 1c-37 -7 -60 -39 -60 -68c0 -35 24 -61 77 -61c67 0 135 59 180 162l36 79
c-15 -10 -30 -15 -46 -15c-47 0 -76 23 -76 64c0 16 4 33 13 51l74 158c31 68 70 102 119 102c33 0 54 -12 65 -36l10 21c8 19 36 9 28 -12l-190 -412c-59 -127 -130 -190 -213 -190c-73 0 -107 38 -107 89c0 29 18 63 49 82c-46 36 -35 129 -7 189zM1199 638
c-169 -36 -311 -161 -426 -376h210l89 189c42 89 84 151 127 187zM1146 28c30 0 58 22 83 66l85 185c5 14 8 25 8 32c0 24 -15 36 -46 36c-35 0 -66 -30 -93 -90l-72 -154c-7 -16 -11 -29 -11 -39c0 -24 15 -36 46 -36zM1281 0c-7 0 -11 5 -11 14s4 14 11 14
c35 0 66 28 92 84c0 1 1 2 1 3c8 16 32 6 25 -11c-9 -24 -25 -47 -46 -70s-45 -34 -72 -34z" />
    <glyph glyph-name="A_f" unicode="Af" horiz-adv-x="1239" 
d="M769 -100c10 0 15 -5 15 -14s-5 -14 -15 -14c-41 0 -66 -31 -66 -63c0 -37 29 -67 89 -67c76 0 149 67 196 168l196 431h-12c-9 0 -14 5 -13 14s7 14 17 15h21l51 104v-1c28 63 61 112 99 148c-19 18 -45 27 -80 27c-31 0 -63 -18 -96 -54c-33 -35 -63 -81 -88 -136
l-193 -419c-10 -21 -15 -42 -15 -62c0 -17 3 -30 9 -40c12 -20 -13 -32 -25 -16c-10 12 -15 30 -15 53c0 28 5 54 16 77l86 184h-213c-51 -89 -113 -164 -188 -225c-74 -60 -153 -90 -236 -90c-77 0 -143 25 -197 75c-54 49 -81 112 -81 189c0 71 25 132 75 185
s114 79 191 79c131 0 203 -73 203 -170c0 -37 -15 -70 -44 -97c-16 -15 -36 4 -21 20c23 22 35 48 35 77c0 81 -62 140 -175 140c-69 0 -125 -23 -169 -70c-43 -46 -65 -101 -65 -164c0 -68 24 -124 73 -168s107 -66 175 -66c82 0 158 30 229 91s131 136 180 227
c149 272 329 408 541 408c50 0 87 -12 110 -37c36 26 73 39 111 39c80 0 119 -42 119 -97c0 -23 -9 -45 -27 -66c-17 -21 -40 -31 -69 -32c-23 0 -21 28 0 28c40 3 66 38 66 70c0 37 -29 67 -89 67c-73 0 -147 -62 -196 -169l-52 -109h61c11 0 16 -4 16 -12
c0 -9 -5 -14 -16 -16c-1 -1 -3 -1 -5 -1h-70l-197 -431c-55 -120 -137 -198 -229 -198c-80 0 -119 42 -119 97c0 44 39 91 96 91zM957 262l90 189c41 85 84 147 129 186c-166 -34 -308 -159 -427 -375h208z" />
    <glyph glyph-name="e_r" unicode="er" horiz-adv-x="516" 
d="M186 375c56 0 80 -42 57 -95c-31 -77 -70 -111 -129 -111c-21 0 -38 6 -51 17l-18 -39c-33 -72 -10 -116 57 -119c39 0 78 22 117 67c79 89 129 204 156 307l-9 5c-61 31 -92 66 -92 106c0 37 29 61 58 61c52 0 84 -50 84 -103c0 -12 -2 -30 -7 -55c49 -30 73 -63 73 -99
c0 -14 -4 -30 -12 -47l-58 -126l-19 -41c-7 -17 -11 -30 -11 -40c0 -23 14 -35 41 -35c35 0 66 28 92 84c0 1 1 2 1 3c8 16 32 6 25 -11c-9 -24 -25 -47 -46 -70s-45 -34 -72 -34c-47 0 -71 21 -71 63c0 17 4 34 13 52l14 29l60 131c7 15 11 30 11 45c0 25 -16 47 -48 67
c-15 -54 -36 -109 -64 -165c-27 -56 -63 -107 -106 -153c-43 -45 -87 -68 -130 -69c-89 0 -129 54 -85 159l54 114c31 68 69 102 115 102zM211 285c17 41 9 62 -25 62c-33 0 -62 -30 -89 -90l-21 -45c9 -8 22 -12 37 -12c45 0 74 28 98 85zM302 513c0 -20 7 -35 26 -50
c20 -13 25 -18 52 -31c0 -1 1 -1 2 -1c3 19 5 32 5 40c0 40 -20 75 -55 75c-16 0 -30 -14 -30 -33z" />
    <glyph glyph-name=".notdef" horiz-adv-x="500" 
 />
    <glyph glyph-name="NULL" horiz-adv-x="0" 
 />
    <glyph glyph-name="CR" horiz-adv-x="333" 
 />
    <glyph glyph-name="space" unicode=" " horiz-adv-x="149" 
 />
    <glyph glyph-name="exclam" unicode="!" horiz-adv-x="211" 
d="M107 36c-4 -19 -22 -35 -42 -35s-32 16 -28 35c1 20 21 36 40 36c20 0 34 -16 30 -36zM330 572l-195 -437c-5 -12 -13 -16 -23 -13s-12 11 -7 22l197 440c5 9 12 12 21 9s12 -10 7 -21z" />
    <glyph glyph-name="quotedbl" unicode="&#x22;" horiz-adv-x="257" 
d="M253 570l-57 -119c-11 -23 -37 -13 -27 12l57 119c5 12 13 16 22 12c9 -5 11 -13 5 -24zM329 570l-57 -119c-11 -23 -37 -13 -27 12l57 119c5 12 13 16 22 12c9 -5 11 -13 5 -24z" />
    <glyph glyph-name="numbersign" unicode="#" horiz-adv-x="590" 
d="M256 354h-108c-10 0 -15 5 -15 14s5 14 15 14h120l63 140c5 9 12 12 21 9s12 -10 7 -21l-57 -128h133l63 140c9 19 38 8 28 -12l-57 -128h115c22 0 22 -28 0 -28h-128l-60 -135h116c22 0 22 -28 0 -28h-129l-52 -118c-5 -12 -13 -16 -23 -13s-12 11 -7 22l49 109h-134
l-52 -118c-5 -12 -13 -16 -23 -13s-12 11 -7 22l49 109h-107c-10 0 -15 5 -15 14s5 14 15 14h119zM423 354h-134l-60 -135h133z" />
    <glyph glyph-name="dollar" unicode="$" horiz-adv-x="518" 
d="M508 572l-7 -16c29 -14 44 -36 47 -65c0 -35 -24 -69 -64 -70c-8 0 -12 5 -12 14c0 7 3 11 10 11c25 1 40 23 40 43c0 19 -10 34 -31 45l-75 -169c14 -20 24 -35 29 -44c12 -17 31 -60 31 -93c0 -61 -21 -109 -63 -145s-90 -54 -145 -54h-3l-6 -15c-6 -24 -34 -12 -28 9
l3 8c-53 7 -97 29 -133 65c-35 37 -53 81 -53 134c0 47 16 88 47 122c32 34 74 51 125 51c72 0 123 -36 139 -91l24 55c-23 35 -34 66 -34 95c0 32 11 58 33 77s46 29 72 29c4 0 10 -1 18 -2l8 18c6 19 32 9 28 -12zM74 228c0 -46 17 -85 51 -117s74 -50 120 -55l92 207
c1 2 1 5 1 10c0 60 -43 104 -118 104c-89 0 -146 -65 -146 -149zM448 228c0 29 -15 65 -45 110l-126 -283c46 3 86 20 120 51s51 72 51 122zM376 460c0 -21 7 -42 20 -64l66 147h-5c-41 0 -81 -32 -81 -83z" />
    <glyph glyph-name="percent" unicode="%" horiz-adv-x="506" 
d="M531 532l-446 -484c-8 -11 -17 -14 -26 -7c-8 5 -9 12 -2 21l449 487c13 18 35 3 25 -17zM157 359c-31 31 -31 79 0 110s79 31 110 0s31 -79 0 -110s-79 -31 -110 0zM178 448c-19 -19 -19 -49 0 -68s49 -19 68 0s19 49 0 68s-49 19 -68 0zM349 152c-31 31 -31 79 0 110
s79 31 110 0s31 -79 0 -110s-79 -31 -110 0zM370 241c-19 -19 -19 -49 0 -68s49 -19 68 0s19 49 0 68s-49 19 -68 0z" />
    <glyph glyph-name="ampersand" unicode="&#x26;" horiz-adv-x="792" 
d="M363 529c8 7 16 8 23 1c6 -5 6 -11 1 -17c-7 -11 -11 -22 -11 -31c0 -44 41 -74 90 -75c59 0 99 45 99 100c0 36 -17 69 -52 98c-34 30 -78 45 -131 45c-57 0 -105 -16 -144 -47s-58 -70 -58 -116c0 -30 12 -57 35 -82c23 -24 57 -37 100 -38h7c11 0 16 -5 16 -14
c0 -10 -5 -15 -16 -15h-9c-56 -2 -105 -23 -148 -64c-42 -40 -63 -86 -63 -137c0 -55 22 -103 67 -144s108 -62 189 -63c79 0 150 32 193 75c43 44 68 96 68 139c0 13 -3 29 -12 54c-8 27 -33 51 -68 62c-11 3 -24 6 -40 7h-6c-35 0 -72 -21 -88 -54c-15 -17 -37 -7 -23 20
c24 39 68 64 111 64h6c21 -1 40 -5 59 -13c13 -5 31 -13 53 -24c45 -23 80 -37 112 -37c49 0 84 38 84 77c0 17 -7 30 -21 39c-20 11 -5 34 16 26c23 -15 35 -36 35 -65c0 -27 -11 -51 -32 -74c-21 -22 -49 -33 -82 -33c-28 0 -59 9 -94 27c29 -52 29 -99 2 -154
c-34 -80 -134 -166 -273 -165c-91 1 -162 25 -211 73c-49 47 -73 102 -73 163c0 45 16 88 48 129c33 41 73 70 121 87c-59 25 -92 82 -92 135s22 97 67 134s99 55 164 55c60 0 110 -18 150 -53s60 -73 60 -116c0 -35 -12 -65 -35 -91c-23 -25 -54 -38 -91 -38
c-71 0 -117 41 -117 104c0 19 5 35 14 46z" />
    <glyph glyph-name="quotesingle" unicode="'" horiz-adv-x="184" 
d="M253 570l-57 -119c-11 -23 -37 -13 -27 12l57 119c5 12 13 16 22 12c9 -5 11 -13 5 -24z" />
    <glyph glyph-name="parenleft" unicode="(" horiz-adv-x="336" 
d="M190 -133c11 -17 -8 -39 -26 -16c-25 43 -37 96 -37 161c0 113 41 245 108 357c34 56 77 105 128 147c52 43 107 70 165 83c25 4 32 -26 6 -30c-55 -12 -106 -38 -155 -78c-48 -39 -88 -86 -120 -139c-63 -107 -102 -232 -102 -340c0 -60 11 -108 33 -145z" />
    <glyph glyph-name="parenright" unicode=")" horiz-adv-x="336" 
d="M257 570c-11 17 8 39 26 16c25 -43 37 -96 37 -161c0 -113 -41 -245 -109 -357c-33 -56 -76 -105 -128 -147c-51 -43 -106 -70 -164 -83c-26 -4 -32 26 -6 30c55 12 106 38 154 78c49 39 89 86 120 139c64 107 103 232 103 340c0 60 -11 108 -33 145z" />
    <glyph glyph-name="asterisk" unicode="*" horiz-adv-x="460" 
d="M456 446h-140l59 -105c12 -18 -12 -43 -27 -15l-60 109l-121 -109c-13 -13 -23 -16 -28 -8c-5 9 -1 19 11 28l110 100h-124c-13 0 -20 5 -19 15c4 9 12 15 24 17l123 -1l-52 96c-13 22 12 37 25 15l60 -108l125 113c12 11 21 13 27 6c7 -7 4 -15 -8 -26l-106 -96h127
c12 0 17 -4 16 -13s-6 -14 -15 -17c-3 -1 -5 -1 -7 -1z" />
    <glyph glyph-name="plus" unicode="+" horiz-adv-x="371" 
d="M193 238l42 95c8 18 33 7 25 -11l-37 -84h99c22 0 22 -28 0 -28h-111l-46 -106c-5 -10 -11 -13 -20 -10c-8 4 -10 11 -6 21l42 95h-97c-10 0 -15 5 -15 14s5 14 15 14h109z" />
    <glyph glyph-name="comma" unicode="," horiz-adv-x="155" 
d="M79 72c28 0 39 -29 23 -57c-20 -37 -49 -66 -86 -88c-20 -11 -28 13 -12 18c23 9 44 28 63 55c-17 4 -31 19 -28 36c1 20 21 36 40 36z" />
    <glyph glyph-name="hyphen" unicode="-" horiz-adv-x="327" 
d="M263 210h-179c-10 0 -15 5 -15 14s5 14 15 14h179c22 0 22 -28 0 -28z" />
    <glyph glyph-name="period" unicode="." horiz-adv-x="166" 
d="M63 0c-16 0 -25 12 -22 27c2 24 35 37 49 19c15 -17 -4 -46 -27 -46z" />
    <glyph glyph-name="slash" unicode="/" horiz-adv-x="362" 
d="M446 572l-349 -558c-5 -12 -13 -16 -23 -13s-12 11 -7 22l351 561c5 9 12 12 21 9s12 -10 7 -21z" />
    <glyph glyph-name="zero" unicode="0" horiz-adv-x="564" 
d="M87 305c25 89 72 164 139 225c68 62 137 93 208 93c58 0 104 -20 139 -60c35 -39 54 -91 56 -156c2 -67 -14 -134 -49 -203c-35 -68 -81 -124 -139 -168c-57 -44 -116 -66 -175 -66c-57 0 -104 20 -139 59c-35 40 -54 92 -56 155c-1 43 4 84 16 121zM115 295
c-11 -35 -15 -72 -14 -111c3 -109 67 -184 164 -184c57 0 113 22 166 65c53 44 95 97 125 160c31 63 45 124 43 182c-1 55 -17 100 -47 134c-29 35 -68 52 -117 52c-65 0 -128 -29 -191 -87c-62 -58 -105 -128 -129 -211z" />
    <glyph glyph-name="one" unicode="1" horiz-adv-x="255" 
d="M196 401l61 132c31 63 61 94 91 94c17 0 30 -16 30 -37c0 -26 -16 -59 -48 -99c-32 -44 -69 -80 -110 -109l-173 -374c-13 -22 -35 -10 -27 12l155 336c-21 -9 -37 -14 -48 -15c-12 -3 -19 1 -22 10c-3 10 1 16 14 19c1 1 3 1 4 1c20 2 44 12 73 30zM284 520l-37 -81
c24 22 45 44 62 67c27 33 41 61 41 85c0 6 -2 9 -7 9c-13 0 -33 -27 -59 -80z" />
    <glyph glyph-name="two" unicode="2" horiz-adv-x="535" 
d="M464 -7h-467c-24 0 -24 33 0 33h15c69 4 146 28 231 73s158 99 219 163c61 65 93 124 96 179c2 45 -11 82 -40 113s-68 47 -119 47c-58 0 -107 -19 -146 -56s-60 -78 -61 -123c-1 -38 8 -70 29 -96c7 -8 7 -16 0 -24c-5 -8 -18 -9 -26 2c-24 37 -35 77 -34 118
c2 53 25 101 69 144c45 44 101 66 170 66c60 0 107 -18 141 -54s50 -82 49 -137c-3 -63 -40 -134 -113 -211c-72 -77 -171 -143 -298 -196l-16 -7l-1 -1h302c11 0 17 -9 17 -17c0 -11 -6 -16 -17 -16z" />
    <glyph glyph-name="three" unicode="3" horiz-adv-x="519" 
d="M209 150c-45 0 -76 22 -76 47c0 29 34 55 81 55c46 0 86 -16 120 -49c58 23 104 57 139 104s52 95 52 142c0 35 -14 69 -41 100s-67 47 -120 47c-57 0 -104 -17 -141 -52c-37 -34 -55 -72 -55 -114c0 -60 42 -113 109 -113c31 0 58 9 82 28c25 19 37 44 37 73
c0 16 -5 32 -14 48c-7 13 16 24 28 5c11 -17 16 -37 16 -58c0 -31 -15 -59 -45 -86s-65 -40 -105 -40s-73 14 -99 42c-25 28 -38 61 -38 100c0 51 21 97 64 137s97 60 161 60c60 0 107 -18 141 -55s51 -77 51 -122c0 -50 -18 -101 -55 -153c-36 -51 -85 -90 -146 -117
c21 -29 31 -62 31 -98c0 -52 -19 -105 -58 -158c-38 -53 -90 -98 -155 -133s-132 -53 -202 -53c-27 0 -55 2 -85 7c-31 4 -46 11 -46 22c0 9 9 19 18 19c3 0 5 0 6 -1c40 -10 76 -15 109 -15c61 0 122 16 181 47c60 31 108 71 145 120s55 97 55 145c0 32 -10 61 -29 87
c-35 -12 -74 -18 -116 -18zM209 181c33 0 63 4 91 12c-26 19 -56 29 -91 29c-29 0 -45 -7 -46 -21c0 -9 18 -20 46 -20z" />
    <glyph glyph-name="four" unicode="4" horiz-adv-x="491" 
d="M75 69c-29 -27 -46 -41 -52 -43h246l247 538c3 9 10 14 19 14c13 0 16 -8 11 -25l-243 -527h84c23 0 22 -33 -3 -33h-99l-87 -192c-4 -8 -9 -12 -15 -12c-11 0 -20 12 -13 27l82 177h-253c-28 0 -33 25 -4 47c25 20 51 45 80 74c69 72 128 151 177 237
c49 87 73 170 73 250c0 23 -3 43 -8 58c-5 12 2 26 14 26c11 0 18 -6 20 -19c4 -16 6 -35 6 -58c0 -95 -28 -191 -85 -289c-56 -97 -122 -181 -197 -250z" />
    <glyph glyph-name="five" unicode="5" horiz-adv-x="487" 
d="M152 320l-1 -2c-15 -9 -29 8 -20 21c24 35 49 81 74 138c26 57 42 102 49 135c1 7 7 11 16 10s14 -5 15 -12c3 -16 20 -24 51 -24c9 0 26 4 52 11c27 8 46 12 58 12c36 0 58 -12 65 -36c6 -19 -22 -33 -28 -10c-3 11 -16 16 -38 16c-9 0 -26 -4 -53 -12
c-27 -7 -46 -11 -57 -11c-27 0 -48 5 -61 15c-23 -73 -54 -142 -94 -209c19 6 41 9 64 9c49 0 91 -18 126 -55c35 -36 53 -82 53 -138c0 -69 -23 -138 -69 -208s-107 -128 -182 -173c-75 -46 -152 -69 -231 -69c-27 0 -55 2 -85 7c-31 4 -46 11 -45 22c0 9 10 19 19 19
c3 0 5 0 6 -1c39 -10 75 -15 108 -15c70 0 140 21 209 62c70 41 127 95 171 160c45 65 67 130 67 195c0 47 -14 86 -42 116c-28 31 -65 46 -111 46s-75 -6 -86 -19z" />
    <glyph glyph-name="six" unicode="6" horiz-adv-x="535" 
d="M181 212c11 -18 -13 -38 -27 -22c-9 12 -14 30 -14 53c0 40 20 79 60 116s88 56 144 56c49 0 89 -16 122 -47s50 -70 50 -115c0 -67 -27 -129 -82 -186c-54 -56 -122 -84 -204 -84c-63 0 -113 19 -149 57c-35 38 -53 87 -53 146c0 113 66 225 159 302
c139 117 340 195 470 201c11 0 19 -7 19 -15c0 -10 -6 -15 -19 -15c-232 -18 -597 -205 -597 -475c0 -49 15 -89 45 -122c31 -32 72 -48 124 -48c71 0 131 24 180 73c50 49 75 101 75 156c0 80 -56 140 -140 140c-45 0 -85 -14 -120 -43c-35 -28 -53 -60 -53 -97
c0 -11 3 -22 10 -31z" />
    <glyph glyph-name="seven" unicode="7" horiz-adv-x="461" 
d="M552 610c3 9 9 11 20 8c8 -4 11 -9 9 -16c-8 -18 -22 -31 -41 -38c-89 -61 -177 -145 -264 -252c-86 -107 -137 -208 -152 -304c-2 -21 -32 -21 -30 4c10 86 54 181 132 285c79 104 164 190 257 259c-19 1 -44 6 -77 15s-58 14 -77 14c-43 0 -67 -7 -73 -22
c-7 -12 -14 -15 -23 -10c-7 5 -8 11 -3 20c13 28 48 42 105 42c21 0 49 -5 83 -15c34 -9 60 -14 78 -14c31 0 50 8 56 24z" />
    <glyph glyph-name="eight" unicode="8" horiz-adv-x="550" 
d="M478 699c69 0 119 -46 119 -105c0 -73 -63 -114 -179 -155c1 -1 6 -6 15 -17c9 -10 15 -16 16 -18c2 -1 7 -7 15 -17c9 -10 14 -17 16 -20s6 -9 13 -18c13 -19 14 -25 22 -42c12 -23 16 -46 16 -73c0 -37 -12 -74 -35 -110c-49 -84 -142 -141 -251 -141
c-61 0 -110 17 -147 51c-37 35 -56 79 -56 134c0 39 11 74 23 101c12 28 43 57 62 74c9 9 23 18 42 28c19 11 34 19 44 24c11 5 28 12 51 21s39 15 48 18s26 9 51 18c-27 35 -41 71 -41 107c0 39 16 72 47 99c32 27 68 41 109 41zM465 136c20 28 30 61 30 98
c0 32 -4 57 -27 89c-11 17 -18 28 -22 33c-3 5 -15 18 -34 38c-19 21 -28 31 -28 32c-94 -33 -158 -59 -193 -79c-77 -46 -116 -106 -117 -179c0 -45 16 -82 47 -111c32 -29 73 -43 123 -43c93 0 176 51 221 122zM566 594c0 43 -36 75 -88 75c-33 0 -63 -11 -88 -32
s-38 -47 -38 -78c0 -28 15 -60 45 -96c112 37 169 71 169 131z" />
    <glyph glyph-name="nine" unicode="9" horiz-adv-x="544" 
d="M459 401c-11 18 13 38 27 22c9 -11 14 -29 14 -53c0 -40 -20 -79 -60 -116s-88 -56 -144 -56c-49 0 -90 16 -123 47s-49 70 -49 115c0 67 27 129 81 185c55 57 123 85 205 85c63 0 113 -19 148 -57c36 -38 54 -87 54 -146c0 -113 -66 -225 -159 -302
c-139 -117 -340 -196 -470 -201c-11 0 -19 7 -19 15c0 10 6 15 19 15c232 18 597 205 597 475c0 49 -15 89 -46 121c-30 33 -71 49 -123 49c-71 0 -131 -24 -181 -73c-49 -49 -74 -101 -74 -156c0 -80 56 -140 140 -140c45 0 85 14 120 42c35 29 53 61 53 98
c0 11 -3 22 -10 31z" />
    <glyph glyph-name="colon" unicode=":" horiz-adv-x="211" 
d="M220 338c-4 -19 -22 -35 -42 -35s-32 16 -28 35c1 20 21 36 40 36c20 0 34 -16 30 -36zM107 36c-4 -19 -22 -35 -42 -35s-32 16 -28 35c1 20 21 36 40 36c20 0 34 -16 30 -36z" />
    <glyph glyph-name="semicolon" unicode=";" horiz-adv-x="211" 
d="M79 72c28 0 39 -29 23 -57c-20 -37 -49 -66 -86 -88c-20 -11 -28 13 -12 18c23 9 44 28 63 55c-17 4 -31 19 -28 36c1 20 21 36 40 36zM221 338c-4 -19 -22 -35 -42 -35s-32 16 -28 35c1 20 21 36 40 36c20 0 34 -16 30 -36z" />
    <glyph glyph-name="less" unicode="&#x3c;" horiz-adv-x="282" 
d="M92 228l151 88c27 13 37 -15 15 -28l-144 -81l66 -120c11 -20 -14 -30 -26 -16l-71 130c-6 11 -3 20 9 27z" />
    <glyph glyph-name="equal" unicode="=" horiz-adv-x="361" 
d="M310 210h-179c-10 0 -15 5 -15 14s5 14 15 14h179c22 0 22 -28 0 -28zM273 129h-179c-10 0 -15 5 -15 14s5 14 15 14h179c22 0 22 -28 0 -28z" />
    <glyph glyph-name="greater" unicode="&#x3e;" horiz-adv-x="323" 
d="M249 158l-151 -88c-27 -13 -37 15 -15 28l144 81l-66 120c-11 20 14 30 26 16l71 -130c6 -11 3 -20 -9 -27z" />
    <glyph glyph-name="question" unicode="?" horiz-adv-x="325" 
d="M142 36c-4 -19 -22 -35 -42 -35s-32 16 -28 35c1 20 21 36 40 36c20 0 34 -16 30 -36zM314 386c13 15 33 -7 20 -20c-27 -27 -60 -41 -98 -41c-72 0 -121 58 -121 130c0 45 18 84 55 119s84 52 140 52c60 0 107 -18 141 -55s51 -77 51 -122c0 -75 -46 -133 -107 -169
c-86 -52 -209 -91 -236 -150c-9 -17 -33 -7 -22 17c19 40 80 75 140 103c91 43 194 94 194 199c0 35 -14 69 -41 100s-67 47 -120 47c-49 0 -89 -15 -120 -44s-46 -61 -46 -96c0 -55 34 -101 93 -101c31 0 56 10 77 31z" />
    <glyph glyph-name="at" unicode="@" horiz-adv-x="853" 
d="M557 -61c-76 0 -125 50 -134 111c-25 -33 -53 -50 -84 -50c-47 0 -76 23 -76 64c0 16 4 33 13 51l74 158c31 68 70 102 119 102c33 0 54 -12 65 -36l10 21c8 19 39 9 28 -12l-38 -83c-1 -3 -2 -4 -2 -5h-1l-68 -150c-17 -38 -15 -71 6 -100c21 -28 51 -42 88 -42
c51 0 97 25 140 75s64 108 64 175c0 86 -28 157 -83 213s-125 84 -211 84c-101 0 -192 -41 -274 -122c-81 -81 -122 -172 -122 -273c0 -84 28 -154 84 -210s127 -84 213 -84c66 0 129 17 190 52c4 2 7 3 10 3c9 0 13 -4 13 -13c0 -7 -3 -11 -10 -14
c-66 -39 -135 -58 -207 -58c-93 0 -171 31 -232 92s-92 137 -92 228c0 75 20 146 60 212c41 67 94 119 161 158s137 59 210 59c93 0 170 -31 230 -93s90 -140 90 -235c0 -75 -24 -140 -72 -195s-102 -83 -162 -83zM339 28c34 0 63 26 88 77l5 10l72 157c7 17 11 30 11 39
c0 24 -15 36 -46 36c-35 0 -66 -30 -93 -90l-72 -154c-7 -16 -11 -29 -11 -39c0 -24 15 -36 46 -36z" />
    <glyph glyph-name="A" unicode="A" horiz-adv-x="1055" 
d="M861 51l84 184h-212c-35 -59 -72 -110 -112 -155c-39 -45 -87 -82 -142 -113s-112 -47 -170 -47c-77 0 -143 25 -197 75c-54 49 -81 112 -81 189c0 71 25 132 75 185s114 79 191 79c131 0 203 -73 203 -170c0 -37 -15 -70 -44 -98c-19 -15 -42 3 -21 21
c23 21 35 47 35 77c0 81 -62 140 -175 140c-69 0 -125 -23 -169 -70c-43 -46 -65 -101 -65 -164c0 -67 25 -123 75 -168c50 -44 108 -66 173 -66c149 0 285 106 408 318c45 87 96 161 167 232c102 104 230 176 383 176c35 0 63 -7 83 -22c10 -7 12 -15 6 -24s-13 -9 -22 -2
c-15 13 -35 19 -62 20c-67 0 -130 -63 -189 -190l-194 -419c-28 -58 -43 -162 33 -162c6 0 13 1 21 3c11 4 16 1 17 -8c0 -11 -6 -18 -17 -22c-9 -2 -17 -3 -24 -3c-103 0 -93 129 -58 204zM1174 638c-169 -36 -311 -161 -426 -376h210l89 189c42 89 84 151 127 187z" />
    <glyph glyph-name="B" unicode="B" horiz-adv-x="807" 
d="M834 447c-1 -81 -49 -146 -117 -185c30 -30 45 -66 45 -109c0 -63 -29 -120 -87 -172c-57 -53 -125 -79 -204 -79c-54 0 -123 20 -207 60c-40 -21 -87 -31 -141 -32c-23 0 -46 4 -75 13c-29 8 -49 28 -49 55c0 31 38 57 86 56c40 -2 99 -22 176 -59c37 22 68 53 93 93
c26 40 55 94 86 163l67 148c2 5 6 14 13 29s11 25 14 30c3 6 7 16 13 29c13 27 17 33 29 54c12 23 18 31 30 47c16 23 32 37 50 45c-41 18 -88 27 -140 28c-307 0 -450 -209 -449 -356c0 -83 40 -153 116 -182c11 -3 15 -8 12 -14c-1 -9 -7 -14 -17 -14c-1 0 -4 1 -9 2
c-85 32 -133 113 -133 209c0 83 41 173 116 249c76 77 208 133 361 133c93 -1 170 -25 230 -73s90 -104 91 -168zM588 227c-36 0 -64 19 -65 40c0 27 29 42 65 43c39 -1 73 -10 102 -27c65 32 112 91 112 164c0 67 -43 131 -116 172c-18 -7 -36 -23 -54 -47
c-17 -24 -31 -47 -42 -68s-26 -53 -45 -96c-3 -6 -7 -13 -9 -20l-67 -144c-23 -49 -41 -86 -54 -111s-30 -52 -52 -83c-22 -30 -45 -53 -70 -70c67 -31 125 -47 175 -47c71 0 133 23 184 68s77 96 77 152c0 39 -14 71 -41 94c-34 -15 -67 -21 -100 -20zM123 -40
c38 0 73 6 106 19c-61 29 -109 44 -146 47c-35 -1 -55 -13 -55 -28c0 -25 32 -38 95 -38zM588 258c23 0 45 3 66 10c-22 8 -44 12 -65 12c-19 -1 -30 -5 -31 -12c-2 -7 15 -10 30 -10z" />
    <glyph glyph-name="C" unicode="C" horiz-adv-x="718" 
d="M379 -118c-86 0 -156 31 -209 94c-53 62 -80 137 -80 225c0 79 30 167 86 247c78 120 220 217 384 217c66 0 118 -16 156 -49c39 -33 58 -70 58 -113c0 -39 -15 -74 -44 -105s-65 -46 -107 -46c-79 0 -113 43 -113 99c0 20 5 36 15 49c13 16 36 2 25 -15
c-7 -12 -10 -24 -10 -35c0 -39 27 -69 86 -69c32 0 60 12 83 35c24 24 36 51 36 81c0 37 -16 70 -49 97c-32 28 -78 42 -138 42c-97 0 -194 -39 -265 -100c-104 -90 -173 -222 -173 -334c0 -79 23 -147 70 -204c47 -58 110 -87 189 -87c65 0 119 21 163 63
c45 41 67 87 67 137c0 63 -44 115 -105 115c-55 0 -93 -25 -112 -74c-9 -23 -36 -11 -28 12c19 49 68 90 140 90c40 0 72 -14 97 -41s38 -59 38 -98c0 -57 -25 -110 -75 -159s-112 -74 -185 -74z" />
    <glyph glyph-name="D" unicode="D" horiz-adv-x="974" 
d="M515 688c139 0 255 -42 324 -107c69 -64 107 -148 107 -237c-1 -220 -188 -424 -450 -423c-22 0 -47 3 -74 10s-48 13 -64 19s-41 16 -74 30c-45 -27 -98 -41 -161 -42c-23 0 -46 4 -75 13c-29 8 -49 28 -49 55c0 31 38 55 86 55c45 0 110 -16 193 -49c33 23 61 52 84 89
s49 87 78 150l71 161c17 39 31 69 42 91s26 48 45 77c19 30 37 51 54 62c-44 11 -90 16 -137 16c-307 1 -449 -208 -448 -353c0 -83 40 -153 116 -182c11 -3 15 -8 12 -14c-1 -9 -7 -14 -17 -14c-1 0 -4 1 -9 2c-85 32 -133 113 -133 209c0 65 24 135 76 202
c74 99 212 179 403 180zM914 344c0 64 -20 122 -59 175s-95 91 -170 114c-11 -7 -22 -17 -33 -28c-20 -23 -31 -35 -51 -72c-9 -19 -16 -32 -20 -40s-11 -24 -22 -48c-10 -24 -16 -39 -19 -44l-71 -157c-57 -125 -97 -196 -158 -245c81 -32 142 -48 185 -48
c119 0 218 39 298 117s120 170 120 276zM123 -32c48 0 89 9 124 26c-70 27 -125 40 -164 40c-33 0 -55 -13 -55 -28c0 -25 32 -38 95 -38z" />
    <glyph glyph-name="E" unicode="E" horiz-adv-x="640" 
d="M310 -136c-189 0 -260 119 -260 223c0 57 25 112 75 163c50 52 117 86 201 102c5 0 16 -1 19 -1c-49 24 -69 79 -69 130c0 59 27 111 80 154s115 65 186 65c65 0 117 -16 158 -48s61 -69 61 -111c0 -39 -15 -75 -45 -106c-29 -31 -65 -47 -107 -47c-73 0 -114 44 -114 96
c0 24 6 43 17 58c15 17 37 1 25 -17c-9 -11 -13 -25 -13 -41c0 -39 29 -67 85 -67c34 0 63 12 86 36c24 24 36 52 36 83c0 36 -18 68 -53 95s-81 41 -138 41c-62 0 -117 -19 -164 -56s-71 -80 -71 -131c0 -73 34 -122 110 -122h18c13 0 19 -6 19 -17s-6 -16 -18 -16h-36
c-85 0 -160 -25 -224 -74c-63 -49 -95 -105 -95 -168c0 -51 19 -96 57 -135s96 -59 175 -59c59 0 112 21 157 62c46 41 69 86 69 136c0 31 -10 58 -31 81c-20 23 -46 35 -79 35c-63 0 -107 -36 -108 -76c-2 -12 -7 -18 -15 -18c-9 0 -14 6 -14 18c1 27 14 52 39 74
s58 33 98 33c41 0 75 -15 101 -44s39 -63 39 -103c0 -60 -27 -113 -81 -159c-53 -46 -112 -69 -176 -69z" />
    <glyph glyph-name="F" unicode="F" horiz-adv-x="616" 
d="M120 -46c79 3 132 20 178 64c32 32 50 53 77 100c13 23 24 43 32 60s18 39 31 67l22 50h-36c-9 -1 -13 3 -12 12c3 9 10 15 21 16h40l32 71c52 113 98 184 139 212c-76 21 -131 33 -164 34c-143 5 -265 -41 -334 -110s-107 -153 -107 -233c0 -97 52 -182 144 -219
c26 -9 12 -40 -12 -29c-104 44 -162 139 -162 247c0 71 22 142 73 209c26 34 57 64 93 89c72 51 181 82 305 77c42 -2 108 -16 199 -43s152 -40 183 -40c80 0 125 39 129 79c0 21 31 19 29 -3c-2 -26 -18 -50 -47 -72s-66 -33 -111 -33c-32 -1 -94 12 -185 38
c-43 -26 -91 -97 -143 -214l-28 -60h77c9 0 13 -5 10 -14c-3 -10 -9 -15 -19 -15h-81l-26 -55c-15 -32 -26 -57 -35 -75c-9 -17 -20 -39 -35 -65c-14 -26 -27 -46 -39 -60c-23 -28 -60 -68 -97 -84c-36 -17 -84 -31 -140 -31c-72 0 -131 32 -142 79c-2 11 2 17 12 19
c9 2 15 -2 18 -13c7 -32 54 -55 111 -55z" />
    <glyph glyph-name="G" unicode="G" horiz-adv-x="649" 
d="M489 532c9 10 17 11 24 3c5 -6 5 -12 -2 -18c-9 -10 -14 -23 -15 -38c1 -33 27 -59 76 -60c57 0 101 50 101 107c0 31 -15 57 -46 80s-72 34 -125 33c-228 0 -388 -233 -388 -394c0 -59 18 -109 55 -151s88 -63 152 -63c72 0 139 29 183 72s71 82 90 125l20 42
c6 13 14 17 23 14c6 -4 8 -10 5 -19l-139 -307c-60 -132 -136 -198 -229 -198c-79 0 -119 42 -119 97c0 23 9 45 27 66s41 31 70 32c21 0 20 -29 -1 -27c-40 -4 -65 -39 -65 -71c-1 -39 28 -69 88 -69c75 0 148 63 196 170l60 131c-57 -58 -126 -87 -209 -87
c-73 0 -130 24 -173 72c-43 49 -64 106 -63 171c0 88 44 192 115 276c35 43 80 78 133 105s109 41 168 41c61 0 109 -14 145 -42c37 -27 55 -60 56 -98c0 -35 -13 -66 -38 -94s-55 -42 -92 -42c-65 0 -103 41 -103 88c0 21 7 38 20 53z" />
    <glyph glyph-name="H" unicode="H" horiz-adv-x="918" 
d="M146 -40c69 0 128 25 167 54c19 15 39 38 59 67s36 55 47 77s26 53 44 93l21 48h-32c-9 0 -13 4 -11 13c3 9 9 14 20 15h36l33 72c44 97 85 171 124 221c-83 23 -142 34 -175 34c-120 0 -226 -49 -287 -120c-61 -69 -96 -152 -96 -227c0 -96 52 -182 144 -219
c9 -4 14 -9 14 -16c0 -12 -18 -17 -26 -12c-104 43 -162 139 -162 247c0 81 38 171 103 247c67 77 180 131 309 131c25 0 49 -2 82 -9c17 -3 29 -6 36 -8c7 -1 22 -5 44 -11s34 -9 37 -10c37 39 73 58 108 58c47 0 75 -20 75 -47c0 -37 -34 -63 -78 -63c-20 0 -53 6 -98 17
c-35 -43 -77 -117 -125 -224l-29 -61h333l84 182c63 137 140 205 232 205c80 0 119 -42 119 -97c0 -23 -9 -45 -27 -66c-17 -21 -40 -31 -69 -32c-21 0 -21 28 0 28c40 3 66 38 66 70c0 39 -29 69 -89 69c-73 0 -148 -63 -196 -170l-106 -233l-89 -194
c-7 -17 -11 -30 -11 -40c0 -12 4 -21 13 -28c16 -16 -6 -32 -21 -22c-15 11 -22 27 -22 50c0 17 4 34 13 52l83 182l7 16h-333l-25 -55c-17 -37 -30 -66 -41 -87c-10 -20 -24 -44 -41 -73c-17 -28 -33 -50 -48 -65c-47 -50 -120 -95 -215 -89c-72 0 -131 32 -142 79
c-2 11 2 17 11 19c10 2 16 -2 19 -13c7 -32 54 -55 111 -55zM782 626c27 0 48 11 48 28c0 15 -15 23 -44 23c-24 0 -50 -13 -77 -38c36 -9 60 -13 73 -13z" />
    <glyph glyph-name="I" unicode="I" horiz-adv-x="580" 
d="M578 670c45 0 86 -7 124 -20c18 -6 27 -14 27 -25c0 -7 -3 -14 -8 -19c-41 -39 -75 -81 -104 -125c-29 -43 -60 -102 -95 -177c-15 -31 -26 -55 -35 -72c-8 -17 -20 -40 -37 -70c-17 -29 -31 -53 -44 -70s-29 -36 -49 -58s-40 -39 -59 -50c-39 -24 -91 -44 -146 -44
c-67 0 -126 28 -139 71c-6 21 20 35 28 12c11 -31 55 -53 111 -53c64 0 124 29 165 65c21 19 42 42 63 71c41 59 62 101 93 165v-1l40 87c23 50 53 101 89 153s67 89 94 111l-13 4c-31 9 -66 14 -105 14c-68 0 -125 -23 -170 -70s-67 -105 -67 -174c0 -23 3 -44 9 -64
c5 -16 0 -28 -12 -28c-7 0 -12 5 -17 16c-8 25 -12 50 -12 77c0 76 26 141 78 194s116 80 191 80z" />
    <glyph glyph-name="J" unicode="J" horiz-adv-x="580" 
d="M578 670c45 0 86 -7 124 -20c18 -6 27 -14 27 -25c0 -7 -3 -14 -8 -19c-41 -39 -75 -81 -104 -125c-29 -43 -60 -102 -95 -177v1c-8 -16 -27 -56 -35 -72l-34 -73c-17 -37 -33 -69 -48 -95c-14 -26 -32 -55 -55 -87c-23 -33 -46 -59 -69 -78c-45 -40 -112 -72 -183 -72
c-67 0 -124 28 -139 71c-6 21 20 33 28 12c11 -31 55 -53 111 -53c64 0 124 29 165 66c21 18 42 42 63 71s37 55 50 79c13 25 28 53 43 85l94 199c22 49 51 99 88 151c37 53 68 90 95 112c-36 12 -75 18 -118 18c-68 0 -125 -23 -170 -70s-67 -105 -67 -174
c0 -22 3 -43 9 -64c7 -15 -2 -28 -14 -28c-5 0 -10 5 -15 15c-8 25 -12 50 -12 77c0 76 26 141 78 194c52 54 116 81 191 81z" />
    <glyph glyph-name="K" unicode="K" horiz-adv-x="861" 
d="M143 -61c17 0 36 2 56 7c-89 73 -142 183 -142 296c0 116 54 227 137 302c83 76 199 123 316 123c62 0 118 -12 167 -37c17 -11 20 -23 7 -36c-42 -45 -82 -110 -121 -197l-31 -67c-19 -41 -36 -77 -49 -108c-17 -37 -32 -67 -45 -91s-28 -50 -47 -78
c-36 -55 -78 -93 -127 -117c34 -21 72 -36 113 -47c11 -3 15 -8 12 -17c-3 -10 -11 -13 -24 -10c-49 13 -93 33 -134 60c-26 -8 -55 -13 -88 -14c-64 1 -120 37 -135 78c-4 17 25 26 29 11c11 -33 53 -57 106 -58zM87 242c0 -112 55 -217 148 -286c53 20 98 59 134 114
c19 28 34 53 45 76c12 23 25 50 40 83l80 178c37 81 76 147 118 197c-37 22 -84 33 -142 33c-74 0 -143 -17 -208 -50c-64 -33 -116 -81 -156 -142c-39 -61 -59 -129 -59 -203zM560 166c-13 23 -8 35 13 38c39 5 83 33 115 61c16 15 35 35 57 62s39 48 52 65s31 42 54 74
c27 39 49 69 66 90s37 45 61 72c49 53 92 77 136 77c15 0 32 -4 50 -11c10 -4 13 -10 10 -19c-5 -9 -13 -12 -24 -8c-12 5 -24 8 -36 8c-36 0 -75 -24 -119 -73c-22 -25 -41 -48 -58 -69s-37 -50 -62 -85c-49 -68 -83 -112 -135 -168c-51 -55 -103 -92 -151 -104
c15 -24 29 -57 36 -76c4 -9 10 -23 17 -44c8 -21 13 -34 16 -40c12 -29 22 -53 30 -72s19 -41 32 -68s26 -50 37 -67c24 -35 61 -79 96 -102c36 -23 84 -40 136 -40c49 0 87 12 116 37s47 54 52 87c-1 37 -14 65 -39 86c-16 13 3 34 19 23c37 -25 54 -62 49 -113
c-4 -40 -23 -75 -57 -105s-81 -45 -140 -45c-30 0 -58 4 -85 12c-52 16 -86 34 -125 77c-19 21 -34 40 -45 57c-11 16 -24 39 -39 70s-26 55 -33 72s-17 42 -30 76c-30 79 -54 134 -72 165z" />
    <glyph glyph-name="L" unicode="L" horiz-adv-x="865" 
d="M1180 -87c-17 13 0 30 15 21c39 -23 56 -61 51 -112c-5 -46 -29 -86 -72 -121s-98 -53 -167 -53c-44 0 -90 9 -127 18c-18 4 -38 11 -59 21c-41 19 -65 29 -106 58c-21 14 -37 25 -49 34c-11 8 -27 21 -48 38c-20 17 -35 30 -44 39c-9 8 -24 22 -45 41s-35 31 -42 38
l-25 22c-71 -43 -149 -64 -236 -64c-57 -1 -106 10 -146 33s-60 53 -60 90c0 78 91 113 166 111c92 0 177 -48 278 -133c56 37 105 88 146 154c-117 -39 -226 -35 -327 12c-69 31 -117 79 -142 144s-22 133 9 202c41 91 123 155 214 180s196 18 289 -25
c60 -28 109 -66 146 -113c49 92 96 138 142 138c41 0 61 -30 61 -91c-1 -75 -36 -155 -103 -240c-67 -84 -149 -147 -246 -190c-46 -82 -101 -146 -165 -191c13 -11 34 -29 63 -56c30 -27 53 -48 69 -61s38 -31 66 -53c29 -23 54 -40 75 -51c21 -12 46 -25 74 -38
c56 -27 113 -37 173 -37c59 0 108 15 145 45c38 29 59 64 64 103c3 33 -9 62 -37 87zM298 188c105 -49 217 -48 336 3c5 8 11 21 19 38l70 157c35 78 56 122 61 133c-33 45 -82 84 -147 116c-61 25 -121 37 -180 36s-114 -17 -165 -49c-51 -31 -90 -74 -115 -128
c-28 -62 -30 -121 -7 -178s66 -99 128 -128zM226 -77c77 0 147 18 212 55c-92 77 -168 119 -251 119c-84 0 -136 -31 -135 -80c0 -28 18 -51 53 -68s76 -26 121 -26zM750 375l-70 -156l-4 -8c83 43 153 102 210 177s85 144 86 209c1 39 -10 58 -35 59
c-34 -1 -74 -46 -119 -135c8 -13 15 -28 21 -45c2 -2 2 -6 1 -11c1 -7 -8 -15 -15 -14c-5 0 -9 4 -12 11c-2 6 -6 15 -11 27c-7 -15 -17 -36 -30 -64s-20 -45 -22 -50z" />
    <glyph glyph-name="M" unicode="M" horiz-adv-x="846" 
d="M670 52l190 410v-1c9 21 13 39 13 54c0 33 -24 58 -67 58c-64 0 -141 -54 -186 -153l-189 -410v1c-6 -11 -14 -17 -23 -17c-11 0 -15 8 -10 23l206 443c10 23 15 40 15 52c0 37 -24 61 -60 61c-69 0 -155 -63 -208 -179l-174 -383c-6 -11 -14 -17 -23 -17
c-12 0 -15 7 -9 22l194 423c14 31 21 66 21 104c0 45 -18 83 -54 112c-35 29 -76 44 -122 44c-45 0 -85 -15 -121 -44c-35 -29 -53 -65 -53 -110c0 -69 49 -125 121 -125c41 0 69 16 83 47c5 10 10 15 16 15c11 0 18 -12 15 -23c-17 -44 -63 -68 -114 -68
c-42 0 -78 15 -107 45s-44 66 -44 109c0 50 20 93 61 129c41 37 89 55 143 55s102 -17 143 -52c42 -35 63 -79 63 -134c0 -16 0 -27 -1 -33c50 63 108 95 173 95c53 0 83 -36 90 -81c48 53 93 81 158 81c59 0 97 -40 97 -85c0 -20 -4 -37 -11 -52l-198 -430v1
c-15 -34 -22 -65 -22 -94c0 -45 18 -68 55 -68c1 0 8 1 23 4c19 4 22 -26 3 -30c-12 -3 -22 -4 -29 -4c-57 0 -83 40 -83 97c0 37 8 73 25 108z" />
    <glyph glyph-name="N" unicode="N" horiz-adv-x="619" 
d="M553 604c60 0 99 -40 99 -85c0 -20 -4 -37 -11 -52l-198 -430v1c-15 -34 -22 -65 -22 -94c0 -45 18 -68 55 -68c1 0 8 1 23 4c11 3 18 -1 19 -11s-4 -16 -16 -19s-22 -4 -29 -4c-57 0 -83 40 -83 97c0 37 8 73 25 108l190 409c9 19 13 37 13 54c0 33 -24 58 -67 58
c-69 0 -149 -66 -200 -178l-174 -383c-6 -11 -14 -17 -23 -17c-12 0 -15 7 -9 22l194 423c14 31 21 66 21 104c0 45 -18 83 -54 112c-35 29 -76 44 -122 44c-45 0 -85 -15 -121 -44c-35 -29 -53 -65 -53 -110c0 -69 49 -125 121 -125c41 0 69 16 83 47c5 10 10 15 16 15
c11 0 18 -12 15 -23c-17 -44 -63 -68 -114 -68c-42 0 -78 15 -107 45s-44 66 -44 109c0 50 20 93 61 129c41 37 89 55 143 55s102 -17 143 -52c42 -35 63 -79 63 -134c0 -15 0 -26 -1 -34c45 53 111 95 164 95z" />
    <glyph glyph-name="O" unicode="O" horiz-adv-x="833" 
d="M116 306c23 101 77 187 160 258c83 72 172 108 265 108c80 0 145 -27 195 -80s75 -120 75 -202c0 -27 -3 -57 -10 -89c-23 -101 -77 -187 -160 -258s-172 -107 -265 -107c-80 0 -145 26 -196 79c-50 53 -75 121 -75 203c0 28 4 57 11 88zM145 301c-7 -33 -10 -61 -10 -83
c0 -73 22 -134 66 -181c45 -47 103 -71 175 -71c85 0 167 33 244 100s128 147 151 240c7 29 10 57 10 84c0 73 -22 134 -66 181s-102 71 -174 71c-87 0 -170 -33 -247 -100s-127 -147 -149 -241z" />
    <glyph glyph-name="P" unicode="P" horiz-adv-x="812" 
d="M793 684c21 0 21 -28 0 -28c-22 0 -45 -8 -68 -24c80 -53 127 -132 127 -220c0 -73 -27 -135 -82 -185c-55 -49 -116 -74 -183 -75c-33 0 -64 9 -94 26c-7 3 -8 9 -3 18c5 7 12 9 21 5c32 -13 57 -19 76 -20c59 0 113 22 162 67s73 100 73 165c0 80 -45 152 -121 200
c-45 -42 -90 -115 -137 -218l-80 -174c-15 -32 -26 -57 -35 -75c-9 -17 -20 -39 -35 -65c-15 -25 -28 -45 -40 -59c-23 -28 -60 -67 -97 -84c-36 -17 -84 -30 -140 -30c-72 0 -130 31 -141 78c-2 11 2 18 11 19c10 2 16 -2 19 -13c7 -32 54 -54 111 -54c69 0 128 25 167 56
c19 15 39 36 59 65s36 55 47 77c11 23 26 54 44 93l81 177c45 101 92 175 140 222c-55 28 -114 42 -177 42c-131 0 -240 -47 -301 -115c-61 -67 -94 -144 -94 -219c-1 -88 45 -165 129 -200c26 -9 11 -38 -11 -27c-95 39 -147 126 -148 227c0 64 21 130 66 194
c63 94 186 168 359 168c75 0 142 -17 201 -50c31 24 63 36 94 36z" />
    <glyph glyph-name="Q" unicode="Q" horiz-adv-x="758" 
d="M475 678c84 0 153 -28 206 -85s79 -127 77 -212c-3 -99 -38 -188 -105 -267s-148 -137 -243 -175c8 -8 24 -24 47 -48c24 -25 41 -42 52 -52c11 -11 27 -26 50 -47s41 -37 56 -47c15 -11 34 -23 57 -38s45 -25 64 -32c40 -15 91 -27 142 -27c59 0 108 15 146 45
c39 29 61 64 67 103c4 35 -8 64 -35 86c-15 15 2 30 17 22c36 -24 54 -68 47 -113s-32 -85 -76 -120c-43 -35 -99 -53 -167 -53c-59 0 -117 13 -161 29s-99 51 -131 75c-16 12 -35 29 -58 50s-40 37 -52 50c-12 12 -29 30 -51 54c-22 23 -38 40 -47 50
c-56 -19 -109 -28 -159 -28c-60 0 -108 12 -143 35s-51 50 -50 79c1 44 40 83 116 83h1c84 0 157 -47 245 -134c93 35 173 91 238 168s99 161 102 252c2 76 -21 139 -69 190c-47 51 -109 77 -184 77c-100 -1 -180 -32 -241 -94c-61 -61 -92 -131 -93 -208
c-2 -53 15 -100 52 -140s83 -60 140 -60c53 0 97 15 131 44c34 30 52 67 53 110c0 23 -8 44 -23 63c-14 18 10 34 28 20c19 -19 27 -47 26 -85c-1 -47 -22 -89 -62 -126c-39 -37 -90 -55 -153 -56c-65 0 -119 22 -162 67s-64 98 -61 160c1 81 39 164 100 228
s158 107 266 107zM142 66h-2c-56 0 -83 -26 -84 -57c0 -20 15 -39 46 -56s70 -26 117 -25c43 0 88 7 135 22c-77 77 -147 115 -212 116z" />
    <glyph glyph-name="R" unicode="R" horiz-adv-x="932" 
d="M255 -50c65 0 125 27 165 62c21 17 41 41 61 71c21 30 37 58 50 83s29 57 46 96l67 149c3 5 9 23 12 28c41 91 75 150 102 177c-62 35 -128 52 -199 52c-111 0 -205 -31 -264 -76c-90 -71 -128 -169 -128 -254c0 -45 13 -88 39 -129c27 -40 62 -70 105 -90
c21 -10 11 -39 -12 -28c-101 44 -162 140 -162 247c0 64 18 129 61 193c61 93 181 166 360 167c103 0 191 -30 264 -90s110 -133 110 -220c1 -74 -25 -138 -77 -193c-52 -54 -111 -85 -178 -94c13 -24 31 -60 52 -108c7 -16 12 -28 16 -36c14 -31 24 -53 30 -66
s16 -34 30 -61c15 -27 27 -47 36 -60c20 -25 57 -71 89 -88s78 -33 127 -33c97 0 158 57 167 124c-1 35 -14 63 -39 86c-12 13 3 30 18 22c35 -23 53 -68 50 -112c-5 -39 -25 -73 -60 -104s-80 -46 -137 -46c-76 0 -142 31 -183 67c-21 17 -42 43 -63 77
c-21 33 -38 61 -49 84s-25 55 -43 97l-8 18h1c-27 63 -49 108 -66 135c-9 16 -6 27 10 32c62 1 118 27 169 77c51 51 77 112 78 183c0 85 -39 154 -117 209c-30 -27 -64 -85 -102 -173c-7 -15 -11 -23 -12 -25l-64 -144c-19 -41 -35 -76 -49 -103c-13 -27 -31 -56 -53 -89
c-22 -32 -44 -57 -66 -75c-44 -37 -109 -68 -184 -69c-68 1 -122 34 -137 79c-6 24 22 28 30 7c11 -32 55 -56 107 -56z" />
    <glyph glyph-name="S" unicode="S" horiz-adv-x="761" 
d="M374 -96c-83 0 -153 25 -210 76s-86 115 -86 194c0 75 25 139 76 194s117 82 196 82c131 0 203 -73 203 -170c0 -37 -15 -70 -44 -98c-19 -15 -42 3 -21 21c23 21 35 47 35 77c0 81 -62 140 -175 140c-71 0 -128 -24 -173 -73c-45 -48 -67 -106 -67 -173
c0 -69 26 -127 79 -172s116 -68 187 -68c49 0 95 11 140 33s83 56 114 102s47 99 47 158c0 31 -10 79 -31 144s-31 114 -31 149c0 50 17 90 52 121s72 46 112 46c32 0 60 -10 85 -29s38 -46 38 -80c0 -23 -9 -45 -27 -66c-17 -21 -40 -31 -69 -32c-22 0 -22 28 0 28
c40 3 66 38 66 70c0 45 -40 81 -92 81c-33 0 -63 -13 -92 -39c-29 -25 -43 -59 -43 -100c0 -33 10 -80 31 -143s31 -113 31 -150c0 -66 -17 -124 -51 -175c-68 -100 -172 -148 -280 -148z" />
    <glyph glyph-name="T" unicode="T" horiz-adv-x="585" 
d="M120 -46c87 -4 154 37 199 84c15 15 30 36 45 61c15 26 28 49 37 68c10 19 22 45 37 78l67 149c52 114 97 185 134 213c-72 19 -125 30 -159 33c-147 8 -268 -36 -337 -107c-68 -71 -104 -155 -104 -236c0 -97 52 -182 144 -219c26 -9 12 -40 -12 -29
c-104 44 -162 139 -162 247c0 71 22 142 73 209c26 34 57 64 93 89c72 51 181 82 305 77c42 -2 108 -16 199 -43s152 -40 183 -40c80 0 125 39 129 79c0 21 31 19 29 -3c-2 -26 -18 -50 -47 -72s-66 -33 -111 -33c-31 -1 -95 12 -191 39c-48 -35 -84 -100 -137 -215
l-67 -144c-17 -37 -30 -66 -41 -87s-24 -45 -41 -73c-16 -27 -32 -49 -48 -65c-48 -50 -120 -93 -216 -90c-72 0 -131 32 -142 79c-2 11 2 17 12 19c9 2 15 -2 18 -13c7 -32 54 -55 111 -55z" />
    <glyph glyph-name="U" unicode="U" horiz-adv-x="743" 
d="M683 -254c-68 0 -114 36 -134 95s-25 120 -20 193c-65 -59 -125 -89 -182 -89c-130 0 -144 122 -100 216l117 254c41 87 38 193 -66 240c-45 23 -92 27 -142 12s-85 -45 -106 -91c-15 -34 -17 -68 -6 -101s31 -57 60 -71c44 -19 118 -17 139 38c9 28 35 10 29 -9
c-7 -22 -22 -39 -44 -52c-43 -24 -91 -19 -135 -2c-37 17 -62 45 -76 85c-14 41 -12 82 5 123c24 52 64 87 121 105c57 19 112 15 167 -10c104 -48 137 -153 80 -278l-117 -255c-33 -70 -35 -175 74 -175c57 0 119 34 186 102c7 57 15 100 23 129c23 92 51 171 84 236
s63 98 89 98c25 0 44 -26 44 -57c-3 -59 -25 -128 -66 -209s-90 -151 -148 -211c-12 -129 5 -286 125 -286c39 0 69 11 89 34c21 23 31 47 32 73c1 16 -1 27 -8 32c-16 14 7 34 23 22c11 -11 16 -29 15 -54c-1 -33 -15 -64 -41 -93c-25 -29 -62 -44 -111 -44zM584 200
c-8 -24 -14 -54 -19 -90c49 57 91 122 125 193c35 72 53 133 54 183c1 15 -8 24 -17 24c-17 0 -39 -30 -65 -89s-52 -133 -78 -221z" />
    <glyph glyph-name="V" unicode="V" horiz-adv-x="728" 
d="M742 645c15 -27 22 -64 22 -111c0 -93 -18 -172 -37 -220c-37 -93 -93 -178 -168 -255c-75 -76 -145 -114 -212 -114c-130 0 -144 122 -100 216l131 284c41 87 38 193 -66 240c-45 23 -92 27 -142 12s-85 -45 -106 -91c-15 -34 -17 -68 -6 -101s31 -57 60 -71
c44 -19 118 -17 139 38c9 28 35 10 29 -9c-7 -22 -22 -39 -44 -52c-43 -24 -91 -19 -135 -2c-37 17 -62 45 -76 85c-14 41 -12 82 5 123c24 52 64 87 121 105c57 19 112 15 167 -10c104 -48 137 -153 80 -278l-131 -285c-33 -70 -35 -175 74 -175c61 0 126 35 194 106
s121 152 158 242c10 24 19 53 26 86s12 72 13 116c2 44 -5 81 -20 110c-6 15 13 30 24 11z" />
    <glyph glyph-name="W" unicode="W" horiz-adv-x="980" 
d="M243 442c9 28 35 10 29 -9c-7 -22 -22 -39 -44 -52c-43 -24 -91 -19 -135 -2c-37 17 -62 45 -76 85c-14 41 -12 82 5 123c24 52 64 87 121 105c57 19 112 15 167 -10c104 -48 137 -153 80 -278l-117 -255c-33 -70 -35 -175 74 -175c56 0 117 33 182 98c-1 7 -2 19 -2 34
c0 51 7 104 21 158s31 101 51 140c40 79 88 135 120 135c25 -1 45 -26 46 -57c-1 -59 -21 -128 -61 -208c-39 -80 -88 -150 -145 -210c13 -53 47 -90 98 -89c48 1 94 25 126 61c33 36 55 68 72 104l165 358c22 48 99 184 191 131c12 -5 16 -12 11 -21s-13 -10 -24 -5
c-70 38 -130 -74 -150 -118l-165 -355c-58 -123 -136 -184 -233 -184c-56 1 -97 39 -114 95c-67 -64 -130 -96 -189 -96c-130 0 -144 122 -100 216l117 254c37 82 39 192 -66 240c-45 23 -92 27 -142 12s-85 -45 -106 -91c-15 -34 -17 -68 -6 -101s31 -57 60 -71
c44 -19 118 -17 139 38zM555 106v-6c51 58 94 124 129 197c35 74 52 137 52 189c0 16 -9 25 -18 24c-15 1 -36 -20 -62 -62c-26 -41 -49 -95 -70 -161c-21 -65 -31 -126 -31 -181z" />
    <glyph glyph-name="X" unicode="X" horiz-adv-x="667" 
d="M20 -45c78 0 194 75 348 224l105 102c-3 260 -68 392 -209 392c-71 0 -134 -34 -159 -98c-13 -34 -14 -68 -1 -101s35 -57 64 -71c46 -19 119 -18 138 38c3 14 9 18 19 13c9 -5 12 -13 10 -22c-20 -70 -114 -83 -176 -54c-37 17 -64 45 -81 86s-17 81 -1 122
c31 73 103 116 186 116c153 0 233 -131 240 -392l304 295c24 22 41 -1 20 -22l-323 -313c0 -104 7 -193 21 -267c29 -148 95 -242 195 -242c40 0 73 11 98 32s40 44 45 69c4 16 -1 39 -13 51c-19 19 11 41 27 22c13 -15 21 -48 16 -73c-7 -33 -26 -63 -58 -90
c-31 -27 -72 -41 -121 -41c-55 0 -101 23 -138 68c-72 89 -100 236 -103 441l-85 -83c-74 -72 -133 -123 -177 -154c-73 -51 -136 -77 -190 -78c-72 0 -131 32 -142 79c-2 11 2 17 12 19c9 2 15 -2 18 -13c7 -32 54 -55 111 -55z" />
    <glyph glyph-name="Y" unicode="Y" horiz-adv-x="719" 
d="M397 2c-129 0 -144 122 -100 216l90 197c42 88 36 193 -66 240c-44 23 -91 27 -141 12s-85 -45 -106 -91c-16 -33 -18 -67 -7 -101c11 -33 31 -57 60 -71c43 -19 119 -18 140 38c6 28 34 10 28 -9c-11 -33 -36 -54 -75 -64c-39 -9 -74 -6 -104 10c-36 17 -61 45 -76 85
c-14 41 -12 82 5 123c24 53 64 88 121 106s113 14 167 -11c105 -48 139 -152 80 -277l-91 -199c-30 -70 -35 -175 75 -175c61 0 113 22 149 61s55 68 76 112l11 24l132 287c5 13 13 17 23 13c9 -3 11 -10 7 -20l-253 -549c-61 -133 -137 -199 -230 -198
c-79 0 -118 41 -118 96c-1 23 8 45 26 66s42 31 71 32c9 1 14 -3 15 -12s-4 -14 -13 -14h-4c-40 -4 -65 -40 -65 -72c-1 -39 29 -69 89 -68c73 -1 147 62 196 170l53 115c-49 -48 -104 -72 -165 -72z" />
    <glyph glyph-name="Z" unicode="Z" horiz-adv-x="772" 
d="M495 674c49 0 96 -7 141 -21s90 -31 134 -52c45 -21 80 -34 105 -41l5 5c53 63 103 94 148 94c47 0 69 -23 69 -55c0 -20 -13 -39 -40 -58c-26 -19 -59 -28 -98 -28c-25 0 -49 3 -73 9l-413 -469c-11 -13 -24 -27 -39 -40c25 -19 58 -47 99 -84s77 -69 108 -94
s66 -52 107 -79c81 -55 168 -83 260 -83c59 0 108 15 145 45c38 29 59 64 64 103c3 33 -9 62 -37 87c-17 13 0 30 15 21c39 -23 56 -61 51 -112c-5 -46 -29 -86 -72 -121s-98 -53 -167 -53c-44 0 -90 9 -127 18c-18 4 -38 11 -59 21c-41 19 -65 29 -106 58
c-21 14 -37 25 -49 34c-11 8 -27 21 -48 38c-20 17 -35 30 -44 39c-9 8 -24 22 -45 41s-35 31 -42 38c-22 21 -47 42 -75 64c-71 -59 -143 -88 -218 -88c-49 -1 -91 9 -124 28s-50 44 -50 77c0 78 91 113 166 111c69 0 144 -30 225 -91c17 17 31 31 40 42l403 458
c-19 7 -52 20 -98 41c-91 41 -170 67 -263 67c-71 0 -143 -35 -171 -98c-15 -34 -17 -68 -6 -101s31 -57 60 -71c44 -19 118 -17 139 38c9 28 35 10 29 -9c-7 -22 -22 -39 -44 -52c-43 -24 -91 -19 -135 -2c-37 17 -62 45 -76 85c-14 41 -12 82 5 123c17 36 44 64 81 85
c38 21 78 32 120 32zM194 -59c66 0 131 25 194 76c-74 53 -141 80 -201 80c-84 0 -136 -31 -135 -80c0 -23 14 -42 43 -55c29 -14 62 -21 99 -21zM1028 629c-35 0 -75 -26 -119 -77c14 -3 31 -4 50 -4c61 0 108 29 108 56c0 17 -13 25 -39 25z" />
    <glyph glyph-name="bracketleft" unicode="[" horiz-adv-x="275" 
d="M10 -118l314 702c3 7 8 10 16 10h84c10 0 15 -5 15 -14s-5 -14 -15 -14h-75l-303 -679h73c10 0 15 -5 15 -14s-5 -14 -15 -14h-97c-11 0 -17 11 -12 23z" />
    <glyph glyph-name="backslash" unicode="\" horiz-adv-x="362" 
d="M237 15l-99 563c-4 23 25 25 27 6l100 -561c3 -13 -1 -21 -10 -23c-9 -3 -15 2 -18 15z" />
    <glyph glyph-name="bracketright" unicode="]" horiz-adv-x="275" 
d="M280 603h97c11 0 17 -11 12 -23l-314 -702c-4 -8 -10 -11 -18 -10h-90c-10 0 -15 5 -15 14s5 14 15 14h82l303 679h-72c-10 0 -15 5 -15 14s5 14 15 14z" />
    <glyph glyph-name="asciicircum" unicode="^" horiz-adv-x="409" 
d="M291 367l59 -188c6 -22 -18 -30 -25 -10l-51 168l-156 -178c-16 -18 -34 2 -23 17l171 191c13 9 21 9 25 0z" />
    <glyph glyph-name="underscore" unicode="_" horiz-adv-x="349" 
d="M246 -17h-179c-10 0 -15 5 -15 14s5 14 15 14h179c22 0 22 -28 0 -28z" />
    <glyph glyph-name="grave" unicode="`" horiz-adv-x="330" 
d="M316 474l-102 98c-17 11 -6 33 15 23l102 -98c9 -6 10 -13 5 -20s-11 -8 -20 -3z" />
    <glyph glyph-name="a" unicode="a" 
d="M214 0c-40 0 -63 15 -70 46c-24 -31 -51 -46 -81 -46c-47 0 -76 23 -76 64c0 16 4 33 13 51l74 158c31 68 70 102 119 102c33 0 54 -12 65 -36l10 21c8 19 36 9 28 -12l-112 -245c-7 -17 -11 -30 -11 -40c0 -23 14 -35 41 -35c35 0 66 28 92 84c0 1 1 2 1 3
c8 16 32 6 25 -11c-9 -24 -25 -47 -46 -70s-45 -34 -72 -34zM63 28c34 0 63 26 88 77l77 167c7 17 11 30 11 39c0 24 -15 36 -46 36c-35 0 -66 -30 -93 -90l-72 -154c-7 -16 -11 -29 -11 -39c0 -24 15 -36 46 -36z" />
    <glyph glyph-name="b" unicode="b" horiz-adv-x="276" 
d="M1 115l215 469c8 19 39 9 28 -12l-100 -217c18 13 36 20 53 20c48 0 72 -21 72 -64c0 -16 -4 -33 -13 -51l-74 -158c-31 -68 -70 -102 -119 -102c-64 0 -93 50 -62 115zM101 262l-73 -159c-7 -16 -11 -29 -11 -39c0 -24 15 -36 46 -36c35 0 66 30 93 90l72 154
c7 16 11 29 11 39c0 24 -14 36 -42 36c-43 0 -78 -45 -95 -85h-1zM184 0c-7 0 -11 5 -11 14s4 14 11 14c35 0 66 28 92 84c0 1 1 2 1 3c8 16 32 6 25 -11c-9 -24 -25 -47 -46 -70s-45 -34 -72 -34z" />
    <glyph glyph-name="c" unicode="c" horiz-adv-x="232" 
d="M186 375c56 0 81 -42 57 -95l-9 -22c-5 -14 -14 -19 -25 -16c-10 2 -13 9 -8 21c1 1 4 9 10 22c17 41 9 62 -25 62c-33 0 -62 -30 -89 -90l-52 -110c-33 -72 -10 -119 57 -119c29 0 56 9 79 28s40 39 51 59c8 15 34 6 25 -11c-12 -28 -33 -52 -62 -73s-60 -31 -93 -31
c-89 0 -129 54 -85 159l54 114c31 68 69 102 115 102z" />
    <glyph glyph-name="d" unicode="d" 
d="M214 0c-40 0 -63 15 -70 46c-24 -31 -51 -46 -81 -46c-47 0 -76 23 -76 64c0 16 4 33 13 51l74 158c31 68 70 102 119 102c33 0 54 -12 65 -36l113 245c8 19 36 9 28 -12l-215 -469c-7 -17 -11 -30 -11 -40c0 -23 14 -35 41 -35c35 0 66 28 92 84c0 1 1 2 1 3
c8 16 32 6 25 -11c-9 -24 -25 -47 -46 -70s-45 -34 -72 -34zM151 105l5 10l72 157c7 17 11 30 11 39c0 24 -15 36 -46 36c-35 0 -66 -30 -93 -90l-72 -154c-7 -16 -11 -29 -11 -39c0 -24 15 -36 46 -36c34 0 63 26 88 77z" />
    <glyph glyph-name="e" unicode="e" horiz-adv-x="232" 
d="M186 375c56 0 80 -42 57 -95c-31 -77 -70 -111 -129 -111c-21 0 -38 6 -51 17l-18 -39c-33 -72 -10 -119 57 -119c29 0 56 9 79 28s40 39 51 59c8 15 34 6 25 -11c-12 -28 -33 -52 -62 -73s-60 -31 -93 -31c-89 0 -129 54 -85 159l54 114c31 68 69 102 115 102zM211 285
c17 41 9 62 -25 62c-33 0 -62 -30 -89 -90l-21 -45c9 -8 22 -12 37 -12c45 0 74 28 98 85z" />
    <glyph glyph-name="f" unicode="f" horiz-adv-x="156" 
d="M203 342h-66l-169 -370c-60 -132 -136 -198 -229 -198c-80 0 -119 42 -119 97c0 23 9 45 27 66c17 21 40 31 69 32c21 0 21 -28 0 -28c-40 -3 -66 -38 -66 -70c0 -39 29 -69 89 -69c73 0 148 63 196 170l169 370h-18c-9 0 -13 4 -11 13c3 9 9 14 20 15h22l39 84
c63 137 140 205 232 205c80 0 119 -42 119 -97c0 -23 -9 -45 -27 -66c-17 -21 -40 -31 -69 -32c-21 0 -21 28 0 28c40 3 66 38 66 70c0 39 -29 69 -89 69c-73 0 -147 -62 -196 -170l-42 -91h62c9 0 12 -5 9 -14s-9 -14 -18 -14z" />
    <glyph glyph-name="g" unicode="g" horiz-adv-x="291" 
d="M-128 -31c21 0 21 -28 0 -28c-40 -3 -66 -38 -66 -70c0 -39 29 -69 89 -69c73 0 148 63 196 170l20 45c-13 -11 -29 -17 -48 -17c-47 0 -76 23 -76 64c0 16 4 33 13 51l74 158c31 68 70 102 119 102c33 0 54 -12 65 -36l10 21c8 19 36 9 28 -12l-172 -376
c-60 -132 -136 -198 -229 -198c-80 0 -119 42 -119 97c0 23 9 45 27 66c17 21 40 31 69 32zM63 28c34 0 63 26 88 77l77 167c7 17 11 30 11 39c0 24 -15 36 -46 36c-35 0 -66 -30 -93 -90l-72 -154c-7 -16 -11 -29 -11 -39c0 -24 15 -36 46 -36zM198 0c-7 0 -11 5 -11 14
s4 14 11 14c35 0 66 28 92 84c0 1 1 2 1 3c8 16 32 6 25 -11c-9 -24 -25 -47 -46 -70s-45 -34 -72 -34z" />
    <glyph glyph-name="h" unicode="h" horiz-adv-x="306" 
d="M155 115l73 157c7 16 11 29 11 39c0 24 -15 36 -46 36c-33 0 -62 -25 -87 -74l-77 -169c-11 -25 -27 -48 -48 -71c-21 -22 -46 -33 -74 -33c-22 0 -20 28 0 28c35 0 66 29 93 87l215 469c8 19 36 9 28 -12l-98 -215c15 12 31 18 48 18c47 0 76 -23 76 -64
c0 -16 -4 -33 -13 -51l-73 -157c-7 -17 -11 -30 -11 -40c0 -23 14 -35 41 -35c35 0 66 28 92 84c0 1 1 2 1 3c8 16 32 6 25 -11c-9 -24 -25 -47 -46 -70s-45 -34 -72 -34c-47 0 -71 21 -71 63c0 17 4 34 13 52z" />
    <glyph glyph-name="i" unicode="i" horiz-adv-x="151" 
d="M58 0c-47 0 -71 21 -71 63c0 17 4 34 13 52l112 245c8 19 36 9 28 -12l-112 -245c-7 -17 -11 -30 -11 -40c0 -23 14 -35 41 -35c35 0 66 28 92 84c0 1 1 2 1 3c8 16 32 6 25 -11c-9 -24 -25 -47 -46 -70s-45 -34 -72 -34zM167 432c-16 0 -25 12 -22 27c2 24 35 37 49 19
c15 -17 -4 -46 -27 -46z" />
    <glyph glyph-name="j" unicode="j" horiz-adv-x="135" 
d="M42 0c-7 0 -11 5 -11 14s4 14 11 14c35 0 66 28 92 84c0 1 1 2 1 3c8 16 32 6 25 -11c-9 -24 -25 -47 -46 -70s-45 -34 -72 -34zM-284 -31c21 0 21 -28 0 -28c-40 -3 -66 -38 -66 -70c0 -39 29 -69 89 -69c73 0 148 63 196 170l177 388c8 19 36 9 28 -12l-172 -376
c-60 -132 -136 -198 -229 -198c-80 0 -119 42 -119 97c0 23 9 45 27 66c17 21 40 31 69 32zM164 432c-16 0 -25 12 -22 27c2 24 35 37 49 19c15 -17 -4 -46 -27 -46z" />
    <glyph glyph-name="k" unicode="k" horiz-adv-x="288" 
d="M241 299c4 32 -9 48 -40 48c-40 0 -76 -39 -97 -78l-75 -165c-11 -25 -27 -48 -48 -71c-21 -22 -46 -33 -74 -33c-22 0 -20 28 0 28c35 0 66 29 93 87l215 469c8 19 36 9 28 -12l-102 -222c21 17 41 25 60 25c47 0 75 -28 70 -76c-3 -31 -22 -62 -55 -94
c-33 -31 -67 -51 -103 -58c-7 -45 -5 -118 63 -118c24 0 47 10 68 31c22 21 37 40 44 55c8 16 32 6 25 -11c-8 -22 -26 -45 -54 -69c-56 -47 -116 -42 -148 -15c-46 44 -31 118 -21 155c32 0 64 13 97 40s51 55 54 84z" />
    <glyph glyph-name="l" unicode="l" horiz-adv-x="151" 
d="M0 115l215 469c8 19 36 9 28 -12l-215 -469c-7 -17 -11 -30 -11 -40c0 -23 14 -35 41 -35c35 0 66 28 92 84c0 1 1 2 1 3c8 16 32 6 25 -11c-9 -24 -25 -47 -46 -70s-45 -34 -72 -34c-47 0 -71 21 -71 63c0 17 4 34 13 52z" />
    <glyph glyph-name="m" unicode="m" horiz-adv-x="462" 
d="M260 269l-4 -9l-110 -239c-5 -12 -14 -17 -25 -16c-9 2 -11 7 -8 16l115 251c7 16 11 29 11 39c0 24 -19 39 -46 36c-33 -3 -63 -29 -88 -76l-76 -167c-11 -25 -27 -48 -48 -71c-21 -22 -46 -33 -74 -33c-22 0 -20 28 0 28c35 0 66 29 93 87l113 246c3 9 9 12 18 9
s13 -8 11 -17c16 13 33 20 51 22c41 3 70 -17 75 -52c26 32 53 49 81 52c47 3 76 -21 76 -64c0 -16 -4 -33 -13 -51l-73 -157c-7 -17 -11 -30 -11 -40c0 -23 14 -35 41 -35c35 0 66 28 92 84c0 1 1 2 1 3c8 16 32 6 25 -11c-9 -24 -25 -47 -46 -70s-45 -34 -72 -34
c-47 0 -71 21 -71 63c0 17 4 34 13 52l73 157c7 16 11 29 11 39c0 24 -19 39 -46 36c-34 -3 -64 -29 -89 -78z" />
    <glyph glyph-name="n" unicode="n" horiz-adv-x="306" 
d="M155 115l73 157c7 16 11 29 11 39c0 24 -19 39 -46 36c-33 -3 -63 -29 -88 -76l-76 -167c-11 -25 -27 -48 -48 -71c-21 -22 -46 -33 -74 -33c-22 0 -20 28 0 28c35 0 66 29 93 87l113 246c3 9 9 12 18 9s13 -8 11 -17c16 13 33 20 51 22c47 3 76 -21 76 -64
c0 -16 -4 -33 -13 -51l-73 -157c-7 -17 -11 -30 -11 -40c0 -23 14 -35 41 -35c35 0 66 28 92 84c0 1 1 2 1 3c8 16 32 6 25 -11c-9 -24 -25 -47 -46 -70s-45 -34 -72 -34c-47 0 -71 21 -71 63c0 17 4 34 13 52z" />
    <glyph glyph-name="o" unicode="o" horiz-adv-x="269" 
d="M63 0c-47 0 -76 23 -76 64c0 16 4 33 13 51l74 158c31 68 70 102 119 102c47 0 76 -23 76 -64c0 -16 -4 -33 -13 -51l-74 -158c-31 -68 -70 -102 -119 -102zM17 64c0 -24 15 -36 46 -36c35 0 66 30 93 90l72 154c7 16 11 29 11 39c0 24 -15 36 -46 36
c-35 0 -66 -30 -93 -90l-72 -154c-7 -16 -11 -29 -11 -39z" />
    <glyph glyph-name="p" unicode="p" horiz-adv-x="276" 
d="M-159 -231l271 591c6 16 31 10 29 -6c19 14 37 21 55 21c48 0 72 -21 72 -64c0 -16 -4 -33 -13 -51l-74 -158c-31 -68 -70 -102 -119 -102c-33 0 -55 12 -65 36l-128 -279c-8 -19 -36 -9 -28 12zM196 347c-37 0 -69 -29 -96 -86l-79 -173c-3 -11 -5 -19 -5 -24
c0 -24 15 -36 46 -36c35 0 66 30 93 90l72 154c7 16 11 29 11 39c0 24 -14 36 -42 36zM183 0c-7 0 -11 5 -11 14s4 14 11 14c35 0 66 28 92 84c0 1 1 2 1 3c8 16 32 6 25 -11c-9 -24 -25 -47 -46 -70s-45 -34 -72 -34z" />
    <glyph glyph-name="q" unicode="q" horiz-adv-x="291" 
d="M-3 -231l113 247c-14 -11 -30 -16 -47 -16c-47 0 -76 23 -76 64c0 16 4 33 13 51l74 158c31 68 70 102 119 102c33 0 54 -12 65 -36l10 21c8 19 36 9 28 -12l-271 -591c-8 -19 -36 -9 -28 12zM63 28c32 0 61 25 87 75l80 174c6 17 9 28 9 34c0 24 -15 36 -46 36
c-35 0 -66 -30 -93 -90l-72 -154c-7 -16 -11 -29 -11 -39c0 -24 15 -36 46 -36zM198 0c-7 0 -11 5 -11 14s4 14 11 14c35 0 66 28 92 84c0 1 1 2 1 3c8 16 32 6 25 -11c-9 -24 -25 -47 -46 -70s-45 -34 -72 -34z" />
    <glyph glyph-name="r" unicode="r" horiz-adv-x="283" 
d="M133 115l75 161c7 16 11 29 11 39c0 24 -13 37 -34 36c-16 0 -28 5 -36 15l-123 -262c-9 -19 -36 -14 -25 11l143 310l3 8c8 17 39 6 28 -13c-13 -27 -9 -41 10 -41c40 3 64 -21 64 -64c0 -16 -4 -33 -13 -51l-75 -161c-7 -17 -11 -30 -11 -40c0 -23 14 -35 41 -35
c35 0 66 28 92 84c0 1 1 2 1 3c8 16 32 6 25 -11c-9 -24 -25 -47 -46 -70s-45 -34 -72 -34c-47 0 -71 21 -71 63c0 17 4 34 13 52z" />
    <glyph glyph-name="s" unicode="s" horiz-adv-x="254" 
d="M-16 6c-13 6 -25 14 -35 25c-11 13 6 32 23 20c8 -9 18 -15 30 -19c8 -3 18 -4 29 -4c33 0 61 12 84 36c24 25 37 55 40 90c1 19 -4 46 -15 80c-11 35 -18 58 -20 69l-94 -199c-11 -21 -34 -8 -25 11l136 295c8 19 39 9 28 -12l-5 -11c-7 -15 -10 -28 -11 -41
c-2 -23 4 -55 17 -97c14 -42 20 -73 19 -94c-3 -41 -20 -78 -51 -110c-30 -31 -65 -47 -106 -47c-15 0 -30 3 -44 8zM162 0c-7 0 -11 5 -11 14s4 14 11 14c35 0 66 28 92 84c0 1 1 2 1 3c8 16 32 6 25 -11c-9 -24 -25 -47 -46 -70s-45 -34 -72 -34z" />
    <glyph glyph-name="t" unicode="t" horiz-adv-x="159" 
d="M192 342h-55l-109 -239c-7 -17 -11 -30 -11 -40c0 -23 16 -35 49 -35c35 0 66 28 92 84c0 1 1 2 1 3c8 16 32 6 25 -11c-9 -24 -25 -47 -46 -70s-45 -34 -72 -34c-53 0 -79 21 -79 63c0 17 4 34 13 52l104 227h-29c-9 0 -13 4 -11 13c3 9 9 14 20 15h32l49 106
c8 19 36 9 28 -12l-43 -94h51c9 0 12 -5 9 -14s-9 -14 -18 -14z" />
    <glyph glyph-name="u" unicode="u" 
d="M141 348l-113 -245c-7 -16 -11 -29 -11 -39c0 -24 15 -36 46 -36c34 0 63 26 88 77l5 10l112 245c8 19 36 9 28 -12l-112 -245c-7 -17 -11 -30 -11 -40c0 -23 14 -35 41 -35c35 0 66 28 92 84c0 1 1 2 1 3c8 16 32 6 25 -11c-9 -24 -25 -47 -46 -70s-45 -34 -72 -34
c-40 0 -63 15 -70 46c-24 -31 -51 -46 -81 -46c-47 0 -76 23 -76 64c0 16 4 33 13 51l113 245c8 19 36 9 28 -12z" />
    <glyph glyph-name="v" unicode="v" horiz-adv-x="273" 
d="M224 183l-26 -58c-11 -29 -29 -58 -56 -85c-26 -27 -55 -40 -87 -40c-43 0 -68 23 -68 64c0 16 4 33 13 51l113 245c8 19 36 9 28 -12l-113 -245c-7 -16 -11 -29 -11 -39c0 -24 13 -36 38 -36s47 11 66 33c20 23 35 44 44 64l30 67c9 21 15 36 18 43s7 20 12 37
c11 35 8 55 -4 74s12 30 24 18c16 -25 20 -56 11 -92c-9 -35 -16 -53 -32 -89z" />
    <glyph glyph-name="w" unicode="w" horiz-adv-x="428" 
d="M380 183l-26 -58c-11 -29 -29 -58 -56 -85c-26 -27 -55 -40 -87 -40c-40 0 -62 17 -67 51c-28 -34 -58 -51 -89 -51c-43 0 -68 23 -68 64c0 16 4 33 13 51l113 245c8 19 36 9 28 -12l-113 -245c-7 -16 -11 -29 -11 -39c0 -24 13 -36 38 -36c35 0 68 27 99 82l115 250
c8 19 36 9 28 -12c-69 -151 -104 -226 -105 -227l-8 -18c-7 -16 -11 -29 -11 -39c0 -24 13 -36 38 -36s47 11 66 33c20 23 35 44 44 64l30 67c9 21 15 36 18 43s7 20 12 37c11 35 8 55 -4 74s12 30 24 18c16 -25 20 -56 11 -92c-9 -35 -16 -53 -32 -89z" />
    <glyph glyph-name="x" unicode="x" horiz-adv-x="382" 
d="M225 28c33 0 60 29 83 87c4 15 32 5 26 -12c-16 -53 -56 -103 -109 -103c-43 0 -68 31 -71 76c-33 -51 -67 -76 -102 -76c-44 0 -66 21 -66 64c0 8 4 24 13 49c2 7 7 10 15 10c11 -1 16 -12 11 -21c-6 -15 -9 -27 -9 -38c0 -24 12 -36 36 -36c39 0 82 57 121 148l12 26
c19 42 29 75 29 100c0 28 -19 49 -47 49c-19 0 -38 -10 -55 -31s-25 -49 -23 -84c2 -17 -3 -25 -16 -25c-11 0 -16 9 -16 26c-1 34 8 66 29 96c21 31 48 46 82 46c47 0 70 -30 74 -69c32 46 65 69 98 69c44 0 66 -21 66 -64c0 -15 -5 -32 -14 -50c-11 -20 -36 -10 -27 11
c7 15 11 28 11 39c0 24 -12 36 -36 36c-37 0 -83 -54 -120 -142l-14 -32c-14 -33 -21 -64 -21 -95c0 -36 13 -54 40 -54z" />
    <glyph glyph-name="y" unicode="y" horiz-adv-x="291" 
d="M-128 -31c21 0 21 -28 0 -28c-40 -3 -66 -38 -66 -70c0 -39 29 -69 89 -69c73 0 148 63 196 170l19 42c-15 -9 -30 -14 -47 -14c-47 0 -76 23 -76 64c0 16 4 33 13 51l113 245c8 19 36 9 28 -12l-113 -245c-7 -16 -11 -29 -11 -39c0 -24 15 -36 46 -36c35 0 66 29 93 87
l112 245c8 19 36 9 28 -12l-172 -376c-60 -132 -136 -198 -229 -198c-80 0 -119 42 -119 97c0 23 9 45 27 66c17 21 40 31 69 32zM198 0c-7 0 -11 5 -11 14s4 14 11 14c35 0 66 28 92 84c0 1 1 2 1 3c8 16 32 6 25 -11c-9 -24 -25 -47 -46 -70s-45 -34 -72 -34z" />
    <glyph glyph-name="z" unicode="z" horiz-adv-x="299" 
d="M0 115l146 305c8 17 39 6 28 -13c-11 -31 1 -41 21 -41h90l3 4c13 14 37 -1 24 -18l-164 -187c57 -20 58 -103 -3 -216c-63 -117 -141 -175 -233 -175c-80 0 -119 42 -119 97c0 23 9 45 27 66c17 21 40 31 69 32c21 0 21 -28 0 -28c-40 -3 -66 -38 -66 -70
c0 -39 29 -69 89 -69c76 0 151 54 204 155c59 111 59 185 0 185c-4 0 -9 -1 -16 -2c-7 -2 -10 1 -10 10c1 11 6 17 15 19c3 0 8 1 11 1h1l144 168h-66c-19 0 -34 7 -45 21l-125 -255c-9 -19 -36 -14 -25 11zM206 0c-7 0 -11 5 -11 14s4 14 11 14c35 0 66 28 92 84
c0 1 1 2 1 3c8 16 32 6 25 -11c-9 -24 -25 -47 -46 -70s-45 -34 -72 -34z" />
    <glyph glyph-name="braceleft" unicode="{" horiz-adv-x="309" 
d="M160 -127c17 0 15 -32 -6 -30c-20 3 -39 17 -56 44s-23 60 -20 100c3 33 18 78 46 133c29 55 43 88 44 99c1 13 -9 30 -26 34c-17 2 -16 31 3 29c39 -7 68 14 88 63c27 63 57 115 102 170s107 89 174 89c21 0 41 -5 59 -15c22 -11 3 -34 -16 -26c-12 7 -27 11 -45 11
c-51 0 -99 -23 -142 -68s-78 -102 -105 -170c-17 -44 -42 -70 -74 -78c9 -11 13 -24 12 -37c-1 -19 -14 -48 -37 -87l1 1c-33 -61 -51 -109 -54 -144c-5 -65 25 -114 52 -118z" />
    <glyph glyph-name="bar" unicode="|" horiz-adv-x="235" 
d="M330 572l-249 -556c-5 -12 -13 -16 -23 -13s-12 11 -7 22l251 559c5 9 12 12 21 9s12 -10 7 -21z" />
    <glyph glyph-name="braceright" unicode="}" horiz-adv-x="360" 
d="M223 572c-17 0 -15 32 6 30c20 -3 38 -17 55 -44s24 -60 21 -100c-3 -33 -17 -75 -42 -124s-38 -78 -39 -89c-1 -13 9 -30 26 -34c17 -2 16 -31 -3 -29c-39 7 -68 -14 -88 -63c-27 -64 -58 -120 -106 -179c-48 -60 -112 -99 -179 -99c-21 0 -41 5 -59 15
c-22 11 -3 34 16 26c12 -7 27 -11 45 -11c51 0 100 26 146 77s83 111 110 180c17 44 42 70 74 78c-9 11 -13 24 -12 37c1 18 13 47 36 86c27 50 42 92 45 125c5 65 -25 114 -52 118z" />
    <glyph glyph-name="asciitilde" unicode="~" horiz-adv-x="897" 
d="M133 147c-8 -18 -41 -20 -28 12c16 41 44 74 83 99s81 38 124 38c57 0 116 -34 155 -69c39 -33 99 -68 155 -68c34 0 69 10 104 29c36 19 60 44 73 74c9 24 37 7 28 -12c-15 -35 -43 -64 -84 -87s-82 -34 -121 -34c-63 0 -125 35 -164 68c-39 35 -95 69 -146 69
c-37 0 -73 -11 -107 -33c-33 -22 -57 -51 -72 -86z" />
    <glyph glyph-name="exclamdown" unicode="&#xa1;" horiz-adv-x="233" 
d="M172 339c4 19 22 35 42 35s32 -16 28 -35c-1 -20 -21 -36 -40 -36c-20 0 -34 16 -30 36zM-51 -197l195 437c5 12 13 16 23 13s12 -11 7 -22l-197 -440c-5 -9 -12 -12 -21 -9s-12 10 -7 21z" />
    <glyph glyph-name="cent" unicode="&#xa2;" horiz-adv-x="581" 
d="M486 572l-11 -25c30 -10 54 -29 72 -56c6 -9 6 -17 -1 -25c-7 -5 -13 -4 -19 4c-16 26 -37 43 -64 51l-201 -450c6 -1 15 -2 27 -2c43 0 84 16 124 47c11 9 19 9 23 0c5 -9 1 -17 -12 -26c-43 -33 -88 -49 -135 -49c-15 0 -27 1 -38 4l-14 -31c-6 -24 -34 -12 -28 9
l14 32c-51 25 -81 81 -82 150c-1 33 3 64 12 95c21 71 58 131 111 180c54 49 109 74 164 74c7 0 13 0 16 -1l14 31c6 19 32 9 28 -12zM168 205c1 -60 24 -101 67 -124l197 445h-4c-50 0 -99 -23 -148 -69c-49 -45 -82 -100 -101 -165c-7 -23 -11 -52 -11 -87z" />
    <glyph glyph-name="sterling" unicode="&#xa3;" horiz-adv-x="669" 
d="M340 321h-73c-20 0 -20 25 0 25h84l39 85c45 101 118 170 201 170c71 0 116 -43 117 -92c1 -48 -36 -92 -87 -92c-48 -1 -74 29 -75 62c0 16 4 28 13 37c11 5 18 5 23 0c3 -3 2 -7 -3 -10c-6 -9 -9 -18 -10 -27c0 -21 18 -38 51 -38c37 0 64 31 63 66c0 37 -35 70 -92 70
c-72 0 -134 -62 -177 -153l-35 -78h67c22 0 22 -25 0 -25h-78l-24 -53c-31 -71 -73 -121 -124 -152c29 -21 49 -35 62 -44c13 -8 34 -17 61 -28c28 -11 55 -16 80 -16c73 0 123 44 130 92c2 21 -5 40 -22 58c-15 12 -3 27 16 14c25 -19 36 -43 33 -74
c-3 -30 -19 -57 -47 -80s-65 -35 -111 -35c-32 0 -67 10 -87 15c-10 3 -24 10 -42 20c-17 11 -28 17 -33 19c-4 3 -16 11 -36 25l-29 22c-30 -13 -65 -20 -104 -20c-53 0 -80 16 -80 47c0 32 38 44 79 43c30 0 66 -14 107 -41c51 25 92 72 123 142zM91 110c29 0 55 4 78 11
c-29 19 -56 28 -79 28c-36 0 -53 -6 -52 -18c0 -14 18 -21 53 -21z" />
    <glyph glyph-name="currency" unicode="&#xa4;" horiz-adv-x="677" 
d="M341 381c29 0 73 -17 132 -51c51 -31 90 -46 116 -46c31 0 53 10 68 31c5 5 10 7 16 6c9 -3 14 -12 6 -24c-21 -27 -51 -41 -90 -41c-31 0 -66 12 -107 35c-25 15 -65 -16 -97 -63c7 2 15 3 26 3c53 0 89 -35 89 -86c0 -49 -26 -90 -77 -124c-51 -33 -110 -50 -177 -50
c-27 0 -51 3 -74 10c-15 4 -20 12 -16 23c3 10 11 13 22 8h1c2 -1 5 -2 10 -3c9 -3 15 36 15 56c0 15 -2 33 -7 55c-5 28 -8 49 -8 63c0 48 39 86 88 86c33 0 53 -13 59 -40c6 -21 -18 -30 -26 -13c-7 15 -18 23 -33 23c-33 0 -58 -24 -58 -56c0 -11 2 -30 6 -57
s6 -47 6 -62c0 -19 -2 -36 -7 -53l-2 -7c0 -3 14 -3 19 -3c62 0 116 14 161 41s68 62 68 103c0 17 -6 31 -17 41c-21 21 -66 21 -89 2c-11 -9 -20 -10 -25 -2c-5 7 -3 18 5 32c35 55 65 87 90 96c5 4 3 6 -6 10c-36 19 -65 29 -87 29c-35 0 -63 -11 -84 -33
c-17 -16 -35 2 -20 18c29 29 63 43 104 43z" />
    <glyph glyph-name="yen" unicode="&#xa5;" horiz-adv-x="456" 
d="M189 210h-62c-10 0 -15 5 -15 14s5 14 15 14h75l1 2l-49 293c-1 11 3 17 13 20s16 0 17 -10l45 -272l260 268c9 9 18 10 27 1c6 -7 6 -14 0 -21l-277 -281h67c22 0 22 -28 0 -28h-83l-24 -53h70c22 0 22 -28 0 -28h-82l-56 -125c-5 -9 -12 -12 -21 -9s-12 10 -7 21
l50 113h-63c-10 0 -15 5 -15 14s5 14 15 14h76z" />
    <glyph glyph-name="brokenbar" unicode="&#xa6;" horiz-adv-x="235" 
d="M342 602l-115 -259c-5 -12 -13 -16 -23 -13s-12 11 -7 22l117 262c5 9 12 12 21 9s12 -10 7 -21zM187 254l-115 -259c-5 -12 -13 -16 -23 -13s-12 11 -7 22l117 262c5 9 12 12 21 9s12 -10 7 -21z" />
    <glyph glyph-name="section" unicode="&#xa7;" horiz-adv-x="677" 
d="M341 381c29 0 73 -17 132 -51c51 -31 90 -46 116 -46c31 0 53 10 68 31c5 5 10 7 16 6c9 -3 14 -12 6 -24c-21 -27 -51 -41 -90 -41c-31 0 -66 12 -107 35c-25 15 -65 -16 -97 -63c7 2 15 3 26 3c53 0 89 -35 89 -86c0 -49 -26 -90 -77 -124c-51 -33 -110 -50 -177 -50
c-27 0 -51 3 -74 10c-15 4 -20 12 -16 23c3 10 11 13 22 8h1c2 -1 5 -2 10 -3c9 -3 15 36 15 56c0 15 -2 33 -7 55c-5 28 -8 49 -8 63c0 48 39 86 88 86c33 0 53 -13 59 -40c6 -21 -18 -30 -26 -13c-7 15 -18 23 -33 23c-33 0 -58 -24 -58 -56c0 -11 2 -30 6 -57
s6 -47 6 -62c0 -19 -2 -36 -7 -53l-2 -7c0 -3 14 -3 19 -3c62 0 116 14 161 41s68 62 68 103c0 17 -6 31 -17 41c-21 21 -66 21 -89 2c-11 -9 -20 -10 -25 -2c-5 7 -3 18 5 32c35 55 65 87 90 96c5 4 3 6 -6 10c-36 19 -65 29 -87 29c-35 0 -63 -11 -84 -33
c-17 -16 -35 2 -20 18c29 29 63 43 104 43z" />
    <glyph glyph-name="dieresis" unicode="&#xa8;" horiz-adv-x="151" 
d="M130 432c-16 0 -25 12 -22 27c2 24 35 37 49 19c15 -17 -4 -46 -27 -46zM219 432c-16 0 -25 12 -22 27c2 24 35 37 49 19c15 -17 -4 -46 -27 -46z" />
    <glyph glyph-name="copyright" unicode="&#xa9;" horiz-adv-x="506" 
d="M156 162c-35 36 -53 79 -53 130s18 94 53 129c36 36 79 54 130 54s94 -18 129 -54c36 -35 54 -78 54 -129s-18 -94 -54 -130c-35 -35 -78 -53 -129 -53s-94 18 -130 53zM177 400c-29 -29 -44 -65 -44 -108s15 -79 44 -109c30 -29 66 -44 109 -44s79 15 108 44
c30 30 45 66 45 109s-15 79 -45 108c-29 30 -65 45 -108 45s-79 -15 -109 -45zM290 406c21 0 39 -6 55 -19c10 -7 12 -16 5 -25c-5 -7 -12 -8 -19 -1c-12 10 -26 15 -41 15c-39 0 -70 -36 -70 -81s31 -81 70 -81c15 0 29 5 41 15c8 7 14 6 19 -3s4 -16 -5 -23
c-16 -13 -34 -19 -55 -19c-27 0 -51 11 -71 32c-19 22 -29 48 -29 79s10 57 29 78c20 22 44 33 71 33z" />
    <glyph glyph-name="ordfeminine" unicode="&#xaa;" 
d="M274 297c-33 0 -52 12 -58 37c-17 -25 -38 -37 -61 -37c-41 0 -62 18 -62 53c0 13 3 27 10 41l58 125c27 55 59 82 96 82c24 0 40 -9 49 -28l7 14c11 20 34 10 25 -11l-88 -193c-6 -12 -9 -22 -9 -31c0 -17 11 -26 33 -26c26 0 51 23 76 68c11 18 33 10 22 -11
c-9 -19 -22 -38 -40 -56s-37 -27 -58 -27zM155 323c25 0 46 19 65 57c1 3 4 8 5 11l60 131c3 10 5 17 5 22c0 19 -11 28 -33 28c-25 0 -49 -23 -72 -69l-57 -121c-5 -15 -8 -25 -8 -30c0 -19 12 -29 35 -29z" />
    <glyph glyph-name="guillemotleft" unicode="&#xab;" horiz-adv-x="453" 
d="M165 201c0 -2 12 -15 36 -39l33 -33c12 -14 -4 -35 -15 -26l-73 73c-20 20 -21 29 2 52l76 76c7 7 14 7 20 -2c5 -8 4 -15 -2 -21l-44 -43c-22 -22 -33 -34 -33 -37zM296 201c0 -2 12 -15 36 -39l33 -33c12 -14 -4 -35 -15 -26l-73 73c-20 20 -21 29 2 52l76 76
c7 7 14 7 20 -2c5 -8 4 -15 -2 -21l-44 -43c-22 -22 -33 -34 -33 -37z" />
    <glyph glyph-name="logicalnot" unicode="&#xac;" horiz-adv-x="677" 
d="M341 381c29 0 73 -17 132 -51c51 -31 90 -46 116 -46c31 0 53 10 68 31c5 5 10 7 16 6c9 -3 14 -12 6 -24c-21 -27 -51 -41 -90 -41c-31 0 -66 12 -107 35c-25 15 -65 -16 -97 -63c7 2 15 3 26 3c53 0 89 -35 89 -86c0 -49 -26 -90 -77 -124c-51 -33 -110 -50 -177 -50
c-27 0 -51 3 -74 10c-15 4 -20 12 -16 23c3 10 11 13 22 8h1c2 -1 5 -2 10 -3c9 -3 15 36 15 56c0 15 -2 33 -7 55c-5 28 -8 49 -8 63c0 48 39 86 88 86c33 0 53 -13 59 -40c6 -21 -18 -30 -26 -13c-7 15 -18 23 -33 23c-33 0 -58 -24 -58 -56c0 -11 2 -30 6 -57
s6 -47 6 -62c0 -19 -2 -36 -7 -53l-2 -7c0 -3 14 -3 19 -3c62 0 116 14 161 41s68 62 68 103c0 17 -6 31 -17 41c-21 21 -66 21 -89 2c-11 -9 -20 -10 -25 -2c-5 7 -3 18 5 32c35 55 65 87 90 96c5 4 3 6 -6 10c-36 19 -65 29 -87 29c-35 0 -63 -11 -84 -33
c-17 -16 -35 2 -20 18c29 29 63 43 104 43z" />
    <glyph glyph-name="uni00AD" unicode="&#xad;" horiz-adv-x="327" 
d="M263 210h-179c-10 0 -15 5 -15 14s5 14 15 14h179c22 0 22 -28 0 -28z" />
    <glyph glyph-name="registered" unicode="&#xae;" horiz-adv-x="506" 
d="M156 162c-35 36 -53 79 -53 130s18 94 53 129c36 36 79 54 130 54s94 -18 129 -54c36 -35 54 -78 54 -129s-18 -94 -54 -130c-35 -35 -78 -53 -129 -53s-94 18 -130 53zM177 400c-29 -29 -44 -65 -44 -108s15 -79 44 -109c30 -29 66 -44 109 -44s79 15 108 44
c30 30 45 66 45 109s-15 79 -45 108c-29 30 -65 45 -108 45s-79 -15 -109 -45zM247 365v-157c0 -9 -5 -13 -15 -13c-10 1 -15 5 -15 13v172c13 13 34 20 61 20c49 0 77 -32 77 -69c0 -31 -18 -55 -50 -63c9 -31 20 -46 34 -46c5 0 10 1 13 3c9 5 15 3 18 -8
c3 -10 0 -17 -9 -20s-16 -5 -22 -5c-29 0 -50 25 -65 74c-3 0 -5 0 -7 1c-9 0 -13 5 -13 15c1 10 5 15 13 15c3 -1 9 -1 16 -1c27 0 42 15 42 35c0 21 -18 39 -47 39c-12 0 -22 -2 -31 -5z" />
    <glyph glyph-name="overscore" unicode="&#xaf;" horiz-adv-x="272" 
d="M316 449h-179c-10 0 -15 5 -15 14s5 14 15 14h179c22 0 22 -28 0 -28z" />
    <glyph glyph-name="degree" unicode="&#xb0;" horiz-adv-x="267" 
d="M113 501c0 24 10 46 29 65c20 19 43 29 69 29c36 0 61 -26 61 -62c0 -25 -10 -47 -31 -66c-20 -19 -42 -28 -65 -28c-36 0 -63 27 -63 62zM205 565c-31 0 -60 -27 -60 -60c0 -21 14 -36 37 -36c29 0 59 26 59 57c0 23 -15 39 -36 39z" />
    <glyph glyph-name="plusminus" unicode="&#xb1;" horiz-adv-x="405" 
d="M227 238l42 95c8 18 33 7 25 -11l-37 -84h99c22 0 22 -28 0 -28h-111l-46 -106c-5 -10 -11 -13 -20 -10c-8 4 -10 11 -6 21l42 95h-97c-10 0 -15 5 -15 14s5 14 15 14h109zM291 34h-238c-10 0 -15 5 -15 14s5 14 15 14h238c22 0 22 -28 0 -28z" />
    <glyph glyph-name="twosuperior" unicode="&#xb2;" horiz-adv-x="493" 
d="M435 268h-287c-11 0 -17 5 -17 15s6 15 17 15h9c67 7 137 39 210 94s110 107 110 156c0 55 -35 92 -96 92c-34 0 -62 -11 -84 -33c-22 -21 -33 -45 -33 -71c0 -25 6 -44 19 -56c19 -17 -9 -38 -22 -21c-18 20 -27 44 -27 72c0 36 13 68 40 96c27 29 62 43 107 43
c76 0 125 -51 125 -122c0 -39 -22 -83 -65 -132c-43 -48 -102 -87 -177 -118h171c12 0 18 -5 18 -15s-6 -15 -18 -15z" />
    <glyph glyph-name="threesuperior" unicode="&#xb3;" horiz-adv-x="412" 
d="M241 366c-33 0 -56 15 -56 34c0 21 24 40 56 40c29 0 55 -10 78 -31c71 28 116 92 116 151c0 41 -33 87 -97 87c-34 0 -62 -10 -85 -30s-34 -42 -34 -66c0 -35 27 -64 68 -64c36 0 70 25 70 58c0 12 -3 22 -9 30c-3 7 -1 12 7 15c7 3 14 1 20 -8c7 -13 11 -26 11 -39
c0 -21 -10 -40 -30 -58s-43 -27 -69 -27c-56 0 -96 41 -96 92c0 33 14 63 42 88s63 38 105 38c39 0 70 -12 92 -36c23 -24 34 -51 34 -80c0 -32 -11 -65 -34 -98s-53 -59 -92 -76c11 -17 17 -36 17 -59c0 -52 -28 -102 -83 -150s-116 -72 -184 -72c-17 0 -36 2 -57 6
c-20 4 -30 10 -30 18s7 16 16 16h5c28 -7 50 -10 67 -10c58 0 112 20 161 61c50 41 75 85 75 131c0 17 -5 34 -15 49c-20 -7 -43 -10 -69 -10zM241 395c17 0 32 1 43 4c-13 8 -29 12 -46 12c-29 0 -30 -16 3 -16z" />
    <glyph glyph-name="acute" unicode="&#xb4;" horiz-adv-x="258" 
d="M347 572l-139 -98c-9 -5 -16 -4 -21 3s-3 14 6 20l139 98c21 10 32 -12 15 -23z" />
    <glyph glyph-name="mu" unicode="&#xb5;" 
d="M141 348l-113 -245c-7 -16 -11 -29 -11 -39c0 -24 15 -36 46 -36c34 0 63 26 88 77l5 10l112 245c8 19 36 9 28 -12l-112 -245c-7 -17 -11 -30 -11 -40c0 -23 14 -35 41 -35c35 0 66 28 92 84c0 1 1 2 1 3c8 16 32 6 25 -11c-9 -24 -25 -47 -46 -70s-45 -34 -72 -34
c-40 0 -63 15 -70 46c-24 -31 -51 -46 -81 -46c-35 0 -57 10 -68 31l-82 -177c-8 -19 -36 -9 -28 12l228 494c8 19 36 9 28 -12z" />
    <glyph glyph-name="mu" unicode="&#x3bc;" 
d="M141 348l-113 -245c-7 -16 -11 -29 -11 -39c0 -24 15 -36 46 -36c34 0 63 26 88 77l5 10l112 245c8 19 36 9 28 -12l-112 -245c-7 -17 -11 -30 -11 -40c0 -23 14 -35 41 -35c35 0 66 28 92 84c0 1 1 2 1 3c8 16 32 6 25 -11c-9 -24 -25 -47 -46 -70s-45 -34 -72 -34
c-40 0 -63 15 -70 46c-24 -31 -51 -46 -81 -46c-35 0 -57 10 -68 31l-82 -177c-8 -19 -36 -9 -28 12l228 494c8 19 36 9 28 -12z" />
    <glyph glyph-name="paragraph" unicode="&#xb6;" horiz-adv-x="677" 
d="M341 381c29 0 73 -17 132 -51c51 -31 90 -46 116 -46c31 0 53 10 68 31c5 5 10 7 16 6c9 -3 14 -12 6 -24c-21 -27 -51 -41 -90 -41c-31 0 -66 12 -107 35c-25 15 -65 -16 -97 -63c7 2 15 3 26 3c53 0 89 -35 89 -86c0 -49 -26 -90 -77 -124c-51 -33 -110 -50 -177 -50
c-27 0 -51 3 -74 10c-15 4 -20 12 -16 23c3 10 11 13 22 8h1c2 -1 5 -2 10 -3c9 -3 15 36 15 56c0 15 -2 33 -7 55c-5 28 -8 49 -8 63c0 48 39 86 88 86c33 0 53 -13 59 -40c6 -21 -18 -30 -26 -13c-7 15 -18 23 -33 23c-33 0 -58 -24 -58 -56c0 -11 2 -30 6 -57
s6 -47 6 -62c0 -19 -2 -36 -7 -53l-2 -7c0 -3 14 -3 19 -3c62 0 116 14 161 41s68 62 68 103c0 17 -6 31 -17 41c-21 21 -66 21 -89 2c-11 -9 -20 -10 -25 -2c-5 7 -3 18 5 32c35 55 65 87 90 96c5 4 3 6 -6 10c-36 19 -65 29 -87 29c-35 0 -63 -11 -84 -33
c-17 -16 -35 2 -20 18c29 29 63 43 104 43z" />
    <glyph glyph-name="middot" unicode="&#xb7;" horiz-adv-x="193" 
d="M124 186c-16 0 -25 12 -22 27c2 24 35 37 49 19c15 -17 -4 -46 -27 -46z" />
    <glyph glyph-name="cedilla" unicode="&#xb8;" horiz-adv-x="232" 
d="M41 32c5 11 12 15 22 11c9 -5 11 -11 6 -19c-7 -15 -9 -27 -7 -34c5 -15 21 -46 21 -67c0 -37 -31 -68 -68 -68c-13 0 -25 3 -36 10c-19 9 -4 39 16 26c7 -4 13 -6 20 -6c21 0 38 17 38 38c0 11 -3 23 -9 36s-10 23 -12 31c-2 7 1 21 9 42z" />
    <glyph glyph-name="onesuperior" unicode="&#xb9;" horiz-adv-x="295" 
d="M221 524l40 85c17 35 37 53 61 53c16 0 28 -13 28 -29c0 -15 -9 -34 -28 -57c-19 -25 -45 -49 -78 -71l-94 -203c-3 -4 -7 -6 -13 -6c-10 0 -15 3 -15 10c0 2 0 4 1 5l79 170c-21 -9 -38 -13 -52 -13c-13 0 -14 25 3 29c21 4 43 13 68 27zM288 600l-21 -45
c15 13 27 25 36 37c11 16 16 27 16 33c0 3 -1 5 -4 5c-9 0 -18 -10 -27 -30z" />
    <glyph glyph-name="ordmasculine" unicode="&#xba;" horiz-adv-x="386" 
d="M59 477c18 51 47 94 88 129c41 36 82 54 123 54c69 0 110 -50 110 -126c0 -60 -24 -118 -71 -173s-99 -82 -155 -82c-67 0 -108 48 -108 120c0 28 4 54 13 78zM88 467c-7 -21 -11 -43 -11 -68c0 -52 30 -88 78 -88c47 0 91 24 132 73s62 98 62 147c0 59 -31 98 -80 98
c-35 0 -70 -16 -105 -48c-35 -31 -61 -69 -76 -114z" />
    <glyph glyph-name="guillemotright" unicode="&#xbb;" horiz-adv-x="466" 
d="M352 201c0 3 -11 15 -33 37l-44 43c-7 7 -7 14 -1 22c6 7 12 8 19 1l76 -76c23 -23 22 -32 2 -52l-73 -73c-11 -9 -27 12 -15 26l33 33c24 24 36 37 36 39zM221 201c0 3 -11 15 -33 37l-44 43c-7 7 -7 14 -1 22c6 7 12 8 19 1l76 -76c23 -23 22 -32 2 -52l-73 -73
c-11 -9 -27 12 -15 26l33 33c24 24 36 37 36 39z" />
    <glyph glyph-name="onequarter" unicode="&#xbc;" horiz-adv-x="734" 
d="M351 35l-15 -15h122l144 318c10 16 38 10 27 -11l-140 -307h40c30 0 29 -28 -1 -30h-55l-51 -112c-5 -11 -13 -15 -22 -12s-12 9 -7 19l47 105h-137c-12 0 -18 6 -18 17c0 7 4 14 12 21c21 19 37 33 47 43c41 42 75 88 103 139c29 51 43 100 43 147c0 9 -2 21 -5 34
c-3 9 2 20 13 21c10 1 16 -3 18 -14c3 -13 4 -26 4 -37c0 -57 -17 -115 -50 -172s-73 -109 -119 -154zM221 524l40 85c17 35 37 53 61 53c16 0 28 -13 28 -29c0 -13 -9 -32 -28 -57c-23 -29 -49 -52 -78 -71l-94 -203c-5 -9 -12 -13 -21 -10s-11 9 -6 19l79 170
c-21 -9 -38 -13 -52 -13c-13 0 -14 25 3 29c21 4 43 13 68 27zM288 600l-21 -45c15 13 27 25 36 37c11 16 16 27 16 33c0 3 -1 5 -4 5c-9 0 -18 -10 -27 -30zM497 572l-349 -558c-5 -12 -13 -16 -23 -13s-12 11 -7 22l351 561c5 9 12 12 21 9s12 -10 7 -21z" />
    <glyph glyph-name="onehalf" unicode="&#xbd;" horiz-adv-x="734" 
d="M608 -6h-287c-11 0 -17 5 -17 15s6 15 17 15h9c67 7 137 39 210 94s110 107 110 156c0 55 -35 92 -96 92c-34 0 -62 -11 -84 -33c-22 -21 -33 -45 -33 -71c0 -19 6 -37 19 -56c14 -20 -12 -34 -22 -21c-18 26 -27 50 -27 72c0 36 13 68 40 96c27 29 62 43 107 43
c76 0 125 -51 125 -122c0 -38 -22 -81 -66 -129c-44 -47 -103 -88 -177 -121h172c12 0 18 -5 18 -15s-6 -15 -18 -15zM221 524l40 85c17 35 37 53 61 53c16 0 28 -13 28 -29c0 -15 -9 -34 -28 -57c-19 -25 -45 -49 -78 -71l-94 -203c-3 -4 -7 -6 -13 -6c-10 0 -15 3 -15 10
c0 2 0 4 1 5l79 170c-21 -9 -38 -13 -52 -13c-13 0 -14 25 3 29c21 4 43 13 68 27zM288 600l-21 -45c15 13 27 25 36 37c11 16 16 27 16 33c0 3 -1 5 -4 5c-9 0 -18 -10 -27 -30zM497 572l-349 -558c-5 -12 -13 -16 -23 -13s-12 11 -7 22l351 561c5 9 12 12 21 9
s12 -10 7 -21z" />
    <glyph glyph-name="threequarters" unicode="&#xbe;" horiz-adv-x="853" 
d="M220 366c-35 0 -58 15 -58 34c0 21 24 40 56 40c30 0 56 -10 78 -31c71 27 116 92 116 151c0 41 -33 87 -97 87c-34 0 -62 -10 -85 -30s-34 -42 -34 -66c0 -35 27 -64 68 -64c36 0 70 25 70 58c0 12 -3 22 -9 30c-3 7 -1 12 7 15c7 3 14 1 20 -8c7 -13 11 -26 11 -39
c0 -21 -10 -40 -30 -58s-43 -27 -69 -27c-56 0 -96 41 -96 92c0 33 14 63 42 88s63 38 105 38c39 0 70 -12 92 -36c23 -24 34 -51 34 -80c0 -65 -49 -141 -126 -174c11 -17 17 -37 17 -59c0 -52 -28 -102 -83 -150s-116 -72 -184 -72c-17 0 -36 2 -57 6c-20 4 -30 10 -30 18
s7 16 16 16h5c28 -7 50 -10 67 -10c58 0 112 20 161 61c50 41 75 85 75 131c0 19 -5 35 -15 48c-20 -6 -42 -9 -67 -9zM469 35l-15 -15h122l144 318c10 16 38 10 27 -11l-140 -307h40c30 0 29 -28 -1 -30h-55l-51 -112c-5 -11 -13 -15 -22 -12s-12 9 -7 19l47 105h-137
c-12 0 -18 6 -18 17c0 7 4 14 12 21c21 19 37 33 47 43c41 42 75 88 103 139c29 51 43 100 43 147c0 9 -2 21 -5 34c-3 9 2 20 13 21c10 1 16 -3 18 -14c3 -13 4 -26 4 -37c0 -57 -17 -115 -50 -172s-73 -109 -119 -154zM220 395c17 0 31 1 42 4c-14 8 -30 12 -47 12
c-29 0 -31 -16 5 -16zM616 572l-349 -558c-5 -12 -13 -16 -23 -13s-12 11 -7 22l351 561c5 9 12 12 21 9s12 -10 7 -21z" />
    <glyph glyph-name="questiondown" unicode="&#xbf;" horiz-adv-x="400" 
d="M322 339c6 29 48 48 64 25c17 -22 -4 -61 -34 -61c-20 0 -34 16 -30 36zM150 -11c-13 -15 -33 7 -20 20c27 27 60 41 98 41c72 0 121 -58 121 -130c0 -45 -19 -84 -56 -119s-83 -52 -139 -52c-60 0 -107 18 -141 55s-51 77 -51 122c0 75 46 133 107 169
c86 52 209 91 236 150c9 17 33 7 22 -17c-19 -40 -80 -75 -141 -104c-88 -40 -195 -95 -193 -198c0 -35 13 -69 40 -100s68 -47 121 -47c49 0 89 15 120 44s46 61 46 96c0 55 -34 101 -93 101c-31 0 -56 -10 -77 -31z" />
    <glyph glyph-name="Agrave" unicode="&#xc0;" horiz-adv-x="1083" 
d="M861 51l84 184h-212c-35 -59 -72 -110 -112 -155c-39 -45 -87 -82 -142 -113s-112 -47 -170 -47c-77 0 -143 25 -197 75c-54 49 -81 112 -81 189c0 71 25 132 75 185s114 79 191 79c131 0 203 -73 203 -170c0 -37 -15 -70 -44 -98c-19 -15 -42 3 -21 21
c23 21 35 47 35 77c0 81 -62 140 -175 140c-69 0 -125 -23 -169 -70c-43 -46 -65 -101 -65 -164c0 -67 25 -123 75 -168c50 -44 108 -66 173 -66c149 0 285 106 408 318c45 87 96 161 167 232c102 104 230 176 383 176c35 0 63 -7 83 -22c10 -7 12 -15 6 -24s-13 -9 -22 -2
c-15 13 -35 19 -62 20c-67 0 -130 -63 -189 -190l-194 -419c-28 -58 -43 -162 33 -162c6 0 13 1 21 3c11 4 16 1 17 -8c0 -11 -6 -18 -17 -22c-9 -2 -17 -3 -24 -3c-103 0 -93 129 -58 204zM1174 638c-169 -36 -311 -161 -426 -376h210l89 189c42 89 84 151 127 187z
M1226 767l-102 98c-17 11 -6 33 15 23l102 -98c9 -6 10 -13 5 -20s-11 -8 -20 -3z" />
    <glyph glyph-name="Aacute" unicode="&#xc1;" horiz-adv-x="1083" 
d="M861 51l84 184h-212c-35 -59 -72 -110 -112 -155c-39 -45 -87 -82 -142 -113s-112 -47 -170 -47c-77 0 -143 25 -197 75c-54 49 -81 112 -81 189c0 71 25 132 75 185s114 79 191 79c131 0 203 -73 203 -170c0 -37 -15 -70 -44 -98c-19 -15 -42 3 -21 21
c23 21 35 47 35 77c0 81 -62 140 -175 140c-69 0 -125 -23 -169 -70c-43 -46 -65 -101 -65 -164c0 -67 25 -123 75 -168c50 -44 108 -66 173 -66c149 0 285 106 408 318c45 87 96 161 167 232c102 104 230 176 383 176c35 0 63 -7 83 -22c10 -7 12 -15 6 -24s-13 -9 -22 -2
c-15 13 -35 19 -62 20c-67 0 -130 -63 -189 -190l-194 -419c-28 -58 -43 -162 33 -162c6 0 13 1 21 3c11 4 16 1 17 -8c0 -11 -6 -18 -17 -22c-9 -2 -17 -3 -24 -3c-103 0 -93 129 -58 204zM1174 638c-169 -36 -311 -161 -426 -376h210l89 189c42 89 84 151 127 187z
M1313 865l-139 -98c-9 -5 -16 -4 -21 3s-3 14 6 20l139 98c21 10 32 -12 15 -23z" />
    <glyph glyph-name="Acircumflex" unicode="&#xc2;" horiz-adv-x="1083" 
d="M861 51l84 184h-212c-35 -59 -72 -110 -112 -155c-39 -45 -87 -82 -142 -113s-112 -47 -170 -47c-77 0 -143 25 -197 75c-54 49 -81 112 -81 189c0 71 25 132 75 185s114 79 191 79c131 0 203 -73 203 -170c0 -37 -15 -70 -44 -98c-19 -15 -42 3 -21 21
c23 21 35 47 35 77c0 81 -62 140 -175 140c-69 0 -125 -23 -169 -70c-43 -46 -65 -101 -65 -164c0 -67 25 -123 75 -168c50 -44 108 -66 173 -66c149 0 285 106 408 318c45 87 96 161 167 232c102 104 230 176 383 176c35 0 63 -7 83 -22c10 -7 12 -15 6 -24s-13 -9 -22 -2
c-15 13 -35 19 -62 20c-67 0 -130 -63 -189 -190l-194 -419c-28 -58 -43 -162 33 -162c6 0 13 1 21 3c11 4 16 1 17 -8c0 -11 -6 -18 -17 -22c-9 -2 -17 -3 -24 -3c-103 0 -93 129 -58 204zM1174 638c-169 -36 -311 -161 -426 -376h210l89 189c42 89 84 151 127 187z
M1285 882l44 -96c9 -15 -13 -28 -23 -16l-38 82l-119 -84c-21 -10 -32 12 -15 23l128 91c12 9 20 9 23 0z" />
    <glyph glyph-name="Atilde" unicode="&#xc3;" horiz-adv-x="1083" 
d="M861 51l84 184h-212c-35 -59 -72 -110 -112 -155c-39 -45 -87 -82 -142 -113s-112 -47 -170 -47c-77 0 -143 25 -197 75c-54 49 -81 112 -81 189c0 71 25 132 75 185s114 79 191 79c131 0 203 -73 203 -170c0 -37 -15 -70 -44 -98c-19 -15 -42 3 -21 21
c23 21 35 47 35 77c0 81 -62 140 -175 140c-69 0 -125 -23 -169 -70c-43 -46 -65 -101 -65 -164c0 -67 25 -123 75 -168c50 -44 108 -66 173 -66c149 0 285 106 408 318c45 87 96 161 167 232c102 104 230 176 383 176c35 0 63 -7 83 -22c10 -7 12 -15 6 -24s-13 -9 -22 -2
c-15 13 -35 19 -62 20c-67 0 -130 -63 -189 -190l-194 -419c-28 -58 -43 -162 33 -162c6 0 13 1 21 3c11 4 16 1 17 -8c0 -11 -6 -18 -17 -22c-9 -2 -17 -3 -24 -3c-103 0 -93 129 -58 204zM1174 638c-169 -36 -311 -161 -426 -376h210l89 189c42 89 84 151 127 187z
M1171 734c-23 -15 -38 6 -16 23c66 47 89 -26 133 0c21 12 32 -11 15 -23c-56 -41 -86 36 -132 0z" />
    <glyph glyph-name="Adieresis" unicode="&#xc4;" horiz-adv-x="1083" 
d="M861 51l84 184h-212c-35 -59 -72 -110 -112 -155c-39 -45 -87 -82 -142 -113s-112 -47 -170 -47c-77 0 -143 25 -197 75c-54 49 -81 112 -81 189c0 71 25 132 75 185s114 79 191 79c131 0 203 -73 203 -170c0 -37 -15 -70 -44 -98c-19 -15 -42 3 -21 21
c23 21 35 47 35 77c0 81 -62 140 -175 140c-69 0 -125 -23 -169 -70c-43 -46 -65 -101 -65 -164c0 -67 25 -123 75 -168c50 -44 108 -66 173 -66c149 0 285 106 408 318c45 87 96 161 167 232c102 104 230 176 383 176c35 0 63 -7 83 -22c10 -7 12 -15 6 -24s-13 -9 -22 -2
c-15 13 -35 19 -62 20c-67 0 -130 -63 -189 -190l-194 -419c-28 -58 -43 -162 33 -162c6 0 13 1 21 3c11 4 16 1 17 -8c0 -11 -6 -18 -17 -22c-9 -2 -17 -3 -24 -3c-103 0 -93 129 -58 204zM1174 638c-169 -36 -311 -161 -426 -376h210l89 189c42 89 84 151 127 187z
M1155 725c-16 0 -25 12 -22 27c2 24 35 37 49 19c15 -17 -4 -46 -27 -46zM1244 725c-16 0 -25 12 -22 27c2 24 35 37 49 19c15 -17 -4 -46 -27 -46z" />
    <glyph glyph-name="Aring" unicode="&#xc5;" horiz-adv-x="1083" 
d="M861 51l84 184h-212c-35 -59 -72 -110 -112 -155c-39 -45 -87 -82 -142 -113s-112 -47 -170 -47c-77 0 -143 25 -197 75c-54 49 -81 112 -81 189c0 71 25 132 75 185s114 79 191 79c131 0 203 -73 203 -170c0 -37 -15 -70 -44 -98c-19 -15 -42 3 -21 21
c23 21 35 47 35 77c0 81 -62 140 -175 140c-69 0 -125 -23 -169 -70c-43 -46 -65 -101 -65 -164c0 -67 25 -123 75 -168c50 -44 108 -66 173 -66c149 0 285 106 408 318c45 87 96 161 167 232c102 104 230 176 383 176c35 0 63 -7 83 -22c10 -7 12 -15 6 -24s-13 -9 -22 -2
c-15 13 -35 19 -62 20c-67 0 -130 -63 -189 -190l-194 -419c-28 -58 -43 -162 33 -162c6 0 13 1 21 3c11 4 16 1 17 -8c0 -11 -6 -18 -17 -22c-9 -2 -17 -3 -24 -3c-103 0 -93 129 -58 204zM1174 638c-169 -36 -311 -161 -426 -376h210l89 189c42 89 84 151 127 187z
M1187 794c0 24 10 46 29 65c20 19 43 29 69 29c36 0 61 -26 61 -62c0 -25 -10 -47 -31 -66c-20 -19 -42 -28 -65 -28c-36 0 -63 27 -63 62zM1279 858c-31 0 -60 -27 -60 -60c0 -21 14 -36 37 -36c29 0 59 26 59 57c0 23 -15 39 -36 39z" />
    <glyph glyph-name="AE" unicode="&#xc6;" horiz-adv-x="255" 
 />
    <glyph glyph-name="Ccedilla" unicode="&#xc7;" horiz-adv-x="718" 
d="M379 -118c-16 0 -33 2 -51 5c-3 -11 -1 -26 7 -44c9 -19 13 -34 13 -45c0 -37 -31 -68 -68 -68c-13 0 -25 3 -36 10c-19 9 -4 39 16 26c7 -4 13 -6 20 -6c21 0 38 17 38 38c0 10 -4 25 -13 44s-10 36 -5 51c-64 18 -115 56 -153 113s-57 122 -57 195c0 79 30 167 86 247
c78 120 220 217 384 217c66 0 118 -16 156 -49c39 -33 58 -70 58 -113c0 -39 -15 -74 -44 -105s-65 -46 -107 -46c-79 0 -113 43 -113 99c0 20 5 36 15 49c13 16 36 2 25 -15c-7 -12 -10 -24 -10 -35c0 -39 27 -69 86 -69c32 0 60 12 83 35c24 24 36 51 36 81
c0 37 -16 70 -49 97c-32 28 -78 42 -138 42c-97 0 -194 -39 -265 -100c-104 -90 -173 -222 -173 -334c0 -79 23 -147 70 -204c47 -58 110 -87 189 -87c65 0 119 21 163 63c45 41 67 87 67 137c0 63 -44 115 -105 115c-55 0 -93 -25 -112 -74c-9 -23 -36 -11 -28 12
c19 49 68 90 140 90c40 0 72 -14 97 -41s38 -59 38 -98c0 -57 -25 -110 -75 -159s-112 -74 -185 -74z" />
    <glyph glyph-name="Egrave" unicode="&#xc8;" horiz-adv-x="700" 
d="M310 -136c-189 0 -260 119 -260 223c0 57 25 112 75 163c50 52 117 86 201 102c5 0 16 -1 19 -1c-49 24 -69 79 -69 130c0 59 27 111 80 154s115 65 186 65c65 0 117 -16 158 -48s61 -69 61 -111c0 -39 -15 -75 -45 -106c-29 -31 -65 -47 -107 -47c-73 0 -114 44 -114 96
c0 24 6 43 17 58c15 17 37 1 25 -17c-9 -11 -13 -25 -13 -41c0 -39 29 -67 85 -67c34 0 63 12 86 36c24 24 36 52 36 83c0 36 -18 68 -53 95s-81 41 -138 41c-62 0 -117 -19 -164 -56s-71 -80 -71 -131c0 -73 34 -122 110 -122h18c13 0 19 -6 19 -17s-6 -16 -18 -16h-36
c-85 0 -160 -25 -224 -74c-63 -49 -95 -105 -95 -168c0 -51 19 -96 57 -135s96 -59 175 -59c59 0 112 21 157 62c46 41 69 86 69 136c0 31 -10 58 -31 81c-20 23 -46 35 -79 35c-63 0 -107 -36 -108 -76c-2 -12 -7 -18 -15 -18c-9 0 -14 6 -14 18c1 27 14 52 39 74
s58 33 98 33c41 0 75 -15 101 -44s39 -63 39 -103c0 -60 -27 -113 -81 -159c-53 -46 -112 -69 -176 -69zM583 767l-102 98c-17 11 -6 33 15 23l102 -98c9 -6 10 -13 5 -20s-11 -8 -20 -3z" />
    <glyph glyph-name="Eacute" unicode="&#xc9;" horiz-adv-x="700" 
d="M310 -136c-189 0 -260 119 -260 223c0 57 25 112 75 163c50 52 117 86 201 102c5 0 16 -1 19 -1c-49 24 -69 79 -69 130c0 59 27 111 80 154s115 65 186 65c65 0 117 -16 158 -48s61 -69 61 -111c0 -39 -15 -75 -45 -106c-29 -31 -65 -47 -107 -47c-73 0 -114 44 -114 96
c0 24 6 43 17 58c15 17 37 1 25 -17c-9 -11 -13 -25 -13 -41c0 -39 29 -67 85 -67c34 0 63 12 86 36c24 24 36 52 36 83c0 36 -18 68 -53 95s-81 41 -138 41c-62 0 -117 -19 -164 -56s-71 -80 -71 -131c0 -73 34 -122 110 -122h18c13 0 19 -6 19 -17s-6 -16 -18 -16h-36
c-85 0 -160 -25 -224 -74c-63 -49 -95 -105 -95 -168c0 -51 19 -96 57 -135s96 -59 175 -59c59 0 112 21 157 62c46 41 69 86 69 136c0 31 -10 58 -31 81c-20 23 -46 35 -79 35c-63 0 -107 -36 -108 -76c-2 -12 -7 -18 -15 -18c-9 0 -14 6 -14 18c1 27 14 52 39 74
s58 33 98 33c41 0 75 -15 101 -44s39 -63 39 -103c0 -60 -27 -113 -81 -159c-53 -46 -112 -69 -176 -69zM705 865l-139 -98c-9 -5 -16 -4 -21 3s-3 14 6 20l139 98c21 10 32 -12 15 -23z" />
    <glyph glyph-name="Ecircumflex" unicode="&#xca;" horiz-adv-x="700" 
d="M310 -136c-189 0 -260 119 -260 223c0 57 25 112 75 163c50 52 117 86 201 102c5 0 16 -1 19 -1c-49 24 -69 79 -69 130c0 59 27 111 80 154s115 65 186 65c65 0 117 -16 158 -48s61 -69 61 -111c0 -39 -15 -75 -45 -106c-29 -31 -65 -47 -107 -47c-73 0 -114 44 -114 96
c0 24 6 43 17 58c15 17 37 1 25 -17c-9 -11 -13 -25 -13 -41c0 -39 29 -67 85 -67c34 0 63 12 86 36c24 24 36 52 36 83c0 36 -18 68 -53 95s-81 41 -138 41c-62 0 -117 -19 -164 -56s-71 -80 -71 -131c0 -73 34 -122 110 -122h18c13 0 19 -6 19 -17s-6 -16 -18 -16h-36
c-85 0 -160 -25 -224 -74c-63 -49 -95 -105 -95 -168c0 -51 19 -96 57 -135s96 -59 175 -59c59 0 112 21 157 62c46 41 69 86 69 136c0 31 -10 58 -31 81c-20 23 -46 35 -79 35c-63 0 -107 -36 -108 -76c-2 -12 -7 -18 -15 -18c-9 0 -14 6 -14 18c1 27 14 52 39 74
s58 33 98 33c41 0 75 -15 101 -44s39 -63 39 -103c0 -60 -27 -113 -81 -159c-53 -46 -112 -69 -176 -69zM645 882l44 -96c9 -15 -13 -28 -23 -16l-38 82l-119 -84c-21 -10 -32 12 -15 23l128 91c12 9 20 9 23 0z" />
    <glyph glyph-name="Edieresis" unicode="&#xcb;" horiz-adv-x="700" 
d="M310 -136c-189 0 -260 119 -260 223c0 57 25 112 75 163c50 52 117 86 201 102c5 0 16 -1 19 -1c-49 24 -69 79 -69 130c0 59 27 111 80 154s115 65 186 65c65 0 117 -16 158 -48s61 -69 61 -111c0 -39 -15 -75 -45 -106c-29 -31 -65 -47 -107 -47c-73 0 -114 44 -114 96
c0 24 6 43 17 58c15 17 37 1 25 -17c-9 -11 -13 -25 -13 -41c0 -39 29 -67 85 -67c34 0 63 12 86 36c24 24 36 52 36 83c0 36 -18 68 -53 95s-81 41 -138 41c-62 0 -117 -19 -164 -56s-71 -80 -71 -131c0 -73 34 -122 110 -122h18c13 0 19 -6 19 -17s-6 -16 -18 -16h-36
c-85 0 -160 -25 -224 -74c-63 -49 -95 -105 -95 -168c0 -51 19 -96 57 -135s96 -59 175 -59c59 0 112 21 157 62c46 41 69 86 69 136c0 31 -10 58 -31 81c-20 23 -46 35 -79 35c-63 0 -107 -36 -108 -76c-2 -12 -7 -18 -15 -18c-9 0 -14 6 -14 18c1 27 14 52 39 74
s58 33 98 33c41 0 75 -15 101 -44s39 -63 39 -103c0 -60 -27 -113 -81 -159c-53 -46 -112 -69 -176 -69zM541 727c-16 0 -25 12 -22 27c2 24 35 37 49 19c15 -17 -4 -46 -27 -46zM630 727c-16 0 -25 12 -22 27c2 24 35 37 49 19c15 -17 -4 -46 -27 -46z" />
    <glyph glyph-name="Igrave" unicode="&#xcc;" horiz-adv-x="580" 
d="M578 670c45 0 86 -7 124 -20c18 -6 27 -14 27 -25c0 -7 -3 -14 -8 -19c-41 -39 -75 -81 -104 -125c-29 -43 -60 -102 -95 -177c-15 -31 -26 -55 -35 -72c-8 -17 -20 -40 -37 -70c-17 -29 -31 -53 -44 -70s-29 -36 -49 -58s-40 -39 -59 -50c-39 -24 -91 -44 -146 -44
c-67 0 -126 28 -139 71c-6 21 20 35 28 12c11 -31 55 -53 111 -53c64 0 124 29 165 65c21 19 42 42 63 71c41 59 62 101 93 165v-1l40 87c23 50 53 101 89 153s67 89 94 111l-13 4c-31 9 -66 14 -105 14c-68 0 -125 -23 -170 -70s-67 -105 -67 -174c0 -23 3 -44 9 -64
c5 -16 0 -28 -12 -28c-7 0 -12 5 -17 16c-8 25 -12 50 -12 77c0 76 26 141 78 194s116 80 191 80zM733 767l-102 98c-17 11 -6 33 15 23l102 -98c9 -6 10 -13 5 -20s-11 -8 -20 -3z" />
    <glyph glyph-name="Iacute" unicode="&#xcd;" horiz-adv-x="580" 
d="M578 670c45 0 86 -7 124 -20c18 -6 27 -14 27 -25c0 -7 -3 -14 -8 -19c-41 -39 -75 -81 -104 -125c-29 -43 -60 -102 -95 -177c-15 -31 -26 -55 -35 -72c-8 -17 -20 -40 -37 -70c-17 -29 -31 -53 -44 -70s-29 -36 -49 -58s-40 -39 -59 -50c-39 -24 -91 -44 -146 -44
c-67 0 -126 28 -139 71c-6 21 20 35 28 12c11 -31 55 -53 111 -53c64 0 124 29 165 65c21 19 42 42 63 71c41 59 62 101 93 165v-1l40 87c23 50 53 101 89 153s67 89 94 111l-13 4c-31 9 -66 14 -105 14c-68 0 -125 -23 -170 -70s-67 -105 -67 -174c0 -23 3 -44 9 -64
c5 -16 0 -28 -12 -28c-7 0 -12 5 -17 16c-8 25 -12 50 -12 77c0 76 26 141 78 194s116 80 191 80zM864 865l-139 -98c-9 -5 -16 -4 -21 3s-3 14 6 20l139 98c21 10 32 -12 15 -23z" />
    <glyph glyph-name="Icircumflex" unicode="&#xce;" horiz-adv-x="580" 
d="M578 670c45 0 86 -7 124 -20c18 -6 27 -14 27 -25c0 -7 -3 -14 -8 -19c-41 -39 -75 -81 -104 -125c-29 -43 -60 -102 -95 -177c-15 -31 -26 -55 -35 -72c-8 -17 -20 -40 -37 -70c-17 -29 -31 -53 -44 -70s-29 -36 -49 -58s-40 -39 -59 -50c-39 -24 -91 -44 -146 -44
c-67 0 -126 28 -139 71c-6 21 20 35 28 12c11 -31 55 -53 111 -53c64 0 124 29 165 65c21 19 42 42 63 71c41 59 62 101 93 165v-1l40 87c23 50 53 101 89 153s67 89 94 111l-13 4c-31 9 -66 14 -105 14c-68 0 -125 -23 -170 -70s-67 -105 -67 -174c0 -23 3 -44 9 -64
c5 -16 0 -28 -12 -28c-7 0 -12 5 -17 16c-8 25 -12 50 -12 77c0 76 26 141 78 194s116 80 191 80zM775 882l44 -96c9 -15 -13 -28 -23 -16l-38 82l-119 -84c-21 -10 -32 12 -15 23l128 91c12 9 20 9 23 0z" />
    <glyph glyph-name="Idieresis" unicode="&#xcf;" horiz-adv-x="580" 
d="M578 670c45 0 86 -7 124 -20c18 -6 27 -14 27 -25c0 -7 -3 -14 -8 -19c-41 -39 -75 -81 -104 -125c-29 -43 -60 -102 -95 -177c-15 -31 -26 -55 -35 -72c-8 -17 -20 -40 -37 -70c-17 -29 -31 -53 -44 -70s-29 -36 -49 -58s-40 -39 -59 -50c-39 -24 -91 -44 -146 -44
c-67 0 -126 28 -139 71c-6 21 20 35 28 12c11 -31 55 -53 111 -53c64 0 124 29 165 65c21 19 42 42 63 71c41 59 62 101 93 165v-1l40 87c23 50 53 101 89 153s67 89 94 111l-13 4c-31 9 -66 14 -105 14c-68 0 -125 -23 -170 -70s-67 -105 -67 -174c0 -23 3 -44 9 -64
c5 -16 0 -28 -12 -28c-7 0 -12 5 -17 16c-8 25 -12 50 -12 77c0 76 26 141 78 194s116 80 191 80zM628 725c-16 0 -25 12 -22 27c2 24 35 37 49 19c15 -17 -4 -46 -27 -46zM717 725c-16 0 -25 12 -22 27c2 24 35 37 49 19c15 -17 -4 -46 -27 -46z" />
    <glyph glyph-name="Eth" unicode="&#xd0;" horiz-adv-x="974" 
d="M515 688c55 0 106 -6 153 -19c32 30 64 45 96 45c5 0 20 -4 45 -11c7 -5 8 -12 3 -20s-11 -9 -20 -3c-7 1 -22 5 -31 6c-21 -1 -42 -9 -63 -26c80 -26 141 -68 184 -126c43 -57 64 -121 64 -190c-1 -220 -188 -424 -450 -423c-22 0 -47 3 -74 10s-48 13 -64 19
s-41 16 -74 30c-45 -27 -98 -41 -161 -42c-23 0 -46 4 -75 13c-29 8 -49 28 -49 55c0 31 38 55 86 55c45 0 110 -16 193 -49c33 23 61 52 84 89s49 87 78 150l9 21h-70c-10 0 -15 5 -15 14s5 14 15 14h83l60 133c43 96 84 166 123 211c-41 9 -84 14 -130 14
c-307 1 -449 -208 -448 -353c0 -83 40 -153 116 -182c11 -3 15 -8 12 -14c-1 -9 -7 -14 -17 -14c-1 0 -4 1 -9 2c-85 32 -133 113 -133 209c0 65 24 135 76 202c74 99 212 179 403 180zM914 344c0 65 -21 125 -62 178s-100 92 -178 115c-35 -39 -76 -110 -123 -215l-56 -122
h63c22 0 22 -28 0 -28h-76l-13 -28c-57 -125 -97 -196 -158 -245c81 -32 142 -48 185 -48c119 0 218 39 298 117s120 170 120 276zM123 -32c48 0 89 9 124 26c-70 27 -125 40 -164 40c-33 0 -55 -13 -55 -28c0 -25 32 -38 95 -38z" />
    <glyph glyph-name="Ntilde" unicode="&#xd1;" horiz-adv-x="618" 
d="M553 604c60 0 99 -40 99 -85c0 -20 -4 -37 -11 -52l-198 -430v1c-15 -34 -22 -65 -22 -94c0 -45 18 -68 55 -68c1 0 8 1 23 4c11 3 18 -1 19 -11s-4 -16 -16 -19s-22 -4 -29 -4c-57 0 -83 40 -83 97c0 37 8 73 25 108l190 409c9 19 13 37 13 54c0 33 -24 58 -67 58
c-69 0 -149 -66 -200 -178l-174 -383c-6 -11 -14 -17 -23 -17c-12 0 -15 7 -9 22l194 423c14 31 21 66 21 104c0 45 -18 83 -54 112c-35 29 -76 44 -122 44c-45 0 -85 -15 -121 -44c-35 -29 -53 -65 -53 -110c0 -69 49 -125 121 -125c41 0 69 16 83 47c5 10 10 15 16 15
c11 0 18 -12 15 -23c-17 -44 -63 -68 -114 -68c-42 0 -78 15 -107 45s-44 66 -44 109c0 50 20 93 61 129c41 37 89 55 143 55s102 -17 143 -52c42 -35 63 -79 63 -134c0 -15 0 -26 -1 -34c45 53 111 95 164 95zM515 734c-23 -15 -38 6 -16 23c66 47 89 -26 133 0
c21 12 32 -11 15 -23c-56 -41 -86 36 -132 0z" />
    <glyph glyph-name="Ograve" unicode="&#xd2;" horiz-adv-x="833" 
d="M116 306c23 101 77 187 160 258c83 72 172 108 265 108c80 0 145 -27 195 -80s75 -120 75 -202c0 -27 -3 -57 -10 -89c-23 -101 -77 -187 -160 -258s-172 -107 -265 -107c-80 0 -145 26 -196 79c-50 53 -75 121 -75 203c0 28 4 57 11 88zM145 301c-7 -33 -10 -61 -10 -83
c0 -73 22 -134 66 -181c45 -47 103 -71 175 -71c85 0 167 33 244 100s128 147 151 240c7 29 10 57 10 84c0 73 -22 134 -66 181s-102 71 -174 71c-87 0 -170 -33 -247 -100s-127 -147 -149 -241zM600 767l-102 98c-17 11 -6 33 15 23l102 -98c9 -6 10 -13 5 -20
s-11 -8 -20 -3z" />
    <glyph glyph-name="Oacute" unicode="&#xd3;" horiz-adv-x="833" 
d="M116 306c23 101 77 187 160 258c83 72 172 108 265 108c80 0 145 -27 195 -80s75 -120 75 -202c0 -27 -3 -57 -10 -89c-23 -101 -77 -187 -160 -258s-172 -107 -265 -107c-80 0 -145 26 -196 79c-50 53 -75 121 -75 203c0 28 4 57 11 88zM145 301c-7 -33 -10 -61 -10 -83
c0 -73 22 -134 66 -181c45 -47 103 -71 175 -71c85 0 167 33 244 100s128 147 151 240c7 29 10 57 10 84c0 73 -22 134 -66 181s-102 71 -174 71c-87 0 -170 -33 -247 -100s-127 -147 -149 -241zM732 865l-139 -98c-9 -5 -16 -4 -21 3s-3 14 6 20l139 98
c21 10 32 -12 15 -23z" />
    <glyph glyph-name="Ocircumflex" unicode="&#xd4;" horiz-adv-x="833" 
d="M116 306c23 101 77 187 160 258c83 72 172 108 265 108c80 0 145 -27 195 -80s75 -120 75 -202c0 -27 -3 -57 -10 -89c-23 -101 -77 -187 -160 -258s-172 -107 -265 -107c-80 0 -145 26 -196 79c-50 53 -75 121 -75 203c0 28 4 57 11 88zM145 301c-7 -33 -10 -61 -10 -83
c0 -73 22 -134 66 -181c45 -47 103 -71 175 -71c85 0 167 33 244 100s128 147 151 240c7 29 10 57 10 84c0 73 -22 134 -66 181s-102 71 -174 71c-87 0 -170 -33 -247 -100s-127 -147 -149 -241zM672 882l44 -96c9 -15 -13 -28 -23 -16l-38 82l-119 -84
c-21 -10 -32 12 -15 23l128 91c12 9 20 9 23 0z" />
    <glyph glyph-name="Otilde" unicode="&#xd5;" horiz-adv-x="833" 
d="M116 306c23 101 77 187 160 258c83 72 172 108 265 108c80 0 145 -27 195 -80s75 -120 75 -202c0 -27 -3 -57 -10 -89c-23 -101 -77 -187 -160 -258s-172 -107 -265 -107c-80 0 -145 26 -196 79c-50 53 -75 121 -75 203c0 28 4 57 11 88zM145 301c-7 -33 -10 -61 -10 -83
c0 -73 22 -134 66 -181c45 -47 103 -71 175 -71c85 0 167 33 244 100s128 147 151 240c7 29 10 57 10 84c0 73 -22 134 -66 181s-102 71 -174 71c-87 0 -170 -33 -247 -100s-127 -147 -149 -241zM547 734c-23 -15 -38 6 -16 23c66 47 89 -26 133 0c21 12 32 -11 15 -23
c-56 -41 -86 36 -132 0z" />
    <glyph glyph-name="Odieresis" unicode="&#xd6;" horiz-adv-x="833" 
d="M116 306c23 101 77 187 160 258c83 72 172 108 265 108c80 0 145 -27 195 -80s75 -120 75 -202c0 -27 -3 -57 -10 -89c-23 -101 -77 -187 -160 -258s-172 -107 -265 -107c-80 0 -145 26 -196 79c-50 53 -75 121 -75 203c0 28 4 57 11 88zM145 301c-7 -33 -10 -61 -10 -83
c0 -73 22 -134 66 -181c45 -47 103 -71 175 -71c85 0 167 33 244 100s128 147 151 240c7 29 10 57 10 84c0 73 -22 134 -66 181s-102 71 -174 71c-87 0 -170 -33 -247 -100s-127 -147 -149 -241zM552 725c-16 0 -25 12 -22 27c2 24 35 37 49 19c15 -17 -4 -46 -27 -46z
M641 725c-16 0 -25 12 -22 27c2 24 35 37 49 19c15 -17 -4 -46 -27 -46z" />
    <glyph glyph-name="multiply" unicode="&#xd7;" horiz-adv-x="677" 
d="M341 381c29 0 73 -17 132 -51c51 -31 90 -46 116 -46c31 0 53 10 68 31c5 5 10 7 16 6c9 -3 14 -12 6 -24c-21 -27 -51 -41 -90 -41c-31 0 -66 12 -107 35c-25 15 -65 -16 -97 -63c7 2 15 3 26 3c53 0 89 -35 89 -86c0 -49 -26 -90 -77 -124c-51 -33 -110 -50 -177 -50
c-27 0 -51 3 -74 10c-15 4 -20 12 -16 23c3 10 11 13 22 8h1c2 -1 5 -2 10 -3c9 -3 15 36 15 56c0 15 -2 33 -7 55c-5 28 -8 49 -8 63c0 48 39 86 88 86c33 0 53 -13 59 -40c6 -21 -18 -30 -26 -13c-7 15 -18 23 -33 23c-33 0 -58 -24 -58 -56c0 -11 2 -30 6 -57
s6 -47 6 -62c0 -19 -2 -36 -7 -53l-2 -7c0 -3 14 -3 19 -3c62 0 116 14 161 41s68 62 68 103c0 17 -6 31 -17 41c-21 21 -66 21 -89 2c-11 -9 -20 -10 -25 -2c-5 7 -3 18 5 32c35 55 65 87 90 96c5 4 3 6 -6 10c-36 19 -65 29 -87 29c-35 0 -63 -11 -84 -33
c-17 -16 -35 2 -20 18c29 29 63 43 104 43z" />
    <glyph glyph-name="Oslash" unicode="&#xd8;" horiz-adv-x="833" 
d="M116 306c23 101 77 187 160 258c83 72 172 108 265 108c35 0 70 -6 104 -19l29 46c5 9 12 12 21 9s12 -10 7 -21l-29 -47c87 -47 138 -138 138 -250c0 -27 -3 -57 -10 -89c-23 -101 -77 -187 -160 -258s-172 -107 -265 -107c-45 0 -87 9 -126 28l-13 -22
c-5 -12 -13 -16 -23 -13s-12 11 -7 22l17 28c-75 49 -119 136 -119 239c0 28 4 57 11 88zM781 390c0 100 -47 184 -124 225l-391 -625c34 -16 71 -24 110 -24c85 0 167 33 244 100s128 147 151 240c7 29 10 57 10 84zM145 301c-7 -33 -10 -61 -10 -83
c0 -92 38 -170 105 -214l389 623c-30 10 -59 15 -88 15c-87 0 -170 -33 -247 -100s-127 -147 -149 -241z" />
    <glyph glyph-name="Ugrave" unicode="&#xd9;" horiz-adv-x="743" 
d="M683 -254c-68 0 -114 36 -134 95s-25 120 -20 193c-65 -59 -125 -89 -182 -89c-130 0 -144 122 -100 216l117 254c41 87 38 193 -66 240c-45 23 -92 27 -142 12s-85 -45 -106 -91c-15 -34 -17 -68 -6 -101s31 -57 60 -71c44 -19 118 -17 139 38c9 28 35 10 29 -9
c-7 -22 -22 -39 -44 -52c-43 -24 -91 -19 -135 -2c-37 17 -62 45 -76 85c-14 41 -12 82 5 123c24 52 64 87 121 105c57 19 112 15 167 -10c104 -48 137 -153 80 -278l-117 -255c-33 -70 -35 -175 74 -175c57 0 119 34 186 102c7 57 15 100 23 129c23 92 51 171 84 236
s63 98 89 98c25 0 44 -26 44 -57c-3 -59 -25 -128 -66 -209s-90 -151 -148 -211c-12 -129 5 -286 125 -286c39 0 69 11 89 34c21 23 31 47 32 73c1 16 -1 27 -8 32c-16 14 7 34 23 22c11 -11 16 -29 15 -54c-1 -33 -15 -64 -41 -93c-25 -29 -62 -44 -111 -44zM584 200
c-8 -24 -14 -54 -19 -90c49 57 91 122 125 193c35 72 53 133 54 183c1 15 -8 24 -17 24c-17 0 -39 -30 -65 -89s-52 -133 -78 -221zM662 767l-102 98c-17 11 -6 33 15 23l102 -98c9 -6 10 -13 5 -20s-11 -8 -20 -3z" />
    <glyph glyph-name="Uacute" unicode="&#xda;" horiz-adv-x="743" 
d="M683 -254c-68 0 -114 36 -134 95s-25 120 -20 193c-65 -59 -125 -89 -182 -89c-130 0 -144 122 -100 216l117 254c41 87 38 193 -66 240c-45 23 -92 27 -142 12s-85 -45 -106 -91c-15 -34 -17 -68 -6 -101s31 -57 60 -71c44 -19 118 -17 139 38c9 28 35 10 29 -9
c-7 -22 -22 -39 -44 -52c-43 -24 -91 -19 -135 -2c-37 17 -62 45 -76 85c-14 41 -12 82 5 123c24 52 64 87 121 105c57 19 112 15 167 -10c104 -48 137 -153 80 -278l-117 -255c-33 -70 -35 -175 74 -175c57 0 119 34 186 102c7 57 15 100 23 129c23 92 51 171 84 236
s63 98 89 98c25 0 44 -26 44 -57c-3 -59 -25 -128 -66 -209s-90 -151 -148 -211c-12 -129 5 -286 125 -286c39 0 69 11 89 34c21 23 31 47 32 73c1 16 -1 27 -8 32c-16 14 7 34 23 22c11 -11 16 -29 15 -54c-1 -33 -15 -64 -41 -93c-25 -29 -62 -44 -111 -44zM584 200
c-8 -24 -14 -54 -19 -90c49 57 91 122 125 193c35 72 53 133 54 183c1 15 -8 24 -17 24c-17 0 -39 -30 -65 -89s-52 -133 -78 -221zM781 865l-139 -98c-9 -5 -16 -4 -21 3s-3 14 6 20l139 98c21 10 32 -12 15 -23z" />
    <glyph glyph-name="Ucircumflex" unicode="&#xdb;" horiz-adv-x="743" 
d="M683 -254c-68 0 -114 36 -134 95s-25 120 -20 193c-65 -59 -125 -89 -182 -89c-130 0 -144 122 -100 216l117 254c41 87 38 193 -66 240c-45 23 -92 27 -142 12s-85 -45 -106 -91c-15 -34 -17 -68 -6 -101s31 -57 60 -71c44 -19 118 -17 139 38c9 28 35 10 29 -9
c-7 -22 -22 -39 -44 -52c-43 -24 -91 -19 -135 -2c-37 17 -62 45 -76 85c-14 41 -12 82 5 123c24 52 64 87 121 105c57 19 112 15 167 -10c104 -48 137 -153 80 -278l-117 -255c-33 -70 -35 -175 74 -175c57 0 119 34 186 102c7 57 15 100 23 129c23 92 51 171 84 236
s63 98 89 98c25 0 44 -26 44 -57c-3 -59 -25 -128 -66 -209s-90 -151 -148 -211c-12 -129 5 -286 125 -286c39 0 69 11 89 34c21 23 31 47 32 73c1 16 -1 27 -8 32c-16 14 7 34 23 22c11 -11 16 -29 15 -54c-1 -33 -15 -64 -41 -93c-25 -29 -62 -44 -111 -44zM584 200
c-8 -24 -14 -54 -19 -90c49 57 91 122 125 193c35 72 53 133 54 183c1 15 -8 24 -17 24c-17 0 -39 -30 -65 -89s-52 -133 -78 -221zM707 882l44 -96c9 -15 -13 -28 -23 -16l-38 82l-119 -84c-21 -10 -32 12 -15 23l128 91c12 9 20 9 23 0z" />
    <glyph glyph-name="Udieresis" unicode="&#xdc;" horiz-adv-x="743" 
d="M683 -254c-68 0 -114 36 -134 95s-25 120 -20 193c-65 -59 -125 -89 -182 -89c-130 0 -144 122 -100 216l117 254c41 87 38 193 -66 240c-45 23 -92 27 -142 12s-85 -45 -106 -91c-15 -34 -17 -68 -6 -101s31 -57 60 -71c44 -19 118 -17 139 38c9 28 35 10 29 -9
c-7 -22 -22 -39 -44 -52c-43 -24 -91 -19 -135 -2c-37 17 -62 45 -76 85c-14 41 -12 82 5 123c24 52 64 87 121 105c57 19 112 15 167 -10c104 -48 137 -153 80 -278l-117 -255c-33 -70 -35 -175 74 -175c57 0 119 34 186 102c7 57 15 100 23 129c23 92 51 171 84 236
s63 98 89 98c25 0 44 -26 44 -57c-3 -59 -25 -128 -66 -209s-90 -151 -148 -211c-12 -129 5 -286 125 -286c39 0 69 11 89 34c21 23 31 47 32 73c1 16 -1 27 -8 32c-16 14 7 34 23 22c11 -11 16 -29 15 -54c-1 -33 -15 -64 -41 -93c-25 -29 -62 -44 -111 -44zM584 200
c-8 -24 -14 -54 -19 -90c49 57 91 122 125 193c35 72 53 133 54 183c1 15 -8 24 -17 24c-17 0 -39 -30 -65 -89s-52 -133 -78 -221zM602 725c-16 0 -25 12 -22 27c2 24 35 37 49 19c15 -17 -4 -46 -27 -46zM691 725c-16 0 -25 12 -22 27c2 24 35 37 49 19
c15 -17 -4 -46 -27 -46z" />
    <glyph glyph-name="Yacute" unicode="&#xdd;" horiz-adv-x="719" 
d="M397 2c-129 0 -144 122 -100 216l90 197c42 88 36 193 -66 240c-44 23 -91 27 -141 12s-85 -45 -106 -91c-16 -33 -18 -67 -7 -101c11 -33 31 -57 60 -71c43 -19 119 -18 140 38c6 28 34 10 28 -9c-11 -33 -36 -54 -75 -64c-39 -9 -74 -6 -104 10c-36 17 -61 45 -76 85
c-14 41 -12 82 5 123c24 53 64 88 121 106s113 14 167 -11c105 -48 139 -152 80 -277l-91 -199c-30 -70 -35 -175 75 -175c61 0 113 22 149 61s55 68 76 112l11 24l132 287c5 13 13 17 23 13c9 -3 11 -10 7 -20l-253 -549c-61 -133 -137 -199 -230 -198
c-79 0 -118 41 -118 96c-1 23 8 45 26 66s42 31 71 32c9 1 14 -3 15 -12s-4 -14 -13 -14h-4c-40 -4 -65 -40 -65 -72c-1 -39 29 -69 89 -68c73 -1 147 62 196 170l53 115c-49 -48 -104 -72 -165 -72zM806 865l-139 -98c-9 -5 -16 -4 -21 3s-3 14 6 20l139 98
c21 10 32 -12 15 -23z" />
    <glyph glyph-name="Thorn" unicode="&#xde;" horiz-adv-x="923" 
d="M578 670c45 0 86 -7 124 -20c18 -6 27 -14 27 -25c0 -7 -3 -14 -8 -19c-41 -39 -75 -81 -104 -125c-29 -43 -60 -102 -95 -177v1l-11 -23c65 69 128 106 191 110c55 4 98 -10 128 -43c31 -32 46 -70 46 -114c0 -63 -29 -120 -87 -173c-57 -52 -125 -78 -204 -78
c-63 0 -118 14 -166 42c-17 11 -3 38 18 28c44 -26 92 -39 145 -39c71 0 133 23 184 68s77 96 77 152c0 76 -50 132 -141 127c-89 -6 -175 -79 -258 -220c-17 -35 -32 -65 -47 -91c-14 -25 -32 -53 -55 -83c-22 -30 -44 -54 -67 -73c-44 -39 -109 -67 -177 -67
c-67 0 -126 28 -139 71c-6 22 19 36 28 12c11 -31 55 -53 111 -53c64 0 124 29 165 66c21 18 42 42 63 71s37 55 50 79c13 25 28 53 43 85l94 199c22 49 51 99 88 151c37 53 68 90 95 112c-35 12 -74 18 -118 18c-68 0 -125 -23 -170 -70s-67 -105 -67 -174
c0 -23 3 -44 10 -65l-1 1c7 -15 -2 -28 -14 -28c-7 0 -12 5 -17 15c-8 25 -12 50 -12 77c0 76 26 141 79 194c53 54 117 81 192 81z" />
    <glyph glyph-name="germandbls" unicode="&#xdf;" horiz-adv-x="328" 
d="M191 461l-162 -357c-11 -25 -27 -48 -48 -71c-21 -22 -46 -33 -74 -33c-22 0 -20 28 0 28c35 0 66 29 93 87l155 339c63 137 140 205 232 205c80 0 119 -42 119 -97c0 -52 -37 -89 -89 -109c-71 -28 -174 -53 -199 -113c-9 -20 -4 -52 14 -96c19 -43 27 -73 26 -89
c-3 -41 -20 -78 -51 -110c-30 -31 -65 -47 -106 -47c-15 0 -30 3 -44 8c-13 6 -25 14 -35 25c-11 13 6 32 23 20c8 -9 18 -15 30 -19c8 -3 18 -4 29 -4c33 0 61 12 84 36c24 25 37 55 40 90c1 17 -7 47 -25 92s-22 80 -13 106c13 37 64 67 117 86c78 29 169 60 169 124
c0 39 -29 69 -89 69c-75 0 -149 -62 -196 -170zM235 0c-7 0 -11 5 -11 14s4 14 11 14c35 0 66 28 92 84c0 1 1 2 1 3c8 16 32 6 25 -11c-9 -24 -25 -47 -46 -70s-45 -34 -72 -34z" />
    <glyph glyph-name="agrave" unicode="&#xe0;" 
d="M214 0c-40 0 -63 15 -70 46c-24 -31 -51 -46 -81 -46c-47 0 -76 23 -76 64c0 16 4 33 13 51l74 158c31 68 70 102 119 102c33 0 54 -12 65 -36l10 21c8 19 36 9 28 -12l-112 -245c-7 -17 -11 -30 -11 -40c0 -23 14 -35 41 -35c35 0 66 28 92 84c0 1 1 2 1 3
c8 16 32 6 25 -11c-9 -24 -25 -47 -46 -70s-45 -34 -72 -34zM63 28c34 0 63 26 88 77l77 167c7 17 11 30 11 39c0 24 -15 36 -46 36c-35 0 -66 -30 -93 -90l-72 -154c-7 -16 -11 -29 -11 -39c0 -24 15 -36 46 -36zM280 474l-102 98c-17 11 -6 33 15 23l102 -98
c9 -6 10 -13 5 -20s-11 -8 -20 -3z" />
    <glyph glyph-name="aacute" unicode="&#xe1;" 
d="M214 0c-40 0 -63 15 -70 46c-24 -31 -51 -46 -81 -46c-47 0 -76 23 -76 64c0 16 4 33 13 51l74 158c31 68 70 102 119 102c33 0 54 -12 65 -36l10 21c8 19 36 9 28 -12l-112 -245c-7 -17 -11 -30 -11 -40c0 -23 14 -35 41 -35c35 0 66 28 92 84c0 1 1 2 1 3
c8 16 32 6 25 -11c-9 -24 -25 -47 -46 -70s-45 -34 -72 -34zM63 28c34 0 63 26 88 77l77 167c7 17 11 30 11 39c0 24 -15 36 -46 36c-35 0 -66 -30 -93 -90l-72 -154c-7 -16 -11 -29 -11 -39c0 -24 15 -36 46 -36zM344 572l-139 -98c-9 -5 -16 -4 -21 3s-3 14 6 20l139 98
c21 10 32 -12 15 -23z" />
    <glyph glyph-name="acircumflex" unicode="&#xe2;" 
d="M214 0c-40 0 -63 15 -70 46c-24 -31 -51 -46 -81 -46c-47 0 -76 23 -76 64c0 16 4 33 13 51l74 158c31 68 70 102 119 102c33 0 54 -12 65 -36l10 21c8 19 36 9 28 -12l-112 -245c-7 -17 -11 -30 -11 -40c0 -23 14 -35 41 -35c35 0 66 28 92 84c0 1 1 2 1 3
c8 16 32 6 25 -11c-9 -24 -25 -47 -46 -70s-45 -34 -72 -34zM63 28c34 0 63 26 88 77l77 167c7 17 11 30 11 39c0 24 -15 36 -46 36c-35 0 -66 -30 -93 -90l-72 -154c-7 -16 -11 -29 -11 -39c0 -24 15 -36 46 -36zM310 589l44 -96c9 -15 -13 -28 -23 -16l-38 82l-119 -84
c-21 -10 -32 12 -15 23l128 91c12 9 20 9 23 0z" />
    <glyph glyph-name="atilde" unicode="&#xe3;" 
d="M214 0c-40 0 -63 15 -70 46c-24 -31 -51 -46 -81 -46c-47 0 -76 23 -76 64c0 16 4 33 13 51l74 158c31 68 70 102 119 102c33 0 54 -12 65 -36l10 21c8 19 36 9 28 -12l-112 -245c-7 -17 -11 -30 -11 -40c0 -23 14 -35 41 -35c35 0 66 28 92 84c0 1 1 2 1 3
c8 16 32 6 25 -11c-9 -24 -25 -47 -46 -70s-45 -34 -72 -34zM63 28c34 0 63 26 88 77l77 167c7 17 11 30 11 39c0 24 -15 36 -46 36c-35 0 -66 -30 -93 -90l-72 -154c-7 -16 -11 -29 -11 -39c0 -24 15 -36 46 -36zM192 441c-23 -15 -38 6 -16 23c66 47 89 -26 133 0
c21 12 32 -11 15 -23c-56 -41 -86 36 -132 0z" />
    <glyph glyph-name="adieresis" unicode="&#xe4;" 
d="M214 0c-40 0 -63 15 -70 46c-24 -31 -51 -46 -81 -46c-47 0 -76 23 -76 64c0 16 4 33 13 51l74 158c31 68 70 102 119 102c33 0 54 -12 65 -36l10 21c8 19 36 9 28 -12l-112 -245c-7 -17 -11 -30 -11 -40c0 -23 14 -35 41 -35c35 0 66 28 92 84c0 1 1 2 1 3
c8 16 32 6 25 -11c-9 -24 -25 -47 -46 -70s-45 -34 -72 -34zM63 28c34 0 63 26 88 77l77 167c7 17 11 30 11 39c0 24 -15 36 -46 36c-35 0 -66 -30 -93 -90l-72 -154c-7 -16 -11 -29 -11 -39c0 -24 15 -36 46 -36zM196 432c-16 0 -25 12 -22 27c2 24 35 37 49 19
c15 -17 -4 -46 -27 -46zM285 432c-16 0 -25 12 -22 27c2 24 35 37 49 19c15 -17 -4 -46 -27 -46z" />
    <glyph glyph-name="aring" unicode="&#xe5;" 
d="M214 0c-40 0 -63 15 -70 46c-24 -31 -51 -46 -81 -46c-47 0 -76 23 -76 64c0 16 4 33 13 51l74 158c31 68 70 102 119 102c33 0 54 -12 65 -36l10 21c8 19 36 9 28 -12l-112 -245c-7 -17 -11 -30 -11 -40c0 -23 14 -35 41 -35c35 0 66 28 92 84c0 1 1 2 1 3
c8 16 32 6 25 -11c-9 -24 -25 -47 -46 -70s-45 -34 -72 -34zM63 28c34 0 63 26 88 77l77 167c7 17 11 30 11 39c0 24 -15 36 -46 36c-35 0 -66 -30 -93 -90l-72 -154c-7 -16 -11 -29 -11 -39c0 -24 15 -36 46 -36zM200 501c0 24 10 46 29 65c20 19 43 29 69 29
c36 0 61 -26 61 -62c0 -25 -10 -47 -31 -66c-20 -19 -42 -28 -65 -28c-36 0 -63 27 -63 62zM292 565c-31 0 -60 -27 -60 -60c0 -21 14 -36 37 -36c29 0 59 26 59 57c0 23 -15 39 -36 39z" />
    <glyph glyph-name="ae" unicode="&#xe6;" horiz-adv-x="390" 
d="M260 0c-58 0 -92 21 -102 62c-26 -41 -58 -62 -95 -62c-47 0 -76 23 -76 64c0 16 4 33 13 51l12 26c21 43 65 69 116 69c44 0 70 5 78 15l22 47c7 16 11 29 11 39c0 24 -15 36 -46 36c-23 0 -43 -12 -62 -35c-8 -8 -15 -8 -20 0c-6 9 -4 18 6 27c23 24 48 36 76 36
c39 0 63 -14 72 -41c23 27 50 41 79 41c56 0 80 -42 57 -95c-31 -77 -70 -111 -129 -111c-21 0 -38 6 -51 17l-18 -39c-33 -72 -10 -116 57 -119c29 0 56 9 79 28s40 39 51 59c8 15 34 6 25 -11c-12 -28 -33 -52 -62 -73s-60 -31 -93 -31zM40 128l-12 -25
c-7 -16 -11 -29 -11 -39c0 -24 15 -36 46 -36c35 0 66 30 93 90l14 30l16 35c-11 -2 -30 -3 -58 -3c-41 0 -71 -17 -88 -52zM369 285c17 41 9 62 -25 62c-33 0 -62 -30 -89 -90l-21 -45c9 -8 22 -12 37 -12c45 0 74 28 98 85z" />
    <glyph glyph-name="ccedilla" unicode="&#xe7;" horiz-adv-x="232" 
d="M187 375c56 0 81 -42 57 -95l-9 -22c-5 -14 -14 -19 -25 -16c-10 2 -13 9 -8 21c1 1 4 9 10 22c17 41 9 62 -25 62c-33 0 -62 -30 -89 -90l-52 -110c-33 -72 -10 -119 57 -119c29 0 56 9 79 28s40 39 51 59c8 15 34 6 25 -11c-12 -28 -33 -52 -62 -73s-60 -31 -93 -31
c-17 0 -31 2 -41 5c-1 -9 2 -22 9 -39c8 -17 12 -32 12 -43c0 -37 -31 -68 -68 -68c-13 0 -25 3 -36 10c-19 9 -4 39 16 26c7 -4 13 -6 20 -6c21 0 38 17 38 38c0 11 -4 25 -13 44c-8 18 -10 34 -5 49c-43 27 -49 75 -17 143l54 114c31 68 69 102 115 102z" />
    <glyph glyph-name="egrave" unicode="&#xe8;" horiz-adv-x="232" 
d="M186 375c56 0 80 -42 57 -95c-31 -77 -70 -111 -129 -111c-21 0 -38 6 -51 17l-18 -39c-33 -72 -10 -119 57 -119c29 0 56 9 79 28s40 39 51 59c8 15 34 6 25 -11c-12 -28 -33 -52 -62 -73s-60 -31 -93 -31c-89 0 -129 54 -85 159l54 114c31 68 69 102 115 102zM211 285
c17 41 9 62 -25 62c-33 0 -62 -30 -89 -90l-21 -45c9 -8 22 -12 37 -12c45 0 74 28 98 85zM263 474l-102 98c-17 11 -6 33 15 23l102 -98c9 -6 10 -13 5 -20s-11 -8 -20 -3z" />
    <glyph glyph-name="eacute" unicode="&#xe9;" horiz-adv-x="232" 
d="M186 375c56 0 80 -42 57 -95c-31 -77 -70 -111 -129 -111c-21 0 -38 6 -51 17l-18 -39c-33 -72 -10 -119 57 -119c29 0 56 9 79 28s40 39 51 59c8 15 34 6 25 -11c-12 -28 -33 -52 -62 -73s-60 -31 -93 -31c-89 0 -129 54 -85 159l54 114c31 68 69 102 115 102zM211 285
c17 41 9 62 -25 62c-33 0 -62 -30 -89 -90l-21 -45c9 -8 22 -12 37 -12c45 0 74 28 98 85zM340 572l-139 -98c-9 -5 -16 -4 -21 3s-3 14 6 20l139 98c21 10 32 -12 15 -23z" />
    <glyph glyph-name="ecircumflex" unicode="&#xea;" horiz-adv-x="232" 
d="M186 375c56 0 80 -42 57 -95c-31 -77 -70 -111 -129 -111c-21 0 -38 6 -51 17l-18 -39c-33 -72 -10 -119 57 -119c29 0 56 9 79 28s40 39 51 59c8 15 34 6 25 -11c-12 -28 -33 -52 -62 -73s-60 -31 -93 -31c-89 0 -129 54 -85 159l54 114c31 68 69 102 115 102zM211 285
c17 41 9 62 -25 62c-33 0 -62 -30 -89 -90l-21 -45c9 -8 22 -12 37 -12c45 0 74 28 98 85zM286 589l44 -96c9 -15 -13 -28 -23 -16l-38 82l-119 -84c-21 -10 -32 12 -15 23l128 91c12 9 20 9 23 0z" />
    <glyph glyph-name="edieresis" unicode="&#xeb;" horiz-adv-x="232" 
d="M186 375c56 0 80 -42 57 -95c-31 -77 -70 -111 -129 -111c-21 0 -38 6 -51 17l-18 -39c-33 -72 -10 -119 57 -119c29 0 56 9 79 28s40 39 51 59c8 15 34 6 25 -11c-12 -28 -33 -52 -62 -73s-60 -31 -93 -31c-89 0 -129 54 -85 159l54 114c31 68 69 102 115 102zM211 285
c17 41 9 62 -25 62c-33 0 -62 -30 -89 -90l-21 -45c9 -8 22 -12 37 -12c45 0 74 28 98 85zM174 432c-16 0 -25 12 -22 27c2 24 35 37 49 19c15 -17 -4 -46 -27 -46zM263 432c-16 0 -25 12 -22 27c2 24 35 37 49 19c15 -17 -4 -46 -27 -46z" />
    <glyph glyph-name="igrave" unicode="&#xec;" horiz-adv-x="151" 
d="M58 0c-47 0 -71 21 -71 63c0 17 4 34 13 52l112 245c8 19 36 9 28 -12l-112 -245c-7 -17 -11 -30 -11 -40c0 -23 14 -35 41 -35c35 0 66 28 92 84c0 1 1 2 1 3c8 16 32 6 25 -11c-9 -24 -25 -47 -46 -70s-45 -34 -72 -34zM190 474l-102 98c-17 11 -6 33 15 23l102 -98
c9 -6 10 -13 5 -20s-11 -8 -20 -3z" />
    <glyph glyph-name="iacute" unicode="&#xed;" horiz-adv-x="151" 
d="M58 0c-47 0 -71 21 -71 63c0 17 4 34 13 52l112 245c8 19 36 9 28 -12l-112 -245c-7 -17 -11 -30 -11 -40c0 -23 14 -35 41 -35c35 0 66 28 92 84c0 1 1 2 1 3c8 16 32 6 25 -11c-9 -24 -25 -47 -46 -70s-45 -34 -72 -34zM328 572l-139 -98c-9 -5 -16 -4 -21 3
s-3 14 6 20l139 98c21 10 32 -12 15 -23z" />
    <glyph glyph-name="icircumflex" unicode="&#xee;" horiz-adv-x="151" 
d="M58 0c-47 0 -71 21 -71 63c0 17 4 34 13 52l112 245c8 19 36 9 28 -12l-112 -245c-7 -17 -11 -30 -11 -40c0 -23 14 -35 41 -35c35 0 66 28 92 84c0 1 1 2 1 3c8 16 32 6 25 -11c-9 -24 -25 -47 -46 -70s-45 -34 -72 -34zM221 589l44 -96c9 -15 -13 -28 -23 -16l-38 82
l-119 -84c-21 -10 -32 12 -15 23l128 91c12 9 20 9 23 0z" />
    <glyph glyph-name="idieresis" unicode="&#xef;" horiz-adv-x="151" 
d="M58 0c-47 0 -71 21 -71 63c0 17 4 34 13 52l112 245c8 19 36 9 28 -12l-112 -245c-7 -17 -11 -30 -11 -40c0 -23 14 -35 41 -35c35 0 66 28 92 84c0 1 1 2 1 3c8 16 32 6 25 -11c-9 -24 -25 -47 -46 -70s-45 -34 -72 -34zM113 432c-16 0 -25 12 -22 27c2 24 35 37 49 19
c15 -17 -4 -46 -27 -46zM202 432c-16 0 -25 12 -22 27c2 24 35 37 49 19c15 -17 -4 -46 -27 -46z" />
    <glyph glyph-name="eth" unicode="&#xf0;" horiz-adv-x="269" 
d="M249 479l-52 -31c-17 -11 -30 12 -14 24l55 32c-10 17 -24 30 -42 40c-11 5 -12 12 -4 21c7 8 14 9 23 4c21 -11 38 -28 49 -49l59 34c19 8 34 -13 14 -24l-61 -36c24 -83 9 -173 -27 -249l-67 -143c-31 -68 -70 -102 -119 -102c-47 0 -76 23 -76 64c0 16 4 33 13 51
l74 158c31 68 70 102 119 102c15 0 29 -3 42 -8c17 -6 4 -35 -11 -27c-7 5 -18 7 -31 7c-35 0 -66 -30 -93 -90l-72 -154c-7 -16 -11 -29 -11 -39c0 -24 15 -36 46 -36c35 0 66 30 93 90l68 146c31 68 44 143 25 215z" />
    <glyph glyph-name="ntilde" unicode="&#xf1;" horiz-adv-x="306" 
d="M163 441c-23 -15 -38 6 -16 23c66 47 89 -26 133 0c21 12 32 -11 15 -23c-56 -41 -86 36 -132 0zM155 115l73 157c7 16 11 29 11 39c0 24 -19 39 -46 36c-33 -3 -63 -29 -88 -76l-76 -167c-11 -25 -27 -48 -48 -71c-21 -22 -46 -33 -74 -33c-22 0 -20 28 0 28
c35 0 66 29 93 87l113 246c3 9 9 12 18 9s13 -8 11 -17c16 13 33 20 51 22c47 3 76 -21 76 -64c0 -16 -4 -33 -13 -51l-73 -157c-7 -17 -11 -30 -11 -40c0 -23 14 -35 41 -35c35 0 66 28 92 84c0 1 1 2 1 3c8 16 32 6 25 -11c-9 -24 -25 -47 -46 -70s-45 -34 -72 -34
c-47 0 -71 21 -71 63c0 17 4 34 13 52z" />
    <glyph glyph-name="ograve" unicode="&#xf2;" horiz-adv-x="269" 
d="M63 0c-47 0 -76 23 -76 64c0 16 4 33 13 51l74 158c31 68 70 102 119 102c47 0 76 -23 76 -64c0 -16 -4 -33 -13 -51l-74 -158c-31 -68 -70 -102 -119 -102zM17 64c0 -24 15 -36 46 -36c35 0 66 30 93 90l72 154c7 16 11 29 11 39c0 24 -15 36 -46 36
c-35 0 -66 -30 -93 -90l-72 -154c-7 -16 -11 -29 -11 -39zM280 474l-102 98c-17 11 -6 33 15 23l102 -98c9 -6 10 -13 5 -20s-11 -8 -20 -3z" />
    <glyph glyph-name="oacute" unicode="&#xf3;" horiz-adv-x="269" 
d="M63 0c-47 0 -76 23 -76 64c0 16 4 33 13 51l74 158c31 68 70 102 119 102c47 0 76 -23 76 -64c0 -16 -4 -33 -13 -51l-74 -158c-31 -68 -70 -102 -119 -102zM17 64c0 -24 15 -36 46 -36c35 0 66 30 93 90l72 154c7 16 11 29 11 39c0 24 -15 36 -46 36
c-35 0 -66 -30 -93 -90l-72 -154c-7 -16 -11 -29 -11 -39zM341 572l-139 -98c-9 -5 -16 -4 -21 3s-3 14 6 20l139 98c21 10 32 -12 15 -23z" />
    <glyph glyph-name="ocircumflex" unicode="&#xf4;" horiz-adv-x="269" 
d="M63 0c-47 0 -76 23 -76 64c0 16 4 33 13 51l74 158c31 68 70 102 119 102c47 0 76 -23 76 -64c0 -16 -4 -33 -13 -51l-74 -158c-31 -68 -70 -102 -119 -102zM17 64c0 -24 15 -36 46 -36c35 0 66 30 93 90l72 154c7 16 11 29 11 39c0 24 -15 36 -46 36
c-35 0 -66 -30 -93 -90l-72 -154c-7 -16 -11 -29 -11 -39zM323 589l44 -96c9 -15 -13 -28 -23 -16l-38 82l-119 -84c-21 -10 -32 12 -15 23l128 91c12 9 20 9 23 0z" />
    <glyph glyph-name="otilde" unicode="&#xf5;" horiz-adv-x="269" 
d="M63 0c-47 0 -76 23 -76 64c0 16 4 33 13 51l74 158c31 68 70 102 119 102c47 0 76 -23 76 -64c0 -16 -4 -33 -13 -51l-74 -158c-31 -68 -70 -102 -119 -102zM17 64c0 -24 15 -36 46 -36c35 0 66 30 93 90l72 154c7 16 11 29 11 39c0 24 -15 36 -46 36
c-35 0 -66 -30 -93 -90l-72 -154c-7 -16 -11 -29 -11 -39zM186 441c-23 -15 -38 6 -16 23c66 47 89 -26 133 0c21 12 32 -11 15 -23c-56 -41 -86 36 -132 0z" />
    <glyph glyph-name="odieresis" unicode="&#xf6;" horiz-adv-x="269" 
d="M63 0c-47 0 -76 23 -76 64c0 16 4 33 13 51l74 158c31 68 70 102 119 102c47 0 76 -23 76 -64c0 -16 -4 -33 -13 -51l-74 -158c-31 -68 -70 -102 -119 -102zM17 64c0 -24 15 -36 46 -36c35 0 66 30 93 90l72 154c7 16 11 29 11 39c0 24 -15 36 -46 36
c-35 0 -66 -30 -93 -90l-72 -154c-7 -16 -11 -29 -11 -39zM197 432c-16 0 -25 12 -22 27c2 24 35 37 49 19c15 -17 -4 -46 -27 -46zM286 432c-16 0 -25 12 -22 27c2 24 35 37 49 19c15 -17 -4 -46 -27 -46z" />
    <glyph glyph-name="divide" unicode="&#xf7;" horiz-adv-x="677" 
d="M341 381c29 0 73 -17 132 -51c51 -31 90 -46 116 -46c31 0 53 10 68 31c5 5 10 7 16 6c9 -3 14 -12 6 -24c-21 -27 -51 -41 -90 -41c-31 0 -66 12 -107 35c-25 15 -65 -16 -97 -63c7 2 15 3 26 3c53 0 89 -35 89 -86c0 -49 -26 -90 -77 -124c-51 -33 -110 -50 -177 -50
c-27 0 -51 3 -74 10c-15 4 -20 12 -16 23c3 10 11 13 22 8h1c2 -1 5 -2 10 -3c9 -3 15 36 15 56c0 15 -2 33 -7 55c-5 28 -8 49 -8 63c0 48 39 86 88 86c33 0 53 -13 59 -40c6 -21 -18 -30 -26 -13c-7 15 -18 23 -33 23c-33 0 -58 -24 -58 -56c0 -11 2 -30 6 -57
s6 -47 6 -62c0 -19 -2 -36 -7 -53l-2 -7c0 -3 14 -3 19 -3c62 0 116 14 161 41s68 62 68 103c0 17 -6 31 -17 41c-21 21 -66 21 -89 2c-11 -9 -20 -10 -25 -2c-5 7 -3 18 5 32c35 55 65 87 90 96c5 4 3 6 -6 10c-36 19 -65 29 -87 29c-35 0 -63 -11 -84 -33
c-17 -16 -35 2 -20 18c29 29 63 43 104 43z" />
    <glyph glyph-name="oslash" unicode="&#xf8;" horiz-adv-x="269" 
d="M63 0c-11 0 -21 1 -30 3l-16 -26c-5 -12 -13 -16 -23 -13s-12 11 -7 22l19 31c-13 11 -19 26 -19 47c0 16 4 33 13 51l74 158c31 68 70 102 119 102c13 0 23 -1 32 -4l24 38c5 9 12 12 21 9s12 -10 7 -21l-26 -41c12 -12 18 -27 18 -45c0 -16 -4 -33 -13 -51l-74 -158
c-31 -68 -70 -102 -119 -102zM17 64c0 -24 15 -36 46 -36c35 0 66 30 93 90l72 154c7 16 11 29 11 39c0 24 -15 36 -46 36c-35 0 -66 -30 -93 -90l-72 -154c-7 -16 -11 -29 -11 -39z" />
    <glyph glyph-name="ugrave" unicode="&#xf9;" 
d="M141 348l-113 -245c-7 -16 -11 -29 -11 -39c0 -24 15 -36 46 -36c34 0 63 26 88 77l5 10l112 245c8 19 36 9 28 -12l-112 -245c-7 -17 -11 -30 -11 -40c0 -23 14 -35 41 -35c35 0 66 28 92 84c0 1 1 2 1 3c8 16 32 6 25 -11c-9 -24 -25 -47 -46 -70s-45 -34 -72 -34
c-40 0 -63 15 -70 46c-24 -31 -51 -46 -81 -46c-47 0 -76 23 -76 64c0 16 4 33 13 51l113 245c8 19 36 9 28 -12zM264 474l-102 98c-17 11 -6 33 15 23l102 -98c9 -6 10 -13 5 -20s-11 -8 -20 -3z" />
    <glyph glyph-name="uacute" unicode="&#xfa;" 
d="M141 348l-113 -245c-7 -16 -11 -29 -11 -39c0 -24 15 -36 46 -36c34 0 63 26 88 77l5 10l112 245c8 19 36 9 28 -12l-112 -245c-7 -17 -11 -30 -11 -40c0 -23 14 -35 41 -35c35 0 66 28 92 84c0 1 1 2 1 3c8 16 32 6 25 -11c-9 -24 -25 -47 -46 -70s-45 -34 -72 -34
c-40 0 -63 15 -70 46c-24 -31 -51 -46 -81 -46c-47 0 -76 23 -76 64c0 16 4 33 13 51l113 245c8 19 36 9 28 -12zM346 572l-139 -98c-9 -5 -16 -4 -21 3s-3 14 6 20l139 98c21 10 32 -12 15 -23z" />
    <glyph glyph-name="ucircumflex" unicode="&#xfb;" 
d="M141 348l-113 -245c-7 -16 -11 -29 -11 -39c0 -24 15 -36 46 -36c34 0 63 26 88 77l5 10l112 245c8 19 36 9 28 -12l-112 -245c-7 -17 -11 -30 -11 -40c0 -23 14 -35 41 -35c35 0 66 28 92 84c0 1 1 2 1 3c8 16 32 6 25 -11c-9 -24 -25 -47 -46 -70s-45 -34 -72 -34
c-40 0 -63 15 -70 46c-24 -31 -51 -46 -81 -46c-47 0 -76 23 -76 64c0 16 4 33 13 51l113 245c8 19 36 9 28 -12zM298 589l44 -96c9 -15 -13 -28 -23 -16l-38 82l-119 -84c-21 -10 -32 12 -15 23l128 91c12 9 20 9 23 0z" />
    <glyph glyph-name="udieresis" unicode="&#xfc;" 
d="M141 348l-113 -245c-7 -16 -11 -29 -11 -39c0 -24 15 -36 46 -36c34 0 63 26 88 77l5 10l112 245c8 19 36 9 28 -12l-112 -245c-7 -17 -11 -30 -11 -40c0 -23 14 -35 41 -35c35 0 66 28 92 84c0 1 1 2 1 3c8 16 32 6 25 -11c-9 -24 -25 -47 -46 -70s-45 -34 -72 -34
c-40 0 -63 15 -70 46c-24 -31 -51 -46 -81 -46c-47 0 -76 23 -76 64c0 16 4 33 13 51l113 245c8 19 36 9 28 -12zM189 432c-16 0 -25 12 -22 27c2 24 35 37 49 19c15 -17 -4 -46 -27 -46zM278 432c-16 0 -25 12 -22 27c2 24 35 37 49 19c15 -17 -4 -46 -27 -46z" />
    <glyph glyph-name="yacute" unicode="&#xfd;" horiz-adv-x="291" 
d="M-128 -31c21 0 21 -28 0 -28c-40 -3 -66 -38 -66 -70c0 -39 29 -69 89 -69c73 0 148 63 196 170l19 42c-15 -9 -30 -14 -47 -14c-47 0 -76 23 -76 64c0 16 4 33 13 51l113 245c8 19 36 9 28 -12l-113 -245c-7 -16 -11 -29 -11 -39c0 -24 15 -36 46 -36c35 0 66 29 93 87
l112 245c8 19 36 9 28 -12l-172 -376c-60 -132 -136 -198 -229 -198c-80 0 -119 42 -119 97c0 23 9 45 27 66c17 21 40 31 69 32zM198 0c-7 0 -11 5 -11 14s4 14 11 14c35 0 66 28 92 84c0 1 1 2 1 3c8 16 32 6 25 -11c-9 -24 -25 -47 -46 -70s-45 -34 -72 -34zM373 572
l-139 -98c-9 -5 -16 -4 -21 3s-3 14 6 20l139 98c21 10 32 -12 15 -23z" />
    <glyph glyph-name="thorn" unicode="&#xfe;" horiz-adv-x="276" 
d="M-159 -231l373 815c8 19 36 9 28 -12l-99 -217c17 13 34 20 53 20c48 0 72 -21 72 -64c0 -16 -4 -33 -13 -51l-74 -158c-31 -68 -70 -102 -119 -102c-33 0 -54 12 -65 36l-128 -279c-8 -19 -36 -9 -28 12zM29 107l-4 -10l-4 -9c-3 -11 -5 -19 -5 -24c0 -24 15 -36 46 -36
c35 0 66 30 93 90l72 154c7 16 11 29 11 39c0 24 -14 36 -42 36c-39 0 -72 -37 -92 -76l-4 -9zM183 0c-7 0 -11 5 -11 14s4 14 11 14c35 0 66 28 92 84c0 1 1 2 1 3c8 16 32 6 25 -11c-9 -24 -25 -47 -46 -70s-45 -34 -72 -34z" />
    <glyph glyph-name="ydieresis" unicode="&#xff;" horiz-adv-x="291" 
d="M-128 -31c21 0 21 -28 0 -28c-40 -3 -66 -38 -66 -70c0 -39 29 -69 89 -69c73 0 148 63 196 170l19 42c-15 -9 -30 -14 -47 -14c-47 0 -76 23 -76 64c0 16 4 33 13 51l113 245c8 19 36 9 28 -12l-113 -245c-7 -16 -11 -29 -11 -39c0 -24 15 -36 46 -36c35 0 66 29 93 87
l112 245c8 19 36 9 28 -12l-172 -376c-60 -132 -136 -198 -229 -198c-80 0 -119 42 -119 97c0 23 9 45 27 66c17 21 40 31 69 32zM198 0c-7 0 -11 5 -11 14s4 14 11 14c35 0 66 28 92 84c0 1 1 2 1 3c8 16 32 6 25 -11c-9 -24 -25 -47 -46 -70s-45 -34 -72 -34zM186 432
c-16 0 -25 12 -22 27c2 24 35 37 49 19c15 -17 -4 -46 -27 -46zM275 432c-16 0 -25 12 -22 27c2 24 35 37 49 19c15 -17 -4 -46 -27 -46z" />
    <glyph glyph-name="Amacron" unicode="&#x100;" horiz-adv-x="1083" 
d="M861 51l84 184h-212c-35 -59 -72 -110 -112 -155c-39 -45 -87 -82 -142 -113s-112 -47 -170 -47c-77 0 -143 25 -197 75c-54 49 -81 112 -81 189c0 71 25 132 75 185s114 79 191 79c131 0 203 -73 203 -170c0 -37 -15 -70 -44 -98c-19 -15 -42 3 -21 21
c23 21 35 47 35 77c0 81 -62 140 -175 140c-69 0 -125 -23 -169 -70c-43 -46 -65 -101 -65 -164c0 -67 25 -123 75 -168c50 -44 108 -66 173 -66c149 0 285 106 408 318c45 87 96 161 167 232c102 104 230 176 383 176c35 0 63 -7 83 -22c10 -7 12 -15 6 -24s-13 -9 -22 -2
c-15 13 -35 19 -62 20c-67 0 -130 -63 -189 -190l-194 -419c-28 -58 -43 -162 33 -162c6 0 13 1 21 3c11 4 16 1 17 -8c0 -11 -6 -18 -17 -22c-9 -2 -17 -3 -24 -3c-103 0 -93 129 -58 204zM1174 638c-169 -36 -311 -161 -426 -376h210l89 189c42 89 84 151 127 187z
M1251 742h-179c-10 0 -15 5 -15 14s5 14 15 14h179c22 0 22 -28 0 -28z" />
    <glyph glyph-name="amacron" unicode="&#x101;" 
d="M214 0c-40 0 -63 15 -70 46c-24 -31 -51 -46 -81 -46c-47 0 -76 23 -76 64c0 16 4 33 13 51l74 158c31 68 70 102 119 102c33 0 54 -12 65 -36l10 21c8 19 36 9 28 -12l-112 -245c-7 -17 -11 -30 -11 -40c0 -23 14 -35 41 -35c35 0 66 28 92 84c0 1 1 2 1 3
c8 16 32 6 25 -11c-9 -24 -25 -47 -46 -70s-45 -34 -72 -34zM63 28c34 0 63 26 88 77l77 167c7 17 11 30 11 39c0 24 -15 36 -46 36c-35 0 -66 -30 -93 -90l-72 -154c-7 -16 -11 -29 -11 -39c0 -24 15 -36 46 -36zM331 449h-179c-10 0 -15 5 -15 14s5 14 15 14h179
c22 0 22 -28 0 -28z" />
    <glyph glyph-name="Abreve" unicode="&#x102;" horiz-adv-x="1083" 
d="M861 51l84 184h-212c-35 -59 -72 -110 -112 -155c-39 -45 -87 -82 -142 -113s-112 -47 -170 -47c-77 0 -143 25 -197 75c-54 49 -81 112 -81 189c0 71 25 132 75 185s114 79 191 79c131 0 203 -73 203 -170c0 -37 -15 -70 -44 -98c-19 -15 -42 3 -21 21
c23 21 35 47 35 77c0 81 -62 140 -175 140c-69 0 -125 -23 -169 -70c-43 -46 -65 -101 -65 -164c0 -67 25 -123 75 -168c50 -44 108 -66 173 -66c149 0 285 106 408 318c45 87 96 161 167 232c102 104 230 176 383 176c35 0 63 -7 83 -22c10 -7 12 -15 6 -24s-13 -9 -22 -2
c-15 13 -35 19 -62 20c-67 0 -130 -63 -189 -190l-194 -419c-28 -58 -43 -162 33 -162c6 0 13 1 21 3c11 4 16 1 17 -8c0 -11 -6 -18 -17 -22c-9 -2 -17 -3 -24 -3c-103 0 -93 129 -58 204zM1174 638c-169 -36 -311 -161 -426 -376h210l89 189c42 89 84 151 127 187z
M1205 822c-3 11 -1 18 8 22c7 3 13 1 16 -6c9 -24 35 -41 66 -41c26 0 53 11 80 34c7 7 13 7 18 0s4 -15 -5 -22c-32 -28 -65 -42 -99 -42c-39 0 -72 23 -84 55z" />
    <glyph glyph-name="abreve" unicode="&#x103;" 
d="M214 0c-40 0 -63 15 -70 46c-24 -31 -51 -46 -81 -46c-47 0 -76 23 -76 64c0 16 4 33 13 51l74 158c31 68 70 102 119 102c33 0 54 -12 65 -36l10 21c8 19 36 9 28 -12l-112 -245c-7 -17 -11 -30 -11 -40c0 -23 14 -35 41 -35c35 0 66 28 92 84c0 1 1 2 1 3
c8 16 32 6 25 -11c-9 -24 -25 -47 -46 -70s-45 -34 -72 -34zM63 28c34 0 63 26 88 77l77 167c7 17 11 30 11 39c0 24 -15 36 -46 36c-35 0 -66 -30 -93 -90l-72 -154c-7 -16 -11 -29 -11 -39c0 -24 15 -36 46 -36zM168 529c-3 11 -1 18 8 22c7 3 13 1 16 -6
c9 -24 35 -41 66 -41c26 0 53 11 80 34c7 7 13 7 18 0s4 -15 -5 -22c-32 -28 -65 -42 -99 -42c-39 0 -72 23 -84 55z" />
    <glyph glyph-name="Aogonek" unicode="&#x104;" horiz-adv-x="1083" 
d="M861 51l84 184h-212c-35 -59 -72 -110 -112 -155c-39 -45 -87 -82 -142 -113s-112 -47 -170 -47c-77 0 -143 25 -197 75c-54 49 -81 112 -81 189c0 71 25 132 75 185s114 79 191 79c131 0 203 -73 203 -170c0 -37 -15 -70 -44 -98c-19 -15 -42 3 -21 21
c23 21 35 47 35 77c0 81 -62 140 -175 140c-69 0 -125 -23 -169 -70c-43 -46 -65 -101 -65 -164c0 -67 25 -123 75 -168c50 -44 108 -66 173 -66c149 0 285 106 408 318c45 87 96 161 167 232c102 104 230 176 383 176c35 0 63 -7 83 -22c10 -7 12 -15 6 -24s-13 -9 -22 -2
c-15 13 -35 19 -62 20c-67 0 -130 -63 -189 -190l-194 -419c-28 -58 -43 -162 33 -162c6 0 13 1 21 3c11 4 16 1 17 -8c0 -11 -6 -19 -17 -22c-29 -7 -47 -34 -47 -57s13 -35 39 -35c17 0 33 7 47 20c9 8 15 8 20 -1c4 -8 3 -15 -4 -22c-19 -18 -40 -27 -63 -27
c-44 0 -69 28 -69 65c0 20 9 39 28 57c-76 19 -64 133 -33 201zM1174 638c-169 -36 -311 -161 -426 -376h210l89 189c42 89 84 151 127 187z" />
    <glyph glyph-name="aogonek" unicode="&#x105;" 
d="M332 104c-18 -45 -44 -77 -78 -94c-33 -17 -49 -36 -49 -59s13 -35 39 -35c17 0 33 7 47 20c9 8 15 8 20 -1c5 -7 3 -15 -4 -22c-19 -18 -40 -27 -63 -27c-44 0 -69 28 -69 65c0 18 7 35 22 50c-29 4 -47 19 -53 45c-24 -31 -51 -46 -81 -46c-47 0 -76 23 -76 64
c0 16 4 33 13 51l74 158c31 68 70 102 119 102c33 0 54 -12 65 -36l10 21c8 19 36 9 28 -12l-112 -245c-7 -17 -11 -30 -11 -40c0 -23 14 -35 41 -35c35 0 66 28 92 84c0 1 1 2 1 3c8 16 32 6 25 -11zM63 28c34 0 63 26 88 77l77 167c7 17 11 30 11 39c0 24 -15 36 -46 36
c-35 0 -66 -30 -93 -90l-72 -154c-7 -16 -11 -29 -11 -39c0 -24 15 -36 46 -36z" />
    <glyph glyph-name="Cacute" unicode="&#x106;" horiz-adv-x="718" 
d="M379 -118c-86 0 -156 31 -209 94c-53 62 -80 137 -80 225c0 79 30 167 86 247c78 120 220 217 384 217c66 0 118 -16 156 -49c39 -33 58 -70 58 -113c0 -39 -15 -74 -44 -105s-65 -46 -107 -46c-79 0 -113 43 -113 99c0 20 5 36 15 49c13 16 36 2 25 -15
c-7 -12 -10 -24 -10 -35c0 -39 27 -69 86 -69c32 0 60 12 83 35c24 24 36 51 36 81c0 37 -16 70 -49 97c-32 28 -78 42 -138 42c-97 0 -194 -39 -265 -100c-104 -90 -173 -222 -173 -334c0 -79 23 -147 70 -204c47 -58 110 -87 189 -87c65 0 119 21 163 63
c45 41 67 87 67 137c0 63 -44 115 -105 115c-55 0 -93 -25 -112 -74c-9 -23 -36 -11 -28 12c19 49 68 90 140 90c40 0 72 -14 97 -41s38 -59 38 -98c0 -57 -25 -110 -75 -159s-112 -74 -185 -74zM776 865l-139 -98c-9 -5 -16 -4 -21 3s-3 14 6 20l139 98
c21 10 32 -12 15 -23z" />
    <glyph glyph-name="cacute" unicode="&#x107;" horiz-adv-x="232" 
d="M186 375c56 0 81 -42 57 -95l-9 -22c-5 -14 -14 -19 -25 -16c-10 2 -13 9 -8 21c1 1 4 9 10 22c17 41 9 62 -25 62c-33 0 -62 -30 -89 -90l-52 -110c-33 -72 -10 -119 57 -119c29 0 56 9 79 28s40 39 51 59c8 15 34 6 25 -11c-12 -28 -33 -52 -62 -73s-60 -31 -93 -31
c-89 0 -129 54 -85 159l54 114c31 68 69 102 115 102zM334 572l-139 -98c-9 -5 -16 -4 -21 3s-3 14 6 20l139 98c21 10 32 -12 15 -23z" />
    <glyph glyph-name="Ccaron" unicode="&#x10c;" horiz-adv-x="718" 
d="M379 -118c-86 0 -156 31 -209 94c-53 62 -80 137 -80 225c0 79 30 167 86 247c78 120 220 217 384 217c66 0 118 -16 156 -49c39 -33 58 -70 58 -113c0 -39 -15 -74 -44 -105s-65 -46 -107 -46c-79 0 -113 43 -113 99c0 20 5 36 15 49c13 16 36 2 25 -15
c-7 -12 -10 -24 -10 -35c0 -39 27 -69 86 -69c32 0 60 12 83 35c24 24 36 51 36 81c0 37 -16 70 -49 97c-32 28 -78 42 -138 42c-97 0 -194 -39 -265 -100c-104 -90 -173 -222 -173 -334c0 -79 23 -147 70 -204c47 -58 110 -87 189 -87c65 0 119 21 163 63
c45 41 67 87 67 137c0 63 -44 115 -105 115c-55 0 -93 -25 -112 -74c-9 -23 -36 -11 -28 12c19 49 68 90 140 90c40 0 72 -14 97 -41s38 -59 38 -98c0 -57 -25 -110 -75 -159s-112 -74 -185 -74zM621 766l-45 98c-9 15 13 28 23 16l38 -83l119 85c21 10 32 -12 15 -23
l-130 -92c-11 -7 -17 -8 -20 -1z" />
    <glyph glyph-name="ccaron" unicode="&#x10d;" horiz-adv-x="232" 
d="M186 375c56 0 81 -42 57 -95l-9 -22c-5 -14 -14 -19 -25 -16c-10 2 -13 9 -8 21c1 1 4 9 10 22c17 41 9 62 -25 62c-33 0 -62 -30 -89 -90l-52 -110c-33 -72 -10 -119 57 -119c29 0 56 9 79 28s40 39 51 59c8 15 34 6 25 -11c-12 -28 -33 -52 -62 -73s-60 -31 -93 -31
c-89 0 -129 54 -85 159l54 114c31 68 69 102 115 102zM229 473l-45 98c-9 15 13 28 23 16l38 -83l119 85c21 10 32 -12 15 -23l-130 -92c-11 -7 -17 -8 -20 -1z" />
    <glyph glyph-name="Dcaron" unicode="&#x10e;" horiz-adv-x="974" 
d="M515 688c139 0 255 -42 324 -107c69 -64 107 -148 107 -237c-1 -220 -188 -424 -450 -423c-22 0 -47 3 -74 10s-48 13 -64 19s-41 16 -74 30c-45 -27 -98 -41 -161 -42c-23 0 -46 4 -75 13c-29 8 -49 28 -49 55c0 31 38 55 86 55c45 0 110 -16 193 -49c33 23 61 52 84 89
s49 87 78 150l71 161c17 39 31 69 42 91s26 48 45 77c19 30 37 51 54 62c-44 11 -90 16 -137 16c-307 1 -449 -208 -448 -353c0 -83 40 -153 116 -182c11 -3 15 -8 12 -14c-1 -9 -7 -14 -17 -14c-1 0 -4 1 -9 2c-85 32 -133 113 -133 209c0 65 24 135 76 202
c74 99 212 179 403 180zM914 344c0 64 -20 122 -59 175s-95 91 -170 114c-11 -7 -22 -17 -33 -28c-20 -23 -31 -35 -51 -72c-9 -19 -16 -32 -20 -40s-11 -24 -22 -48c-10 -24 -16 -39 -19 -44l-71 -157c-57 -125 -97 -196 -158 -245c81 -32 142 -48 185 -48
c119 0 218 39 298 117s120 170 120 276zM123 -32c48 0 89 9 124 26c-70 27 -125 40 -164 40c-33 0 -55 -13 -55 -28c0 -25 32 -38 95 -38zM713 766l-45 98c-9 15 13 28 23 16l38 -83l119 85c21 10 32 -12 15 -23l-130 -92c-11 -7 -17 -8 -20 -1z" />
    <glyph glyph-name="dcaron" unicode="&#x10f;" horiz-adv-x="457" 
d="M214 0c-40 0 -63 15 -70 46c-24 -31 -51 -46 -81 -46c-47 0 -76 23 -76 64c0 16 4 33 13 51l74 158c31 68 70 102 119 102c33 0 54 -12 65 -36l113 245c8 19 36 9 28 -12l-215 -469c-7 -17 -11 -30 -11 -40c0 -23 14 -35 41 -35c35 0 66 28 92 84c0 1 1 2 1 3
c8 16 32 6 25 -11c-9 -24 -25 -47 -46 -70s-45 -34 -72 -34zM151 105l5 10l72 157c7 17 11 30 11 39c0 24 -15 36 -46 36c-35 0 -66 -30 -93 -90l-72 -154c-7 -16 -11 -29 -11 -39c0 -24 15 -36 46 -36c34 0 63 26 88 77zM548 595c28 0 39 -29 23 -57
c-20 -37 -49 -66 -86 -88c-20 -11 -28 13 -12 18c23 9 44 28 63 55c-17 4 -31 19 -28 36c1 20 21 36 40 36z" />
    <glyph glyph-name="Dcroat" unicode="&#x110;" horiz-adv-x="974" 
d="M421 210h-70c-10 0 -15 5 -15 14s5 14 15 14h83l6 13l71 161c17 39 31 69 42 91s26 48 45 77c19 30 37 51 54 62c-44 11 -90 16 -137 16c-307 1 -449 -208 -448 -353c0 -83 40 -153 116 -182c11 -3 15 -8 12 -14c-1 -9 -7 -14 -17 -14c-1 0 -4 1 -9 2
c-85 32 -133 113 -133 209c0 65 24 135 76 202c74 99 212 179 403 180c139 0 255 -42 324 -107c69 -64 107 -148 107 -237c-1 -220 -188 -424 -450 -423c-22 0 -47 3 -74 10s-48 13 -64 19s-41 16 -74 30c-45 -27 -98 -41 -161 -42c-23 0 -46 4 -75 13c-29 8 -49 28 -49 55
c0 31 38 55 86 55c45 0 110 -16 193 -49c49 33 96 99 143 198zM914 344c0 64 -20 122 -59 175s-95 91 -170 114c-11 -7 -22 -17 -33 -28c-20 -23 -31 -35 -51 -72c-9 -19 -16 -32 -20 -40s-11 -24 -22 -48c-10 -24 -16 -39 -19 -44l-71 -157l-3 -6h64c22 0 22 -28 0 -28h-77
c-48 -103 -95 -173 -142 -211c81 -32 142 -48 185 -48c119 0 218 39 298 117s120 170 120 276zM123 -32c48 0 89 9 124 26c-70 27 -125 40 -164 40c-33 0 -55 -13 -55 -28c0 -25 32 -38 95 -38z" />
    <glyph glyph-name="dslash" unicode="&#x111;" 
d="M311 454h-35c-10 0 -14 5 -11 14s9 14 19 14h40l47 102c8 19 36 9 28 -12l-42 -90h35c9 0 14 -4 13 -11c-1 -9 -6 -14 -16 -16l-5 -1h-40l-160 -351c-7 -17 -11 -30 -11 -40c0 -23 14 -35 41 -35c35 0 66 28 92 84c0 1 1 2 1 3c8 16 32 6 25 -11c-9 -24 -25 -47 -46 -70
s-45 -34 -72 -34c-40 0 -63 15 -70 46c-24 -31 -51 -46 -81 -46c-47 0 -76 23 -76 64c0 16 4 33 13 51l74 158c31 68 70 102 119 102c33 0 54 -12 65 -36zM151 105l5 10l72 157c7 17 11 30 11 39c0 24 -15 36 -46 36c-35 0 -66 -30 -93 -90l-72 -154c-7 -16 -11 -29 -11 -39
c0 -24 15 -36 46 -36c34 0 63 26 88 77z" />
    <glyph glyph-name="Emacron" unicode="&#x112;" horiz-adv-x="700" 
d="M310 -136c-189 0 -260 119 -260 223c0 57 25 112 75 163c50 52 117 86 201 102c5 0 16 -1 19 -1c-49 24 -69 79 -69 130c0 59 27 111 80 154s115 65 186 65c65 0 117 -16 158 -48s61 -69 61 -111c0 -39 -15 -75 -45 -106c-29 -31 -65 -47 -107 -47c-73 0 -114 44 -114 96
c0 24 6 43 17 58c15 17 37 1 25 -17c-9 -11 -13 -25 -13 -41c0 -39 29 -67 85 -67c34 0 63 12 86 36c24 24 36 52 36 83c0 36 -18 68 -53 95s-81 41 -138 41c-62 0 -117 -19 -164 -56s-71 -80 -71 -131c0 -73 34 -122 110 -122h18c13 0 19 -6 19 -17s-6 -16 -18 -16h-36
c-85 0 -160 -25 -224 -74c-63 -49 -95 -105 -95 -168c0 -51 19 -96 57 -135s96 -59 175 -59c59 0 112 21 157 62c46 41 69 86 69 136c0 31 -10 58 -31 81c-20 23 -46 35 -79 35c-63 0 -107 -36 -108 -76c-2 -12 -7 -18 -15 -18c-9 0 -14 6 -14 18c1 27 14 52 39 74
s58 33 98 33c41 0 75 -15 101 -44s39 -63 39 -103c0 -60 -27 -113 -81 -159c-53 -46 -112 -69 -176 -69zM668 742h-179c-10 0 -15 5 -15 14s5 14 15 14h179c22 0 22 -28 0 -28z" />
    <glyph glyph-name="emacron" unicode="&#x113;" horiz-adv-x="232" 
d="M186 375c56 0 80 -42 57 -95c-31 -77 -70 -111 -129 -111c-21 0 -38 6 -51 17l-18 -39c-33 -72 -10 -119 57 -119c29 0 56 9 79 28s40 39 51 59c8 15 34 6 25 -11c-12 -28 -33 -52 -62 -73s-60 -31 -93 -31c-89 0 -129 54 -85 159l54 114c31 68 69 102 115 102zM211 285
c17 41 9 62 -25 62c-33 0 -62 -30 -89 -90l-21 -45c9 -8 22 -12 37 -12c45 0 74 28 98 85zM301 449h-179c-10 0 -15 5 -15 14s5 14 15 14h179c22 0 22 -28 0 -28z" />
    <glyph glyph-name="Edotaccent" unicode="&#x116;" horiz-adv-x="700" 
d="M310 -136c-189 0 -260 119 -260 223c0 57 25 112 75 163c50 52 117 86 201 102c5 0 16 -1 19 -1c-49 24 -69 79 -69 130c0 59 27 111 80 154s115 65 186 65c65 0 117 -16 158 -48s61 -69 61 -111c0 -39 -15 -75 -45 -106c-29 -31 -65 -47 -107 -47c-73 0 -114 44 -114 96
c0 24 6 43 17 58c15 17 37 1 25 -17c-9 -11 -13 -25 -13 -41c0 -39 29 -67 85 -67c34 0 63 12 86 36c24 24 36 52 36 83c0 36 -18 68 -53 95s-81 41 -138 41c-62 0 -117 -19 -164 -56s-71 -80 -71 -131c0 -73 34 -122 110 -122h18c13 0 19 -6 19 -17s-6 -16 -18 -16h-36
c-85 0 -160 -25 -224 -74c-63 -49 -95 -105 -95 -168c0 -51 19 -96 57 -135s96 -59 175 -59c59 0 112 21 157 62c46 41 69 86 69 136c0 31 -10 58 -31 81c-20 23 -46 35 -79 35c-63 0 -107 -36 -108 -76c-2 -12 -7 -18 -15 -18c-9 0 -14 6 -14 18c1 27 14 52 39 74
s58 33 98 33c41 0 75 -15 101 -44s39 -63 39 -103c0 -60 -27 -113 -81 -159c-53 -46 -112 -69 -176 -69zM554 725c-16 0 -25 12 -22 27c2 24 35 37 49 19c15 -17 -4 -46 -27 -46z" />
    <glyph glyph-name="edotaccent" unicode="&#x117;" horiz-adv-x="232" 
d="M186 375c56 0 80 -42 57 -95c-31 -77 -70 -111 -129 -111c-21 0 -38 6 -51 17l-18 -39c-33 -72 -10 -119 57 -119c29 0 56 9 79 28s40 39 51 59c8 15 34 6 25 -11c-12 -28 -33 -52 -62 -73s-60 -31 -93 -31c-89 0 -129 54 -85 159l54 114c31 68 69 102 115 102zM211 285
c17 41 9 62 -25 62c-33 0 -62 -30 -89 -90l-21 -45c9 -8 22 -12 37 -12c45 0 74 28 98 85zM215 432c-16 0 -25 12 -22 27c2 24 35 37 49 19c15 -17 -4 -46 -27 -46z" />
    <glyph glyph-name="Eogonek" unicode="&#x118;" horiz-adv-x="700" 
d="M567 92c0 -52 -21 -99 -63 -142s-91 -70 -148 -81l-3 -2c-33 -17 -49 -36 -49 -59s13 -35 39 -35c17 0 33 7 47 20c9 8 15 8 20 -1c4 -8 3 -15 -4 -22c-19 -18 -40 -27 -63 -27c-44 0 -69 28 -69 65c0 19 9 38 28 56c-85 2 -148 25 -190 69c-41 44 -62 95 -62 154
c0 57 25 112 75 163c50 52 117 86 201 102c5 0 16 -1 19 -1c-49 24 -69 79 -69 130c0 59 27 111 80 154s115 65 186 65c65 0 117 -16 158 -48s61 -69 61 -111c0 -39 -15 -75 -45 -106c-29 -31 -65 -47 -107 -47c-73 0 -114 44 -114 96c0 24 6 43 17 58c15 17 37 1 25 -17
c-9 -11 -13 -25 -13 -41c0 -39 29 -67 85 -67c34 0 63 12 86 36c24 24 36 52 36 83c0 36 -18 68 -53 95s-81 41 -138 41c-62 0 -117 -19 -164 -56s-71 -80 -71 -131c0 -73 34 -122 110 -122h18c13 0 19 -6 19 -17s-6 -16 -18 -16h-36c-85 0 -160 -25 -224 -74
c-63 -49 -95 -105 -95 -168c0 -51 19 -96 57 -135s96 -59 175 -59c59 0 112 21 157 62c46 41 69 86 69 136c0 31 -10 58 -31 81c-20 23 -46 35 -79 35c-63 0 -107 -36 -108 -76c-2 -12 -7 -18 -15 -18c-9 0 -14 6 -14 18c1 27 14 52 39 74s58 33 98 33c41 0 75 -15 101 -44
s39 -63 39 -103z" />
    <glyph glyph-name="eogonek" unicode="&#x119;" horiz-adv-x="232" 
d="M186 375c56 0 80 -42 57 -95c-31 -77 -70 -111 -129 -111c-21 0 -38 6 -51 17l-18 -39c-33 -72 -10 -119 57 -119c29 0 56 9 79 28s40 39 51 59c8 15 34 6 25 -11c-17 -39 -54 -76 -98 -93c-1 0 -1 -1 -2 -1c-33 -17 -49 -36 -49 -59s13 -35 39 -35c17 0 33 7 47 20
c9 8 15 8 20 -1c5 -7 3 -15 -4 -22c-19 -18 -40 -27 -63 -27c-44 0 -69 28 -69 65c0 17 7 33 21 49c-87 1 -126 55 -82 159l54 114c31 68 69 102 115 102zM211 285c17 41 9 62 -25 62c-33 0 -62 -30 -89 -90l-21 -45c9 -8 22 -12 37 -12c45 0 74 28 98 85z" />
    <glyph glyph-name="Ecaron" unicode="&#x11a;" horiz-adv-x="700" 
d="M310 -136c-189 0 -260 119 -260 223c0 57 25 112 75 163c50 52 117 86 201 102c5 0 16 -1 19 -1c-49 24 -69 79 -69 130c0 59 27 111 80 154s115 65 186 65c65 0 117 -16 158 -48s61 -69 61 -111c0 -39 -15 -75 -45 -106c-29 -31 -65 -47 -107 -47c-73 0 -114 44 -114 96
c0 24 6 43 17 58c15 17 37 1 25 -17c-9 -11 -13 -25 -13 -41c0 -39 29 -67 85 -67c34 0 63 12 86 36c24 24 36 52 36 83c0 36 -18 68 -53 95s-81 41 -138 41c-62 0 -117 -19 -164 -56s-71 -80 -71 -131c0 -73 34 -122 110 -122h18c13 0 19 -6 19 -17s-6 -16 -18 -16h-36
c-85 0 -160 -25 -224 -74c-63 -49 -95 -105 -95 -168c0 -51 19 -96 57 -135s96 -59 175 -59c59 0 112 21 157 62c46 41 69 86 69 136c0 31 -10 58 -31 81c-20 23 -46 35 -79 35c-63 0 -107 -36 -108 -76c-2 -12 -7 -18 -15 -18c-9 0 -14 6 -14 18c1 27 14 52 39 74
s58 33 98 33c41 0 75 -15 101 -44s39 -63 39 -103c0 -60 -27 -113 -81 -159c-53 -46 -112 -69 -176 -69zM553 766l-45 98c-9 15 13 28 23 16l38 -83l119 85c21 10 32 -12 15 -23l-130 -92c-11 -7 -17 -8 -20 -1z" />
    <glyph glyph-name="ecaron" unicode="&#x11b;" horiz-adv-x="232" 
d="M186 375c56 0 80 -42 57 -95c-31 -77 -70 -111 -129 -111c-21 0 -38 6 -51 17l-18 -39c-33 -72 -10 -119 57 -119c29 0 56 9 79 28s40 39 51 59c8 15 34 6 25 -11c-12 -28 -33 -52 -62 -73s-60 -31 -93 -31c-89 0 -129 54 -85 159l54 114c31 68 69 102 115 102zM211 285
c17 41 9 62 -25 62c-33 0 -62 -30 -89 -90l-21 -45c9 -8 22 -12 37 -12c45 0 74 28 98 85zM200 473l-45 98c-9 15 13 28 23 16l38 -83l119 85c21 10 32 -12 15 -23l-130 -92c-11 -7 -17 -8 -20 -1z" />
    <glyph glyph-name="Gbreve" unicode="&#x11e;" horiz-adv-x="649" 
d="M489 532c9 10 17 11 24 3c5 -6 5 -12 -2 -18c-9 -10 -14 -23 -15 -38c1 -33 27 -59 76 -60c57 0 101 50 101 107c0 31 -15 57 -46 80s-72 34 -125 33c-228 0 -388 -233 -388 -394c0 -59 18 -109 55 -151s88 -63 152 -63c72 0 139 29 183 72s71 82 90 125l20 42
c6 13 14 17 23 14c6 -4 8 -10 5 -19l-139 -307c-60 -132 -136 -198 -229 -198c-79 0 -119 42 -119 97c0 23 9 45 27 66s41 31 70 32c21 0 20 -29 -1 -27c-40 -4 -65 -39 -65 -71c-1 -39 28 -69 88 -69c75 0 148 63 196 170l60 131c-57 -58 -126 -87 -209 -87
c-73 0 -130 24 -173 72c-43 49 -64 106 -63 171c0 88 44 192 115 276c35 43 80 78 133 105s109 41 168 41c61 0 109 -14 145 -42c37 -27 55 -60 56 -98c0 -35 -13 -66 -38 -94s-55 -42 -92 -42c-65 0 -103 41 -103 88c0 21 7 38 20 53zM488 822c-3 11 -1 18 8 22
c7 3 13 1 16 -6c9 -24 35 -41 66 -41c26 0 53 11 80 34c7 7 13 7 18 0s4 -15 -5 -22c-32 -28 -65 -42 -99 -42c-39 0 -72 23 -84 55z" />
    <glyph glyph-name="gbreve" unicode="&#x11f;" horiz-adv-x="291" 
d="M-128 -31c21 0 21 -28 0 -28c-40 -3 -66 -38 -66 -70c0 -39 29 -69 89 -69c73 0 148 63 196 170l20 45c-13 -11 -29 -17 -48 -17c-47 0 -76 23 -76 64c0 16 4 33 13 51l74 158c31 68 70 102 119 102c33 0 54 -12 65 -36l10 21c8 19 36 9 28 -12l-172 -376
c-60 -132 -136 -198 -229 -198c-80 0 -119 42 -119 97c0 23 9 45 27 66c17 21 40 31 69 32zM63 28c34 0 63 26 88 77l77 167c7 17 11 30 11 39c0 24 -15 36 -46 36c-35 0 -66 -30 -93 -90l-72 -154c-7 -16 -11 -29 -11 -39c0 -24 15 -36 46 -36zM198 0c-7 0 -11 5 -11 14
s4 14 11 14c35 0 66 28 92 84c0 1 1 2 1 3c8 16 32 6 25 -11c-9 -24 -25 -47 -46 -70s-45 -34 -72 -34zM178 529c-3 11 -1 18 8 22c7 3 13 1 16 -6c9 -24 35 -41 66 -41c26 0 53 11 80 34c7 7 13 7 18 0s4 -15 -5 -22c-32 -28 -65 -42 -99 -42c-39 0 -72 23 -84 55z" />
    <glyph glyph-name="Gcommaaccent" unicode="&#x122;" horiz-adv-x="649" 
d="M227 -285c28 0 39 -29 23 -57c-20 -37 -49 -66 -86 -88c-20 -11 -28 13 -12 18c23 9 44 28 63 55c-17 4 -31 19 -28 36c1 20 21 36 40 36zM489 532c9 10 17 11 24 3c5 -6 5 -12 -2 -18c-9 -10 -14 -23 -15 -38c1 -33 27 -59 76 -60c57 0 101 50 101 107
c0 31 -15 57 -46 80s-72 34 -125 33c-228 0 -388 -233 -388 -394c0 -59 18 -109 55 -151s88 -63 152 -63c72 0 139 29 183 72s71 82 90 125l20 42c6 13 14 17 23 14c6 -4 8 -10 5 -19l-139 -307c-60 -132 -136 -198 -229 -198c-79 0 -119 42 -119 97c0 23 9 45 27 66
s41 31 70 32c21 0 20 -29 -1 -27c-40 -4 -65 -39 -65 -71c-1 -39 28 -69 88 -69c75 0 148 63 196 170l60 131c-57 -58 -126 -87 -209 -87c-73 0 -130 24 -173 72c-43 49 -64 106 -63 171c0 88 44 192 115 276c35 43 80 78 133 105s109 41 168 41c61 0 109 -14 145 -42
c37 -27 55 -60 56 -98c0 -35 -13 -66 -38 -94s-55 -42 -92 -42c-65 0 -103 41 -103 88c0 21 7 38 20 53z" />
    <glyph glyph-name="gcommaaccent" unicode="&#x123;" horiz-adv-x="291" 
d="M-128 -31c21 0 21 -28 0 -28c-40 -3 -66 -38 -66 -70c0 -39 29 -69 89 -69c73 0 148 63 196 170l20 45c-13 -11 -29 -17 -48 -17c-47 0 -76 23 -76 64c0 16 4 33 13 51l74 158c31 68 70 102 119 102c33 0 54 -12 65 -36l10 21c8 19 36 9 28 -12l-172 -376
c-60 -132 -136 -198 -229 -198c-80 0 -119 42 -119 97c0 23 9 45 27 66c17 21 40 31 69 32zM63 28c34 0 63 26 88 77l77 167c7 17 11 30 11 39c0 24 -15 36 -46 36c-35 0 -66 -30 -93 -90l-72 -154c-7 -16 -11 -29 -11 -39c0 -24 15 -36 46 -36zM198 0c-7 0 -11 5 -11 14
s4 14 11 14c35 0 66 28 92 84c0 1 1 2 1 3c8 16 32 6 25 -11c-9 -24 -25 -47 -46 -70s-45 -34 -72 -34zM239 460c-28 0 -39 29 -23 57c20 37 49 66 86 88c20 11 28 -13 12 -18c-23 -9 -44 -28 -63 -55c17 -4 31 -19 28 -36c-1 -20 -21 -36 -40 -36z" />
    <glyph glyph-name="Imacron" unicode="&#x12a;" horiz-adv-x="580" 
d="M578 670c45 0 86 -7 124 -20c18 -6 27 -14 27 -25c0 -7 -3 -14 -8 -19c-41 -39 -75 -81 -104 -125c-29 -43 -60 -102 -95 -177c-15 -31 -26 -55 -35 -72c-8 -17 -20 -40 -37 -70c-17 -29 -31 -53 -44 -70s-29 -36 -49 -58s-40 -39 -59 -50c-39 -24 -91 -44 -146 -44
c-67 0 -126 28 -139 71c-6 21 20 35 28 12c11 -31 55 -53 111 -53c64 0 124 29 165 65c21 19 42 42 63 71c41 59 62 101 93 165v-1l40 87c23 50 53 101 89 153s67 89 94 111l-13 4c-31 9 -66 14 -105 14c-68 0 -125 -23 -170 -70s-67 -105 -67 -174c0 -23 3 -44 9 -64
c5 -16 0 -28 -12 -28c-7 0 -12 5 -17 16c-8 25 -12 50 -12 77c0 76 26 141 78 194s116 80 191 80zM766 742h-179c-10 0 -15 5 -15 14s5 14 15 14h179c22 0 22 -28 0 -28z" />
    <glyph glyph-name="imacron" unicode="&#x12b;" horiz-adv-x="151" 
d="M58 0c-47 0 -71 21 -71 63c0 17 4 34 13 52l112 245c8 19 36 9 28 -12l-112 -245c-7 -17 -11 -30 -11 -40c0 -23 14 -35 41 -35c35 0 66 28 92 84c0 1 1 2 1 3c8 16 32 6 25 -11c-9 -24 -25 -47 -46 -70s-45 -34 -72 -34zM243 449h-179c-10 0 -15 5 -15 14s5 14 15 14
h179c22 0 22 -28 0 -28z" />
    <glyph glyph-name="Iogonek" unicode="&#x12e;" horiz-adv-x="580" 
d="M578 670c45 0 86 -7 124 -20c18 -6 27 -14 27 -25c0 -7 -3 -14 -8 -19c-41 -39 -75 -81 -104 -125c-29 -43 -60 -102 -95 -177c-17 -37 -31 -66 -42 -87s-26 -48 -46 -81s-39 -60 -57 -81c-36 -40 -90 -85 -146 -102l-3 -3c-33 -17 -49 -36 -49 -59s13 -35 39 -35
c17 0 33 7 47 20c9 8 15 8 20 -1c4 -8 3 -15 -4 -22c-19 -18 -40 -27 -63 -27c-44 0 -69 28 -69 65c0 18 7 35 22 50c-4 0 -15 -1 -19 -1c-67 0 -126 28 -139 71c-6 21 20 35 28 12c11 -31 55 -53 111 -53c64 0 124 29 165 65c21 19 42 42 63 71c41 59 62 101 93 165v-1
l40 87c23 50 53 101 89 153s67 89 94 111l-13 4c-31 9 -66 14 -105 14c-68 0 -125 -23 -170 -70s-67 -105 -67 -174c0 -23 3 -44 9 -64c5 -16 0 -28 -12 -28c-7 0 -12 5 -17 16c-8 25 -12 50 -12 77c0 76 26 141 78 194s116 80 191 80z" />
    <glyph glyph-name="iogonek" unicode="&#x12f;" horiz-adv-x="151" 
d="M176 104c-15 -37 -47 -82 -86 -98c-28 -16 -42 -34 -42 -55c0 -23 13 -35 39 -35c17 0 33 7 47 20c9 8 15 8 20 -1c5 -7 3 -15 -4 -22c-19 -18 -40 -27 -63 -27c-44 0 -69 28 -69 65c0 18 7 35 22 50c-35 5 -53 26 -53 62c0 17 4 34 13 52l112 245c8 19 36 9 28 -12
l-112 -245c-7 -17 -11 -30 -11 -40c0 -23 14 -35 41 -35c35 0 66 28 92 84c0 1 1 2 1 3c8 16 32 6 25 -11zM167 432c-16 0 -25 12 -22 27c2 24 35 37 49 19c15 -17 -4 -46 -27 -46z" />
    <glyph glyph-name="Idot" unicode="&#x130;" horiz-adv-x="580" 
d="M578 670c45 0 86 -7 124 -20c18 -6 27 -14 27 -25c0 -7 -3 -14 -8 -19c-41 -39 -75 -81 -104 -125c-29 -43 -60 -102 -95 -177c-15 -31 -26 -55 -35 -72c-8 -17 -20 -40 -37 -70c-17 -29 -31 -53 -44 -70s-29 -36 -49 -58s-40 -39 -59 -50c-39 -24 -91 -44 -146 -44
c-67 0 -126 28 -139 71c-6 21 20 35 28 12c11 -31 55 -53 111 -53c64 0 124 29 165 65c21 19 42 42 63 71c41 59 62 101 93 165v-1l40 87c23 50 53 101 89 153s67 89 94 111l-13 4c-31 9 -66 14 -105 14c-68 0 -125 -23 -170 -70s-67 -105 -67 -174c0 -23 3 -44 9 -64
c5 -16 0 -28 -12 -28c-7 0 -12 5 -17 16c-8 25 -12 50 -12 77c0 76 26 141 78 194s116 80 191 80zM681 725c-16 0 -25 12 -22 27c2 24 35 37 49 19c15 -17 -4 -46 -27 -46z" />
    <glyph glyph-name="dotlessi" unicode="&#x131;" horiz-adv-x="151" 
d="M58 0c-47 0 -71 21 -71 63c0 17 4 34 13 52l112 245c8 19 36 9 28 -12l-112 -245c-7 -17 -11 -30 -11 -40c0 -23 14 -35 41 -35c35 0 66 28 92 84c0 1 1 2 1 3c8 16 32 6 25 -11c-9 -24 -25 -47 -46 -70s-45 -34 -72 -34z" />
    <glyph glyph-name="Kcommaaccent" unicode="&#x136;" horiz-adv-x="861" 
d="M492 -66c28 0 39 -29 23 -57c-20 -37 -49 -66 -86 -88c-20 -11 -28 13 -12 18c23 9 44 28 63 55c-17 4 -31 19 -28 36c1 20 21 36 40 36zM143 -61c17 0 36 2 56 7c-89 73 -142 183 -142 296c0 116 54 227 137 302c83 76 199 123 316 123c62 0 118 -12 167 -37
c17 -11 20 -23 7 -36c-42 -45 -82 -110 -121 -197l-31 -67c-19 -41 -36 -77 -49 -108c-17 -37 -32 -67 -45 -91s-28 -50 -47 -78c-36 -55 -78 -93 -127 -117c34 -21 72 -36 113 -47c11 -3 15 -8 12 -17c-3 -10 -11 -13 -24 -10c-49 13 -93 33 -134 60
c-26 -8 -55 -13 -88 -14c-64 1 -120 37 -135 78c-4 17 25 26 29 11c11 -33 53 -57 106 -58zM87 242c0 -112 55 -217 148 -286c53 20 98 59 134 114c19 28 34 53 45 76c12 23 25 50 40 83l80 178c37 81 76 147 118 197c-37 22 -84 33 -142 33c-74 0 -143 -17 -208 -50
c-64 -33 -116 -81 -156 -142c-39 -61 -59 -129 -59 -203zM560 166c-13 23 -8 35 13 38c39 5 83 33 115 61c16 15 35 35 57 62s39 48 52 65s31 42 54 74c27 39 49 69 66 90s37 45 61 72c49 53 92 77 136 77c15 0 32 -4 50 -11c10 -4 13 -10 10 -19c-5 -9 -13 -12 -24 -8
c-12 5 -24 8 -36 8c-36 0 -75 -24 -119 -73c-22 -25 -41 -48 -58 -69s-37 -50 -62 -85c-49 -68 -83 -112 -135 -168c-51 -55 -103 -92 -151 -104c15 -24 29 -57 36 -76c4 -9 10 -23 17 -44c8 -21 13 -34 16 -40c12 -29 22 -53 30 -72s19 -41 32 -68s26 -50 37 -67
c24 -35 61 -79 96 -102c36 -23 84 -40 136 -40c49 0 87 12 116 37s47 54 52 87c-1 37 -14 65 -39 86c-16 13 3 34 19 23c37 -25 54 -62 49 -113c-4 -40 -23 -75 -57 -105s-81 -45 -140 -45c-30 0 -58 4 -85 12c-52 16 -86 34 -125 77c-19 21 -34 40 -45 57
c-11 16 -24 39 -39 70s-26 55 -33 72s-17 42 -30 76c-30 79 -54 134 -72 165z" />
    <glyph glyph-name="kcommaaccent" unicode="&#x137;" horiz-adv-x="288" 
d="M8 -58c28 0 39 -29 23 -57c-20 -37 -49 -66 -86 -88c-20 -11 -28 13 -12 18c23 9 44 28 63 55c-17 4 -31 19 -28 36c1 20 21 36 40 36zM241 299c4 32 -9 48 -40 48c-40 0 -76 -39 -97 -78l-75 -165c-11 -25 -27 -48 -48 -71c-21 -22 -46 -33 -74 -33c-22 0 -20 28 0 28
c35 0 66 29 93 87l215 469c8 19 36 9 28 -12l-102 -222c21 17 41 25 60 25c47 0 75 -28 70 -76c-3 -31 -22 -62 -55 -94c-33 -31 -67 -51 -103 -58c-7 -45 -5 -118 63 -118c24 0 47 10 68 31c22 21 37 40 44 55c8 16 32 6 25 -11c-8 -22 -26 -45 -54 -69
c-56 -47 -116 -42 -148 -15c-46 44 -31 118 -21 155c32 0 64 13 97 40s51 55 54 84z" />
    <glyph glyph-name="Lacute" unicode="&#x139;" horiz-adv-x="865" 
d="M1180 -87c-17 13 0 30 15 21c39 -23 56 -61 51 -112c-5 -46 -29 -86 -72 -121s-98 -53 -167 -53c-44 0 -90 9 -127 18c-18 4 -38 11 -59 21c-41 19 -65 29 -106 58c-21 14 -37 25 -49 34c-11 8 -27 21 -48 38c-20 17 -35 30 -44 39c-9 8 -24 22 -45 41s-35 31 -42 38
l-25 22c-71 -43 -149 -64 -236 -64c-57 -1 -106 10 -146 33s-60 53 -60 90c0 78 91 113 166 111c92 0 177 -48 278 -133c56 37 105 88 146 154c-117 -39 -226 -35 -327 12c-69 31 -117 79 -142 144s-22 133 9 202c41 91 123 155 214 180s196 18 289 -25
c60 -28 109 -66 146 -113c49 92 96 138 142 138c41 0 61 -30 61 -91c-1 -75 -36 -155 -103 -240c-67 -84 -149 -147 -246 -190c-46 -82 -101 -146 -165 -191c13 -11 34 -29 63 -56c30 -27 53 -48 69 -61s38 -31 66 -53c29 -23 54 -40 75 -51c21 -12 46 -25 74 -38
c56 -27 113 -37 173 -37c59 0 108 15 145 45c38 29 59 64 64 103c3 33 -9 62 -37 87zM298 188c105 -49 217 -48 336 3c5 8 11 21 19 38l70 157c35 78 56 122 61 133c-33 45 -82 84 -147 116c-61 25 -121 37 -180 36s-114 -17 -165 -49c-51 -31 -90 -74 -115 -128
c-28 -62 -30 -121 -7 -178s66 -99 128 -128zM226 -77c77 0 147 18 212 55c-92 77 -168 119 -251 119c-84 0 -136 -31 -135 -80c0 -28 18 -51 53 -68s76 -26 121 -26zM750 375l-70 -156l-4 -8c83 43 153 102 210 177s85 144 86 209c1 39 -10 58 -35 59
c-34 -1 -74 -46 -119 -135c8 -13 15 -28 21 -45c2 -2 2 -6 1 -11c1 -7 -8 -15 -15 -14c-5 0 -9 4 -12 11c-2 6 -6 15 -11 27c-7 -15 -17 -36 -30 -64s-20 -45 -22 -50zM1056 865l-139 -98c-9 -5 -16 -4 -21 3s-3 14 6 20l139 98c21 10 32 -12 15 -23z" />
    <glyph glyph-name="lacute" unicode="&#x13a;" horiz-adv-x="151" 
d="M0 115l215 469c8 19 36 9 28 -12l-215 -469c-7 -17 -11 -30 -11 -40c0 -23 14 -35 41 -35c35 0 66 28 92 84c0 1 1 2 1 3c8 16 32 6 25 -11c-9 -24 -25 -47 -46 -70s-45 -34 -72 -34c-47 0 -71 21 -71 63c0 17 4 34 13 52zM412 772l-139 -98c-9 -5 -16 -4 -21 3
s-3 14 6 20l139 98c21 10 32 -12 15 -23z" />
    <glyph glyph-name="Lcommaaccent" unicode="&#x13b;" horiz-adv-x="865" 
d="M452 -146c28 0 39 -29 23 -57c-20 -37 -49 -66 -86 -88c-20 -11 -28 13 -12 18c23 9 44 28 63 55c-17 4 -31 19 -28 36c1 20 21 36 40 36zM1180 -87c-17 13 0 30 15 21c39 -23 56 -61 51 -112c-5 -46 -29 -86 -72 -121s-98 -53 -167 -53c-44 0 -90 9 -127 18
c-18 4 -38 11 -59 21c-41 19 -65 29 -106 58c-21 14 -37 25 -49 34c-11 8 -27 21 -48 38c-20 17 -35 30 -44 39c-9 8 -24 22 -45 41s-35 31 -42 38l-25 22c-71 -43 -149 -64 -236 -64c-57 -1 -106 10 -146 33s-60 53 -60 90c0 78 91 113 166 111c92 0 177 -48 278 -133
c56 37 105 88 146 154c-117 -39 -226 -35 -327 12c-69 31 -117 79 -142 144s-22 133 9 202c41 91 123 155 214 180s196 18 289 -25c60 -28 109 -66 146 -113c49 92 96 138 142 138c41 0 61 -30 61 -91c-1 -75 -36 -155 -103 -240c-67 -84 -149 -147 -246 -190
c-46 -82 -101 -146 -165 -191c13 -11 34 -29 63 -56c30 -27 53 -48 69 -61s38 -31 66 -53c29 -23 54 -40 75 -51c21 -12 46 -25 74 -38c56 -27 113 -37 173 -37c59 0 108 15 145 45c38 29 59 64 64 103c3 33 -9 62 -37 87zM298 188c105 -49 217 -48 336 3c5 8 11 21 19 38
l70 157c35 78 56 122 61 133c-33 45 -82 84 -147 116c-61 25 -121 37 -180 36s-114 -17 -165 -49c-51 -31 -90 -74 -115 -128c-28 -62 -30 -121 -7 -178s66 -99 128 -128zM226 -77c77 0 147 18 212 55c-92 77 -168 119 -251 119c-84 0 -136 -31 -135 -80
c0 -28 18 -51 53 -68s76 -26 121 -26zM750 375l-70 -156l-4 -8c83 43 153 102 210 177s85 144 86 209c1 39 -10 58 -35 59c-34 -1 -74 -46 -119 -135c8 -13 15 -28 21 -45c2 -2 2 -6 1 -11c1 -7 -8 -15 -15 -14c-5 0 -9 4 -12 11c-2 6 -6 15 -11 27c-7 -15 -17 -36 -30 -64
s-20 -45 -22 -50z" />
    <glyph glyph-name="lcommaaccent" unicode="&#x13c;" horiz-adv-x="151" 
d="M9 -58c28 0 39 -29 23 -57c-20 -37 -49 -66 -86 -88c-20 -11 -28 13 -12 18c23 9 44 28 63 55c-17 4 -31 19 -28 36c1 20 21 36 40 36zM1 115l215 469c8 19 36 9 28 -12l-215 -469c-7 -17 -11 -30 -11 -40c0 -23 14 -35 41 -35c35 0 66 28 92 84c0 1 1 2 1 3
c8 16 32 6 25 -11c-9 -24 -25 -47 -46 -70s-45 -34 -72 -34c-47 0 -71 21 -71 63c0 17 4 34 13 52z" />
    <glyph glyph-name="Lcaron" unicode="&#x13d;" horiz-adv-x="865" 
d="M1180 -87c-17 13 0 30 15 21c39 -23 56 -61 51 -112c-5 -46 -29 -86 -72 -121s-98 -53 -167 -53c-44 0 -90 9 -127 18c-18 4 -38 11 -59 21c-41 19 -65 29 -106 58c-21 14 -37 25 -49 34c-11 8 -27 21 -48 38c-20 17 -35 30 -44 39c-9 8 -24 22 -45 41s-35 31 -42 38
l-25 22c-71 -43 -149 -64 -236 -64c-57 -1 -106 10 -146 33s-60 53 -60 90c0 78 91 113 166 111c92 0 177 -48 278 -133c56 37 105 88 146 154c-117 -39 -226 -35 -327 12c-69 31 -117 79 -142 144s-22 133 9 202c41 91 123 155 214 180s196 18 289 -25
c60 -28 109 -66 146 -113c49 92 96 138 142 138c41 0 61 -30 61 -91c-1 -75 -36 -155 -103 -240c-67 -84 -149 -147 -246 -190c-46 -82 -101 -146 -165 -191c13 -11 34 -29 63 -56c30 -27 53 -48 69 -61s38 -31 66 -53c29 -23 54 -40 75 -51c21 -12 46 -25 74 -38
c56 -27 113 -37 173 -37c59 0 108 15 145 45c38 29 59 64 64 103c3 33 -9 62 -37 87zM298 188c105 -49 217 -48 336 3c5 8 11 21 19 38l70 157c35 78 56 122 61 133c-33 45 -82 84 -147 116c-61 25 -121 37 -180 36s-114 -17 -165 -49c-51 -31 -90 -74 -115 -128
c-28 -62 -30 -121 -7 -178s66 -99 128 -128zM226 -77c77 0 147 18 212 55c-92 77 -168 119 -251 119c-84 0 -136 -31 -135 -80c0 -28 18 -51 53 -68s76 -26 121 -26zM750 375l-70 -156l-4 -8c83 43 153 102 210 177s85 144 86 209c1 39 -10 58 -35 59
c-34 -1 -74 -46 -119 -135c8 -13 15 -28 21 -45c2 -2 2 -6 1 -11c1 -7 -8 -15 -15 -14c-5 0 -9 4 -12 11c-2 6 -6 15 -11 27c-7 -15 -17 -36 -30 -64s-20 -45 -22 -50zM872 888c28 0 39 -29 23 -57c-20 -37 -49 -66 -86 -88c-20 -11 -28 13 -12 18c23 9 44 28 63 55
c-17 4 -31 19 -28 36c1 20 21 36 40 36z" />
    <glyph glyph-name="lcaron" unicode="&#x13e;" horiz-adv-x="344" 
d="M0 115l215 469c8 19 36 9 28 -12l-215 -469c-7 -17 -11 -30 -11 -40c0 -23 14 -35 41 -35c35 0 66 28 92 84c0 1 1 2 1 3c8 16 32 6 25 -11c-9 -24 -25 -47 -46 -70s-45 -34 -72 -34c-47 0 -71 21 -71 63c0 17 4 34 13 52zM392 595c28 0 39 -29 23 -57
c-20 -37 -49 -66 -86 -88c-20 -11 -28 13 -12 18c23 9 44 28 63 55c-17 4 -31 19 -28 36c1 20 21 36 40 36z" />
    <glyph glyph-name="Lslash" unicode="&#x141;" horiz-adv-x="640" 
d="M512 269l-82 -20c-28 -6 -36 22 -6 28l103 25l65 143c69 155 174 256 295 256c53 0 95 -14 126 -42c32 -27 49 -59 50 -96c1 -36 -11 -68 -37 -97c-25 -29 -57 -43 -95 -43c-71 -1 -110 43 -113 94c0 25 7 43 20 56c9 8 17 8 24 0c3 -5 2 -11 -3 -16
c-9 -13 -14 -26 -15 -40c0 -36 31 -67 86 -66c30 0 55 11 75 32c21 22 31 47 30 76c0 30 -13 57 -40 80s-63 35 -108 35c-54 0 -104 -22 -151 -67c-46 -45 -85 -102 -117 -173l-56 -123l115 28c15 5 23 2 25 -8c1 -9 -4 -16 -17 -19c-1 -1 -1 -1 -2 -1l-136 -34l-36 -79
c-47 -105 -111 -180 -190 -223c26 -19 63 -48 112 -89s90 -75 123 -101c34 -27 78 -51 131 -73c53 -23 107 -34 162 -34c59 0 108 15 145 45c38 29 59 64 64 103c3 33 -9 62 -37 87c-17 13 0 30 15 21c39 -23 56 -61 51 -112c-5 -46 -29 -86 -72 -121s-98 -53 -167 -53
c-60 0 -119 12 -177 36s-105 50 -141 79c-36 28 -79 63 -129 106c-49 42 -87 72 -114 90c-49 -20 -102 -30 -158 -30c-75 -1 -112 19 -112 61c0 40 54 58 110 57c54 0 110 -18 167 -53c81 38 144 109 190 214zM130 -41c46 0 88 6 127 19c-45 26 -87 39 -128 39
c-56 0 -80 -7 -79 -26c0 -21 27 -32 80 -32z" />
    <glyph glyph-name="lslash" unicode="&#x142;" horiz-adv-x="151" 
d="M62 252l-12 -3c-28 -6 -36 22 -6 28l34 8l137 299c8 19 36 9 28 -12l-127 -278l31 8c15 5 23 2 25 -8c1 -9 -4 -16 -17 -19c-1 -1 -1 -1 -2 -1l-53 -13l-72 -158c-7 -17 -11 -30 -11 -40c0 -23 14 -35 41 -35c35 0 66 28 92 84c0 1 1 2 1 3c8 16 32 6 25 -11
c-9 -24 -25 -47 -46 -70s-45 -34 -72 -34c-47 0 -71 21 -71 63c0 17 4 34 13 52z" />
    <glyph glyph-name="Nacute" unicode="&#x143;" horiz-adv-x="617" 
d="M553 604c60 0 99 -40 99 -85c0 -20 -4 -37 -11 -52l-198 -430v1c-15 -34 -22 -65 -22 -94c0 -45 18 -68 55 -68c1 0 8 1 23 4c11 3 18 -1 19 -11s-4 -16 -16 -19s-22 -4 -29 -4c-57 0 -83 40 -83 97c0 37 8 73 25 108l190 409c9 19 13 37 13 54c0 33 -24 58 -67 58
c-69 0 -149 -66 -200 -178l-174 -383c-6 -11 -14 -17 -23 -17c-12 0 -15 7 -9 22l194 423c14 31 21 66 21 104c0 45 -18 83 -54 112c-35 29 -76 44 -122 44c-45 0 -85 -15 -121 -44c-35 -29 -53 -65 -53 -110c0 -69 49 -125 121 -125c41 0 69 16 83 47c5 10 10 15 16 15
c11 0 18 -12 15 -23c-17 -44 -63 -68 -114 -68c-42 0 -78 15 -107 45s-44 66 -44 109c0 50 20 93 61 129c41 37 89 55 143 55s102 -17 143 -52c42 -35 63 -79 63 -134c0 -15 0 -26 -1 -34c45 53 111 95 164 95zM675 865l-139 -98c-9 -5 -16 -4 -21 3s-3 14 6 20l139 98
c21 10 32 -12 15 -23z" />
    <glyph glyph-name="nacute" unicode="&#x144;" horiz-adv-x="306" 
d="M155 115l73 157c7 16 11 29 11 39c0 24 -19 39 -46 36c-33 -3 -63 -29 -88 -76l-76 -167c-11 -25 -27 -48 -48 -71c-21 -22 -46 -33 -74 -33c-22 0 -20 28 0 28c35 0 66 29 93 87l113 246c3 9 9 12 18 9s13 -8 11 -17c16 13 33 20 51 22c47 3 76 -21 76 -64
c0 -16 -4 -33 -13 -51l-73 -157c-7 -17 -11 -30 -11 -40c0 -23 14 -35 41 -35c35 0 66 28 92 84c0 1 1 2 1 3c8 16 32 6 25 -11c-9 -24 -25 -47 -46 -70s-45 -34 -72 -34c-47 0 -71 21 -71 63c0 17 4 34 13 52zM370 572l-139 -98c-9 -5 -16 -4 -21 3s-3 14 6 20l139 98
c21 10 32 -12 15 -23z" />
    <glyph glyph-name="Ncommaaccent" unicode="&#x145;" horiz-adv-x="619" 
d="M265 -58c28 0 39 -29 23 -57c-20 -37 -49 -66 -86 -88c-20 -11 -28 13 -12 18c23 9 44 28 63 55c-17 4 -31 19 -28 36c1 20 21 36 40 36zM553 604c60 0 99 -40 99 -85c0 -20 -4 -37 -11 -52l-198 -430v1c-15 -34 -22 -65 -22 -94c0 -45 18 -68 55 -68c1 0 8 1 23 4
c11 3 18 -1 19 -11s-4 -16 -16 -19s-22 -4 -29 -4c-57 0 -83 40 -83 97c0 37 8 73 25 108l190 409c9 19 13 37 13 54c0 33 -24 58 -67 58c-69 0 -149 -66 -200 -178l-174 -383c-6 -11 -14 -17 -23 -17c-12 0 -15 7 -9 22l194 423c14 31 21 66 21 104c0 45 -18 83 -54 112
c-35 29 -76 44 -122 44c-45 0 -85 -15 -121 -44c-35 -29 -53 -65 -53 -110c0 -69 49 -125 121 -125c41 0 69 16 83 47c5 10 10 15 16 15c11 0 18 -12 15 -23c-17 -44 -63 -68 -114 -68c-42 0 -78 15 -107 45s-44 66 -44 109c0 50 20 93 61 129c41 37 89 55 143 55
s102 -17 143 -52c42 -35 63 -79 63 -134c0 -15 0 -26 -1 -34c45 53 111 95 164 95z" />
    <glyph glyph-name="ncommaaccent" unicode="&#x146;" horiz-adv-x="306" 
d="M8 -58c28 0 39 -29 23 -57c-20 -37 -49 -66 -86 -88c-20 -11 -28 13 -12 18c23 9 44 28 63 55c-17 4 -31 19 -28 36c1 20 21 36 40 36zM155 115l73 157c7 16 11 29 11 39c0 24 -19 39 -46 36c-33 -3 -63 -29 -88 -76l-76 -167c-11 -25 -27 -48 -48 -71
c-21 -22 -46 -33 -74 -33c-22 0 -20 28 0 28c35 0 66 29 93 87l113 246c3 9 9 12 18 9s13 -8 11 -17c16 13 33 20 51 22c47 3 76 -21 76 -64c0 -16 -4 -33 -13 -51l-73 -157c-7 -17 -11 -30 -11 -40c0 -23 14 -35 41 -35c35 0 66 28 92 84c0 1 1 2 1 3c8 16 32 6 25 -11
c-9 -24 -25 -47 -46 -70s-45 -34 -72 -34c-47 0 -71 21 -71 63c0 17 4 34 13 52z" />
    <glyph glyph-name="Ncaron" unicode="&#x147;" horiz-adv-x="619" 
d="M553 604c60 0 99 -40 99 -85c0 -20 -4 -37 -11 -52l-198 -430v1c-15 -34 -22 -65 -22 -94c0 -45 18 -68 55 -68c1 0 8 1 23 4c11 3 18 -1 19 -11s-4 -16 -16 -19s-22 -4 -29 -4c-57 0 -83 40 -83 97c0 37 8 73 25 108l190 409c9 19 13 37 13 54c0 33 -24 58 -67 58
c-69 0 -149 -66 -200 -178l-174 -383c-6 -11 -14 -17 -23 -17c-12 0 -15 7 -9 22l194 423c14 31 21 66 21 104c0 45 -18 83 -54 112c-35 29 -76 44 -122 44c-45 0 -85 -15 -121 -44c-35 -29 -53 -65 -53 -110c0 -69 49 -125 121 -125c41 0 69 16 83 47c5 10 10 15 16 15
c11 0 18 -12 15 -23c-17 -44 -63 -68 -114 -68c-42 0 -78 15 -107 45s-44 66 -44 109c0 50 20 93 61 129c41 37 89 55 143 55s102 -17 143 -52c42 -35 63 -79 63 -134c0 -15 0 -26 -1 -34c45 53 111 95 164 95zM579 766l-45 98c-9 15 13 28 23 16l38 -83l119 85
c21 10 32 -12 15 -23l-130 -92c-11 -7 -17 -8 -20 -1z" />
    <glyph glyph-name="ncaron" unicode="&#x148;" horiz-adv-x="306" 
d="M155 115l73 157c7 16 11 29 11 39c0 24 -19 39 -46 36c-33 -3 -63 -29 -88 -76l-76 -167c-11 -25 -27 -48 -48 -71c-21 -22 -46 -33 -74 -33c-22 0 -20 28 0 28c35 0 66 29 93 87l113 246c3 9 9 12 18 9s13 -8 11 -17c16 13 33 20 51 22c47 3 76 -21 76 -64
c0 -16 -4 -33 -13 -51l-73 -157c-7 -17 -11 -30 -11 -40c0 -23 14 -35 41 -35c35 0 66 28 92 84c0 1 1 2 1 3c8 16 32 6 25 -11c-9 -24 -25 -47 -46 -70s-45 -34 -72 -34c-47 0 -71 21 -71 63c0 17 4 34 13 52zM231 473l-45 98c-9 15 13 28 23 16l38 -83l119 85
c21 10 32 -12 15 -23l-130 -92c-11 -7 -17 -8 -20 -1z" />
    <glyph glyph-name="Omacron" unicode="&#x14c;" horiz-adv-x="833" 
d="M116 306c23 101 77 187 160 258c83 72 172 108 265 108c80 0 145 -27 195 -80s75 -120 75 -202c0 -27 -3 -57 -10 -89c-23 -101 -77 -187 -160 -258s-172 -107 -265 -107c-80 0 -145 26 -196 79c-50 53 -75 121 -75 203c0 28 4 57 11 88zM145 301c-7 -33 -10 -61 -10 -83
c0 -73 22 -134 66 -181c45 -47 103 -71 175 -71c85 0 167 33 244 100s128 147 151 240c7 29 10 57 10 84c0 73 -22 134 -66 181s-102 71 -174 71c-87 0 -170 -33 -247 -100s-127 -147 -149 -241zM701 742h-179c-10 0 -15 5 -15 14s5 14 15 14h179c22 0 22 -28 0 -28z" />
    <glyph glyph-name="omacron" unicode="&#x14d;" horiz-adv-x="269" 
d="M63 0c-47 0 -76 23 -76 64c0 16 4 33 13 51l74 158c31 68 70 102 119 102c47 0 76 -23 76 -64c0 -16 -4 -33 -13 -51l-74 -158c-31 -68 -70 -102 -119 -102zM17 64c0 -24 15 -36 46 -36c35 0 66 30 93 90l72 154c7 16 11 29 11 39c0 24 -15 36 -46 36
c-35 0 -66 -30 -93 -90l-72 -154c-7 -16 -11 -29 -11 -39zM324 449h-179c-10 0 -15 5 -15 14s5 14 15 14h179c22 0 22 -28 0 -28z" />
    <glyph glyph-name="Ohungarumlaut" unicode="&#x150;" horiz-adv-x="833" 
d="M116 306c23 101 77 187 160 258c83 72 172 108 265 108c80 0 145 -27 195 -80s75 -120 75 -202c0 -27 -3 -57 -10 -89c-23 -101 -77 -187 -160 -258s-172 -107 -265 -107c-80 0 -145 26 -196 79c-50 53 -75 121 -75 203c0 28 4 57 11 88zM145 301c-7 -33 -10 -61 -10 -83
c0 -73 22 -134 66 -181c45 -47 103 -71 175 -71c85 0 167 33 244 100s128 147 151 240c7 29 10 57 10 84c0 73 -22 134 -66 181s-102 71 -174 71c-87 0 -170 -33 -247 -100s-127 -147 -149 -241zM698 865l-139 -98c-9 -5 -16 -4 -21 3s-3 14 6 20l139 98
c21 10 32 -12 15 -23zM797 865l-139 -98c-9 -5 -16 -4 -21 3s-3 14 6 20l139 98c21 10 32 -12 15 -23z" />
    <glyph glyph-name="ohungarumlaut" unicode="&#x151;" horiz-adv-x="269" 
d="M63 0c-47 0 -76 23 -76 64c0 16 4 33 13 51l74 158c31 68 70 102 119 102c47 0 76 -23 76 -64c0 -16 -4 -33 -13 -51l-74 -158c-31 -68 -70 -102 -119 -102zM17 64c0 -24 15 -36 46 -36c35 0 66 30 93 90l72 154c7 16 11 29 11 39c0 24 -15 36 -46 36
c-35 0 -66 -30 -93 -90l-72 -154c-7 -16 -11 -29 -11 -39zM313 572l-139 -98c-9 -5 -16 -4 -21 3s-3 14 6 20l139 98c21 10 32 -12 15 -23zM412 572l-139 -98c-9 -5 -16 -4 -21 3s-3 14 6 20l139 98c21 10 32 -12 15 -23z" />
    <glyph glyph-name="OE" unicode="&#x152;" horiz-adv-x="311" 
 />
    <glyph glyph-name="oe" unicode="&#x153;" horiz-adv-x="390" 
d="M260 0c-58 0 -92 21 -102 62c-26 -41 -58 -62 -95 -62c-47 0 -76 23 -76 64c0 16 4 33 13 51l74 158c31 68 70 102 119 102c39 0 63 -14 72 -41c23 27 50 41 79 41c56 0 80 -42 57 -95c-31 -77 -70 -111 -129 -111c-21 0 -38 6 -51 17l-18 -39c-33 -72 -10 -116 57 -119
c29 0 56 9 79 28s40 39 51 59c8 15 34 6 25 -11c-12 -28 -33 -52 -62 -73s-60 -31 -93 -31zM17 64c0 -24 15 -36 46 -36c35 0 66 30 93 90l14 30l58 124c7 16 11 29 11 39c0 24 -15 36 -46 36c-35 0 -66 -30 -93 -90l-72 -154c-7 -16 -11 -29 -11 -39zM369 285
c17 41 9 62 -25 62c-33 0 -62 -30 -89 -90l-21 -45c9 -8 22 -12 37 -12c45 0 74 28 98 85z" />
    <glyph glyph-name="Racute" unicode="&#x154;" horiz-adv-x="932" 
d="M255 -50c65 0 125 27 165 62c21 17 41 41 61 71c21 30 37 58 50 83s29 57 46 96l67 149c3 5 9 23 12 28c41 91 75 150 102 177c-62 35 -128 52 -199 52c-111 0 -205 -31 -264 -76c-90 -71 -128 -169 -128 -254c0 -45 13 -88 39 -129c27 -40 62 -70 105 -90
c21 -10 11 -39 -12 -28c-101 44 -162 140 -162 247c0 64 18 129 61 193c61 93 181 166 360 167c103 0 191 -30 264 -90s110 -133 110 -220c1 -74 -25 -138 -77 -193c-52 -54 -111 -85 -178 -94c13 -24 31 -60 52 -108c7 -16 12 -28 16 -36c14 -31 24 -53 30 -66
s16 -34 30 -61c15 -27 27 -47 36 -60c20 -25 57 -71 89 -88s78 -33 127 -33c97 0 158 57 167 124c-1 35 -14 63 -39 86c-12 13 3 30 18 22c35 -23 53 -68 50 -112c-5 -39 -25 -73 -60 -104s-80 -46 -137 -46c-76 0 -142 31 -183 67c-21 17 -42 43 -63 77
c-21 33 -38 61 -49 84s-25 55 -43 97l-8 18h1c-27 63 -49 108 -66 135c-9 16 -6 27 10 32c62 1 118 27 169 77c51 51 77 112 78 183c0 85 -39 154 -117 209c-30 -27 -64 -85 -102 -173c-7 -15 -11 -23 -12 -25l-64 -144c-19 -41 -35 -76 -49 -103c-13 -27 -31 -56 -53 -89
c-22 -32 -44 -57 -66 -75c-44 -37 -109 -68 -184 -69c-68 1 -122 34 -137 79c-6 24 22 28 30 7c11 -32 55 -56 107 -56zM1005 865l-139 -98c-9 -5 -16 -4 -21 3s-3 14 6 20l139 98c21 10 32 -12 15 -23z" />
    <glyph glyph-name="racute" unicode="&#x155;" horiz-adv-x="283" 
d="M133 115l75 161c7 16 11 29 11 39c0 24 -13 37 -34 36c-16 0 -28 5 -36 15l-123 -262c-9 -19 -36 -14 -25 11l143 310l3 8c8 17 39 6 28 -13c-13 -27 -9 -41 10 -41c40 3 64 -21 64 -64c0 -16 -4 -33 -13 -51l-75 -161c-7 -17 -11 -30 -11 -40c0 -23 14 -35 41 -35
c35 0 66 28 92 84c0 1 1 2 1 3c8 16 32 6 25 -11c-9 -24 -25 -47 -46 -70s-45 -34 -72 -34c-47 0 -71 21 -71 63c0 17 4 34 13 52zM372 572l-139 -98c-9 -5 -16 -4 -21 3s-3 14 6 20l139 98c21 10 32 -12 15 -23z" />
    <glyph glyph-name="Rcommaaccent" unicode="&#x156;" horiz-adv-x="932" 
d="M552 -58c28 0 39 -29 23 -57c-20 -37 -49 -66 -86 -88c-20 -11 -28 13 -12 18c23 9 44 28 63 55c-17 4 -31 19 -28 36c1 20 21 36 40 36zM255 -50c65 0 125 27 165 62c21 17 41 41 61 71c21 30 37 58 50 83s29 57 46 96l67 149c3 5 9 23 12 28c41 91 75 150 102 177
c-62 35 -128 52 -199 52c-111 0 -205 -31 -264 -76c-90 -71 -128 -169 -128 -254c0 -45 13 -88 39 -129c27 -40 62 -70 105 -90c21 -10 11 -39 -12 -28c-101 44 -162 140 -162 247c0 64 18 129 61 193c61 93 181 166 360 167c103 0 191 -30 264 -90s110 -133 110 -220
c1 -74 -25 -138 -77 -193c-52 -54 -111 -85 -178 -94c13 -24 31 -60 52 -108c7 -16 12 -28 16 -36c14 -31 24 -53 30 -66s16 -34 30 -61c15 -27 27 -47 36 -60c20 -25 57 -71 89 -88s78 -33 127 -33c97 0 158 57 167 124c-1 35 -14 63 -39 86c-12 13 3 30 18 22
c35 -23 53 -68 50 -112c-5 -39 -25 -73 -60 -104s-80 -46 -137 -46c-76 0 -142 31 -183 67c-21 17 -42 43 -63 77c-21 33 -38 61 -49 84s-25 55 -43 97l-8 18h1c-27 63 -49 108 -66 135c-9 16 -6 27 10 32c62 1 118 27 169 77c51 51 77 112 78 183c0 85 -39 154 -117 209
c-30 -27 -64 -85 -102 -173c-7 -15 -11 -23 -12 -25l-64 -144c-19 -41 -35 -76 -49 -103c-13 -27 -31 -56 -53 -89c-22 -32 -44 -57 -66 -75c-44 -37 -109 -68 -184 -69c-68 1 -122 34 -137 79c-6 24 22 28 30 7c11 -32 55 -56 107 -56z" />
    <glyph glyph-name="rcommaaccent" unicode="&#x157;" horiz-adv-x="283" 
d="M9 -58c28 0 39 -29 23 -57c-20 -37 -49 -66 -86 -88c-20 -11 -28 13 -12 18c23 9 44 28 63 55c-17 4 -31 19 -28 36c1 20 21 36 40 36zM133 115l75 161c7 16 11 29 11 39c0 24 -13 37 -34 36c-16 0 -28 5 -36 15l-123 -262c-9 -19 -36 -14 -25 11l143 310l3 8
c8 17 39 6 28 -13c-13 -27 -9 -41 10 -41c40 3 64 -21 64 -64c0 -16 -4 -33 -13 -51l-75 -161c-7 -17 -11 -30 -11 -40c0 -23 14 -35 41 -35c35 0 66 28 92 84c0 1 1 2 1 3c8 16 32 6 25 -11c-9 -24 -25 -47 -46 -70s-45 -34 -72 -34c-47 0 -71 21 -71 63c0 17 4 34 13 52z
" />
    <glyph glyph-name="Rcaron" unicode="&#x158;" horiz-adv-x="932" 
d="M255 -50c65 0 125 27 165 62c21 17 41 41 61 71c21 30 37 58 50 83s29 57 46 96l67 149c3 5 9 23 12 28c41 91 75 150 102 177c-62 35 -128 52 -199 52c-111 0 -205 -31 -264 -76c-90 -71 -128 -169 -128 -254c0 -45 13 -88 39 -129c27 -40 62 -70 105 -90
c21 -10 11 -39 -12 -28c-101 44 -162 140 -162 247c0 64 18 129 61 193c61 93 181 166 360 167c103 0 191 -30 264 -90s110 -133 110 -220c1 -74 -25 -138 -77 -193c-52 -54 -111 -85 -178 -94c13 -24 31 -60 52 -108c7 -16 12 -28 16 -36c14 -31 24 -53 30 -66
s16 -34 30 -61c15 -27 27 -47 36 -60c20 -25 57 -71 89 -88s78 -33 127 -33c97 0 158 57 167 124c-1 35 -14 63 -39 86c-12 13 3 30 18 22c35 -23 53 -68 50 -112c-5 -39 -25 -73 -60 -104s-80 -46 -137 -46c-76 0 -142 31 -183 67c-21 17 -42 43 -63 77
c-21 33 -38 61 -49 84s-25 55 -43 97l-8 18h1c-27 63 -49 108 -66 135c-9 16 -6 27 10 32c62 1 118 27 169 77c51 51 77 112 78 183c0 85 -39 154 -117 209c-30 -27 -64 -85 -102 -173c-7 -15 -11 -23 -12 -25l-64 -144c-19 -41 -35 -76 -49 -103c-13 -27 -31 -56 -53 -89
c-22 -32 -44 -57 -66 -75c-44 -37 -109 -68 -184 -69c-68 1 -122 34 -137 79c-6 24 22 28 30 7c11 -32 55 -56 107 -56zM828 766l-45 98c-9 15 13 28 23 16l38 -83l119 85c21 10 32 -12 15 -23l-130 -92c-11 -7 -17 -8 -20 -1z" />
    <glyph glyph-name="rcaron" unicode="&#x159;" horiz-adv-x="283" 
d="M133 115l75 161c7 16 11 29 11 39c0 24 -13 37 -34 36c-16 0 -28 5 -36 15l-123 -262c-9 -19 -36 -14 -25 11l143 310l3 8c8 17 39 6 28 -13c-13 -27 -9 -41 10 -41c40 3 64 -21 64 -64c0 -16 -4 -33 -13 -51l-75 -161c-7 -17 -11 -30 -11 -40c0 -23 14 -35 41 -35
c35 0 66 28 92 84c0 1 1 2 1 3c8 16 32 6 25 -11c-9 -24 -25 -47 -46 -70s-45 -34 -72 -34c-47 0 -71 21 -71 63c0 17 4 34 13 52zM232 473l-45 98c-9 15 13 28 23 16l38 -83l119 85c21 10 32 -12 15 -23l-130 -92c-11 -7 -17 -8 -20 -1z" />
    <glyph glyph-name="Sacute" unicode="&#x15a;" horiz-adv-x="761" 
d="M374 -96c-83 0 -153 25 -210 76s-86 115 -86 194c0 75 25 139 76 194s117 82 196 82c131 0 203 -73 203 -170c0 -37 -15 -70 -44 -98c-19 -15 -42 3 -21 21c23 21 35 47 35 77c0 81 -62 140 -175 140c-71 0 -128 -24 -173 -73c-45 -48 -67 -106 -67 -173
c0 -69 26 -127 79 -172s116 -68 187 -68c49 0 95 11 140 33s83 56 114 102s47 99 47 158c0 31 -10 79 -31 144s-31 114 -31 149c0 50 17 90 52 121s72 46 112 46c32 0 60 -10 85 -29s38 -46 38 -80c0 -23 -9 -45 -27 -66c-17 -21 -40 -31 -69 -32c-22 0 -22 28 0 28
c40 3 66 38 66 70c0 45 -40 81 -92 81c-33 0 -63 -13 -92 -39c-29 -25 -43 -59 -43 -100c0 -33 10 -80 31 -143s31 -113 31 -150c0 -66 -17 -124 -51 -175c-68 -100 -172 -148 -280 -148zM935 865l-139 -98c-9 -5 -16 -4 -21 3s-3 14 6 20l139 98c21 10 32 -12 15 -23z" />
    <glyph glyph-name="sacute" unicode="&#x15b;" horiz-adv-x="254" 
d="M-16 6c-13 6 -25 14 -35 25c-11 13 6 32 23 20c8 -9 18 -15 30 -19c8 -3 18 -4 29 -4c33 0 61 12 84 36c24 25 37 55 40 90c1 19 -4 46 -15 80c-11 35 -18 58 -20 69l-94 -199c-11 -21 -34 -8 -25 11l136 295c8 19 39 9 28 -12l-5 -11c-7 -15 -10 -28 -11 -41
c-2 -23 4 -55 17 -97c14 -42 20 -73 19 -94c-3 -41 -20 -78 -51 -110c-30 -31 -65 -47 -106 -47c-15 0 -30 3 -44 8zM162 0c-7 0 -11 5 -11 14s4 14 11 14c35 0 66 28 92 84c0 1 1 2 1 3c8 16 32 6 25 -11c-9 -24 -25 -47 -46 -70s-45 -34 -72 -34zM300 572l-139 -98
c-9 -5 -16 -4 -21 3s-3 14 6 20l139 98c21 10 32 -12 15 -23z" />
    <glyph glyph-name="Scedilla" unicode="&#x15e;" horiz-adv-x="761" 
d="M374 -96c-7 0 -22 1 -27 1c-1 -1 -1 -1 -1 -2c-7 -15 -9 -27 -7 -34c5 -15 21 -46 21 -67c0 -37 -31 -68 -68 -68c-13 0 -25 3 -36 10c-19 9 -4 39 16 26c7 -4 13 -6 20 -6c21 0 38 17 38 38c0 11 -3 22 -9 35s-10 23 -12 31c-2 7 1 21 8 41c-69 11 -127 41 -172 89
s-67 107 -67 176c0 75 25 139 76 194s117 82 196 82c131 0 203 -73 203 -170c0 -37 -15 -70 -44 -98c-19 -15 -42 3 -21 21c23 21 35 47 35 77c0 81 -62 140 -175 140c-71 0 -128 -24 -173 -73c-45 -48 -67 -106 -67 -173c0 -69 26 -127 79 -172s116 -68 187 -68
c49 0 95 11 140 33s83 56 114 102s47 99 47 158c0 31 -10 79 -31 144s-31 114 -31 149c0 50 17 90 52 121s72 46 112 46c32 0 60 -10 85 -29s38 -46 38 -80c0 -23 -9 -45 -27 -66c-17 -21 -40 -31 -69 -32c-22 0 -22 28 0 28c40 3 66 38 66 70c0 45 -40 81 -92 81
c-33 0 -63 -13 -92 -39c-29 -25 -43 -59 -43 -100c0 -33 10 -80 31 -143s31 -113 31 -150c0 -66 -17 -124 -51 -175c-68 -100 -172 -148 -280 -148z" />
    <glyph glyph-name="scedilla" unicode="&#x15f;" horiz-adv-x="254" 
d="M-16 6c-13 6 -25 14 -35 25c-11 13 6 32 23 20c8 -9 18 -15 30 -19c8 -3 18 -4 29 -4c33 0 61 12 84 36c24 25 37 55 40 90c1 19 -4 46 -15 80c-11 35 -18 58 -20 69l-94 -199c-11 -21 -34 -8 -25 11l136 295c8 19 39 9 28 -12l-5 -11c-7 -15 -10 -28 -11 -41
c-2 -23 4 -55 17 -97c14 -42 20 -73 19 -94c-3 -39 -19 -74 -46 -105s-60 -48 -98 -51c-5 -13 -4 -29 5 -49s13 -35 13 -46c0 -37 -31 -68 -68 -68c-13 0 -25 3 -36 10c-19 9 -4 39 16 26c7 -4 13 -6 20 -6c21 0 38 17 38 38c0 10 -4 25 -13 44s-10 36 -5 51
c-6 1 -15 3 -27 7zM162 0c-7 0 -11 5 -11 14s4 14 11 14c35 0 66 28 92 84c0 1 1 2 1 3c8 16 32 6 25 -11c-9 -24 -25 -47 -46 -70s-45 -34 -72 -34z" />
    <glyph glyph-name="Scaron" unicode="&#x160;" horiz-adv-x="761" 
d="M374 -96c-83 0 -153 25 -210 76s-86 115 -86 194c0 75 25 139 76 194s117 82 196 82c131 0 203 -73 203 -170c0 -37 -15 -70 -44 -98c-19 -15 -42 3 -21 21c23 21 35 47 35 77c0 81 -62 140 -175 140c-71 0 -128 -24 -173 -73c-45 -48 -67 -106 -67 -173
c0 -69 26 -127 79 -172s116 -68 187 -68c49 0 95 11 140 33s83 56 114 102s47 99 47 158c0 31 -10 79 -31 144s-31 114 -31 149c0 50 17 90 52 121s72 46 112 46c32 0 60 -10 85 -29s38 -46 38 -80c0 -23 -9 -45 -27 -66c-17 -21 -40 -31 -69 -32c-22 0 -22 28 0 28
c40 3 66 38 66 70c0 45 -40 81 -92 81c-33 0 -63 -13 -92 -39c-29 -25 -43 -59 -43 -100c0 -33 10 -80 31 -143s31 -113 31 -150c0 -66 -17 -124 -51 -175c-68 -100 -172 -148 -280 -148zM823 766l-45 98c-9 15 13 28 23 16l38 -83l119 85c21 10 32 -12 15 -23l-130 -92
c-11 -7 -17 -8 -20 -1z" />
    <glyph glyph-name="scaron" unicode="&#x161;" horiz-adv-x="254" 
d="M-16 6c-13 6 -25 14 -35 25c-11 13 6 32 23 20c8 -9 18 -15 30 -19c8 -3 18 -4 29 -4c33 0 61 12 84 36c24 25 37 55 40 90c1 19 -4 46 -15 80c-11 35 -18 58 -20 69l-94 -199c-11 -21 -34 -8 -25 11l136 295c8 19 39 9 28 -12l-5 -11c-7 -15 -10 -28 -11 -41
c-2 -23 4 -55 17 -97c14 -42 20 -73 19 -94c-3 -41 -20 -78 -51 -110c-30 -31 -65 -47 -106 -47c-15 0 -30 3 -44 8zM162 0c-7 0 -11 5 -11 14s4 14 11 14c35 0 66 28 92 84c0 1 1 2 1 3c8 16 32 6 25 -11c-9 -24 -25 -47 -46 -70s-45 -34 -72 -34zM166 473l-45 98
c-9 15 13 28 23 16l38 -83l119 85c21 10 32 -12 15 -23l-130 -92c-11 -7 -17 -8 -20 -1z" />
    <glyph glyph-name="Tcommaaccent" unicode="&#x162;" horiz-adv-x="585" 
d="M120 -46c87 -4 154 37 199 84c15 15 30 36 45 61c15 26 28 49 37 68c10 19 22 45 37 78l67 149c52 114 97 185 134 213c-72 19 -125 30 -159 33c-147 8 -268 -36 -337 -107c-68 -71 -104 -155 -104 -236c0 -97 52 -182 144 -219c26 -9 12 -40 -12 -29
c-104 44 -162 139 -162 247c0 71 22 142 73 209c26 34 57 64 93 89c72 51 181 82 305 77c42 -2 108 -16 199 -43s152 -40 183 -40c80 0 125 39 129 79c0 21 31 19 29 -3c-2 -26 -18 -50 -47 -72s-66 -33 -111 -33c-31 -1 -95 12 -191 39c-48 -35 -84 -100 -137 -215
l-67 -144c-17 -37 -30 -66 -41 -87s-24 -45 -41 -73c-16 -27 -32 -49 -48 -65c-48 -50 -120 -93 -216 -90c-72 0 -131 32 -142 79c-2 11 2 17 12 19c9 2 15 -2 18 -13c7 -32 54 -55 111 -55z" />
    <glyph glyph-name="tcommaaccent" unicode="&#x163;" horiz-adv-x="159" 
d="M9 -58c28 0 39 -29 23 -57c-20 -37 -49 -66 -86 -88c-20 -11 -28 13 -12 18c23 9 44 28 63 55c-17 4 -31 19 -28 36c1 20 21 36 40 36zM193 342h-55l-109 -239c-7 -17 -11 -30 -11 -40c0 -23 16 -35 49 -35c35 0 66 28 92 84c0 1 1 2 1 3c8 16 32 6 25 -11
c-9 -24 -25 -47 -46 -70s-45 -34 -72 -34c-53 0 -79 21 -79 63c0 17 4 34 13 52l104 227h-29c-9 0 -13 4 -11 13c3 9 9 14 20 15h32l49 106c8 19 36 9 28 -12l-43 -94h51c9 0 12 -5 9 -14s-9 -14 -18 -14z" />
    <glyph glyph-name="Tcaron" unicode="&#x164;" horiz-adv-x="585" 
d="M120 -46c87 -4 154 37 199 84c15 15 30 36 45 61c15 26 28 49 37 68c10 19 22 45 37 78l67 149c52 114 97 185 134 213c-72 19 -125 30 -159 33c-147 8 -268 -36 -337 -107c-68 -71 -104 -155 -104 -236c0 -97 52 -182 144 -219c26 -9 12 -40 -12 -29
c-104 44 -162 139 -162 247c0 71 22 142 73 209c26 34 57 64 93 89c72 51 181 82 305 77c42 -2 108 -16 199 -43s152 -40 183 -40c80 0 125 39 129 79c0 21 31 19 29 -3c-2 -26 -18 -50 -47 -72s-66 -33 -111 -33c-31 -1 -95 12 -191 39c-48 -35 -84 -100 -137 -215
l-67 -144c-17 -37 -30 -66 -41 -87s-24 -45 -41 -73c-16 -27 -32 -49 -48 -65c-48 -50 -120 -93 -216 -90c-72 0 -131 32 -142 79c-2 11 2 17 12 19c9 2 15 -2 18 -13c7 -32 54 -55 111 -55zM697 766l-45 98c-9 15 13 28 23 16l38 -83l119 85c21 10 32 -12 15 -23l-130 -92
c-11 -7 -17 -8 -20 -1z" />
    <glyph glyph-name="tcaron" unicode="&#x165;" horiz-adv-x="264" 
d="M192 342h-55l-109 -239c-7 -17 -11 -30 -11 -40c0 -23 16 -35 49 -35c35 0 66 28 92 84c0 1 1 2 1 3c8 16 32 6 25 -11c-9 -24 -25 -47 -46 -70s-45 -34 -72 -34c-53 0 -79 21 -79 63c0 17 4 34 13 52l104 227h-29c-9 0 -13 4 -11 13c3 9 9 14 20 15h32l49 106
c8 19 36 9 28 -12l-43 -94h51c9 0 12 -5 9 -14s-9 -14 -18 -14zM359 595c28 0 39 -29 23 -57c-20 -37 -49 -66 -86 -88c-20 -11 -28 13 -12 18c23 9 44 28 63 55c-17 4 -31 19 -28 36c1 20 21 36 40 36z" />
    <glyph glyph-name="Umacron" unicode="&#x16a;" horiz-adv-x="743" 
d="M683 -254c-68 0 -114 36 -134 95s-25 120 -20 193c-65 -59 -125 -89 -182 -89c-130 0 -144 122 -100 216l117 254c41 87 38 193 -66 240c-45 23 -92 27 -142 12s-85 -45 -106 -91c-15 -34 -17 -68 -6 -101s31 -57 60 -71c44 -19 118 -17 139 38c9 28 35 10 29 -9
c-7 -22 -22 -39 -44 -52c-43 -24 -91 -19 -135 -2c-37 17 -62 45 -76 85c-14 41 -12 82 5 123c24 52 64 87 121 105c57 19 112 15 167 -10c104 -48 137 -153 80 -278l-117 -255c-33 -70 -35 -175 74 -175c57 0 119 34 186 102c7 57 15 100 23 129c23 92 51 171 84 236
s63 98 89 98c25 0 44 -26 44 -57c-3 -59 -25 -128 -66 -209s-90 -151 -148 -211c-12 -129 5 -286 125 -286c39 0 69 11 89 34c21 23 31 47 32 73c1 16 -1 27 -8 32c-16 14 7 34 23 22c11 -11 16 -29 15 -54c-1 -33 -15 -64 -41 -93c-25 -29 -62 -44 -111 -44zM584 200
c-8 -24 -14 -54 -19 -90c49 57 91 122 125 193c35 72 53 133 54 183c1 15 -8 24 -17 24c-17 0 -39 -30 -65 -89s-52 -133 -78 -221zM710 742h-179c-10 0 -15 5 -15 14s5 14 15 14h179c22 0 22 -28 0 -28z" />
    <glyph glyph-name="umacron" unicode="&#x16b;" 
d="M141 348l-113 -245c-7 -16 -11 -29 -11 -39c0 -24 15 -36 46 -36c34 0 63 26 88 77l5 10l112 245c8 19 36 9 28 -12l-112 -245c-7 -17 -11 -30 -11 -40c0 -23 14 -35 41 -35c35 0 66 28 92 84c0 1 1 2 1 3c8 16 32 6 25 -11c-9 -24 -25 -47 -46 -70s-45 -34 -72 -34
c-40 0 -63 15 -70 46c-24 -31 -51 -46 -81 -46c-47 0 -76 23 -76 64c0 16 4 33 13 51l113 245c8 19 36 9 28 -12zM327 449h-179c-10 0 -15 5 -15 14s5 14 15 14h179c22 0 22 -28 0 -28z" />
    <glyph glyph-name="Uring" unicode="&#x16e;" horiz-adv-x="743" 
d="M683 -254c-68 0 -114 36 -134 95s-25 120 -20 193c-65 -59 -125 -89 -182 -89c-130 0 -144 122 -100 216l117 254c41 87 38 193 -66 240c-45 23 -92 27 -142 12s-85 -45 -106 -91c-15 -34 -17 -68 -6 -101s31 -57 60 -71c44 -19 118 -17 139 38c9 28 35 10 29 -9
c-7 -22 -22 -39 -44 -52c-43 -24 -91 -19 -135 -2c-37 17 -62 45 -76 85c-14 41 -12 82 5 123c24 52 64 87 121 105c57 19 112 15 167 -10c104 -48 137 -153 80 -278l-117 -255c-33 -70 -35 -175 74 -175c57 0 119 34 186 102c7 57 15 100 23 129c23 92 51 171 84 236
s63 98 89 98c25 0 44 -26 44 -57c-3 -59 -25 -128 -66 -209s-90 -151 -148 -211c-12 -129 5 -286 125 -286c39 0 69 11 89 34c21 23 31 47 32 73c1 16 -1 27 -8 32c-16 14 7 34 23 22c11 -11 16 -29 15 -54c-1 -33 -15 -64 -41 -93c-25 -29 -62 -44 -111 -44zM584 200
c-8 -24 -14 -54 -19 -90c49 57 91 122 125 193c35 72 53 133 54 183c1 15 -8 24 -17 24c-17 0 -39 -30 -65 -89s-52 -133 -78 -221zM585 794c0 24 10 46 29 65c20 19 43 29 69 29c36 0 61 -26 61 -62c0 -25 -10 -47 -31 -66c-20 -19 -42 -28 -65 -28c-36 0 -63 27 -63 62z
M677 858c-31 0 -60 -27 -60 -60c0 -21 14 -36 37 -36c29 0 59 26 59 57c0 23 -15 39 -36 39z" />
    <glyph glyph-name="uring" unicode="&#x16f;" 
d="M141 348l-113 -245c-7 -16 -11 -29 -11 -39c0 -24 15 -36 46 -36c34 0 63 26 88 77l5 10l112 245c8 19 36 9 28 -12l-112 -245c-7 -17 -11 -30 -11 -40c0 -23 14 -35 41 -35c35 0 66 28 92 84c0 1 1 2 1 3c8 16 32 6 25 -11c-9 -24 -25 -47 -46 -70s-45 -34 -72 -34
c-40 0 -63 15 -70 46c-24 -31 -51 -46 -81 -46c-47 0 -76 23 -76 64c0 16 4 33 13 51l113 245c8 19 36 9 28 -12zM173 501c0 24 10 46 29 65c20 19 43 29 69 29c36 0 61 -26 61 -62c0 -25 -10 -47 -31 -66c-20 -19 -42 -28 -65 -28c-36 0 -63 27 -63 62zM265 565
c-31 0 -60 -27 -60 -60c0 -21 14 -36 37 -36c29 0 59 26 59 57c0 23 -15 39 -36 39z" />
    <glyph glyph-name="Uhungarumlaut" unicode="&#x170;" horiz-adv-x="743" 
d="M683 -254c-68 0 -114 36 -134 95s-25 120 -20 193c-65 -59 -125 -89 -182 -89c-130 0 -144 122 -100 216l117 254c41 87 38 193 -66 240c-45 23 -92 27 -142 12s-85 -45 -106 -91c-15 -34 -17 -68 -6 -101s31 -57 60 -71c44 -19 118 -17 139 38c9 28 35 10 29 -9
c-7 -22 -22 -39 -44 -52c-43 -24 -91 -19 -135 -2c-37 17 -62 45 -76 85c-14 41 -12 82 5 123c24 52 64 87 121 105c57 19 112 15 167 -10c104 -48 137 -153 80 -278l-117 -255c-33 -70 -35 -175 74 -175c57 0 119 34 186 102c7 57 15 100 23 129c23 92 51 171 84 236
s63 98 89 98c25 0 44 -26 44 -57c-3 -59 -25 -128 -66 -209s-90 -151 -148 -211c-12 -129 5 -286 125 -286c39 0 69 11 89 34c21 23 31 47 32 73c1 16 -1 27 -8 32c-16 14 7 34 23 22c11 -11 16 -29 15 -54c-1 -33 -15 -64 -41 -93c-25 -29 -62 -44 -111 -44zM584 200
c-8 -24 -14 -54 -19 -90c49 57 91 122 125 193c35 72 53 133 54 183c1 15 -8 24 -17 24c-17 0 -39 -30 -65 -89s-52 -133 -78 -221zM770 865l-139 -98c-9 -5 -16 -4 -21 3s-3 14 6 20l139 98c21 10 32 -12 15 -23zM869 865l-139 -98c-9 -5 -16 -4 -21 3s-3 14 6 20l139 98
c21 10 32 -12 15 -23z" />
    <glyph glyph-name="uhungarumlaut" unicode="&#x171;" 
d="M141 348l-113 -245c-7 -16 -11 -29 -11 -39c0 -24 15 -36 46 -36c34 0 63 26 88 77l5 10l112 245c8 19 36 9 28 -12l-112 -245c-7 -17 -11 -30 -11 -40c0 -23 14 -35 41 -35c35 0 66 28 92 84c0 1 1 2 1 3c8 16 32 6 25 -11c-9 -24 -25 -47 -46 -70s-45 -34 -72 -34
c-40 0 -63 15 -70 46c-24 -31 -51 -46 -81 -46c-47 0 -76 23 -76 64c0 16 4 33 13 51l113 245c8 19 36 9 28 -12zM325 572l-139 -98c-9 -5 -16 -4 -21 3s-3 14 6 20l139 98c21 10 32 -12 15 -23zM424 572l-139 -98c-9 -5 -16 -4 -21 3s-3 14 6 20l139 98
c21 10 32 -12 15 -23z" />
    <glyph glyph-name="Uogonek" unicode="&#x172;" horiz-adv-x="743" 
d="M683 -254c-68 0 -114 36 -134 95s-25 120 -20 193c-49 -44 -96 -72 -142 -84c-33 -17 -49 -36 -49 -59s13 -35 39 -35c17 0 33 7 47 20c9 8 15 8 20 -1c4 -8 3 -15 -4 -22c-19 -18 -40 -27 -63 -27c-44 0 -69 28 -69 65c0 19 9 38 26 55c-117 8 -132 124 -87 215l117 254
c41 87 38 193 -66 240c-45 23 -92 27 -142 12s-85 -45 -106 -91c-15 -34 -17 -68 -6 -101s31 -57 60 -71c44 -19 118 -17 139 38c9 28 35 10 29 -9c-7 -22 -22 -39 -44 -52c-43 -24 -91 -19 -135 -2c-37 17 -62 45 -76 85c-14 41 -12 82 5 123c24 52 64 87 121 105
c57 19 112 15 167 -10c104 -48 137 -153 80 -278l-117 -255c-33 -70 -35 -175 74 -175c57 0 119 34 186 102c7 57 15 100 23 129c23 92 51 171 84 236s63 98 89 98c25 0 44 -26 44 -57c-3 -59 -25 -128 -66 -209s-90 -151 -148 -211c-12 -129 5 -286 125 -286
c39 0 69 11 89 34c21 23 31 47 32 73c1 16 -1 27 -8 32c-16 14 7 34 23 22c11 -11 16 -29 15 -54c-1 -33 -15 -64 -41 -93c-25 -29 -62 -44 -111 -44zM584 200c-8 -24 -14 -54 -19 -90c49 57 91 122 125 193c35 72 53 133 54 183c1 15 -8 24 -17 24c-17 0 -39 -30 -65 -89
s-52 -133 -78 -221z" />
    <glyph glyph-name="uogonek" unicode="&#x173;" 
d="M141 348l-113 -245c-7 -16 -11 -29 -11 -39c0 -24 15 -36 46 -36c34 0 63 26 88 77l117 255c8 19 36 9 28 -12l-112 -245c-7 -17 -11 -30 -11 -40c0 -23 14 -35 41 -35c35 0 66 28 92 84c0 1 1 2 1 3c8 16 32 6 25 -11c-15 -37 -47 -82 -86 -98c-28 -16 -42 -34 -42 -55
c0 -23 13 -35 39 -35c17 0 33 7 47 20c9 8 15 8 20 -1c5 -7 3 -15 -4 -22c-19 -18 -40 -27 -63 -27c-44 0 -69 28 -69 65c0 18 7 35 22 50c-29 4 -46 19 -52 45c-24 -31 -51 -46 -81 -46c-47 0 -76 23 -76 64c0 16 4 33 13 51l113 245c8 19 36 9 28 -12z" />
    <glyph glyph-name="Ydieresis" unicode="&#x178;" horiz-adv-x="719" 
d="M397 2c-129 0 -144 122 -100 216l90 197c42 88 36 193 -66 240c-44 23 -91 27 -141 12s-85 -45 -106 -91c-16 -33 -18 -67 -7 -101c11 -33 31 -57 60 -71c43 -19 119 -18 140 38c6 28 34 10 28 -9c-11 -33 -36 -54 -75 -64c-39 -9 -74 -6 -104 10c-36 17 -61 45 -76 85
c-14 41 -12 82 5 123c24 53 64 88 121 106s113 14 167 -11c105 -48 139 -152 80 -277l-91 -199c-30 -70 -35 -175 75 -175c61 0 113 22 149 61s55 68 76 112l11 24l132 287c5 13 13 17 23 13c9 -3 11 -10 7 -20l-253 -549c-61 -133 -137 -199 -230 -198
c-79 0 -118 41 -118 96c-1 23 8 45 26 66s42 31 71 32c9 1 14 -3 15 -12s-4 -14 -13 -14h-4c-40 -4 -65 -40 -65 -72c-1 -39 29 -69 89 -68c73 -1 147 62 196 170l53 115c-49 -48 -104 -72 -165 -72zM625 725c-16 0 -25 12 -22 27c2 24 35 37 49 19c15 -17 -4 -46 -27 -46z
M714 725c-16 0 -25 12 -22 27c2 24 35 37 49 19c15 -17 -4 -46 -27 -46z" />
    <glyph glyph-name="Zacute" unicode="&#x179;" horiz-adv-x="772" 
d="M495 674c49 0 96 -7 141 -21s90 -31 134 -52c45 -21 80 -34 105 -41l5 5c53 63 103 94 148 94c47 0 69 -23 69 -55c0 -20 -13 -39 -40 -58c-26 -19 -59 -28 -98 -28c-25 0 -49 3 -73 9l-413 -469c-11 -13 -24 -27 -39 -40c25 -19 58 -47 99 -84s77 -69 108 -94
s66 -52 107 -79c81 -55 168 -83 260 -83c59 0 108 15 145 45c38 29 59 64 64 103c3 33 -9 62 -37 87c-17 13 0 30 15 21c39 -23 56 -61 51 -112c-5 -46 -29 -86 -72 -121s-98 -53 -167 -53c-44 0 -90 9 -127 18c-18 4 -38 11 -59 21c-41 19 -65 29 -106 58
c-21 14 -37 25 -49 34c-11 8 -27 21 -48 38c-20 17 -35 30 -44 39c-9 8 -24 22 -45 41s-35 31 -42 38c-22 21 -47 42 -75 64c-71 -59 -143 -88 -218 -88c-49 -1 -91 9 -124 28s-50 44 -50 77c0 78 91 113 166 111c69 0 144 -30 225 -91c17 17 31 31 40 42l403 458
c-19 7 -52 20 -98 41c-91 41 -170 67 -263 67c-71 0 -143 -35 -171 -98c-15 -34 -17 -68 -6 -101s31 -57 60 -71c44 -19 118 -17 139 38c9 28 35 10 29 -9c-7 -22 -22 -39 -44 -52c-43 -24 -91 -19 -135 -2c-37 17 -62 45 -76 85c-14 41 -12 82 5 123c17 36 44 64 81 85
c38 21 78 32 120 32zM194 -59c66 0 131 25 194 76c-74 53 -141 80 -201 80c-84 0 -136 -31 -135 -80c0 -23 14 -42 43 -55c29 -14 62 -21 99 -21zM1028 629c-35 0 -75 -26 -119 -77c14 -3 31 -4 50 -4c61 0 108 29 108 56c0 17 -13 25 -39 25zM1090 865l-139 -98
c-9 -5 -16 -4 -21 3s-3 14 6 20l139 98c21 10 32 -12 15 -23z" />
    <glyph glyph-name="zacute" unicode="&#x17a;" horiz-adv-x="299" 
d="M0 115l146 305c8 17 39 6 28 -13c-11 -31 1 -41 21 -41h90l3 4c13 14 37 -1 24 -18l-164 -187c57 -20 58 -103 -3 -216c-63 -117 -141 -175 -233 -175c-80 0 -119 42 -119 97c0 23 9 45 27 66c17 21 40 31 69 32c21 0 21 -28 0 -28c-40 -3 -66 -38 -66 -70
c0 -39 29 -69 89 -69c76 0 151 54 204 155c59 111 59 185 0 185c-4 0 -9 -1 -16 -2c-7 -2 -10 1 -10 10c1 11 6 17 15 19c3 0 8 1 11 1h1l144 168h-66c-19 0 -34 7 -45 21l-125 -255c-9 -19 -36 -14 -25 11zM206 0c-7 0 -11 5 -11 14s4 14 11 14c35 0 66 28 92 84
c0 1 1 2 1 3c8 16 32 6 25 -11c-9 -24 -25 -47 -46 -70s-45 -34 -72 -34zM363 572l-139 -98c-9 -5 -16 -4 -21 3s-3 14 6 20l139 98c21 10 32 -12 15 -23z" />
    <glyph glyph-name="Zdotaccent" unicode="&#x17b;" horiz-adv-x="772" 
d="M495 674c49 0 96 -7 141 -21s90 -31 134 -52c45 -21 80 -34 105 -41l5 5c53 63 103 94 148 94c47 0 69 -23 69 -55c0 -20 -13 -39 -40 -58c-26 -19 -59 -28 -98 -28c-25 0 -49 3 -73 9l-413 -469c-11 -13 -24 -27 -39 -40c25 -19 58 -47 99 -84s77 -69 108 -94
s66 -52 107 -79c81 -55 168 -83 260 -83c59 0 108 15 145 45c38 29 59 64 64 103c3 33 -9 62 -37 87c-17 13 0 30 15 21c39 -23 56 -61 51 -112c-5 -46 -29 -86 -72 -121s-98 -53 -167 -53c-44 0 -90 9 -127 18c-18 4 -38 11 -59 21c-41 19 -65 29 -106 58
c-21 14 -37 25 -49 34c-11 8 -27 21 -48 38c-20 17 -35 30 -44 39c-9 8 -24 22 -45 41s-35 31 -42 38c-22 21 -47 42 -75 64c-71 -59 -143 -88 -218 -88c-49 -1 -91 9 -124 28s-50 44 -50 77c0 78 91 113 166 111c69 0 144 -30 225 -91c17 17 31 31 40 42l403 458
c-19 7 -52 20 -98 41c-91 41 -170 67 -263 67c-71 0 -143 -35 -171 -98c-15 -34 -17 -68 -6 -101s31 -57 60 -71c44 -19 118 -17 139 38c9 28 35 10 29 -9c-7 -22 -22 -39 -44 -52c-43 -24 -91 -19 -135 -2c-37 17 -62 45 -76 85c-14 41 -12 82 5 123c17 36 44 64 81 85
c38 21 78 32 120 32zM194 -59c66 0 131 25 194 76c-74 53 -141 80 -201 80c-84 0 -136 -31 -135 -80c0 -23 14 -42 43 -55c29 -14 62 -21 99 -21zM1028 629c-35 0 -75 -26 -119 -77c14 -3 31 -4 50 -4c61 0 108 29 108 56c0 17 -13 25 -39 25zM856 725c-16 0 -25 12 -22 27
c2 24 35 37 49 19c15 -17 -4 -46 -27 -46z" />
    <glyph glyph-name="zdotaccent" unicode="&#x17c;" horiz-adv-x="299" 
d="M0 115l146 305c8 17 39 6 28 -13c-11 -31 1 -41 21 -41h90l3 4c13 14 37 -1 24 -18l-164 -187c57 -20 58 -103 -3 -216c-63 -117 -141 -175 -233 -175c-80 0 -119 42 -119 97c0 23 9 45 27 66c17 21 40 31 69 32c21 0 21 -28 0 -28c-40 -3 -66 -38 -66 -70
c0 -39 29 -69 89 -69c76 0 151 54 204 155c59 111 59 185 0 185c-4 0 -9 -1 -16 -2c-7 -2 -10 1 -10 10c1 11 6 17 15 19c3 0 8 1 11 1h1l144 168h-66c-19 0 -34 7 -45 21l-125 -255c-9 -19 -36 -14 -25 11zM206 0c-7 0 -11 5 -11 14s4 14 11 14c35 0 66 28 92 84
c0 1 1 2 1 3c8 16 32 6 25 -11c-9 -24 -25 -47 -46 -70s-45 -34 -72 -34zM255 432c-16 0 -25 12 -22 27c2 24 35 37 49 19c15 -17 -4 -46 -27 -46z" />
    <glyph glyph-name="Zcaron" unicode="&#x17d;" horiz-adv-x="772" 
d="M495 674c49 0 96 -7 141 -21s90 -31 134 -52c45 -21 80 -34 105 -41l5 5c53 63 103 94 148 94c47 0 69 -23 69 -55c0 -20 -13 -39 -40 -58c-26 -19 -59 -28 -98 -28c-25 0 -49 3 -73 9l-413 -469c-11 -13 -24 -27 -39 -40c25 -19 58 -47 99 -84s77 -69 108 -94
s66 -52 107 -79c81 -55 168 -83 260 -83c59 0 108 15 145 45c38 29 59 64 64 103c3 33 -9 62 -37 87c-17 13 0 30 15 21c39 -23 56 -61 51 -112c-5 -46 -29 -86 -72 -121s-98 -53 -167 -53c-44 0 -90 9 -127 18c-18 4 -38 11 -59 21c-41 19 -65 29 -106 58
c-21 14 -37 25 -49 34c-11 8 -27 21 -48 38c-20 17 -35 30 -44 39c-9 8 -24 22 -45 41s-35 31 -42 38c-22 21 -47 42 -75 64c-71 -59 -143 -88 -218 -88c-49 -1 -91 9 -124 28s-50 44 -50 77c0 78 91 113 166 111c69 0 144 -30 225 -91c17 17 31 31 40 42l403 458
c-19 7 -52 20 -98 41c-91 41 -170 67 -263 67c-71 0 -143 -35 -171 -98c-15 -34 -17 -68 -6 -101s31 -57 60 -71c44 -19 118 -17 139 38c9 28 35 10 29 -9c-7 -22 -22 -39 -44 -52c-43 -24 -91 -19 -135 -2c-37 17 -62 45 -76 85c-14 41 -12 82 5 123c17 36 44 64 81 85
c38 21 78 32 120 32zM194 -59c66 0 131 25 194 76c-74 53 -141 80 -201 80c-84 0 -136 -31 -135 -80c0 -23 14 -42 43 -55c29 -14 62 -21 99 -21zM1028 629c-35 0 -75 -26 -119 -77c14 -3 31 -4 50 -4c61 0 108 29 108 56c0 17 -13 25 -39 25zM790 766l-45 98
c-9 15 13 28 23 16l38 -83l119 85c21 10 32 -12 15 -23l-130 -92c-11 -7 -17 -8 -20 -1z" />
    <glyph glyph-name="zcaron" unicode="&#x17e;" horiz-adv-x="299" 
d="M0 115l146 305c8 17 39 6 28 -13c-11 -31 1 -41 21 -41h90l3 4c13 14 37 -1 24 -18l-164 -187c57 -20 58 -103 -3 -216c-63 -117 -141 -175 -233 -175c-80 0 -119 42 -119 97c0 23 9 45 27 66c17 21 40 31 69 32c21 0 21 -28 0 -28c-40 -3 -66 -38 -66 -70
c0 -39 29 -69 89 -69c76 0 151 54 204 155c59 111 59 185 0 185c-4 0 -9 -1 -16 -2c-7 -2 -10 1 -10 10c1 11 6 17 15 19c3 0 8 1 11 1h1l144 168h-66c-19 0 -34 7 -45 21l-125 -255c-9 -19 -36 -14 -25 11zM206 0c-7 0 -11 5 -11 14s4 14 11 14c35 0 66 28 92 84
c0 1 1 2 1 3c8 16 32 6 25 -11c-9 -24 -25 -47 -46 -70s-45 -34 -72 -34zM242 473l-45 98c-9 15 13 28 23 16l38 -83l119 85c21 10 32 -12 15 -23l-130 -92c-11 -7 -17 -8 -20 -1z" />
    <glyph glyph-name="florin" unicode="&#x192;" horiz-adv-x="156" 
d="M203 342h-66l-169 -370c-60 -132 -136 -198 -229 -198c-80 0 -119 42 -119 97c0 23 9 45 27 66c17 21 40 31 69 32c21 0 21 -28 0 -28c-40 -3 -66 -38 -66 -70c0 -39 29 -69 89 -69c73 0 148 63 196 170l169 370h-18c-9 0 -13 4 -11 13c3 9 9 14 20 15h22l39 84
c63 137 140 205 232 205c80 0 119 -42 119 -97c0 -23 -9 -45 -27 -66c-17 -21 -40 -31 -69 -32c-21 0 -21 28 0 28c40 3 66 38 66 70c0 39 -29 69 -89 69c-73 0 -147 -62 -196 -170l-42 -91h62c9 0 12 -5 9 -14s-9 -14 -18 -14z" />
    <glyph glyph-name="Ohorn" unicode="&#x1a0;" horiz-adv-x="833" 
d="M116 306c23 101 77 187 160 258c83 72 172 108 265 108c80 0 145 -27 195 -80s75 -120 75 -202c0 -27 -3 -57 -10 -89c-23 -101 -77 -187 -160 -258s-172 -107 -265 -107c-80 0 -145 26 -196 79c-50 53 -75 121 -75 203c0 28 4 57 11 88zM145 301c-7 -33 -10 -61 -10 -83
c0 -73 22 -134 66 -181c45 -47 103 -71 175 -71c85 0 167 33 244 100s128 147 151 240c7 29 10 57 10 84c0 73 -22 134 -66 181s-102 71 -174 71c-87 0 -170 -33 -247 -100s-127 -147 -149 -241z" />
    <glyph glyph-name="ohorn" unicode="&#x1a1;" horiz-adv-x="269" 
d="M63 0c-47 0 -76 23 -76 64c0 16 4 33 13 51l74 158c31 68 70 102 119 102c47 0 76 -23 76 -64c0 -16 -4 -33 -13 -51l-74 -158c-31 -68 -70 -102 -119 -102zM17 64c0 -24 15 -36 46 -36c35 0 66 30 93 90l72 154c7 16 11 29 11 39c0 24 -15 36 -46 36
c-35 0 -66 -30 -93 -90l-72 -154c-7 -16 -11 -29 -11 -39z" />
    <glyph glyph-name="Uhorn" unicode="&#x1af;" horiz-adv-x="743" 
d="M683 -254c-68 0 -114 36 -134 95s-25 120 -20 193c-65 -59 -125 -89 -182 -89c-130 0 -144 122 -100 216l117 254c41 87 38 193 -66 240c-45 23 -92 27 -142 12s-85 -45 -106 -91c-15 -34 -17 -68 -6 -101s31 -57 60 -71c44 -19 118 -17 139 38c9 28 35 10 29 -9
c-7 -22 -22 -39 -44 -52c-43 -24 -91 -19 -135 -2c-37 17 -62 45 -76 85c-14 41 -12 82 5 123c24 52 64 87 121 105c57 19 112 15 167 -10c104 -48 137 -153 80 -278l-117 -255c-33 -70 -35 -175 74 -175c57 0 119 34 186 102c7 57 15 100 23 129c23 92 51 171 84 236
s63 98 89 98c25 0 44 -26 44 -57c-3 -59 -25 -128 -66 -209s-90 -151 -148 -211c-12 -129 5 -286 125 -286c39 0 69 11 89 34c21 23 31 47 32 73c1 16 -1 27 -8 32c-16 14 7 34 23 22c11 -11 16 -29 15 -54c-1 -33 -15 -64 -41 -93c-25 -29 -62 -44 -111 -44zM584 200
c-8 -24 -14 -54 -19 -90c49 57 91 122 125 193c35 72 53 133 54 183c1 15 -8 24 -17 24c-17 0 -39 -30 -65 -89s-52 -133 -78 -221z" />
    <glyph glyph-name="uhorn" unicode="&#x1b0;" 
d="M141 348l-113 -245c-7 -16 -11 -29 -11 -39c0 -24 15 -36 46 -36c34 0 63 26 88 77l5 10l112 245c8 19 36 9 28 -12l-112 -245c-7 -17 -11 -30 -11 -40c0 -23 14 -35 41 -35c35 0 66 28 92 84c0 1 1 2 1 3c8 16 32 6 25 -11c-9 -24 -25 -47 -46 -70s-45 -34 -72 -34
c-40 0 -63 15 -70 46c-24 -31 -51 -46 -81 -46c-47 0 -76 23 -76 64c0 16 4 33 13 51l113 245c8 19 36 9 28 -12z" />
    <glyph glyph-name="Scommaaccent" unicode="&#x218;" horiz-adv-x="761" 
d="M331 -141c28 0 39 -29 23 -57c-20 -37 -49 -66 -86 -88c-20 -11 -28 13 -12 18c23 9 44 28 63 55c-17 4 -31 19 -28 36c1 20 21 36 40 36zM374 -96c-83 0 -153 25 -210 76s-86 115 -86 194c0 75 25 139 76 194s117 82 196 82c131 0 203 -73 203 -170
c0 -37 -15 -70 -44 -98c-19 -15 -42 3 -21 21c23 21 35 47 35 77c0 81 -62 140 -175 140c-71 0 -128 -24 -173 -73c-45 -48 -67 -106 -67 -173c0 -69 26 -127 79 -172s116 -68 187 -68c49 0 95 11 140 33s83 56 114 102s47 99 47 158c0 31 -10 79 -31 144s-31 114 -31 149
c0 50 17 90 52 121s72 46 112 46c32 0 60 -10 85 -29s38 -46 38 -80c0 -23 -9 -45 -27 -66c-17 -21 -40 -31 -69 -32c-22 0 -22 28 0 28c40 3 66 38 66 70c0 45 -40 81 -92 81c-33 0 -63 -13 -92 -39c-29 -25 -43 -59 -43 -100c0 -33 10 -80 31 -143s31 -113 31 -150
c0 -66 -17 -124 -51 -175c-68 -100 -172 -148 -280 -148z" />
    <glyph glyph-name="scommaaccent" unicode="&#x219;" horiz-adv-x="254" 
d="M9 -58c28 0 39 -29 23 -57c-20 -37 -49 -66 -86 -88c-20 -11 -28 13 -12 18c23 9 44 28 63 55c-17 4 -31 19 -28 36c1 20 21 36 40 36zM-16 6c-13 6 -25 14 -35 25c-11 13 6 32 23 20c8 -9 18 -15 30 -19c8 -3 18 -4 29 -4c33 0 61 12 84 36c24 25 37 55 40 90
c1 19 -4 46 -15 80c-11 35 -18 58 -20 69l-94 -199c-11 -21 -34 -8 -25 11l136 295c8 19 39 9 28 -12l-5 -11c-7 -15 -10 -28 -11 -41c-2 -23 4 -55 17 -97c14 -42 20 -73 19 -94c-3 -41 -20 -78 -51 -110c-30 -31 -65 -47 -106 -47c-15 0 -30 3 -44 8zM162 0
c-7 0 -11 5 -11 14s4 14 11 14c35 0 66 28 92 84c0 1 1 2 1 3c8 16 32 6 25 -11c-9 -24 -25 -47 -46 -70s-45 -34 -72 -34z" />
    <glyph glyph-name="circumflex" unicode="&#x2c6;" horiz-adv-x="328" 
d="M275 589l44 -96c9 -15 -13 -28 -23 -16l-38 82l-119 -84c-21 -10 -32 12 -15 23l128 91c12 9 20 9 23 0z" />
    <glyph glyph-name="caron" unicode="&#x2c7;" horiz-adv-x="290" 
d="M162 473l-45 98c-9 15 13 28 23 16l38 -83l119 85c21 10 32 -12 15 -23l-130 -92c-11 -7 -17 -8 -20 -1z" />
    <glyph glyph-name="breve" unicode="&#x2d8;" 
d="M171 529c-3 11 -1 18 8 22c7 3 13 1 16 -6c9 -24 35 -41 66 -41c26 0 53 11 80 34c7 7 13 7 18 0s4 -15 -5 -22c-32 -28 -65 -42 -99 -42c-39 0 -72 23 -84 55z" />
    <glyph glyph-name="dotaccent" unicode="&#x2d9;" horiz-adv-x="151" 
d="M167 432c-16 0 -25 12 -22 27c2 24 35 37 49 19c15 -17 -4 -46 -27 -46z" />
    <glyph glyph-name="ring" unicode="&#x2da;" horiz-adv-x="267" 
d="M113 501c0 24 10 46 29 65c20 19 43 29 69 29c36 0 61 -26 61 -62c0 -25 -10 -47 -31 -66c-20 -19 -42 -28 -65 -28c-36 0 -63 27 -63 62zM205 565c-31 0 -60 -27 -60 -60c0 -21 14 -36 37 -36c29 0 59 26 59 57c0 23 -15 39 -36 39z" />
    <glyph glyph-name="ogonek" unicode="&#x2db;" 
d="M241 33c21 8 30 -17 13 -23c-33 -17 -49 -36 -49 -59s13 -35 39 -35c17 0 33 7 47 20c9 8 15 8 20 -1c5 -7 3 -15 -4 -22c-19 -18 -40 -27 -63 -27c-44 0 -69 28 -69 65c0 32 22 59 66 82z" />
    <glyph glyph-name="tilde" unicode="&#x2dc;" horiz-adv-x="251" 
d="M163 441c-23 -15 -38 6 -16 23c66 47 89 -26 133 0c21 12 32 -11 15 -23c-56 -41 -86 36 -132 0z" />
    <glyph glyph-name="hungarumlaut" unicode="&#x2dd;" horiz-adv-x="402" 
d="M347 572l-139 -98c-9 -5 -16 -4 -21 3s-3 14 6 20l139 98c21 10 32 -12 15 -23zM446 572l-139 -98c-9 -5 -16 -4 -21 3s-3 14 6 20l139 98c21 10 32 -12 15 -23z" />
    <glyph glyph-name="gravecomb" unicode="&#x300;" horiz-adv-x="330" 
d="M316 474l-102 98c-17 11 -6 33 15 23l102 -98c9 -6 10 -13 5 -20s-11 -8 -20 -3z" />
    <glyph glyph-name="acutecomb" unicode="&#x301;" horiz-adv-x="258" 
d="M347 572l-139 -98c-9 -5 -16 -4 -21 3s-3 14 6 20l139 98c21 10 32 -12 15 -23z" />
    <glyph glyph-name="tildecomb" unicode="&#x303;" horiz-adv-x="251" 
d="M163 441c-23 -15 -38 6 -16 23c66 47 89 -26 133 0c21 12 32 -11 15 -23c-56 -41 -86 36 -132 0z" />
    <glyph glyph-name="hookabovecomb" unicode="&#x309;" horiz-adv-x="833" 
 />
    <glyph glyph-name="dotbelowcomb" unicode="&#x323;" horiz-adv-x="151" 
d="M9 -142c-16 0 -25 12 -22 27c2 25 35 36 49 20c14 -18 -3 -47 -27 -47z" />
    <glyph glyph-name="endash" unicode="&#x2013;" horiz-adv-x="327" 
d="M263 210h-179c-10 0 -15 5 -15 14s5 14 15 14h179c22 0 22 -28 0 -28z" />
    <glyph glyph-name="emdash" unicode="&#x2014;" horiz-adv-x="371" 
d="M322 210h-238c-10 0 -15 5 -15 14s5 14 15 14h238c22 0 22 -28 0 -28z" />
    <glyph glyph-name="quoteleft" unicode="&#x2018;" horiz-adv-x="212" 
d="M189 439c-28 0 -39 29 -23 57c20 37 49 66 86 88c20 11 28 -13 12 -18c-23 -9 -44 -28 -63 -55c17 -4 31 -19 28 -36c-1 -20 -21 -36 -40 -36z" />
    <glyph glyph-name="quoteright" unicode="&#x2019;" horiz-adv-x="193" 
d="M241 595c28 0 39 -29 23 -57c-20 -37 -49 -66 -86 -88c-20 -11 -28 13 -12 18c23 9 44 28 63 55c-17 4 -31 19 -28 36c1 20 21 36 40 36z" />
    <glyph glyph-name="quotesinglbase" unicode="&#x201a;" horiz-adv-x="155" 
d="M79 72c28 0 39 -29 23 -57c-20 -37 -49 -66 -86 -88c-20 -11 -28 13 -12 18c23 9 44 28 63 55c-17 4 -31 19 -28 36c1 20 21 36 40 36z" />
    <glyph glyph-name="quotedblleft" unicode="&#x201c;" horiz-adv-x="304" 
d="M189 439c-28 0 -39 29 -23 57c20 37 49 66 86 88c20 11 28 -13 12 -18c-23 -9 -44 -28 -63 -55c17 -4 31 -19 28 -36c-1 -20 -21 -36 -40 -36zM279 439c-28 0 -39 29 -23 57c20 37 49 66 86 88c20 11 28 -13 12 -18c-23 -9 -44 -28 -63 -55c17 -4 31 -19 28 -36
c-1 -20 -21 -36 -40 -36z" />
    <glyph glyph-name="quotedblright" unicode="&#x201d;" horiz-adv-x="304" 
d="M331 595c28 0 39 -29 23 -57c-20 -37 -49 -66 -86 -88c-20 -11 -28 13 -12 18c23 9 44 28 63 55c-17 4 -31 19 -28 36c1 20 21 36 40 36zM241 595c28 0 39 -29 23 -57c-20 -37 -49 -66 -86 -88c-20 -11 -28 13 -12 18c23 9 44 28 63 55c-17 4 -31 19 -28 36
c1 20 21 36 40 36z" />
    <glyph glyph-name="quotedblbase" unicode="&#x201e;" horiz-adv-x="267" 
d="M79 72c28 0 39 -29 23 -57c-20 -37 -49 -66 -86 -88c-20 -11 -28 13 -12 18c23 9 44 28 63 55c-17 4 -31 19 -28 36c1 20 21 36 40 36zM191 72c28 0 39 -29 23 -57c-20 -37 -49 -66 -86 -88c-20 -11 -28 13 -12 18c23 9 44 28 63 55c-17 4 -31 19 -28 36
c1 20 21 36 40 36z" />
    <glyph glyph-name="dagger" unicode="&#x2020;" horiz-adv-x="398" 
d="M37 409c-22 0 -22 30 0 30c59 0 108 -15 146 -44v139c0 25 30 25 30 0v-139c38 29 87 44 146 44c22 0 22 -30 0 -30c-29 0 -56 -4 -79 -13c-47 -16 -58 -30 -67 -43v-415c0 -35 -30 -35 -30 0v415c-30 37 -79 56 -146 56z" />
    <glyph glyph-name="daggerdbl" unicode="&#x2021;" horiz-adv-x="398" 
d="M37 409c-22 0 -22 30 0 30c59 0 108 -15 146 -44v139c0 25 30 25 30 0v-139c38 29 87 44 146 44c22 0 22 -30 0 -30c-29 0 -56 -4 -79 -13c-47 -16 -58 -30 -67 -43v-245c38 29 87 44 146 44c22 0 22 -30 0 -30c-29 0 -56 -4 -79 -13c-47 -16 -58 -30 -67 -43v-128
c0 -35 -30 -35 -30 0v128c-30 37 -79 56 -146 56c-22 0 -22 30 0 30c59 0 108 -15 146 -44v245c-30 37 -79 56 -146 56z" />
    <glyph glyph-name="bullet" unicode="&#x2022;" horiz-adv-x="275" 
d="M207 201c-7 -28 -34 -52 -62 -52c-29 0 -49 24 -42 52c3 29 32 54 59 54c31 0 50 -25 45 -54z" />
    <glyph glyph-name="ellipsis" unicode="&#x2026;" horiz-adv-x="522" 
d="M80 0c-16 0 -25 12 -22 27c2 24 35 37 49 19c15 -17 -4 -46 -27 -46zM218 0c-16 0 -25 12 -22 27c2 24 35 37 49 19c15 -17 -4 -46 -27 -46zM356 0c-16 0 -25 12 -22 27c2 24 35 37 49 19c15 -17 -4 -46 -27 -46z" />
    <glyph glyph-name="perthousand" unicode="&#x2030;" horiz-adv-x="694" 
d="M432 285c26 0 47 -11 63 -32c16 21 37 32 63 32c43 0 78 -35 78 -78s-35 -78 -78 -78c-27 0 -48 11 -63 32c-15 -21 -36 -32 -63 -32c-43 0 -78 35 -78 78s35 78 78 78zM559 532l-446 -484c-8 -11 -17 -14 -26 -7c-8 5 -9 12 -2 21l449 487c13 18 35 3 25 -17zM185 359
c-31 31 -31 79 0 110s79 31 110 0s31 -79 0 -110s-79 -31 -110 0zM510 210v-3c0 -42 52 -64 82 -34s8 82 -34 82c-25 0 -47 -20 -48 -45zM480 204v3v3c-3 25 -23 45 -48 45c-27 0 -48 -21 -48 -48s21 -48 48 -48c25 0 45 18 48 45zM206 448c-19 -19 -19 -49 0 -68
s49 -19 68 0s19 49 0 68s-49 19 -68 0z" />
    <glyph glyph-name="guilsinglleft" unicode="&#x2039;" horiz-adv-x="282" 
d="M92 228l151 88c27 13 37 -15 15 -28l-144 -81l66 -120c11 -20 -14 -30 -26 -16l-71 130c-6 11 -3 20 9 27z" />
    <glyph glyph-name="guilsinglright" unicode="&#x203a;" horiz-adv-x="323" 
d="M249 158l-151 -88c-27 -13 -37 15 -15 28l144 81l-66 120c-11 20 14 30 26 16l71 -130c6 -11 3 -20 -9 -27z" />
    <glyph glyph-name="fraction" unicode="&#x2044;" horiz-adv-x="362" 
d="M446 572l-349 -558c-5 -12 -13 -16 -23 -13s-12 11 -7 22l351 561c5 9 12 12 21 9s12 -10 7 -21z" />
    <glyph glyph-name="dong" unicode="&#x20ab;" 
d="M311 454h-35c-10 0 -14 5 -11 14s9 14 19 14h40l47 102c8 19 36 9 28 -12l-42 -90h36c9 0 14 -4 13 -11c-1 -9 -6 -14 -16 -16l-5 -1h-41l-88 -194l-72 -157c-7 -17 -11 -30 -11 -40c0 -23 14 -35 41 -35c35 0 66 28 92 84c0 1 1 2 1 3c8 16 32 6 25 -11
c-9 -24 -25 -47 -46 -70s-45 -34 -72 -34c-40 0 -63 15 -70 46c-24 -31 -51 -46 -81 -46c-47 0 -76 23 -76 64c0 16 4 33 13 51l74 158c31 68 70 102 119 102c33 0 54 -12 65 -36zM151 105l5 10l72 157c7 17 11 30 11 39c0 24 -15 36 -46 36c-35 0 -66 -30 -93 -90l-72 -154
c-7 -16 -11 -29 -11 -39c0 -24 15 -36 46 -36c34 0 63 26 88 77zM153 -75h-174c-10 0 -15 5 -15 14s5 14 15 14h174c22 0 22 -28 0 -28z" />
    <glyph glyph-name="Euro" unicode="&#x20ac;" horiz-adv-x="581" 
d="M156 354h-36c-10 0 -15 5 -15 14s5 14 15 14h50c31 57 70 103 119 139c49 37 97 55 146 55c57 0 100 -23 129 -68c7 -9 6 -18 -2 -27c-7 -8 -13 -7 -20 4c-23 41 -59 61 -107 61c-42 0 -84 -15 -126 -46c-42 -30 -77 -69 -106 -118h96c22 0 22 -28 0 -28h-111
c-10 -19 -18 -40 -24 -62c-3 -9 -4 -16 -5 -21h87c22 0 22 -28 0 -28h-92c-1 -21 -2 -36 -1 -46c3 -88 54 -148 131 -148c45 0 90 17 135 52c12 9 20 9 25 0s1 -19 -14 -29c-47 -35 -96 -53 -146 -53c-96 0 -158 73 -161 178c-1 10 0 25 1 46h-57c-10 0 -15 5 -15 14
s5 14 15 14h61l8 29c5 16 11 34 20 54z" />
    <glyph glyph-name="trademark" unicode="&#x2122;" horiz-adv-x="571" 
d="M377 244l-48 78v-114c0 -9 -5 -13 -15 -13c-10 1 -15 5 -15 13v152c0 13 6 20 17 20c9 0 16 -5 22 -14l57 -93l57 93c6 9 13 14 22 14c11 0 17 -7 17 -20v-152c0 -8 -5 -12 -15 -13c-10 0 -15 4 -15 13v114l-48 -78c-12 -20 -24 -20 -36 0zM209 352v-144
c0 -9 -5 -13 -15 -13c-10 1 -15 5 -15 13v144h-50c-9 0 -13 5 -13 14c1 9 5 14 13 14h128c8 0 12 -5 12 -14c1 -9 -3 -14 -12 -14h-48z" />
    <glyph glyph-name="minus" unicode="&#x2212;" horiz-adv-x="371" 
d="M322 210h-238c-10 0 -15 5 -15 14s5 14 15 14h238c22 0 22 -28 0 -28z" />
    </font>
</defs>
</svg>
