<?xml version="1.0" standalone="no"?>
<!DOCTYPE svg PUBLIC "-//W3C//DTD SVG 1.1//EN" "http://www.w3.org/Graphics/SVG/1.1/DTD/svg11.dtd" >
<svg>
<metadata>
Created by FontForge 20120731 at Wed Oct 29 05:38:58 2014
 By Orthosie Webhosting
Copyright (c) 2011 by Wolfgang Homola, distributed by TypeTogether. All rights reserved.
</metadata>
<defs>
<font id="Soleil-Bold" horiz-adv-x="550" >
  <font-face 
    font-family="Soleil"
    font-weight="700"
    font-stretch="normal"
    units-per-em="1000"
    panose-1="2 0 8 3 0 0 0 2 0 4"
    ascent="750"
    descent="-250"
    x-height="526"
    cap-height="700"
    bbox="-210 -321 1327 1129"
    underline-thickness="50"
    underline-position="-50"
    stemh="122"
    stemv="145"
    unicode-range="U+000D-FB06"
  />
<missing-glyph 
d="M313 143h-85v83h85v-83zM46 666h459v-666h-459v666zM122 592v-518h306v518h-306zM311 271h-81v85c44 14 81 28 81 66c0 20 -12 39 -38 39c-24 0 -38 -16 -38 -44v-12h-77v10c0 64 44 113 115 113s116 -55 116 -104c0 -62 -38 -89 -78 -110v-43z" />
    <glyph glyph-name="ff" unicode="ff" horiz-adv-x="716" 
d="M401 732l-44 -109c-23 12 -45 17 -73 17c-23 0 -36 -6 -44 -16c-11 -15 -14 -38 -14 -64v-34h108v-118h-108v-408h-142v408h-57v118h57v42c0 60 11 107 38 140c29 36 76 54 148 54c45 0 90 -11 131 -30zM759 732l-44 -109c-23 12 -45 17 -73 17c-23 0 -36 -6 -44 -16
c-11 -15 -14 -38 -14 -64v-34h131v-118h-131v-408h-142v408h-57v118h57v42c0 60 11 107 38 140c29 36 76 54 148 54c45 0 90 -11 131 -30z" />
    <glyph glyph-name="fi" unicode="fi" horiz-adv-x="638" 
d="M361 748l-22 -117c-17 6 -34 9 -55 9c-23 0 -36 -6 -44 -16c-11 -15 -14 -38 -14 -64v-34h131v-118h-131v-408h-142v408h-57v118h57v42c0 60 11 107 38 140c29 36 76 54 148 54c31 0 61 -5 91 -14zM569 0h-142v526h142v-526zM569 599h-142v121h142v-121z" />
    <glyph glyph-name="fl" unicode="fl" horiz-adv-x="638" 
d="M569 750v-750h-142v750h142zM361 748l-22 -117c-17 6 -34 9 -55 9c-23 0 -36 -6 -44 -16c-11 -15 -14 -38 -14 -64v-34h131v-118h-131v-408h-142v408h-57v118h57v42c0 60 11 107 38 140c29 36 76 54 148 54c31 0 61 -5 91 -14z" />
    <glyph glyph-name="f_k" unicode="fk" horiz-adv-x="913" 
d="M361 748l-22 -117c-17 6 -34 9 -55 9c-23 0 -36 -6 -44 -16c-11 -15 -14 -38 -14 -64v-34h131v-118h-131v-408h-142v408h-57v118h57v42c0 60 11 107 38 140c29 36 76 54 148 54c31 0 61 -5 91 -14zM915 0h-174l-121 195l-51 -59v-136h-142v750h142v-438h2l170 214h162
l-188 -220z" />
    <glyph glyph-name="f_b" unicode="fb" horiz-adv-x="1002" 
d="M361 748l-22 -117c-17 6 -34 9 -55 9c-23 0 -36 -6 -44 -16c-11 -15 -14 -38 -14 -64v-34h131v-118h-131v-408h-142v408h-57v118h57v42c0 60 11 107 38 140c29 36 76 54 148 54c31 0 61 -5 91 -14zM427 750h142v-279c38 49 104 67 155 67c140 0 245 -124 245 -277
c0 -148 -104 -273 -246 -273c-55 0 -125 19 -163 76l-10 -64h-123v750zM569 346v-179c35 -42 77 -57 122 -57c91 0 133 81 133 155c0 78 -49 151 -131 151c-45 0 -93 -18 -124 -70z" />
    <glyph glyph-name="f_h" unicode="fh" horiz-adv-x="976" 
d="M361 748l-22 -117c-17 6 -34 9 -55 9c-23 0 -36 -6 -44 -16c-11 -15 -14 -38 -14 -64v-34h131v-118h-131v-408h-142v408h-57v118h57v42c0 60 11 107 38 140c29 36 76 54 148 54c31 0 61 -5 91 -14zM569 750v-286c42 51 101 74 155 74c57 0 107 -27 140 -69
c41 -53 47 -121 47 -196v-273h-142v266c0 39 -1 83 -16 113c-13 26 -39 37 -70 37c-42 0 -88 -24 -114 -67v-349h-142v750h142z" />
    <glyph glyph-name="f_t" unicode="ft" horiz-adv-x="736" 
d="M401 732l-44 -109c-23 12 -45 17 -73 17c-23 0 -36 -6 -44 -16c-11 -15 -14 -38 -14 -64v-34h108v-118h-108v-408h-142v408h-57v118h57v42c0 60 11 107 38 140c29 36 76 54 148 54c45 0 90 -11 131 -30zM709 408h-134v-204c0 -16 0 -30 2 -45c4 -31 16 -50 46 -50
c22 0 39 6 57 15l44 -105c-34 -20 -84 -31 -125 -31c-82 0 -137 45 -156 113c-8 26 -10 57 -10 88v219h-54v118h54l22 116h120v-116h134v-118z" />
    <glyph glyph-name="f_j" unicode="fj" horiz-adv-x="644" 
d="M361 748l-22 -117c-17 6 -34 9 -55 9c-23 0 -36 -6 -44 -16c-11 -15 -14 -38 -14 -64v-34h131v-118h-131v-408h-142v408h-57v118h57v42c0 60 11 107 38 140c29 36 76 54 148 54c31 0 61 -5 91 -14zM575 599h-142v121h142v-121zM575 526v-563c0 -55 -10 -98 -34 -130
c-27 -38 -74 -60 -146 -60c-41 0 -79 8 -114 22l38 113c18 -8 38 -13 61 -13c49 0 53 36 53 80v551h142z" />
    <glyph glyph-name="f_f_j" unicode="ffj" horiz-adv-x="1002" 
d="M401 732l-44 -109c-23 12 -45 17 -73 17c-23 0 -36 -6 -44 -16c-11 -15 -14 -38 -14 -64v-34h108v-118h-108v-408h-142v408h-57v118h57v42c0 60 11 107 38 140c29 36 76 54 148 54c45 0 90 -11 131 -30zM719 748l-22 -117c-17 6 -34 9 -55 9c-23 0 -36 -6 -44 -16
c-11 -15 -14 -38 -14 -64v-34h131v-118h-131v-408h-142v408h-57v118h57v42c0 60 11 107 38 140c29 36 76 54 148 54c31 0 61 -5 91 -14zM933 599h-142v121h142v-121zM933 526v-563c0 -55 -10 -98 -34 -130c-27 -38 -74 -60 -146 -60c-41 0 -79 8 -114 22l38 113
c18 -8 38 -13 61 -13c49 0 53 36 53 80v551h142z" />
    <glyph glyph-name="ffi" unicode="ffi" horiz-adv-x="996" 
d="M927 0h-142v526h142v-526zM927 599h-142v121h142v-121zM401 732l-44 -109c-23 12 -45 17 -73 17c-23 0 -36 -6 -44 -16c-11 -15 -14 -38 -14 -64v-34h108v-118h-108v-408h-142v408h-57v118h57v42c0 60 11 107 38 140c29 36 76 54 148 54c45 0 90 -11 131 -30zM719 748
l-22 -117c-17 6 -34 9 -55 9c-23 0 -36 -6 -44 -16c-11 -15 -14 -38 -14 -64v-34h131v-118h-131v-408h-142v408h-57v118h57v42c0 60 11 107 38 140c29 36 76 54 148 54c31 0 61 -5 91 -14z" />
    <glyph glyph-name="ffl" unicode="ffl" horiz-adv-x="996" 
d="M927 750v-750h-142v750h142zM401 732l-44 -109c-23 12 -45 17 -73 17c-23 0 -36 -6 -44 -16c-11 -15 -14 -38 -14 -64v-34h108v-118h-108v-408h-142v408h-57v118h57v42c0 60 11 107 38 140c29 36 76 54 148 54c45 0 90 -11 131 -30zM719 748l-22 -117c-17 6 -34 9 -55 9
c-23 0 -36 -6 -44 -16c-11 -15 -14 -38 -14 -64v-34h131v-118h-131v-408h-142v408h-57v118h57v42c0 60 11 107 38 140c29 36 76 54 148 54c31 0 61 -5 91 -14z" />
    <glyph glyph-name="f_f_k" unicode="ffk" horiz-adv-x="1271" 
d="M401 732l-44 -109c-23 12 -45 17 -73 17c-23 0 -36 -6 -44 -16c-11 -15 -14 -38 -14 -64v-34h108v-118h-108v-408h-142v408h-57v118h57v42c0 60 11 107 38 140c29 36 76 54 148 54c45 0 90 -11 131 -30zM719 748l-22 -117c-17 6 -34 9 -55 9c-23 0 -36 -6 -44 -16
c-11 -15 -14 -38 -14 -64v-34h131v-118h-131v-408h-142v408h-57v118h57v42c0 60 11 107 38 140c29 36 76 54 148 54c31 0 61 -5 91 -14zM1273 0h-174l-121 195l-51 -59v-136h-142v750h142v-438h2l170 214h162l-188 -220z" />
    <glyph glyph-name="f_f_b" unicode="ffb" horiz-adv-x="1360" 
d="M401 732l-44 -109c-23 12 -45 17 -73 17c-23 0 -36 -6 -44 -16c-11 -15 -14 -38 -14 -64v-34h108v-118h-108v-408h-142v408h-57v118h57v42c0 60 11 107 38 140c29 36 76 54 148 54c45 0 90 -11 131 -30zM719 748l-22 -117c-17 6 -34 9 -55 9c-23 0 -36 -6 -44 -16
c-11 -15 -14 -38 -14 -64v-34h131v-118h-131v-408h-142v408h-57v118h57v42c0 60 11 107 38 140c29 36 76 54 148 54c31 0 61 -5 91 -14zM785 750h142v-279c38 49 104 67 155 67c140 0 245 -124 245 -277c0 -148 -104 -273 -246 -273c-55 0 -125 19 -163 76l-10 -64h-123v750
zM927 346v-179c35 -42 77 -57 122 -57c91 0 133 81 133 155c0 78 -49 151 -131 151c-45 0 -93 -18 -124 -70z" />
    <glyph glyph-name="f_f_h" unicode="ffh" horiz-adv-x="1334" 
d="M401 732l-44 -109c-23 12 -45 17 -73 17c-23 0 -36 -6 -44 -16c-11 -15 -14 -38 -14 -64v-34h108v-118h-108v-408h-142v408h-57v118h57v42c0 60 11 107 38 140c29 36 76 54 148 54c45 0 90 -11 131 -30zM719 748l-22 -117c-17 6 -34 9 -55 9c-23 0 -36 -6 -44 -16
c-11 -15 -14 -38 -14 -64v-34h131v-118h-131v-408h-142v408h-57v118h57v42c0 60 11 107 38 140c29 36 76 54 148 54c31 0 61 -5 91 -14zM927 750v-286c42 51 101 74 155 74c57 0 107 -27 140 -69c41 -53 47 -121 47 -196v-273h-142v266c0 39 -1 83 -16 113
c-13 26 -39 37 -70 37c-42 0 -88 -24 -114 -67v-349h-142v750h142z" />
    <glyph glyph-name="f_f_t" unicode="fft" horiz-adv-x="1094" 
d="M401 732l-44 -109c-23 12 -45 17 -73 17c-23 0 -36 -6 -44 -16c-11 -15 -14 -38 -14 -64v-34h108v-118h-108v-408h-142v408h-57v118h57v42c0 60 11 107 38 140c29 36 76 54 148 54c45 0 90 -11 131 -30zM759 732l-44 -109c-23 12 -45 17 -73 17c-23 0 -36 -6 -44 -16
c-11 -15 -14 -38 -14 -64v-34h108v-118h-108v-408h-142v408h-57v118h57v42c0 60 11 107 38 140c29 36 76 54 148 54c45 0 90 -11 131 -30zM1067 408h-134v-204c0 -16 0 -30 2 -45c4 -31 16 -50 46 -50c22 0 39 6 57 15l44 -105c-34 -20 -84 -31 -125 -31
c-82 0 -137 45 -156 113c-8 26 -10 57 -10 88v219h-54v118h54l22 116h120v-116h134v-118z" />
    <glyph glyph-name="f_iacute" unicode="f&#xed;" horiz-adv-x="638" 
d="M673 752l-148 -176l-87 67l139 185zM569 0h-142v526h142v-526zM401 732l-44 -109c-23 12 -45 17 -73 17c-23 0 -36 -6 -44 -16c-11 -15 -14 -38 -14 -64v-34h131v-118h-131v-408h-142v408h-57v118h57v42c0 60 11 107 38 140c29 36 76 54 148 54c45 0 90 -11 131 -30z" />
    <glyph glyph-name="t_t" unicode="tt" horiz-adv-x="756" 
d="M346 408h-129v-204c0 -16 0 -30 2 -45c4 -31 16 -50 46 -50c22 0 39 6 57 15l44 -105c-34 -20 -84 -31 -125 -31c-82 0 -137 45 -156 113c-8 26 -10 57 -10 88v219h-63v118h63l22 116h120v-116h129v-118zM729 408h-134v-204c0 -16 0 -30 2 -45c4 -31 16 -50 46 -50
c22 0 39 6 57 15l44 -105c-34 -20 -84 -31 -125 -31c-82 0 -137 45 -156 113c-8 26 -10 57 -10 88v219h-58v118h58l22 116h120v-116h134v-118z" />
    <glyph glyph-name=".notdef" 
d="M313 143h-85v83h85v-83zM46 666h459v-666h-459v666zM122 592v-518h306v518h-306zM311 271h-81v85c44 14 81 28 81 66c0 20 -12 39 -38 39c-24 0 -38 -16 -38 -44v-12h-77v10c0 64 44 113 115 113s116 -55 116 -104c0 -62 -38 -89 -78 -110v-43z" />
    <glyph glyph-name="CR" unicode="&#xd;" horiz-adv-x="500" 
 />
    <glyph glyph-name="space" unicode=" " horiz-adv-x="250" 
 />
    <glyph glyph-name="quotesingle" unicode="'" horiz-adv-x="279" 
d="M204 410h-129l-9 290h148z" />
    <glyph glyph-name="quotedbl" unicode="&#x22;" horiz-adv-x="506" 
d="M203 410h-128l-9 290h147zM431 410h-128l-10 290h148z" />
    <glyph glyph-name="numbersign" unicode="#" horiz-adv-x="597" 
d="M14 262h94l27 142h-64v96h83l31 166h110l-32 -166h129l32 166h110l-32 -166h81v-96h-100l-28 -142h71v-96h-89l-31 -166h-110l31 166h-129l-31 -166h-109l31 166h-75v96zM245 404l-28 -142h128l28 142h-128z" />
    <glyph glyph-name="ampersand" unicode="&#x26;" horiz-adv-x="692" 
d="M704 63l-78 -91l-120 107c-49 -62 -125 -91 -202 -91c-137 0 -252 101 -252 225c0 68 38 135 110 180c-44 47 -60 83 -60 136c0 110 107 183 212 183c103 0 172 -57 198 -151l-128 -37c-7 40 -31 69 -74 69c-39 0 -70 -29 -70 -67c0 -41 30 -75 106 -143l-78 -90l-22 19
c-36 -21 -55 -55 -55 -93c0 -64 53 -112 116 -112c43 0 81 20 107 54l-72 66l77 91z" />
    <glyph glyph-name="asterisk" unicode="*" horiz-adv-x="506" 
d="M448 523l-127 -18l94 -90l-104 -76l-58 118l-58 -118l-104 76l94 90l-127 18l39 122l114 -60l-23 126h129l-23 -127l115 61z" />
    <glyph glyph-name="comma" unicode="," horiz-adv-x="250" 
d="M203 149l-72 -275h-135l56 275h151z" />
    <glyph glyph-name="hyphen" unicode="-" horiz-adv-x="447" 
d="M365 231h-283v118h283v-118z" />
    <glyph glyph-name="period" unicode="." horiz-adv-x="250" 
d="M201 0h-153v149h153v-149z" />
    <glyph glyph-name="colon" unicode=":" horiz-adv-x="250" 
d="M201 377h-153v149h153v-149zM201 0h-153v149h153v-149z" />
    <glyph glyph-name="semicolon" unicode=";" horiz-adv-x="250" 
d="M203 149l-72 -275h-135l56 275h151zM199 377h-152v149h152v-149z" />
    <glyph glyph-name="question" unicode="?" horiz-adv-x="545" 
d="M340 239h-145v152c80 27 152 52 152 127c0 40 -25 76 -73 76c-47 0 -74 -32 -74 -85v-21h-139v17c0 125 92 207 213 207c131 0 211 -100 211 -191c0 -119 -67 -162 -145 -203v-79zM344 0h-153v149h153v-149z" />
    <glyph glyph-name="exclam" unicode="!" horiz-adv-x="327" 
d="M242 700v-125l-11 -336h-135l-11 336v125h157zM240 0h-153v149h153v-149z" />
    <glyph glyph-name="exclamdown" unicode="&#xa1;" horiz-adv-x="327" 
d="M85 -174v125l11 336h135l11 -336v-125h-157zM87 526h153v-149h-153v149z" />
    <glyph glyph-name="questiondown" unicode="&#xbf;" horiz-adv-x="545" 
d="M205 287h145v-152c-80 -27 -152 -52 -152 -127c0 -40 25 -76 73 -76c47 0 74 32 74 85v21h139v-17c0 -125 -92 -207 -213 -207c-131 0 -211 100 -211 191c0 119 67 162 145 203v79zM201 526h153v-149h-153v149z" />
    <glyph glyph-name="at" unicode="@" horiz-adv-x="798" 
d="M554 -91c-57 -28 -110 -40 -162 -40c-194 0 -347 156 -347 344c0 199 161 346 353 346c194 0 355 -125 355 -327c0 -111 -59 -205 -169 -205c-44 0 -86 20 -110 67c-20 -29 -61 -46 -105 -46c-84 0 -138 76 -138 161c0 76 48 163 136 163c29 0 62 -12 82 -35v29h100v-150
c0 -58 7 -88 34 -88c35 0 54 53 54 94c0 149 -82 237 -238 237c-134 0 -238 -104 -238 -245c0 -137 102 -245 232 -245c33 0 73 8 109 26zM449 184v71c-18 20 -39 30 -59 30c-42 0 -59 -41 -59 -77c0 -34 19 -71 57 -71c25 0 49 16 61 47z" />
    <glyph glyph-name="A" unicode="A" horiz-adv-x="689" 
d="M677 0h-165l-45 130h-249l-47 -130h-159l286 700h116zM345 482l-85 -235h167l-81 235h-1z" />
    <glyph glyph-name="B" unicode="B" horiz-adv-x="617" 
d="M78 700h184c67 0 138 -11 190 -45c54 -35 82 -90 82 -153c0 -58 -30 -109 -88 -135c71 -24 117 -85 117 -159c0 -83 -49 -148 -125 -180c-53 -22 -121 -28 -184 -28h-176v700zM221 299v-179h33c42 0 86 0 116 15c25 13 40 34 40 70c0 58 -38 94 -109 94h-80zM221 580
v-165h40c82 0 130 27 130 82c0 32 -13 52 -30 65c-27 18 -67 18 -112 18h-28z" />
    <glyph glyph-name="C" unicode="C" horiz-adv-x="675" 
d="M202 350c0 -140 83 -237 220 -237c53 0 106 21 149 58l80 -104c-68 -52 -149 -79 -235 -79c-210 0 -367 148 -367 362c0 205 167 362 373 362c80 0 146 -25 215 -68l-69 -111c-42 32 -92 54 -146 54c-127 0 -220 -104 -220 -237z" />
    <glyph glyph-name="D" unicode="D" horiz-adv-x="715" 
d="M78 0v700h204c181 0 384 -94 384 -347c0 -259 -201 -353 -393 -353h-195zM221 579v-458h16c164 0 276 58 276 223c0 154 -91 235 -248 235h-44z" />
    <glyph glyph-name="E" unicode="E" horiz-adv-x="580" 
d="M527 0h-449v700h449v-121h-306v-158h306v-121h-306v-179h306v-121z" />
    <glyph glyph-name="F" unicode="F" horiz-adv-x="503" 
d="M466 282h-245v-282h-143v700h388v-121h-245v-176h245v-121z" />
    <glyph glyph-name="G" unicode="G" horiz-adv-x="793" 
d="M584 283h-168v121h311v-273c-73 -98 -184 -143 -305 -143c-212 0 -373 147 -373 362c0 205 167 362 373 362c118 0 217 -49 294 -138l-99 -86c-49 57 -115 99 -195 99c-127 0 -220 -104 -220 -237c0 -140 87 -237 220 -237c57 0 118 23 162 65v105z" />
    <glyph glyph-name="H" unicode="H" horiz-adv-x="739" 
d="M661 0h-143v300h-297v-300h-143v700h143v-279h297v279h143v-700z" />
    <glyph glyph-name="I" unicode="I" horiz-adv-x="299" 
d="M221 0h-143v700h143v-700z" />
    <glyph glyph-name="J" unicode="J" horiz-adv-x="340" 
d="M271 700v-514c0 -66 -13 -117 -45 -151c-29 -31 -74 -47 -139 -47c-36 0 -89 11 -131 32l45 113c23 -13 43 -20 69 -20s40 8 48 21c9 16 10 40 10 69v497h143z" />
    <glyph glyph-name="K" unicode="K" horiz-adv-x="640" 
d="M630 700l-237 -283l243 -417h-167l-173 303l-75 -89v-214h-143v700h143v-287l236 287h173z" />
    <glyph glyph-name="L" unicode="L" horiz-adv-x="512" 
d="M508 0h-430v700h143v-579h287v-121z" />
    <glyph glyph-name="M" unicode="M" horiz-adv-x="956" 
d="M736 511l-209 -511h-102l-204 513v-513h-143v700h211l188 -488l195 488h207v-700h-143v511z" />
    <glyph glyph-name="M.salt" horiz-adv-x="847" 
d="M468 142h-91l-159 323v-465h-140v700h172l173 -359h2l173 359h171v-700h-140v469z" />
    <glyph glyph-name="N" unicode="N" horiz-adv-x="748" 
d="M671 0h-129l-321 438v-438h-143v700h126l324 -439v439h143v-700z" />
    <glyph glyph-name="O" unicode="O" horiz-adv-x="831" 
d="M629 350c0 133 -90 237 -213 237c-124 0 -214 -104 -214 -237s90 -237 214 -237c123 0 213 104 213 237zM782 350c0 -200 -159 -362 -366 -362c-208 0 -367 162 -367 362s159 362 367 362c207 0 366 -162 366 -362z" />
    <glyph glyph-name="P" unicode="P" horiz-adv-x="588" 
d="M78 700h223c119 0 262 -58 262 -217c0 -161 -142 -219 -262 -219h-80v-264h-143v700zM221 579v-194h57c76 0 133 25 133 95c0 62 -46 99 -114 99h-76z" />
    <glyph glyph-name="Q" unicode="Q" horiz-adv-x="831" 
d="M775 16l-86 -86l-101 100c-51 -27 -109 -42 -172 -42c-208 0 -367 162 -367 362s159 362 367 362c207 0 366 -162 366 -362c0 -95 -36 -182 -96 -246zM491 298l94 -94c28 40 44 90 44 146c0 133 -90 237 -213 237c-124 0 -214 -104 -214 -237s90 -237 214 -237
c26 0 52 5 74 15l-86 85z" />
    <glyph glyph-name="R" unicode="R" horiz-adv-x="634" 
d="M78 700h222c113 0 256 -58 256 -210c0 -109 -74 -169 -152 -195c62 -87 166 -230 214 -295h-180l-192 279h-25v-279h-143v700zM221 579v-179h56c72 0 126 26 126 87c0 55 -43 92 -107 92h-75z" />
    <glyph glyph-name="S" unicode="S" horiz-adv-x="609" 
d="M468 527c-39 33 -91 63 -145 63c-48 0 -91 -24 -91 -70c0 -54 66 -69 120 -88c99 -34 218 -80 218 -227c0 -152 -143 -217 -265 -217c-108 0 -192 41 -268 117l95 93c57 -55 101 -88 174 -88c56 0 111 27 111 89c0 60 -64 83 -135 109c-91 34 -193 74 -193 208
c0 133 113 196 229 196c90 0 161 -29 232 -83z" />
    <glyph glyph-name="T" unicode="T" horiz-adv-x="491" 
d="M483 579h-166v-579h-143v579h-166v121h475v-121z" />
    <glyph glyph-name="U" unicode="U" horiz-adv-x="716" 
d="M640 700v-370c0 -220 -84 -342 -284 -342c-196 0 -280 122 -280 342v370h143v-389c0 -134 54 -198 139 -198s139 64 139 198v389h143z" />
    <glyph glyph-name="V" unicode="V" horiz-adv-x="674" 
d="M669 700l-285 -700h-117l-263 700h166l166 -481h1l174 481h158z" />
    <glyph glyph-name="W" unicode="W" horiz-adv-x="944" 
d="M540 700l120 -448h2l118 448h160l-201 -700h-142l-127 460h-2l-131 -460h-137l-196 700h160l115 -448h2l125 448h134z" />
    <glyph glyph-name="X" unicode="X" horiz-adv-x="708" 
d="M700 700l-252 -342l259 -358h-188l-169 239l-169 -239h-180l258 352l-250 348h188l161 -230l163 230h179z" />
    <glyph glyph-name="Y" unicode="Y" horiz-adv-x="608" 
d="M370 0h-143v293l-223 407h178l121 -252h2l132 252h167l-234 -411v-289z" />
    <glyph glyph-name="Z" unicode="Z" horiz-adv-x="562" 
d="M522 627l-296 -506h320v-121h-513v76l295 503h-287v121h481v-73z" />
    <glyph glyph-name="a" unicode="a" horiz-adv-x="575" 
d="M511 0h-123l-11 45c-34 -42 -87 -57 -143 -57c-98 0 -189 59 -189 167c0 129 120 170 229 170c29 0 62 -4 95 -11v8c0 66 -27 106 -104 106c-60 0 -113 -22 -159 -46l-38 102c67 33 148 54 226 54c146 0 217 -85 217 -222v-316zM369 132v97c-27 6 -50 9 -72 9
c-52 0 -113 -19 -113 -81c0 -46 38 -70 80 -70c41 0 75 18 105 45z" />
    <glyph glyph-name="b" unicode="b" horiz-adv-x="644" 
d="M69 750h142v-279c38 49 104 67 155 67c140 0 245 -124 245 -277c0 -148 -104 -273 -246 -273c-55 0 -125 19 -163 76l-10 -64h-123v750zM211 346v-179c35 -42 77 -57 122 -57c91 0 133 81 133 155c0 78 -49 151 -131 151c-45 0 -93 -18 -124 -70z" />
    <glyph glyph-name="c" unicode="c" horiz-adv-x="511" 
d="M413 150l76 -97c-52 -46 -114 -65 -189 -65c-155 0 -267 112 -267 275c0 153 111 275 271 275c72 0 133 -22 185 -65l-73 -99c-29 27 -61 42 -102 42c-80 0 -136 -69 -136 -153c0 -88 59 -153 134 -153c39 0 71 11 101 40z" />
    <glyph glyph-name="d" unicode="d" horiz-adv-x="644" 
d="M575 0h-123l-12 65c-37 -58 -108 -77 -162 -77c-139 0 -245 124 -245 277c0 148 104 273 247 273c50 0 113 -18 153 -63v275h142v-750zM433 179v180c-36 42 -78 57 -122 57c-91 0 -133 -81 -133 -155c0 -77 50 -151 131 -151c45 0 93 17 124 69z" />
    <glyph glyph-name="e" unicode="e" horiz-adv-x="588" 
d="M547 228h-370c10 -72 57 -126 132 -126c68 0 103 28 137 78l93 -63c-60 -87 -127 -129 -240 -129c-159 0 -266 111 -266 269c0 159 116 281 267 281c146 0 254 -103 254 -243c0 -21 -3 -46 -7 -67zM184 325h225c-3 63 -47 102 -105 102c-68 0 -105 -43 -120 -102z" />
    <glyph glyph-name="f" unicode="f" horiz-adv-x="358" 
d="M401 732l-44 -109c-23 12 -45 17 -73 17c-23 0 -36 -6 -44 -16c-11 -15 -14 -38 -14 -64v-34h131v-118h-131v-408h-142v408h-57v118h57v42c0 60 11 107 38 140c29 36 76 54 148 54c45 0 90 -11 131 -30z" />
    <glyph glyph-name="g" unicode="g" horiz-adv-x="640" 
d="M575 526v-498c0 -57 -11 -103 -33 -140c-46 -80 -136 -115 -232 -115c-81 0 -169 23 -243 72l52 117c60 -45 134 -67 186 -67c74 0 128 40 128 124v48c-39 -50 -104 -67 -155 -67c-139 0 -245 119 -245 271c0 147 104 267 247 267c53 0 122 -19 160 -74l12 62h123z
M433 191v168c-36 42 -78 57 -122 57c-91 0 -133 -76 -133 -149c0 -77 50 -145 131 -145c44 0 93 17 124 69z" />
    <glyph glyph-name="h" unicode="h" horiz-adv-x="618" 
d="M211 750v-286c42 51 101 74 155 74c57 0 107 -27 140 -69c41 -53 47 -121 47 -196v-273h-142v266c0 39 -1 83 -16 113c-13 26 -39 37 -70 37c-42 0 -88 -24 -114 -67v-349h-142v750h142z" />
    <glyph glyph-name="i" unicode="i" horiz-adv-x="280" 
d="M211 0h-142v526h142v-526zM211 599h-142v121h142v-121z" />
    <glyph glyph-name="j" unicode="j" horiz-adv-x="286" 
d="M217 599h-142v121h142v-121zM217 526v-563c0 -55 -10 -98 -34 -130c-27 -38 -74 -60 -146 -60c-41 0 -79 8 -114 22l38 113c18 -8 38 -13 61 -13c49 0 53 36 53 80v551h142z" />
    <glyph glyph-name="k" unicode="k" horiz-adv-x="555" 
d="M557 0h-174l-121 195l-51 -59v-136h-142v750h142v-438h2l170 214h162l-188 -220z" />
    <glyph glyph-name="l" unicode="l" horiz-adv-x="280" 
d="M211 750v-750h-142v750h142z" />
    <glyph glyph-name="m" unicode="m" horiz-adv-x="928" 
d="M863 0h-142v266c0 39 -1 83 -16 113c-13 26 -38 37 -70 37c-37 0 -77 -22 -103 -60c3 -26 5 -54 5 -83v-273h-142v266c0 39 0 84 -16 114c-13 25 -37 36 -67 36c-35 0 -75 -22 -101 -52v-364h-142v526h123l10 -64c42 53 100 76 152 76c60 0 122 -35 149 -88
c49 70 118 88 175 88c56 0 105 -26 138 -68c41 -53 47 -121 47 -197v-273z" />
    <glyph glyph-name="n" unicode="n" horiz-adv-x="618" 
d="M69 526h123l11 -72c42 59 105 84 163 84c57 0 107 -27 140 -69c41 -53 47 -121 47 -196v-273h-142v266c0 39 -1 83 -16 113c-13 26 -39 37 -70 37c-42 0 -88 -24 -114 -67v-349h-142v526z" />
    <glyph glyph-name="o" unicode="o" horiz-adv-x="617" 
d="M309 538c160 0 275 -120 275 -275s-115 -275 -275 -275c-161 0 -276 120 -276 275s115 275 276 275zM439 263c0 86 -52 153 -130 153s-131 -67 -131 -153s53 -153 131 -153s130 67 130 153z" />
    <glyph glyph-name="p" unicode="p" horiz-adv-x="644" 
d="M69 526h123l11 -65c38 57 109 77 163 77c140 0 245 -124 245 -277c0 -148 -104 -273 -246 -273c-51 0 -114 17 -154 63v-301h-142v776zM211 346v-179c35 -42 77 -57 122 -57c91 0 133 81 133 155c0 78 -49 151 -131 151c-45 0 -93 -18 -124 -70z" />
    <glyph glyph-name="q" unicode="q" horiz-adv-x="644" 
d="M575 -250h-142v305c-39 -50 -104 -67 -155 -67c-139 0 -245 124 -245 277c0 148 104 273 247 273c53 0 122 -19 160 -74l12 62h123v-776zM433 359c-36 42 -78 57 -122 57c-91 0 -133 -81 -133 -155c0 -77 50 -151 131 -151c45 0 93 17 124 69v180z" />
    <glyph glyph-name="r" unicode="r" horiz-adv-x="374" 
d="M192 526l11 -70c30 49 71 82 123 82c26 0 49 -5 68 -12l-34 -124c-15 8 -32 12 -50 12c-41 0 -78 -23 -99 -58v-356h-142v526h123z" />
    <glyph glyph-name="s" unicode="s" horiz-adv-x="481" 
d="M433 469l-78 -86c-27 24 -64 44 -104 44c-27 0 -51 -15 -51 -40c0 -33 39 -50 83 -68c68 -28 154 -62 154 -162c0 -116 -100 -169 -202 -169c-82 0 -154 32 -212 90l81 84c40 -39 73 -62 124 -62c29 0 67 14 67 46c0 37 -48 53 -100 76c-63 27 -132 63 -132 155
c0 107 92 161 188 161c70 0 133 -23 182 -69z" />
    <glyph glyph-name="t" unicode="t" horiz-adv-x="378" 
d="M351 408h-134v-204c0 -16 0 -30 2 -45c4 -31 16 -50 46 -50c22 0 39 6 57 15l44 -105c-34 -20 -84 -31 -125 -31c-82 0 -137 45 -156 113c-8 26 -10 57 -10 88v219h-63v118h63l22 116h120v-116h134v-118z" />
    <glyph glyph-name="u" unicode="u" horiz-adv-x="618" 
d="M549 0h-123l-11 72c-42 -59 -105 -84 -163 -84c-57 0 -107 27 -140 69c-41 53 -47 121 -47 196v273h142v-266c0 -39 1 -83 16 -113c13 -26 39 -37 70 -37c42 0 88 24 114 67v349h142v-526z" />
    <glyph glyph-name="v" unicode="v" horiz-adv-x="539" 
d="M377 526h158l-216 -526h-116l-198 526h157l106 -324h2z" />
    <glyph glyph-name="w" unicode="w" horiz-adv-x="777" 
d="M452 526l86 -325h3l83 325h148l-151 -526h-150l-83 301h-2l-84 -301h-153l-144 526h151l78 -326h2l91 326h125z" />
    <glyph glyph-name="x" unicode="x" horiz-adv-x="597" 
d="M592 526l-203 -262l197 -264h-182l-108 158l-112 -158h-179l208 268l-190 258h181l104 -152l106 152h178z" />
    <glyph glyph-name="y" unicode="y" horiz-adv-x="531" 
d="M3 526h155l106 -313h2l108 313h154l-296 -767l-127 49l84 223z" />
    <glyph glyph-name="z" unicode="z" horiz-adv-x="483" 
d="M50 66l200 342h-211v118h398v-65l-202 -343h219v-118h-404v66z" />
    <glyph glyph-name="bracketleft" unicode="[" horiz-adv-x="330" 
d="M321 -161h-252v908h252v-113h-121v-682h121v-113z" />
    <glyph glyph-name="bracketright" unicode="]" horiz-adv-x="331" 
d="M261 -161h-252v113h121v682h-121v113h252v-908z" />
    <glyph glyph-name="parenleft" unicode="(" horiz-adv-x="370" 
d="M371 -76l-49 -101c-162 99 -290 248 -290 484c0 235 126 381 288 482l52 -100c-106 -69 -202 -187 -202 -382s93 -314 201 -383z" />
    <glyph glyph-name="parenright" unicode=")" horiz-adv-x="370" 
d="M50 789c162 -101 288 -247 288 -482c0 -236 -128 -385 -290 -484l-49 101c108 69 201 188 201 383s-96 313 -202 382z" />
    <glyph glyph-name="braceleft" unicode="{" horiz-adv-x="344" 
d="M7 250l2 107c54 13 74 63 74 123v71c0 121 79 207 198 207c9 0 18 0 54 -3v-109h-39c-63 0 -82 -54 -82 -119v-73c0 -61 -20 -120 -63 -150c42 -31 63 -91 63 -151v-92c0 -66 19 -120 84 -120h37v-109c-36 -4 -45 -4 -54 -4c-119 0 -198 87 -198 208v103
c0 54 -23 101 -76 111z" />
    <glyph glyph-name="braceright" unicode="}" horiz-adv-x="344" 
d="M337 357l-2 -107c-54 -13 -74 -63 -74 -123v-92c0 -121 -79 -207 -198 -207c-9 0 -18 0 -54 3v109h39c63 0 82 54 82 119v94c0 61 20 120 63 150c-42 31 -63 91 -63 151v71c0 66 -19 120 -84 120h-37v109c36 4 45 4 54 4c119 0 198 -87 198 -208v-82
c0 -54 23 -101 76 -111z" />
    <glyph glyph-name="backslash" unicode="\" horiz-adv-x="405" 
d="M405 -14l-115 -46l-290 783l115 45z" />
    <glyph glyph-name="slash" unicode="/" horiz-adv-x="405" 
d="M405 723l-290 -783l-115 46l290 782z" />
    <glyph glyph-name="brokenbar" unicode="&#xa6;" horiz-adv-x="324" 
d="M226 -193h-128v397h128v-397zM226 353h-128v397h128v-397z" />
    <glyph glyph-name="bar" unicode="|" horiz-adv-x="324" 
d="M226 -170h-128v1028h128v-1028z" />
    <glyph glyph-name="section" unicode="&#xa7;" 
d="M473 640l-83 -86c-32 28 -73 45 -118 45c-32 0 -66 -16 -66 -48c0 -44 67 -60 139 -84c83 -28 174 -67 174 -173c0 -50 -24 -97 -84 -139c32 -25 54 -59 54 -111c0 -122 -104 -184 -220 -184c-87 0 -175 32 -243 93l84 91c49 -48 96 -68 153 -68c39 0 86 16 86 57
c0 53 -81 65 -160 91c-75 25 -149 62 -149 158c0 62 29 114 85 145c-32 27 -54 62 -54 114c0 109 97 170 200 170c77 0 146 -22 202 -71zM321 211c35 15 57 42 57 73c0 41 -63 57 -143 85c-39 -15 -54 -43 -54 -72c0 -38 42 -55 102 -74c12 -4 25 -8 38 -12z" />
    <glyph glyph-name="copyright" unicode="&#xa9;" horiz-adv-x="799" 
d="M51 333c0 190 161 345 354 345s354 -155 354 -345s-161 -345 -354 -345s-354 155 -354 345zM159 333c0 -136 110 -248 246 -248s246 112 246 248s-110 248 -246 248s-246 -112 -246 -248zM527 474l-50 -69c-20 16 -41 22 -63 22c-53 0 -88 -43 -88 -96
c0 -59 29 -97 88 -97c22 0 44 9 65 26l52 -65c-32 -29 -71 -46 -117 -46c-108 0 -188 72 -188 182c0 103 83 182 188 182c43 0 76 -13 113 -39z" />
    <glyph glyph-name="registered" unicode="&#xae;" horiz-adv-x="575" 
d="M43 475c0 134 110 242 245 242s245 -108 245 -242c0 -133 -110 -241 -245 -241s-245 108 -245 241zM123 475c0 -93 73 -168 165 -168s165 75 165 168c0 94 -73 169 -165 169s-165 -75 -165 -169zM400 361h-80l-49 76h-4v-76h-65v234h74c50 0 97 -22 97 -74
c0 -32 -18 -55 -43 -66zM267 542v-47c27 0 40 5 40 23c0 19 -9 24 -40 24z" />
    <glyph glyph-name="trademark" unicode="&#x2122;" horiz-adv-x="983" 
d="M363 615h-97v-341h-103v341h-97v85h297v-85zM816 570l-121 -296h-62l-119 298v-298h-101v426h153l99 -258l103 258h150v-426h-102v296z" />
    <glyph glyph-name="trademark.salt" horiz-adv-x="881" 
d="M413 700h118l95 -199l96 199h117v-426h-101v245l-80 -163h-65l-79 160v-242h-101v426zM363 615h-97v-341h-103v341h-97v85h297v-85z" />
    <glyph glyph-name="ordfeminine" unicode="&#xaa;" horiz-adv-x="389" 
d="M46 697c43 21 96 37 147 37c88 0 150 -45 150 -146v-202h-90l-6 27c-24 -26 -58 -35 -94 -35c-60 0 -122 36 -122 106c0 85 77 112 151 112c18 0 37 -2 58 -5v4c-2 40 -27 59 -68 59c-34 0 -74 -15 -100 -32zM240 532c-14 3 -26 4 -36 4c-33 0 -67 -12 -67 -47
c0 -28 22 -39 47 -39c21 0 41 8 56 21v61z" />
    <glyph glyph-name="ordmasculine" unicode="&#xba;" horiz-adv-x="413" 
d="M206 734c108 0 183 -78 183 -178s-75 -178 -183 -178s-183 78 -183 178s75 178 183 178zM206 653c-47 0 -77 -41 -77 -97s30 -97 77 -97s77 41 77 97s-30 97 -77 97z" />
    <glyph glyph-name="guillemotleft" unicode="&#xab;" horiz-adv-x="589" 
d="M301 325l161 168l78 -105l-127 -121l127 -120l-78 -106l-161 169v115zM49 325l161 168l77 -105l-126 -121l126 -120l-77 -106l-161 169v115z" />
    <glyph glyph-name="guillemotright" unicode="&#xbb;" horiz-adv-x="589" 
d="M126 490l161 -165v-116l-161 -165l-77 103l126 120l-126 120zM379 490l161 -165v-116l-161 -165l-78 103l127 120l-127 120z" />
    <glyph glyph-name="guilsinglleft" unicode="&#x2039;" horiz-adv-x="337" 
d="M49 325l161 168l77 -105l-126 -121l126 -120l-77 -106l-161 169v115z" />
    <glyph glyph-name="guilsinglright" unicode="&#x203a;" horiz-adv-x="337" 
d="M126 493l161 -168v-116l-161 -168l-77 106l126 120l-126 120z" />
    <glyph glyph-name="quoteleft" unicode="&#x2018;" horiz-adv-x="306" 
d="M257 700l-57 -276h-151l73 276h135z" />
    <glyph glyph-name="quoteright" unicode="&#x2019;" horiz-adv-x="306" 
d="M49 424l57 276h151l-73 -276h-135z" />
    <glyph glyph-name="quotesinglbase" unicode="&#x201a;" horiz-adv-x="306" 
d="M49 -127l57 276h151l-73 -276h-135z" />
    <glyph glyph-name="quotedblleft" unicode="&#x201c;" horiz-adv-x="571" 
d="M274 700l-57 -276h-151l73 276h135zM505 700l-57 -276h-151l73 276h135z" />
    <glyph glyph-name="quotedblright" unicode="&#x201d;" horiz-adv-x="571" 
d="M297 424l57 276h151l-73 -276h-135zM66 424l57 276h151l-73 -276h-135z" />
    <glyph glyph-name="quotedblbase" unicode="&#x201e;" horiz-adv-x="571" 
d="M297 -127l57 276h151l-73 -276h-135zM66 -127l57 276h151l-73 -276h-135z" />
    <glyph glyph-name="dagger" unicode="&#x2020;" horiz-adv-x="425" 
d="M155 138v161l3 147l-59 -2h-41v102h41l59 -3l-3 109v48h115v-48l-3 -109l59 3h41v-102h-41l-59 2l3 -147v-161h-115z" />
    <glyph glyph-name="daggerdbl" unicode="&#x2021;" horiz-adv-x="425" 
d="M58 433l99 -2v20v30v26l-99 -2v101l99 -2l-2 96h115l-2 -96l99 2v-101l-99 2v-26v-30v-20l99 2v-101l-99 2l2 -53v-143h-115v143l2 53l-99 -2v101z" />
    <glyph glyph-name="bullet" unicode="&#x2022;" horiz-adv-x="355" 
d="M35 289c0 79 64 143 143 143c78 0 142 -64 142 -143s-64 -143 -142 -143c-79 0 -143 64 -143 143z" />
    <glyph glyph-name="periodcentered" unicode="&#xb7;" horiz-adv-x="250" 
d="M201 245h-153v149h153v-149z" />
    <glyph glyph-name="ellipsis" unicode="&#x2026;" horiz-adv-x="750" 
d="M207 0h-152v149h152v-149zM694 0h-152v149h152v-149zM451 0h-153v149h153v-149z" />
    <glyph glyph-name="paragraph" unicode="&#xb6;" 
d="M512 -175h-121v875h121v-875zM344 -175h-120v445c-101 18 -196 80 -196 213c0 159 141 217 260 217h56v-875zM224 578c-40 -2 -77 -36 -77 -95s37 -93 77 -95v190z" />
    <glyph glyph-name="uni00AD" unicode="&#xad;" horiz-adv-x="447" 
d="M365 231h-283v118h283v-118z" />
    <glyph glyph-name="endash" unicode="&#x2013;" horiz-adv-x="600" 
d="M550 259h-500v119h500v-119z" />
    <glyph glyph-name="emdash" unicode="&#x2014;" horiz-adv-x="900" 
d="M850 259h-800v119h800v-119z" />
    <glyph glyph-name="hyphen.case" horiz-adv-x="447" 
d="M365 286h-283v118h283v-118z" />
    <glyph glyph-name="zero" unicode="0" horiz-adv-x="562" 
d="M281 676c159 0 248 -130 248 -344s-89 -344 -248 -344s-248 130 -248 344s89 344 248 344zM281 555c-66 0 -104 -73 -104 -223s38 -223 104 -223s104 73 104 223s-38 223 -104 223z" />
    <glyph glyph-name="one" unicode="1" horiz-adv-x="359" 
d="M281 0h-142v501c-30 -14 -67 -30 -94 -41v128c43 22 95 49 143 76h93v-664z" />
    <glyph glyph-name="two" unicode="2" horiz-adv-x="524" 
d="M500 119v-119h-446v105c77 80 167 183 226 268c24 35 48 78 48 117c0 41 -31 68 -73 68c-47 0 -76 -37 -76 -94l-141 23c9 115 108 189 219 189c110 0 215 -66 215 -184c0 -66 -29 -130 -68 -185c-48 -67 -106 -130 -160 -188h256z" />
    <glyph glyph-name="three" unicode="3" horiz-adv-x="536" 
d="M176 279v116c31 0 60 3 78 8c42 10 69 39 69 79c0 41 -31 74 -84 74c-40 0 -72 -24 -80 -67l-120 52c28 88 111 135 201 135c117 0 225 -68 225 -178c0 -57 -33 -114 -82 -142c68 -25 112 -91 112 -164c0 -129 -109 -204 -240 -204c-94 0 -187 48 -227 141l119 55
c20 -48 58 -76 109 -76c50 0 95 29 95 83c0 61 -51 93 -122 93c-12 0 -34 -1 -53 -5z" />
    <glyph glyph-name="four" unicode="4" horiz-adv-x="553" 
d="M443 0h-140v163h-281v119c84 109 192 259 279 382h142v-384h93v-117h-93v-163zM172 280h131v201c-39 -59 -100 -160 -131 -201z" />
    <glyph glyph-name="five" unicode="5" horiz-adv-x="516" 
d="M458 664v-119h-230c-2 -50 -5 -92 -10 -137c25 11 51 16 77 16c113 0 193 -96 193 -204c0 -134 -102 -232 -235 -232c-99 0 -182 46 -225 132l119 60c21 -55 65 -72 103 -72c59 0 94 49 94 101c0 56 -37 97 -95 97c-32 0 -60 -11 -85 -41l-92 65c10 96 19 246 22 334h364
z" />
    <glyph glyph-name="six" unicode="6" horiz-adv-x="555" 
d="M385 708l50 -111c-110 -47 -195 -106 -235 -204c30 25 67 40 112 40c122 0 210 -96 210 -213c0 -128 -93 -232 -231 -232c-162 0 -258 128 -258 274c0 217 162 369 352 446zM175 259c-8 -79 29 -154 109 -154c60 0 96 50 96 106c0 68 -46 105 -101 105
c-41 0 -82 -21 -104 -57z" />
    <glyph glyph-name="seven" unicode="7" horiz-adv-x="477" 
d="M461 664v-89c-82 -171 -201 -433 -273 -606l-127 57c89 210 188 404 242 519h-293v119h451z" />
    <glyph glyph-name="eight" unicode="8" horiz-adv-x="564" 
d="M421 349c62 -36 98 -81 98 -162c0 -111 -96 -199 -237 -199s-237 88 -237 199c0 81 36 126 98 162c-51 32 -78 77 -78 143c0 114 102 184 217 184s217 -70 217 -184c0 -66 -27 -111 -78 -143zM282 105c54 0 94 40 94 91s-40 91 -94 91s-94 -40 -94 -91s40 -91 94 -91z
M282 403c47 0 79 35 79 79c0 45 -32 77 -79 77s-79 -32 -79 -77c0 -44 32 -79 79 -79z" />
    <glyph glyph-name="nine" unicode="9" horiz-adv-x="555" 
d="M170 -44l-50 111c110 47 195 106 235 204c-30 -25 -67 -40 -112 -40c-122 0 -210 96 -210 213c0 128 93 232 231 232c162 0 258 -128 258 -274c0 -217 -162 -369 -352 -446zM380 405c8 79 -29 154 -109 154c-60 0 -96 -50 -96 -106c0 -68 46 -105 101 -105
c41 0 82 21 104 57z" />
    <glyph glyph-name="dollar" unicode="$" 
d="M9 101l90 87c41 -39 92 -82 158 -82c75 0 117 30 117 86c0 62 -77 81 -155 110c-81 29 -164 71 -164 182c0 116 81 181 188 190v96h83v-98c62 -9 117 -34 173 -74l-79 -97c-41 33 -87 59 -144 59c-40 0 -84 -23 -84 -70s75 -64 153 -93c84 -32 174 -78 174 -196
c0 -123 -93 -190 -200 -207v-100h-82v96c-90 6 -160 45 -228 111z" />
    <glyph glyph-name="Euro" unicode="&#x20ac;" horiz-adv-x="650" 
d="M14 362v95h85c54 150 202 219 323 219c74 0 146 -24 211 -64l-61 -103c-41 33 -91 53 -145 53c-85 0 -147 -41 -181 -105h236v-95h-265c-2 -10 -2 -20 -2 -30c0 -12 0 -23 2 -33h265v-93h-239c40 -78 117 -104 184 -104c52 0 107 20 147 56l73 -94
c-64 -48 -144 -76 -229 -76c-125 0 -268 67 -320 218h-84v93h66c-1 11 -2 21 -2 33c0 10 1 20 2 30h-66z" />
    <glyph glyph-name="cent" unicode="&#xa2;" 
d="M435 189l76 -97c-41 -36 -88 -55 -143 -62v-90h-84v89c-135 18 -228 124 -228 273c0 139 91 252 228 272v91h84v-91c54 -7 102 -28 143 -61l-72 -100c-30 27 -62 43 -102 43c-80 0 -137 -70 -137 -154c0 -87 59 -153 134 -153c40 0 71 11 101 40z" />
    <glyph glyph-name="sterling" unicode="&#xa3;" 
d="M508 0h-436v121h54v177h-54v120h54v29c0 133 91 229 217 229c56 0 119 -17 171 -48l-55 -108c-30 24 -67 36 -100 36c-58 0 -94 -43 -94 -120v-18h128v-120h-128v-177h243v-121z" />
    <glyph glyph-name="yen" unicode="&#xa5;" 
d="M41 257v94h127l-176 314h160l126 -229h2l118 229h159l-179 -314h126v-94h-162v-56h162v-93h-162v-108h-139v108h-162v93h162v56h-162z" />
    <glyph glyph-name="florin" unicode="&#x192;" 
d="M426 417v-119h-126l-36 -324c-13 -112 -79 -174 -176 -174c-30 0 -62 5 -95 14l28 114c16 -6 33 -9 51 -9c43 0 49 34 54 77l34 302h-73v119h86l10 86c13 111 80 173 181 173c47 0 98 -11 151 -36l-46 -111c-28 18 -57 29 -90 29c-45 0 -53 -34 -58 -77l-7 -64h112z" />
    <glyph glyph-name="afii61352" unicode="&#x2116;" horiz-adv-x="1143" 
d="M671 0h-129l-321 438v-438h-143v700h126l324 -439v439h143v-700zM936 728c108 0 183 -78 183 -178s-75 -178 -183 -178s-183 78 -183 178s75 178 183 178zM936 647c-47 0 -77 -41 -77 -97s30 -97 77 -97s77 41 77 97s-30 97 -77 97z" />
    <glyph glyph-name="currency" unicode="&#xa4;" 
d="M56 326c0 39 11 76 29 109l-58 58l81 81l59 -58c31 18 68 29 108 29c39 0 76 -11 108 -29l59 58l81 -81l-59 -58c19 -33 30 -70 30 -109c0 -40 -11 -77 -29 -109l58 -57l-81 -81l-58 58c-32 -20 -70 -30 -109 -30c-40 0 -78 10 -110 29l-57 -57l-81 81l58 57
c-19 32 -29 69 -29 109zM162 326c0 -63 50 -114 113 -114c62 0 113 51 113 114c0 62 -51 113 -113 113c-63 0 -113 -51 -113 -113z" />
    <glyph glyph-name="zero.lf" horiz-adv-x="562" 
d="M281 676c159 0 248 -130 248 -344s-89 -344 -248 -344s-248 130 -248 344s89 344 248 344zM281 555c-66 0 -104 -73 -104 -223s38 -223 104 -223s104 73 104 223s-38 223 -104 223z" />
    <glyph glyph-name="one.lf" horiz-adv-x="359" 
d="M281 0h-142v501c-30 -14 -67 -30 -94 -41v128c43 22 95 49 143 76h93v-664z" />
    <glyph glyph-name="two.lf" horiz-adv-x="524" 
d="M500 119v-119h-446v105c77 80 167 183 226 268c24 35 48 78 48 117c0 41 -31 68 -73 68c-47 0 -76 -37 -76 -94l-141 23c9 115 108 189 219 189c110 0 215 -66 215 -184c0 -66 -29 -130 -68 -185c-48 -67 -106 -130 -160 -188h256z" />
    <glyph glyph-name="three.lf" horiz-adv-x="536" 
d="M176 279v116c31 0 60 3 78 8c42 10 69 39 69 79c0 41 -31 74 -84 74c-40 0 -72 -24 -80 -67l-120 52c28 88 111 135 201 135c117 0 225 -68 225 -178c0 -57 -33 -114 -82 -142c68 -25 112 -91 112 -164c0 -129 -109 -204 -240 -204c-94 0 -187 48 -227 141l119 55
c20 -48 58 -76 109 -76c50 0 95 29 95 83c0 61 -51 93 -122 93c-12 0 -34 -1 -53 -5z" />
    <glyph glyph-name="four.lf" horiz-adv-x="553" 
d="M443 0h-140v163h-281v119c84 109 192 259 279 382h142v-384h93v-117h-93v-163zM172 280h131v201c-39 -59 -100 -160 -131 -201z" />
    <glyph glyph-name="five.lf" horiz-adv-x="516" 
d="M458 664v-119h-230c-2 -50 -5 -92 -10 -137c25 11 51 16 77 16c113 0 193 -96 193 -204c0 -134 -102 -232 -235 -232c-99 0 -182 46 -225 132l119 60c21 -55 65 -72 103 -72c59 0 94 49 94 101c0 56 -37 97 -95 97c-32 0 -60 -11 -85 -41l-92 65c10 96 19 246 22 334h364
z" />
    <glyph glyph-name="six.lf" horiz-adv-x="555" 
d="M385 708l50 -111c-110 -47 -195 -106 -235 -204c30 25 67 40 112 40c122 0 210 -96 210 -213c0 -128 -93 -232 -231 -232c-162 0 -258 128 -258 274c0 217 162 369 352 446zM175 259c-8 -79 29 -154 109 -154c60 0 96 50 96 106c0 68 -46 105 -101 105
c-41 0 -82 -21 -104 -57z" />
    <glyph glyph-name="seven.lf" horiz-adv-x="477" 
d="M461 664v-89c-82 -171 -201 -433 -273 -606l-127 57c89 210 188 404 242 519h-293v119h451z" />
    <glyph glyph-name="eight.lf" horiz-adv-x="564" 
d="M421 349c62 -36 98 -81 98 -162c0 -111 -96 -199 -237 -199s-237 88 -237 199c0 81 36 126 98 162c-51 32 -78 77 -78 143c0 114 102 184 217 184s217 -70 217 -184c0 -66 -27 -111 -78 -143zM282 105c54 0 94 40 94 91s-40 91 -94 91s-94 -40 -94 -91s40 -91 94 -91z
M282 403c47 0 79 35 79 79c0 45 -32 77 -79 77s-79 -32 -79 -77c0 -44 32 -79 79 -79z" />
    <glyph glyph-name="nine.lf" horiz-adv-x="555" 
d="M170 -44l-50 111c110 47 195 106 235 204c-30 -25 -67 -40 -112 -40c-122 0 -210 96 -210 213c0 128 93 232 231 232c162 0 258 -128 258 -274c0 -217 -162 -369 -352 -446zM380 405c8 79 -29 154 -109 154c-60 0 -96 -50 -96 -106c0 -68 46 -105 101 -105
c41 0 82 21 104 57z" />
    <glyph glyph-name="dollar.lf" 
d="M9 101l90 87c41 -39 92 -82 158 -82c75 0 117 30 117 86c0 62 -77 81 -155 110c-81 29 -164 71 -164 182c0 116 81 181 188 190v96h83v-98c62 -9 117 -34 173 -74l-79 -97c-41 33 -87 59 -144 59c-40 0 -84 -23 -84 -70s75 -64 153 -93c84 -32 174 -78 174 -196
c0 -123 -93 -190 -200 -207v-100h-82v96c-90 6 -160 45 -228 111z" />
    <glyph glyph-name="Euro.lf" horiz-adv-x="650" 
d="M14 362v95h85c54 150 202 219 323 219c74 0 146 -24 211 -64l-61 -103c-41 33 -91 53 -145 53c-85 0 -147 -41 -181 -105h236v-95h-265c-2 -10 -2 -20 -2 -30c0 -12 0 -23 2 -33h265v-93h-239c40 -78 117 -104 184 -104c52 0 107 20 147 56l73 -94
c-64 -48 -144 -76 -229 -76c-125 0 -268 67 -320 218h-84v93h66c-1 11 -2 21 -2 33c0 10 1 20 2 30h-66z" />
    <glyph glyph-name="cent.lf" 
d="M435 189l76 -97c-41 -36 -88 -55 -143 -62v-90h-84v89c-135 18 -228 124 -228 273c0 139 91 252 228 272v91h84v-91c54 -7 102 -28 143 -61l-72 -100c-30 27 -62 43 -102 43c-80 0 -137 -70 -137 -154c0 -87 59 -153 134 -153c40 0 71 11 101 40z" />
    <glyph glyph-name="sterling.lf" 
d="M508 0h-436v121h54v177h-54v120h54v29c0 133 91 229 217 229c56 0 119 -17 171 -48l-55 -108c-30 24 -67 36 -100 36c-58 0 -94 -43 -94 -120v-18h128v-120h-128v-177h243v-121z" />
    <glyph glyph-name="yen.lf" 
d="M41 257v94h127l-176 314h160l126 -229h2l118 229h159l-179 -314h126v-94h-162v-56h162v-93h-162v-108h-139v108h-162v93h162v56h-162z" />
    <glyph glyph-name="florin.lf" 
d="M426 417v-119h-126l-36 -324c-13 -112 -79 -174 -176 -174c-30 0 -62 5 -95 14l28 114c16 -6 33 -9 51 -9c43 0 49 34 54 77l34 302h-73v119h86l10 86c13 111 80 173 181 173c47 0 98 -11 151 -36l-46 -111c-28 18 -57 29 -90 29c-45 0 -53 -34 -58 -77l-7 -64h112z" />
    <glyph glyph-name="afii61352.lf" horiz-adv-x="1143" 
d="M671 0h-129l-321 438v-438h-143v700h126l324 -439v439h143v-700zM936 728c108 0 183 -78 183 -178s-75 -178 -183 -178s-183 78 -183 178s75 178 183 178zM936 647c-47 0 -77 -41 -77 -97s30 -97 77 -97s77 41 77 97s-30 97 -77 97z" />
    <glyph glyph-name="percent.lf" horiz-adv-x="856" 
d="M225 706c95 0 176 -71 176 -171c0 -99 -81 -170 -176 -170c-96 0 -177 71 -177 170c0 100 81 171 177 171zM225 606c-38 0 -65 -29 -65 -71c0 -41 27 -70 65 -70c37 0 64 29 64 70c0 42 -27 71 -64 71zM632 335c95 0 176 -71 176 -170c0 -100 -81 -171 -176 -171
c-96 0 -177 71 -177 171c0 99 81 170 177 170zM632 235c-38 0 -65 -29 -65 -70c0 -42 27 -71 65 -71c37 0 64 29 64 71c0 41 -27 70 -64 70zM642 718l71 -53l-498 -683l-71 53z" />
    <glyph glyph-name="perthousand.lf" horiz-adv-x="1248" 
d="M1023 335c96 0 177 -71 177 -170c0 -100 -81 -171 -177 -171c-95 0 -176 71 -176 171c0 99 81 170 176 170zM1024 235c-38 0 -65 -29 -65 -70c0 -42 27 -71 65 -71c36 0 64 29 64 71c0 41 -28 70 -64 70zM225 706c95 0 176 -71 176 -171c0 -99 -81 -170 -176 -170
c-96 0 -177 71 -177 170c0 100 81 171 177 171zM225 606c-38 0 -65 -29 -65 -71c0 -41 27 -70 65 -70c37 0 64 29 64 70c0 42 -27 71 -64 71zM632 335c95 0 176 -71 176 -170c0 -100 -81 -171 -176 -171c-96 0 -177 71 -177 171c0 99 81 170 177 170zM632 235
c-38 0 -65 -29 -65 -70c0 -42 27 -71 65 -71c37 0 64 29 64 71c0 41 -27 70 -64 70zM642 718l71 -53l-498 -683l-71 53z" />
    <glyph glyph-name="zero.osf" horiz-adv-x="635" 
d="M317 538c153 0 285 -116 285 -275c0 -160 -132 -275 -285 -275c-152 0 -284 115 -284 275s132 275 284 275zM317 418c-80 0 -140 -64 -140 -155s60 -155 140 -155c81 0 141 64 141 155s-60 155 -141 155z" />
    <glyph glyph-name="one.osf" horiz-adv-x="359" 
d="M281 0h-142v367c-29 -15 -68 -30 -94 -41v128c43 21 95 48 143 75h93v-529z" />
    <glyph glyph-name="two.osf" horiz-adv-x="521" 
d="M181 332l-141 19c1 117 97 187 208 187c112 0 208 -60 208 -174c0 -65 -42 -114 -92 -159c-31 -27 -74 -57 -121 -86h251v-119h-438v121c89 59 153 105 194 141c47 41 62 69 62 101c0 37 -28 56 -65 56s-71 -28 -66 -87z" />
    <glyph glyph-name="three.osf" horiz-adv-x="536" 
d="M176 141v116c31 0 60 3 78 8c42 10 69 39 69 79c0 41 -31 74 -84 74c-40 0 -72 -24 -80 -67l-120 52c28 88 111 135 201 135c117 0 225 -68 225 -178c0 -57 -33 -114 -82 -142c68 -25 112 -91 112 -164c0 -129 -109 -204 -240 -204c-94 0 -187 48 -227 141l119 55
c20 -48 58 -76 109 -76c50 0 95 29 95 83c0 61 -51 93 -122 93c-12 0 -34 -1 -53 -5z" />
    <glyph glyph-name="four.osf" horiz-adv-x="567" 
d="M551 0h-82v-153h-140v153h-309v120c109 136 217 273 321 406h128v-409h82v-117zM172 117h157v205c-50 -68 -109 -143 -157 -205z" />
    <glyph glyph-name="five.osf" horiz-adv-x="516" 
d="M458 526v-119h-230c-2 -50 -5 -92 -10 -137c25 11 51 16 77 16c113 0 193 -96 193 -204c0 -134 -102 -232 -235 -232c-99 0 -182 46 -225 132l119 60c21 -55 65 -72 103 -72c59 0 94 49 94 101c0 56 -37 97 -95 97c-32 0 -60 -11 -85 -41l-92 65c10 96 19 246 22 334h364
z" />
    <glyph glyph-name="six.osf" horiz-adv-x="555" 
d="M385 708l50 -111c-110 -47 -195 -106 -235 -204c30 25 67 40 112 40c122 0 210 -96 210 -213c0 -128 -93 -232 -231 -232c-162 0 -258 128 -258 274c0 217 162 369 352 446zM175 259c-8 -79 29 -154 109 -154c60 0 96 50 96 106c0 68 -46 105 -101 105
c-41 0 -82 -21 -104 -57z" />
    <glyph glyph-name="seven.osf" horiz-adv-x="477" 
d="M461 526v-89c-82 -171 -201 -433 -273 -606l-127 57c89 210 188 404 242 519h-293v119h451z" />
    <glyph glyph-name="eight.osf" horiz-adv-x="564" 
d="M421 349c62 -36 98 -81 98 -162c0 -111 -96 -199 -237 -199s-237 88 -237 199c0 81 36 126 98 162c-51 32 -78 77 -78 143c0 114 102 184 217 184s217 -70 217 -184c0 -66 -27 -111 -78 -143zM282 105c54 0 94 40 94 91s-40 91 -94 91s-94 -40 -94 -91s40 -91 94 -91z
M282 403c47 0 79 35 79 79c0 45 -32 77 -79 77s-79 -32 -79 -77c0 -44 32 -79 79 -79z" />
    <glyph glyph-name="nine.osf" horiz-adv-x="555" 
d="M170 -182l-50 111c110 47 195 106 235 204c-30 -25 -67 -40 -112 -40c-122 0 -210 96 -210 213c0 128 93 232 231 232c162 0 258 -128 258 -274c0 -217 -162 -369 -352 -446zM380 267c8 79 -29 154 -109 154c-60 0 -96 -50 -96 -106c0 -68 46 -105 101 -105
c41 0 82 21 104 57z" />
    <glyph glyph-name="dollar.osf" 
d="M9 101l90 87c41 -39 92 -82 158 -82c75 0 117 30 117 86c0 62 -77 81 -155 110c-81 29 -164 71 -164 182c0 116 81 181 188 190v96h83v-98c62 -9 117 -34 173 -74l-79 -97c-41 33 -87 59 -144 59c-40 0 -84 -23 -84 -70s75 -64 153 -93c84 -32 174 -78 174 -196
c0 -123 -93 -190 -200 -207v-100h-82v96c-90 6 -160 45 -228 111z" />
    <glyph glyph-name="Euro.osf" horiz-adv-x="650" 
d="M14 362v95h85c54 150 202 219 323 219c74 0 146 -24 211 -64l-61 -103c-41 33 -91 53 -145 53c-85 0 -147 -41 -181 -105h236v-95h-265c-2 -10 -2 -20 -2 -30c0 -12 0 -23 2 -33h265v-93h-239c40 -78 117 -104 184 -104c52 0 107 20 147 56l73 -94
c-64 -48 -144 -76 -229 -76c-125 0 -268 67 -320 218h-84v93h66c-1 11 -2 21 -2 33c0 10 1 20 2 30h-66z" />
    <glyph glyph-name="cent.osf" 
d="M435 189l76 -97c-41 -36 -88 -55 -143 -62v-90h-84v89c-135 18 -228 124 -228 273c0 139 91 252 228 272v91h84v-91c54 -7 102 -28 143 -61l-72 -100c-30 27 -62 43 -102 43c-80 0 -137 -70 -137 -154c0 -87 59 -153 134 -153c40 0 71 11 101 40z" />
    <glyph glyph-name="sterling.osf" 
d="M508 0h-436v121h54v177h-54v120h54v29c0 133 91 229 217 229c56 0 119 -17 171 -48l-55 -108c-30 24 -67 36 -100 36c-58 0 -94 -43 -94 -120v-18h128v-120h-128v-177h243v-121z" />
    <glyph glyph-name="yen.osf" 
d="M41 257v94h127l-176 314h160l126 -229h2l118 229h159l-179 -314h126v-94h-162v-56h162v-93h-162v-108h-139v108h-162v93h162v56h-162z" />
    <glyph glyph-name="florin.osf" 
d="M426 417v-119h-126l-36 -324c-13 -112 -79 -174 -176 -174c-30 0 -62 5 -95 14l28 114c16 -6 33 -9 51 -9c43 0 49 34 54 77l34 302h-73v119h86l10 86c13 111 80 173 181 173c47 0 98 -11 151 -36l-46 -111c-28 18 -57 29 -90 29c-45 0 -53 -34 -58 -77l-7 -64h112z" />
    <glyph glyph-name="afii61352.osf" horiz-adv-x="1143" 
d="M671 0h-129l-321 438v-438h-143v700h126l324 -439v439h143v-700zM936 728c108 0 183 -78 183 -178s-75 -178 -183 -178s-183 78 -183 178s75 178 183 178zM936 647c-47 0 -77 -41 -77 -97s30 -97 77 -97s77 41 77 97s-30 97 -77 97z" />
    <glyph glyph-name="percent.osf" horiz-adv-x="856" 
d="M225 706c95 0 176 -71 176 -171c0 -99 -81 -170 -176 -170c-96 0 -177 71 -177 170c0 100 81 171 177 171zM225 606c-38 0 -65 -29 -65 -71c0 -41 27 -70 65 -70c37 0 64 29 64 70c0 42 -27 71 -64 71zM632 335c95 0 176 -71 176 -170c0 -100 -81 -171 -176 -171
c-96 0 -177 71 -177 171c0 99 81 170 177 170zM632 235c-38 0 -65 -29 -65 -70c0 -42 27 -71 65 -71c37 0 64 29 64 71c0 41 -27 70 -64 70zM642 718l71 -53l-498 -683l-71 53z" />
    <glyph glyph-name="perthousand.osf" horiz-adv-x="1248" 
d="M1023 335c96 0 177 -71 177 -170c0 -100 -81 -171 -177 -171c-95 0 -176 71 -176 171c0 99 81 170 176 170zM1024 235c-38 0 -65 -29 -65 -70c0 -42 27 -71 65 -71c36 0 64 29 64 71c0 41 -28 70 -64 70zM225 706c95 0 176 -71 176 -171c0 -99 -81 -170 -176 -170
c-96 0 -177 71 -177 170c0 100 81 171 177 171zM225 606c-38 0 -65 -29 -65 -71c0 -41 27 -70 65 -70c37 0 64 29 64 70c0 42 -27 71 -64 71zM632 335c95 0 176 -71 176 -170c0 -100 -81 -171 -176 -171c-96 0 -177 71 -177 171c0 99 81 170 177 170zM632 235
c-38 0 -65 -29 -65 -70c0 -42 27 -71 65 -71c37 0 64 29 64 71c0 41 -27 70 -64 70zM642 718l71 -53l-498 -683l-71 53z" />
    <glyph glyph-name="zero.slash" 
d="M275 676c159 0 248 -130 248 -344s-89 -344 -248 -344s-248 130 -248 344s89 344 248 344zM275 109c58 0 94 57 102 173h-205c8 -116 45 -173 103 -173zM275 555c-58 0 -94 -56 -102 -170h204c-8 114 -45 170 -102 170z" />
    <glyph glyph-name="zero.tf" 
d="M275 676c159 0 248 -130 248 -344s-89 -344 -248 -344s-248 130 -248 344s89 344 248 344zM275 555c-66 0 -104 -73 -104 -223s38 -223 104 -223s104 73 104 223s-38 223 -104 223z" />
    <glyph glyph-name="one.tf" 
d="M97 119h145v396c-50 -23 -109 -50 -163 -74v126c69 35 141 72 210 108h95v-556h142v-119h-429v119z" />
    <glyph glyph-name="two.tf" 
d="M502 119v-119h-446v105c77 80 167 183 226 268c24 35 48 78 48 117c0 41 -31 68 -73 68c-47 0 -76 -37 -76 -94l-141 23c9 115 108 189 219 189c110 0 215 -66 215 -184c0 -66 -29 -130 -68 -185c-48 -67 -106 -130 -160 -188h256z" />
    <glyph glyph-name="three.tf" 
d="M170 279v116c31 0 60 3 78 8c42 10 69 39 69 79c0 41 -31 74 -84 74c-40 0 -72 -24 -80 -67l-120 52c28 88 111 135 201 135c117 0 225 -68 225 -178c0 -57 -33 -114 -82 -142c68 -25 112 -91 112 -164c0 -129 -109 -204 -240 -204c-94 0 -187 48 -227 141l119 55
c20 -48 58 -76 109 -76c50 0 95 29 95 83c0 61 -51 93 -122 93c-12 0 -34 -1 -53 -5z" />
    <glyph glyph-name="four.tf" 
d="M434 0h-140v163h-281v119c84 109 192 259 279 382h142v-384h93v-117h-93v-163zM163 280h131v201c-39 -59 -100 -160 -131 -201z" />
    <glyph glyph-name="five.tf" 
d="M465 664v-119h-230c-2 -50 -5 -92 -10 -137c25 11 51 16 77 16c113 0 193 -96 193 -204c0 -134 -102 -232 -235 -232c-99 0 -182 46 -225 132l119 60c21 -55 65 -72 103 -72c59 0 94 49 94 101c0 56 -37 97 -95 97c-32 0 -60 -11 -85 -41l-92 65c10 96 19 246 22 334h364
z" />
    <glyph glyph-name="six.tf" 
d="M382 708l50 -111c-110 -47 -195 -106 -235 -204c30 25 67 40 112 40c122 0 210 -96 210 -213c0 -128 -93 -232 -231 -232c-162 0 -258 128 -258 274c0 217 162 369 352 446zM172 259c-8 -79 29 -154 109 -154c60 0 96 50 96 106c0 68 -46 105 -101 105
c-41 0 -82 -21 -104 -57z" />
    <glyph glyph-name="seven.tf" 
d="M501 664v-89c-82 -171 -201 -433 -273 -606l-127 57c89 210 188 404 242 519h-293v119h451z" />
    <glyph glyph-name="eight.tf" 
d="M414 349c62 -36 98 -81 98 -162c0 -111 -96 -199 -237 -199s-237 88 -237 199c0 81 36 126 98 162c-51 32 -78 77 -78 143c0 114 102 184 217 184s217 -70 217 -184c0 -66 -27 -111 -78 -143zM275 105c54 0 94 40 94 91s-40 91 -94 91s-94 -40 -94 -91s40 -91 94 -91z
M275 403c47 0 79 35 79 79c0 45 -32 77 -79 77s-79 -32 -79 -77c0 -44 32 -79 79 -79z" />
    <glyph glyph-name="nine.tf" 
d="M168 -44l-50 111c110 47 195 106 235 204c-30 -25 -67 -40 -112 -40c-122 0 -210 96 -210 213c0 128 93 232 231 232c162 0 258 -128 258 -274c0 -217 -162 -369 -352 -446zM378 405c8 79 -29 154 -109 154c-60 0 -96 -50 -96 -106c0 -68 46 -105 101 -105
c41 0 82 21 104 57z" />
    <glyph glyph-name="dollar.tf" 
d="M9 101l90 87c41 -39 92 -82 158 -82c75 0 117 30 117 86c0 62 -77 81 -155 110c-81 29 -164 71 -164 182c0 116 81 181 188 190v96h83v-98c62 -9 117 -34 173 -74l-79 -97c-41 33 -87 59 -144 59c-40 0 -84 -23 -84 -70s75 -64 153 -93c84 -32 174 -78 174 -196
c0 -123 -93 -190 -200 -207v-100h-82v96c-90 6 -160 45 -228 111z" />
    <glyph glyph-name="Euro.tf" 
d="M16 362v95h75c27 133 101 220 235 220c98 0 179 -55 208 -151l-111 -39c-16 43 -52 70 -94 70c-52 0 -81 -39 -95 -100h133v-95h-144v-31v-32h144v-93h-134c14 -61 44 -97 96 -97c51 0 90 42 104 98l113 -37c-34 -115 -107 -182 -220 -182c-130 0 -207 85 -235 218h-75
v93h63v32v31h-63z" />
    <glyph glyph-name="cent.tf" 
d="M435 189l76 -97c-41 -36 -88 -55 -143 -62v-90h-84v89c-135 18 -228 124 -228 273c0 139 91 252 228 272v91h84v-91c54 -7 102 -28 143 -61l-72 -100c-30 27 -62 43 -102 43c-80 0 -137 -70 -137 -154c0 -87 59 -153 134 -153c40 0 71 11 101 40z" />
    <glyph glyph-name="sterling.tf" 
d="M508 0h-436v121h54v177h-54v120h54v29c0 133 91 229 217 229c56 0 119 -17 171 -48l-55 -108c-30 24 -67 36 -100 36c-58 0 -94 -43 -94 -120v-18h128v-120h-128v-177h243v-121z" />
    <glyph glyph-name="yen.tf" 
d="M41 257v94h127l-176 314h160l126 -229h2l118 229h159l-179 -314h126v-94h-162v-56h162v-93h-162v-108h-139v108h-162v93h162v56h-162z" />
    <glyph glyph-name="florin.tf" 
d="M426 417v-119h-126l-36 -324c-13 -112 -79 -174 -176 -174c-30 0 -62 5 -95 14l28 114c16 -6 33 -9 51 -9c43 0 49 34 54 77l34 302h-73v119h86l10 86c13 111 80 173 181 173c47 0 98 -11 151 -36l-46 -111c-28 18 -57 29 -90 29c-45 0 -53 -34 -58 -77l-7 -64h112z" />
    <glyph glyph-name="afii61352.tf" horiz-adv-x="1143" 
d="M671 0h-129l-321 438v-438h-143v700h126l324 -439v439h143v-700zM936 728c108 0 183 -78 183 -178s-75 -178 -183 -178s-183 78 -183 178s75 178 183 178zM936 647c-47 0 -77 -41 -77 -97s30 -97 77 -97s77 41 77 97s-30 97 -77 97z" />
    <glyph glyph-name="percent.tf" horiz-adv-x="856" 
d="M225 706c95 0 176 -71 176 -171c0 -99 -81 -170 -176 -170c-96 0 -177 71 -177 170c0 100 81 171 177 171zM225 606c-38 0 -65 -29 -65 -71c0 -41 27 -70 65 -70c37 0 64 29 64 70c0 42 -27 71 -64 71zM632 335c95 0 176 -71 176 -170c0 -100 -81 -171 -176 -171
c-96 0 -177 71 -177 171c0 99 81 170 177 170zM632 235c-38 0 -65 -29 -65 -70c0 -42 27 -71 65 -71c37 0 64 29 64 71c0 41 -27 70 -64 70zM642 718l71 -53l-498 -683l-71 53z" />
    <glyph glyph-name="perthousand.tf" horiz-adv-x="1248" 
d="M1023 335c96 0 177 -71 177 -170c0 -100 -81 -171 -177 -171c-95 0 -176 71 -176 171c0 99 81 170 176 170zM1024 235c-38 0 -65 -29 -65 -70c0 -42 27 -71 65 -71c36 0 64 29 64 71c0 41 -28 70 -64 70zM225 706c95 0 176 -71 176 -171c0 -99 -81 -170 -176 -170
c-96 0 -177 71 -177 170c0 100 81 171 177 171zM225 606c-38 0 -65 -29 -65 -71c0 -41 27 -70 65 -70c37 0 64 29 64 70c0 42 -27 71 -64 71zM632 335c95 0 176 -71 176 -170c0 -100 -81 -171 -176 -171c-96 0 -177 71 -177 171c0 99 81 170 177 170zM632 235
c-38 0 -65 -29 -65 -70c0 -42 27 -71 65 -71c37 0 64 29 64 71c0 41 -27 70 -64 70zM642 718l71 -53l-498 -683l-71 53z" />
    <glyph glyph-name="zeroslash.tosf" 
d="M275 538c157 0 249 -116 249 -275s-92 -275 -249 -275s-249 116 -249 275s92 275 249 275zM275 108c55 0 90 39 101 105h-203c11 -66 46 -105 102 -105zM275 418c-55 0 -90 -38 -101 -103h202c-12 65 -46 103 -101 103z" />
    <glyph glyph-name="zero.tosf" 
d="M275 538c157 0 249 -116 249 -275s-92 -275 -249 -275s-249 116 -249 275s92 275 249 275zM275 418c-68 0 -106 -58 -106 -155s38 -155 106 -155s106 58 106 155s-38 155 -106 155z" />
    <glyph glyph-name="one.tosf" 
d="M97 120h145v249c-46 -23 -110 -52 -163 -74v126c67 32 144 71 210 108h95v-409h142v-120h-429v120z" />
    <glyph glyph-name="two.tosf" 
d="M188 332l-141 19c1 117 97 187 208 187c112 0 208 -60 208 -174c0 -65 -42 -114 -92 -159c-31 -27 -74 -57 -121 -86h251v-119h-438v121c89 59 153 105 194 141c47 41 62 69 62 101c0 37 -28 56 -65 56s-71 -28 -66 -87z" />
    <glyph glyph-name="three.tosf" 
d="M170 141v116c31 0 60 3 78 8c42 10 69 39 69 79c0 41 -31 74 -84 74c-40 0 -72 -24 -80 -67l-120 52c28 88 111 135 201 135c117 0 225 -68 225 -178c0 -57 -33 -114 -82 -142c68 -25 112 -91 112 -164c0 -129 -109 -204 -240 -204c-94 0 -187 48 -227 141l119 55
c20 -48 58 -76 109 -76c50 0 95 29 95 83c0 61 -51 93 -122 93c-12 0 -34 -1 -53 -5z" />
    <glyph glyph-name="four.tosf" 
d="M542 0h-82v-153h-140v153h-309v120c109 136 217 273 321 406h128v-409h82v-117zM163 117h157v205c-50 -68 -109 -143 -157 -205z" />
    <glyph glyph-name="five.tosf" 
d="M465 526v-119h-230c-2 -50 -5 -92 -10 -137c25 11 51 16 77 16c113 0 193 -96 193 -204c0 -134 -102 -232 -235 -232c-99 0 -182 46 -225 132l119 60c21 -55 65 -72 103 -72c59 0 94 49 94 101c0 56 -37 97 -95 97c-32 0 -60 -11 -85 -41l-92 65c10 96 19 246 22 334h364
z" />
    <glyph glyph-name="six.tosf" 
d="M382 708l50 -111c-110 -47 -195 -106 -235 -204c30 25 67 40 112 40c122 0 210 -96 210 -213c0 -128 -93 -232 -231 -232c-162 0 -258 128 -258 274c0 217 162 369 352 446zM172 259c-8 -79 29 -154 109 -154c60 0 96 50 96 106c0 68 -46 105 -101 105
c-41 0 -82 -21 -104 -57z" />
    <glyph glyph-name="seven.tosf" 
d="M501 526v-89c-82 -171 -201 -433 -273 -606l-127 57c89 210 188 404 242 519h-293v119h451z" />
    <glyph glyph-name="eight.tosf" 
d="M414 349c62 -36 98 -81 98 -162c0 -111 -96 -199 -237 -199s-237 88 -237 199c0 81 36 126 98 162c-51 32 -78 77 -78 143c0 114 102 184 217 184s217 -70 217 -184c0 -66 -27 -111 -78 -143zM275 105c54 0 94 40 94 91s-40 91 -94 91s-94 -40 -94 -91s40 -91 94 -91z
M275 403c47 0 79 35 79 79c0 45 -32 77 -79 77s-79 -32 -79 -77c0 -44 32 -79 79 -79z" />
    <glyph glyph-name="nine.tosf" 
d="M168 -182l-50 111c110 47 195 106 235 204c-30 -25 -67 -40 -112 -40c-122 0 -210 96 -210 213c0 128 93 232 231 232c162 0 258 -128 258 -274c0 -217 -162 -369 -352 -446zM378 267c8 79 -29 154 -109 154c-60 0 -96 -50 -96 -106c0 -68 46 -105 101 -105
c41 0 82 21 104 57z" />
    <glyph glyph-name="dollar.tosf" 
d="M9 101l90 87c41 -39 92 -82 158 -82c75 0 117 30 117 86c0 62 -77 81 -155 110c-81 29 -164 71 -164 182c0 116 81 181 188 190v96h83v-98c62 -9 117 -34 173 -74l-79 -97c-41 33 -87 59 -144 59c-40 0 -84 -23 -84 -70s75 -64 153 -93c84 -32 174 -78 174 -196
c0 -123 -93 -190 -200 -207v-100h-82v96c-90 6 -160 45 -228 111z" />
    <glyph glyph-name="Euro.tosf" 
d="M16 362v95h75c27 133 101 220 235 220c98 0 179 -55 208 -151l-111 -39c-16 43 -52 70 -94 70c-52 0 -81 -39 -95 -100h133v-95h-144v-31v-32h144v-93h-134c14 -61 44 -97 96 -97c51 0 90 42 104 98l113 -37c-34 -115 -107 -182 -220 -182c-130 0 -207 85 -235 218h-75
v93h63v32v31h-63z" />
    <glyph glyph-name="cent.tosf" 
d="M435 189l76 -97c-41 -36 -88 -55 -143 -62v-90h-84v89c-135 18 -228 124 -228 273c0 139 91 252 228 272v91h84v-91c54 -7 102 -28 143 -61l-72 -100c-30 27 -62 43 -102 43c-80 0 -137 -70 -137 -154c0 -87 59 -153 134 -153c40 0 71 11 101 40z" />
    <glyph glyph-name="sterling.tosf" 
d="M508 0h-436v121h54v177h-54v120h54v29c0 133 91 229 217 229c56 0 119 -17 171 -48l-55 -108c-30 24 -67 36 -100 36c-58 0 -94 -43 -94 -120v-18h128v-120h-128v-177h243v-121z" />
    <glyph glyph-name="yen.tosf" 
d="M41 257v94h127l-176 314h160l126 -229h2l118 229h159l-179 -314h126v-94h-162v-56h162v-93h-162v-108h-139v108h-162v93h162v56h-162z" />
    <glyph glyph-name="florin.tosf" 
d="M426 417v-119h-126l-36 -324c-13 -112 -79 -174 -176 -174c-30 0 -62 5 -95 14l28 114c16 -6 33 -9 51 -9c43 0 49 34 54 77l34 302h-73v119h86l10 86c13 111 80 173 181 173c47 0 98 -11 151 -36l-46 -111c-28 18 -57 29 -90 29c-45 0 -53 -34 -58 -77l-7 -64h112z" />
    <glyph glyph-name="afii61352.tosf" horiz-adv-x="1143" 
d="M671 0h-129l-321 438v-438h-143v700h126l324 -439v439h143v-700zM936 728c108 0 183 -78 183 -178s-75 -178 -183 -178s-183 78 -183 178s75 178 183 178zM936 647c-47 0 -77 -41 -77 -97s30 -97 77 -97s77 41 77 97s-30 97 -77 97z" />
    <glyph glyph-name="percent.tosf" horiz-adv-x="856" 
d="M225 706c95 0 176 -71 176 -171c0 -99 -81 -170 -176 -170c-96 0 -177 71 -177 170c0 100 81 171 177 171zM225 606c-38 0 -65 -29 -65 -71c0 -41 27 -70 65 -70c37 0 64 29 64 70c0 42 -27 71 -64 71zM632 335c95 0 176 -71 176 -170c0 -100 -81 -171 -176 -171
c-96 0 -177 71 -177 171c0 99 81 170 177 170zM632 235c-38 0 -65 -29 -65 -70c0 -42 27 -71 65 -71c37 0 64 29 64 71c0 41 -27 70 -64 70zM642 718l71 -53l-498 -683l-71 53z" />
    <glyph glyph-name="perthousand.tosf" horiz-adv-x="1248" 
d="M1023 335c96 0 177 -71 177 -170c0 -100 -81 -171 -177 -171c-95 0 -176 71 -176 171c0 99 81 170 176 170zM1024 235c-38 0 -65 -29 -65 -70c0 -42 27 -71 65 -71c36 0 64 29 64 71c0 41 -28 70 -64 70zM225 706c95 0 176 -71 176 -171c0 -99 -81 -170 -176 -170
c-96 0 -177 71 -177 170c0 100 81 171 177 171zM225 606c-38 0 -65 -29 -65 -71c0 -41 27 -70 65 -70c37 0 64 29 64 70c0 42 -27 71 -64 71zM632 335c95 0 176 -71 176 -170c0 -100 -81 -171 -176 -171c-96 0 -177 71 -177 171c0 99 81 170 177 170zM632 235
c-38 0 -65 -29 -65 -70c0 -42 27 -71 65 -71c37 0 64 29 64 71c0 41 -27 70 -64 70zM642 718l71 -53l-498 -683l-71 53z" />
    <glyph glyph-name="Agrave" unicode="&#xc0;" horiz-adv-x="689" 
d="M677 0h-165l-45 130h-249l-47 -130h-159l286 700h116zM345 482l-85 -235h167l-81 235h-1zM356 733l-182 128l74 97l172 -144z" />
    <glyph glyph-name="Aacute" unicode="&#xc1;" horiz-adv-x="689" 
d="M677 0h-165l-45 130h-249l-47 -130h-159l286 700h116zM345 482l-85 -235h167l-81 235h-1zM502 861l-182 -128l-64 81l172 144z" />
    <glyph glyph-name="Acircumflex" unicode="&#xc2;" horiz-adv-x="689" 
d="M677 0h-165l-45 130h-249l-47 -130h-159l286 700h116zM345 482l-85 -235h167l-81 235h-1zM279 943h156l113 -149l-82 -60l-111 126l-112 -126l-81 60z" />
    <glyph glyph-name="Atilde" unicode="&#xc3;" horiz-adv-x="689" 
d="M677 0h-165l-45 130h-249l-47 -130h-159l286 700h116zM345 482l-85 -235h167l-81 235h-1zM466 878l82 9c4 -13 6 -27 6 -39c0 -62 -46 -103 -115 -103c-65 0 -114 51 -146 51c-13 0 -24 -8 -25 -23c0 -2 0 -5 1 -7l-81 -9c-4 13 -7 26 -7 39c0 61 46 103 116 103
c64 0 115 -51 145 -51c13 0 25 8 25 23c0 2 0 5 -1 7z" />
    <glyph glyph-name="Adieresis" unicode="&#xc4;" horiz-adv-x="689" 
d="M677 0h-165l-45 130h-249l-47 -130h-159l286 700h116zM345 482l-85 -235h167l-81 235h-1zM292 762h-149v120h149v-120zM569 762h-149v120h149v-120z" />
    <glyph glyph-name="Aring" unicode="&#xc5;" horiz-adv-x="689" 
d="M677 0h-165l-45 130h-249l-47 -130h-159l286 700h116zM345 482l-85 -235h167l-81 235h-1zM357 943c63 0 113 -50 113 -113s-50 -113 -113 -113s-113 50 -113 113s50 113 113 113zM357 876c-26 0 -46 -20 -46 -46s20 -46 46 -46s46 20 46 46s-20 46 -46 46z" />
    <glyph glyph-name="Aringacute" unicode="&#x1fa;" horiz-adv-x="689" 
d="M356 928c60 0 108 -48 108 -108s-48 -108 -108 -108s-108 48 -108 108s48 108 108 108zM356 861c-24 0 -41 -18 -41 -41c0 -24 17 -41 41 -41c23 0 41 17 41 41c0 23 -18 41 -41 41zM508 1043l-193 -111l-45 69l184 128zM677 0h-165l-45 130h-249l-47 -130h-159l286 700
h116zM345 482l-85 -235h167l-81 235h-1z" />
    <glyph glyph-name="AE" unicode="&#xc6;" horiz-adv-x="1009" 
d="M956 0h-449v131h-247l-88 -131h-181l516 700h449v-121h-305v-158h305v-121h-305v-179h305v-121zM339 248h168v248z" />
    <glyph glyph-name="AEacute" unicode="&#x1fc;" horiz-adv-x="1009" 
d="M956 0h-449v131h-247l-88 -131h-181l516 700h449v-121h-305v-158h305v-121h-305v-179h305v-121zM339 248h168v248zM767 861l-182 -128l-64 81l172 144z" />
    <glyph glyph-name="Ccedilla" unicode="&#xc7;" horiz-adv-x="675" 
d="M637 644l-69 -111c-42 32 -92 54 -146 54c-127 0 -220 -104 -220 -237c0 -140 83 -237 220 -237c53 0 106 21 149 58l80 -104c-68 -52 -149 -79 -235 -79c-17 0 -33 1 -49 3l-20 -52h1c13 10 29 15 47 15c50 0 93 -42 93 -101c0 -56 -49 -110 -115 -110
c-51 0 -89 23 -115 70l69 33c7 -19 20 -32 40 -32c22 0 37 16 37 37c0 20 -15 40 -36 40c-16 0 -28 -5 -38 -20l-73 38l43 95c-150 44 -251 174 -251 346c0 205 167 362 373 362c80 0 146 -25 215 -68z" />
    <glyph glyph-name="Egrave" unicode="&#xc8;" horiz-adv-x="580" 
d="M527 0h-449v700h449v-121h-306v-158h306v-121h-306v-179h306v-121zM349 733l-182 128l74 97l172 -144z" />
    <glyph glyph-name="Eacute" unicode="&#xc9;" horiz-adv-x="580" 
d="M527 0h-449v700h449v-121h-306v-158h306v-121h-306v-179h306v-121zM468 861l-182 -128l-64 81l172 144z" />
    <glyph glyph-name="Ecircumflex" unicode="&#xca;" horiz-adv-x="580" 
d="M527 0h-449v700h449v-121h-306v-158h306v-121h-306v-179h306v-121zM232 943h156l113 -149l-82 -60l-111 126l-112 -126l-81 60z" />
    <glyph glyph-name="Edieresis" unicode="&#xcb;" horiz-adv-x="580" 
d="M265 762h-148v120h148v-120zM502 762h-149v120h149v-120zM527 0h-449v700h449v-121h-306v-158h306v-121h-306v-179h306v-121z" />
    <glyph glyph-name="Igrave" unicode="&#xcc;" horiz-adv-x="299" 
d="M221 0h-143v700h143v-700zM151 733l-182 128l74 97l172 -144z" />
    <glyph glyph-name="Iacute" unicode="&#xcd;" horiz-adv-x="299" 
d="M221 0h-143v700h143v-700zM331 861l-182 -128l-64 81l172 144z" />
    <glyph glyph-name="Icircumflex" unicode="&#xce;" horiz-adv-x="299" 
d="M221 0h-143v700h143v-700zM73 943h156l113 -149l-82 -60l-111 126l-112 -126l-81 60z" />
    <glyph glyph-name="Idieresis" unicode="&#xcf;" horiz-adv-x="299" 
d="M108 762h-149v120h149v-120zM340 762h-149v120h149v-120zM221 0h-143v700h143v-700z" />
    <glyph glyph-name="Eth" unicode="&#xd0;" horiz-adv-x="715" 
d="M78 700h204c181 0 384 -94 384 -347c0 -259 -201 -353 -393 -353h-195v313h-67v98h67v289zM221 579v-168h113v-98h-113v-192h16c164 0 276 58 276 223c0 154 -91 235 -248 235h-44z" />
    <glyph glyph-name="Ntilde" unicode="&#xd1;" horiz-adv-x="748" 
d="M671 0h-129l-321 438v-438h-143v700h126l324 -439v439h143v-700zM485 878l82 9c4 -13 6 -27 6 -39c0 -62 -46 -103 -115 -103c-65 0 -114 51 -146 51c-13 0 -24 -8 -25 -23c0 -2 0 -5 1 -7l-81 -9c-4 13 -7 26 -7 39c0 61 46 103 116 103c64 0 115 -51 145 -51
c13 0 25 8 25 23c0 2 0 5 -1 7z" />
    <glyph glyph-name="Ograve" unicode="&#xd2;" horiz-adv-x="831" 
d="M629 350c0 133 -90 237 -213 237c-124 0 -214 -104 -214 -237s90 -237 214 -237c123 0 213 104 213 237zM782 350c0 -200 -159 -362 -366 -362c-208 0 -367 162 -367 362s159 362 367 362c207 0 366 -162 366 -362zM420 733l-182 128l74 97l172 -144z" />
    <glyph glyph-name="Oacute" unicode="&#xd3;" horiz-adv-x="831" 
d="M629 350c0 133 -90 237 -213 237c-124 0 -214 -104 -214 -237s90 -237 214 -237c123 0 213 104 213 237zM782 350c0 -200 -159 -362 -366 -362c-208 0 -367 162 -367 362s159 362 367 362c207 0 366 -162 366 -362zM597 861l-182 -128l-64 81l172 144z" />
    <glyph glyph-name="Ocircumflex" unicode="&#xd4;" horiz-adv-x="831" 
d="M629 350c0 133 -90 237 -213 237c-124 0 -214 -104 -214 -237s90 -237 214 -237c123 0 213 104 213 237zM782 350c0 -200 -159 -362 -366 -362c-208 0 -367 162 -367 362s159 362 367 362c207 0 366 -162 366 -362zM341 943h156l113 -149l-82 -60l-111 126l-112 -126
l-81 60z" />
    <glyph glyph-name="Otilde" unicode="&#xd5;" horiz-adv-x="831" 
d="M629 350c0 133 -90 237 -213 237c-124 0 -214 -104 -214 -237s90 -237 214 -237c123 0 213 104 213 237zM782 350c0 -200 -159 -362 -366 -362c-208 0 -367 162 -367 362s159 362 367 362c207 0 366 -162 366 -362zM533 878l82 9c4 -13 6 -27 6 -39
c0 -62 -46 -103 -115 -103c-65 0 -114 51 -146 51c-13 0 -24 -8 -25 -23c0 -2 0 -5 1 -7l-81 -9c-4 13 -7 26 -7 39c0 61 46 103 116 103c64 0 115 -51 145 -51c13 0 25 8 25 23c0 2 0 5 -1 7z" />
    <glyph glyph-name="Odieresis" unicode="&#xd6;" horiz-adv-x="831" 
d="M629 350c0 133 -90 237 -213 237c-124 0 -214 -104 -214 -237s90 -237 214 -237c123 0 213 104 213 237zM782 350c0 -200 -159 -362 -366 -362c-208 0 -367 162 -367 362s159 362 367 362c207 0 366 -162 366 -362zM352 762h-149v120h149v-120zM629 762h-149v120h149
v-120z" />
    <glyph glyph-name="Oslash" unicode="&#xd8;" horiz-adv-x="831" 
d="M782 350c0 -200 -159 -362 -366 -362c-57 0 -110 12 -157 34l-34 -50l-93 61l34 50c-72 66 -117 161 -117 267c0 200 159 362 367 362c55 0 106 -12 152 -32l31 46l93 -61l-30 -45c74 -67 120 -163 120 -270zM629 350c0 58 -17 110 -47 151l-250 -370
c26 -12 54 -18 84 -18c123 0 213 104 213 237zM202 350c0 -57 16 -108 44 -148l249 369c-24 10 -51 16 -79 16c-124 0 -214 -104 -214 -237z" />
    <glyph glyph-name="Oslashacute" unicode="&#x1fe;" horiz-adv-x="831" 
d="M782 350c0 -200 -159 -362 -366 -362c-57 0 -110 12 -157 34l-34 -50l-93 61l34 50c-72 66 -117 161 -117 267c0 200 159 362 367 362c55 0 106 -12 152 -32l31 46l93 -61l-30 -45c74 -67 120 -163 120 -270zM629 350c0 58 -17 110 -47 151l-250 -370
c26 -12 54 -18 84 -18c123 0 213 104 213 237zM202 350c0 -57 16 -108 44 -148l249 369c-24 10 -51 16 -79 16c-124 0 -214 -104 -214 -237zM597 861l-182 -128l-64 81l172 144z" />
    <glyph glyph-name="Ugrave" unicode="&#xd9;" horiz-adv-x="716" 
d="M640 700v-370c0 -220 -84 -342 -284 -342c-196 0 -280 122 -280 342v370h143v-389c0 -134 54 -198 139 -198s139 64 139 198v389h143zM359 733l-182 128l74 97l172 -144z" />
    <glyph glyph-name="Uacute" unicode="&#xda;" horiz-adv-x="716" 
d="M640 700v-370c0 -220 -84 -342 -284 -342c-196 0 -280 122 -280 342v370h143v-389c0 -134 54 -198 139 -198s139 64 139 198v389h143zM523 861l-182 -128l-64 81l172 144z" />
    <glyph glyph-name="Ucircumflex" unicode="&#xdb;" horiz-adv-x="716" 
d="M640 700v-370c0 -220 -84 -342 -284 -342c-196 0 -280 122 -280 342v370h143v-389c0 -134 54 -198 139 -198s139 64 139 198v389h143zM285 943h156l113 -149l-82 -60l-111 126l-112 -126l-81 60z" />
    <glyph glyph-name="Udieresis" unicode="&#xdc;" horiz-adv-x="716" 
d="M640 700v-370c0 -220 -84 -342 -284 -342c-196 0 -280 122 -280 342v370h143v-389c0 -134 54 -198 139 -198s139 64 139 198v389h143zM295 762h-149v120h149v-120zM572 762h-149v120h149v-120z" />
    <glyph glyph-name="Yacute" unicode="&#xdd;" horiz-adv-x="608" 
d="M370 0h-143v293l-223 407h178l121 -252h2l132 252h167l-234 -411v-289zM475 861l-182 -128l-64 81l172 144z" />
    <glyph glyph-name="Thorn" unicode="&#xde;" horiz-adv-x="594" 
d="M78 700h143v-128h80c119 0 262 -58 262 -217c0 -161 -142 -219 -262 -219h-80v-143h-143v707zM411 352c0 62 -46 99 -114 99h-76v-194h57c76 0 133 25 133 95z" />
    <glyph glyph-name="germandbls.cap" horiz-adv-x="1218" 
d="M468 527c-39 33 -91 63 -145 63c-48 0 -91 -24 -91 -70c0 -54 66 -69 120 -88c99 -34 218 -80 218 -227c0 -152 -143 -217 -265 -217c-108 0 -192 41 -268 117l95 93c57 -55 101 -88 174 -88c56 0 111 27 111 89c0 60 -64 83 -135 109c-91 34 -193 74 -193 208
c0 133 113 196 229 196c90 0 161 -29 232 -83zM1077 527c-39 33 -91 63 -145 63c-48 0 -91 -24 -91 -70c0 -54 66 -69 120 -88c99 -34 218 -80 218 -227c0 -152 -143 -217 -265 -217c-108 0 -192 41 -268 117l95 93c57 -55 101 -88 174 -88c56 0 111 27 111 89
c0 60 -64 83 -135 109c-91 34 -193 74 -193 208c0 133 113 196 229 196c90 0 161 -29 232 -83z" />
    <glyph glyph-name="germandbls" unicode="&#xdf;" horiz-adv-x="641" 
d="M204 0h-138v534c0 146 111 228 243 228c124 0 236 -72 236 -203c0 -58 -26 -109 -68 -140c81 -30 128 -105 128 -197c0 -139 -114 -234 -246 -234c-34 0 -65 6 -97 20l36 112c18 -9 36 -13 56 -13c72 0 111 48 111 116c0 82 -57 127 -135 127c-14 0 -32 -1 -50 -4v111
c10 -1 20 -1 28 -1c48 0 98 36 98 96c0 54 -39 91 -94 91c-75 0 -108 -50 -108 -127v-516z" />
    <glyph glyph-name="agrave" unicode="&#xe0;" horiz-adv-x="575" 
d="M511 0h-123l-11 45c-34 -42 -87 -57 -143 -57c-98 0 -189 59 -189 167c0 129 120 170 229 170c29 0 62 -4 95 -11v8c0 66 -27 106 -104 106c-60 0 -113 -22 -159 -46l-38 102c67 33 148 54 226 54c146 0 217 -85 217 -222v-316zM369 132v97c-27 6 -50 9 -72 9
c-52 0 -113 -19 -113 -81c0 -46 38 -70 80 -70c41 0 75 18 105 45zM272 578l-147 172l96 76l133 -186z" />
    <glyph glyph-name="aacute" unicode="&#xe1;" horiz-adv-x="575" 
d="M511 0h-123l-11 45c-34 -42 -87 -57 -143 -57c-98 0 -189 59 -189 167c0 129 120 170 229 170c29 0 62 -4 95 -11v8c0 66 -27 106 -104 106c-60 0 -113 -22 -159 -46l-38 102c67 33 148 54 226 54c146 0 217 -85 217 -222v-316zM369 132v97c-27 6 -50 9 -72 9
c-52 0 -113 -19 -113 -81c0 -46 38 -70 80 -70c41 0 75 18 105 45zM460 750l-147 -172l-82 62l133 186z" />
    <glyph glyph-name="acircumflex" unicode="&#xe2;" horiz-adv-x="575" 
d="M511 0h-123l-11 45c-34 -42 -87 -57 -143 -57c-98 0 -189 59 -189 167c0 129 120 170 229 170c29 0 62 -4 95 -11v8c0 66 -27 106 -104 106c-60 0 -113 -22 -159 -46l-38 102c67 33 148 54 226 54c146 0 217 -85 217 -222v-316zM369 132v97c-27 6 -50 9 -72 9
c-52 0 -113 -19 -113 -81c0 -46 38 -70 80 -70c41 0 75 18 105 45zM211 799h143l112 -168l-80 -48l-105 129l-104 -129l-80 48z" />
    <glyph glyph-name="atilde" unicode="&#xe3;" horiz-adv-x="575" 
d="M511 0h-123l-11 45c-34 -42 -87 -57 -143 -57c-98 0 -189 59 -189 167c0 129 120 170 229 170c29 0 62 -4 95 -11v8c0 66 -27 106 -104 106c-60 0 -113 -22 -159 -46l-38 102c67 33 148 54 226 54c146 0 217 -85 217 -222v-316zM369 132v97c-27 6 -50 9 -72 9
c-52 0 -113 -19 -113 -81c0 -46 38 -70 80 -70c41 0 75 18 105 45zM187 602l-81 -9c-4 13 -6 26 -6 38c0 61 45 103 115 103c65 0 115 -51 146 -51c13 0 24 8 25 23c0 2 0 6 -1 7l81 9c4 -13 6 -26 6 -38c0 -61 -45 -103 -115 -103c-65 0 -115 51 -146 51
c-13 0 -24 -8 -25 -23c0 -2 0 -6 1 -7z" />
    <glyph glyph-name="adieresis" unicode="&#xe4;" horiz-adv-x="575" 
d="M511 0h-123l-11 45c-34 -42 -87 -57 -143 -57c-98 0 -189 59 -189 167c0 129 120 170 229 170c29 0 62 -4 95 -11v8c0 66 -27 106 -104 106c-60 0 -113 -22 -159 -46l-38 102c67 33 148 54 226 54c146 0 217 -85 217 -222v-316zM369 132v97c-27 6 -50 9 -72 9
c-52 0 -113 -19 -113 -81c0 -46 38 -70 80 -70c41 0 75 18 105 45zM233 599h-143v121h143v-121zM474 599h-143v121h143v-121z" />
    <glyph glyph-name="aring" unicode="&#xe5;" horiz-adv-x="575" 
d="M511 0h-123l-11 45c-34 -42 -87 -57 -143 -57c-98 0 -189 59 -189 167c0 129 120 170 229 170c29 0 62 -4 95 -11v8c0 66 -27 106 -104 106c-60 0 -113 -22 -159 -46l-38 102c67 33 148 54 226 54c146 0 217 -85 217 -222v-316zM369 132v97c-27 6 -50 9 -72 9
c-52 0 -113 -19 -113 -81c0 -46 38 -70 80 -70c41 0 75 18 105 45zM182 689c0 62 50 113 113 113s113 -51 113 -113s-50 -113 -113 -113s-113 51 -113 113zM250 689c0 -25 20 -45 45 -45s45 20 45 45s-20 45 -45 45s-45 -20 -45 -45z" />
    <glyph glyph-name="aringacute" unicode="&#x1fb;" horiz-adv-x="575" 
d="M453 896l-195 -115l-46 71l187 130zM190 665c0 59 47 107 107 107s107 -48 107 -107s-47 -107 -107 -107s-107 48 -107 107zM256 665c0 -23 18 -41 41 -41s41 18 41 41s-18 41 -41 41s-41 -18 -41 -41zM511 0h-123l-11 45c-34 -42 -87 -57 -143 -57
c-98 0 -189 59 -189 167c0 129 120 170 229 170c29 0 62 -4 95 -11v8c0 66 -27 106 -104 106c-60 0 -113 -22 -159 -46l-38 102c67 33 148 54 226 54c146 0 217 -85 217 -222v-316zM369 132v97c-27 6 -50 9 -72 9c-52 0 -113 -19 -113 -81c0 -46 38 -70 80 -70
c41 0 75 18 105 45z" />
    <glyph glyph-name="ae" unicode="&#xe6;" horiz-adv-x="921" 
d="M880 228h-370c10 -72 57 -126 132 -126c68 0 103 28 137 78l93 -63c-60 -87 -127 -129 -240 -129c-81 0 -148 29 -195 77c-68 -65 -134 -77 -203 -77c-98 0 -189 59 -189 167c0 129 120 170 229 170c29 0 62 -4 95 -11v8c0 66 -27 106 -104 106c-60 0 -113 -22 -159 -46
l-38 102c67 33 148 54 226 54c79 0 133 -24 167 -68c46 44 106 68 172 68c146 0 254 -103 254 -243c0 -21 -3 -46 -7 -67zM385 149c-10 25 -15 51 -18 80c-26 6 -49 9 -70 9c-52 0 -113 -19 -113 -81c0 -46 38 -70 80 -70c41 0 83 16 121 62zM517 325h225
c-3 63 -47 102 -105 102c-68 0 -105 -43 -120 -102z" />
    <glyph glyph-name="aeacute" unicode="&#x1fd;" horiz-adv-x="921" 
d="M880 228h-370c10 -72 57 -126 132 -126c68 0 103 28 137 78l93 -63c-60 -87 -127 -129 -240 -129c-81 0 -148 29 -195 77c-68 -65 -134 -77 -203 -77c-98 0 -189 59 -189 167c0 129 120 170 229 170c29 0 62 -4 95 -11v8c0 66 -27 106 -104 106c-60 0 -113 -22 -159 -46
l-38 102c67 33 148 54 226 54c79 0 133 -24 167 -68c46 44 106 68 172 68c146 0 254 -103 254 -243c0 -21 -3 -46 -7 -67zM385 149c-10 25 -15 51 -18 80c-26 6 -49 9 -70 9c-52 0 -113 -19 -113 -81c0 -46 38 -70 80 -70c41 0 83 16 121 62zM517 325h225
c-3 63 -47 102 -105 102c-68 0 -105 -43 -120 -102zM637 750l-147 -172l-82 62l133 186z" />
    <glyph glyph-name="ccedilla" unicode="&#xe7;" horiz-adv-x="511" 
d="M413 150l76 -97c-52 -46 -114 -65 -189 -65c-8 0 -16 0 -23 1l-19 -50h1c15 11 31 15 46 15c48 0 94 -42 94 -101c0 -56 -49 -110 -115 -110c-52 0 -89 23 -115 70l68 33c8 -19 20 -32 40 -32c23 0 38 16 38 37s-16 40 -37 40c-16 0 -28 -5 -37 -20l-74 37l41 94
c-105 35 -175 132 -175 261c0 153 111 275 271 275c72 0 133 -22 185 -65l-73 -99c-29 27 -61 42 -102 42c-80 0 -136 -69 -136 -153c0 -88 59 -153 134 -153c39 0 71 11 101 40z" />
    <glyph glyph-name="egrave" unicode="&#xe8;" horiz-adv-x="588" 
d="M547 228h-370c10 -72 57 -126 132 -126c68 0 103 28 137 78l93 -63c-60 -87 -127 -129 -240 -129c-159 0 -266 111 -266 269c0 159 116 281 267 281c146 0 254 -103 254 -243c0 -21 -3 -46 -7 -67zM184 325h225c-3 63 -47 102 -105 102c-68 0 -105 -43 -120 -102z
M279 578l-147 172l96 76l133 -186z" />
    <glyph glyph-name="eacute" unicode="&#xe9;" horiz-adv-x="588" 
d="M547 228h-370c10 -72 57 -126 132 -126c68 0 103 28 137 78l93 -63c-60 -87 -127 -129 -240 -129c-159 0 -266 111 -266 269c0 159 116 281 267 281c146 0 254 -103 254 -243c0 -21 -3 -46 -7 -67zM184 325h225c-3 63 -47 102 -105 102c-68 0 -105 -43 -120 -102z
M487 750l-147 -172l-82 62l133 186z" />
    <glyph glyph-name="ecircumflex" unicode="&#xea;" horiz-adv-x="588" 
d="M547 228h-370c10 -72 57 -126 132 -126c68 0 103 28 137 78l93 -63c-60 -87 -127 -129 -240 -129c-159 0 -266 111 -266 269c0 159 116 281 267 281c146 0 254 -103 254 -243c0 -21 -3 -46 -7 -67zM184 325h225c-3 63 -47 102 -105 102c-68 0 -105 -43 -120 -102z
M232 799h143l112 -168l-80 -48l-105 129l-104 -129l-80 48z" />
    <glyph glyph-name="edieresis" unicode="&#xeb;" horiz-adv-x="588" 
d="M547 228h-370c10 -72 57 -126 132 -126c68 0 103 28 137 78l93 -63c-60 -87 -127 -129 -240 -129c-159 0 -266 111 -266 269c0 159 116 281 267 281c146 0 254 -103 254 -243c0 -21 -3 -46 -7 -67zM184 325h225c-3 63 -47 102 -105 102c-68 0 -105 -43 -120 -102z
M253 599h-143v121h143v-121zM494 599h-143v121h143v-121z" />
    <glyph glyph-name="igrave" unicode="&#xec;" horiz-adv-x="280" 
d="M211 0h-142v526h142v-526zM114 578l-147 172l96 76l133 -186z" />
    <glyph glyph-name="iacute" unicode="&#xed;" horiz-adv-x="280" 
d="M211 0h-142v526h142v-526zM312 750l-147 -172l-82 62l133 186z" />
    <glyph glyph-name="icircumflex" unicode="&#xee;" horiz-adv-x="280" 
d="M211 0h-142v526h142v-526zM69 799h143l112 -168l-80 -48l-105 129l-104 -129l-80 48z" />
    <glyph glyph-name="idieresis" unicode="&#xef;" horiz-adv-x="280" 
d="M105 599h-143v121h143v-121zM319 599h-143v121h143v-121zM211 0h-142v526h142v-526z" />
    <glyph glyph-name="eth" unicode="&#xf0;" horiz-adv-x="609" 
d="M236 590l-47 -87l-90 49l45 84c-26 12 -53 23 -79 33l49 114c29 -13 59 -26 87 -39l43 80l91 -48l-41 -78c166 -93 282 -225 282 -436c0 -154 -114 -274 -282 -274c-147 0 -261 118 -261 250c0 141 106 238 247 238c41 0 73 -9 105 -28c-35 58 -86 104 -149 142zM424 327
c-36 23 -72 32 -111 32c-71 0 -135 -38 -135 -118c0 -73 51 -136 122 -136c95 0 131 73 131 154c0 24 -3 47 -7 68z" />
    <glyph glyph-name="ntilde" unicode="&#xf1;" horiz-adv-x="618" 
d="M69 526h123l11 -72c42 59 105 84 163 84c57 0 107 -27 140 -69c41 -53 47 -121 47 -196v-273h-142v266c0 39 -1 83 -16 113c-13 26 -39 37 -70 37c-42 0 -88 -24 -114 -67v-349h-142v526zM237 602l-81 -9c-4 13 -6 26 -6 38c0 61 45 103 115 103c65 0 115 -51 146 -51
c13 0 24 8 25 23c0 2 0 6 -1 7l81 9c4 -13 6 -26 6 -38c0 -61 -45 -103 -115 -103c-65 0 -115 51 -146 51c-13 0 -24 -8 -25 -23c0 -2 0 -6 1 -7z" />
    <glyph glyph-name="ograve" unicode="&#xf2;" horiz-adv-x="617" 
d="M309 538c160 0 275 -120 275 -275s-115 -275 -275 -275c-161 0 -276 120 -276 275s115 275 276 275zM439 263c0 86 -52 153 -130 153s-131 -67 -131 -153s53 -153 131 -153s130 67 130 153zM263 578l-147 172l96 76l133 -186z" />
    <glyph glyph-name="oacute" unicode="&#xf3;" horiz-adv-x="617" 
d="M309 538c160 0 275 -120 275 -275s-115 -275 -275 -275c-161 0 -276 120 -276 275s115 275 276 275zM439 263c0 86 -52 153 -130 153s-131 -67 -131 -153s53 -153 131 -153s130 67 130 153zM490 750l-147 -172l-82 62l133 186z" />
    <glyph glyph-name="ocircumflex" unicode="&#xf4;" horiz-adv-x="617" 
d="M309 538c160 0 275 -120 275 -275s-115 -275 -275 -275c-161 0 -276 120 -276 275s115 275 276 275zM439 263c0 86 -52 153 -130 153s-131 -67 -131 -153s53 -153 131 -153s130 67 130 153zM239 799h143l112 -168l-80 -48l-105 129l-104 -129l-80 48z" />
    <glyph glyph-name="otilde" unicode="&#xf5;" horiz-adv-x="617" 
d="M309 538c160 0 275 -120 275 -275s-115 -275 -275 -275c-161 0 -276 120 -276 275s115 275 276 275zM439 263c0 86 -52 153 -130 153s-131 -67 -131 -153s53 -153 131 -153s130 67 130 153zM226 602l-81 -9c-4 13 -6 26 -6 38c0 61 45 103 115 103c65 0 115 -51 146 -51
c13 0 24 8 25 23c0 2 0 6 -1 7l81 9c4 -13 6 -26 6 -38c0 -61 -45 -103 -115 -103c-65 0 -115 51 -146 51c-13 0 -24 -8 -25 -23c0 -2 0 -6 1 -7z" />
    <glyph glyph-name="odieresis" unicode="&#xf6;" horiz-adv-x="617" 
d="M309 538c160 0 275 -120 275 -275s-115 -275 -275 -275c-161 0 -276 120 -276 275s115 275 276 275zM439 263c0 86 -52 153 -130 153s-131 -67 -131 -153s53 -153 131 -153s130 67 130 153zM260 599h-143v121h143v-121zM501 599h-143v121h143v-121z" />
    <glyph glyph-name="oslash" unicode="&#xf8;" horiz-adv-x="617" 
d="M309 538c41 0 80 -8 114 -23l24 35l73 -48l-23 -34c54 -50 87 -123 87 -205c0 -155 -115 -275 -275 -275c-44 0 -84 9 -120 25l-28 -42l-73 48l28 43c-52 50 -83 120 -83 201c0 155 115 275 276 275zM439 263c0 33 -8 63 -22 87l-156 -231c15 -6 31 -9 48 -9
c78 0 130 67 130 153zM178 263c0 -31 7 -59 19 -83l154 229c-13 4 -27 7 -42 7c-78 0 -131 -67 -131 -153z" />
    <glyph glyph-name="oslashacute" unicode="&#x1ff;" horiz-adv-x="617" 
d="M490 750l-147 -172l-82 62l133 186zM309 538c41 0 80 -8 114 -23l24 35l73 -48l-23 -34c54 -50 87 -123 87 -205c0 -155 -115 -275 -275 -275c-44 0 -84 9 -120 25l-28 -42l-73 48l28 43c-52 50 -83 120 -83 201c0 155 115 275 276 275zM439 263c0 33 -8 63 -22 87
l-156 -231c15 -6 31 -9 48 -9c78 0 130 67 130 153zM178 263c0 -31 7 -59 19 -83l154 229c-13 4 -27 7 -42 7c-78 0 -131 -67 -131 -153z" />
    <glyph glyph-name="ugrave" unicode="&#xf9;" horiz-adv-x="618" 
d="M548 0h-123l-11 72c-42 -59 -105 -84 -163 -84c-57 0 -107 27 -140 69c-41 53 -47 121 -47 196v273h142v-266c0 -39 1 -83 16 -113c13 -26 39 -37 70 -37c42 0 88 24 114 67v349h142v-526zM297 578l-147 172l96 76l133 -186z" />
    <glyph glyph-name="uacute" unicode="&#xfa;" horiz-adv-x="618" 
d="M548 0h-123l-11 72c-42 -59 -105 -84 -163 -84c-57 0 -107 27 -140 69c-41 53 -47 121 -47 196v273h142v-266c0 -39 1 -83 16 -113c13 -26 39 -37 70 -37c42 0 88 24 114 67v349h142v-526zM480 750l-147 -172l-82 62l133 186z" />
    <glyph glyph-name="ucircumflex" unicode="&#xfb;" horiz-adv-x="618" 
d="M548 0h-123l-11 72c-42 -59 -105 -84 -163 -84c-57 0 -107 27 -140 69c-41 53 -47 121 -47 196v273h142v-266c0 -39 1 -83 16 -113c13 -26 39 -37 70 -37c42 0 88 24 114 67v349h142v-526zM240 799h143l112 -168l-80 -48l-105 129l-104 -129l-80 48z" />
    <glyph glyph-name="udieresis" unicode="&#xfc;" horiz-adv-x="618" 
d="M548 0h-123l-11 72c-42 -59 -105 -84 -163 -84c-57 0 -107 27 -140 69c-41 53 -47 121 -47 196v273h142v-266c0 -39 1 -83 16 -113c13 -26 39 -37 70 -37c42 0 88 24 114 67v349h142v-526zM258 599h-143v121h143v-121zM499 599h-143v121h143v-121z" />
    <glyph glyph-name="yacute" unicode="&#xfd;" horiz-adv-x="531" 
d="M3 526h155l106 -313h2l108 313h154l-296 -767l-127 49l84 223zM427 750l-147 -172l-82 62l133 186z" />
    <glyph glyph-name="thorn" unicode="&#xfe;" horiz-adv-x="644" 
d="M69 750h142v-279c38 49 104 67 155 67c140 0 245 -124 245 -277c0 -148 -104 -273 -246 -273c-51 0 -114 16 -154 62v-300h-142v1000zM211 346v-179c35 -42 77 -57 122 -57c91 0 133 81 133 155c0 78 -49 151 -131 151c-45 0 -93 -18 -124 -70z" />
    <glyph glyph-name="ydieresis" unicode="&#xff;" horiz-adv-x="531" 
d="M3 526h155l106 -313h2l108 313h154l-296 -767l-127 49l84 223zM219 599h-143v121h143v-121zM460 599h-143v121h143v-121z" />
    <glyph glyph-name="Amacron" unicode="&#x100;" horiz-adv-x="689" 
d="M677 0h-165l-45 130h-249l-47 -130h-159l286 700h116zM345 482l-85 -235h167l-81 235h-1zM536 772h-364v95h364v-95z" />
    <glyph glyph-name="amacron" unicode="&#x101;" horiz-adv-x="575" 
d="M511 0h-123l-11 45c-34 -42 -87 -57 -143 -57c-98 0 -189 59 -189 167c0 129 120 170 229 170c29 0 62 -4 95 -11v8c0 66 -27 106 -104 106c-60 0 -113 -22 -159 -46l-38 102c67 33 148 54 226 54c146 0 217 -85 217 -222v-316zM369 132v97c-27 6 -50 9 -72 9
c-52 0 -113 -19 -113 -81c0 -46 38 -70 80 -70c41 0 75 18 105 45zM452 609h-342v98h342v-98z" />
    <glyph glyph-name="Abreve" unicode="&#x102;" horiz-adv-x="689" 
d="M677 0h-165l-45 130h-249l-47 -130h-159l286 700h116zM345 482l-85 -235h167l-81 235h-1zM190 909h104c-1 -5 -1 -9 -1 -13c0 -36 25 -62 62 -62s65 26 65 62c0 4 0 8 -1 13h101v-12c0 -91 -73 -156 -165 -156s-165 65 -165 156v12z" />
    <glyph glyph-name="abreve" unicode="&#x103;" horiz-adv-x="575" 
d="M511 0h-123l-11 45c-34 -42 -87 -57 -143 -57c-98 0 -189 59 -189 167c0 129 120 170 229 170c29 0 62 -4 95 -11v8c0 66 -27 106 -104 106c-60 0 -113 -22 -159 -46l-38 102c67 33 148 54 226 54c146 0 217 -85 217 -222v-316zM369 132v97c-27 6 -50 9 -72 9
c-52 0 -113 -19 -113 -81c0 -46 38 -70 80 -70c41 0 75 18 105 45zM453 767v-17c0 -92 -73 -164 -165 -164s-165 72 -165 164v17h102c-1 -5 -1 -15 -1 -19c0 -36 27 -69 64 -69s65 33 65 69c0 4 0 14 -1 19h101z" />
    <glyph glyph-name="Aogonek" unicode="&#x104;" horiz-adv-x="689" 
d="M345 482l-85 -235h167l-81 235h-1zM414 700l263 -700c-79 -10 -131 -43 -131 -92c0 -23 14 -40 49 -40c15 0 32 5 48 13l33 -78c-27 -17 -67 -30 -112 -30c-75 0 -134 44 -134 107c0 53 30 99 80 124l-43 126h-249l-47 -130h-159l286 700h116z" />
    <glyph glyph-name="aogonek" unicode="&#x105;" horiz-adv-x="575" 
d="M368 132v97c-27 6 -49 9 -71 9c-52 0 -113 -19 -113 -81c0 -46 38 -70 80 -70c41 0 74 18 104 45zM511 0c-65 -15 -119 -45 -119 -92c0 -23 14 -40 49 -40c15 0 33 5 48 13l33 -78c-27 -17 -67 -30 -112 -30c-75 0 -134 44 -134 107c0 51 35 96 110 125l-9 40
c-34 -42 -87 -57 -143 -57c-98 0 -189 59 -189 167c0 129 120 170 229 170c29 0 61 -4 94 -11v8c0 66 -27 106 -103 106c-60 0 -113 -22 -159 -46l-38 102c67 33 148 54 226 54c146 0 217 -85 217 -222v-316z" />
    <glyph glyph-name="Cacute" unicode="&#x106;" horiz-adv-x="675" 
d="M202 350c0 -140 83 -237 220 -237c53 0 106 21 149 58l80 -104c-68 -52 -149 -79 -235 -79c-210 0 -367 148 -367 362c0 205 167 362 373 362c80 0 146 -25 215 -68l-69 -111c-42 32 -92 54 -146 54c-127 0 -220 -104 -220 -237zM595 861l-182 -128l-64 81l172 144z" />
    <glyph glyph-name="cacute" unicode="&#x107;" horiz-adv-x="511" 
d="M413 150l76 -97c-52 -46 -114 -65 -189 -65c-155 0 -267 112 -267 275c0 153 111 275 271 275c72 0 133 -22 185 -65l-73 -99c-29 27 -61 42 -102 42c-80 0 -136 -69 -136 -153c0 -88 59 -153 134 -153c39 0 71 11 101 40zM491 750l-147 -172l-82 62l133 186z" />
    <glyph glyph-name="Ccircumflex" unicode="&#x108;" horiz-adv-x="675" 
d="M202 350c0 -140 83 -237 220 -237c53 0 106 21 149 58l80 -104c-68 -52 -149 -79 -235 -79c-210 0 -367 148 -367 362c0 205 167 362 373 362c80 0 146 -25 215 -68l-69 -111c-42 32 -92 54 -146 54c-127 0 -220 -104 -220 -237zM343 943h156l113 -149l-82 -60l-111 126
l-112 -126l-81 60z" />
    <glyph glyph-name="ccircumflex" unicode="&#x109;" horiz-adv-x="511" 
d="M413 150l76 -97c-52 -46 -114 -65 -189 -65c-155 0 -267 112 -267 275c0 153 111 275 271 275c72 0 133 -22 185 -65l-73 -99c-29 27 -61 42 -102 42c-80 0 -136 -69 -136 -153c0 -88 59 -153 134 -153c39 0 71 11 101 40zM231 799h143l112 -168l-80 -48l-105 129
l-104 -129l-80 48z" />
    <glyph glyph-name="Cdotaccent" unicode="&#x10a;" horiz-adv-x="675" 
d="M202 350c0 -140 83 -237 220 -237c53 0 106 21 149 58l80 -104c-68 -52 -149 -79 -235 -79c-210 0 -367 148 -367 362c0 205 167 362 373 362c80 0 146 -25 215 -68l-69 -111c-42 32 -92 54 -146 54c-127 0 -220 -104 -220 -237zM488 762h-146v120h146v-120z" />
    <glyph glyph-name="cdotaccent" unicode="&#x10b;" horiz-adv-x="511" 
d="M413 150l76 -97c-52 -46 -114 -65 -189 -65c-155 0 -267 112 -267 275c0 153 111 275 271 275c72 0 133 -22 185 -65l-73 -99c-29 27 -61 42 -102 42c-80 0 -136 -69 -136 -153c0 -88 59 -153 134 -153c39 0 71 11 101 40zM364 599h-142v121h142v-121z" />
    <glyph glyph-name="Ccaron" unicode="&#x10c;" horiz-adv-x="675" 
d="M202 350c0 -140 83 -237 220 -237c53 0 106 21 149 58l80 -104c-68 -52 -149 -79 -235 -79c-210 0 -367 148 -367 362c0 205 167 362 373 362c80 0 146 -25 215 -68l-69 -111c-42 32 -92 54 -146 54c-127 0 -220 -104 -220 -237zM495 746h-156l-113 149l83 60l111 -126
l112 126l80 -60z" />
    <glyph glyph-name="ccaron" unicode="&#x10d;" horiz-adv-x="511" 
d="M413 150l76 -97c-52 -46 -114 -65 -189 -65c-155 0 -267 112 -267 275c0 153 111 275 271 275c72 0 133 -22 185 -65l-73 -99c-29 27 -61 42 -102 42c-80 0 -136 -69 -136 -153c0 -88 59 -153 134 -153c39 0 71 11 101 40zM373 594h-143l-112 168l81 48l105 -129l104 129
l79 -48z" />
    <glyph glyph-name="Dcaron" unicode="&#x10e;" horiz-adv-x="715" 
d="M78 0v700h204c181 0 384 -94 384 -347c0 -259 -201 -353 -393 -353h-195zM221 579v-458h16c164 0 276 58 276 223c0 154 -91 235 -248 235h-44zM399 746h-156l-113 149l83 60l111 -126l112 126l80 -60z" />
    <glyph glyph-name="dcaron" unicode="&#x10f;" horiz-adv-x="717" 
d="M575 0h-123l-12 65c-37 -58 -108 -77 -162 -77c-139 0 -245 124 -245 277c0 148 104 273 247 273c50 0 113 -18 153 -63v275h142v-750zM433 179v180c-36 42 -78 57 -122 57c-91 0 -133 -81 -133 -155c0 -77 50 -151 131 -151c45 0 93 17 124 69zM725 533h-119l44 217h132
z" />
    <glyph glyph-name="Dcroat" unicode="&#x110;" horiz-adv-x="715" 
d="M78 0v313h-67v98h67v289h204c181 0 384 -94 384 -347c0 -259 -201 -353 -393 -353h-195zM513 344c0 154 -91 235 -248 235h-44v-168h113v-98h-113v-192h16c164 0 276 58 276 223z" />
    <glyph glyph-name="dcroat" unicode="&#x111;" horiz-adv-x="644" 
d="M575 0h-123l-12 65c-37 -58 -108 -77 -162 -77c-139 0 -245 124 -245 277c0 148 104 273 247 273c50 0 113 -18 153 -63v111h-160v96h160v68h142v-68h68v-96h-68v-586zM433 179v180c-36 42 -78 57 -122 57c-91 0 -133 -81 -133 -155c0 -77 50 -151 131 -151
c45 0 93 17 124 69z" />
    <glyph glyph-name="Emacron" unicode="&#x112;" horiz-adv-x="580" 
d="M527 0h-449v700h449v-121h-306v-158h306v-121h-306v-179h306v-121zM491 772h-364v95h364v-95z" />
    <glyph glyph-name="emacron" unicode="&#x113;" horiz-adv-x="588" 
d="M547 228h-370c10 -72 57 -126 132 -126c68 0 103 28 137 78l93 -63c-60 -87 -127 -129 -240 -129c-159 0 -266 111 -266 269c0 159 116 281 267 281c146 0 254 -103 254 -243c0 -21 -3 -46 -7 -67zM184 325h225c-3 63 -47 102 -105 102c-68 0 -105 -43 -120 -102z
M476 609h-342v98h342v-98z" />
    <glyph glyph-name="Ebreve" unicode="&#x114;" horiz-adv-x="580" 
d="M527 0h-449v700h449v-121h-306v-158h306v-121h-306v-179h306v-121zM146 909h104c-1 -5 -1 -9 -1 -13c0 -36 25 -62 62 -62s65 26 65 62c0 4 0 8 -1 13h101v-12c0 -91 -73 -156 -165 -156s-165 65 -165 156v12z" />
    <glyph glyph-name="ebreve" unicode="&#x115;" horiz-adv-x="588" 
d="M547 228h-370c10 -72 57 -126 132 -126c68 0 103 28 137 78l93 -63c-60 -87 -127 -129 -240 -129c-159 0 -266 111 -266 269c0 159 116 281 267 281c146 0 254 -103 254 -243c0 -21 -3 -46 -7 -67zM184 325h225c-3 63 -47 102 -105 102c-68 0 -105 -43 -120 -102z
M468 767v-17c0 -92 -73 -164 -165 -164s-165 72 -165 164v17h102c-1 -5 -1 -15 -1 -19c0 -36 27 -69 64 -69s65 33 65 69c0 4 0 14 -1 19h101z" />
    <glyph glyph-name="Edotaccent" unicode="&#x116;" horiz-adv-x="580" 
d="M527 0h-449v700h449v-121h-306v-158h306v-121h-306v-179h306v-121zM384 762h-146v120h146v-120z" />
    <glyph glyph-name="edotaccent" unicode="&#x117;" horiz-adv-x="588" 
d="M547 228h-370c10 -72 57 -126 132 -126c68 0 103 28 137 78l93 -63c-60 -87 -127 -129 -240 -129c-159 0 -266 111 -266 269c0 159 116 281 267 281c146 0 254 -103 254 -243c0 -21 -3 -46 -7 -67zM184 325h225c-3 63 -47 102 -105 102c-68 0 -105 -43 -120 -102z
M370 599h-142v121h142v-121z" />
    <glyph glyph-name="Eogonek" unicode="&#x118;" horiz-adv-x="580" 
d="M78 700h449v-121h-306v-158h306v-121h-306v-179h306v-121c-70 -13 -118 -45 -118 -92c0 -23 15 -40 50 -40c15 0 32 5 47 13l33 -78c-26 -17 -67 -30 -111 -30c-75 0 -135 44 -135 107c0 49 25 92 89 120h-304v700z" />
    <glyph glyph-name="eogonek" unicode="&#x119;" horiz-adv-x="588" 
d="M184 325h225c-3 63 -47 102 -105 102c-68 0 -105 -43 -120 -102zM539 117c-38 -55 -81 -88 -132 -112c-48 -22 -81 -53 -81 -88c0 -29 18 -49 50 -49c15 0 32 5 47 13l33 -78c-26 -17 -67 -30 -112 -30c-74 0 -134 44 -134 107c0 39 16 81 54 110
c-140 15 -231 121 -231 267c0 159 116 281 267 281c146 0 254 -103 254 -243c0 -21 -3 -46 -7 -67h-370c10 -72 57 -126 132 -126c68 0 103 28 137 78z" />
    <glyph glyph-name="Ecaron" unicode="&#x11a;" horiz-adv-x="580" 
d="M527 0h-449v700h449v-121h-306v-158h306v-121h-306v-179h306v-121zM381 746h-156l-113 149l83 60l111 -126l112 126l80 -60z" />
    <glyph glyph-name="ecaron" unicode="&#x11b;" horiz-adv-x="588" 
d="M547 228h-370c10 -72 57 -126 132 -126c68 0 103 28 137 78l93 -63c-60 -87 -127 -129 -240 -129c-159 0 -266 111 -266 269c0 159 116 281 267 281c146 0 254 -103 254 -243c0 -21 -3 -46 -7 -67zM184 325h225c-3 63 -47 102 -105 102c-68 0 -105 -43 -120 -102z
M373 594h-143l-112 168l81 48l105 -129l104 129l79 -48z" />
    <glyph glyph-name="Gcircumflex" unicode="&#x11c;" horiz-adv-x="793" 
d="M584 283h-168v121h311v-273c-73 -98 -184 -143 -305 -143c-212 0 -373 147 -373 362c0 205 167 362 373 362c118 0 217 -49 294 -138l-99 -86c-49 57 -115 99 -195 99c-127 0 -220 -104 -220 -237c0 -140 87 -237 220 -237c57 0 118 23 162 65v105zM353 943h156l113 -149
l-82 -60l-111 126l-112 -126l-81 60z" />
    <glyph glyph-name="gcircumflex" unicode="&#x11d;" horiz-adv-x="640" 
d="M575 526v-498c0 -57 -11 -103 -33 -140c-46 -80 -136 -115 -232 -115c-81 0 -169 23 -243 72l52 117c60 -45 134 -67 186 -67c74 0 128 40 128 124v48c-39 -50 -104 -67 -155 -67c-139 0 -245 119 -245 271c0 147 104 267 247 267c53 0 122 -19 160 -74l12 62h123z
M433 191v168c-36 42 -78 57 -122 57c-91 0 -133 -76 -133 -149c0 -77 50 -145 131 -145c44 0 93 17 124 69zM235 799h143l112 -168l-80 -48l-105 129l-104 -129l-80 48z" />
    <glyph glyph-name="Gbreve" unicode="&#x11e;" horiz-adv-x="793" 
d="M584 283h-168v121h311v-273c-73 -98 -184 -143 -305 -143c-212 0 -373 147 -373 362c0 205 167 362 373 362c118 0 217 -49 294 -138l-99 -86c-49 57 -115 99 -195 99c-127 0 -220 -104 -220 -237c0 -140 87 -237 220 -237c57 0 118 23 162 65v105zM264 909h104
c-1 -5 -1 -9 -1 -13c0 -36 25 -62 62 -62s65 26 65 62c0 4 0 8 -1 13h101v-12c0 -91 -73 -156 -165 -156s-165 65 -165 156v12z" />
    <glyph glyph-name="gbreve" unicode="&#x11f;" horiz-adv-x="640" 
d="M575 526v-498c0 -57 -11 -103 -33 -140c-46 -80 -136 -115 -232 -115c-81 0 -169 23 -243 72l52 117c60 -45 134 -67 186 -67c74 0 128 40 128 124v48c-39 -50 -104 -67 -155 -67c-139 0 -245 119 -245 271c0 147 104 267 247 267c53 0 122 -19 160 -74l12 62h123z
M433 191v168c-36 42 -78 57 -122 57c-91 0 -133 -76 -133 -149c0 -77 50 -145 131 -145c44 0 93 17 124 69zM474 767v-17c0 -92 -73 -164 -165 -164s-165 72 -165 164v17h102c-1 -5 -1 -15 -1 -19c0 -36 27 -69 64 -69s65 33 65 69c0 4 0 14 -1 19h101z" />
    <glyph glyph-name="Gdotaccent" unicode="&#x120;" horiz-adv-x="793" 
d="M584 283h-168v121h311v-273c-73 -98 -184 -143 -305 -143c-212 0 -373 147 -373 362c0 205 167 362 373 362c118 0 217 -49 294 -138l-99 -86c-49 57 -115 99 -195 99c-127 0 -220 -104 -220 -237c0 -140 87 -237 220 -237c57 0 118 23 162 65v105zM488 762h-146v120h146
v-120z" />
    <glyph glyph-name="gdotaccent" unicode="&#x121;" horiz-adv-x="640" 
d="M575 526v-498c0 -57 -11 -103 -33 -140c-46 -80 -136 -115 -232 -115c-81 0 -169 23 -243 72l52 117c60 -45 134 -67 186 -67c74 0 128 40 128 124v48c-39 -50 -104 -67 -155 -67c-139 0 -245 119 -245 271c0 147 104 267 247 267c53 0 122 -19 160 -74l12 62h123z
M433 191v168c-36 42 -78 57 -122 57c-91 0 -133 -76 -133 -149c0 -77 50 -145 131 -145c44 0 93 17 124 69zM375 599h-142v121h142v-121z" />
    <glyph glyph-name="Gcommaaccent" unicode="&#x122;" horiz-adv-x="793" 
d="M584 283h-168v121h311v-273c-73 -98 -184 -143 -305 -143c-212 0 -373 147 -373 362c0 205 167 362 373 362c118 0 217 -49 294 -138l-99 -86c-49 57 -115 99 -195 99c-127 0 -220 -104 -220 -237c0 -140 87 -237 220 -237c57 0 118 23 162 65v105zM409 -249h-108l36 191
h127z" />
    <glyph glyph-name="gcommaaccent" unicode="&#x123;" horiz-adv-x="640" 
d="M575 526v-498c0 -57 -11 -103 -33 -140c-46 -80 -136 -115 -232 -115c-81 0 -169 23 -243 72l52 117c60 -45 134 -67 186 -67c74 0 128 40 128 124v48c-39 -50 -104 -67 -155 -67c-139 0 -245 119 -245 271c0 147 104 267 247 267c53 0 122 -19 160 -74l12 62h123z
M433 191v168c-36 42 -78 57 -122 57c-91 0 -133 -76 -133 -149c0 -77 50 -145 131 -145c44 0 93 17 124 69zM299 771h109l-37 -192h-128z" />
    <glyph glyph-name="Hcircumflex" unicode="&#x124;" horiz-adv-x="739" 
d="M661 0h-143v300h-297v-300h-143v700h143v-279h297v279h143v-700zM294 943h156l113 -149l-82 -60l-111 126l-112 -126l-81 60z" />
    <glyph glyph-name="hcircumflex" unicode="&#x125;" horiz-adv-x="618" 
d="M211 750v-286c42 51 101 74 155 74c57 0 107 -27 140 -69c41 -53 47 -121 47 -196v-273h-142v266c0 39 -1 83 -16 113c-13 26 -39 37 -70 37c-42 0 -88 -24 -114 -67v-349h-142v750h142zM63 968h156l113 -149l-82 -60l-111 126l-112 -126l-81 60z" />
    <glyph glyph-name="Hbar" unicode="&#x126;" horiz-adv-x="739" 
d="M661 0h-143v300h-297v-300h-143v501h-85v97h85v102h143v-102h297v102h143v-102h85v-97h-85v-501zM221 421h297v80h-297v-80z" />
    <glyph glyph-name="hbar" unicode="&#x127;" horiz-adv-x="618" 
d="M211 750v-68h159v-97h-159v-121c42 51 101 74 155 74c57 0 107 -27 140 -69c41 -53 47 -121 47 -196v-273h-142v266c0 39 -1 83 -16 113c-13 26 -39 37 -70 37c-42 0 -88 -24 -114 -67v-349h-142v585h-69v97h69v68h142z" />
    <glyph glyph-name="Itilde" unicode="&#x128;" horiz-adv-x="299" 
d="M221 0h-143v700h143v-700zM251 878l82 9c4 -13 6 -27 6 -39c0 -62 -46 -103 -115 -103c-65 0 -114 51 -146 51c-13 0 -24 -8 -25 -23c0 -2 0 -5 1 -7l-81 -9c-4 13 -7 26 -7 39c0 61 46 103 116 103c64 0 115 -51 145 -51c13 0 25 8 25 23c0 2 0 5 -1 7z" />
    <glyph glyph-name="itilde" unicode="&#x129;" horiz-adv-x="280" 
d="M211 0h-142v526h142v-526zM41 602l-81 -9c-4 13 -6 26 -6 38c0 61 45 103 115 103c65 0 115 -51 146 -51c13 0 24 8 25 23c0 2 0 6 -1 7l81 9c4 -13 6 -26 6 -38c0 -61 -45 -103 -115 -103c-65 0 -115 51 -146 51c-13 0 -24 -8 -25 -23c0 -2 0 -6 1 -7z" />
    <glyph glyph-name="Imacron" unicode="&#x12a;" horiz-adv-x="299" 
d="M221 0h-143v700h143v-700zM332 772h-364v95h364v-95z" />
    <glyph glyph-name="imacron" unicode="&#x12b;" horiz-adv-x="280" 
d="M211 0h-142v526h142v-526zM311 609h-342v98h342v-98z" />
    <glyph glyph-name="Ibreve" unicode="&#x12c;" horiz-adv-x="299" 
d="M221 0h-143v700h143v-700zM-15 909h104c-1 -5 -1 -9 -1 -13c0 -36 25 -62 62 -62s65 26 65 62c0 4 0 8 -1 13h101v-12c0 -91 -73 -156 -165 -156s-165 65 -165 156v12z" />
    <glyph glyph-name="ibreve" unicode="&#x12d;" horiz-adv-x="280" 
d="M211 0h-142v526h142v-526zM305 767v-17c0 -92 -73 -164 -165 -164s-165 72 -165 164v17h102c-1 -5 -1 -15 -1 -19c0 -36 27 -69 64 -69s65 33 65 69c0 4 0 14 -1 19h101z" />
    <glyph glyph-name="Iogonek" unicode="&#x12e;" horiz-adv-x="299" 
d="M78 5v695h143v-700c-66 -15 -111 -45 -111 -92c0 -23 15 -40 50 -40c15 0 32 5 47 13l33 -78c-26 -17 -67 -30 -111 -30c-75 0 -135 44 -135 107c0 53 32 100 84 125z" />
    <glyph glyph-name="iogonek" unicode="&#x12f;" horiz-adv-x="280" 
d="M211 599h-142v121h142v-121zM69 5v521h142v-526c-65 -15 -109 -45 -109 -92c0 -23 14 -40 49 -40c15 0 32 5 47 13l33 -78c-26 -17 -67 -30 -111 -30c-75 0 -135 44 -135 107c0 53 32 100 84 125z" />
    <glyph glyph-name="Idotaccent" unicode="&#x130;" horiz-adv-x="299" 
d="M222 762h-145v120h145v-120zM221 0h-143v700h143v-700z" />
    <glyph glyph-name="idotaccent" horiz-adv-x="280" 
d="M211 0h-142v526h142v-526zM211 599h-142v121h142v-121z" />
    <glyph glyph-name="dotlessi" unicode="&#x131;" horiz-adv-x="280" 
d="M211 0h-142v526h142v-526z" />
    <glyph glyph-name="IJ" unicode="&#x132;" horiz-adv-x="674" 
d="M221 0h-143v700h143v-700zM605 700v-514c0 -66 -13 -117 -45 -151c-29 -31 -74 -47 -139 -47c-36 0 -89 11 -131 32l45 113c23 -13 43 -20 69 -20s40 8 48 21c9 16 10 40 10 69v497h143z" />
    <glyph glyph-name="ij" unicode="&#x133;" horiz-adv-x="566" 
d="M211 0h-142v526h142v-526zM211 599h-142v121h142v-121zM497 599h-142v121h142v-121zM497 526v-563c0 -55 -10 -98 -34 -130c-27 -38 -74 -60 -146 -60c-41 0 -79 8 -114 22l38 113c18 -8 38 -13 61 -13c49 0 53 36 53 80v551h142z" />
    <glyph glyph-name="Jcircumflex" unicode="&#x134;" horiz-adv-x="340" 
d="M271 700v-514c0 -66 -13 -117 -45 -151c-29 -31 -74 -47 -139 -47c-36 0 -89 11 -131 32l45 113c23 -13 43 -20 69 -20s40 8 48 21c9 16 10 40 10 69v497h143zM123 943h156l113 -149l-82 -60l-111 126l-112 -126l-81 60z" />
    <glyph glyph-name="jcircumflex" unicode="&#x135;" horiz-adv-x="287" 
d="M218 526v-563c0 -55 -10 -98 -34 -130c-27 -38 -74 -60 -147 -60c-41 0 -79 8 -114 22l38 112c18 -8 38 -13 61 -13c49 0 53 36 53 80v552h143zM75 799h143l112 -168l-80 -48l-105 129l-104 -129l-80 48z" />
    <glyph glyph-name="Kcommaaccent" unicode="&#x136;" horiz-adv-x="640" 
d="M630 700l-237 -283l243 -417h-167l-173 303l-75 -89v-214h-143v700h143v-287l236 287h173zM328 -249h-108l36 191h127z" />
    <glyph glyph-name="kcommaaccent" unicode="&#x137;" horiz-adv-x="555" 
d="M557 0h-174l-121 195l-51 -59v-136h-142v750h142v-438h2l170 214h162l-188 -220zM282 -249h-108l36 191h127z" />
    <glyph glyph-name="kgreenlandic" unicode="&#x138;" horiz-adv-x="555" 
d="M69 526h142v-214h2l170 214h162l-188 -220l200 -306h-174l-121 195l-51 -59v-136h-142v526z" />
    <glyph glyph-name="Lacute" unicode="&#x139;" horiz-adv-x="512" 
d="M508 0h-430v700h143v-579h287v-121zM328 861l-182 -128l-64 81l172 144z" />
    <glyph glyph-name="lacute" unicode="&#x13a;" horiz-adv-x="280" 
d="M211 750v-750h-142v750h142zM306 905l-182 -128l-64 81l172 144z" />
    <glyph glyph-name="Lcommaaccent" unicode="&#x13b;" horiz-adv-x="512" 
d="M508 0h-430v700h143v-579h287v-121zM307 -249h-108l36 191h127z" />
    <glyph glyph-name="lcommaaccent" unicode="&#x13c;" horiz-adv-x="280" 
d="M211 750v-750h-142v750h142zM142 -249h-108l36 191h127z" />
    <glyph glyph-name="Lcaron" unicode="&#x13d;" horiz-adv-x="512" 
d="M508 0h-430v700h143v-579h287v-121zM435 483h-119l44 217h132z" />
    <glyph glyph-name="lcaron" unicode="&#x13e;" horiz-adv-x="353" 
d="M211 750v-750h-142v750h142zM361 533h-119l44 217h132z" />
    <glyph glyph-name="Ldot" unicode="&#x13f;" horiz-adv-x="525" 
d="M508 0h-430v700h143v-579h287v-121zM520 312h-146v120h146v-120z" />
    <glyph glyph-name="ldot" unicode="&#x140;" horiz-adv-x="408" 
d="M211 750v-750h-142v750h142zM415 316h-146v120h146v-120z" />
    <glyph glyph-name="Lslash" unicode="&#x141;" horiz-adv-x="512" 
d="M508 0h-430v230l-85 -55v136l85 55v334h143v-246l141 92v-136l-141 -92v-197h287v-121z" />
    <glyph glyph-name="lslash" unicode="&#x142;" horiz-adv-x="280" 
d="M211 750v-249l69 44v-138l-69 -44v-363h-142v277l-68 -44v138l68 43v336h142z" />
    <glyph glyph-name="Nacute" unicode="&#x143;" horiz-adv-x="748" 
d="M671 0h-129l-321 438v-438h-143v700h126l324 -439v439h143v-700zM539 861l-182 -128l-64 81l172 144z" />
    <glyph glyph-name="nacute" unicode="&#x144;" horiz-adv-x="618" 
d="M69 526h123l11 -72c42 59 105 84 163 84c57 0 107 -27 140 -69c41 -53 47 -121 47 -196v-273h-142v266c0 39 -1 83 -16 113c-13 26 -39 37 -70 37c-42 0 -88 -24 -114 -67v-349h-142v526zM486 750l-147 -172l-82 62l133 186z" />
    <glyph glyph-name="Ncommaaccent" unicode="&#x145;" horiz-adv-x="748" 
d="M671 0h-129l-321 438v-438h-143v700h126l324 -439v439h143v-700zM393 -249h-108l36 191h127z" />
    <glyph glyph-name="ncommaaccent" unicode="&#x146;" horiz-adv-x="618" 
d="M69 526h123l11 -72c42 59 105 84 163 84c57 0 107 -27 140 -69c41 -53 47 -121 47 -196v-273h-142v266c0 39 -1 83 -16 113c-13 26 -39 37 -70 37c-42 0 -88 -24 -114 -67v-349h-142v526zM308 -249h-108l36 191h127z" />
    <glyph glyph-name="Ncaron" unicode="&#x147;" horiz-adv-x="748" 
d="M671 0h-129l-321 438v-438h-143v700h126l324 -439v439h143v-700zM459 746h-156l-113 149l83 60l111 -126l112 126l80 -60z" />
    <glyph glyph-name="ncaron" unicode="&#x148;" horiz-adv-x="618" 
d="M69 526h123l11 -72c42 59 105 84 163 84c57 0 107 -27 140 -69c41 -53 47 -121 47 -196v-273h-142v266c0 39 -1 83 -16 113c-13 26 -39 37 -70 37c-42 0 -88 -24 -114 -67v-349h-142v526zM400 594h-143l-112 168l81 48l105 -129l104 129l79 -48z" />
    <glyph glyph-name="napostrophe" unicode="&#x149;" horiz-adv-x="662" 
d="M95 548h-122l47 230h136zM113 526h123l11 -72c42 59 105 84 163 84c57 0 107 -27 140 -69c41 -53 47 -121 47 -196v-273h-142v266c0 39 -1 83 -16 113c-13 26 -39 37 -70 37c-42 0 -88 -24 -114 -67v-349h-142v526z" />
    <glyph glyph-name="Eng" unicode="&#x14a;" horiz-adv-x="748" 
d="M671 -28c0 -66 -13 -117 -45 -151c-29 -31 -74 -47 -139 -47c-36 0 -89 11 -131 32l45 113c23 -13 43 -20 69 -20c25 0 39 8 47 21c9 16 10 40 10 69v31l-306 418v-438h-143v700h126l323 -439v439h144v-728z" />
    <glyph glyph-name="eng" unicode="&#x14b;" horiz-adv-x="618" 
d="M69 526h123l11 -72c42 59 105 84 163 84c57 0 107 -27 140 -69c41 -53 47 -121 47 -196v-310c0 -55 -10 -98 -34 -130c-27 -38 -74 -60 -146 -60c-41 0 -79 8 -114 22l38 113c18 -8 38 -13 61 -13c49 0 53 36 53 80v291c0 39 -1 83 -16 113c-13 26 -39 37 -70 37
c-42 0 -88 -24 -114 -67v-349h-142v526z" />
    <glyph glyph-name="Omacron" unicode="&#x14c;" horiz-adv-x="831" 
d="M629 350c0 133 -90 237 -213 237c-124 0 -214 -104 -214 -237s90 -237 214 -237c123 0 213 104 213 237zM782 350c0 -200 -159 -362 -366 -362c-208 0 -367 162 -367 362s159 362 367 362c207 0 366 -162 366 -362zM598 772h-364v95h364v-95z" />
    <glyph glyph-name="omacron" unicode="&#x14d;" horiz-adv-x="617" 
d="M309 538c160 0 275 -120 275 -275s-115 -275 -275 -275c-161 0 -276 120 -276 275s115 275 276 275zM439 263c0 86 -52 153 -130 153s-131 -67 -131 -153s53 -153 131 -153s130 67 130 153zM480 609h-342v98h342v-98z" />
    <glyph glyph-name="Obreve" unicode="&#x14e;" horiz-adv-x="831" 
d="M629 350c0 133 -90 237 -213 237c-124 0 -214 -104 -214 -237s90 -237 214 -237c123 0 213 104 213 237zM782 350c0 -200 -159 -362 -366 -362c-208 0 -367 162 -367 362s159 362 367 362c207 0 366 -162 366 -362zM251 909h104c-1 -5 -1 -9 -1 -13c0 -36 25 -62 62 -62
s65 26 65 62c0 4 0 8 -1 13h101v-12c0 -91 -73 -156 -165 -156s-165 65 -165 156v12z" />
    <glyph glyph-name="obreve" unicode="&#x14f;" horiz-adv-x="617" 
d="M309 538c160 0 275 -120 275 -275s-115 -275 -275 -275c-161 0 -276 120 -276 275s115 275 276 275zM439 263c0 86 -52 153 -130 153s-131 -67 -131 -153s53 -153 131 -153s130 67 130 153zM474 767v-17c0 -92 -73 -164 -165 -164s-165 72 -165 164v17h102
c-1 -5 -1 -15 -1 -19c0 -36 27 -69 64 -69s65 33 65 69c0 4 0 14 -1 19h101z" />
    <glyph glyph-name="Ohungarumlaut" unicode="&#x150;" horiz-adv-x="831" 
d="M629 350c0 133 -90 237 -213 237c-124 0 -214 -104 -214 -237s90 -237 214 -237c123 0 213 104 213 237zM782 350c0 -200 -159 -362 -366 -362c-208 0 -367 162 -367 362s159 362 367 362c207 0 366 -162 366 -362zM713 858l-178 -125l-64 81l168 141zM469 861l-182 -128
l-62 77l172 144z" />
    <glyph glyph-name="ohungarumlaut" unicode="&#x151;" horiz-adv-x="617" 
d="M309 538c160 0 275 -120 275 -275s-115 -275 -275 -275c-161 0 -276 120 -276 275s115 275 276 275zM439 263c0 86 -52 153 -130 153s-131 -67 -131 -153s53 -153 131 -153s130 67 130 153zM394 757l-147 -172l-80 57l132 188zM594 747l-144 -169l-82 62l130 183z" />
    <glyph glyph-name="OE" unicode="&#x152;" horiz-adv-x="1056" 
d="M1002 0h-449v19c-43 -19 -90 -31 -137 -31c-208 0 -367 162 -367 362s159 362 367 362c48 0 95 -12 137 -31v19h449v-121h-305v-158h305v-121h-305v-179h305v-121zM416 113c53 0 101 17 137 48v378c-36 31 -84 48 -137 48c-124 0 -214 -104 -214 -237s90 -237 214 -237z
" />
    <glyph glyph-name="oe" unicode="&#x153;" horiz-adv-x="991" 
d="M950 228h-370c10 -72 57 -126 132 -126c68 0 103 28 137 78l93 -63c-60 -87 -127 -129 -240 -129c-85 0 -152 31 -196 84c-47 -52 -115 -84 -197 -84c-161 0 -276 120 -276 275s115 275 276 275c85 0 155 -34 201 -90c46 56 113 90 193 90c146 0 254 -103 254 -243
c0 -21 -3 -46 -7 -67zM439 263c0 86 -52 153 -130 153s-131 -67 -131 -153s53 -153 131 -153s130 67 130 153zM587 325h225c-3 63 -47 102 -105 102c-68 0 -105 -43 -120 -102z" />
    <glyph glyph-name="Racute" unicode="&#x154;" horiz-adv-x="634" 
d="M78 700h222c113 0 256 -58 256 -210c0 -109 -74 -169 -152 -195c62 -87 166 -230 214 -295h-180l-192 279h-25v-279h-143v700zM221 579v-179h56c72 0 126 26 126 87c0 55 -43 92 -107 92h-75zM455 861l-182 -128l-64 81l172 144z" />
    <glyph glyph-name="racute" unicode="&#x155;" horiz-adv-x="374" 
d="M192 526l11 -70c30 49 71 82 123 82c26 0 49 -5 68 -12l-34 -124c-15 8 -32 12 -50 12c-41 0 -78 -23 -99 -58v-356h-142v526h123zM384 750l-147 -172l-82 62l133 186z" />
    <glyph glyph-name="Rcommaaccent" unicode="&#x156;" horiz-adv-x="634" 
d="M78 700h222c113 0 256 -58 256 -210c0 -109 -74 -169 -152 -195c62 -87 166 -230 214 -295h-180l-192 279h-25v-279h-143v700zM221 579v-179h56c72 0 126 26 126 87c0 55 -43 92 -107 92h-75zM321 -249h-108l36 191h127z" />
    <glyph glyph-name="rcommaaccent" unicode="&#x157;" horiz-adv-x="374" 
d="M192 526l11 -70c30 49 71 82 123 82c26 0 49 -5 68 -12l-34 -124c-15 8 -32 12 -50 12c-41 0 -78 -23 -99 -58v-356h-142v526h123zM142 -249h-108l36 191h127z" />
    <glyph glyph-name="Rcaron" unicode="&#x158;" horiz-adv-x="634" 
d="M78 700h222c113 0 256 -58 256 -210c0 -109 -74 -169 -152 -195c62 -87 166 -230 214 -295h-180l-192 279h-25v-279h-143v700zM221 579v-179h56c72 0 126 26 126 87c0 55 -43 92 -107 92h-75zM360 746h-156l-113 149l83 60l111 -126l112 126l80 -60z" />
    <glyph glyph-name="rcaron" unicode="&#x159;" horiz-adv-x="374" 
d="M192 526l11 -70c30 49 71 82 123 82c26 0 49 -5 68 -12l-34 -124c-15 8 -32 12 -50 12c-41 0 -78 -23 -99 -58v-356h-142v526h123zM300 594h-143l-112 168l81 48l105 -129l104 129l79 -48z" />
    <glyph glyph-name="Sacute" unicode="&#x15a;" horiz-adv-x="623" 
d="M468 527c-39 33 -91 63 -145 63c-48 0 -91 -24 -91 -70c0 -54 66 -69 120 -88c99 -34 218 -80 218 -227c0 -152 -143 -217 -265 -217c-108 0 -192 41 -268 117l95 93c57 -55 101 -88 174 -88c56 0 111 27 111 89c0 60 -64 83 -135 109c-91 34 -193 74 -193 208
c0 133 113 196 229 196c90 0 161 -29 232 -83zM507 861l-182 -128l-64 81l172 144z" />
    <glyph glyph-name="sacute" unicode="&#x15b;" horiz-adv-x="481" 
d="M433 469l-78 -86c-27 24 -64 44 -104 44c-27 0 -51 -15 -51 -40c0 -33 39 -50 83 -68c68 -28 154 -62 154 -162c0 -116 -100 -169 -202 -169c-82 0 -154 32 -212 90l81 84c40 -39 73 -62 124 -62c29 0 67 14 67 46c0 37 -48 53 -100 76c-63 27 -132 63 -132 155
c0 107 92 161 188 161c70 0 133 -23 182 -69zM436 750l-147 -172l-82 62l133 186z" />
    <glyph glyph-name="Scircumflex" unicode="&#x15c;" horiz-adv-x="623" 
d="M468 527c-39 33 -91 63 -145 63c-48 0 -91 -24 -91 -70c0 -54 66 -69 120 -88c99 -34 218 -80 218 -227c0 -152 -143 -217 -265 -217c-108 0 -192 41 -268 117l95 93c57 -55 101 -88 174 -88c56 0 111 27 111 89c0 60 -64 83 -135 109c-91 34 -193 74 -193 208
c0 133 113 196 229 196c90 0 161 -29 232 -83zM248 943h156l113 -149l-82 -60l-111 126l-112 -126l-81 60z" />
    <glyph glyph-name="scircumflex" unicode="&#x15d;" horiz-adv-x="481" 
d="M433 469l-78 -86c-27 24 -64 44 -104 44c-27 0 -51 -15 -51 -40c0 -33 39 -50 83 -68c68 -28 154 -62 154 -162c0 -116 -100 -169 -202 -169c-82 0 -154 32 -212 90l81 84c40 -39 73 -62 124 -62c29 0 67 14 67 46c0 37 -48 53 -100 76c-63 27 -132 63 -132 155
c0 107 92 161 188 161c70 0 133 -23 182 -69zM182 799h143l112 -168l-80 -48l-105 129l-104 -129l-80 48z" />
    <glyph glyph-name="Scedilla" unicode="&#x15e;" horiz-adv-x="609" 
d="M468 527c-39 33 -91 63 -145 63c-48 0 -91 -24 -91 -70c0 -54 66 -69 120 -88c99 -34 218 -80 218 -227s-134 -213 -253 -217l-19 -49h1c13 10 29 15 46 15c51 0 94 -42 94 -101c0 -56 -49 -110 -115 -110c-51 0 -89 23 -115 70l68 33c8 -19 20 -32 41 -32
c22 0 37 16 37 37c0 20 -15 40 -37 40c-15 0 -27 -5 -37 -20l-74 38l38 84c-80 12 -147 50 -208 112l95 93c57 -55 101 -88 174 -88c56 0 111 27 111 89c0 60 -64 83 -135 109c-91 34 -193 74 -193 208c0 133 113 195 229 195c90 0 161 -28 232 -82z" />
    <glyph glyph-name="scedilla" unicode="&#x15f;" horiz-adv-x="481" 
d="M433 469l-78 -86c-27 24 -64 44 -104 44c-27 0 -51 -15 -51 -40c0 -33 39 -50 83 -68c68 -28 154 -62 154 -162c0 -113 -94 -166 -193 -169l-18 -49h1c15 11 31 15 46 15c48 0 94 -42 94 -101c0 -56 -50 -110 -115 -110c-52 0 -89 23 -116 70l69 33c8 -19 20 -32 40 -32
c23 0 37 16 37 37s-15 40 -37 40c-15 0 -27 -5 -36 -20l-74 37l38 87c-57 11 -107 40 -150 83l81 84c40 -39 73 -62 124 -62c29 0 67 14 67 46c0 37 -48 53 -100 76c-63 27 -132 63 -132 155c0 107 92 161 188 161c70 0 133 -23 182 -69z" />
    <glyph glyph-name="Scaron" unicode="&#x160;" horiz-adv-x="623" 
d="M468 527c-39 33 -91 63 -145 63c-48 0 -91 -24 -91 -70c0 -54 66 -69 120 -88c99 -34 218 -80 218 -227c0 -152 -143 -217 -265 -217c-108 0 -192 41 -268 117l95 93c57 -55 101 -88 174 -88c56 0 111 27 111 89c0 60 -64 83 -135 109c-91 34 -193 74 -193 208
c0 133 113 196 229 196c90 0 161 -29 232 -83zM401 746h-156l-113 149l83 60l111 -126l112 126l80 -60z" />
    <glyph glyph-name="scaron" unicode="&#x161;" horiz-adv-x="481" 
d="M433 469l-78 -86c-27 24 -64 44 -104 44c-27 0 -51 -15 -51 -40c0 -33 39 -50 83 -68c68 -28 154 -62 154 -162c0 -116 -100 -169 -202 -169c-82 0 -154 32 -212 90l81 84c40 -39 73 -62 124 -62c29 0 67 14 67 46c0 37 -48 53 -100 76c-63 27 -132 63 -132 155
c0 107 92 161 188 161c70 0 133 -23 182 -69zM328 594h-143l-112 168l81 48l105 -129l104 129l79 -48z" />
    <glyph glyph-name="Scommaaccent" unicode="&#x218;" horiz-adv-x="623" 
d="M468 527c-39 33 -91 63 -145 63c-48 0 -91 -24 -91 -70c0 -54 66 -69 120 -88c99 -34 218 -80 218 -227c0 -152 -143 -217 -265 -217c-108 0 -192 41 -268 117l95 93c57 -55 101 -88 174 -88c56 0 111 27 111 89c0 60 -64 83 -135 109c-91 34 -193 74 -193 208
c0 133 113 196 229 196c90 0 161 -29 232 -83zM283 -249h-108l36 191h127z" />
    <glyph glyph-name="scommaaccent" unicode="&#x219;" horiz-adv-x="481" 
d="M433 469l-78 -86c-27 24 -64 44 -104 44c-27 0 -51 -15 -51 -40c0 -33 39 -50 83 -68c68 -28 154 -62 154 -162c0 -116 -100 -169 -202 -169c-82 0 -154 32 -212 90l81 84c40 -39 73 -62 124 -62c29 0 67 14 67 46c0 37 -48 53 -100 76c-63 27 -132 63 -132 155
c0 107 92 161 188 161c70 0 133 -23 182 -69zM222 -249h-108l36 191h127z" />
    <glyph glyph-name="uni0162" unicode="&#x162;" horiz-adv-x="491" 
d="M483 579h-166v-579h-36l-24 -61h1c14 10 30 15 47 15c50 0 93 -42 93 -101c0 -56 -49 -110 -114 -110c-52 0 -89 23 -116 70l69 33c7 -19 20 -32 40 -32c22 0 37 16 37 37c0 20 -15 40 -36 40c-15 0 -28 -5 -38 -20l-73 38l40 91h-33v579h-166v121h475v-121z" />
    <glyph glyph-name="uni0163" unicode="&#x163;" horiz-adv-x="378" 
d="M351 408h-134v-204c0 -16 0 -30 2 -45c4 -31 16 -50 46 -50c22 0 39 6 57 15l44 -105c-34 -20 -84 -31 -125 -31c-7 0 -13 1 -20 1l-19 -50h1c15 11 32 15 47 15c48 0 93 -42 93 -101c0 -56 -49 -110 -114 -110c-52 0 -89 23 -116 70l69 33c7 -19 20 -32 40 -32
c22 0 37 16 37 37s-16 40 -37 40c-15 0 -27 -5 -37 -20l-73 37l43 100c-35 20 -59 52 -70 93c-8 26 -10 57 -10 88v219h-63v118h63l22 116h120v-116h134v-118z" />
    <glyph glyph-name="Tcaron" unicode="&#x164;" horiz-adv-x="491" 
d="M483 579h-166v-579h-143v579h-166v121h475v-121zM322 746h-156l-113 149l83 60l111 -126l112 126l80 -60z" />
    <glyph glyph-name="tcaron" unicode="&#x165;" horiz-adv-x="378" 
d="M351 408h-134v-204c0 -16 0 -30 2 -45c4 -31 16 -50 46 -50c22 0 39 6 57 15l44 -105c-34 -20 -84 -31 -125 -31c-82 0 -137 45 -156 113c-8 26 -10 57 -10 88v219h-63v118h63l22 116h120v-116h134v-118zM373 588h-119l44 217h132z" />
    <glyph glyph-name="Tbar" unicode="&#x166;" horiz-adv-x="491" 
d="M483 579h-166v-162h103v-114h-103v-303h-143v303h-103v114h103v162h-166v121h475v-121z" />
    <glyph glyph-name="tbar" unicode="&#x167;" horiz-adv-x="340" 
d="M352 222h-134v-18c0 -16 0 -30 2 -45c4 -31 16 -50 46 -50c22 0 39 6 57 15l44 -105c-34 -20 -84 -30 -125 -30c-83 0 -138 44 -157 112c-8 26 -10 57 -10 88v33h-64v112h64v74h-63v118h63l22 116h121v-116h134v-118h-134v-74h134v-112z" />
    <glyph glyph-name="uni021A" unicode="&#x21a;" horiz-adv-x="492" 
d="M483 579h-166v-579h-143v579h-166v121h475v-121zM247 -249h-108l36 191h127z" />
    <glyph glyph-name="uni021B" unicode="&#x21b;" horiz-adv-x="378" 
d="M351 408h-134v-204c0 -16 0 -30 2 -45c4 -31 16 -50 46 -50c22 0 39 6 57 15l44 -105c-34 -20 -84 -31 -125 -31c-82 0 -137 45 -156 113c-8 26 -10 57 -10 88v219h-63v118h63l22 116h120v-116h134v-118zM199 -249h-108l36 191h127z" />
    <glyph glyph-name="Utilde" unicode="&#x168;" horiz-adv-x="716" 
d="M640 700v-370c0 -220 -84 -342 -284 -342c-196 0 -280 122 -280 342v370h143v-389c0 -134 54 -198 139 -198s139 64 139 198v389h143zM457 878l82 9c4 -13 6 -27 6 -39c0 -62 -46 -103 -115 -103c-65 0 -114 51 -146 51c-13 0 -24 -8 -25 -23c0 -2 0 -5 1 -7l-81 -9
c-4 13 -7 26 -7 39c0 61 46 103 116 103c64 0 115 -51 145 -51c13 0 25 8 25 23c0 2 0 5 -1 7z" />
    <glyph glyph-name="utilde" unicode="&#x169;" horiz-adv-x="618" 
d="M548 0h-123l-11 72c-42 -59 -105 -84 -163 -84c-57 0 -107 27 -140 69c-41 53 -47 121 -47 196v273h142v-266c0 -39 1 -83 16 -113c13 -26 39 -37 70 -37c42 0 88 24 114 67v349h142v-526zM219 602l-81 -9c-4 13 -6 26 -6 38c0 61 45 103 115 103c65 0 115 -51 146 -51
c13 0 24 8 25 23c0 2 0 6 -1 7l81 9c4 -13 6 -26 6 -38c0 -61 -45 -103 -115 -103c-65 0 -115 51 -146 51c-13 0 -24 -8 -25 -23c0 -2 0 -6 1 -7z" />
    <glyph glyph-name="Umacron" unicode="&#x16a;" horiz-adv-x="716" 
d="M640 700v-370c0 -220 -84 -342 -284 -342c-196 0 -280 122 -280 342v370h143v-389c0 -134 54 -198 139 -198s139 64 139 198v389h143zM540 772h-364v95h364v-95z" />
    <glyph glyph-name="umacron" unicode="&#x16b;" horiz-adv-x="618" 
d="M548 0h-123l-11 72c-42 -59 -105 -84 -163 -84c-57 0 -107 27 -140 69c-41 53 -47 121 -47 196v273h142v-266c0 -39 1 -83 16 -113c13 -26 39 -37 70 -37c42 0 88 24 114 67v349h142v-526zM478 609h-342v98h342v-98z" />
    <glyph glyph-name="Ubreve" unicode="&#x16c;" horiz-adv-x="716" 
d="M640 700v-370c0 -220 -84 -342 -284 -342c-196 0 -280 122 -280 342v370h143v-389c0 -134 54 -198 139 -198s139 64 139 198v389h143zM193 909h104c-1 -5 -1 -9 -1 -13c0 -36 25 -62 62 -62s65 26 65 62c0 4 0 8 -1 13h101v-12c0 -91 -73 -156 -165 -156
s-165 65 -165 156v12z" />
    <glyph glyph-name="ubreve" unicode="&#x16d;" horiz-adv-x="618" 
d="M548 0h-123l-11 72c-42 -59 -105 -84 -163 -84c-57 0 -107 27 -140 69c-41 53 -47 121 -47 196v273h142v-266c0 -39 1 -83 16 -113c13 -26 39 -37 70 -37c42 0 88 24 114 67v349h142v-526zM473 767v-17c0 -92 -73 -164 -165 -164s-165 72 -165 164v17h102
c-1 -5 -1 -15 -1 -19c0 -36 27 -69 64 -69s65 33 65 69c0 4 0 14 -1 19h101z" />
    <glyph glyph-name="Uring" unicode="&#x16e;" horiz-adv-x="716" 
d="M640 700v-370c0 -220 -84 -342 -284 -342c-196 0 -280 122 -280 342v370h143v-389c0 -134 54 -198 139 -198s139 64 139 198v389h143zM358 943c63 0 113 -50 113 -113s-50 -113 -113 -113s-113 50 -113 113s50 113 113 113zM358 876c-26 0 -46 -20 -46 -46s20 -46 46 -46
s46 20 46 46s-20 46 -46 46z" />
    <glyph glyph-name="uring" unicode="&#x16f;" horiz-adv-x="618" 
d="M548 0h-123l-11 72c-42 -59 -105 -84 -163 -84c-57 0 -107 27 -140 69c-41 53 -47 121 -47 196v273h142v-266c0 -39 1 -83 16 -113c13 -26 39 -37 70 -37c42 0 88 24 114 67v349h142v-526zM195 687c0 62 50 113 113 113s113 -51 113 -113s-50 -113 -113 -113
s-113 51 -113 113zM263 687c0 -25 20 -45 45 -45s45 20 45 45s-20 45 -45 45s-45 -20 -45 -45z" />
    <glyph glyph-name="Uhungarumlaut" unicode="&#x170;" horiz-adv-x="716" 
d="M640 700v-370c0 -220 -84 -342 -284 -342c-196 0 -280 122 -280 342v370h143v-389c0 -134 54 -198 139 -198s139 64 139 198v389h143zM645 858l-178 -125l-64 81l168 141zM401 861l-182 -128l-62 77l172 144z" />
    <glyph glyph-name="uhungarumlaut" unicode="&#x171;" horiz-adv-x="618" 
d="M548 0h-123l-11 72c-42 -59 -105 -84 -163 -84c-57 0 -107 27 -140 69c-41 53 -47 121 -47 196v273h142v-266c0 -39 1 -83 16 -113c13 -26 39 -37 70 -37c42 0 88 24 114 67v349h142v-526zM384 757l-147 -172l-80 57l132 188zM584 747l-144 -169l-82 62l130 183z" />
    <glyph glyph-name="Uogonek" unicode="&#x172;" horiz-adv-x="716" 
d="M640 700v-370c0 -173 -52 -286 -172 -326c-42 -14 -78 -48 -78 -87c0 -29 17 -49 49 -49c15 0 32 5 47 13l33 -78c-26 -17 -67 -30 -111 -30c-75 0 -134 44 -134 107c0 43 19 84 53 109c-175 12 -251 132 -251 341v370h143v-389c0 -134 54 -198 139 -198s139 64 139 198
v389h143z" />
    <glyph glyph-name="uogonek" unicode="&#x173;" horiz-adv-x="618" 
d="M549 526v-526c-65 -15 -118 -45 -118 -92c0 -23 14 -40 49 -40c15 0 33 5 48 13l33 -78c-27 -17 -67 -30 -112 -30c-75 0 -134 44 -134 107c0 56 35 97 110 125l-10 67c-42 -59 -105 -84 -163 -84c-57 0 -107 27 -140 69c-41 53 -47 121 -47 196v273h142v-266
c0 -39 1 -83 16 -113c13 -26 39 -37 70 -37c42 0 88 24 114 67v349h142z" />
    <glyph glyph-name="Wcircumflex" unicode="&#x174;" horiz-adv-x="944" 
d="M540 700l120 -448h2l118 448h160l-201 -700h-142l-127 460h-2l-131 -460h-137l-196 700h160l115 -448h2l125 448h134zM397 943h156l113 -149l-82 -60l-111 126l-112 -126l-81 60z" />
    <glyph glyph-name="wcircumflex" unicode="&#x175;" horiz-adv-x="777" 
d="M452 526l86 -325h3l83 325h148l-151 -526h-150l-83 301h-2l-84 -301h-153l-144 526h151l78 -326h2l91 326h125zM320 799h143l112 -168l-80 -48l-105 129l-104 -129l-80 48z" />
    <glyph glyph-name="Wgrave" unicode="&#x1e80;" horiz-adv-x="944" 
d="M540 700l120 -448h2l118 448h160l-201 -700h-142l-127 460h-2l-131 -460h-137l-196 700h160l115 -448h2l125 448h134zM489 733l-182 128l74 97l172 -144z" />
    <glyph glyph-name="wgrave" unicode="&#x1e81;" horiz-adv-x="777" 
d="M452 526l86 -325h3l83 325h148l-151 -526h-150l-83 301h-2l-84 -301h-153l-144 526h151l78 -326h2l91 326h125zM363 578l-147 172l96 76l133 -186z" />
    <glyph glyph-name="Wacute" unicode="&#x1e82;" horiz-adv-x="944" 
d="M540 700l120 -448h2l118 448h160l-201 -700h-142l-127 460h-2l-131 -460h-137l-196 700h160l115 -448h2l125 448h134zM654 861l-182 -128l-64 81l172 144z" />
    <glyph glyph-name="wacute" unicode="&#x1e83;" horiz-adv-x="777" 
d="M452 526l86 -325h3l83 325h148l-151 -526h-150l-83 301h-2l-84 -301h-153l-144 526h151l78 -326h2l91 326h125zM560 750l-147 -172l-82 62l133 186z" />
    <glyph glyph-name="Wdieresis" unicode="&#x1e84;" horiz-adv-x="944" 
d="M540 700l120 -448h2l118 448h160l-201 -700h-142l-127 460h-2l-131 -460h-137l-196 700h160l115 -448h2l125 448h134zM409 762h-149v120h149v-120zM686 762h-149v120h149v-120z" />
    <glyph glyph-name="wdieresis" unicode="&#x1e85;" horiz-adv-x="777" 
d="M452 526l86 -325h3l83 325h148l-151 -526h-150l-83 301h-2l-84 -301h-153l-144 526h151l78 -326h2l91 326h125zM341 599h-143v121h143v-121zM582 599h-143v121h143v-121z" />
    <glyph glyph-name="Ygrave" unicode="&#x1ef2;" horiz-adv-x="608" 
d="M370 0h-143v293l-223 407h178l121 -252h2l132 252h167l-234 -411v-289zM332 733l-182 128l74 97l172 -144z" />
    <glyph glyph-name="ygrave" unicode="&#x1ef3;" horiz-adv-x="531" 
d="M3 526h155l106 -313h2l108 313h154l-296 -767l-127 49l84 223zM282 578l-147 172l96 76l133 -186z" />
    <glyph glyph-name="Ycircumflex" unicode="&#x176;" horiz-adv-x="608" 
d="M370 0h-143v293l-223 407h178l121 -252h2l132 252h167l-234 -411v-289zM229 943h156l113 -149l-82 -60l-111 126l-112 -126l-81 60z" />
    <glyph glyph-name="ycircumflex" unicode="&#x177;" horiz-adv-x="531" 
d="M3 526h155l106 -313h2l108 313h154l-296 -767l-127 49l84 223zM198 799h143l112 -168l-80 -48l-105 129l-104 -129l-80 48z" />
    <glyph glyph-name="Ydieresis" unicode="&#x178;" horiz-adv-x="608" 
d="M370 0h-144v295l-222 405h177l122 -252h2l132 252h167l-234 -411v-289zM251 762h-149v120h149v-120zM516 762h-148v120h148v-120z" />
    <glyph glyph-name="Zacute" unicode="&#x179;" horiz-adv-x="562" 
d="M522 627l-296 -506h320v-121h-513v76l295 503h-287v121h481v-73zM437 861l-182 -128l-64 81l172 144z" />
    <glyph glyph-name="zacute" unicode="&#x17a;" horiz-adv-x="483" 
d="M50 66l200 342h-211v118h398v-65l-202 -343h219v-118h-404v66zM390 750l-147 -172l-82 62l133 186z" />
    <glyph glyph-name="Zdotaccent" unicode="&#x17b;" horiz-adv-x="562" 
d="M522 627l-296 -506h320v-121h-513v76l295 503h-287v121h481v-73zM341 762h-146v120h146v-120z" />
    <glyph glyph-name="zdotaccent" unicode="&#x17c;" horiz-adv-x="483" 
d="M50 66l200 342h-211v118h398v-65l-202 -343h219v-118h-404v66zM306 599h-142v121h142v-121z" />
    <glyph glyph-name="Zcaron" unicode="&#x17d;" horiz-adv-x="562" 
d="M522 627l-296 -506h320v-121h-513v76l295 503h-287v121h481v-73zM358 746h-156l-113 149l83 60l111 -126l112 126l80 -60z" />
    <glyph glyph-name="zcaron" unicode="&#x17e;" horiz-adv-x="483" 
d="M50 66l200 342h-211v118h398v-65l-202 -343h219v-118h-404v66zM313 594h-143l-112 168l81 48l105 -129l104 129l79 -48z" />
    <glyph glyph-name="longs" unicode="&#x17f;" horiz-adv-x="316" 
d="M372 731l-37 -106c-23 12 -45 19 -70 19c-53 0 -60 -35 -60 -88v-556h-139v563c0 126 56 199 173 199c43 0 92 -13 133 -31z" />
    <glyph glyph-name="dotlessj" unicode="&#x237;" horiz-adv-x="287" 
d="M218 526v-563c0 -55 -10 -98 -34 -130c-27 -38 -74 -60 -147 -60c-41 0 -79 8 -114 22l38 112c18 -8 38 -13 61 -13c49 0 53 36 53 80v552h143z" />
    <glyph glyph-name="s_t" unicode="&#xfb06;" horiz-adv-x="859" 
d="M433 469l-78 -86c-27 24 -64 44 -104 44c-27 0 -51 -15 -51 -40c0 -33 39 -50 83 -68c68 -28 154 -62 154 -162c0 -116 -100 -169 -202 -169c-82 0 -154 32 -212 90l81 84c40 -39 73 -62 124 -62c29 0 67 14 67 46c0 37 -48 53 -100 76c-63 27 -132 63 -132 155
c0 107 92 161 188 161c70 0 133 -23 182 -69zM832 408h-134v-204c0 -16 0 -30 2 -45c4 -31 16 -50 46 -50c22 0 39 6 57 15l44 -105c-34 -20 -84 -31 -125 -31c-82 0 -137 45 -156 113c-8 26 -10 57 -10 88v219h-63v118h63l22 116h120v-116h134v-118z" />
    <glyph glyph-name="s_p" horiz-adv-x="1125" 
d="M433 469l-78 -86c-27 24 -64 44 -104 44c-27 0 -51 -15 -51 -40c0 -33 39 -50 83 -68c68 -28 154 -62 154 -162c0 -116 -100 -169 -202 -169c-82 0 -154 32 -212 90l81 84c40 -39 73 -62 124 -62c29 0 67 14 67 46c0 37 -48 53 -100 76c-63 27 -132 63 -132 155
c0 107 92 161 188 161c70 0 133 -23 182 -69zM550 526h123l11 -65c38 57 109 77 163 77c140 0 245 -124 245 -277c0 -148 -104 -273 -246 -273c-51 0 -114 17 -154 63v-301h-142v776zM692 346v-179c35 -42 77 -57 122 -57c91 0 133 81 133 155c0 78 -49 151 -131 151
c-45 0 -93 -18 -124 -70z" />
    <glyph glyph-name="c_t" horiz-adv-x="909" 
d="M413 150l76 -97c-52 -46 -114 -65 -189 -65c-155 0 -267 112 -267 275c0 153 111 275 271 275c72 0 133 -22 185 -65l-73 -99c-29 27 -61 42 -102 42c-80 0 -136 -69 -136 -153c0 -88 59 -153 134 -153c39 0 71 11 101 40zM882 408h-134v-204c0 -16 0 -30 2 -45
c4 -31 16 -50 46 -50c22 0 39 6 57 15l44 -105c-34 -20 -84 -31 -125 -31c-82 0 -137 45 -156 113c-8 26 -10 57 -10 88v219h-63v118h63l22 116h120v-116h134v-118z" />
    <glyph glyph-name="c_h" horiz-adv-x="1129" 
d="M413 150l76 -97c-52 -46 -114 -65 -189 -65c-155 0 -267 112 -267 275c0 153 111 275 271 275c72 0 133 -22 185 -65l-73 -99c-29 27 -61 42 -102 42c-80 0 -136 -69 -136 -153c0 -88 59 -153 134 -153c39 0 71 11 101 40zM722 750v-286c42 51 101 74 155 74
c57 0 107 -27 140 -69c41 -53 47 -121 47 -196v-273h-142v266c0 39 -1 83 -16 113c-13 26 -39 37 -70 37c-42 0 -88 -24 -114 -67v-349h-142v750h142z" />
    <glyph glyph-name="c_k" horiz-adv-x="1066" 
d="M413 150l76 -97c-52 -46 -114 -65 -189 -65c-155 0 -267 112 -267 275c0 153 111 275 271 275c72 0 133 -22 185 -65l-73 -99c-29 27 -61 42 -102 42c-80 0 -136 -69 -136 -153c0 -88 59 -153 134 -153c39 0 71 11 101 40zM1068 0h-174l-121 195l-51 -59v-136h-142v750
h142v-438h2l170 214h162l-188 -220z" />
    <glyph glyph-name="T_h" horiz-adv-x="1109" 
d="M483 579h-166v-579h-143v579h-166v121h475v-121zM702 750v-286c42 51 101 74 155 74c57 0 107 -27 140 -69c41 -53 47 -121 47 -196v-273h-142v266c0 39 -1 83 -16 113c-13 26 -39 37 -70 37c-42 0 -88 -24 -114 -67v-349h-142v750h142z" />
    <glyph glyph-name="circumflex" unicode="&#x2c6;" horiz-adv-x="360" 
d="M109 799h143l112 -168l-80 -48l-105 129l-104 -129l-80 48z" />
    <glyph glyph-name="caron" unicode="&#x2c7;" horiz-adv-x="360" 
d="M250 594h-143l-112 168l81 48l105 -129l104 129l79 -48z" />
    <glyph glyph-name="uni02C9" unicode="&#x2c9;" horiz-adv-x="360" 
d="M351 609h-342v98h342v-98z" />
    <glyph glyph-name="breve" unicode="&#x2d8;" horiz-adv-x="360" 
d="M345 767v-17c0 -92 -73 -164 -165 -164s-165 72 -165 164v17h102c-1 -5 -1 -15 -1 -19c0 -36 27 -69 64 -69s65 33 65 69c0 4 0 14 -1 19h101z" />
    <glyph glyph-name="dieresis" unicode="&#xa8;" horiz-adv-x="360" 
d="M131 599h-143v121h143v-121zM372 599h-143v121h143v-121z" />
    <glyph glyph-name="macron" unicode="&#xaf;" horiz-adv-x="360" 
d="M351 609h-342v98h342v-98z" />
    <glyph glyph-name="degree" unicode="&#xb0;" horiz-adv-x="462" 
d="M228 599c-37 0 -65 -30 -65 -67s28 -67 65 -67s65 30 65 67s-28 67 -65 67zM228 370c-90 0 -162 72 -162 162s72 162 162 162s162 -72 162 -162s-72 -162 -162 -162z" />
    <glyph glyph-name="acute" unicode="&#xb4;" horiz-adv-x="360" 
d="M335 750l-147 -172l-82 62l133 186z" />
    <glyph glyph-name="grave" unicode="`" horiz-adv-x="360" 
d="M171 578l-147 172l96 76l133 -186z" />
    <glyph glyph-name="cedilla" unicode="&#xb8;" horiz-adv-x="400" 
d="M183 8l-27 -69h1c15 11 32 15 47 15c48 0 93 -42 93 -101c0 -56 -49 -110 -114 -110c-52 0 -89 23 -116 70l69 33c7 -19 20 -32 40 -32c22 0 37 16 37 37s-16 40 -37 40c-15 0 -27 -5 -37 -20l-73 37l49 113z" />
    <glyph glyph-name="dotaccent" unicode="&#x2d9;" horiz-adv-x="360" 
d="M251 599h-142v121h142v-121z" />
    <glyph glyph-name="ring" unicode="&#x2da;" horiz-adv-x="360" 
d="M67 693c0 62 50 113 113 113s113 -51 113 -113s-50 -113 -113 -113s-113 51 -113 113zM135 693c0 -25 20 -45 45 -45s45 20 45 45s-20 45 -45 45s-45 -20 -45 -45z" />
    <glyph glyph-name="ogonek" unicode="&#x2db;" horiz-adv-x="360" 
d="M166 9l117 -2v-7c-65 -15 -112 -45 -112 -92c0 -23 14 -40 49 -40c15 0 32 5 48 13l32 -78c-26 -17 -66 -30 -111 -30c-75 0 -134 44 -134 107c0 53 30 101 111 129z" />
    <glyph glyph-name="tilde" unicode="&#x2dc;" horiz-adv-x="360" 
d="M81 602l-81 -9c-4 13 -6 26 -6 38c0 61 45 103 115 103c65 0 115 -51 146 -51c13 0 24 8 25 23c0 2 0 6 -1 7l81 9c4 -13 6 -26 6 -38c0 -61 -45 -103 -115 -103c-65 0 -115 51 -146 51c-13 0 -24 -8 -25 -23c0 -2 0 -6 1 -7z" />
    <glyph glyph-name="hungarumlaut" unicode="&#x2dd;" horiz-adv-x="360" 
d="M232 757l-147 -172l-80 57l132 188zM432 747l-144 -169l-82 62l130 183z" />
    <glyph glyph-name="perthousand" unicode="&#x2030;" horiz-adv-x="1248" 
d="M1023 335c96 0 177 -71 177 -170c0 -100 -81 -171 -177 -171c-95 0 -176 71 -176 171c0 99 81 170 176 170zM1024 235c-38 0 -65 -29 -65 -70c0 -42 27 -71 65 -71c36 0 64 29 64 71c0 41 -28 70 -64 70zM225 706c95 0 176 -71 176 -171c0 -99 -81 -170 -176 -170
c-96 0 -177 71 -177 170c0 100 81 171 177 171zM225 606c-38 0 -65 -29 -65 -71c0 -41 27 -70 65 -70c37 0 64 29 64 70c0 42 -27 71 -64 71zM632 335c95 0 176 -71 176 -170c0 -100 -81 -171 -176 -171c-96 0 -177 71 -177 171c0 99 81 170 177 170zM632 235
c-38 0 -65 -29 -65 -70c0 -42 27 -71 65 -71c37 0 64 29 64 71c0 41 -27 70 -64 70zM642 718l71 -53l-498 -683l-71 53z" />
    <glyph glyph-name="percent" unicode="%" horiz-adv-x="856" 
d="M225 706c95 0 176 -71 176 -171c0 -99 -81 -170 -176 -170c-96 0 -177 71 -177 170c0 100 81 171 177 171zM225 606c-38 0 -65 -29 -65 -71c0 -41 27 -70 65 -70c37 0 64 29 64 70c0 42 -27 71 -64 71zM632 335c95 0 176 -71 176 -170c0 -100 -81 -171 -176 -171
c-96 0 -177 71 -177 171c0 99 81 170 177 170zM632 235c-38 0 -65 -29 -65 -70c0 -42 27 -71 65 -71c37 0 64 29 64 71c0 41 -27 70 -64 70zM642 718l71 -53l-498 -683l-71 53z" />
    <glyph glyph-name="fraction" unicode="&#x2044;" horiz-adv-x="149" 
d="M288 718l71 -53l-498 -683l-71 53z" />
    <glyph glyph-name="zerosuperior" unicode="&#x2070;" horiz-adv-x="352" 
d="M176 439c33 0 52 41 52 128c0 88 -19 129 -52 129s-51 -41 -51 -129c0 -87 18 -128 51 -128zM176 775c101 0 158 -79 158 -208c0 -128 -57 -207 -158 -207s-157 79 -157 207c0 129 56 208 157 208z" />
    <glyph glyph-name="onesuperior" unicode="&#xb9;" horiz-adv-x="229" 
d="M184 367h-103v291c-19 -9 -40 -17 -56 -23v85c27 13 62 32 91 48h68v-401z" />
    <glyph glyph-name="twosuperior" unicode="&#xb2;" horiz-adv-x="331" 
d="M26 441c54 47 98 90 140 141c16 22 32 44 32 74c0 25 -15 40 -37 40c-25 0 -38 -24 -38 -55l-104 13c3 76 65 121 138 121c75 0 146 -41 146 -114c0 -40 -15 -76 -40 -107c-33 -40 -74 -80 -111 -110h163v-77h-289v74z" />
    <glyph glyph-name="threesuperior" unicode="&#xb3;" horiz-adv-x="347" 
d="M114 536v72c5 -1 11 -1 15 -1c10 0 23 2 31 4c24 6 39 22 39 42c0 24 -17 43 -46 43c-22 0 -42 -10 -52 -39l-80 36c20 54 73 82 133 82c79 0 149 -40 149 -106c0 -31 -16 -67 -57 -88c57 -17 76 -63 76 -101c0 -74 -70 -120 -156 -120c-64 0 -129 29 -152 87l80 37
c16 -33 40 -45 65 -45c33 0 56 20 56 47c0 34 -31 52 -69 52c-9 0 -21 -1 -32 -2z" />
    <glyph glyph-name="foursuperior" horiz-adv-x="351" 
d="M16 545c57 71 114 148 168 223h107v-227h52v-77h-52v-97h-102v97h-173v81zM189 541v103c-22 -33 -51 -76 -72 -103h72z" />
    <glyph glyph-name="fivesuperior" horiz-adv-x="332" 
d="M291 691h-148c0 -25 -2 -54 -5 -76c17 8 36 13 53 13c72 0 119 -61 119 -126c0 -82 -65 -142 -147 -142c-63 0 -118 26 -147 82l76 38c13 -32 38 -41 59 -41c32 0 52 25 52 53c0 30 -20 52 -53 52c-17 0 -34 -7 -47 -24l-63 43c6 61 10 151 12 205h239v-77z" />
    <glyph glyph-name="sixsuperior" horiz-adv-x="353" 
d="M239 796l31 -80c-65 -21 -111 -51 -132 -105c19 12 41 18 64 18c76 0 133 -55 133 -131c0 -84 -66 -138 -148 -138c-99 0 -168 66 -168 168c0 140 96 229 220 268zM124 522c0 -44 16 -84 57 -84c31 0 48 26 48 54c0 31 -18 58 -49 58c-21 0 -42 -11 -56 -28z" />
    <glyph glyph-name="sevensuperior" horiz-adv-x="300" 
d="M291 768v-55c-49 -101 -120 -266 -163 -369l-94 44c52 120 102 220 145 302h-174v78h286z" />
    <glyph glyph-name="eightsuperior" horiz-adv-x="357" 
d="M317 662c0 -38 -17 -65 -49 -85c38 -23 61 -50 61 -96c0 -71 -69 -121 -151 -121s-150 49 -150 121c0 46 21 74 59 96c-30 20 -48 47 -48 85c0 63 58 113 139 113c82 0 139 -50 139 -113zM178 536c-25 0 -44 -21 -44 -50c0 -28 19 -49 44 -49s45 21 45 49
c0 29 -20 50 -45 50zM178 696c-21 0 -36 -17 -36 -41c0 -23 15 -42 36 -42c22 0 36 19 36 42c0 24 -14 41 -36 41z" />
    <glyph glyph-name="ninesuperior" horiz-adv-x="353" 
d="M115 339l-31 80c65 21 111 51 132 105c-19 -12 -41 -18 -64 -18c-76 0 -133 55 -133 131c0 84 66 138 148 138c99 0 168 -66 168 -168c0 -140 -96 -229 -220 -268zM230 613c0 44 -16 84 -57 84c-31 0 -48 -26 -48 -54c0 -31 18 -58 49 -58c21 0 42 11 56 28z" />
    <glyph glyph-name="parenleftsuperior" horiz-adv-x="232" 
d="M233 324l-38 -63c-99 59 -177 149 -177 290s77 230 177 291l39 -63c-65 -42 -120 -112 -120 -228s55 -186 119 -227z" />
    <glyph glyph-name="parenrightsuperior" horiz-adv-x="232" 
d="M37 261l-38 63c64 41 120 111 120 227s-56 186 -120 228l39 63c99 -61 176 -150 176 -291s-78 -231 -177 -290z" />
    <glyph glyph-name="hyphensuperior" unicode="&#xf6e6;" horiz-adv-x="277" 
d="M220 503h-163v74h163v-74z" />
    <glyph glyph-name="commasuperior" unicode="&#xf6e2;" horiz-adv-x="164" 
d="M136 462l-44 -167h-86l34 167h96z" />
    <glyph glyph-name="periodsuperior" unicode="&#xf6e8;" horiz-adv-x="153" 
d="M125 367h-97v94h97v-94z" />
    <glyph glyph-name="minussuperior" horiz-adv-x="342" 
d="M24 597h294v-80h-294v80z" />
    <glyph glyph-name="plussuperior" horiz-adv-x="341" 
d="M130 407v110h-109v80h109v110h80v-110h110v-80h-110v-110h-80z" />
    <glyph glyph-name="equalsuperior" horiz-adv-x="342" 
d="M24 656h294v-75h-294v75zM24 532h294v-75h-294v75z" />
    <glyph glyph-name="a.sup" horiz-adv-x="349" 
d="M312 367h-85l-5 23c-23 -22 -53 -30 -84 -30c-58 0 -113 33 -113 97c0 77 70 101 138 101c16 0 33 -1 51 -4v5c0 32 -22 52 -59 52c-32 0 -67 -14 -90 -30l-25 68c39 21 88 35 134 35c80 0 138 -42 138 -133v-184zM214 500c-11 2 -21 3 -30 3c-30 0 -60 -11 -60 -42
c0 -26 21 -36 44 -36c18 0 33 8 46 18v57z" />
    <glyph glyph-name="b.sup" horiz-adv-x="387" 
d="M39 816h100v-172c25 28 59 40 91 40c88 0 138 -77 138 -161c0 -83 -51 -163 -144 -163c-32 0 -67 12 -94 37l-4 -30h-87v449zM139 570v-103c17 -19 39 -27 60 -27c45 0 67 42 67 83s-23 81 -66 81c-23 0 -46 -10 -61 -34z" />
    <glyph glyph-name="c.sup" horiz-adv-x="309" 
d="M243 464l54 -62c-30 -29 -69 -42 -113 -42c-91 0 -165 61 -165 162c0 94 71 162 166 162c43 0 83 -16 113 -44l-53 -62c-16 16 -32 26 -55 26c-45 0 -69 -40 -69 -83c0 -44 25 -81 68 -81c21 0 38 9 54 24z" />
    <glyph glyph-name="d.sup" horiz-adv-x="387" 
d="M260 367l-4 36c-23 -31 -58 -43 -94 -43c-88 0 -143 76 -143 162c0 83 55 162 141 162c33 0 64 -12 89 -34v168h100v-451h-89zM249 578c-18 18 -40 26 -61 26c-40 0 -67 -35 -67 -83c0 -47 28 -81 65 -81c22 0 46 9 63 33v105z" />
    <glyph glyph-name="e.sup" horiz-adv-x="352" 
d="M258 476l63 -43c-35 -50 -78 -73 -142 -73c-92 0 -160 64 -160 158s70 166 161 166c82 0 153 -61 153 -145c0 -13 -2 -26 -5 -40h-208c5 -40 27 -65 66 -65c30 0 56 18 72 42zM123 559h108c-3 30 -23 52 -52 52c-32 0 -49 -23 -56 -52z" />
    <glyph glyph-name="f.sup" horiz-adv-x="223" 
d="M16 676h32v35c0 74 36 114 112 114c31 0 60 -8 87 -21l-28 -68c-13 9 -29 12 -40 12c-27 0 -31 -15 -31 -41v-31h74v-73h-74v-236h-100v236h-32v73z" />
    <glyph glyph-name="g.sup" horiz-adv-x="386" 
d="M349 676v-301c0 -104 -74 -148 -160 -148c-53 0 -104 15 -149 43l34 74c36 -27 67 -40 108 -40c40 0 67 24 67 67v31c-23 -24 -55 -35 -87 -35c-88 0 -143 75 -143 159c0 81 55 158 141 158c36 0 70 -14 94 -40l6 32h89zM249 480v98c-18 18 -40 26 -61 26
c-40 0 -67 -33 -67 -79c0 -47 28 -78 65 -78c21 0 46 9 63 33z" />
    <glyph glyph-name="h.sup" horiz-adv-x="378" 
d="M139 816v-176c24 26 55 44 90 44c85 0 112 -62 112 -145v-172h-100v163c0 33 -2 74 -41 74c-19 0 -41 -11 -61 -36v-201h-100v449h100z" />
    <glyph glyph-name="i.sup" horiz-adv-x="178" 
d="M139 367h-100v309h100v-309zM139 720h-100v75h100v-75z" />
    <glyph glyph-name="j.sup" horiz-adv-x="185" 
d="M-41 241l24 72c11 -7 22 -10 33 -10c25 0 30 18 30 40v333h100v-337c0 -77 -36 -112 -115 -112c-26 0 -49 5 -72 14zM146 720h-100v75h100v-75z" />
    <glyph glyph-name="k.sup" horiz-adv-x="341" 
d="M139 816v-246h1l83 106h111l-110 -129l118 -180h-120l-64 104l-19 -23v-81h-100v449h100z" />
    <glyph glyph-name="l.sup" horiz-adv-x="178" 
d="M139 816v-449h-100v449h100z" />
    <glyph glyph-name="m.sup" horiz-adv-x="555" 
d="M139 367h-100v309h88l4 -37c28 31 57 45 87 45c43 0 72 -17 90 -46c34 35 66 46 100 46c84 0 111 -63 111 -145v-172h-100v163c0 33 -2 74 -40 74c-17 0 -35 -8 -53 -27c2 -12 3 -25 3 -38v-172h-100v163c0 33 -1 74 -40 74c-16 0 -34 -9 -50 -25v-212z" />
    <glyph glyph-name="n.sup" horiz-adv-x="378" 
d="M139 367h-100v309h88l5 -44c31 36 60 52 96 52c85 0 113 -59 113 -145v-172h-100v164c0 33 -2 73 -41 73c-20 0 -41 -11 -61 -36v-201z" />
    <glyph glyph-name="o.sup" horiz-adv-x="372" 
d="M186 684c99 0 167 -71 167 -162c0 -92 -68 -162 -167 -162s-167 70 -167 162c0 91 68 162 167 162zM251 522c0 47 -25 84 -65 84c-39 0 -65 -37 -65 -84c0 -48 26 -84 65 -84c40 0 65 36 65 84z" />
    <glyph glyph-name="p.sup" horiz-adv-x="387" 
d="M39 676h88l5 -36c22 30 57 44 93 44c87 0 143 -77 143 -162c0 -83 -56 -162 -141 -162c-33 0 -64 11 -88 33v-169h-100v452zM139 570v-104c17 -19 39 -26 60 -26c40 0 67 35 67 83c0 47 -28 81 -65 81c-22 0 -46 -10 -62 -34z" />
    <glyph glyph-name="q.sup" horiz-adv-x="387" 
d="M348 676v-452h-100v175c-26 -28 -61 -39 -92 -39c-87 0 -137 77 -137 161c0 82 51 163 143 163c32 0 66 -12 93 -37l5 29h88zM248 577c-18 19 -41 27 -61 27c-45 0 -66 -43 -66 -83c0 -41 22 -81 65 -81c22 0 46 9 62 33v104z" />
    <glyph glyph-name="r.sup" horiz-adv-x="240" 
d="M139 367h-100v309h88l4 -38c20 31 46 46 73 46c20 0 34 -5 47 -11l-22 -78c-11 7 -22 8 -33 8c-20 0 -41 -11 -57 -35v-201z" />
    <glyph glyph-name="s.sup" horiz-adv-x="292" 
d="M266 641l-49 -57c-16 16 -39 27 -61 27c-13 0 -24 -8 -24 -22c0 -17 27 -26 57 -39c37 -16 78 -39 78 -88c0 -72 -62 -102 -124 -102c-50 0 -93 18 -130 54l53 58c29 -29 51 -39 74 -39c16 0 28 8 28 21c0 19 -28 29 -58 43c-36 16 -74 37 -74 87c0 66 58 100 116 100
c43 0 83 -14 114 -43z" />
    <glyph glyph-name="t.sup" horiz-adv-x="237" 
d="M202 448l28 -67c-26 -14 -55 -21 -80 -21c-64 0 -105 36 -105 118v125h-35v73h40l14 70h81v-70h76v-73h-76v-115c0 -25 0 -50 23 -50c10 0 21 3 34 10z" />
    <glyph glyph-name="u.sup" horiz-adv-x="378" 
d="M239 676h100v-309h-88l-5 44c-31 -36 -60 -52 -96 -52c-85 0 -113 59 -113 145v172h100v-164c0 -33 2 -73 41 -73c20 0 41 11 61 36v201z" />
    <glyph glyph-name="v.sup" horiz-adv-x="330" 
d="M163 504h2l52 172h110l-126 -309h-83l-115 309h109z" />
    <glyph glyph-name="w.sup" horiz-adv-x="467" 
d="M233 522h-1l-39 -155h-106l-84 309h106l38 -169h2l42 169h87l41 -169h2l40 169h103l-88 -309h-104z" />
    <glyph glyph-name="x.sup" horiz-adv-x="368" 
d="M13 676h123l53 -80l55 80h121l-120 -155l115 -154h-123l-55 83l-58 -83h-121l123 157z" />
    <glyph glyph-name="y.sup" horiz-adv-x="326" 
d="M162 508h2l53 168h107l-174 -450l-89 33l49 130l-107 287h107z" />
    <glyph glyph-name="z.sup" horiz-adv-x="294" 
d="M29 409l112 194h-118v73h246v-40l-116 -196h125v-73h-249v42z" />
    <glyph glyph-name="zeroinferior" horiz-adv-x="352" 
d="M176 -105c33 0 52 41 52 128c0 88 -19 129 -52 129s-51 -41 -51 -129c0 -87 18 -128 51 -128zM176 231c101 0 158 -79 158 -208c0 -128 -57 -207 -158 -207s-157 79 -157 207c0 129 56 208 157 208z" />
    <glyph glyph-name="oneinferior" horiz-adv-x="229" 
d="M184 -178h-103v291c-19 -9 -40 -17 -56 -23v85c27 13 62 32 91 48h68v-401z" />
    <glyph glyph-name="twoinferior" horiz-adv-x="331" 
d="M26 -104c54 47 98 90 140 141c16 22 32 44 32 74c0 25 -15 40 -37 40c-25 0 -38 -24 -38 -55l-104 13c3 76 65 121 138 121c75 0 146 -41 146 -114c0 -40 -15 -76 -40 -107c-33 -40 -74 -80 -111 -110h163v-77h-289v74z" />
    <glyph glyph-name="threeinferior" horiz-adv-x="347" 
d="M114 -9v72c5 -1 11 -1 15 -1c10 0 23 2 31 4c24 6 39 22 39 42c0 24 -17 43 -46 43c-22 0 -42 -10 -52 -39l-80 36c20 54 73 82 133 82c79 0 149 -40 149 -106c0 -31 -16 -67 -57 -88c57 -17 76 -63 76 -101c0 -74 -70 -120 -156 -120c-64 0 -129 29 -152 87l80 37
c16 -33 40 -45 65 -45c33 0 56 20 56 47c0 34 -31 52 -69 52c-9 0 -21 -1 -32 -2z" />
    <glyph glyph-name="fourinferior" horiz-adv-x="351" 
d="M16 0c57 71 114 148 168 223h107v-227h52v-77h-52v-97h-102v97h-173v81zM189 -4v103c-22 -33 -51 -76 -72 -103h72z" />
    <glyph glyph-name="fiveinferior" horiz-adv-x="332" 
d="M291 146h-148c0 -25 -2 -54 -5 -76c17 8 36 13 53 13c72 0 119 -61 119 -126c0 -82 -65 -142 -147 -142c-63 0 -118 26 -147 82l76 38c13 -32 38 -41 59 -41c32 0 52 25 52 53c0 30 -20 52 -53 52c-17 0 -34 -7 -47 -24l-63 43c6 61 10 151 12 205h239v-77z" />
    <glyph glyph-name="sixinferior" horiz-adv-x="353" 
d="M239 251l31 -80c-65 -21 -111 -51 -132 -105c19 12 41 18 64 18c76 0 133 -55 133 -131c0 -84 -66 -138 -148 -138c-99 0 -168 66 -168 168c0 140 96 229 220 268zM124 -23c0 -44 16 -84 57 -84c31 0 48 26 48 54c0 31 -18 58 -49 58c-21 0 -42 -11 -56 -28z" />
    <glyph glyph-name="seveninferior" horiz-adv-x="300" 
d="M291 223v-55c-49 -101 -120 -266 -163 -369l-94 44c52 120 102 220 145 302h-174v78h286z" />
    <glyph glyph-name="eightinferior" horiz-adv-x="357" 
d="M317 117c0 -38 -17 -65 -49 -85c38 -23 61 -50 61 -96c0 -71 -69 -121 -151 -121s-150 49 -150 121c0 46 21 74 59 96c-30 20 -48 47 -48 85c0 63 58 113 139 113c82 0 139 -50 139 -113zM178 -9c-25 0 -44 -21 -44 -50c0 -28 19 -49 44 -49s45 21 45 49
c0 29 -20 50 -45 50zM178 151c-21 0 -36 -17 -36 -41c0 -23 15 -42 36 -42c22 0 36 19 36 42c0 24 -14 41 -36 41z" />
    <glyph glyph-name="nineinferior" horiz-adv-x="353" 
d="M115 -206l-31 80c65 21 111 51 132 105c-19 -12 -41 -18 -64 -18c-76 0 -133 55 -133 131c0 84 66 138 148 138c99 0 168 -66 168 -168c0 -140 -96 -229 -220 -268zM230 68c0 44 -16 84 -57 84c-31 0 -48 -26 -48 -54c0 -31 18 -58 49 -58c21 0 42 11 56 28z" />
    <glyph glyph-name="parenleftinferior" horiz-adv-x="232" 
d="M233 -221l-38 -63c-99 59 -177 149 -177 290s77 230 177 291l39 -63c-65 -42 -120 -112 -120 -228s55 -186 119 -227z" />
    <glyph glyph-name="parenrightinferior" horiz-adv-x="232" 
d="M37 -284l-38 63c64 41 120 111 120 227s-56 186 -120 228l39 63c99 -61 176 -150 176 -291s-78 -231 -177 -290z" />
    <glyph glyph-name="hypheninferior" unicode="&#xf6e5;" horiz-adv-x="277" 
d="M220 -42h-163v74h163v-74z" />
    <glyph glyph-name="commainferior" unicode="&#xf6e1;" horiz-adv-x="164" 
d="M136 -83l-44 -167h-86l34 167h96z" />
    <glyph glyph-name="periodinferior" unicode="&#xf6e7;" horiz-adv-x="153" 
d="M125 -178h-97v94h97v-94z" />
    <glyph glyph-name="minusinferior" horiz-adv-x="342" 
d="M24 52h294v-80h-294v80z" />
    <glyph glyph-name="plusinferior" horiz-adv-x="341" 
d="M130 -138v110h-109v80h109v110h80v-110h110v-80h-110v-110h-80z" />
    <glyph glyph-name="equalinferior" horiz-adv-x="342" 
d="M24 111h294v-75h-294v75zM24 -13h294v-75h-294v75z" />
    <glyph glyph-name="a.sinf" horiz-adv-x="349" 
d="M312 -178h-85l-5 23c-23 -22 -53 -30 -84 -30c-58 0 -113 33 -113 97c0 77 70 101 138 101c16 0 33 -1 51 -4v5c0 32 -22 52 -59 52c-32 0 -67 -14 -90 -30l-25 68c39 21 88 35 134 35c80 0 138 -42 138 -133v-184zM214 -45c-11 2 -21 3 -30 3c-30 0 -60 -11 -60 -42
c0 -26 21 -36 44 -36c18 0 33 8 46 18v57z" />
    <glyph glyph-name="b.sinf" horiz-adv-x="387" 
d="M39 271h100v-172c25 28 59 40 91 40c88 0 138 -77 138 -161c0 -83 -51 -163 -144 -163c-32 0 -67 12 -94 37l-4 -30h-87v449zM139 25v-103c17 -19 39 -27 60 -27c45 0 67 42 67 83s-23 81 -66 81c-23 0 -46 -10 -61 -34z" />
    <glyph glyph-name="c.sinf" horiz-adv-x="309" 
d="M243 -81l54 -62c-30 -29 -69 -42 -113 -42c-91 0 -165 61 -165 162c0 94 71 162 166 162c43 0 83 -16 113 -44l-53 -62c-16 16 -32 26 -55 26c-45 0 -69 -40 -69 -83c0 -44 25 -81 68 -81c21 0 38 9 54 24z" />
    <glyph glyph-name="d.sinf" horiz-adv-x="387" 
d="M260 -178l-4 36c-23 -31 -58 -43 -94 -43c-88 0 -143 76 -143 162c0 83 55 162 141 162c33 0 64 -12 89 -34v168h100v-451h-89zM249 33c-18 18 -40 26 -61 26c-40 0 -67 -35 -67 -83c0 -47 28 -81 65 -81c22 0 46 9 63 33v105z" />
    <glyph glyph-name="e.sinf" horiz-adv-x="353" 
d="M259 -69l63 -43c-35 -50 -78 -73 -142 -73c-92 0 -160 64 -160 158s70 166 161 166c82 0 153 -61 153 -145c0 -13 -2 -26 -5 -40h-208c5 -40 27 -65 66 -65c30 0 56 18 72 42zM124 14h108c-3 30 -23 52 -52 52c-32 0 -49 -23 -56 -52z" />
    <glyph glyph-name="f.sinf" horiz-adv-x="223" 
d="M16 131h32v35c0 74 36 114 112 114c31 0 60 -8 87 -21l-28 -68c-13 9 -29 12 -40 12c-27 0 -31 -15 -31 -41v-31h74v-73h-74v-236h-100v236h-32v73z" />
    <glyph glyph-name="g.sinf" horiz-adv-x="385" 
d="M349 131v-301c0 -104 -74 -148 -160 -148c-53 0 -104 15 -149 43l34 74c36 -27 67 -40 108 -40c40 0 67 24 67 67v31c-23 -24 -55 -35 -87 -35c-88 0 -143 75 -143 159c0 81 55 158 141 158c36 0 70 -14 94 -40l6 32h89zM249 -65v98c-18 18 -40 26 -61 26
c-40 0 -67 -33 -67 -79c0 -47 28 -78 65 -78c21 0 46 9 63 33z" />
    <glyph glyph-name="h.sinf" horiz-adv-x="378" 
d="M139 271v-176c24 26 55 44 90 44c85 0 112 -62 112 -145v-172h-100v163c0 33 -2 74 -41 74c-19 0 -41 -11 -61 -36v-201h-100v449h100z" />
    <glyph glyph-name="i.sinf" horiz-adv-x="178" 
d="M139 -178h-100v309h100v-309zM139 175h-100v75h100v-75z" />
    <glyph glyph-name="j.sinf" horiz-adv-x="185" 
d="M-41 -304l24 72c11 -7 22 -10 33 -10c25 0 30 18 30 40v333h100v-337c0 -77 -36 -112 -115 -112c-26 0 -49 5 -72 14zM146 175h-100v75h100v-75z" />
    <glyph glyph-name="k.sinf" horiz-adv-x="341" 
d="M139 271v-246h1l83 106h111l-110 -129l118 -180h-120l-64 104l-19 -23v-81h-100v449h100z" />
    <glyph glyph-name="l.sinf" horiz-adv-x="178" 
d="M139 271v-449h-100v449h100z" />
    <glyph glyph-name="m.sinf" horiz-adv-x="555" 
d="M139 -178h-100v309h88l4 -37c28 31 57 45 87 45c43 0 72 -17 90 -46c34 35 66 46 100 46c84 0 111 -63 111 -145v-172h-100v163c0 33 -2 74 -40 74c-17 0 -35 -8 -53 -27c2 -12 3 -25 3 -38v-172h-100v163c0 33 -1 74 -40 74c-16 0 -34 -9 -50 -25v-212z" />
    <glyph glyph-name="n.sinf" horiz-adv-x="378" 
d="M139 -178h-100v309h88l5 -44c31 36 60 52 96 52c85 0 113 -59 113 -145v-172h-100v164c0 33 -2 73 -41 73c-20 0 -41 -11 -61 -36v-201z" />
    <glyph glyph-name="o.sinf" horiz-adv-x="372" 
d="M186 139c99 0 167 -71 167 -162c0 -92 -68 -162 -167 -162s-167 70 -167 162c0 91 68 162 167 162zM251 -23c0 47 -25 84 -65 84c-39 0 -65 -37 -65 -84c0 -48 26 -84 65 -84c40 0 65 36 65 84z" />
    <glyph glyph-name="p.sinf" horiz-adv-x="387" 
d="M39 131h88l5 -36c22 30 57 44 93 44c87 0 143 -77 143 -162c0 -83 -56 -162 -141 -162c-33 0 -64 11 -88 33v-169h-100v452zM139 25v-104c17 -19 39 -26 60 -26c40 0 67 35 67 83c0 47 -28 81 -65 81c-22 0 -46 -10 -62 -34z" />
    <glyph glyph-name="q.sinf" horiz-adv-x="387" 
d="M349 131v-452h-100v175c-26 -28 -61 -39 -92 -39c-87 0 -137 77 -137 161c0 82 51 163 143 163c32 0 66 -12 93 -37l5 29h88zM249 32c-18 19 -41 27 -61 27c-45 0 -66 -43 -66 -83c0 -41 22 -81 65 -81c22 0 46 9 62 33v104z" />
    <glyph glyph-name="r.sinf" horiz-adv-x="240" 
d="M139 -178h-100v309h88l4 -38c20 31 46 46 73 46c20 0 34 -5 47 -11l-22 -78c-11 7 -22 8 -33 8c-20 0 -41 -11 -57 -35v-201z" />
    <glyph glyph-name="s.sinf" horiz-adv-x="292" 
d="M266 96l-49 -57c-16 16 -39 27 -61 27c-13 0 -24 -8 -24 -22c0 -17 27 -26 57 -39c37 -16 78 -39 78 -88c0 -72 -62 -102 -124 -102c-50 0 -93 18 -130 54l53 58c29 -29 51 -39 74 -39c16 0 28 8 28 21c0 19 -28 29 -58 43c-36 16 -74 37 -74 87c0 66 58 100 116 100
c43 0 83 -14 114 -43z" />
    <glyph glyph-name="t.sinf" horiz-adv-x="237" 
d="M202 -97l28 -67c-26 -14 -55 -21 -80 -21c-64 0 -105 36 -105 118v125h-35v73h40l14 70h81v-70h76v-73h-76v-115c0 -25 0 -50 23 -50c10 0 21 3 34 10z" />
    <glyph glyph-name="u.sinf" horiz-adv-x="378" 
d="M239 131h100v-309h-88l-5 44c-31 -36 -60 -52 -96 -52c-85 0 -113 59 -113 145v172h100v-164c0 -33 2 -73 41 -73c20 0 41 11 61 36v201z" />
    <glyph glyph-name="v.sinf" horiz-adv-x="330" 
d="M163 -41h2l52 172h110l-126 -309h-83l-115 309h109z" />
    <glyph glyph-name="w.sinf" horiz-adv-x="467" 
d="M233 -23h-1l-39 -155h-106l-84 309h106l38 -169h2l42 169h87l41 -169h2l40 169h103l-88 -309h-104z" />
    <glyph glyph-name="x.sinf" horiz-adv-x="368" 
d="M13 131h123l53 -80l55 80h121l-120 -155l115 -154h-123l-55 83l-58 -83h-121l123 157z" />
    <glyph glyph-name="y.sinf" horiz-adv-x="326" 
d="M162 -37h2l53 168h107l-174 -450l-89 33l49 130l-107 287h107z" />
    <glyph glyph-name="z.sinf" horiz-adv-x="294" 
d="M29 -136l112 194h-118v73h246v-40l-116 -196h125v-73h-249v42z" />
    <glyph glyph-name="zero.num" horiz-adv-x="339" 
d="M170 626c-29 0 -47 -32 -47 -106c0 -75 18 -107 47 -107c28 0 46 32 46 107c0 74 -18 106 -46 106zM315 520c0 -116 -53 -189 -145 -189c-94 0 -146 73 -146 189c0 115 52 188 146 188c92 0 145 -73 145 -188z" />
    <glyph glyph-name="one.num" horiz-adv-x="256" 
d="M199 338h-98v258c-18 -10 -41 -20 -57 -26v89c24 12 54 27 80 41h75v-362z" />
    <glyph glyph-name="two.num" horiz-adv-x="321" 
d="M36 406c49 43 89 81 127 127c15 19 29 43 29 66c0 20 -14 32 -34 32c-21 0 -35 -17 -35 -44l-93 15c3 69 60 106 130 106c66 0 130 -39 130 -104c0 -36 -15 -69 -38 -98c-26 -32 -58 -62 -88 -87h136v-80h-264v67z" />
    <glyph glyph-name="three.num" horiz-adv-x="326" 
d="M108 487l-1 71h8c12 0 24 1 31 3c20 5 31 17 31 36s-13 34 -39 34c-22 0 -35 -11 -39 -33l-77 36c18 48 67 74 119 74c69 0 132 -36 132 -97c0 -30 -19 -63 -48 -78c39 -14 65 -51 65 -91c0 -73 -69 -111 -138 -111c-58 0 -112 26 -136 79l77 35c9 -23 26 -37 55 -37
c22 0 45 12 45 39c0 30 -26 43 -61 43c-4 0 -16 -1 -24 -3z" />
    <glyph glyph-name="four.num" horiz-adv-x="331" 
d="M21 499c50 64 102 134 151 201h101v-204h46v-78h-46v-79h-96v79h-156v81zM177 496v91c-19 -29 -45 -67 -63 -91h63z" />
    <glyph glyph-name="five.num" horiz-adv-x="315" 
d="M268 620h-133c-1 -20 -3 -41 -5 -60c15 9 33 12 48 12c65 0 107 -55 107 -113c0 -73 -59 -128 -133 -128c-58 0 -108 23 -134 74l77 37c11 -27 32 -34 49 -34c28 0 44 20 44 45s-17 43 -45 43c-15 0 -28 -5 -39 -20l-64 38c5 55 10 138 12 186h216v-80z" />
    <glyph glyph-name="six.num" horiz-adv-x="336" 
d="M226 725l31 -75c-58 -19 -99 -48 -119 -93c15 10 34 16 54 16c70 0 120 -49 120 -117c0 -76 -58 -125 -133 -125c-92 0 -155 61 -155 151c0 128 89 207 202 243zM122 476c0 -36 11 -68 50 -68c29 0 42 22 42 46c0 30 -19 47 -45 47c-18 0 -37 -9 -47 -25z" />
    <glyph glyph-name="seven.num" horiz-adv-x="284" 
d="M272 644c-49 -93 -106 -222 -150 -326l-90 39c43 101 94 199 128 263h-154v80h266v-56z" />
    <glyph glyph-name="eight.num" horiz-adv-x="351" 
d="M315 441c0 -70 -69 -110 -140 -110s-139 40 -139 110c0 37 17 68 55 87c-29 20 -44 47 -44 77c0 56 50 103 128 103s129 -47 129 -103c0 -30 -15 -57 -45 -77c39 -19 56 -50 56 -87zM140 601c0 -20 15 -35 35 -35s36 15 36 35c0 19 -16 34 -36 34s-35 -15 -35 -34z
M134 444c0 -22 18 -40 41 -40c24 0 42 18 42 40c0 23 -18 41 -42 41c-23 0 -41 -18 -41 -41z" />
    <glyph glyph-name="nine.num" horiz-adv-x="336" 
d="M110 314l-31 75c58 19 99 48 119 93c-15 -10 -34 -16 -54 -16c-70 0 -120 49 -120 117c0 76 58 125 133 125c92 0 155 -61 155 -151c0 -128 -89 -207 -202 -243zM214 563c0 36 -11 68 -50 68c-29 0 -42 -22 -42 -46c0 -30 19 -47 45 -47c18 0 37 9 47 25z" />
    <glyph glyph-name="parenleft.ordn" horiz-adv-x="260" 
d="M259 334l-42 -69c-110 67 -195 166 -195 323s85 256 194 322l44 -69c-72 -45 -134 -124 -134 -253s61 -208 133 -254z" />
    <glyph glyph-name="parenright.ordn" horiz-adv-x="260" 
d="M43 265l-43 69c72 46 134 125 134 254s-62 208 -134 253l43 69c109 -66 195 -165 195 -322s-86 -256 -195 -323z" />
    <glyph glyph-name="hyphen.ordn" horiz-adv-x="308" 
d="M245 535h-182v81h182v-81z" />
    <glyph glyph-name="comma.ordn" horiz-adv-x="181" 
d="M149 488l-49 -185h-93l37 185h105z" />
    <glyph glyph-name="period.ordn" horiz-adv-x="173" 
d="M140 385h-107v103h107v-103z" />
    <glyph glyph-name="minus.ordn" horiz-adv-x="381" 
d="M28 637h324v-86h-324v86z" />
    <glyph glyph-name="plus.ordn" horiz-adv-x="377" 
d="M145 428v123h-123v86h123v123h87v-123h123v-86h-123v-123h-87z" />
    <glyph glyph-name="equal.ordn" horiz-adv-x="381" 
d="M28 703h324v-82h-324v82zM28 567h324v-82h-324v82z" />
    <glyph glyph-name="a.ordn" horiz-adv-x="389" 
d="M46 697c43 21 96 37 147 37c88 0 150 -45 150 -146v-202h-90l-6 27c-24 -26 -58 -35 -94 -35c-60 0 -122 36 -122 106c0 85 77 112 151 112c18 0 37 -2 58 -5v4c-2 40 -27 59 -68 59c-34 0 -74 -15 -100 -32zM240 532c-14 3 -26 4 -36 4c-33 0 -67 -12 -67 -47
c0 -28 22 -39 47 -39c21 0 41 8 56 21v61z" />
    <glyph glyph-name="b.ordn" horiz-adv-x="434" 
d="M49 886h104v-199c28 32 68 47 104 47c97 0 153 -84 153 -177c0 -90 -57 -179 -159 -179c-36 0 -75 14 -106 42l-3 -34h-93v500zM153 612v-121c21 -22 46 -32 72 -32c53 0 79 49 79 97c0 49 -27 97 -78 97c-26 0 -55 -12 -73 -41z" />
    <glyph glyph-name="c.ordn" horiz-adv-x="342" 
d="M328 687l-53 -65c-18 20 -40 31 -64 31c-53 0 -82 -48 -82 -98c0 -53 31 -96 81 -96c24 0 44 11 63 28l56 -63c-34 -32 -77 -46 -124 -46c-103 0 -182 67 -182 178c0 104 80 178 183 178c46 0 91 -16 122 -47z" />
    <glyph glyph-name="d.ordn" horiz-adv-x="434" 
d="M281 886h104v-500h-93l-5 40c-27 -33 -66 -48 -109 -48c-94 0 -155 81 -155 177c0 92 60 179 157 179c36 0 73 -15 101 -41v193zM281 499v121c-21 23 -48 33 -72 33c-53 0 -80 -49 -80 -97c0 -49 28 -97 78 -97c27 0 55 12 74 40z" />
    <glyph glyph-name="e.ordn" horiz-adv-x="391" 
d="M287 505l69 -47c-39 -54 -86 -80 -156 -80c-102 0 -177 70 -177 175c0 102 77 181 178 181c90 0 167 -66 167 -159c0 -14 -2 -29 -5 -44h-230c5 -44 30 -73 74 -73c33 0 62 20 80 47zM137 597h121c-2 34 -25 59 -59 59c-36 0 -55 -26 -62 -59z" />
    <glyph glyph-name="f.ordn" horiz-adv-x="245" 
d="M20 726h38v43c0 82 36 125 120 125c34 0 65 -8 95 -23l-30 -71c-14 8 -30 13 -46 13c-29 0 -35 -17 -35 -46v-41h83v-76h-83v-264h-104v264h-38v76z" />
    <glyph glyph-name="g.ordn" horiz-adv-x="430" 
d="M293 726h92v-328c0 -115 -82 -163 -175 -163c-58 0 -114 17 -164 47l37 77c39 -29 73 -43 119 -43c48 0 79 27 79 75v36c-27 -28 -64 -41 -103 -41c-94 0 -155 80 -155 173c0 89 60 175 157 175c39 0 78 -17 105 -46zM281 507v113c-21 23 -48 33 -72 33
c-53 0 -80 -48 -80 -93c0 -46 28 -93 78 -93c27 0 55 11 74 40z" />
    <glyph glyph-name="h.ordn" horiz-adv-x="426" 
d="M49 886h104v-206c27 31 63 54 104 54c95 0 123 -68 123 -159v-189h-104v185c0 36 -2 82 -46 82c-24 0 -52 -14 -77 -46v-221h-104v500z" />
    <glyph glyph-name="i.ordn" horiz-adv-x="202" 
d="M49 726h104v-340h-104v340zM49 858h104v-82h-104v82z" />
    <glyph glyph-name="j.ordn" horiz-adv-x="201" 
d="M48 726h104v-369c0 -83 -39 -122 -125 -122c-29 0 -54 5 -80 15l27 76c12 -7 24 -10 36 -10c33 0 38 19 38 45v365zM48 858h104v-82h-104v82z" />
    <glyph glyph-name="k.ordn" horiz-adv-x="375" 
d="M49 886h104v-283l98 123h120l-122 -143l128 -197h-126l-71 118l-27 -33v-85h-104v500z" />
    <glyph glyph-name="l.ordn" horiz-adv-x="202" 
d="M49 886h104v-500h-104v500z" />
    <glyph glyph-name="m.ordn" horiz-adv-x="633" 
d="M49 726h93l5 -50c33 37 71 58 110 58c49 0 80 -23 97 -63c34 42 73 63 111 63c95 0 122 -68 122 -159v-189h-104v185c0 36 -2 82 -45 82c-21 0 -47 -16 -70 -43c2 -11 2 -24 2 -35v-189h-104v185c0 35 -2 82 -42 82c-26 0 -49 -18 -71 -44v-223h-104v340z" />
    <glyph glyph-name="n.ordn" horiz-adv-x="426" 
d="M49 726h93l5 -52c36 41 71 60 110 60c95 0 123 -68 123 -159v-189h-104v185c0 36 -2 82 -46 82c-24 0 -52 -14 -77 -46v-221h-104v340z" />
    <glyph glyph-name="o.ordn" horiz-adv-x="413" 
d="M206 734c108 0 183 -78 183 -178s-75 -178 -183 -178s-183 78 -183 178s75 178 183 178zM206 653c-47 0 -77 -41 -77 -97s30 -97 77 -97s77 41 77 97s-30 97 -77 97z" />
    <glyph glyph-name="p.ordn" horiz-adv-x="434" 
d="M49 726h93l4 -41c28 33 67 49 109 49c95 0 155 -81 155 -177c0 -92 -59 -179 -157 -179c-36 0 -73 15 -100 40v-198h-104v506zM153 612v-121c21 -22 46 -32 72 -32c53 0 79 49 79 97c0 49 -27 97 -78 97c-26 0 -55 -12 -73 -41z" />
    <glyph glyph-name="q.ordn" horiz-adv-x="434" 
d="M292 726h93v-506h-104v205c-30 -33 -68 -47 -105 -47c-96 0 -153 84 -153 177c0 90 57 179 160 179c36 0 74 -14 105 -43zM281 499v121c-21 23 -48 33 -72 33c-53 0 -80 -49 -80 -97c0 -49 28 -97 78 -97c27 0 55 12 74 40z" />
    <glyph glyph-name="r.ordn" horiz-adv-x="270" 
d="M49 726h93l5 -53c23 37 54 61 86 61c20 0 35 -6 48 -12l-25 -79c-10 5 -21 9 -33 9c-32 0 -51 -19 -70 -49v-217h-104v340z" />
    <glyph glyph-name="s.ordn" horiz-adv-x="325" 
d="M17 436l51 61c25 -26 55 -45 91 -45c18 0 36 7 36 27c0 21 -34 32 -70 49c-39 18 -82 43 -82 100c0 72 64 106 127 106c46 0 89 -13 122 -45l-48 -60c-20 15 -45 31 -73 31c-16 0 -33 -7 -33 -24c0 -20 34 -29 69 -44c41 -18 84 -43 84 -100c0 -78 -67 -114 -134 -114
c-54 0 -102 20 -140 58z" />
    <glyph glyph-name="t.ordn" horiz-adv-x="253" 
d="M10 726h42l15 78h83v-78h84v-76h-84v-131c0 -28 1 -56 26 -56c11 0 23 2 37 11l31 -74c-29 -15 -59 -22 -86 -22c-72 0 -112 41 -112 130v142h-36v76z" />
    <glyph glyph-name="u.ordn" horiz-adv-x="426" 
d="M46 726h104v-185c0 -36 2 -82 46 -82c24 0 52 14 77 46v221h104v-340h-93l-5 52c-36 -41 -71 -60 -110 -60c-95 0 -123 68 -123 159v189z" />
    <glyph glyph-name="v.ordn" horiz-adv-x="386" 
d="M4 726h116l73 -234h1l73 234h115l-136 -340h-114z" />
    <glyph glyph-name="w.ordn" horiz-adv-x="529" 
d="M4 726h113l43 -207h1l46 207h115l44 -207h2l44 207h113l-104 -340h-109l-47 194h-1l-47 -194h-118z" />
    <glyph glyph-name="x.ordn" horiz-adv-x="404" 
d="M12 726h131l65 -101l63 101h130l-124 -166l124 -174h-131l-68 107l-68 -107h-130l128 171z" />
    <glyph glyph-name="y.ordn" horiz-adv-x="383" 
d="M3 726h116l72 -231h2l73 231h113l-196 -513l-95 36l47 127z" />
    <glyph glyph-name="z.ordn" horiz-adv-x="329" 
d="M28 726h269v-43l-129 -221h140v-76h-273v46l126 218h-133v76z" />
    <glyph glyph-name="zero.denom" horiz-adv-x="339" 
d="M170 287c-29 0 -47 -32 -47 -106c0 -75 18 -107 47 -107c28 0 46 32 46 107c0 74 -18 106 -46 106zM315 181c0 -116 -53 -189 -145 -189c-94 0 -146 73 -146 189c0 115 52 188 146 188c92 0 145 -73 145 -188z" />
    <glyph glyph-name="one.denom" horiz-adv-x="256" 
d="M199 0h-98v258c-18 -10 -41 -20 -57 -26v89c24 12 54 27 80 41h75v-362z" />
    <glyph glyph-name="two.denom" horiz-adv-x="321" 
d="M36 67c49 43 89 81 127 127c15 19 29 43 29 66c0 20 -14 32 -34 32c-21 0 -35 -17 -35 -44l-93 15c3 69 60 106 130 106c66 0 130 -39 130 -104c0 -36 -15 -69 -38 -98c-26 -32 -58 -62 -88 -87h136v-80h-264v67z" />
    <glyph glyph-name="three.denom" horiz-adv-x="326" 
d="M108 148l-1 71h8c12 0 24 1 31 3c20 5 31 17 31 36s-13 34 -39 34c-22 0 -35 -11 -39 -33l-77 36c18 48 67 74 119 74c69 0 132 -36 132 -97c0 -30 -19 -63 -48 -78c39 -14 65 -51 65 -91c0 -73 -69 -111 -138 -111c-58 0 -112 26 -136 79l77 35c9 -23 26 -37 55 -37
c22 0 45 12 45 39c0 30 -26 43 -61 43c-4 0 -16 -1 -24 -3z" />
    <glyph glyph-name="four.denom" horiz-adv-x="331" 
d="M21 160c50 64 102 134 151 201h101v-204h46v-78h-46v-79h-96v79h-156v81zM177 157v91c-19 -29 -45 -67 -63 -91h63z" />
    <glyph glyph-name="five.denom" horiz-adv-x="315" 
d="M268 281h-133c-1 -20 -3 -41 -5 -60c15 9 33 12 48 12c65 0 107 -55 107 -113c0 -73 -59 -128 -133 -128c-58 0 -108 23 -134 74l77 37c11 -27 32 -34 49 -34c28 0 44 20 44 45s-17 43 -45 43c-15 0 -28 -5 -39 -20l-64 38c5 55 10 138 12 186h216v-80z" />
    <glyph glyph-name="six.denom" horiz-adv-x="336" 
d="M226 386l31 -75c-58 -19 -99 -48 -119 -93c15 10 34 16 54 16c70 0 120 -49 120 -117c0 -76 -58 -125 -133 -125c-92 0 -155 61 -155 151c0 128 89 207 202 243zM122 137c0 -36 11 -68 50 -68c29 0 42 22 42 46c0 30 -19 47 -45 47c-18 0 -37 -9 -47 -25z" />
    <glyph glyph-name="seven.denom" horiz-adv-x="284" 
d="M272 305c-49 -93 -106 -222 -150 -326l-90 39c43 101 94 199 128 263h-154v80h266v-56z" />
    <glyph glyph-name="eight.denom" horiz-adv-x="351" 
d="M315 102c0 -70 -69 -110 -140 -110s-139 40 -139 110c0 37 17 68 55 87c-29 20 -44 47 -44 77c0 56 50 103 128 103s129 -47 129 -103c0 -30 -15 -57 -45 -77c39 -19 56 -50 56 -87zM140 262c0 -20 15 -35 35 -35s36 15 36 35c0 19 -16 34 -36 34s-35 -15 -35 -34z
M134 105c0 -22 18 -40 41 -40c24 0 42 18 42 40c0 23 -18 41 -42 41c-23 0 -41 -18 -41 -41z" />
    <glyph glyph-name="nine.denom" horiz-adv-x="336" 
d="M110 -25l-31 75c58 19 99 48 119 93c-15 -10 -34 -16 -54 -16c-70 0 -120 49 -120 117c0 76 58 125 133 125c92 0 155 -61 155 -151c0 -128 -89 -207 -202 -243zM214 224c0 36 -11 68 -50 68c-29 0 -42 -22 -42 -46c0 -30 19 -47 45 -47c18 0 37 9 47 25z" />
    <glyph glyph-name="onehalf" unicode="&#xbd;" horiz-adv-x="828" 
d="M94 35l498 683l71 -53l-498 -683zM86 659c24 12 54 27 80 41h75v-362h-98v258c-18 -10 -40 -20 -57 -26v89zM484 68c50 42 90 80 127 126c16 19 29 43 29 66c0 20 -13 32 -34 32s-35 -17 -35 -44l-93 15c4 69 61 106 130 106c67 0 130 -39 130 -104
c0 -36 -15 -68 -38 -98c-26 -32 -58 -62 -87 -87h135v-80h-264v68z" />
    <glyph glyph-name="onethird" unicode="&#x2153;" horiz-adv-x="831" 
d="M592 718l71 -53l-498 -683l-71 53zM241 338h-98v258c-18 -10 -40 -20 -57 -26v89c24 12 54 27 80 41h75v-362zM569 148l-1 71h8c12 0 24 1 31 3c20 5 31 17 31 36s-13 34 -39 34c-22 0 -35 -11 -39 -33l-77 36c18 48 67 74 119 74c69 0 132 -36 132 -97
c0 -30 -19 -63 -48 -78c39 -14 65 -51 65 -91c0 -73 -69 -111 -138 -111c-58 0 -112 26 -136 79l77 35c9 -23 26 -37 55 -37c22 0 45 12 45 39c0 30 -26 43 -61 43c-4 0 -16 -1 -24 -3z" />
    <glyph glyph-name="twothirds" unicode="&#x2154;" horiz-adv-x="931" 
d="M693 718l71 -53l-499 -683l-71 53zM86 406c49 43 89 81 127 127c15 19 29 43 29 66c0 20 -14 32 -34 32c-21 0 -35 -17 -35 -44l-93 15c3 69 60 106 130 106c66 0 130 -39 130 -104c0 -36 -15 -69 -38 -98c-26 -32 -58 -62 -88 -87h136v-80h-264v67zM669 148l-1 71h8
c12 0 24 1 31 3c20 5 31 17 31 36s-13 34 -39 34c-22 0 -35 -11 -39 -33l-77 36c18 48 67 74 119 74c69 0 132 -36 132 -97c0 -30 -19 -63 -48 -78c39 -14 65 -51 65 -91c0 -73 -69 -111 -138 -111c-58 0 -112 26 -136 79l77 35c9 -23 26 -37 55 -37c22 0 45 12 45 39
c0 30 -26 43 -61 43c-4 0 -16 -1 -24 -3z" />
    <glyph glyph-name="onequarter" unicode="&#xbc;" horiz-adv-x="802" 
d="M592 718l71 -53l-498 -683l-71 53zM241 338h-98v258c-18 -10 -40 -20 -57 -26v89c24 12 54 27 80 41h75v-362zM424 160c50 64 102 134 151 201h100v-204h47v-78h-47v-79h-95v79h-156v81zM580 157v91c-19 -29 -46 -67 -64 -91h64z" />
    <glyph glyph-name="threequarters" unicode="&#xbe;" horiz-adv-x="880" 
d="M671 718l71 -53l-499 -683l-71 53zM172 487l-1 71h8c12 0 24 1 31 3c20 5 31 17 31 36s-13 34 -39 34c-22 0 -35 -11 -39 -33l-77 36c18 48 67 74 119 74c69 0 132 -36 132 -97c0 -30 -19 -63 -48 -78c39 -14 65 -51 65 -91c0 -73 -69 -111 -138 -111
c-58 0 -112 26 -136 79l77 35c9 -23 26 -37 55 -37c22 0 45 12 45 39c0 30 -26 43 -61 43c-4 0 -16 -1 -24 -3zM502 160c50 64 102 134 151 201h100v-204h47v-78h-47v-79h-95v79h-156v81zM658 157v91c-19 -29 -46 -67 -64 -91h64z" />
    <glyph glyph-name="onefifth" horiz-adv-x="833" 
d="M592 718l71 -53l-498 -683l-71 53zM735 281h-133c-1 -21 -3 -41 -5 -60c15 9 33 12 48 12c66 0 108 -55 108 -113c0 -74 -60 -128 -134 -128c-58 0 -108 23 -134 74l77 37c11 -27 32 -34 49 -34c28 0 44 20 44 45c0 24 -17 43 -44 43c-15 0 -28 -6 -40 -20l-63 38
c5 55 9 138 11 186h216v-80zM241 338h-98v258c-18 -10 -40 -20 -57 -26v89c24 12 54 27 80 41h75v-362z" />
    <glyph glyph-name="twofifths" horiz-adv-x="933" 
d="M693 718l71 -53l-499 -683l-71 53zM835 281h-133c-1 -21 -2 -41 -4 -60c15 9 32 12 47 12c66 0 108 -55 108 -113c0 -74 -59 -128 -133 -128c-59 0 -108 23 -134 74l77 37c10 -27 31 -34 49 -34c27 0 43 20 43 45c0 24 -17 43 -44 43c-15 0 -28 -6 -40 -20l-63 38
c5 55 9 138 11 186h216v-80zM86 406c49 43 89 81 127 127c15 19 29 43 29 66c0 20 -14 32 -34 32c-21 0 -35 -17 -35 -44l-93 15c3 69 60 106 130 106c66 0 130 -39 130 -104c0 -36 -15 -69 -38 -98c-26 -32 -58 -62 -88 -87h136v-80h-264v67z" />
    <glyph glyph-name="threefifths" horiz-adv-x="911" 
d="M671 718l71 -53l-499 -683l-71 53zM814 281h-133c-1 -21 -3 -41 -5 -60c15 9 33 12 48 12c65 0 107 -55 107 -113c0 -74 -59 -128 -133 -128c-58 0 -108 23 -134 74l77 37c10 -27 31 -34 49 -34c28 0 43 20 43 45c0 24 -16 43 -44 43c-15 0 -28 -6 -40 -20l-63 38
c5 55 10 138 12 186h216v-80zM172 487l-1 71h8c12 0 24 1 31 3c20 5 31 17 31 36s-13 34 -39 34c-22 0 -35 -11 -39 -33l-77 36c18 48 67 74 119 74c69 0 132 -36 132 -97c0 -30 -19 -63 -48 -78c39 -14 65 -51 65 -91c0 -73 -69 -111 -138 -111c-58 0 -112 26 -136 79
l77 35c9 -23 26 -37 55 -37c22 0 45 12 45 39c0 30 -26 43 -61 43c-4 0 -16 -1 -24 -3z" />
    <glyph glyph-name="fourfifths" horiz-adv-x="945" 
d="M705 718l70 -53l-498 -683l-71 53zM847 281h-133c-1 -21 -2 -41 -4 -60c14 9 32 12 47 12c66 0 108 -55 108 -113c0 -74 -59 -128 -133 -128c-59 0 -108 23 -134 74l76 37c11 -27 32 -34 50 -34c27 0 43 20 43 45c0 24 -17 43 -44 43c-15 0 -28 -6 -40 -20l-63 38
c5 55 9 138 11 186h216v-80zM80 499c50 64 102 134 151 201h100v-204h47v-78h-47v-79h-95v79h-156v81zM236 496v91c-19 -29 -46 -67 -64 -91h64z" />
    <glyph glyph-name="onesixth" horiz-adv-x="826" 
d="M592 718l71 -53l-498 -683l-71 53zM241 338h-98v258c-18 -10 -40 -20 -57 -26v89c24 12 54 27 80 41h75v-362zM660 386l30 -75c-57 -19 -98 -48 -119 -93c16 10 35 16 55 16c70 0 120 -49 120 -117c0 -76 -58 -125 -134 -125c-92 0 -154 61 -154 151
c0 128 89 207 202 243zM555 137c0 -36 12 -68 51 -68c28 0 42 22 42 46c0 30 -20 46 -46 46c-17 0 -36 -8 -47 -24z" />
    <glyph glyph-name="fivesixths" horiz-adv-x="894" 
d="M661 718l71 -53l-499 -683l-71 53zM330 620h-133c-1 -20 -3 -41 -5 -60c15 9 33 12 48 12c65 0 107 -55 107 -113c0 -73 -59 -128 -133 -128c-58 0 -108 23 -134 74l77 37c10 -27 32 -34 49 -34c28 0 43 20 43 45s-16 43 -44 43c-15 0 -28 -5 -40 -20l-63 38
c5 55 10 138 12 186h216v-80zM728 386l31 -75c-57 -19 -99 -48 -119 -93c16 10 34 16 55 16c69 0 119 -49 119 -117c0 -76 -58 -125 -133 -125c-92 0 -155 61 -155 151c0 128 89 207 202 243zM624 137c0 -36 11 -68 50 -68c29 0 43 22 43 46c0 30 -20 46 -46 46
c-18 0 -36 -8 -47 -24z" />
    <glyph glyph-name="oneeighth" unicode="&#x215b;" horiz-adv-x="841" 
d="M592 718l71 -53l-498 -683l-71 53zM241 338h-98v258c-18 -10 -40 -20 -57 -26v89c24 12 54 27 80 41h75v-362zM761 103c0 -70 -69 -110 -140 -110s-139 40 -139 110c0 37 17 68 55 87c-29 20 -44 47 -44 77c0 56 50 103 128 103s129 -47 129 -103c0 -30 -15 -57 -45 -77
c39 -19 56 -50 56 -87zM586 263c0 -20 15 -35 35 -35s36 15 36 35c0 19 -16 34 -36 34s-35 -15 -35 -34zM580 106c0 -22 18 -40 41 -40c24 0 42 18 42 40c0 23 -18 41 -42 41c-23 0 -41 -18 -41 -41z" />
    <glyph glyph-name="threeeighths" unicode="&#x215c;" horiz-adv-x="920" 
d="M671 718l71 -53l-499 -683l-71 53zM172 487l-1 71h8c12 0 24 1 31 3c20 5 31 17 31 36s-13 34 -39 34c-22 0 -35 -11 -39 -33l-77 36c18 48 67 74 119 74c69 0 132 -36 132 -97c0 -30 -19 -63 -48 -78c39 -14 65 -51 65 -91c0 -73 -69 -111 -138 -111
c-58 0 -112 26 -136 79l77 35c9 -23 26 -37 55 -37c22 0 45 12 45 39c0 30 -26 43 -61 43c-4 0 -16 -1 -24 -3zM840 103c0 -70 -69 -110 -140 -110s-139 40 -139 110c0 37 17 68 55 87c-29 20 -44 47 -44 77c0 56 50 103 128 103s129 -47 129 -103c0 -30 -15 -57 -45 -77
c39 -19 56 -50 56 -87zM665 263c0 -20 15 -35 35 -35s36 15 36 35c0 19 -16 34 -36 34s-35 -15 -35 -34zM659 106c0 -22 18 -40 41 -40c24 0 42 18 42 40c0 23 -18 41 -42 41c-23 0 -41 -18 -41 -41z" />
    <glyph glyph-name="fiveeighths" unicode="&#x215d;" horiz-adv-x="910" 
d="M661 718l71 -53l-499 -683l-71 53zM330 620h-133c-1 -20 -3 -41 -5 -60c15 9 33 12 48 12c65 0 107 -55 107 -113c0 -73 -59 -128 -133 -128c-58 0 -108 23 -134 74l77 37c10 -27 32 -34 49 -34c28 0 43 20 43 45s-16 43 -44 43c-15 0 -28 -5 -40 -20l-63 38
c5 55 10 138 12 186h216v-80zM830 103c0 -70 -69 -110 -140 -110s-139 40 -139 110c0 37 17 68 55 87c-29 20 -44 47 -44 77c0 56 50 103 128 103s129 -47 129 -103c0 -30 -15 -57 -45 -77c39 -19 56 -50 56 -87zM655 263c0 -20 15 -35 35 -35s36 15 36 35
c0 19 -16 34 -36 34s-35 -15 -35 -34zM649 106c0 -22 18 -40 41 -40c24 0 42 18 42 40c0 23 -18 41 -42 41c-23 0 -41 -18 -41 -41z" />
    <glyph glyph-name="seveneighths" unicode="&#x215e;" horiz-adv-x="846" 
d="M597 718l71 -53l-499 -683l-71 53zM349 644c-49 -93 -106 -222 -150 -326l-90 39c43 101 94 199 128 263h-154v80h266v-56zM766 103c0 -70 -69 -110 -140 -110s-139 40 -139 110c0 37 17 68 55 87c-29 20 -44 47 -44 77c0 56 50 103 128 103s129 -47 129 -103
c0 -30 -15 -57 -45 -77c39 -19 56 -50 56 -87zM591 263c0 -20 15 -35 35 -35s36 15 36 35c0 19 -16 34 -36 34s-35 -15 -35 -34zM585 106c0 -22 18 -40 41 -40c24 0 42 18 42 40c0 23 -18 41 -42 41c-23 0 -41 -18 -41 -41z" />
    <glyph glyph-name="oneseventh" horiz-adv-x="859" 
d="M592 718l71 -53l-498 -683l-71 53zM241 338h-98v258c-18 -10 -40 -20 -57 -26v89c24 12 54 27 80 41h75v-362zM779 305c-49 -93 -106 -222 -150 -326l-89 39c43 100 94 199 128 263h-155v80h266v-56z" />
    <glyph glyph-name="twosevenths" horiz-adv-x="959" 
d="M693 718l71 -53l-499 -683l-71 53zM86 406c49 43 89 81 127 127c15 19 29 43 29 66c0 20 -14 32 -34 32c-21 0 -35 -17 -35 -44l-93 15c3 69 60 106 130 106c66 0 130 -39 130 -104c0 -36 -15 -69 -38 -98c-26 -32 -58 -62 -88 -87h136v-80h-264v67zM879 305
c-48 -93 -105 -222 -149 -326l-90 39c43 100 94 199 128 263h-154v80h265v-56z" />
    <glyph glyph-name="threesevenths" horiz-adv-x="938" 
d="M671 718l71 -53l-499 -683l-71 53zM858 305c-49 -93 -106 -222 -150 -326l-90 39c43 100 94 199 128 263h-154v80h266v-56zM172 487l-1 71h8c12 0 24 1 31 3c20 5 31 17 31 36s-13 34 -39 34c-22 0 -35 -11 -39 -33l-77 36c18 48 67 74 119 74c69 0 132 -36 132 -97
c0 -30 -19 -63 -48 -78c39 -14 65 -51 65 -91c0 -73 -69 -111 -138 -111c-58 0 -112 26 -136 79l77 35c9 -23 26 -37 55 -37c22 0 45 12 45 39c0 30 -26 43 -61 43c-4 0 -16 -1 -24 -3z" />
    <glyph glyph-name="foursevenths" horiz-adv-x="971" 
d="M705 718l70 -53l-498 -683l-71 53zM891 305c-48 -93 -105 -222 -149 -326l-90 39c43 100 94 199 128 263h-154v80h265v-56zM80 499c50 64 102 134 151 201h100v-204h47v-78h-47v-79h-95v79h-156v81zM236 496v91c-19 -29 -46 -67 -64 -91h64z" />
    <glyph glyph-name="fivesevenths" horiz-adv-x="928" 
d="M661 718l71 -53l-499 -683l-71 53zM330 620h-133c-1 -20 -3 -41 -5 -60c15 9 33 12 48 12c65 0 107 -55 107 -113c0 -73 -59 -128 -133 -128c-58 0 -108 23 -134 74l77 37c10 -27 32 -34 49 -34c28 0 43 20 43 45s-16 43 -44 43c-15 0 -28 -5 -40 -20l-63 38
c5 55 10 138 12 186h216v-80zM848 305c-49 -93 -106 -222 -150 -326l-90 39c43 100 94 199 128 263h-154v80h266v-56z" />
    <glyph glyph-name="sixsevenths" horiz-adv-x="947" 
d="M681 718l71 -53l-499 -683l-71 53zM282 725l31 -75c-58 -19 -99 -48 -119 -93c15 10 34 16 54 16c70 0 120 -49 120 -117c0 -76 -58 -125 -133 -125c-92 0 -155 61 -155 151c0 128 89 207 202 243zM178 476c0 -36 11 -68 50 -68c29 0 42 22 42 46c0 30 -19 47 -45 47
c-18 0 -37 -9 -47 -25zM867 305c-48 -93 -105 -222 -149 -326l-90 39c43 100 94 199 128 263h-154v80h265v-56z" />
    <glyph glyph-name="oneninth" horiz-adv-x="858" 
d="M592 718l71 -53l-498 -683l-71 53zM241 338h-98v258c-18 -10 -40 -20 -57 -26v89c24 12 54 27 80 41h75v-362zM576 -25l-30 75c56 18 98 47 118 93c-16 -11 -34 -17 -54 -17c-70 0 -120 50 -120 118c0 75 58 125 133 125c93 0 155 -61 155 -152
c0 -127 -89 -206 -202 -242zM681 223v1c0 36 -12 68 -51 68c-28 0 -42 -23 -42 -46c0 -30 20 -47 46 -47c17 0 36 9 47 24z" />
    <glyph glyph-name="twoninths" horiz-adv-x="939" 
d="M686 718l71 -53l-498 -683l-71 53zM80 406c49 43 89 81 127 127c15 19 28 43 28 66c0 20 -13 32 -33 32c-21 0 -35 -17 -35 -44l-93 15c3 69 60 106 129 106c67 0 131 -39 131 -104c0 -36 -16 -69 -39 -98c-25 -32 -57 -62 -87 -87h135v-80h-263v67zM670 -25l-30 75
c56 18 98 47 118 93c-16 -11 -34 -17 -54 -17c-70 0 -120 50 -120 118c0 75 58 125 133 125c93 0 155 -61 155 -152c0 -127 -89 -206 -202 -242zM775 223v1c0 36 -12 68 -51 68c-28 0 -42 -23 -42 -46c0 -30 20 -47 46 -47c17 0 36 9 47 24z" />
    <glyph glyph-name="fourninths" horiz-adv-x="949" 
d="M696 718l71 -53l-499 -683l-70 53zM680 -25l-31 75c57 18 99 47 119 93c-16 -11 -34 -17 -55 -17c-69 0 -119 50 -119 118c0 75 58 125 133 125c92 0 155 -61 155 -152c0 -127 -89 -206 -202 -242zM785 223v1c0 36 -12 68 -51 68c-28 0 -42 -23 -42 -46
c0 -30 20 -47 45 -47c18 0 36 9 48 24zM71 499c50 64 102 134 151 201h100v-204h47v-78h-47v-79h-95v79h-156v81zM227 496v91c-19 -29 -46 -67 -64 -91h64z" />
    <glyph glyph-name="fiveninths" horiz-adv-x="908" 
d="M654 718l71 -53l-498 -683l-71 53zM639 -25l-31 75c56 18 98 47 118 93c-15 -11 -34 -17 -54 -17c-70 0 -120 50 -120 118c0 75 58 125 134 125c92 0 154 -61 154 -152c0 -127 -89 -206 -201 -242zM743 223v1c0 36 -11 68 -50 68c-29 0 -43 -23 -43 -46
c0 -30 20 -47 46 -47c17 0 36 9 47 24zM324 620h-133c-1 -20 -3 -41 -5 -60c15 9 33 12 48 12c65 0 107 -55 107 -113c0 -73 -59 -128 -133 -128c-58 0 -108 23 -134 74l77 37c10 -27 32 -34 49 -34c28 0 43 20 43 45s-16 43 -44 43c-15 0 -28 -5 -40 -20l-63 38
c5 55 10 138 12 186h216v-80z" />
    <glyph glyph-name="sevenninths" horiz-adv-x="847" 
d="M594 718l71 -53l-499 -683l-71 53zM578 -25l-31 75c57 18 99 47 119 93c-16 -11 -34 -17 -55 -17c-69 0 -119 50 -119 118c0 75 58 125 133 125c92 0 155 -61 155 -152c0 -127 -89 -206 -202 -242zM682 223v1c0 36 -11 68 -50 68c-29 0 -43 -23 -43 -46
c0 -30 20 -47 46 -47c18 0 36 9 47 24zM346 644c-49 -93 -106 -222 -150 -326l-90 39c43 101 94 199 128 263h-154v80h266v-56z" />
    <glyph glyph-name="eightninths" horiz-adv-x="918" 
d="M664 718l71 -53l-498 -683l-71 53zM648 -25l-30 75c56 18 98 47 118 93c-15 -11 -34 -17 -54 -17c-70 0 -120 50 -120 118c0 75 58 125 134 125c92 0 154 -61 154 -152c0 -127 -89 -206 -202 -242zM753 223v1c0 36 -11 68 -51 68c-28 0 -42 -23 -42 -46
c0 -30 20 -47 46 -47c17 0 36 9 47 24zM347 441c0 -70 -69 -110 -140 -110s-139 40 -139 110c0 37 17 68 55 87c-29 20 -44 47 -44 77c0 56 50 103 128 103s129 -47 129 -103c0 -30 -15 -57 -45 -77c39 -19 56 -50 56 -87zM172 601c0 -20 15 -35 35 -35s36 15 36 35
c0 19 -16 34 -36 34s-35 -15 -35 -34zM166 444c0 -22 18 -40 41 -40c24 0 42 18 42 40c0 23 -18 41 -42 41c-23 0 -41 -18 -41 -41z" />
    <glyph glyph-name="partialdiff" unicode="&#x2202;" 
d="M25 682l46 113c246 -104 484 -268 484 -531c0 -161 -117 -276 -284 -276c-154 0 -274 129 -274 279c0 139 114 259 258 259c12 0 24 -2 34 -4c-71 70 -165 118 -264 160zM387 387c-28 14 -58 21 -87 21c-92 0 -163 -51 -163 -140c0 -81 55 -161 141 -161
c85 0 136 70 136 150c0 47 -10 91 -27 130z" />
    <glyph glyph-name="Omega" unicode="&#x2126;" horiz-adv-x="794" 
d="M15 111h172c-93 69 -142 171 -142 275c0 201 162 326 352 326s352 -125 352 -326c0 -104 -49 -206 -142 -275h172v-111h-341v122c102 39 162 148 162 255c0 128 -88 209 -203 209s-203 -81 -203 -209c0 -107 60 -216 162 -255v-122h-341v111z" />
    <glyph glyph-name="Delta" unicode="&#x2206;" horiz-adv-x="633" 
d="M645 0h-657l271 700h118zM440 121l-125 346h-2l-126 -346h253z" />
    <glyph glyph-name="product" unicode="&#x220f;" 
d="M555 461h-87v-461h-140v461h-106v-461h-139v461h-88v116h560v-116z" />
    <glyph glyph-name="summation" unicode="&#x2211;" 
d="M419 365l-190 -244h315v-121h-537v73l235 288l-225 265v74h503v-121h-283z" />
    <glyph glyph-name="uni0394" unicode="&#x394;" 
d="M560 0h-571l224 577h126zM364 117l-92 249h-2l-90 -249h184z" />
    <glyph glyph-name="uni03A9" unicode="&#x3a9;" horiz-adv-x="794" 
d="M15 111h172c-93 69 -142 171 -142 275c0 201 162 326 352 326s352 -125 352 -326c0 -104 -49 -206 -142 -275h172v-111h-341v122c102 39 162 148 162 255c0 128 -88 209 -203 209s-203 -81 -203 -209c0 -107 60 -216 162 -255v-122h-341v111z" />
    <glyph glyph-name="uni03BC" unicode="&#x3bc;" 
d="M33 526h142v-269c0 -67 2 -147 86 -147c42 0 87 24 114 66v350h142v-526h-123l-11 72c-43 -59 -106 -84 -163 -84c-17 0 -32 3 -45 7v-245h-142v776z" />
    <glyph glyph-name="pi" unicode="&#x3c0;" 
d="M16 526h532v-115h-89v-225c0 -11 0 -22 1 -31c1 -36 16 -54 53 -61l-53 -114c-86 21 -130 81 -138 160c-1 10 -1 25 -1 37v234h-109v-333c0 -20 -2 -49 -7 -78h-142c10 38 10 63 10 83v328h-57v115z" />
    <glyph glyph-name="mu" unicode="&#xb5;" 
d="M33 526h142v-269c0 -67 2 -147 86 -147c42 0 87 24 114 66v350h142v-526h-123l-11 72c-43 -59 -106 -84 -163 -84c-17 0 -32 3 -45 7v-245h-142v776z" />
    <glyph glyph-name="uni2215" unicode="&#x2215;" horiz-adv-x="405" 
d="M405 723l-290 -783l-115 46l290 782z" />
    <glyph glyph-name="uni2219" unicode="&#x2219;" 
d="M351 239h-153v149h153v-149z" />
    <glyph glyph-name="asciicircum" unicode="^" 
d="M485 330h-130l-80 189l-80 -189h-130l150 366h120z" />
    <glyph glyph-name="underscore" unicode="_" 
d="M550 -221h-550v99h550v-99z" />
    <glyph glyph-name="asciitilde" unicode="~" 
d="M129 266l-109 -5c-1 5 -2 12 -2 19c0 89 58 151 148 151c113 0 154 -89 218 -89c23 0 39 17 39 42c0 4 0 8 -1 12l108 5c1 -5 2 -12 2 -19c0 -89 -58 -151 -148 -151c-113 0 -154 89 -218 89c-23 0 -38 -17 -38 -42c0 -4 0 -8 1 -12z" />
    <glyph glyph-name="radical" unicode="&#x221a;" 
d="M569 750l-242 -750h-131l-120 410h-80v116h197l74 -295h2l153 519h147z" />
    <glyph glyph-name="infinity" unicode="&#x221e;" horiz-adv-x="778" 
d="M395 324c59 64 111 108 177 108c98 0 173 -80 173 -180s-76 -179 -173 -179c-66 0 -130 44 -189 108c-59 -64 -111 -108 -177 -108c-98 0 -173 80 -173 181c0 99 76 178 173 178c66 0 129 -44 189 -108zM471 253c34 -35 63 -63 87 -63c31 0 51 31 51 63s-20 63 -51 63
c-23 0 -53 -28 -87 -63zM307 254c-34 35 -63 62 -87 62c-31 0 -51 -30 -51 -62s20 -64 51 -64c23 0 53 28 87 64z" />
    <glyph glyph-name="integral" unicode="&#x222b;" 
d="M38 -190l37 110c22 -14 40 -22 63 -22c16 0 24 4 32 14c10 14 13 37 14 73l23 584c3 68 19 119 51 151c28 28 67 42 120 42c45 0 94 -13 133 -31l-37 -110c-22 14 -44 21 -68 21c-20 0 -33 -3 -42 -13c-12 -13 -15 -36 -17 -73l-25 -584c-3 -70 -20 -122 -54 -155
c-27 -26 -64 -38 -114 -38c-37 0 -77 13 -116 31z" />
    <glyph glyph-name="approxequal" unicode="&#x2248;" 
d="M110 131l-81 63c26 63 82 106 153 106c74 0 128 -54 183 -54c28 0 53 11 75 49l81 -63c-26 -63 -81 -106 -153 -106c-73 0 -128 54 -183 54c-27 0 -53 -11 -75 -49zM29 394c27 63 81 106 153 106c74 0 128 -54 183 -54c28 0 53 11 75 48l81 -62
c-26 -63 -81 -106 -153 -106c-73 0 -128 54 -183 54c-27 0 -53 -12 -75 -49z" />
    <glyph glyph-name="notequal" unicode="&#x2260;" 
d="M32 464h277l90 134l85 -59l-51 -75h84v-113h-160l-54 -80h214v-113h-291l-88 -130l-85 58l48 72h-69v113h145l55 80h-200v113z" />
    <glyph glyph-name="lessequal" unicode="&#x2264;" 
d="M12 447l525 209v-118l-351 -140l351 -140v-119l-525 210v98zM12 113h525v-113h-525v113z" />
    <glyph glyph-name="greaterequal" unicode="&#x2265;" 
d="M12 656l525 -209v-98l-525 -210v119l351 140l-351 140v118zM12 113h525v-113h-525v113z" />
    <glyph glyph-name="less" unicode="&#x3c;" 
d="M12 362l525 210v-119l-351 -140l351 -140v-118l-525 209v98z" />
    <glyph glyph-name="equal" unicode="=" 
d="M32 472h485v-121h-485v121zM32 271h485v-120h-485v120z" />
    <glyph glyph-name="greater" unicode="&#x3e;" 
d="M12 572l526 -210v-98l-526 -209v118l351 140l-351 140v119z" />
    <glyph glyph-name="lozenge" unicode="&#x25ca;" 
d="M21 350l196 350h116l196 -350l-196 -350h-116zM160 350l114 -208l116 208l-116 208z" />
    <glyph glyph-name="plus" unicode="+" 
d="M24 371h190v190h120v-190h191v-120h-191v-191h-120v191h-190v120z" />
    <glyph glyph-name="minus" unicode="&#x2212;" 
d="M32 371h485v-120h-485v120z" />
    <glyph glyph-name="plusminus" unicode="&#xb1;" 
d="M18 488h196v196h120v-196h197v-120h-197v-197h-120v197h-196v120zM18 120h513v-120h-513v120z" />
    <glyph glyph-name="divide" unicode="&#xf7;" 
d="M24 257v113h501v-113h-501zM350 38h-153v149h153v-149zM350 440h-153v149h153v-149z" />
    <glyph glyph-name="multiply" unicode="&#xd7;" 
d="M495 177l-85 -85l-136 134l-134 -134l-85 85l135 134l-135 135l86 85l133 -134l135 134l85 -85l-134 -134z" />
    <glyph glyph-name="commaaccent" horiz-adv-x="360" 
d="M186 -249h-108l36 191h127z" />
    <glyph glyph-name="revcommaaccent" horiz-adv-x="360" 
d="M157 771h109l-37 -192h-128z" />
    <glyph glyph-name="tilde.cap" horiz-adv-x="360" 
d="M278 878l82 9c4 -13 6 -27 6 -39c0 -62 -46 -103 -115 -103c-65 0 -114 51 -146 51c-13 0 -24 -8 -25 -23c0 -2 0 -5 1 -7l-81 -9c-4 13 -7 26 -7 39c0 61 46 103 116 103c64 0 115 -51 145 -51c13 0 25 8 25 23c0 2 0 5 -1 7z" />
    <glyph glyph-name="ring.cap" horiz-adv-x="360" 
d="M180 943c63 0 113 -50 113 -113s-50 -113 -113 -113s-113 50 -113 113s50 113 113 113zM180 876c-26 0 -46 -20 -46 -46s20 -46 46 -46s46 20 46 46s-20 46 -46 46z" />
    <glyph glyph-name="circumflex.cap" horiz-adv-x="360" 
d="M103 943h156l113 -149l-82 -60l-111 126l-112 -126l-81 60z" />
    <glyph glyph-name="acute.cap" horiz-adv-x="360" 
d="M341 861l-182 -128l-64 81l172 144z" />
    <glyph glyph-name="grave.cap" horiz-adv-x="360" 
d="M193 733l-182 128l74 97l172 -144z" />
    <glyph glyph-name="dieresis.cap" horiz-adv-x="360" 
d="M116 762h-149v120h149v-120zM393 762h-149v120h149v-120z" />
    <glyph glyph-name="caron.cap" horiz-adv-x="360" 
d="M255 746h-156l-113 149l83 60l111 -126l112 126l80 -60z" />
    <glyph glyph-name="macron.cap" horiz-adv-x="360" 
d="M362 772h-364v95h364v-95z" />
    <glyph glyph-name="dotaccent.cap" horiz-adv-x="360" 
d="M253 762h-146v120h146v-120z" />
    <glyph glyph-name="cedilla.cap" horiz-adv-x="360" 
d="M202 9l-28 -70h1c14 10 30 15 47 15c50 0 93 -42 93 -101c0 -56 -49 -110 -114 -110c-52 0 -89 23 -116 70l69 33c7 -19 20 -32 40 -32c22 0 37 16 37 37c0 20 -15 40 -36 40c-15 0 -28 -5 -38 -20l-73 38l50 112z" />
    <glyph glyph-name="hungarumlaut.cap" horiz-adv-x="360" 
d="M457 858l-178 -125l-64 81l168 141zM213 861l-182 -128l-62 77l172 144z" />
    <glyph glyph-name="apostrophe" unicode="&#x2bc;" horiz-adv-x="360" 
d="M140 750h145l-67 -244h-119z" />
    <glyph glyph-name="commaaccent.cap" horiz-adv-x="360" 
d="M186 -249h-108l36 191h127z" />
    <glyph glyph-name="breve.cap" horiz-adv-x="360" 
d="M15 909h104c-1 -5 -1 -9 -1 -13c0 -36 25 -62 62 -62s65 26 65 62c0 4 0 8 -1 13h101v-12c0 -91 -73 -156 -165 -156s-165 65 -165 156v12z" />
    <glyph glyph-name="caron.alt" horiz-adv-x="360" 
d="M186 533h-119l44 217h132z" />
    <glyph glyph-name="ogonek.cap" horiz-adv-x="360" 
d="M166 9l117 -2v-7c-65 -15 -112 -45 -112 -92c0 -23 14 -40 49 -40c15 0 32 5 48 13l32 -78c-26 -17 -66 -30 -111 -30c-75 0 -134 44 -134 107c0 53 30 101 111 129z" />
    <glyph glyph-name="square" horiz-adv-x="388" 
d="M60 155v268h268v-268h-268z" />
    <glyph glyph-name="square.open" horiz-adv-x="388" 
d="M60 155v268h268v-268h-268zM138 345v-112h112v112h-112z" />
    <glyph glyph-name="circle" unicode="&#x25cb;" horiz-adv-x="366" 
d="M35 289c0 82 66 148 148 148s148 -66 148 -148s-66 -148 -148 -148s-148 66 -148 148z" />
    <glyph glyph-name="circle.open" horiz-adv-x="366" 
d="M35 289c0 82 66 148 148 148s148 -66 148 -148s-66 -148 -148 -148s-148 66 -148 148zM121 289c0 -34 28 -62 62 -62s62 28 62 62s-28 62 -62 62s-62 -28 -62 -62z" />
    <glyph glyph-name="doublecircle" horiz-adv-x="366" 
d="M39 283c0 79 65 144 144 144s144 -65 144 -144s-65 -144 -144 -144s-144 65 -144 144zM128 283c0 30 25 55 55 55s55 -25 55 -55s-25 -55 -55 -55s-55 25 -55 55zM75 283c0 -59 49 -108 108 -108s108 49 108 108s-49 108 -108 108s-108 -49 -108 -108z" />
    <glyph glyph-name="triangle.left" horiz-adv-x="398" 
d="M338 111l-308 175l308 173v-348z" />
    <glyph glyph-name="triangle" unicode="&#x25b3;" horiz-adv-x="398" 
d="M368 286l-308 -175v348z" />
    <glyph glyph-name="raute" horiz-adv-x="356" 
d="M178 512l148 -236l-148 -236l-148 236z" />
    <glyph glyph-name="triangleWhiteLeft" horiz-adv-x="512" 
d="M452 531v-492l-422 246zM217 285l138 -79v157z" />
    <glyph glyph-name="triangleWhiteRight" horiz-adv-x="542" 
d="M60 39v492l422 -246zM157 206l138 79l-138 78v-157z" />
    <glyph glyph-name="arrow.right" horiz-adv-x="1000" 
d="M981 360l-367 -364l-96 93l207 204h-685v135h685l-207 204l96 93z" />
    <glyph glyph-name="arrow.left" horiz-adv-x="1000" 
d="M407 -4l-367 364l367 365l96 -93l-207 -204h685v-135h-685l207 -204z" />
    <glyph glyph-name="arrow.up" horiz-adv-x="900" 
d="M450 841l364 -367l-93 -96l-204 207v-685h-135v685l-204 -207l-93 96z" />
    <glyph glyph-name="arrow.down" horiz-adv-x="900" 
d="M814 248l-364 -367l-365 367l93 96l204 -207v685h135v-685l204 207z" />
    <glyph glyph-name="arrow.leftup" horiz-adv-x="1000" 
d="M861 76l-96 -96l-484 484l2 -289h-134l-1 518l518 -1v-134l-290 2z" />
    <glyph glyph-name="arrow.rightup" horiz-adv-x="1000" 
d="M235 -20l-96 96l485 484l-290 -2v134l518 1l-1 -518h-134l2 289z" />
    <glyph glyph-name="arrowleft.down" horiz-adv-x="1000" 
d="M765 713l96 -96l-485 -484l290 2v-134l-518 -1l1 518h134l-2 -289z" />
    <glyph glyph-name="arrowright.down" horiz-adv-x="1000" 
d="M139 617l96 96l484 -484l-2 289h134l1 -518l-518 1v134l290 -2z" />
    <glyph glyph-name="arrowright.alt" horiz-adv-x="523" 
d="M443 287l-285 -212l-78 109l156 103l-156 103l78 109z" />
    <glyph glyph-name="arrowleft.alt" horiz-adv-x="523" 
d="M365 75l-285 212l285 212l78 -109l-156 -103l156 -103z" />
    <glyph glyph-name="arrowup.alt" horiz-adv-x="584" 
d="M292 479l212 -285l-109 -78l-103 156l-103 -156l-109 78z" />
    <glyph glyph-name="arrowdown.alt" horiz-adv-x="584" 
d="M292 95l-212 286l109 78l103 -156l103 156l109 -78z" />
    <glyph glyph-name="arrowleftup.alt" horiz-adv-x="512" 
d="M132 74l-52 352l352 -52l-22 -132l-183 37l37 -183z" />
    <glyph glyph-name="arrowrightup.alt" horiz-adv-x="512" 
d="M432 426l-52 -352l-132 22l37 183l-183 -37l-22 132z" />
    <glyph glyph-name="arrowleftdown.alt" horiz-adv-x="512" 
d="M80 74l52 352l132 -22l-37 -183l183 37l22 -132z" />
    <glyph glyph-name="arrowrightdown.alt" horiz-adv-x="512" 
d="M380 426l52 -352l-352 52l22 132l183 -37l-37 183z" />
    <glyph glyph-name="arrowlong.left" horiz-adv-x="1216" 
d="M1146 318v-108h-871l165 -163l-76 -75l-294 292l294 292l76 -75l-165 -163h871z" />
    <glyph glyph-name="arrowlong.right" horiz-adv-x="1216" 
d="M70 210v108h871l-165 163l76 75l294 -292l-294 -292l-76 75l165 163h-871z" />
    <glyph glyph-name="arrowlong.up" horiz-adv-x="724" 
d="M416 -219h-108v871l-163 -165l-75 76l292 294l292 -294l-75 -76l-163 165v-871z" />
    <glyph glyph-name="arrowlong.down" horiz-adv-x="724" 
d="M308 823h108v-871l163 165l75 -76l-292 -294l-292 294l75 76l163 -165v871z" />
    <glyph glyph-name="arrowlong.leftup" horiz-adv-x="940" 
d="M870 -23l-77 -77l-616 616l2 -232l-107 1l-2 414l415 -1v-107l-231 1z" />
    <glyph glyph-name="arrowlong.leftdown" horiz-adv-x="940" 
d="M793 699l77 -77l-616 -615l231 1v-107l-415 -1l2 414l107 1l-2 -232z" />
    <glyph glyph-name="arrowlong.rightup" horiz-adv-x="940" 
d="M147 -100l-77 77l616 615l-231 -1v107l415 1l-2 -414l-107 -1l2 232z" />
    <glyph glyph-name="arrowlong.rightdown" horiz-adv-x="940" 
d="M70 622l77 77l616 -616l-2 232l107 -1l2 -414l-415 1v107l231 -1z" />
    <glyph glyph-name="ornm1" horiz-adv-x="666" 
d="M240 390c0 -13 6 -25 15 -34h-201c-19 0 -34 15 -34 34s15 34 34 34h200c-9 -9 -14 -21 -14 -34zM437 122h-104c8 8 13 19 13 32c0 16 -9 31 -22 39c13 8 22 22 22 39c0 16 -9 31 -22 39c13 8 22 22 22 39c0 13 -5 24 -14 33h63v13h-107c-19 0 -34 15 -34 34s15 34 34 34
h149c41 0 28 -60 75 -60h114v-197h-114c-47 0 -34 -39 -75 -45zM332 154c0 -18 -14 -32 -32 -32h-81c-18 0 -32 14 -32 32s14 32 32 32h81c18 0 32 -14 32 -32zM332 232c0 -18 -14 -32 -32 -32h-81c-18 0 -32 14 -32 32s14 32 32 32h81c18 0 32 -14 32 -32zM332 310
c0 -18 -14 -32 -32 -32h-81c-18 0 -32 14 -32 32s14 32 32 32h81c18 0 32 -14 32 -32z" />
    <glyph glyph-name="ornm2" horiz-adv-x="666" 
d="M426 390c0 13 -5 25 -14 34h200c19 0 34 -15 34 -34s-15 -34 -34 -34h-201c9 9 15 21 15 34zM229 122c-41 6 -28 45 -75 45h-114v197h114c47 0 34 60 75 60h149c19 0 34 -15 34 -34s-15 -34 -34 -34h-107v-13h63c-9 -9 -14 -20 -14 -33c0 -17 9 -31 22 -39
c-13 -8 -22 -23 -22 -39c0 -17 9 -31 22 -39c-13 -8 -22 -23 -22 -39c0 -13 5 -24 13 -32h-104zM334 154c0 18 14 32 32 32h81c18 0 32 -14 32 -32s-14 -32 -32 -32h-81c-18 0 -32 14 -32 32zM334 232c0 18 14 32 32 32h81c18 0 32 -14 32 -32s-14 -32 -32 -32h-81
c-18 0 -32 14 -32 32zM334 310c0 18 14 32 32 32h81c18 0 32 -14 32 -32s-14 -32 -32 -32h-81c-18 0 -32 14 -32 32z" />
    <glyph glyph-name="ornm3" horiz-adv-x="1099" 
d="M648 588l-61 12l31 154l61 -12zM519 601h62v-157h-62v157zM452 -78l61 -12l-31 -154l-61 12zM581 -91h-62v157h62v-157zM883 157l12 61l154 -31l-12 -61zM896 286v-62h-157v62h157zM217 353l-12 -61l-154 31l12 61zM204 224v62h157v-62h-157zM855 422l-34 51l130 88
l35 -52zM773 522l44 -44l-111 -111l-44 44zM245 88l34 -51l-130 -88l-35 52zM327 -12l-44 44l111 111l44 -44zM717 -50l51 34l88 -130l-52 -35zM817 32l-44 -44l-111 111l44 44zM383 560l-51 -34l-88 130l52 35zM283 478l44 44l111 -111l-44 -44zM765 527l-51 34l86 132
l52 -34zM651 587l57 -23l-58 -145l-58 23zM335 -17l51 -34l-86 -132l-52 34zM449 -77l-57 23l58 145l58 -23zM822 40l34 51l132 -86l-34 -52zM882 154l-23 -57l-145 58l23 58zM278 470l-34 -51l-132 86l34 52zM218 356l23 57l145 -58l-23 -58zM516 600l-61 -11l-29 155
l60 11zM392 564l57 23l59 -145l-58 -23zM584 -90l61 11l29 -155l-60 -11zM708 -54l-57 -23l-59 145l58 23zM895 289l-11 61l155 29l11 -60zM859 413l23 -57l-145 -59l-23 58zM205 221l11 -61l-155 -29l-11 60zM241 97l-23 57l145 59l23 -58z" />
    <glyph glyph-name="ornm4" horiz-adv-x="1163" 
d="M306 259c0 148 121 269 269 269s269 -121 269 -269s-121 -269 -269 -269s-269 121 -269 269zM387 259c0 -104 84 -188 188 -188s188 84 188 188s-84 188 -188 188s-188 -84 -188 -188zM521 259c0 30 24 54 54 54s54 -24 54 -54s-24 -54 -54 -54s-54 24 -54 54zM494 259
c0 -44 37 -81 81 -81s81 37 81 81s-37 81 -81 81s-81 -37 -81 -81zM414 259c0 89 72 161 161 161s161 -72 161 -161s-72 -161 -161 -161s-161 72 -161 161zM172 259c0 30 24 54 54 54s54 -24 54 -54s-24 -54 -54 -54s-54 24 -54 54zM50 259c0 30 24 54 54 54s54 -24 54 -54
s-24 -54 -54 -54s-54 24 -54 54zM1005 259c0 30 24 54 54 54s54 -24 54 -54s-24 -54 -54 -54s-54 24 -54 54zM883 259c0 30 24 54 54 54s54 -24 54 -54s-24 -54 -54 -54s-54 24 -54 54zM575 662c30 0 54 -24 54 -54s-24 -54 -54 -54s-54 24 -54 54s24 54 54 54zM575 784
c30 0 54 -24 54 -54s-24 -54 -54 -54s-54 24 -54 54s24 54 54 54zM575 -158c30 0 54 -24 54 -54s-24 -54 -54 -54s-54 24 -54 54s24 54 54 54zM575 -36c30 0 54 -24 54 -54s-24 -54 -54 -54s-54 24 -54 54s24 54 54 54zM113 495c0 30 24 54 54 54s54 -24 54 -54
s-24 -54 -54 -54s-54 24 -54 54zM219 433c0 30 24 54 54 54s54 -24 54 -54s-24 -54 -54 -54s-54 24 -54 54zM833 78c0 30 24 54 54 54s54 -24 54 -54s-24 -54 -54 -54s-54 24 -54 54zM939 16c0 30 24 54 54 54s54 -24 54 -54s-24 -54 -54 -54s-54 24 -54 54zM113 23
c0 30 24 54 54 54s54 -24 54 -54s-24 -54 -54 -54s-54 24 -54 54zM219 85c0 30 24 54 54 54s54 -24 54 -54s-24 -54 -54 -54s-54 24 -54 54zM823 433c0 30 24 54 54 54s54 -24 54 -54s-24 -54 -54 -54s-54 24 -54 54zM929 495c0 30 24 54 54 54s54 -24 54 -54
s-24 -54 -54 -54s-54 24 -54 54zM285 667c0 30 24 54 54 54s54 -24 54 -54s-24 -54 -54 -54s-54 24 -54 54zM346 561c0 30 24 54 54 54s54 -24 54 -54s-24 -54 -54 -54s-54 24 -54 54zM703 -53c0 30 24 54 54 54s54 -24 54 -54s-24 -54 -54 -54s-54 24 -54 54zM764 -159
c0 30 24 54 54 54s54 -24 54 -54s-24 -54 -54 -54s-54 24 -54 54zM285 -149c0 30 24 54 54 54s54 -24 54 -54s-24 -54 -54 -54s-54 24 -54 54zM346 -43c0 30 24 54 54 54s54 -24 54 -54s-24 -54 -54 -54s-54 24 -54 54zM696 561c0 30 24 54 54 54s54 -24 54 -54
s-24 -54 -54 -54s-54 24 -54 54zM757 667c0 30 24 54 54 54s54 -24 54 -54s-24 -54 -54 -54s-54 24 -54 54z" />
    <glyph glyph-name="ornm5" horiz-adv-x="1056" 
d="M226 499l62 62l83 -84c5 4 10 8 17 11l-87 217l81 32l87 -216c4 1 10 3 15 3v118h88v-118c6 0 13 -2 19 -4l92 214l79 -35l-91 -213c5 -2 10 -5 14 -9l83 84l62 -62l-83 -83c4 -6 7 -11 10 -17l217 87l32 -82l-216 -87c2 -5 2 -10 3 -15h119v-87h-119
c-1 -7 -2 -14 -4 -20l214 -91l-35 -79l-213 90c-2 -4 -5 -9 -8 -13l83 -83l-62 -62l-83 83c-5 -4 -11 -8 -17 -12l87 -216l-82 -32l-87 216c-5 -2 -9 -2 -14 -3v-118h-88v118c-7 1 -13 2 -20 4l-91 -214l-79 35l90 212c-5 4 -9 6 -13 10l-83 -83l-62 62l83 83
c-4 4 -8 11 -12 16l-215 -87l-32 82l215 87c-1 4 -3 10 -3 15h-118v87h118c1 7 2 14 4 20l-213 92l34 79l212 -91c3 5 6 9 10 14zM340 259c0 -104 84 -188 188 -188s188 84 188 188s-84 188 -188 188s-188 -84 -188 -188zM474 259c0 30 24 54 54 54s54 -24 54 -54
s-24 -54 -54 -54s-54 24 -54 54zM447 259c0 -44 37 -81 81 -81s81 37 81 81s-37 81 -81 81s-81 -37 -81 -81zM367 259c0 89 72 161 161 161s161 -72 161 -161s-72 -161 -161 -161s-161 72 -161 161z" />
    <glyph glyph-name="ornm6" horiz-adv-x="1096" 
d="M227 -124l-61 62l164 164c-5 5 -9 11 -12 16l-216 -87l-32 81l215 87c-1 5 -2 10 -3 16h-232v87h232c1 8 3 13 4 20l-213 92l34 79l214 -90c2 5 6 9 9 13l-164 164l61 61l164 -164c5 5 11 8 17 12l-87 215l81 33l87 -216c5 1 10 3 16 3v233h87v-233c7 0 13 -2 19 -4
l92 214l79 -35l-89 -214c4 -2 8 -5 12 -8l164 164l62 -61l-164 -164c4 -6 8 -12 11 -18l216 88l32 -81l-215 -87c1 -6 2 -11 3 -16h232v-87h-232c-1 -7 -2 -13 -4 -19l213 -92l-34 -79l-214 89c-3 -4 -5 -9 -8 -12l164 -164l-62 -62l-164 164c-6 -5 -11 -8 -17 -12l88 -215
l-82 -33l-87 216c-5 -2 -10 -2 -15 -3v-233h-87v233c-7 1 -14 2 -21 4l-90 -214l-79 35l89 213c-5 3 -9 6 -13 9zM360 259c0 -104 84 -188 188 -188s188 84 188 188s-84 188 -188 188s-188 -84 -188 -188zM467 259c0 -44 37 -81 81 -81s81 37 81 81s-37 81 -81 81
s-81 -37 -81 -81zM387 259c0 89 72 161 161 161s161 -72 161 -161s-72 -161 -161 -161s-161 72 -161 161z" />
    <glyph glyph-name="ornm7" horiz-adv-x="1069" 
d="M265 259c0 148 121 269 269 269s269 -121 269 -269s-121 -269 -269 -269s-269 121 -269 269zM346 259c0 -104 84 -188 188 -188s188 84 188 188s-84 188 -188 188s-188 -84 -188 -188zM480 259c0 30 24 54 54 54s54 -24 54 -54s-24 -54 -54 -54s-54 24 -54 54zM453 259
c0 -44 37 -81 81 -81s81 37 81 81s-37 81 -81 81s-81 -37 -81 -81zM373 259c0 89 72 161 161 161s161 -72 161 -161s-72 -161 -161 -161s-161 72 -161 161zM50 259c0 266 218 484 484 484s484 -218 484 -484s-218 -484 -484 -484s-484 218 -484 484zM130 259
c0 -222 182 -404 404 -404s404 182 404 404s-182 404 -404 404s-404 -182 -404 -404zM157 259c0 207 170 377 377 377s377 -170 377 -377s-170 -377 -377 -377s-377 170 -377 377zM238 259c0 -163 133 -296 296 -296s296 133 296 296s-133 296 -296 296s-296 -133 -296 -296
z" />
    <glyph glyph-name="ornm8" horiz-adv-x="1106" 
d="M596 -255h-86v288l-108 -267l-80 32l111 275l-210 -210l-62 62l201 201l-262 -111l-34 81l273 116h-296v86h288l-267 108l32 80l275 -112l-210 211l62 62l201 -201l-111 262l81 34l116 -274v297h86v-288l108 267l80 -32l-112 -276l211 211l62 -62l-201 -201l262 111
l34 -81l-274 -116h297v-86h-288l267 -108l-32 -80l-276 111l211 -210l-62 -62l-201 201l111 -262l-81 -34l-116 273v-296zM371 255c0 -100 82 -182 182 -182s182 82 182 182s-82 182 -182 182s-182 -82 -182 -182z" />
    <glyph glyph-name="ornm9" horiz-adv-x="600" 
d="M550 500v-500h-500v500h500z" />
    <glyph glyph-name="zero.alt" horiz-adv-x="562" 
d="M281 676c159 0 248 -130 248 -344s-89 -344 -248 -344s-248 130 -248 344s89 344 248 344zM281 555c-66 0 -104 -73 -104 -223s38 -223 104 -223s104 73 104 223s-38 223 -104 223z" />
    <glyph glyph-name="one.alt" horiz-adv-x="359" 
d="M45 588c43 22 95 49 143 76h93v-664h-142v501c-29 -14 -68 -29 -94 -41v128z" />
    <glyph glyph-name="two.alt" horiz-adv-x="522" 
d="M181 461l-141 16c-1 122 101 199 217 199s215 -67 215 -188c0 -58 -20 -118 -59 -172c-43 -60 -101 -128 -169 -197h252v-119h-434v107c84 87 162 182 213 255c30 42 53 88 53 127c0 43 -34 67 -71 67c-49 0 -79 -36 -76 -95z" />
    <glyph glyph-name="three.alt" horiz-adv-x="519" 
d="M173 281l-73 100l170 166h-225v117h419v-96l-168 -158c115 -4 180 -101 180 -198c0 -129 -106 -224 -236 -224c-93 0 -173 50 -213 133l108 57c23 -43 53 -70 101 -70c53 0 96 44 96 99c0 54 -40 100 -95 100c-22 0 -47 -9 -64 -26z" />
    <glyph glyph-name="four.alt" horiz-adv-x="554" 
d="M317 664h126v-386h94v-117h-94v-161h-140v161h-279v119c84 109 203 261 293 384zM174 278h129v180c-36 -53 -95 -135 -129 -180z" />
    <glyph glyph-name="five.alt" horiz-adv-x="508" 
d="M448 664v-117h-230c-3 -46 -6 -96 -11 -138c25 13 52 18 79 18c118 0 190 -96 190 -209c0 -129 -99 -230 -236 -230c-93 0 -174 50 -213 133l108 57c22 -43 53 -70 101 -70c53 0 96 44 96 98c0 56 -35 101 -95 101c-27 0 -57 -11 -79 -40l-96 62c10 98 22 241 27 335h359
z" />
    <glyph glyph-name="six.alt" horiz-adv-x="530" 
d="M266 301c-51 0 -89 -43 -89 -96c0 -54 36 -97 89 -97c50 0 88 43 88 97c0 53 -36 96 -88 96zM281 415c9 2 19 3 27 3c101 0 189 -96 189 -211c0 -123 -106 -219 -233 -219c-126 0 -231 98 -231 220c0 47 16 86 35 120c24 46 171 281 237 375l115 -68
c-44 -68 -101 -156 -139 -220z" />
    <glyph glyph-name="seven.alt" horiz-adv-x="472" 
d="M455 664v-94c-80 -169 -196 -434 -266 -602l-129 58c81 189 184 398 242 519h-292v119h445z" />
    <glyph glyph-name="eight.alt" horiz-adv-x="549" 
d="M136 351c-40 22 -73 71 -73 133c0 108 93 192 211 192c119 0 212 -84 212 -192c0 -62 -33 -111 -73 -133c53 -27 89 -83 89 -156c0 -118 -99 -207 -228 -207c-128 0 -227 89 -227 207c0 73 36 129 89 156zM205 481c0 -44 31 -78 69 -78c39 0 70 34 70 78
c0 43 -31 77 -70 77c-38 0 -69 -34 -69 -77zM191 196c0 -50 37 -90 83 -90c47 0 84 40 84 90s-37 90 -84 90c-46 0 -83 -40 -83 -90z" />
    <glyph glyph-name="nine.alt" horiz-adv-x="530" 
d="M264 363c51 0 88 43 88 97c0 53 -35 96 -88 96c-51 0 -88 -43 -88 -96c0 -54 36 -97 88 -97zM249 249c-9 -2 -19 -2 -28 -2c-101 0 -188 96 -188 211c0 122 106 218 233 218c126 0 231 -97 231 -220c0 -47 -17 -85 -35 -120c-24 -46 -171 -281 -237 -375l-115 68
c44 68 100 157 139 220z" />
    <glyph glyph-name="a.smcp" horiz-adv-x="608" 
d="M9 0l238 595h126l227 -595h-158l-39 107h-202l-38 -107h-154zM300 393l-58 -170h118l-58 170h-2z" />
    <glyph glyph-name="b.smcp" horiz-adv-x="574" 
d="M73 595h177c47 0 99 -6 143 -24c61 -24 105 -68 105 -146c0 -47 -22 -91 -74 -114c63 -20 97 -73 97 -133c0 -82 -51 -130 -121 -155c-49 -17 -107 -23 -158 -23h-169v595zM215 247v-130h31c38 0 69 2 91 11c23 10 35 27 35 55c0 41 -34 64 -86 64h-71zM215 477v-119h37
c64 0 103 16 103 58c0 45 -30 61 -103 61h-37z" />
    <glyph glyph-name="c.smcp" horiz-adv-x="585" 
d="M483 151l72 -99c-55 -43 -121 -64 -190 -64c-190 0 -328 125 -328 309c0 178 145 310 328 310c64 0 127 -22 182 -58l-63 -105c-42 31 -76 45 -121 45c-103 0 -179 -80 -179 -192c0 -117 68 -191 179 -191c37 0 82 14 120 45z" />
    <glyph glyph-name="d.smcp" horiz-adv-x="631" 
d="M74 595h105c150 0 199 -13 238 -28c100 -40 181 -124 181 -267c0 -158 -92 -252 -208 -281c-35 -8 -76 -19 -208 -19h-108v595zM217 477v-359c52 1 84 5 114 12c75 18 120 67 120 163c0 79 -28 131 -79 157c-33 16 -68 26 -155 27z" />
    <glyph glyph-name="e.smcp" horiz-adv-x="530" 
d="M469 0h-395v595h395v-118h-252v-114h252v-118h-252v-127h252v-118z" />
    <glyph glyph-name="f.smcp" horiz-adv-x="462" 
d="M420 233h-203v-233h-143v595h346v-118h-203v-126h203v-118z" />
    <glyph glyph-name="g.smcp" horiz-adv-x="684" 
d="M623 355v-241c-54 -75 -150 -126 -255 -126c-182 0 -327 122 -327 309c0 178 146 310 327 310c87 0 166 -37 229 -95l-83 -93c-37 41 -87 70 -147 70c-102 0 -179 -80 -179 -192c0 -120 76 -191 179 -191c38 0 82 12 116 41v92h-133v116h273z" />
    <glyph glyph-name="h.smcp" horiz-adv-x="671" 
d="M597 0h-143v248h-237v-248h-143v595h143v-229h237v229h143v-595z" />
    <glyph glyph-name="i.smcp" horiz-adv-x="291" 
d="M217 0h-143v595h143v-595z" />
    <glyph glyph-name="j.smcp" horiz-adv-x="341" 
d="M124 595h143v-436c0 -53 -16 -98 -46 -127c-28 -28 -66 -44 -117 -44c-41 0 -84 14 -122 29l42 108c19 -10 38 -19 58 -19c16 0 27 3 34 12c6 9 8 24 8 48v429z" />
    <glyph glyph-name="k.smcp" horiz-adv-x="593" 
d="M217 0h-143v595h143v-235l190 235h166l-202 -238l213 -357h-167l-142 246l-58 -69v-177z" />
    <glyph glyph-name="l.smcp" horiz-adv-x="467" 
d="M459 0h-385v595h143v-477h242v-118z" />
    <glyph glyph-name="m.smcp" horiz-adv-x="857" 
d="M783 595v-595h-143v394l-154 -394h-119l-150 395v-395h-143v595h214l141 -382h2l141 382h211z" />
    <glyph glyph-name="msmcp.salt" horiz-adv-x="805" 
d="M357 104l-144 306v-410h-139v595h191l137 -303h1l138 303h190v-595h-139v411l-146 -307h-89z" />
    <glyph glyph-name="n.smcp" horiz-adv-x="685" 
d="M477 0l-263 358v-358h-140v595h133l264 -357v357h140v-595h-134z" />
    <glyph glyph-name="o.smcp" horiz-adv-x="716" 
d="M358 607c183 0 321 -137 321 -310s-138 -309 -321 -309s-321 136 -321 309s138 310 321 310zM358 489c-101 0 -174 -80 -174 -192s73 -191 174 -191s174 79 174 191s-73 192 -174 192z" />
    <glyph glyph-name="p.smcp" horiz-adv-x="538" 
d="M74 595h131c58 0 90 -1 113 -4c104 -15 196 -81 196 -188c0 -87 -65 -159 -155 -185c-27 -8 -58 -12 -124 -13h-18v-205h-143v595zM217 477v-154h21c37 1 60 3 79 9c31 10 50 31 50 70c0 35 -16 59 -49 69c-11 3 -26 6 -78 6h-23z" />
    <glyph glyph-name="q.smcp" horiz-adv-x="716" 
d="M590 -71l-90 90c-42 -20 -90 -31 -142 -31c-183 0 -321 136 -321 309s138 310 321 310s321 -137 321 -310c0 -79 -30 -150 -78 -204l76 -76zM425 270l79 -80c17 30 28 66 28 107c0 112 -73 192 -174 192s-174 -80 -174 -192s73 -191 174 -191c17 0 33 3 48 7l-68 69z" />
    <glyph glyph-name="r.smcp" horiz-adv-x="603" 
d="M74 595h173c162 0 267 -55 267 -185c0 -78 -48 -139 -119 -167l183 -243h-180l-159 220h-22v-220h-143v595zM217 477v-139h14c73 0 136 8 136 67c0 60 -40 72 -126 72h-24z" />
    <glyph glyph-name="s.smcp" horiz-adv-x="538" 
d="M470 537l-73 -98c-35 30 -75 50 -122 50c-34 0 -64 -18 -64 -50c0 -42 48 -57 105 -76c77 -27 169 -61 169 -181c0 -125 -123 -194 -229 -194c-89 0 -160 35 -228 98l82 94c47 -45 85 -74 145 -74c41 0 83 23 83 70c0 46 -51 62 -109 83c-82 30 -161 69 -161 173
c0 116 96 175 203 175c78 0 139 -26 199 -70z" />
    <glyph glyph-name="t.smcp" horiz-adv-x="471" 
d="M447 477h-140v-477h-143v477h-140v118h423v-118z" />
    <glyph glyph-name="u.smcp" horiz-adv-x="648" 
d="M72 595h143v-328c0 -109 40 -161 109 -161s109 52 109 161v328h143v-315c0 -189 -80 -292 -254 -292c-170 0 -250 103 -250 292v315z" />
    <glyph glyph-name="v.smcp" horiz-adv-x="599" 
d="M595 595l-238 -595h-126l-227 595h158l140 -384h2l137 384h154z" />
    <glyph glyph-name="w.smcp" horiz-adv-x="859" 
d="M847 595l-176 -595h-139l-102 386h-2l-110 -386h-144l-162 595h153l92 -361h2l99 361h144l97 -361h2l95 361h151z" />
    <glyph glyph-name="x.smcp" horiz-adv-x="639" 
d="M10 594h177l137 -186l133 186h172l-221 -293l227 -301h-177l-142 192l-138 -192h-174l227 300z" />
    <glyph glyph-name="y.smcp" horiz-adv-x="554" 
d="M346 0h-143v249l-199 346h170l106 -203h2l105 203h163l-204 -354v-241z" />
    <glyph glyph-name="z.smcp" horiz-adv-x="508" 
d="M466 525l-240 -407h262v-118h-451v69l240 408h-237v118h426v-70z" />
    <glyph glyph-name="thorn.smcp" horiz-adv-x="555" 
d="M74 595h143v-97c50 0 80 -1 101 -4c104 -15 196 -81 196 -188c0 -87 -65 -159 -155 -185c-27 -8 -58 -12 -124 -13h-18v-108h-143v595zM217 380v-154h21c37 1 60 3 79 9c31 10 50 31 50 70c0 35 -16 59 -49 69c-11 3 -26 6 -78 6h-23z" />
    <glyph glyph-name="agrave.smcp" horiz-adv-x="608" 
d="M9 0l238 595h126l227 -595h-158l-39 107h-202l-38 -107h-154zM300 393l-58 -170h118l-58 170h-2zM290 629l-147 172l96 76l133 -186z" />
    <glyph glyph-name="aacute.smcp" horiz-adv-x="608" 
d="M9 0l238 595h126l227 -595h-158l-39 107h-202l-38 -107h-154zM300 393l-58 -170h118l-58 170h-2zM463 801l-147 -172l-82 62l133 186z" />
    <glyph glyph-name="acircumflex.smcp" horiz-adv-x="608" 
d="M9 0l238 595h126l227 -595h-158l-39 107h-202l-38 -107h-154zM300 393l-58 -170h118l-58 170h-2zM240 852h143l112 -168l-80 -48l-105 129l-104 -129l-80 48z" />
    <glyph glyph-name="atilde.smcp" horiz-adv-x="608" 
d="M9 0l238 595h126l227 -595h-158l-39 107h-202l-38 -107h-154zM300 393l-58 -170h118l-58 170h-2zM224 654l-81 -9c-4 13 -6 26 -6 38c0 61 45 103 115 103c65 0 115 -51 146 -51c13 0 24 8 25 23c0 2 0 6 -1 7l81 9c4 -13 6 -26 6 -38c0 -61 -45 -103 -115 -103
c-65 0 -115 51 -146 51c-13 0 -24 -8 -25 -23c0 -2 0 -6 1 -7z" />
    </font>
</defs>
</svg>
