<?xml version="1.0" standalone="no"?>
<!DOCTYPE svg PUBLIC "-//W3C//DTD SVG 1.1//EN" "http://www.w3.org/Graphics/SVG/1.1/DTD/svg11.dtd" >
<svg>
<metadata>
Created by FontForge 20120731 at Wed Oct 29 05:41:33 2014
 By Orthosie Webhosting
Copyright (c) 2011 by Wolfgang Homola, distributed by TypeTogether. All rights reserved.
</metadata>
<defs>
<font id="Soleil-Book" horiz-adv-x="550" >
  <font-face 
    font-family="Soleil Bk"
    font-weight="400"
    font-stretch="normal"
    units-per-em="1000"
    panose-1="2 0 5 3 0 0 0 2 0 4"
    ascent="750"
    descent="-250"
    x-height="506"
    cap-height="700"
    bbox="-210 -326 1274 1107"
    underline-thickness="50"
    underline-position="-50"
    stemh="93"
    stemv="105"
    unicode-range="U+000D-FB04"
  />
<missing-glyph 
d="M302 130h-66v69h66v-69zM57 665h437v-665h-437v665zM117 606v-548h316v548h-316zM300 250h-61v91c44 15 87 32 87 80c0 28 -20 53 -54 53c-33 0 -54 -22 -54 -58v-6h-57v4c0 65 49 111 111 111c67 0 112 -53 112 -102c0 -69 -44 -96 -84 -114v-59z" />
    <glyph glyph-name="ff" unicode="ff" horiz-adv-x="684" 
d="M374 738l-30 -84c-20 10 -40 15 -66 15s-42 -6 -54 -16c-20 -18 -23 -50 -23 -91v-56h114v-89h-114v-417h-103v417h-57v89h57v65c0 54 10 100 33 133c26 37 68 58 137 58c36 0 75 -10 106 -24zM716 738l-30 -84c-20 10 -40 15 -66 15s-42 -6 -54 -16
c-20 -18 -23 -50 -23 -91v-56h135v-89h-135v-417h-103v417h-57v89h57v65c0 54 10 100 33 133c26 37 68 58 137 58c36 0 75 -10 106 -24z" />
    <glyph glyph-name="fi" unicode="fi" horiz-adv-x="605" 
d="M346 749l-16 -88c-16 5 -32 8 -52 8c-26 0 -42 -6 -54 -16c-20 -18 -23 -50 -23 -91v-56h135v-89h-135v-417h-103v417h-57v89h57v65c0 54 10 100 33 133c26 37 68 58 137 58c26 0 53 -5 78 -13zM525 0h-103v506h103v-506zM525 598h-103v107h103v-107z" />
    <glyph glyph-name="fl" unicode="fl" horiz-adv-x="606" 
d="M346 749l-16 -88c-16 5 -32 8 -52 8c-26 0 -42 -6 -54 -16c-20 -18 -23 -50 -23 -91v-56h135v-89h-135v-417h-103v417h-57v89h57v65c0 54 10 100 33 133c26 37 68 58 137 58c26 0 53 -5 78 -13zM525 750v-750h-103v750h103z" />
    <glyph glyph-name="f_k" unicode="fk" horiz-adv-x="866" 
d="M346 749l-16 -88c-16 5 -32 8 -52 8c-26 0 -42 -6 -54 -16c-20 -18 -23 -50 -23 -91v-56h135v-89h-135v-417h-103v417h-57v89h57v65c0 54 10 100 33 133c26 37 68 58 137 58c26 0 53 -5 78 -13zM525 750v-486l2 -1l195 243h124l-179 -208l194 -298h-124l-138 218l-74 -86
v-132h-103v750h103z" />
    <glyph glyph-name="f_b" unicode="fb" horiz-adv-x="972" 
d="M346 749l-16 -88c-16 5 -32 8 -52 8c-26 0 -42 -6 -54 -16c-20 -18 -23 -50 -23 -91v-56h135v-89h-135v-417h-103v417h-57v89h57v65c0 54 10 100 33 133c26 37 68 58 137 58c26 0 53 -5 78 -13zM422 750h103v-309c36 51 101 77 159 77c143 0 248 -118 248 -266
c0 -136 -100 -264 -250 -264c-58 0 -120 25 -160 69l-2 -57h-98v750zM525 335v-181c34 -48 90 -73 140 -73c110 0 162 90 162 173c0 90 -61 171 -160 171c-52 0 -116 -30 -142 -90z" />
    <glyph glyph-name="f_h" unicode="fh" horiz-adv-x="951" 
d="M346 749l-16 -88c-16 5 -32 8 -52 8c-26 0 -42 -6 -54 -16c-20 -18 -23 -50 -23 -91v-56h135v-89h-135v-417h-103v417h-57v89h57v65c0 54 10 100 33 133c26 37 68 58 137 58c26 0 53 -5 78 -13zM525 750v-322c38 57 98 90 162 90c67 0 114 -24 144 -64
c35 -48 45 -115 45 -191v-263h-103v254c0 46 -2 97 -24 132c-15 24 -42 39 -83 39c-54 0 -108 -37 -141 -90v-335h-103v750h103z" />
    <glyph glyph-name="f_t" unicode="ft" horiz-adv-x="696" 
d="M374 738l-30 -84c-20 10 -40 15 -66 15s-42 -6 -54 -16c-20 -18 -23 -50 -23 -91v-56h122v-89h-122v-417h-103v417h-57v89h57v65c0 54 10 100 33 133c26 37 68 58 137 58c36 0 75 -10 106 -24zM670 417h-139v-220c0 -13 0 -25 1 -40c3 -48 19 -76 64 -76c22 0 41 6 57 14
l30 -81c-27 -15 -66 -24 -101 -24c-73 0 -119 34 -139 86c-11 28 -15 63 -15 100v241h-56v89h56l5 119h98v-119h139v-89z" />
    <glyph glyph-name="f_j" unicode="fj" horiz-adv-x="614" 
d="M346 749l-16 -88c-16 5 -32 8 -52 8c-26 0 -42 -6 -54 -16c-20 -18 -23 -50 -23 -91v-56h135v-89h-135v-417h-103v417h-57v89h57v65c0 54 10 100 33 133c26 37 68 58 137 58c26 0 53 -5 78 -13zM533 598h-103v107h103v-107zM533 506v-549c0 -41 -4 -75 -18 -104
c-21 -46 -64 -77 -137 -77c-37 0 -71 7 -100 22l29 83c15 -8 35 -14 57 -14c61 0 66 47 66 106v533h103z" />
    <glyph glyph-name="f_f_j" unicode="ffj" horiz-adv-x="956" 
d="M688 749l-16 -88c-16 5 -32 8 -52 8c-26 0 -42 -6 -54 -16c-20 -18 -23 -50 -23 -91v-56h135v-89h-135v-417h-103v417h-57v89h57v65c0 54 10 100 33 133c26 37 68 58 137 58c26 0 53 -5 78 -13zM374 738l-30 -84c-20 10 -40 15 -66 15s-42 -6 -54 -16
c-20 -18 -23 -50 -23 -91v-56h114v-89h-114v-417h-103v417h-57v89h57v65c0 54 10 100 33 133c26 37 68 58 137 58c36 0 75 -10 106 -24zM875 598h-103v107h103v-107zM875 506v-549c0 -41 -4 -75 -18 -104c-21 -46 -64 -77 -137 -77c-37 0 -71 7 -100 22l29 83
c15 -8 35 -14 57 -14c61 0 66 47 66 106v533h103z" />
    <glyph glyph-name="ffi" unicode="ffi" horiz-adv-x="948" 
d="M688 749l-16 -88c-16 5 -32 8 -52 8c-26 0 -42 -6 -54 -16c-20 -18 -23 -50 -23 -91v-56h135v-89h-135v-417h-103v417h-57v89h57v65c0 54 10 100 33 133c26 37 68 58 137 58c26 0 53 -5 78 -13zM374 738l-30 -84c-20 10 -40 15 -66 15s-42 -6 -54 -16
c-20 -18 -23 -50 -23 -91v-56h114v-89h-114v-417h-103v417h-57v89h57v65c0 54 10 100 33 133c26 37 68 58 137 58c36 0 75 -10 106 -24zM868 0h-103v506h103v-506zM868 598h-103v107h103v-107z" />
    <glyph glyph-name="ffl" unicode="ffl" horiz-adv-x="947" 
d="M688 749l-16 -88c-16 5 -32 8 -52 8c-26 0 -42 -6 -54 -16c-20 -18 -23 -50 -23 -91v-56h135v-89h-135v-417h-103v417h-57v89h57v65c0 54 10 100 33 133c26 37 68 58 137 58c26 0 53 -5 78 -13zM374 738l-30 -84c-20 10 -40 15 -66 15s-42 -6 -54 -16
c-20 -18 -23 -50 -23 -91v-56h114v-89h-114v-417h-103v417h-57v89h57v65c0 54 10 100 33 133c26 37 68 58 137 58c36 0 75 -10 106 -24zM867 750v-750h-103v750h103z" />
    <glyph glyph-name="f_f_k" unicode="ffk" horiz-adv-x="1208" 
d="M688 749l-16 -88c-16 5 -32 8 -52 8c-26 0 -42 -6 -54 -16c-20 -18 -23 -50 -23 -91v-56h135v-89h-135v-417h-103v417h-57v89h57v65c0 54 10 100 33 133c26 37 68 58 137 58c26 0 53 -5 78 -13zM374 738l-30 -84c-20 10 -40 15 -66 15s-42 -6 -54 -16
c-20 -18 -23 -50 -23 -91v-56h114v-89h-114v-417h-103v417h-57v89h57v65c0 54 10 100 33 133c26 37 68 58 137 58c36 0 75 -10 106 -24zM867 750v-486l2 -1l195 243h124l-179 -208l194 -298h-124l-138 218l-74 -86v-132h-103v750h103z" />
    <glyph glyph-name="f_f_b" unicode="ffb" horiz-adv-x="1314" 
d="M688 749l-16 -88c-16 5 -32 8 -52 8c-26 0 -42 -6 -54 -16c-20 -18 -23 -50 -23 -91v-56h135v-89h-135v-417h-103v417h-57v89h57v65c0 54 10 100 33 133c26 37 68 58 137 58c26 0 53 -5 78 -13zM374 738l-30 -84c-20 10 -40 15 -66 15s-42 -6 -54 -16
c-20 -18 -23 -50 -23 -91v-56h114v-89h-114v-417h-103v417h-57v89h57v65c0 54 10 100 33 133c26 37 68 58 137 58c36 0 75 -10 106 -24zM764 750h103v-309c36 51 101 77 159 77c143 0 248 -118 248 -266c0 -136 -100 -264 -250 -264c-58 0 -120 25 -160 69l-2 -57h-98v750z
M867 335v-181c34 -48 90 -73 140 -73c110 0 162 90 162 173c0 90 -61 171 -160 171c-52 0 -116 -30 -142 -90z" />
    <glyph glyph-name="f_f_h" unicode="ffh" horiz-adv-x="1293" 
d="M688 749l-16 -88c-16 5 -32 8 -52 8c-26 0 -42 -6 -54 -16c-20 -18 -23 -50 -23 -91v-56h135v-89h-135v-417h-103v417h-57v89h57v65c0 54 10 100 33 133c26 37 68 58 137 58c26 0 53 -5 78 -13zM374 738l-30 -84c-20 10 -40 15 -66 15s-42 -6 -54 -16
c-20 -18 -23 -50 -23 -91v-56h114v-89h-114v-417h-103v417h-57v89h57v65c0 54 10 100 33 133c26 37 68 58 137 58c36 0 75 -10 106 -24zM867 750v-322c38 57 98 90 162 90c67 0 114 -24 144 -64c35 -48 45 -115 45 -191v-263h-103v254c0 46 -2 97 -24 132
c-15 24 -42 39 -83 39c-54 0 -108 -37 -141 -90v-335h-103v750h103z" />
    <glyph glyph-name="f_f_t" unicode="fft" horiz-adv-x="1038" 
d="M374 738l-30 -84c-20 10 -40 15 -66 15s-42 -6 -54 -16c-20 -18 -23 -50 -23 -91v-56h114v-89h-114v-417h-103v417h-57v89h57v65c0 54 10 100 33 133c26 37 68 58 137 58c36 0 75 -10 106 -24zM716 738l-30 -84c-20 10 -40 15 -66 15s-42 -6 -54 -16
c-20 -18 -23 -50 -23 -91v-56h121v-89h-121v-417h-103v417h-57v89h57v65c0 54 10 100 33 133c26 37 68 58 137 58c36 0 75 -10 106 -24zM1012 417h-139v-220c0 -13 0 -25 1 -40c3 -48 19 -76 64 -76c22 0 41 6 57 14l30 -81c-27 -15 -66 -24 -101 -24c-73 0 -119 34 -139 86
c-11 28 -15 63 -15 100v241h-56v89h56l5 119h98v-119h139v-89z" />
    <glyph glyph-name="f_iacute" unicode="f&#xed;" horiz-adv-x="606" 
d="M526 0h-103v506h103v-506zM626 736l-143 -168l-64 51l133 175zM374 738l-30 -84c-20 10 -40 15 -66 15s-42 -6 -54 -16c-20 -18 -23 -50 -23 -91v-56h135v-89h-135v-417h-103v417h-57v89h57v65c0 54 10 100 33 133c26 37 68 58 137 58c36 0 75 -10 106 -24z" />
    <glyph glyph-name="t_t" unicode="tt" horiz-adv-x="708" 
d="M328 417h-139v-220c0 -13 0 -25 1 -40c3 -48 19 -76 64 -76c22 0 41 6 57 14l30 -81c-27 -15 -66 -24 -101 -24c-73 0 -119 34 -139 86c-11 28 -15 63 -15 100v241h-66v89h66l5 119h98v-119h139v-89zM682 417h-139v-220c0 -13 0 -25 1 -40c3 -48 19 -76 64 -76
c22 0 41 6 57 14l30 -81c-27 -15 -66 -24 -101 -24c-73 0 -119 34 -139 86c-11 28 -15 63 -15 100v241h-66v89h66l5 119h98v-119h139v-89z" />
    <glyph glyph-name=".notdef" 
d="M302 130h-66v69h66v-69zM57 665h437v-665h-437v665zM117 606v-548h316v548h-316zM300 250h-61v91c44 15 87 32 87 80c0 28 -20 53 -54 53c-33 0 -54 -22 -54 -58v-6h-57v4c0 65 49 111 111 111c67 0 112 -53 112 -102c0 -69 -44 -96 -84 -114v-59z" />
    <glyph glyph-name="CR" unicode="&#xd;" horiz-adv-x="500" 
 />
    <glyph glyph-name="space" unicode=" " horiz-adv-x="250" 
 />
    <glyph glyph-name="quotesingle" unicode="'" horiz-adv-x="264" 
d="M178 429h-92l-10 271h111z" />
    <glyph glyph-name="quotedbl" unicode="&#x22;" horiz-adv-x="484" 
d="M178 429h-92l-10 271h111zM398 429h-92l-10 271h111z" />
    <glyph glyph-name="numbersign" unicode="#" horiz-adv-x="690" 
d="M53 263h124l25 139h-84v79h97l33 184h88l-33 -184h130l33 184h88l-33 -184h116v-79h-130l-25 -139h90v-80h-103l-32 -183h-88l32 183h-130l-32 -183h-87l31 183h-110v80zM290 402l-25 -139h129l25 139h-129z" />
    <glyph glyph-name="ampersand" unicode="&#x26;" horiz-adv-x="683" 
d="M697 49l-61 -69l-123 109c-52 -70 -131 -101 -216 -101c-126 0 -236 102 -236 219c0 81 46 149 116 187c-38 42 -65 87 -65 144c0 104 102 174 201 174c89 0 162 -49 185 -132l-95 -27c-11 44 -46 67 -94 67c-53 0 -95 -35 -95 -86s40 -90 107 -150l-60 -70l-19 17
c-47 -23 -78 -67 -78 -122c0 -72 65 -129 142 -129c59 0 106 25 138 70l-79 71l61 70z" />
    <glyph glyph-name="asterisk" unicode="*" horiz-adv-x="494" 
d="M427 546l-121 -27l86 -95l-78 -56l-67 114l-67 -114l-78 56l85 95l-120 27l29 91l116 -51l-13 126h96l-12 -126l115 51z" />
    <glyph glyph-name="comma" unicode="," horiz-adv-x="250" 
d="M182 124l-68 -256h-98l52 256h114z" />
    <glyph glyph-name="hyphen" unicode="-" horiz-adv-x="457" 
d="M361 236h-265v91h265v-91z" />
    <glyph glyph-name="period" unicode="." horiz-adv-x="250" 
d="M183 0h-117v124h117v-124z" />
    <glyph glyph-name="colon" unicode=":" horiz-adv-x="250" 
d="M183 382h-117v124h117v-124zM183 0h-117v124h117v-124z" />
    <glyph glyph-name="semicolon" unicode=";" horiz-adv-x="250" 
d="M182 124l-68 -256h-98l52 256h114zM182 382h-116v124h116v-124z" />
    <glyph glyph-name="question" unicode="?" horiz-adv-x="542" 
d="M320 217h-108v163c79 27 158 58 158 146c0 51 -40 95 -97 95c-61 0 -100 -40 -100 -105v-11h-102v7c0 119 92 200 202 200c118 0 199 -95 199 -183c0 -124 -75 -170 -152 -206v-106zM324 0h-116v124h116v-124z" />
    <glyph glyph-name="exclam" unicode="!" horiz-adv-x="319" 
d="M220 700v-114l-10 -369h-100l-11 369v114h121zM218 0h-117v124h117v-124z" />
    <glyph glyph-name="exclamdown" unicode="&#xa1;" horiz-adv-x="319" 
d="M99 -194v115l11 368h100l10 -368v-115h-121zM101 506h117v-124h-117v124z" />
    <glyph glyph-name="questiondown" unicode="&#xbf;" horiz-adv-x="542" 
d="M222 290h108v-163c-79 -27 -158 -58 -158 -146c0 -51 40 -95 97 -95c61 0 100 40 100 105v11h102v-7c0 -119 -92 -200 -202 -200c-118 0 -199 95 -199 183c0 124 75 170 152 206v106zM218 507h116v-124h-116v124z" />
    <glyph glyph-name="at" unicode="@" horiz-adv-x="799" 
d="M548 -100c-50 -25 -102 -37 -154 -37c-190 0 -341 155 -341 344c0 193 153 345 342 345c207 0 352 -133 352 -325c0 -110 -49 -211 -156 -211c-33 0 -79 15 -101 78c-22 -40 -67 -61 -113 -61c-93 0 -157 75 -157 169c0 85 57 171 158 171c35 0 72 -16 98 -41v31h78v-153
c0 -97 18 -117 43 -117c45 0 65 65 65 132c0 150 -101 246 -266 246c-145 0 -258 -114 -258 -263c0 -148 112 -264 257 -264c42 0 83 11 121 30zM476 177v72c-24 33 -58 52 -86 52c-65 0 -91 -52 -91 -100c0 -50 32 -97 89 -97c31 0 70 26 88 73z" />
    <glyph glyph-name="A" unicode="A" horiz-adv-x="662" 
d="M523 0l-52 144h-287l-52 -144h-118l275 700h91l267 -700h-124zM328 537l-109 -299h218l-108 299h-1z" />
    <glyph glyph-name="B" unicode="B" horiz-adv-x="616" 
d="M91 0v700h171c66 0 136 -11 187 -44c50 -33 76 -86 76 -147c0 -64 -30 -114 -102 -143c85 -26 131 -84 131 -165c0 -80 -45 -142 -117 -173c-53 -22 -121 -28 -184 -28h-162zM198 312v-219h48c55 0 104 2 141 19c31 15 53 43 53 88c0 67 -48 112 -138 112h-104zM198 607
v-202h62c99 0 158 31 158 99c0 40 -14 64 -37 79c-34 22 -82 24 -139 24h-44z" />
    <glyph glyph-name="C" unicode="C" horiz-adv-x="674" 
d="M171 350c0 -163 106 -267 262 -267c54 0 106 18 153 52l58 -79c-62 -44 -135 -68 -213 -68c-209 0 -374 143 -374 362c0 206 169 362 376 362c71 0 136 -21 194 -58l-51 -82c-42 27 -91 45 -143 45c-152 0 -262 -113 -262 -267z" />
    <glyph glyph-name="D" unicode="D" horiz-adv-x="718" 
d="M91 0v700h192c179 0 378 -94 378 -347c0 -259 -197 -353 -387 -353h-183zM547 344c0 171 -104 262 -281 262h-68v-512h29c191 0 320 62 320 250z" />
    <glyph glyph-name="E" unicode="E" horiz-adv-x="580" 
d="M518 0h-427v700h427v-94h-320v-198h320v-94h-320v-220h320v-94z" />
    <glyph glyph-name="F" unicode="F" horiz-adv-x="497" 
d="M454 295h-256v-295h-107v700h363v-94h-256v-217h256v-94z" />
    <glyph glyph-name="G" unicode="G" horiz-adv-x="801" 
d="M617 298h-176v94h283v-268c-69 -88 -175 -136 -291 -136c-214 0 -376 146 -376 362c0 206 169 362 376 362c110 0 207 -48 276 -127l-75 -64c-49 56 -121 96 -201 96c-152 0 -262 -113 -262 -267c0 -163 107 -267 262 -267c69 0 136 26 184 72v143z" />
    <glyph glyph-name="H" unicode="H" horiz-adv-x="749" 
d="M658 0h-107v314h-353v-314h-107v700h107v-292h353v292h107v-700z" />
    <glyph glyph-name="I" unicode="I" horiz-adv-x="289" 
d="M198 0h-107v700h107v-700z" />
    <glyph glyph-name="J" unicode="J" horiz-adv-x="342" 
d="M256 700v-521c0 -58 -11 -105 -35 -137c-27 -36 -69 -54 -134 -54c-35 0 -77 10 -109 24l31 87c20 -10 39 -16 63 -16c31 0 51 8 62 24c13 17 15 46 15 86v507h107z" />
    <glyph glyph-name="K" unicode="K" horiz-adv-x="626" 
d="M609 700l-234 -278l246 -422h-125l-194 336l-104 -124v-212h-107v700h107v-340l280 340h131z" />
    <glyph glyph-name="L" unicode="L" horiz-adv-x="503" 
d="M498 0h-407v700h107v-606h300v-94z" />
    <glyph glyph-name="M" unicode="M" horiz-adv-x="931" 
d="M733 572l-232 -572h-75l-228 572v-572h-107v700h166l207 -533l211 533h165v-700h-107v572z" />
    <glyph glyph-name="M.salt" horiz-adv-x="838" 
d="M453 155h-69l-188 382v-537h-105v700h137l190 -394h2l191 394h136v-700h-105v538z" />
    <glyph glyph-name="N" unicode="N" horiz-adv-x="753" 
d="M662 0h-95l-369 502v-502h-107v700h94l370 -502v502h107v-700z" />
    <glyph glyph-name="O" unicode="O" horiz-adv-x="838" 
d="M667 350c0 150 -104 267 -248 267s-248 -117 -248 -267s104 -267 248 -267s248 117 248 267zM781 350c0 -200 -157 -362 -362 -362s-362 162 -362 362s157 362 362 362s362 -162 362 -362z" />
    <glyph glyph-name="P" unicode="P" horiz-adv-x="583" 
d="M91 700h212c115 0 251 -57 251 -211c0 -156 -135 -213 -251 -213h-105v-276h-107v700zM198 606v-236h81c92 0 161 30 161 116c0 75 -58 120 -142 120h-100z" />
    <glyph glyph-name="Q" unicode="Q" horiz-adv-x="838" 
d="M770 2l-67 -67l-102 101c-53 -31 -115 -48 -182 -48c-205 0 -362 162 -362 362s157 362 362 362s362 -162 362 -362c0 -100 -39 -191 -104 -256zM499 271l104 -104c40 48 64 111 64 183c0 150 -104 267 -248 267s-248 -117 -248 -267s104 -267 248 -267c40 0 77 9 109 25
l-96 96z" />
    <glyph glyph-name="R" unicode="R" horiz-adv-x="618" 
d="M91 700h211c109 0 243 -57 243 -203c0 -117 -82 -177 -166 -197l220 -300h-134l-206 292h-61v-292h-107v700zM198 606v-220h80c88 0 153 32 153 108c0 67 -54 112 -134 112h-99z" />
    <glyph glyph-name="S" unicode="S" horiz-adv-x="609" 
d="M460 560c-34 31 -91 57 -146 57c-68 0 -117 -32 -117 -90c0 -59 65 -80 137 -105c99 -34 216 -79 216 -216c0 -156 -140 -218 -250 -218c-104 0 -182 34 -257 108l75 71c63 -63 112 -84 183 -84c68 0 135 33 135 113c0 73 -73 99 -151 126c-95 34 -195 81 -195 196
c0 132 100 194 214 194c86 0 156 -25 221 -75z" />
    <glyph glyph-name="T" unicode="T" horiz-adv-x="489" 
d="M472 606h-174v-606h-107v606h-174v94h455v-94z" />
    <glyph glyph-name="U" unicode="U" horiz-adv-x="721" 
d="M634 700v-371c0 -220 -82 -341 -276 -341c-190 0 -271 121 -271 341v371h107v-394c0 -150 64 -223 166 -223c104 0 167 73 167 223v394h107z" />
    <glyph glyph-name="V" unicode="V" horiz-adv-x="643" 
d="M638 700l-275 -700h-91l-267 700h124l194 -536h1l196 536h118z" />
    <glyph glyph-name="W" unicode="W" horiz-adv-x="900" 
d="M502 700l135 -509h2l140 509h116l-200 -700h-107l-137 515h-2l-147 -515h-104l-193 700h119l134 -509h2l141 509h101z" />
    <glyph glyph-name="X" unicode="X" horiz-adv-x="665" 
d="M656 700l-253 -345l258 -355h-137l-195 268l-190 -268h-135l257 355l-249 345h139l186 -260l185 260h134z" />
    <glyph glyph-name="Y" unicode="Y" horiz-adv-x="568" 
d="M335 0h-107v302l-223 398h133l148 -284h2l150 284h125l-228 -403v-297z" />
    <glyph glyph-name="Z" unicode="Z" horiz-adv-x="551" 
d="M507 643l-321 -549h346v-94h-494v57l322 549h-314v94h461v-57z" />
    <glyph glyph-name="a" unicode="a" horiz-adv-x="553" 
d="M478 0h-95l-3 51c-39 -45 -86 -63 -148 -63c-94 0 -180 48 -180 156c0 127 114 167 224 167c26 0 58 -3 99 -11v15c0 74 -34 117 -115 117c-58 0 -117 -22 -159 -45l-29 83c55 26 133 48 204 48c145 0 202 -80 202 -211v-307zM375 126v102c-35 7 -61 9 -86 9
c-59 0 -136 -16 -136 -88c0 -57 44 -79 94 -79c49 0 90 24 128 56z" />
    <glyph glyph-name="b" unicode="b" horiz-adv-x="630" 
d="M80 750h103v-309c36 51 101 77 159 77c143 0 248 -118 248 -266c0 -136 -100 -264 -250 -264c-58 0 -120 25 -160 69l-2 -57h-98v750zM183 335v-181c34 -48 90 -73 140 -73c110 0 162 90 162 173c0 90 -61 171 -160 171c-52 0 -116 -30 -142 -90z" />
    <glyph glyph-name="c" unicode="c" horiz-adv-x="484" 
d="M408 117l52 -76c-40 -34 -98 -53 -161 -53c-146 0 -259 106 -259 265c0 148 114 265 263 265c58 0 109 -17 152 -48l-50 -81c-29 22 -65 36 -102 36c-88 0 -158 -77 -158 -172c0 -103 74 -172 158 -172c34 0 77 14 105 36z" />
    <glyph glyph-name="d" unicode="d" horiz-adv-x="630" 
d="M550 750v-750h-98l-3 67c-36 -53 -102 -79 -161 -79c-143 0 -248 118 -248 266c0 136 100 264 250 264c57 0 117 -24 157 -66v298h103zM447 352c-34 48 -90 73 -140 73c-110 0 -162 -90 -162 -173c0 -90 61 -171 160 -171c52 0 116 30 142 90v181z" />
    <glyph glyph-name="e" unicode="e" horiz-adv-x="567" 
d="M144 227c7 -83 63 -152 153 -152c67 0 116 25 147 80l72 -47c-52 -82 -120 -120 -224 -120c-159 0 -252 115 -252 264c0 151 110 266 252 266c136 0 235 -100 235 -235c0 -18 -2 -41 -5 -56h-378zM420 306c-4 69 -55 126 -126 126c-78 0 -126 -55 -144 -126h270z" />
    <glyph glyph-name="f" unicode="f" horiz-adv-x="342" 
d="M374 738l-30 -84c-20 10 -40 15 -66 15s-42 -6 -54 -16c-20 -18 -23 -50 -23 -91v-56h135v-89h-135v-417h-103v417h-57v89h57v65c0 54 10 100 33 133c26 37 68 58 137 58c36 0 75 -10 106 -24z" />
    <glyph glyph-name="g" unicode="g" horiz-adv-x="625" 
d="M447 183v169c-34 48 -90 73 -140 73c-110 0 -162 -84 -162 -167c0 -90 61 -165 160 -165c52 0 116 30 142 90zM447 77c-36 -51 -101 -77 -159 -77c-143 0 -248 112 -248 260c0 136 100 258 250 258c58 0 120 -25 160 -69l2 57h98v-479c0 -53 -9 -97 -28 -133
c-45 -85 -133 -118 -227 -118c-78 0 -163 23 -227 68l40 87c49 -36 124 -62 184 -62c83 0 155 41 155 143v65z" />
    <glyph glyph-name="h" unicode="h" horiz-adv-x="609" 
d="M183 750v-322c38 57 98 90 162 90c67 0 114 -24 144 -64c35 -48 45 -115 45 -191v-263h-103v254c0 46 -2 97 -24 132c-15 24 -42 39 -83 39c-54 0 -108 -37 -141 -90v-335h-103v750h103z" />
    <glyph glyph-name="i" unicode="i" horiz-adv-x="263" 
d="M183 0h-103v506h103v-506zM183 598h-103v107h103v-107z" />
    <glyph glyph-name="j" unicode="j" horiz-adv-x="272" 
d="M191 598h-103v107h103v-107zM191 506v-549c0 -41 -4 -75 -18 -104c-21 -46 -64 -77 -137 -77c-37 0 -71 7 -100 22l29 83c15 -8 35 -14 57 -14c61 0 66 47 66 106v533h103z" />
    <glyph glyph-name="k" unicode="k" horiz-adv-x="524" 
d="M183 750v-486l2 -1l195 243h124l-179 -208l194 -298h-124l-138 218l-74 -86v-132h-103v750h103z" />
    <glyph glyph-name="l" unicode="l" horiz-adv-x="263" 
d="M183 750v-750h-103v750h103z" />
    <glyph glyph-name="m" unicode="m" horiz-adv-x="922" 
d="M847 0h-103v254c0 46 -1 97 -22 132c-15 24 -42 39 -82 39c-46 0 -96 -31 -130 -77c3 -26 5 -55 5 -85v-263h-103v254c0 46 -1 101 -25 136c-14 22 -38 35 -74 35c-48 0 -99 -40 -130 -82v-343h-103v506h98l2 -73c39 53 101 85 157 85c57 0 108 -22 139 -69
c5 -7 9 -15 12 -22c44 63 109 91 174 91s109 -23 138 -61c37 -48 47 -117 47 -194v-263z" />
    <glyph glyph-name="n" unicode="n" horiz-adv-x="609" 
d="M80 506h98l3 -80c38 59 99 92 164 92c67 0 114 -24 144 -64c35 -48 45 -115 45 -191v-263h-103v254c0 46 -2 97 -24 132c-15 24 -42 39 -83 39c-54 0 -108 -37 -141 -90v-335h-103v506z" />
    <glyph glyph-name="o" unicode="o" horiz-adv-x="600" 
d="M300 518c149 0 260 -117 260 -265s-111 -265 -260 -265c-150 0 -260 117 -260 265s110 265 260 265zM455 253c0 95 -65 172 -155 172s-155 -77 -155 -172c0 -94 65 -172 155 -172s155 78 155 172z" />
    <glyph glyph-name="p" unicode="p" horiz-adv-x="630" 
d="M80 506h98l3 -67c36 53 102 79 161 79c143 0 248 -118 248 -266c0 -136 -100 -264 -250 -264c-57 0 -117 24 -157 66v-304h-103v756zM183 335v-181c34 -48 90 -73 140 -73c110 0 162 90 162 173c0 90 -61 171 -160 171c-52 0 -116 -30 -142 -90z" />
    <glyph glyph-name="q" unicode="q" horiz-adv-x="630" 
d="M550 -250h-103v315c-36 -51 -101 -77 -159 -77c-143 0 -248 118 -248 266c0 136 100 264 250 264c58 0 120 -25 160 -69l2 57h98v-756zM447 171v181c-34 48 -90 73 -140 73c-110 0 -162 -90 -162 -173c0 -90 61 -171 160 -171c52 0 116 30 142 90z" />
    <glyph glyph-name="r" unicode="r" horiz-adv-x="361" 
d="M178 506l3 -79c30 53 75 91 128 91c22 0 39 -2 58 -7l-21 -104c-15 8 -29 11 -48 11c-49 0 -87 -29 -115 -78v-340h-103v506h98z" />
    <glyph glyph-name="s" unicode="s" horiz-adv-x="458" 
d="M394 460l-60 -65c-23 21 -64 39 -100 39c-41 0 -69 -24 -69 -60c0 -37 46 -55 93 -74c66 -26 148 -62 148 -152c0 -113 -90 -160 -186 -160c-72 0 -138 28 -182 81l68 59c35 -36 70 -55 113 -55c44 0 84 22 84 69c0 39 -46 57 -96 77c-66 27 -141 57 -141 147
c0 103 81 152 168 152c60 0 118 -20 160 -58z" />
    <glyph glyph-name="t" unicode="t" horiz-adv-x="354" 
d="M328 417h-139v-220c0 -13 0 -25 1 -40c3 -48 19 -76 64 -76c22 0 41 6 57 14l30 -81c-27 -15 -66 -24 -101 -24c-73 0 -119 34 -139 86c-11 28 -15 63 -15 100v241h-66v89h66l5 119h98v-119h139v-89z" />
    <glyph glyph-name="u" unicode="u" horiz-adv-x="609" 
d="M529 0h-98l-3 80c-38 -59 -99 -92 -164 -92c-67 0 -114 24 -144 64c-35 48 -45 115 -45 191v263h103v-254c0 -46 2 -97 24 -132c15 -24 42 -39 83 -39c54 0 108 37 141 90v335h103v-506z" />
    <glyph glyph-name="v" unicode="v" horiz-adv-x="492" 
d="M376 506h111l-200 -506h-88l-192 506h114l127 -375h2z" />
    <glyph glyph-name="w" unicode="w" horiz-adv-x="745" 
d="M427 506l98 -373h3l97 373h106l-147 -506h-109l-102 368h-2l-104 -368h-113l-140 506h111l90 -373h2l106 373h104z" />
    <glyph glyph-name="x" unicode="x" horiz-adv-x="516" 
d="M507 506l-184 -247l186 -259h-132l-121 180l-122 -180h-128l190 254l-178 252h131l116 -172l116 172h126z" />
    <glyph glyph-name="y" unicode="y" horiz-adv-x="490" 
d="M5 506h114l124 -364h2l128 364h112l-285 -735l-91 36l80 212z" />
    <glyph glyph-name="z" unicode="z" horiz-adv-x="461" 
d="M57 47l216 370h-227v89h364v-46l-217 -371h234v-89h-370v47z" />
    <glyph glyph-name="bracketleft" unicode="[" horiz-adv-x="316" 
d="M306 -168h-221v917h221v-86h-127v-746h127v-85z" />
    <glyph glyph-name="bracketright" unicode="]" horiz-adv-x="316" 
d="M231 -168h-221v85h127v746h-127v86h221v-917z" />
    <glyph glyph-name="parenleft" unicode="(" horiz-adv-x="352" 
d="M358 -101l-41 -73c-152 92 -271 238 -271 479c0 240 118 383 270 478l43 -73c-110 -72 -208 -196 -208 -405c0 -210 95 -335 207 -406z" />
    <glyph glyph-name="parenright" unicode=")" horiz-adv-x="352" 
d="M306 305c0 -241 -119 -387 -271 -479l-41 73c112 71 207 196 207 406c0 209 -98 333 -208 405l43 73c152 -95 270 -238 270 -478z" />
    <glyph glyph-name="braceleft" unicode="{" horiz-adv-x="319" 
d="M308 -92v-87c-16 -1 -25 -1 -35 -1c-111 0 -185 84 -185 201v108c0 64 -24 118 -80 129l2 88c57 13 78 71 78 140v74c0 117 74 201 185 201c10 0 19 0 35 -1v-87c-10 1 -18 2 -28 2c-73 0 -98 -64 -98 -141v-75c0 -66 -24 -124 -66 -157c42 -35 66 -92 66 -158v-96
c0 -78 25 -142 98 -142c10 0 18 1 28 2z" />
    <glyph glyph-name="braceright" unicode="}" horiz-adv-x="319" 
d="M10 -179v87c10 -1 18 -2 28 -2c73 0 98 64 98 142v96c0 66 24 123 66 158c-42 33 -66 91 -66 157v75c0 77 -25 141 -98 141c-10 0 -18 -1 -28 -2v87c16 1 25 1 35 1c111 0 185 -84 185 -201v-74c0 -69 21 -127 78 -140l2 -88c-56 -11 -80 -65 -80 -129v-108
c0 -117 -74 -201 -185 -201c-10 0 -19 0 -35 1z" />
    <glyph glyph-name="backslash" unicode="\" horiz-adv-x="373" 
d="M373 -23l-82 -32l-291 787l82 31z" />
    <glyph glyph-name="slash" unicode="/" horiz-adv-x="375" 
d="M375 731l-291 -786l-84 32l291 786z" />
    <glyph glyph-name="brokenbar" unicode="&#xa6;" horiz-adv-x="319" 
d="M205 -198h-90v380h90v-380zM205 370h-90v380h90v-380z" />
    <glyph glyph-name="bar" unicode="|" horiz-adv-x="319" 
d="M205 -170h-90v1028h90v-1028z" />
    <glyph glyph-name="section" unicode="&#xa7;" 
d="M452 657l-57 -69c-36 24 -82 39 -128 39c-43 0 -94 -19 -94 -67c0 -54 80 -73 161 -100c84 -28 170 -66 170 -167c0 -56 -37 -107 -94 -138c42 -24 72 -60 72 -119c0 -122 -98 -176 -216 -176c-84 0 -164 27 -221 79l61 71c48 -44 97 -64 158 -64c59 0 114 26 114 80
c0 49 -66 70 -129 88c-86 24 -200 56 -200 167c0 68 37 120 96 147c-41 26 -71 62 -71 121c0 109 95 163 196 163c67 0 128 -16 182 -55zM325 192c39 16 74 50 74 91c0 60 -83 78 -168 106c-48 -16 -77 -52 -77 -90c0 -65 85 -80 171 -107z" />
    <glyph glyph-name="copyright" unicode="&#xa9;" horiz-adv-x="799" 
d="M54 333c0 191 155 345 346 345s346 -154 346 -345s-155 -345 -346 -345s-346 154 -346 345zM134 333c0 -147 119 -268 266 -268s266 121 266 268c0 148 -119 268 -266 268s-266 -120 -266 -268zM517 489l-38 -61c-21 13 -48 22 -71 22c-65 0 -112 -49 -112 -117
c0 -76 46 -118 112 -118c24 0 51 8 75 26l41 -60c-34 -23 -72 -38 -114 -38c-109 0 -197 74 -197 190c0 107 88 189 197 189c39 0 75 -13 107 -33z" />
    <glyph glyph-name="registered" unicode="&#xae;" horiz-adv-x="575" 
d="M52 482c0 130 105 235 235 235c131 0 236 -105 236 -235c0 -129 -105 -234 -236 -234c-130 0 -235 105 -235 234zM399 362h-69l-61 88h-11v-88h-57v240h63c71 0 110 -22 110 -73c0 -32 -18 -58 -47 -69zM258 556v-59c35 0 57 4 57 29s-14 30 -57 30zM117 482
c0 -96 76 -173 171 -173c94 0 171 77 171 173s-77 174 -171 174c-95 0 -171 -78 -171 -174z" />
    <glyph glyph-name="trademark" unicode="&#x2122;" horiz-adv-x="980" 
d="M353 629h-98v-340h-81v340h-98v71h277v-71zM823 605l-129 -316h-68l-126 316v-316h-81v411h126l115 -299l118 299h126v-411h-81v316z" />
    <glyph glyph-name="trademark.salt" horiz-adv-x="881" 
d="M419 700h96l100 -210l101 210h94v-411h-80v265l-91 -183h-49l-90 182v-264h-81v411zM353 629h-98v-340h-81v340h-97v71h276v-71z" />
    <glyph glyph-name="ordfeminine" unicode="&#xaa;" horiz-adv-x="383" 
d="M250 588v8c-1 47 -23 72 -73 72c-38 0 -77 -14 -104 -29l-22 61c39 19 91 34 140 34c95 0 139 -53 139 -144v-204h-71l-4 32c-25 -29 -58 -40 -97 -40c-62 0 -122 35 -122 105c0 85 77 112 151 112c18 0 37 -2 63 -7zM250 537c-20 4 -35 6 -50 6c-37 0 -84 -11 -84 -55
c0 -35 27 -50 59 -50c29 0 52 14 75 33v66z" />
    <glyph glyph-name="ordmasculine" unicode="&#xba;" horiz-adv-x="410" 
d="M205 734c103 0 177 -78 177 -178s-74 -178 -177 -178c-102 0 -177 78 -177 178s75 178 177 178zM300 556c0 61 -39 109 -95 109s-95 -48 -95 -109s39 -109 95 -109s95 48 95 109z" />
    <glyph glyph-name="guillemotleft" unicode="&#xab;" horiz-adv-x="544" 
d="M286 331l149 154l52 -92l-127 -122l127 -121l-52 -92l-149 155v118zM57 331l149 154l52 -92l-127 -122l127 -121l-52 -92l-149 155v118z" />
    <glyph glyph-name="guillemotright" unicode="&#xbb;" horiz-adv-x="544" 
d="M109 476l149 -146v-118l-149 -146l-52 84l127 120l-127 122zM338 476l149 -146v-118l-149 -146l-52 84l127 120l-127 122z" />
    <glyph glyph-name="guilsinglleft" unicode="&#x2039;" horiz-adv-x="316" 
d="M57 331l149 154l52 -92l-127 -122l127 -121l-52 -92l-149 155v118z" />
    <glyph glyph-name="guilsinglright" unicode="&#x203a;" horiz-adv-x="316" 
d="M109 484l149 -154v-118l-149 -155l-52 93l127 120l-127 122z" />
    <glyph glyph-name="quoteleft" unicode="&#x2018;" horiz-adv-x="281" 
d="M223 700l-52 -256h-114l68 256h98z" />
    <glyph glyph-name="quoteright" unicode="&#x2019;" horiz-adv-x="281" 
d="M57 444l52 256h114l-68 -256h-98z" />
    <glyph glyph-name="quotesinglbase" unicode="&#x201a;" horiz-adv-x="281" 
d="M57 -132l52 256h114l-68 -256h-98z" />
    <glyph glyph-name="quotedblleft" unicode="&#x201c;" horiz-adv-x="532" 
d="M243 700l-52 -256h-114l68 256h98zM455 700l-52 -256h-114l68 256h98z" />
    <glyph glyph-name="quotedblright" unicode="&#x201d;" horiz-adv-x="532" 
d="M77 444l52 256h114l-68 -256h-98zM289 444l52 256h114l-68 -256h-98z" />
    <glyph glyph-name="quotedblbase" unicode="&#x201e;" horiz-adv-x="532" 
d="M77 -132l52 256h114l-68 -256h-98zM289 -132l52 256h114l-68 -256h-98z" />
    <glyph glyph-name="dagger" unicode="&#x2020;" horiz-adv-x="415" 
d="M168 138v161l3 162l-67 -3h-37v75h37l67 -3l-3 122v48h79v-48l-3 -122l67 3h37v-75h-37l-67 3l3 -162v-161h-79z" />
    <glyph glyph-name="daggerdbl" unicode="&#x2021;" horiz-adv-x="415" 
d="M67 425h37l67 -3l-1 22v46c0 14 1 26 1 40l-104 -2v74l104 -3l-3 101h79l-3 -101l104 3v-74l-104 2c0 -14 1 -26 1 -40v-46l-1 -22l67 3h37v-75l-104 2l3 -71v-143h-79v143l3 71l-104 -2v75z" />
    <glyph glyph-name="bullet" unicode="&#x2022;" horiz-adv-x="328" 
d="M35 289c0 71 58 129 129 129s129 -58 129 -129s-58 -129 -129 -129s-129 58 -129 129z" />
    <glyph glyph-name="periodcentered" unicode="&#xb7;" horiz-adv-x="250" 
d="M183 256h-117v124h117v-124z" />
    <glyph glyph-name="ellipsis" unicode="&#x2026;" horiz-adv-x="750" 
d="M433 0h-117v124h117v-124zM185 0h-117v124h117v-124zM683 0h-117v124h117v-124z" />
    <glyph glyph-name="paragraph" unicode="&#xb6;" 
d="M501 -175h-102v875h102v-875zM345 -175h-102v454c-103 14 -204 74 -204 210c0 154 135 211 250 211h56v-875zM140 489c0 -72 49 -109 103 -114v229c-54 -6 -103 -43 -103 -115z" />
    <glyph glyph-name="uni00AD" unicode="&#xad;" horiz-adv-x="457" 
d="M361 236h-265v91h265v-91z" />
    <glyph glyph-name="endash" unicode="&#x2013;" horiz-adv-x="600" 
d="M550 265h-500v92h500v-92z" />
    <glyph glyph-name="emdash" unicode="&#x2014;" horiz-adv-x="900" 
d="M850 265h-800v92h800v-92z" />
    <glyph glyph-name="hyphen.case" horiz-adv-x="457" 
d="M361 291h-265v91h265v-91z" />
    <glyph glyph-name="zero" unicode="0" horiz-adv-x="553" 
d="M276 676c153 0 239 -131 239 -344s-86 -344 -239 -344c-152 0 -238 131 -238 344s86 344 238 344zM276 582c-82 0 -130 -82 -130 -250c0 -167 48 -250 130 -250c83 0 131 83 131 250c0 168 -48 250 -131 250z" />
    <glyph glyph-name="one" unicode="1" horiz-adv-x="348" 
d="M257 0h-106v539c-30 -16 -71 -32 -98 -44v98c40 20 90 46 135 71h69v-664z" />
    <glyph glyph-name="two" unicode="2" horiz-adv-x="513" 
d="M485 92v-92h-428v90c77 81 170 183 232 273c26 38 58 90 58 135c0 55 -49 86 -100 86c-53 0 -98 -41 -98 -101l-105 20c8 105 108 173 206 173c106 0 205 -69 205 -178c0 -62 -32 -129 -70 -183c-55 -78 -121 -153 -186 -223h286z" />
    <glyph glyph-name="three" unicode="3" horiz-adv-x="523" 
d="M159 289v101c40 1 67 3 91 9c50 14 84 49 84 95c0 50 -42 89 -104 89c-47 0 -88 -25 -102 -70l-90 37c27 76 101 126 194 126c120 0 210 -69 210 -178c0 -59 -33 -114 -83 -141c68 -24 115 -88 115 -164c0 -129 -102 -205 -226 -205c-86 0 -175 39 -215 118l85 45
c26 -48 73 -70 125 -70c64 0 124 34 124 106c0 65 -60 109 -137 109c-20 0 -43 -1 -71 -7z" />
    <glyph glyph-name="four" unicode="4" horiz-adv-x="542" 
d="M424 0h-104v166h-295v105c84 109 201 270 291 393h108v-406h98v-92h-98v-166zM137 258h183v262c-56 -83 -139 -202 -183 -262z" />
    <glyph glyph-name="five" unicode="5" horiz-adv-x="503" 
d="M439 664v-92h-247c-3 -57 -6 -122 -12 -175c29 13 62 18 93 18c111 0 201 -89 201 -203c0 -128 -95 -224 -225 -224c-86 0 -176 44 -214 116l85 46c25 -47 71 -69 119 -69c80 0 127 57 127 126s-52 116 -125 116c-37 0 -71 -12 -98 -41l-74 43c10 98 18 245 23 339h347z
" />
    <glyph glyph-name="six" unicode="6" horiz-adv-x="539" 
d="M371 703l41 -91c-119 -53 -215 -123 -251 -245c37 37 85 56 141 56c118 0 199 -96 199 -213c0 -125 -90 -222 -216 -222c-155 0 -247 127 -247 267c0 213 151 374 333 448zM145 254c0 -89 36 -174 132 -174c72 0 117 58 117 129c0 72 -46 122 -115 122
c-55 0 -108 -29 -134 -77z" />
    <glyph glyph-name="seven" unicode="7" horiz-adv-x="458" 
d="M439 664v-73c-82 -171 -203 -442 -275 -615l-97 43c89 210 201 436 255 551h-312v94h429z" />
    <glyph glyph-name="eight" unicode="8" horiz-adv-x="562" 
d="M407 350c63 -35 102 -87 102 -166c0 -109 -92 -196 -228 -196c-135 0 -227 87 -227 196c0 79 39 131 101 166c-51 31 -81 74 -81 144c0 101 83 182 207 182c125 0 208 -81 208 -182c0 -70 -31 -113 -82 -144zM281 299c-67 0 -120 -49 -120 -110c0 -63 53 -109 120 -109
s121 46 121 109c0 61 -54 110 -121 110zM281 584c-57 0 -103 -39 -103 -96c0 -54 46 -97 103 -97c58 0 103 43 103 97c0 57 -45 96 -103 96z" />
    <glyph glyph-name="nine" unicode="9" horiz-adv-x="539" 
d="M168 -38l-41 90c118 52 215 124 251 245c-37 -36 -86 -55 -141 -55c-118 0 -199 95 -199 213c0 124 90 221 216 221c155 0 247 -126 247 -267c0 -213 -151 -373 -333 -447zM394 411c0 89 -36 173 -132 173c-72 0 -117 -57 -117 -128c0 -73 46 -123 115 -123
c54 0 108 29 134 78z" />
    <glyph glyph-name="dollar" unicode="$" 
d="M25 91l71 67c45 -45 99 -80 168 -80c70 0 137 32 137 109s-86 99 -170 130c-82 30 -163 70 -163 181c0 102 77 168 181 177v95h69v-97c59 -7 113 -30 166 -67l-63 -75c-38 34 -87 55 -144 55c-50 0 -108 -26 -108 -87c0 -63 84 -83 168 -114c85 -32 170 -75 170 -189
c0 -119 -88 -189 -195 -204v-98h-68v95c-84 3 -153 39 -219 102z" />
    <glyph glyph-name="Euro" unicode="&#x20ac;" horiz-adv-x="650" 
d="M11 371v79h89c45 140 170 226 323 226c67 0 138 -20 193 -54l-47 -81c-39 27 -95 43 -145 43c-103 0 -178 -50 -214 -134h264v-79h-285c-1 -13 -2 -26 -2 -39s0 -26 2 -38h285v-79h-265c36 -86 114 -134 215 -134c52 0 110 16 154 48l55 -76c-58 -41 -135 -65 -211 -65
c-153 0 -279 84 -323 227h-88v79h73c-1 12 -2 25 -2 38s1 26 2 39h-73z" />
    <glyph glyph-name="cent" unicode="&#xa2;" 
d="M439 177l52 -77c-35 -28 -81 -46 -133 -51v-88h-69v89c-126 18 -218 118 -218 263c0 132 91 240 218 261v90h69v-88c48 -4 91 -20 128 -46l-50 -81c-28 22 -65 36 -102 36c-88 0 -157 -77 -157 -172c0 -103 73 -172 157 -172c35 0 77 14 105 36z" />
    <glyph glyph-name="sterling" unicode="&#xa3;" 
d="M491 0h-413v94h56v218h-56v92h56v49c0 129 86 223 206 223c54 0 111 -14 153 -39l-43 -86c-26 23 -66 33 -103 33c-79 0 -110 -65 -110 -155v-25h133v-92h-133v-218h254v-94z" />
    <glyph glyph-name="yen" unicode="&#xa5;" 
d="M52 256v79h143l-184 329h120l146 -267h2l140 267h119l-187 -329h142v-79h-168v-62h168v-78h-169v-116h-103v116h-169v78h168v62h-168z" />
    <glyph glyph-name="florin" unicode="&#x192;" 
d="M401 404v-92h-130l-40 -354c-12 -109 -71 -167 -153 -167c-28 0 -57 5 -84 12l22 88c15 -5 32 -8 50 -8c48 0 57 35 64 95l38 334h-79v92h89l12 105c12 107 74 167 167 167c46 0 91 -12 134 -33l-39 -84c-24 16 -53 25 -84 25c-57 0 -70 -36 -77 -94l-10 -86h120z" />
    <glyph glyph-name="afii61352" unicode="&#x2116;" horiz-adv-x="1132" 
d="M663 0h-96l-369 502v-502h-107v700h94l370 -502v502h108v-700zM927 716c102 0 177 -78 177 -178s-75 -178 -177 -178c-103 0 -177 78 -177 178s74 178 177 178zM1022 538c0 61 -39 109 -95 109s-95 -48 -95 -109s39 -109 95 -109s95 48 95 109z" />
    <glyph glyph-name="currency" unicode="&#xa4;" 
d="M58 325c0 45 14 86 38 121l-54 54l58 58l54 -53c34 23 76 37 121 37c44 0 86 -14 121 -37l54 53l58 -58l-54 -54c24 -35 38 -76 38 -121s-14 -87 -38 -121l54 -53l-58 -58l-54 53c-35 -24 -77 -38 -121 -38c-45 0 -87 14 -121 38l-54 -53l-58 58l54 53
c-24 34 -38 76 -38 121zM143 325c0 -73 59 -132 132 -132s132 59 132 132s-59 132 -132 132s-132 -59 -132 -132z" />
    <glyph glyph-name="zero.lf" horiz-adv-x="553" 
d="M276 676c153 0 239 -131 239 -344s-86 -344 -239 -344c-152 0 -238 131 -238 344s86 344 238 344zM276 582c-82 0 -130 -82 -130 -250c0 -167 48 -250 130 -250c83 0 131 83 131 250c0 168 -48 250 -131 250z" />
    <glyph glyph-name="one.lf" horiz-adv-x="348" 
d="M257 0h-106v539c-30 -16 -71 -32 -98 -44v98c40 20 90 46 135 71h69v-664z" />
    <glyph glyph-name="two.lf" horiz-adv-x="513" 
d="M385 315c-55 -78 -121 -153 -186 -223h286v-92h-428v90c77 81 170 183 232 273c26 38 58 90 58 135c0 55 -49 86 -100 86c-53 0 -98 -41 -98 -101l-105 20c8 105 108 173 206 173c106 0 205 -69 205 -178c0 -62 -32 -129 -70 -183z" />
    <glyph glyph-name="three.lf" horiz-adv-x="523" 
d="M159 289v101c40 1 67 3 91 9c50 14 84 49 84 95c0 51 -42 90 -104 90c-47 0 -88 -25 -102 -71l-90 37c27 76 101 126 194 126c120 0 210 -69 210 -178c0 -59 -33 -114 -83 -141c68 -24 115 -88 115 -164c0 -129 -102 -205 -226 -205c-86 0 -175 39 -215 118l85 45
c26 -48 73 -70 125 -70c64 0 124 34 124 106c0 65 -60 109 -137 109c-20 0 -43 -1 -71 -7z" />
    <glyph glyph-name="four.lf" horiz-adv-x="542" 
d="M424 0h-104v166h-295v105c84 109 201 270 291 393h108v-406h98v-92h-98v-166zM137 258h183v262c-56 -83 -139 -202 -183 -262z" />
    <glyph glyph-name="five.lf" horiz-adv-x="503" 
d="M439 664v-92h-247c-3 -57 -6 -122 -12 -174c29 13 62 18 93 18c111 0 201 -90 201 -204c0 -128 -95 -224 -225 -224c-86 0 -176 44 -214 116l85 46c25 -47 71 -69 119 -69c80 0 127 57 127 126c0 70 -52 117 -125 117c-37 0 -71 -13 -98 -42l-74 44c10 97 18 244 23 338
h347z" />
    <glyph glyph-name="six.lf" horiz-adv-x="539" 
d="M371 703l41 -91c-119 -53 -215 -123 -251 -245c37 37 85 56 141 56c118 0 199 -96 199 -213c0 -125 -90 -222 -216 -222c-155 0 -247 127 -247 267c0 213 151 374 333 448zM279 331c-55 0 -108 -29 -134 -77c0 -89 36 -174 132 -174c72 0 117 58 117 129
c0 72 -46 122 -115 122z" />
    <glyph glyph-name="seven.lf" horiz-adv-x="458" 
d="M439 664v-73c-82 -171 -203 -442 -275 -615l-97 43c89 210 201 436 255 551h-312v94h429z" />
    <glyph glyph-name="eight.lf" horiz-adv-x="562" 
d="M281 -12c-135 0 -227 87 -227 196c0 79 39 131 101 166c-51 31 -81 74 -81 144c0 101 83 182 207 182c125 0 208 -81 208 -182c0 -70 -31 -113 -82 -144c63 -35 102 -87 102 -166c0 -109 -92 -196 -228 -196zM281 299c-67 0 -120 -49 -120 -110c0 -63 53 -109 120 -109
s121 46 121 109c0 61 -54 110 -121 110zM281 584c-57 0 -103 -39 -103 -96c0 -54 46 -97 103 -97c58 0 103 43 103 97c0 57 -45 96 -103 96z" />
    <glyph glyph-name="nine.lf" horiz-adv-x="539" 
d="M168 -38l-41 90c118 52 215 124 251 245c-37 -36 -86 -55 -141 -55c-118 0 -199 95 -199 213c0 124 90 221 216 221c155 0 247 -126 247 -267c0 -213 -151 -373 -333 -447zM260 333c54 0 108 29 134 78c0 89 -36 173 -132 173c-72 0 -117 -57 -117 -128
c0 -73 46 -123 115 -123z" />
    <glyph glyph-name="dollar.lf" 
d="M25 91l71 67c45 -45 99 -80 168 -80c70 0 137 32 137 109s-86 99 -170 130c-82 30 -163 70 -163 181c0 102 77 168 181 177v95h69v-97c59 -7 113 -30 166 -67l-63 -75c-38 34 -87 55 -144 55c-50 0 -108 -26 -108 -87c0 -63 84 -83 168 -114c85 -32 170 -75 170 -189
c0 -119 -88 -189 -195 -204v-98h-68v95c-84 3 -153 39 -219 102z" />
    <glyph glyph-name="Euro.lf" horiz-adv-x="650" 
d="M11 371v79h89c45 140 170 226 323 226c67 0 138 -20 193 -54l-47 -81c-39 27 -95 43 -145 43c-103 0 -178 -50 -214 -134h264v-79h-285c-1 -13 -2 -26 -2 -39s0 -26 2 -38h285v-79h-265c36 -86 114 -134 215 -134c52 0 110 16 154 48l55 -76c-58 -41 -135 -65 -211 -65
c-153 0 -279 84 -323 227h-88v79h73c-1 12 -2 25 -2 38s1 26 2 39h-73z" />
    <glyph glyph-name="cent.lf" 
d="M439 177l52 -77c-35 -28 -81 -46 -133 -51v-88h-69v89c-126 18 -218 118 -218 263c0 132 91 240 218 261v90h69v-88c48 -4 91 -20 128 -46l-50 -81c-28 22 -65 36 -102 36c-88 0 -157 -77 -157 -172c0 -103 73 -172 157 -172c35 0 77 14 105 36z" />
    <glyph glyph-name="sterling.lf" 
d="M491 0h-413v94h56v218h-56v92h56v49c0 129 86 223 206 223c54 0 111 -14 153 -39l-43 -86c-26 23 -66 33 -103 33c-79 0 -110 -65 -110 -155v-25h133v-92h-133v-218h254v-94z" />
    <glyph glyph-name="yen.lf" 
d="M52 256v79h143l-184 329h120l146 -267h2l140 267h119l-187 -329h142v-79h-168v-62h168v-78h-169v-116h-103v116h-169v78h168v62h-168z" />
    <glyph glyph-name="florin.lf" 
d="M401 404v-92h-130l-40 -354c-12 -109 -71 -167 -153 -167c-28 0 -57 5 -84 12l22 88c15 -5 32 -8 50 -8c48 0 57 35 64 95l38 334h-79v92h89l12 105c12 107 74 167 167 167c46 0 91 -12 134 -33l-39 -84c-24 16 -53 25 -84 25c-57 0 -70 -36 -77 -94l-10 -86h120z" />
    <glyph glyph-name="afii61352.lf" horiz-adv-x="1132" 
d="M663 0h-96l-369 502v-502h-107v700h94l370 -502v502h108v-700zM927 716c102 0 177 -78 177 -178s-75 -178 -177 -178c-103 0 -177 78 -177 178s74 178 177 178zM1022 538c0 61 -39 109 -95 109s-95 -48 -95 -109s39 -109 95 -109s95 48 95 109z" />
    <glyph glyph-name="percent.lf" horiz-adv-x="851" 
d="M219 706c91 0 164 -71 164 -162s-73 -162 -164 -162s-164 71 -164 162s73 162 164 162zM219 628c-46 0 -80 -35 -80 -84s34 -84 80 -84s80 35 80 84s-34 84 -80 84zM647 713l58 -43l-497 -683l-59 43zM632 318c91 0 164 -71 164 -162s-73 -162 -164 -162
s-164 71 -164 162s73 162 164 162zM632 240c-46 0 -80 -35 -80 -84s34 -84 80 -84s80 35 80 84s-34 84 -80 84z" />
    <glyph glyph-name="perthousand.lf" horiz-adv-x="1239" 
d="M219 706c91 0 164 -71 164 -162s-73 -162 -164 -162s-164 71 -164 162s73 162 164 162zM219 628c-46 0 -80 -35 -80 -84s34 -84 80 -84s80 35 80 84s-34 84 -80 84zM647 713l58 -43l-497 -683l-59 43zM632 318c91 0 164 -71 164 -162s-73 -162 -164 -162
s-164 71 -164 162s73 162 164 162zM632 240c-46 0 -80 -35 -80 -84s34 -84 80 -84s80 35 80 84s-34 84 -80 84zM1020 318c91 0 164 -71 164 -162s-73 -162 -164 -162s-164 71 -164 162s73 162 164 162zM1020 240c-46 0 -80 -35 -80 -84s34 -84 80 -84s80 35 80 84
s-34 84 -80 84z" />
    <glyph glyph-name="zero.osf" horiz-adv-x="616" 
d="M308 518c146 0 270 -117 270 -265c0 -149 -124 -265 -270 -265s-270 116 -270 265s124 265 270 265zM308 426c-92 0 -162 -73 -162 -173c0 -99 70 -172 162 -172s162 73 162 172c0 100 -70 173 -162 173z" />
    <glyph glyph-name="one.osf" horiz-adv-x="348" 
d="M257 0h-106v390c-30 -15 -71 -32 -98 -43v98c40 20 90 46 135 71h69v-516z" />
    <glyph glyph-name="two.osf" horiz-adv-x="512" 
d="M151 337l-103 21c11 97 90 160 191 160c107 0 192 -62 192 -163c0 -69 -45 -125 -105 -174c-39 -31 -87 -62 -131 -89h280v-92h-416v102c82 56 152 102 199 143c36 32 65 68 65 109c0 47 -34 72 -85 72c-48 0 -84 -33 -87 -89z" />
    <glyph glyph-name="three.osf" horiz-adv-x="523" 
d="M159 131v101c40 1 67 3 91 9c50 14 84 49 84 95c0 50 -42 89 -104 89c-47 0 -88 -25 -102 -70l-90 37c27 76 101 126 194 126c120 0 210 -69 210 -178c0 -59 -33 -114 -83 -141c68 -24 115 -88 115 -164c0 -129 -102 -205 -226 -205c-86 0 -175 39 -215 118l85 45
c26 -48 73 -70 125 -70c64 0 124 34 124 106c0 65 -60 109 -137 109c-20 0 -43 -1 -71 -7z" />
    <glyph glyph-name="four.osf" horiz-adv-x="553" 
d="M537 0h-91v-158h-103v158h-323v106c112 135 225 274 323 400h103v-414h91v-92zM133 92h210v263c-65 -86 -153 -196 -210 -263z" />
    <glyph glyph-name="five.osf" horiz-adv-x="503" 
d="M439 506v-92h-247c-3 -57 -6 -122 -12 -175c29 13 62 18 93 18c111 0 201 -89 201 -203c0 -128 -95 -224 -225 -224c-86 0 -176 44 -214 116l85 46c25 -47 71 -69 119 -69c80 0 127 57 127 126s-52 116 -125 116c-37 0 -71 -12 -98 -41l-74 43c10 98 18 245 23 339h347z
" />
    <glyph glyph-name="six.osf" horiz-adv-x="539" 
d="M371 703l41 -91c-119 -53 -215 -123 -251 -245c37 37 85 56 141 56c118 0 199 -96 199 -213c0 -125 -90 -222 -216 -222c-155 0 -247 127 -247 267c0 213 151 374 333 448zM145 254c0 -89 36 -174 132 -174c72 0 117 58 117 129c0 72 -46 122 -115 122
c-55 0 -108 -29 -134 -77z" />
    <glyph glyph-name="seven.osf" horiz-adv-x="458" 
d="M439 506v-73c-82 -171 -203 -442 -275 -615l-97 43c89 210 201 436 255 551h-312v94h429z" />
    <glyph glyph-name="eight.osf" horiz-adv-x="562" 
d="M407 350c63 -35 102 -87 102 -166c0 -109 -92 -196 -228 -196c-135 0 -227 87 -227 196c0 79 39 131 101 166c-51 31 -81 74 -81 144c0 101 83 182 207 182c125 0 208 -81 208 -182c0 -70 -31 -113 -82 -144zM281 299c-67 0 -120 -49 -120 -110c0 -63 53 -109 120 -109
s121 46 121 109c0 61 -54 110 -121 110zM281 584c-57 0 -103 -39 -103 -96c0 -54 46 -97 103 -97c58 0 103 43 103 97c0 57 -45 96 -103 96z" />
    <glyph glyph-name="nine.osf" horiz-adv-x="539" 
d="M168 -196l-41 90c118 52 215 124 251 245c-37 -36 -86 -55 -141 -55c-118 0 -199 95 -199 213c0 124 90 221 216 221c155 0 247 -126 247 -267c0 -213 -151 -373 -333 -447zM394 253c0 89 -36 173 -132 173c-72 0 -117 -57 -117 -128c0 -73 46 -123 115 -123
c54 0 108 29 134 78z" />
    <glyph glyph-name="dollar.osf" 
d="M25 91l71 67c45 -45 99 -80 168 -80c70 0 137 32 137 109s-86 99 -170 130c-82 30 -163 70 -163 181c0 102 77 168 181 177v95h69v-97c59 -7 113 -30 166 -67l-63 -75c-38 34 -87 55 -144 55c-50 0 -108 -26 -108 -87c0 -63 84 -83 168 -114c85 -32 170 -75 170 -189
c0 -119 -88 -189 -195 -204v-98h-68v95c-84 3 -153 39 -219 102z" />
    <glyph glyph-name="Euro.osf" horiz-adv-x="650" 
d="M11 371v79h89c45 140 170 226 323 226c67 0 138 -20 193 -54l-47 -81c-39 27 -95 43 -145 43c-103 0 -178 -50 -214 -134h264v-79h-285c-1 -13 -2 -26 -2 -39s0 -26 2 -38h285v-79h-265c36 -86 114 -134 215 -134c52 0 110 16 154 48l55 -76c-58 -41 -135 -65 -211 -65
c-153 0 -279 84 -323 227h-88v79h73c-1 12 -2 25 -2 38s1 26 2 39h-73z" />
    <glyph glyph-name="cent.osf" 
d="M439 177l52 -77c-35 -28 -81 -46 -133 -51v-88h-69v89c-126 18 -218 118 -218 263c0 132 91 240 218 261v90h69v-88c48 -4 91 -20 128 -46l-50 -81c-28 22 -65 36 -102 36c-88 0 -157 -77 -157 -172c0 -103 73 -172 157 -172c35 0 77 14 105 36z" />
    <glyph glyph-name="sterling.osf" 
d="M491 0h-413v94h56v218h-56v92h56v48c0 130 86 224 206 224c54 0 111 -14 153 -40l-43 -85c-26 23 -66 32 -103 32c-79 0 -110 -65 -110 -154v-25h133v-92h-133v-218h254v-94z" />
    <glyph glyph-name="yen.osf" 
d="M52 267v68h143l-184 329h120l146 -267h2l140 267h119l-187 -329h143v-68h-169v-55h169v-68h-170v-144h-103v144h-169v68h168v55h-168z" />
    <glyph glyph-name="florin.osf" 
d="M401 404v-92h-130l-40 -354c-12 -109 -71 -167 -153 -167c-28 0 -57 5 -84 12l22 88c15 -5 32 -8 50 -8c48 0 57 35 64 95l38 334h-79v92h89l12 105c12 107 74 167 167 167c46 0 91 -12 134 -33l-39 -84c-24 16 -53 25 -84 25c-57 0 -70 -36 -77 -94l-10 -86h120z" />
    <glyph glyph-name="afii61352.osf" horiz-adv-x="1132" 
d="M663 0h-96l-369 502v-502h-107v700h94l370 -502v502h108v-700zM927 716c102 0 177 -78 177 -178s-75 -178 -177 -178c-103 0 -177 78 -177 178s74 178 177 178zM1022 538c0 61 -39 109 -95 109s-95 -48 -95 -109s39 -109 95 -109s95 48 95 109z" />
    <glyph glyph-name="percent.osf" horiz-adv-x="851" 
d="M219 706c91 0 164 -71 164 -162s-73 -162 -164 -162s-164 71 -164 162s73 162 164 162zM219 628c-46 0 -80 -35 -80 -84s34 -84 80 -84s80 35 80 84s-34 84 -80 84zM647 713l58 -43l-497 -683l-59 43zM632 318c91 0 164 -71 164 -162s-73 -162 -164 -162
s-164 71 -164 162s73 162 164 162zM632 240c-46 0 -80 -35 -80 -84s34 -84 80 -84s80 35 80 84s-34 84 -80 84z" />
    <glyph glyph-name="perthousand.osf" horiz-adv-x="1239" 
d="M219 706c91 0 164 -71 164 -162s-73 -162 -164 -162s-164 71 -164 162s73 162 164 162zM219 628c-46 0 -80 -35 -80 -84s34 -84 80 -84s80 35 80 84s-34 84 -80 84zM647 713l58 -43l-497 -683l-59 43zM632 318c91 0 164 -71 164 -162s-73 -162 -164 -162
s-164 71 -164 162s73 162 164 162zM632 240c-46 0 -80 -35 -80 -84s34 -84 80 -84s80 35 80 84s-34 84 -80 84zM1020 318c91 0 164 -71 164 -162s-73 -162 -164 -162s-164 71 -164 162s73 162 164 162zM1020 240c-46 0 -80 -35 -80 -84s34 -84 80 -84s80 35 80 84
s-34 84 -80 84z" />
    <glyph glyph-name="zero.slash" 
d="M275 676c152 0 238 -131 238 -344s-86 -344 -238 -344s-238 131 -238 344s86 344 238 344zM275 82c76 0 121 69 129 208h-258c7 -139 53 -208 129 -208zM275 582c-76 0 -122 -68 -129 -207h258c-8 139 -54 207 -129 207z" />
    <glyph glyph-name="zero.tf" 
d="M275 676c153 0 239 -131 239 -344s-86 -344 -239 -344c-152 0 -238 131 -238 344s86 344 238 344zM275 582c-82 0 -130 -82 -130 -250c0 -167 48 -250 130 -250c83 0 131 83 131 250c0 168 -48 250 -131 250z" />
    <glyph glyph-name="one.tf" 
d="M109 93h152v458c-44 -22 -114 -54 -171 -78v99c64 30 138 66 200 98h77v-577h140v-93h-398v93z" />
    <glyph glyph-name="two.tf" 
d="M495 92v-92h-428v90c77 81 170 183 232 273c26 38 58 90 58 135c0 55 -49 86 -100 86c-53 0 -98 -41 -98 -101l-105 20c8 105 108 173 206 173c106 0 205 -69 205 -178c0 -62 -32 -129 -70 -183c-55 -78 -121 -153 -186 -223h286z" />
    <glyph glyph-name="three.tf" 
d="M169 289v101c40 1 67 3 91 9c50 14 84 49 84 95c0 50 -42 89 -104 89c-47 0 -88 -25 -102 -70l-90 37c27 76 101 126 194 126c120 0 210 -69 210 -178c0 -59 -33 -114 -83 -141c68 -24 115 -88 115 -164c0 -129 -102 -205 -226 -205c-86 0 -175 39 -215 118l85 45
c26 -48 73 -70 125 -70c64 0 124 34 124 106c0 65 -60 109 -137 109c-20 0 -43 -1 -71 -7z" />
    <glyph glyph-name="four.tf" 
d="M422 0h-104v166h-295v105c84 109 201 270 291 393h108v-406h98v-92h-98v-166zM135 258h183v262c-56 -83 -139 -202 -183 -262z" />
    <glyph glyph-name="five.tf" 
d="M457 664v-92h-247c-3 -57 -6 -122 -12 -175c29 13 62 18 93 18c111 0 201 -89 201 -203c0 -128 -95 -224 -225 -224c-86 0 -176 44 -214 116l85 46c25 -47 71 -69 119 -69c80 0 127 57 127 126s-52 116 -125 116c-37 0 -71 -12 -98 -41l-74 43c10 98 18 245 23 339h347z
" />
    <glyph glyph-name="six.tf" 
d="M376 703l41 -91c-119 -53 -215 -123 -251 -245c37 37 85 56 141 56c118 0 199 -96 199 -213c0 -125 -90 -222 -216 -222c-155 0 -247 127 -247 267c0 213 151 374 333 448zM150 254c0 -89 36 -174 132 -174c72 0 117 58 117 129c0 72 -46 122 -115 122
c-55 0 -108 -29 -134 -77z" />
    <glyph glyph-name="seven.tf" 
d="M483 664v-73c-82 -171 -203 -442 -275 -615l-97 43c89 210 201 436 255 551h-312v94h429z" />
    <glyph glyph-name="eight.tf" 
d="M401 350c63 -35 102 -87 102 -166c0 -109 -92 -196 -228 -196c-135 0 -227 87 -227 196c0 79 39 131 101 166c-51 31 -81 74 -81 144c0 101 83 182 207 182c125 0 208 -81 208 -182c0 -70 -31 -113 -82 -144zM275 299c-67 0 -120 -49 -120 -110c0 -63 53 -109 120 -109
s121 46 121 109c0 61 -54 110 -121 110zM275 584c-57 0 -103 -39 -103 -96c0 -54 46 -97 103 -97c58 0 103 43 103 97c0 57 -45 96 -103 96z" />
    <glyph glyph-name="nine.tf" 
d="M174 -38l-41 90c118 52 215 124 251 245c-37 -36 -86 -55 -141 -55c-118 0 -199 95 -199 213c0 124 90 221 216 221c155 0 247 -126 247 -267c0 -213 -151 -373 -333 -447zM400 411c0 89 -36 173 -132 173c-72 0 -117 -57 -117 -128c0 -73 46 -123 115 -123
c54 0 108 29 134 78z" />
    <glyph glyph-name="dollar.tf" 
d="M25 91l71 67c45 -45 99 -80 168 -80c70 0 137 32 137 109s-86 99 -170 130c-82 30 -163 70 -163 181c0 102 77 168 181 177v95h69v-97c59 -7 113 -30 166 -67l-63 -75c-38 34 -87 55 -144 55c-50 0 -108 -26 -108 -87c0 -63 84 -83 168 -114c85 -32 170 -75 170 -189
c0 -119 -88 -189 -195 -204v-98h-68v95c-84 3 -153 39 -219 102z" />
    <glyph glyph-name="Euro.tf" 
d="M19 371v79h79c27 141 103 226 227 226c94 0 166 -51 201 -141l-92 -33c-22 52 -60 80 -108 80c-63 0 -103 -45 -121 -132h168v-79h-177c-1 -13 -1 -26 -1 -39s0 -27 1 -38h177v-79h-169c18 -88 59 -133 122 -133c56 0 98 39 118 110l95 -28c-35 -112 -107 -176 -214 -176
c-123 0 -201 85 -228 227h-78v79h69c-1 12 -1 25 -1 38s0 26 1 39h-69z" />
    <glyph glyph-name="cent.tf" 
d="M439 177l52 -77c-35 -28 -81 -46 -133 -51v-88h-69v89c-126 18 -218 118 -218 263c0 132 91 240 218 261v90h69v-88c48 -4 91 -20 128 -46l-50 -81c-28 22 -65 36 -102 36c-88 0 -157 -77 -157 -172c0 -103 73 -172 157 -172c35 0 77 14 105 36z" />
    <glyph glyph-name="sterling.tf" 
d="M491 0h-413v94h56v218h-56v92h56v49c0 129 86 223 206 223c54 0 111 -14 153 -39l-43 -86c-26 23 -66 33 -103 33c-79 0 -110 -65 -110 -155v-25h133v-92h-133v-218h254v-94z" />
    <glyph glyph-name="yen.tf" 
d="M52 256v79h143l-184 329h120l146 -267h2l140 267h119l-187 -329h142v-79h-168v-62h168v-78h-169v-116h-103v116h-169v78h168v62h-168z" />
    <glyph glyph-name="florin.tf" 
d="M401 404v-92h-130l-40 -354c-12 -109 -71 -167 -153 -167c-28 0 -57 5 -84 12l22 88c15 -5 32 -8 50 -8c48 0 57 35 64 95l38 334h-79v92h89l12 105c12 107 74 167 167 167c46 0 91 -12 134 -33l-39 -84c-24 16 -53 25 -84 25c-57 0 -70 -36 -77 -94l-10 -86h120z" />
    <glyph glyph-name="afii61352.tf" horiz-adv-x="1132" 
d="M663 0h-96l-369 502v-502h-107v700h94l370 -502v502h108v-700zM927 716c102 0 177 -78 177 -178s-75 -178 -177 -178c-103 0 -177 78 -177 178s74 178 177 178zM1022 538c0 61 -39 109 -95 109s-95 -48 -95 -109s39 -109 95 -109s95 48 95 109z" />
    <glyph glyph-name="percent.tf" horiz-adv-x="851" 
d="M219 706c91 0 164 -71 164 -162s-73 -162 -164 -162s-164 71 -164 162s73 162 164 162zM219 628c-46 0 -80 -35 -80 -84s34 -84 80 -84s80 35 80 84s-34 84 -80 84zM647 713l58 -43l-497 -683l-59 43zM632 318c91 0 164 -71 164 -162s-73 -162 -164 -162
s-164 71 -164 162s73 162 164 162zM632 240c-46 0 -80 -35 -80 -84s34 -84 80 -84s80 35 80 84s-34 84 -80 84z" />
    <glyph glyph-name="perthousand.tf" horiz-adv-x="1239" 
d="M219 706c91 0 164 -71 164 -162s-73 -162 -164 -162s-164 71 -164 162s73 162 164 162zM219 628c-46 0 -80 -35 -80 -84s34 -84 80 -84s80 35 80 84s-34 84 -80 84zM647 713l58 -43l-497 -683l-59 43zM632 318c91 0 164 -71 164 -162s-73 -162 -164 -162
s-164 71 -164 162s73 162 164 162zM632 240c-46 0 -80 -35 -80 -84s34 -84 80 -84s80 35 80 84s-34 84 -80 84zM1020 318c91 0 164 -71 164 -162s-73 -162 -164 -162s-164 71 -164 162s73 162 164 162zM1020 240c-46 0 -80 -35 -80 -84s34 -84 80 -84s80 35 80 84
s-34 84 -80 84z" />
    <glyph glyph-name="zeroslash.tosf" 
d="M275 518c147 0 242 -117 242 -265s-95 -265 -242 -265s-242 117 -242 265s95 265 242 265zM275 81c76 0 120 47 131 130h-263c11 -83 55 -130 132 -130zM275 426c-76 0 -121 -48 -132 -130h263c-11 82 -55 130 -131 130z" />
    <glyph glyph-name="zero.tosf" 
d="M275 518c147 0 242 -117 242 -265s-95 -265 -242 -265s-242 117 -242 265s95 265 242 265zM275 426c-88 0 -135 -65 -135 -173s47 -172 135 -172s135 64 135 172s-47 173 -135 173z" />
    <glyph glyph-name="one.tosf" 
d="M109 93h152v304c-43 -21 -115 -54 -171 -78v100c64 29 139 65 200 97h77v-423h140v-93h-398v93z" />
    <glyph glyph-name="two.tosf" 
d="M170 337l-103 21c11 97 90 160 191 160c107 0 192 -62 192 -163c0 -69 -45 -125 -105 -174c-39 -31 -87 -62 -131 -89h280v-92h-416v102c82 56 152 102 199 143c36 32 65 68 65 109c0 47 -34 72 -85 72c-48 0 -84 -33 -87 -89z" />
    <glyph glyph-name="three.tosf" 
d="M169 131v101c40 1 67 3 91 9c50 14 84 49 84 95c0 50 -42 89 -104 89c-47 0 -88 -25 -102 -70l-90 37c27 76 101 126 194 126c120 0 210 -69 210 -178c0 -59 -33 -114 -83 -141c68 -24 115 -88 115 -164c0 -129 -102 -205 -226 -205c-86 0 -175 39 -215 118l85 45
c26 -48 73 -70 125 -70c64 0 124 34 124 106c0 65 -60 109 -137 109c-20 0 -43 -1 -71 -7z" />
    <glyph glyph-name="four.tosf" 
d="M533 0h-91v-158h-104v158h-323v106c112 135 225 274 324 400h103v-414h91v-92zM128 92h210v263c-64 -86 -153 -196 -210 -263z" />
    <glyph glyph-name="five.tosf" 
d="M457 506v-92h-247c-3 -57 -6 -122 -12 -175c29 13 62 18 93 18c111 0 201 -89 201 -203c0 -128 -95 -224 -225 -224c-86 0 -176 44 -214 116l85 46c25 -47 71 -69 119 -69c80 0 127 57 127 126s-52 116 -125 116c-37 0 -71 -12 -98 -41l-74 43c10 98 18 245 23 339h347z
" />
    <glyph glyph-name="six.tosf" 
d="M376 703l41 -91c-119 -53 -215 -123 -251 -245c37 37 85 56 141 56c118 0 199 -96 199 -213c0 -125 -90 -222 -216 -222c-155 0 -247 127 -247 267c0 213 151 374 333 448zM150 254c0 -89 36 -174 132 -174c72 0 117 58 117 129c0 72 -46 122 -115 122
c-55 0 -108 -29 -134 -77z" />
    <glyph glyph-name="seven.tosf" 
d="M483 506v-73c-82 -171 -203 -442 -275 -615l-97 43c89 210 201 436 255 551h-312v94h429z" />
    <glyph glyph-name="eight.tosf" 
d="M401 350c63 -35 102 -87 102 -166c0 -109 -92 -196 -228 -196c-135 0 -227 87 -227 196c0 79 39 131 101 166c-51 31 -81 74 -81 144c0 101 83 182 207 182c125 0 208 -81 208 -182c0 -70 -31 -113 -82 -144zM275 299c-67 0 -120 -49 -120 -110c0 -63 53 -109 120 -109
s121 46 121 109c0 61 -54 110 -121 110zM275 584c-57 0 -103 -39 -103 -96c0 -54 46 -97 103 -97c58 0 103 43 103 97c0 57 -45 96 -103 96z" />
    <glyph glyph-name="nine.tosf" 
d="M174 -196l-41 90c118 52 215 124 251 245c-37 -36 -86 -55 -141 -55c-118 0 -199 95 -199 213c0 124 90 221 216 221c155 0 247 -126 247 -267c0 -213 -151 -373 -333 -447zM400 253c0 89 -36 173 -132 173c-72 0 -117 -57 -117 -128c0 -73 46 -123 115 -123
c54 0 108 29 134 78z" />
    <glyph glyph-name="dollar.tosf" 
d="M25 91l71 67c45 -45 99 -80 168 -80c70 0 137 32 137 109s-86 99 -170 130c-82 30 -163 70 -163 181c0 102 77 168 181 177v95h69v-97c59 -7 113 -30 166 -67l-63 -75c-38 34 -87 55 -144 55c-50 0 -108 -26 -108 -87c0 -63 84 -83 168 -114c85 -32 170 -75 170 -189
c0 -119 -88 -189 -195 -204v-98h-68v95c-84 3 -153 39 -219 102z" />
    <glyph glyph-name="Euro.tosf" 
d="M19 371v79h79c27 141 103 226 227 226c94 0 166 -51 201 -141l-92 -33c-22 52 -60 80 -108 80c-63 0 -103 -45 -121 -132h168v-79h-177c-1 -13 -1 -26 -1 -39s0 -27 1 -38h177v-79h-169c18 -88 59 -133 122 -133c56 0 98 39 118 110l95 -28c-35 -112 -107 -176 -214 -176
c-123 0 -201 85 -228 227h-78v79h69c-1 12 -1 25 -1 38s0 26 1 39h-69z" />
    <glyph glyph-name="cent.tosf" 
d="M439 177l52 -77c-35 -28 -81 -46 -133 -51v-88h-69v89c-126 18 -218 118 -218 263c0 132 91 240 218 261v90h69v-88c48 -4 91 -20 128 -46l-50 -81c-28 22 -65 36 -102 36c-88 0 -157 -77 -157 -172c0 -103 73 -172 157 -172c35 0 77 14 105 36z" />
    <glyph glyph-name="sterling.tosf" 
d="M491 0h-413v94h56v218h-56v92h56v49c0 129 86 223 206 223c54 0 111 -14 153 -39l-43 -86c-26 23 -66 33 -103 33c-79 0 -110 -65 -110 -155v-25h133v-92h-133v-218h254v-94z" />
    <glyph glyph-name="yen.tosf" 
d="M52 256v79h143l-184 329h120l146 -267h2l140 267h119l-187 -329h142v-79h-168v-62h168v-78h-169v-116h-103v116h-169v78h168v62h-168z" />
    <glyph glyph-name="florin.tosf" 
d="M401 404v-92h-130l-40 -354c-12 -109 -71 -167 -153 -167c-28 0 -57 5 -84 12l22 88c15 -5 32 -8 50 -8c48 0 57 35 64 95l38 334h-79v92h89l12 105c12 107 74 167 167 167c46 0 91 -12 134 -33l-39 -84c-24 16 -53 25 -84 25c-57 0 -70 -36 -77 -94l-10 -86h120z" />
    <glyph glyph-name="afii61352.tosf" horiz-adv-x="1132" 
d="M663 0h-96l-369 502v-502h-107v700h94l370 -502v502h108v-700zM927 716c102 0 177 -78 177 -178s-75 -178 -177 -178c-103 0 -177 78 -177 178s74 178 177 178zM1022 538c0 61 -39 109 -95 109s-95 -48 -95 -109s39 -109 95 -109s95 48 95 109z" />
    <glyph glyph-name="percent.tosf" horiz-adv-x="851" 
d="M219 706c91 0 164 -71 164 -162s-73 -162 -164 -162s-164 71 -164 162s73 162 164 162zM219 628c-46 0 -80 -35 -80 -84s34 -84 80 -84s80 35 80 84s-34 84 -80 84zM647 713l58 -43l-497 -683l-59 43zM632 318c91 0 164 -71 164 -162s-73 -162 -164 -162
s-164 71 -164 162s73 162 164 162zM632 240c-46 0 -80 -35 -80 -84s34 -84 80 -84s80 35 80 84s-34 84 -80 84z" />
    <glyph glyph-name="perthousand.tosf" horiz-adv-x="1239" 
d="M219 706c91 0 164 -71 164 -162s-73 -162 -164 -162s-164 71 -164 162s73 162 164 162zM219 628c-46 0 -80 -35 -80 -84s34 -84 80 -84s80 35 80 84s-34 84 -80 84zM647 713l58 -43l-497 -683l-59 43zM632 318c91 0 164 -71 164 -162s-73 -162 -164 -162
s-164 71 -164 162s73 162 164 162zM632 240c-46 0 -80 -35 -80 -84s34 -84 80 -84s80 35 80 84s-34 84 -80 84zM1020 318c91 0 164 -71 164 -162s-73 -162 -164 -162s-164 71 -164 162s73 162 164 162zM1020 240c-46 0 -80 -35 -80 -84s34 -84 80 -84s80 35 80 84
s-34 84 -80 84z" />
    <glyph glyph-name="Agrave" unicode="&#xc0;" horiz-adv-x="662" 
d="M523 0l-52 144h-287l-52 -144h-118l275 700h91l267 -700h-124zM328 537l-109 -299h218l-108 299h-1zM353 738l-177 127l58 73l166 -139z" />
    <glyph glyph-name="Aacute" unicode="&#xc1;" horiz-adv-x="662" 
d="M523 0l-52 144h-287l-52 -144h-118l275 700h91l267 -700h-124zM328 537l-109 -299h218l-108 299h-1zM486 865l-177 -127l-47 61l166 139z" />
    <glyph glyph-name="Acircumflex" unicode="&#xc2;" horiz-adv-x="662" 
d="M523 0l-52 144h-287l-52 -144h-118l275 700h91l267 -700h-124zM328 537l-109 -299h218l-108 299h-1zM279 921h111l108 -132l-61 -47l-103 109l-105 -109l-61 47z" />
    <glyph glyph-name="Atilde" unicode="&#xc3;" horiz-adv-x="662" 
d="M523 0l-52 144h-287l-52 -144h-118l275 700h91l267 -700h-124zM328 537l-109 -299h218l-108 299h-1zM452 874l69 7c2 -8 3 -19 3 -30c0 -59 -42 -97 -102 -97c-68 0 -105 61 -147 61c-17 0 -30 -10 -31 -28c0 -4 0 -7 1 -10l-69 -7c-2 8 -3 19 -3 30c0 59 42 97 102 97
c67 0 107 -61 147 -61c17 0 31 10 31 28c0 3 0 7 -1 10z" />
    <glyph glyph-name="Adieresis" unicode="&#xc4;" horiz-adv-x="662" 
d="M523 0l-52 144h-287l-52 -144h-118l275 700h91l267 -700h-124zM328 537l-109 -299h218l-108 299h-1zM255 763h-113v114h113v-114zM526 763h-113v114h113v-114z" />
    <glyph glyph-name="Aring" unicode="&#xc5;" horiz-adv-x="662" 
d="M523 0l-52 144h-287l-52 -144h-118l275 700h91l267 -700h-124zM328 537l-109 -299h218l-108 299h-1zM238 822c0 54 44 98 98 98s98 -44 98 -98s-44 -98 -98 -98s-98 44 -98 98zM292 822c0 -24 20 -44 44 -44s44 20 44 44s-20 44 -44 44s-44 -20 -44 -44z" />
    <glyph glyph-name="Aringacute" unicode="&#x1fa;" horiz-adv-x="662" 
d="M487 1034l-183 -109l-39 60l176 122zM238 812c0 54 44 98 98 98s98 -44 98 -98s-44 -98 -98 -98s-98 44 -98 98zM292 812c0 -24 20 -44 44 -44s44 20 44 44s-20 44 -44 44s-44 -20 -44 -44zM523 0l-52 144h-287l-52 -144h-118l275 700h91l267 -700h-124zM328 537
l-109 -299h218l-108 299h-1z" />
    <glyph glyph-name="AE" unicode="&#xc6;" horiz-adv-x="992" 
d="M929 0h-427v145h-276l-101 -145h-135l513 700h426v-94h-319v-198h319v-94h-319v-220h319v-94zM290 238h212v303z" />
    <glyph glyph-name="AEacute" unicode="&#x1fc;" horiz-adv-x="992" 
d="M929 0h-427v145h-276l-101 -145h-135l513 700h426v-94h-319v-198h319v-94h-319v-220h319v-94zM290 238h212v303zM739 865l-177 -127l-47 61l166 139z" />
    <glyph glyph-name="Ccedilla" unicode="&#xc7;" horiz-adv-x="674" 
d="M171 350c0 -163 106 -267 262 -267c54 0 106 18 153 52l58 -79c-62 -44 -135 -68 -213 -68c-19 0 -38 1 -56 4l-23 -56l2 -1c10 9 26 16 48 16c52 0 88 -42 88 -95c0 -54 -47 -104 -110 -104c-47 0 -83 21 -106 62l60 29c8 -24 26 -32 44 -32c25 0 42 20 42 42
c0 23 -15 46 -41 46c-16 0 -31 -6 -41 -23l-64 34l43 93c-152 42 -260 170 -260 347c0 206 169 362 376 362c71 0 136 -21 194 -58l-51 -82c-42 27 -91 45 -143 45c-152 0 -262 -113 -262 -267z" />
    <glyph glyph-name="Egrave" unicode="&#xc8;" horiz-adv-x="580" 
d="M518 0h-427v700h427v-94h-320v-198h320v-94h-320v-220h320v-94zM346 738l-177 127l58 73l166 -139z" />
    <glyph glyph-name="Eacute" unicode="&#xc9;" horiz-adv-x="580" 
d="M518 0h-427v700h427v-94h-320v-198h320v-94h-320v-220h320v-94zM453 865l-177 -127l-47 61l166 139z" />
    <glyph glyph-name="Ecircumflex" unicode="&#xca;" horiz-adv-x="580" 
d="M518 0h-427v700h427v-94h-320v-198h320v-94h-320v-220h320v-94zM255 921h111l108 -132l-61 -47l-103 109l-105 -109l-61 47z" />
    <glyph glyph-name="Edieresis" unicode="&#xcb;" horiz-adv-x="580" 
d="M252 763h-112v114h112v-114zM484 763h-112v114h112v-114zM518 0h-427v700h427v-94h-320v-198h320v-94h-320v-220h320v-94z" />
    <glyph glyph-name="Igrave" unicode="&#xcc;" horiz-adv-x="289" 
d="M198 0h-107v700h107v-700zM164 738l-177 127l58 73l166 -139z" />
    <glyph glyph-name="Iacute" unicode="&#xcd;" horiz-adv-x="289" 
d="M198 0h-107v700h107v-700zM306 865l-177 -127l-47 61l166 139z" />
    <glyph glyph-name="Icircumflex" unicode="&#xce;" horiz-adv-x="289" 
d="M198 0h-107v700h107v-700zM90 921h111l108 -132l-61 -47l-103 109l-105 -109l-61 47z" />
    <glyph glyph-name="Idieresis" unicode="&#xcf;" horiz-adv-x="289" 
d="M87 763h-114v114h114v-114zM316 763h-114v114h114v-114zM198 0h-107v700h107v-700z" />
    <glyph glyph-name="Eth" unicode="&#xd0;" horiz-adv-x="718" 
d="M91 0v319h-69v84h69v297h192c179 0 378 -94 378 -347c0 -259 -197 -353 -387 -353h-183zM547 344c0 171 -104 262 -281 262h-68v-203h119v-84h-119v-225h29c191 0 320 62 320 250z" />
    <glyph glyph-name="Ntilde" unicode="&#xd1;" horiz-adv-x="753" 
d="M662 0h-95l-369 502v-502h-107v700h94l370 -502v502h107v-700zM489 874l69 7c2 -8 3 -19 3 -30c0 -59 -42 -97 -102 -97c-68 0 -105 61 -147 61c-17 0 -30 -10 -31 -28c0 -4 0 -7 1 -10l-69 -7c-2 8 -3 19 -3 30c0 59 42 97 102 97c67 0 107 -61 147 -61
c17 0 31 10 31 28c0 3 0 7 -1 10z" />
    <glyph glyph-name="Ograve" unicode="&#xd2;" horiz-adv-x="838" 
d="M667 350c0 150 -104 267 -248 267s-248 -117 -248 -267s104 -267 248 -267s248 117 248 267zM781 350c0 -200 -157 -362 -362 -362s-362 162 -362 362s157 362 362 362s362 -162 362 -362zM439 738l-177 127l58 73l166 -139z" />
    <glyph glyph-name="Oacute" unicode="&#xd3;" horiz-adv-x="838" 
d="M667 350c0 150 -104 267 -248 267s-248 -117 -248 -267s104 -267 248 -267s248 117 248 267zM781 350c0 -200 -157 -362 -362 -362s-362 162 -362 362s157 362 362 362s362 -162 362 -362zM580 865l-177 -127l-47 61l166 139z" />
    <glyph glyph-name="Ocircumflex" unicode="&#xd4;" horiz-adv-x="838" 
d="M667 350c0 150 -104 267 -248 267s-248 -117 -248 -267s104 -267 248 -267s248 117 248 267zM781 350c0 -200 -157 -362 -362 -362s-362 162 -362 362s157 362 362 362s362 -162 362 -362zM364 921h111l108 -132l-61 -47l-103 109l-105 -109l-61 47z" />
    <glyph glyph-name="Otilde" unicode="&#xd5;" horiz-adv-x="838" 
d="M667 350c0 150 -104 267 -248 267s-248 -117 -248 -267s104 -267 248 -267s248 117 248 267zM781 350c0 -200 -157 -362 -362 -362s-362 162 -362 362s157 362 362 362s362 -162 362 -362zM543 874l69 7c2 -8 3 -19 3 -30c0 -59 -42 -97 -102 -97c-68 0 -105 61 -147 61
c-17 0 -30 -10 -31 -28c0 -4 0 -7 1 -10l-69 -7c-2 8 -3 19 -3 30c0 59 42 97 102 97c67 0 107 -61 147 -61c17 0 31 10 31 28c0 3 0 7 -1 10z" />
    <glyph glyph-name="Odieresis" unicode="&#xd6;" horiz-adv-x="838" 
d="M667 350c0 150 -104 267 -248 267s-248 -117 -248 -267s104 -267 248 -267s248 117 248 267zM781 350c0 -200 -157 -362 -362 -362s-362 162 -362 362s157 362 362 362s362 -162 362 -362zM340 763h-113v114h113v-114zM611 763h-113v114h113v-114z" />
    <glyph glyph-name="Oslash" unicode="&#xd8;" horiz-adv-x="838" 
d="M683 670l-29 -43c78 -67 127 -166 127 -277c0 -200 -157 -362 -362 -362c-62 0 -119 15 -169 41l-33 -49l-74 46l35 52c-75 66 -121 163 -121 272c0 200 157 362 362 362c59 0 114 -14 162 -38l29 43zM667 350c0 75 -27 143 -71 191l-291 -430c33 -18 72 -28 114 -28
c144 0 248 117 248 267zM171 350c0 -73 24 -138 66 -185l289 427c-32 16 -68 25 -107 25c-144 0 -248 -117 -248 -267z" />
    <glyph glyph-name="Oslashacute" unicode="&#x1fe;" horiz-adv-x="838" 
d="M683 670l-29 -43c78 -67 127 -166 127 -277c0 -200 -157 -362 -362 -362c-62 0 -119 15 -169 41l-33 -49l-74 46l35 52c-75 66 -121 163 -121 272c0 200 157 362 362 362c59 0 114 -14 162 -38l29 43zM667 350c0 75 -27 143 -71 191l-291 -430c33 -18 72 -28 114 -28
c144 0 248 117 248 267zM171 350c0 -73 24 -138 66 -185l289 427c-32 16 -68 25 -107 25c-144 0 -248 -117 -248 -267zM580 865l-177 -127l-47 61l166 139z" />
    <glyph glyph-name="Ugrave" unicode="&#xd9;" horiz-adv-x="721" 
d="M634 700v-371c0 -220 -82 -341 -276 -341c-190 0 -271 121 -271 341v371h107v-394c0 -150 64 -223 166 -223c104 0 167 73 167 223v394h107zM380 738l-177 127l58 73l166 -139z" />
    <glyph glyph-name="Uacute" unicode="&#xda;" horiz-adv-x="721" 
d="M634 700v-371c0 -220 -82 -341 -276 -341c-190 0 -271 121 -271 341v371h107v-394c0 -150 64 -223 166 -223c104 0 167 73 167 223v394h107zM518 865l-177 -127l-47 61l166 139z" />
    <glyph glyph-name="Ucircumflex" unicode="&#xdb;" horiz-adv-x="721" 
d="M634 700v-371c0 -220 -82 -341 -276 -341c-190 0 -271 121 -271 341v371h107v-394c0 -150 64 -223 166 -223c104 0 167 73 167 223v394h107zM313 921h111l108 -132l-61 -47l-103 109l-105 -109l-61 47z" />
    <glyph glyph-name="Udieresis" unicode="&#xdc;" horiz-adv-x="721" 
d="M634 700v-371c0 -220 -82 -341 -276 -341c-190 0 -271 121 -271 341v371h107v-394c0 -150 64 -223 166 -223c104 0 167 73 167 223v394h107zM281 763h-113v114h113v-114zM552 763h-113v114h113v-114z" />
    <glyph glyph-name="Yacute" unicode="&#xdd;" horiz-adv-x="568" 
d="M335 0h-107v302l-223 398h133l148 -284h2l150 284h125l-228 -403v-297zM436 865l-177 -127l-47 61l166 139z" />
    <glyph glyph-name="Thorn" unicode="&#xde;" horiz-adv-x="599" 
d="M91 700h107v-134h105c115 0 251 -57 251 -211c0 -156 -135 -213 -251 -213h-105v-142h-107v700zM440 352c0 75 -58 120 -142 120h-100v-236h81c92 0 161 30 161 116z" />
    <glyph glyph-name="germandbls.cap" horiz-adv-x="1218" 
d="M1069 560c-34 31 -91 57 -146 57c-68 0 -117 -32 -117 -90c0 -59 65 -80 137 -105c99 -34 216 -79 216 -216c0 -156 -140 -218 -250 -218c-104 0 -182 34 -257 108l75 71c63 -63 112 -84 183 -84c68 0 135 33 135 113c0 73 -73 99 -151 126c-95 34 -195 81 -195 196
c0 132 100 194 214 194c86 0 156 -25 221 -75zM460 560c-34 31 -91 57 -146 57c-68 0 -117 -32 -117 -90c0 -59 65 -80 137 -105c99 -34 216 -79 216 -216c0 -156 -140 -218 -250 -218c-104 0 -182 34 -257 108l75 71c63 -63 112 -84 183 -84c68 0 135 33 135 113
c0 73 -73 99 -151 126c-95 34 -195 81 -195 196c0 132 100 194 214 194c86 0 156 -25 221 -75z" />
    <glyph glyph-name="germandbls" unicode="&#xdf;" horiz-adv-x="629" 
d="M179 0h-102v539c0 138 101 223 226 223c123 0 221 -77 221 -203c0 -57 -32 -108 -74 -137c83 -28 136 -97 136 -202c0 -142 -108 -232 -240 -232c-36 0 -71 7 -104 25l35 86c22 -13 45 -19 70 -19c93 0 135 58 135 140c0 101 -72 147 -162 147c-9 0 -30 0 -45 -2v81h22
c58 0 124 41 124 110c0 68 -46 114 -116 114c-85 0 -126 -58 -126 -150v-520z" />
    <glyph glyph-name="agrave" unicode="&#xe0;" horiz-adv-x="553" 
d="M478 0h-95l-3 51c-39 -45 -86 -63 -148 -63c-94 0 -180 48 -180 156c0 127 114 167 224 167c26 0 58 -3 99 -11v15c0 74 -34 117 -115 117c-58 0 -117 -22 -159 -45l-29 83c55 26 133 48 204 48c145 0 202 -80 202 -211v-307zM375 126v102c-35 7 -61 9 -86 9
c-59 0 -136 -16 -136 -88c0 -57 44 -79 94 -79c49 0 90 24 128 56zM270 569l-137 163l73 57l126 -173z" />
    <glyph glyph-name="aacute" unicode="&#xe1;" horiz-adv-x="553" 
d="M478 0h-95l-3 51c-39 -45 -86 -63 -148 -63c-94 0 -180 48 -180 156c0 127 114 167 224 167c26 0 58 -3 99 -11v15c0 74 -34 117 -115 117c-58 0 -117 -22 -159 -45l-29 83c55 26 133 48 204 48c145 0 202 -80 202 -211v-307zM375 126v102c-35 7 -61 9 -86 9
c-59 0 -136 -16 -136 -88c0 -57 44 -79 94 -79c49 0 90 24 128 56zM411 732l-137 -163l-62 47l126 173z" />
    <glyph glyph-name="acircumflex" unicode="&#xe2;" horiz-adv-x="553" 
d="M478 0h-95l-3 51c-39 -45 -86 -63 -148 -63c-94 0 -180 48 -180 156c0 127 114 167 224 167c26 0 58 -3 99 -11v15c0 74 -34 117 -115 117c-58 0 -117 -22 -159 -45l-29 83c55 26 133 48 204 48c145 0 202 -80 202 -211v-307zM375 126v102c-35 7 -61 9 -86 9
c-59 0 -136 -16 -136 -88c0 -57 44 -79 94 -79c49 0 90 24 128 56zM210 778h104l103 -168l-60 -39l-96 135l-95 -135l-61 39z" />
    <glyph glyph-name="atilde" unicode="&#xe3;" horiz-adv-x="553" 
d="M478 0h-95l-3 51c-39 -45 -86 -63 -148 -63c-94 0 -180 48 -180 156c0 127 114 167 224 167c26 0 58 -3 99 -11v15c0 74 -34 117 -115 117c-58 0 -117 -22 -159 -45l-29 83c55 26 133 48 204 48c145 0 202 -80 202 -211v-307zM375 126v102c-35 7 -61 9 -86 9
c-59 0 -136 -16 -136 -88c0 -57 44 -79 94 -79c49 0 90 24 128 56zM166 605l-69 -7c-2 7 -4 16 -4 26c0 59 43 97 103 97c69 0 107 -61 147 -61c17 0 30 10 31 29c0 2 0 6 -1 9l69 7c2 -7 4 -16 4 -26c0 -59 -43 -97 -103 -97c-69 0 -107 61 -147 61c-17 0 -30 -10 -31 -29
c0 -2 0 -6 1 -9z" />
    <glyph glyph-name="adieresis" unicode="&#xe4;" horiz-adv-x="553" 
d="M478 0h-95l-3 51c-39 -45 -86 -63 -148 -63c-94 0 -180 48 -180 156c0 127 114 167 224 167c26 0 58 -3 99 -11v15c0 74 -34 117 -115 117c-58 0 -117 -22 -159 -45l-29 83c55 26 133 48 204 48c145 0 202 -80 202 -211v-307zM375 126v102c-35 7 -61 9 -86 9
c-59 0 -136 -16 -136 -88c0 -57 44 -79 94 -79c49 0 90 24 128 56zM214 598h-105v107h105v-107zM427 598h-105v107h105v-107z" />
    <glyph glyph-name="aring" unicode="&#xe5;" horiz-adv-x="553" 
d="M478 0h-95l-3 51c-39 -45 -86 -63 -148 -63c-94 0 -180 48 -180 156c0 127 114 167 224 167c26 0 58 -3 99 -11v15c0 74 -34 117 -115 117c-58 0 -117 -22 -159 -45l-29 83c55 26 133 48 204 48c145 0 202 -80 202 -211v-307zM375 126v102c-35 7 -61 9 -86 9
c-59 0 -136 -16 -136 -88c0 -57 44 -79 94 -79c49 0 90 24 128 56zM174 666c0 54 44 98 98 98s98 -44 98 -98s-44 -98 -98 -98s-98 44 -98 98zM228 666c0 -24 20 -44 44 -44s44 20 44 44s-20 44 -44 44s-44 -20 -44 -44z" />
    <glyph glyph-name="aringacute" unicode="&#x1fb;" horiz-adv-x="553" 
d="M174 646c0 54 44 98 98 98s98 -44 98 -98s-44 -98 -98 -98s-98 44 -98 98zM228 646c0 -24 20 -44 44 -44s44 20 44 44s-20 44 -44 44s-44 -20 -44 -44zM423 868l-183 -109l-39 60l176 122zM478 0h-95l-3 51c-39 -45 -86 -63 -148 -63c-94 0 -180 48 -180 156
c0 127 114 167 224 167c26 0 58 -3 99 -11v15c0 74 -34 117 -115 117c-58 0 -117 -22 -159 -45l-29 83c55 26 133 48 204 48c145 0 202 -80 202 -211v-307zM375 126v102c-35 7 -61 9 -86 9c-59 0 -136 -16 -136 -88c0 -57 44 -79 94 -79c49 0 90 24 128 56z" />
    <glyph glyph-name="ae" unicode="&#xe6;" horiz-adv-x="898" 
d="M390 142c-10 27 -16 56 -19 86c-32 7 -58 9 -82 9c-59 0 -136 -16 -136 -88c0 -57 44 -79 94 -79c56 0 105 29 143 72zM775 155l73 -47c-53 -82 -121 -120 -224 -120c-84 0 -151 32 -194 84c-49 -54 -112 -84 -198 -84c-94 0 -180 48 -180 156c0 127 114 167 224 167
c26 0 58 -3 99 -11v15c0 74 -34 117 -115 117c-58 0 -117 -22 -159 -45l-29 83c55 26 133 48 204 48c83 0 139 -26 170 -80c44 50 105 80 178 80c135 0 234 -100 234 -235c0 -18 -2 -41 -5 -56h-378c7 -82 63 -152 154 -152c66 0 115 25 146 80zM625 432
c-78 0 -126 -55 -144 -126h270c-4 69 -55 126 -126 126z" />
    <glyph glyph-name="aeacute" unicode="&#x1fd;" horiz-adv-x="898" 
d="M390 142c-10 27 -16 56 -19 86c-32 7 -58 9 -82 9c-59 0 -136 -16 -136 -88c0 -57 44 -79 94 -79c56 0 105 29 143 72zM775 155l73 -47c-53 -82 -121 -120 -224 -120c-84 0 -151 32 -194 84c-49 -54 -112 -84 -198 -84c-94 0 -180 48 -180 156c0 127 114 167 224 167
c26 0 58 -3 99 -11v15c0 74 -34 117 -115 117c-58 0 -117 -22 -159 -45l-29 83c55 26 133 48 204 48c83 0 139 -26 170 -80c44 50 105 80 178 80c135 0 234 -100 234 -235c0 -18 -2 -41 -5 -56h-378c7 -82 63 -152 154 -152c66 0 115 25 146 80zM625 432
c-78 0 -126 -55 -144 -126h270c-4 69 -55 126 -126 126zM599 732l-137 -163l-62 47l126 173z" />
    <glyph glyph-name="ccedilla" unicode="&#xe7;" horiz-adv-x="484" 
d="M408 117l52 -76c-40 -34 -98 -53 -161 -53c-6 0 -12 0 -18 1l-20 -53l1 -1c15 11 32 16 48 16c45 0 88 -40 88 -95c0 -54 -47 -104 -110 -104c-47 0 -83 21 -106 62l60 29c8 -24 26 -32 44 -32c25 0 42 20 42 42c0 25 -18 46 -43 46c-16 0 -31 -8 -39 -23l-64 33l38 90
c-106 30 -180 125 -180 254c0 148 114 265 263 265c58 0 109 -17 152 -48l-50 -81c-29 22 -65 36 -102 36c-88 0 -158 -77 -158 -172c0 -103 74 -172 158 -172c34 0 77 14 105 36z" />
    <glyph glyph-name="egrave" unicode="&#xe8;" horiz-adv-x="567" 
d="M144 227c7 -83 63 -152 153 -152c67 0 116 25 147 80l72 -47c-52 -82 -120 -120 -224 -120c-159 0 -252 115 -252 264c0 151 110 266 252 266c136 0 235 -100 235 -235c0 -18 -2 -41 -5 -56h-378zM420 306c-4 69 -55 126 -126 126c-78 0 -126 -55 -144 -126h270zM285 569
l-137 163l73 57l126 -173z" />
    <glyph glyph-name="eacute" unicode="&#xe9;" horiz-adv-x="567" 
d="M144 227c7 -83 63 -152 153 -152c67 0 116 25 147 80l72 -47c-52 -82 -120 -120 -224 -120c-159 0 -252 115 -252 264c0 151 110 266 252 266c136 0 235 -100 235 -235c0 -18 -2 -41 -5 -56h-378zM420 306c-4 69 -55 126 -126 126c-78 0 -126 -55 -144 -126h270zM442 732
l-137 -163l-62 47l126 173z" />
    <glyph glyph-name="ecircumflex" unicode="&#xea;" horiz-adv-x="567" 
d="M144 227c7 -83 63 -152 153 -152c67 0 116 25 147 80l72 -47c-52 -82 -120 -120 -224 -120c-159 0 -252 115 -252 264c0 151 110 266 252 266c136 0 235 -100 235 -235c0 -18 -2 -41 -5 -56h-378zM420 306c-4 69 -55 126 -126 126c-78 0 -126 -55 -144 -126h270zM241 778
h104l103 -168l-60 -39l-96 135l-95 -135l-61 39z" />
    <glyph glyph-name="edieresis" unicode="&#xeb;" horiz-adv-x="567" 
d="M144 227c7 -83 63 -152 153 -152c67 0 116 25 147 80l72 -47c-52 -82 -120 -120 -224 -120c-159 0 -252 115 -252 264c0 151 110 266 252 266c136 0 235 -100 235 -235c0 -18 -2 -41 -5 -56h-378zM420 306c-4 69 -55 126 -126 126c-78 0 -126 -55 -144 -126h270zM239 598
h-105v107h105v-107zM452 598h-105v107h105v-107z" />
    <glyph glyph-name="igrave" unicode="&#xec;" horiz-adv-x="263" 
d="M183 0h-103v506h103v-506zM121 569l-137 163l73 57l126 -173z" />
    <glyph glyph-name="iacute" unicode="&#xed;" horiz-adv-x="263" 
d="M183 0h-103v506h103v-506zM278 732l-137 -163l-62 47l126 173z" />
    <glyph glyph-name="icircumflex" unicode="&#xee;" horiz-adv-x="263" 
d="M183 0h-103v506h103v-506zM80 778h104l103 -168l-60 -39l-96 135l-95 -135l-61 39z" />
    <glyph glyph-name="idieresis" unicode="&#xef;" horiz-adv-x="263" 
d="M82 598h-105v107h105v-107zM288 598h-105v107h105v-107zM183 0h-103v506h103v-506z" />
    <glyph glyph-name="eth" unicode="&#xf0;" horiz-adv-x="581" 
d="M176 500l-69 41l54 94c-31 17 -63 31 -95 44l38 87c36 -16 70 -32 103 -49l52 92l71 -40l-52 -91c168 -106 263 -245 263 -439c0 -135 -96 -251 -259 -251c-147 0 -242 118 -242 248c0 129 99 233 225 233c52 0 84 -11 122 -32c-38 64 -92 116 -156 158zM297 380
c-84 0 -154 -49 -154 -145c0 -85 59 -158 147 -158c107 0 148 81 148 172c0 35 -7 68 -15 98c-36 21 -77 33 -126 33z" />
    <glyph glyph-name="ntilde" unicode="&#xf1;" horiz-adv-x="609" 
d="M80 506h98l3 -80c38 59 99 92 164 92c67 0 114 -24 144 -64c35 -48 45 -115 45 -191v-263h-103v254c0 46 -2 97 -24 132c-15 24 -42 39 -83 39c-54 0 -108 -37 -141 -90v-335h-103v506zM222 605l-69 -7c-2 7 -4 16 -4 26c0 59 43 97 103 97c69 0 107 -61 147 -61
c17 0 30 10 31 29c0 2 0 6 -1 9l69 7c2 -7 4 -16 4 -26c0 -59 -43 -97 -103 -97c-69 0 -107 61 -147 61c-17 0 -30 -10 -31 -29c0 -2 0 -6 1 -9z" />
    <glyph glyph-name="ograve" unicode="&#xf2;" horiz-adv-x="600" 
d="M300 518c149 0 260 -117 260 -265s-111 -265 -260 -265c-150 0 -260 117 -260 265s110 265 260 265zM455 253c0 95 -65 172 -155 172s-155 -77 -155 -172c0 -94 65 -172 155 -172s155 78 155 172zM281 569l-137 163l73 57l126 -173z" />
    <glyph glyph-name="oacute" unicode="&#xf3;" horiz-adv-x="600" 
d="M300 518c149 0 260 -117 260 -265s-111 -265 -260 -265c-150 0 -260 117 -260 265s110 265 260 265zM455 253c0 95 -65 172 -155 172s-155 -77 -155 -172c0 -94 65 -172 155 -172s155 78 155 172zM451 732l-137 -163l-62 47l126 173z" />
    <glyph glyph-name="ocircumflex" unicode="&#xf4;" horiz-adv-x="600" 
d="M300 518c149 0 260 -117 260 -265s-111 -265 -260 -265c-150 0 -260 117 -260 265s110 265 260 265zM455 253c0 95 -65 172 -155 172s-155 -77 -155 -172c0 -94 65 -172 155 -172s155 78 155 172zM248 778h104l103 -168l-60 -39l-96 135l-95 -135l-61 39z" />
    <glyph glyph-name="otilde" unicode="&#xf5;" horiz-adv-x="600" 
d="M300 518c149 0 260 -117 260 -265s-111 -265 -260 -265c-150 0 -260 117 -260 265s110 265 260 265zM455 253c0 95 -65 172 -155 172s-155 -77 -155 -172c0 -94 65 -172 155 -172s155 78 155 172zM205 605l-69 -7c-2 7 -4 16 -4 26c0 59 43 97 103 97
c69 0 107 -61 147 -61c17 0 30 10 31 29c0 2 0 6 -1 9l69 7c2 -7 4 -16 4 -26c0 -59 -43 -97 -103 -97c-69 0 -107 61 -147 61c-17 0 -30 -10 -31 -29c0 -2 0 -6 1 -9z" />
    <glyph glyph-name="odieresis" unicode="&#xf6;" horiz-adv-x="600" 
d="M300 518c149 0 260 -117 260 -265s-111 -265 -260 -265c-150 0 -260 117 -260 265s110 265 260 265zM455 253c0 95 -65 172 -155 172s-155 -77 -155 -172c0 -94 65 -172 155 -172s155 78 155 172zM246 598h-105v107h105v-107zM459 598h-105v107h105v-107z" />
    <glyph glyph-name="oslash" unicode="&#xf8;" horiz-adv-x="600" 
d="M300 518c42 0 83 -10 115 -27l25 37l59 -38l-26 -37c53 -48 87 -120 87 -200c0 -148 -111 -265 -260 -265c-45 0 -86 11 -121 29l-27 -40l-59 38l29 42c-51 48 -82 118 -82 196c0 148 110 265 260 265zM455 253c0 44 -14 85 -39 115l-183 -271c20 -11 42 -16 67 -16
c90 0 155 78 155 172zM145 253c0 -42 12 -80 34 -110l182 268c-17 9 -39 14 -61 14c-90 0 -155 -77 -155 -172z" />
    <glyph glyph-name="oslashacute" unicode="&#x1ff;" horiz-adv-x="600" 
d="M451 732l-137 -163l-62 47l126 173zM300 518c42 0 83 -10 115 -27l25 37l59 -38l-26 -37c53 -48 87 -120 87 -200c0 -148 -111 -265 -260 -265c-45 0 -86 11 -121 29l-27 -40l-59 38l29 42c-51 48 -82 118 -82 196c0 148 110 265 260 265zM455 253c0 44 -14 85 -39 115
l-183 -271c20 -11 42 -16 67 -16c90 0 155 78 155 172zM145 253c0 -42 12 -80 34 -110l182 268c-17 9 -39 14 -61 14c-90 0 -155 -77 -155 -172z" />
    <glyph glyph-name="ugrave" unicode="&#xf9;" horiz-adv-x="609" 
d="M529 0h-98l-3 80c-38 -59 -99 -92 -164 -92c-67 0 -114 24 -144 64c-35 48 -45 115 -45 191v263h103v-254c0 -46 2 -97 24 -132c15 -24 42 -39 83 -39c54 0 108 37 141 90v335h103v-506zM305 569l-137 163l73 57l126 -173z" />
    <glyph glyph-name="uacute" unicode="&#xfa;" horiz-adv-x="609" 
d="M529 0h-98l-3 80c-38 -59 -99 -92 -164 -92c-67 0 -114 24 -144 64c-35 48 -45 115 -45 191v263h103v-254c0 -46 2 -97 24 -132c15 -24 42 -39 83 -39c54 0 108 37 141 90v335h103v-506zM451 732l-137 -163l-62 47l126 173z" />
    <glyph glyph-name="ucircumflex" unicode="&#xfb;" horiz-adv-x="609" 
d="M529 0h-98l-3 80c-38 -59 -99 -92 -164 -92c-67 0 -114 24 -144 64c-35 48 -45 115 -45 191v263h103v-254c0 -46 2 -97 24 -132c15 -24 42 -39 83 -39c54 0 108 37 141 90v335h103v-506zM257 778h104l103 -168l-60 -39l-96 135l-95 -135l-61 39z" />
    <glyph glyph-name="udieresis" unicode="&#xfc;" horiz-adv-x="609" 
d="M529 0h-98l-3 80c-38 -59 -99 -92 -164 -92c-67 0 -114 24 -144 64c-35 48 -45 115 -45 191v263h103v-254c0 -46 2 -97 24 -132c15 -24 42 -39 83 -39c54 0 108 37 141 90v335h103v-506zM248 598h-105v107h105v-107zM461 598h-105v107h105v-107z" />
    <glyph glyph-name="yacute" unicode="&#xfd;" horiz-adv-x="490" 
d="M5 506h114l124 -364h2l128 364h112l-285 -735l-91 36l80 212zM380 732l-137 -163l-62 47l126 173z" />
    <glyph glyph-name="thorn" unicode="&#xfe;" horiz-adv-x="630" 
d="M80 750h104v-308c36 51 100 76 158 76c143 0 248 -118 248 -266c0 -136 -100 -264 -250 -264c-57 0 -116 23 -156 65v-303h-104v1000zM184 336v-183c34 -48 89 -72 139 -72c110 0 162 90 162 173c0 90 -61 171 -160 171c-52 0 -115 -29 -141 -89z" />
    <glyph glyph-name="ydieresis" unicode="&#xff;" horiz-adv-x="490" 
d="M5 506h114l124 -364h2l128 364h112l-285 -735l-91 36l80 212zM193 598h-105v107h105v-107zM406 598h-105v107h105v-107z" />
    <glyph glyph-name="Amacron" unicode="&#x100;" horiz-adv-x="662" 
d="M523 0l-52 144h-287l-52 -144h-118l275 700h91l267 -700h-124zM328 537l-109 -299h218l-108 299h-1zM502 773h-338v77h338v-77z" />
    <glyph glyph-name="amacron" unicode="&#x101;" horiz-adv-x="553" 
d="M478 0h-95l-3 51c-39 -45 -86 -63 -148 -63c-94 0 -180 48 -180 156c0 127 114 167 224 167c26 0 58 -3 99 -11v15c0 74 -34 117 -115 117c-58 0 -117 -22 -159 -45l-29 83c55 26 133 48 204 48c145 0 202 -80 202 -211v-307zM375 126v102c-35 7 -61 9 -86 9
c-59 0 -136 -16 -136 -88c0 -57 44 -79 94 -79c49 0 90 24 128 56zM433 608h-308v77h308v-77z" />
    <glyph glyph-name="Abreve" unicode="&#x102;" horiz-adv-x="662" 
d="M523 0l-52 144h-287l-52 -144h-118l275 700h91l267 -700h-124zM328 537l-109 -299h218l-108 299h-1zM410 906h72v-7c0 -83 -65 -142 -148 -142s-148 59 -148 142v7h72v-8c0 -42 34 -70 76 -70s76 28 76 70v8z" />
    <glyph glyph-name="abreve" unicode="&#x103;" horiz-adv-x="553" 
d="M478 0h-95l-3 51c-39 -45 -86 -63 -148 -63c-94 0 -180 48 -180 156c0 127 114 167 224 167c26 0 58 -3 99 -11v15c0 74 -34 117 -115 117c-58 0 -117 -22 -159 -45l-29 83c55 26 133 48 204 48c145 0 202 -80 202 -211v-307zM375 126v102c-35 7 -61 9 -86 9
c-59 0 -136 -16 -136 -88c0 -57 44 -79 94 -79c49 0 90 24 128 56zM364 735h72v-18c0 -83 -65 -148 -148 -148s-148 65 -148 148v18h74v-19c0 -42 32 -76 74 -76s76 34 76 76v19z" />
    <glyph glyph-name="Aogonek" unicode="&#x104;" horiz-adv-x="662" 
d="M328 537l-109 -299h218l-108 299h-1zM442 -123c0 51 30 98 81 124l-52 143h-287l-52 -144h-118l275 700h91l267 -700c-85 -19 -115 -68 -115 -107c0 -26 15 -43 44 -43c15 0 30 5 44 14l33 -57c-23 -20 -59 -31 -95 -31c-60 0 -116 36 -116 101z" />
    <glyph glyph-name="aogonek" unicode="&#x105;" horiz-adv-x="553" 
d="M375 126v102c-35 7 -61 9 -86 9c-59 0 -136 -16 -136 -88c0 -57 44 -79 94 -79c49 0 90 24 128 56zM478 0c-46 -11 -107 -51 -107 -107c0 -26 15 -43 44 -43c15 0 31 5 45 14l32 -57c-23 -20 -59 -31 -94 -31c-61 0 -117 36 -117 99c0 59 37 97 102 129l-3 47
c-39 -45 -86 -63 -148 -63c-94 0 -180 48 -180 156c0 127 114 167 224 167c26 0 58 -3 99 -11v15c0 74 -34 117 -115 117c-58 0 -117 -22 -159 -45l-29 83c55 26 133 48 204 48c145 0 202 -80 202 -211v-307z" />
    <glyph glyph-name="Cacute" unicode="&#x106;" horiz-adv-x="674" 
d="M171 350c0 -163 106 -267 262 -267c54 0 106 18 153 52l58 -79c-62 -44 -135 -68 -213 -68c-209 0 -374 143 -374 362c0 206 169 362 376 362c71 0 136 -21 194 -58l-51 -82c-42 27 -91 45 -143 45c-152 0 -262 -113 -262 -267zM580 865l-177 -127l-47 61l166 139z" />
    <glyph glyph-name="cacute" unicode="&#x107;" horiz-adv-x="484" 
d="M408 117l52 -76c-40 -34 -98 -53 -161 -53c-146 0 -259 106 -259 265c0 148 114 265 263 265c58 0 109 -17 152 -48l-50 -81c-29 22 -65 36 -102 36c-88 0 -158 -77 -158 -172c0 -103 74 -172 158 -172c34 0 77 14 105 36zM451 732l-137 -163l-62 47l126 173z" />
    <glyph glyph-name="Ccircumflex" unicode="&#x108;" horiz-adv-x="674" 
d="M171 350c0 -163 106 -267 262 -267c54 0 106 18 153 52l58 -79c-62 -44 -135 -68 -213 -68c-209 0 -374 143 -374 362c0 206 169 362 376 362c71 0 136 -21 194 -58l-51 -82c-42 27 -91 45 -143 45c-152 0 -262 -113 -262 -267zM368 921h111l108 -132l-61 -47l-103 109
l-105 -109l-61 47z" />
    <glyph glyph-name="ccircumflex" unicode="&#x109;" horiz-adv-x="484" 
d="M408 117l52 -76c-40 -34 -98 -53 -161 -53c-146 0 -259 106 -259 265c0 148 114 265 263 265c58 0 109 -17 152 -48l-50 -81c-29 22 -65 36 -102 36c-88 0 -158 -77 -158 -172c0 -103 74 -172 158 -172c34 0 77 14 105 36zM242 778h104l103 -168l-60 -39l-96 135
l-95 -135l-61 39z" />
    <glyph glyph-name="Cdotaccent" unicode="&#x10a;" horiz-adv-x="674" 
d="M171 350c0 -163 106 -267 262 -267c54 0 106 18 153 52l58 -79c-62 -44 -135 -68 -213 -68c-209 0 -374 143 -374 362c0 206 169 362 376 362c71 0 136 -21 194 -58l-51 -82c-42 27 -91 45 -143 45c-152 0 -262 -113 -262 -267zM475 763h-112v114h112v-114z" />
    <glyph glyph-name="cdotaccent" unicode="&#x10b;" horiz-adv-x="484" 
d="M408 117l52 -76c-40 -34 -98 -53 -161 -53c-146 0 -259 106 -259 265c0 148 114 265 263 265c58 0 109 -17 152 -48l-50 -81c-29 22 -65 36 -102 36c-88 0 -158 -77 -158 -172c0 -103 74 -172 158 -172c34 0 77 14 105 36zM336 598h-103v107h103v-107z" />
    <glyph glyph-name="Ccaron" unicode="&#x10c;" horiz-adv-x="674" 
d="M171 350c0 -163 106 -267 262 -267c54 0 106 18 153 52l58 -79c-62 -44 -135 -68 -213 -68c-209 0 -374 143 -374 362c0 206 169 362 376 362c71 0 136 -21 194 -58l-51 -82c-42 27 -91 45 -143 45c-152 0 -262 -113 -262 -267zM477 753h-111l-108 132l63 47l103 -109
l105 109l59 -47z" />
    <glyph glyph-name="ccaron" unicode="&#x10d;" horiz-adv-x="484" 
d="M408 117l52 -76c-40 -34 -98 -53 -161 -53c-146 0 -259 106 -259 265c0 148 114 265 263 265c58 0 109 -17 152 -48l-50 -81c-29 22 -65 36 -102 36c-88 0 -158 -77 -158 -172c0 -103 74 -172 158 -172c34 0 77 14 105 36zM345 571h-104l-103 168l62 38l96 -135l95 135
l59 -38z" />
    <glyph glyph-name="Dcaron" unicode="&#x10e;" horiz-adv-x="718" 
d="M91 0v700h192c179 0 378 -94 378 -347c0 -259 -197 -353 -387 -353h-183zM547 344c0 171 -104 262 -281 262h-68v-512h29c191 0 320 62 320 250zM379 753h-111l-108 132l63 47l103 -109l105 109l59 -47z" />
    <glyph glyph-name="dcaron" unicode="&#x10f;" horiz-adv-x="648" 
d="M550 750v-750h-98l-3 67c-36 -53 -102 -79 -161 -79c-143 0 -248 118 -248 266c0 136 100 264 250 264c57 0 117 -24 157 -66v298h103zM447 352c-34 48 -90 73 -140 73c-110 0 -162 -90 -162 -173c0 -90 61 -171 160 -171c52 0 116 30 142 90v181zM667 546h-86l40 204
h100z" />
    <glyph glyph-name="Dcroat" unicode="&#x110;" horiz-adv-x="718" 
d="M91 0v319h-69v84h69v297h192c179 0 378 -94 378 -347c0 -259 -197 -353 -387 -353h-183zM547 344c0 171 -104 262 -281 262h-68v-203h119v-84h-119v-225h29c191 0 320 62 320 250z" />
    <glyph glyph-name="dcroat" unicode="&#x111;" horiz-adv-x="630" 
d="M288 -12c-143 0 -248 118 -248 266c0 136 100 264 250 264c57 0 117 -24 157 -66v135h-163v78h163v85h103v-85h70v-78h-70v-587h-98l-3 67c-36 -53 -102 -79 -161 -79zM305 81c52 0 116 30 142 90v181c-34 48 -90 73 -140 73c-110 0 -162 -90 -162 -173
c0 -90 61 -171 160 -171z" />
    <glyph glyph-name="Emacron" unicode="&#x112;" horiz-adv-x="580" 
d="M518 0h-427v700h427v-94h-320v-198h320v-94h-320v-220h320v-94zM481 773h-338v77h338v-77z" />
    <glyph glyph-name="emacron" unicode="&#x113;" horiz-adv-x="567" 
d="M144 227c7 -83 63 -152 153 -152c67 0 116 25 147 80l72 -47c-52 -82 -120 -120 -224 -120c-159 0 -252 115 -252 264c0 151 110 266 252 266c136 0 235 -100 235 -235c0 -18 -2 -41 -5 -56h-378zM420 306c-4 69 -55 126 -126 126c-78 0 -126 -55 -144 -126h270zM448 608
h-308v77h308v-77z" />
    <glyph glyph-name="Ebreve" unicode="&#x114;" horiz-adv-x="580" 
d="M518 0h-427v700h427v-94h-320v-198h320v-94h-320v-220h320v-94zM400 906h72v-7c0 -83 -65 -142 -148 -142s-148 59 -148 142v7h72v-8c0 -42 34 -70 76 -70s76 28 76 70v8z" />
    <glyph glyph-name="ebreve" unicode="&#x115;" horiz-adv-x="567" 
d="M144 227c7 -83 63 -152 153 -152c67 0 116 25 147 80l72 -47c-52 -82 -120 -120 -224 -120c-159 0 -252 115 -252 264c0 151 110 266 252 266c136 0 235 -100 235 -235c0 -18 -2 -41 -5 -56h-378zM420 306c-4 69 -55 126 -126 126c-78 0 -126 -55 -144 -126h270zM369 735
h72v-18c0 -83 -65 -148 -148 -148s-148 65 -148 148v18h74v-19c0 -42 32 -76 74 -76s76 34 76 76v19z" />
    <glyph glyph-name="Edotaccent" unicode="&#x116;" horiz-adv-x="580" 
d="M518 0h-427v700h427v-94h-320v-198h320v-94h-320v-220h320v-94zM370 763h-112v114h112v-114z" />
    <glyph glyph-name="edotaccent" unicode="&#x117;" horiz-adv-x="567" 
d="M144 227c7 -83 63 -152 153 -152c67 0 116 25 147 80l72 -47c-52 -82 -120 -120 -224 -120c-159 0 -252 115 -252 264c0 151 110 266 252 266c136 0 235 -100 235 -235c0 -18 -2 -41 -5 -56h-378zM420 306c-4 69 -55 126 -126 126c-78 0 -126 -55 -144 -126h270zM340 598
h-103v107h103v-107z" />
    <glyph glyph-name="Eogonek" unicode="&#x118;" horiz-adv-x="580" 
d="M91 0v700h427v-94h-320v-198h320v-94h-320v-220h320v-94c-84 -12 -120 -70 -120 -107c0 -26 15 -43 44 -43c15 0 31 5 45 14l32 -57c-23 -20 -58 -31 -94 -31c-61 0 -117 36 -117 101c0 50 30 96 85 123h-302z" />
    <glyph glyph-name="eogonek" unicode="&#x119;" horiz-adv-x="567" 
d="M420 306c-4 69 -55 126 -126 126c-78 0 -126 -55 -144 -126h270zM144 227c7 -83 63 -152 153 -152c67 0 116 25 147 80l72 -47c-34 -54 -75 -86 -127 -106c-61 -24 -100 -60 -100 -101c0 -33 16 -51 44 -51c15 0 30 5 45 14l32 -57c-23 -20 -59 -31 -95 -31
c-63 0 -116 36 -116 101c0 43 26 85 66 113c-140 13 -225 123 -225 262c0 151 110 266 252 266c136 0 235 -100 235 -235c0 -18 -2 -41 -5 -56h-378z" />
    <glyph glyph-name="Ecaron" unicode="&#x11a;" horiz-adv-x="580" 
d="M518 0h-427v700h427v-94h-320v-198h320v-94h-320v-220h320v-94zM363 753h-111l-108 132l63 47l103 -109l105 109l59 -47z" />
    <glyph glyph-name="ecaron" unicode="&#x11b;" horiz-adv-x="567" 
d="M144 227c7 -83 63 -152 153 -152c67 0 116 25 147 80l72 -47c-52 -82 -120 -120 -224 -120c-159 0 -252 115 -252 264c0 151 110 266 252 266c136 0 235 -100 235 -235c0 -18 -2 -41 -5 -56h-378zM420 306c-4 69 -55 126 -126 126c-78 0 -126 -55 -144 -126h270zM344 571
h-104l-103 168l62 38l96 -135l95 135l59 -38z" />
    <glyph glyph-name="Gcircumflex" unicode="&#x11c;" horiz-adv-x="801" 
d="M617 298h-176v94h283v-268c-69 -88 -175 -136 -291 -136c-214 0 -376 146 -376 362c0 206 169 362 376 362c110 0 207 -48 276 -127l-75 -64c-49 56 -121 96 -201 96c-152 0 -262 -113 -262 -267c0 -163 107 -267 262 -267c69 0 136 26 184 72v143zM378 921h111l108 -132
l-61 -47l-103 109l-105 -109l-61 47z" />
    <glyph glyph-name="gcircumflex" unicode="&#x11d;" horiz-adv-x="625" 
d="M447 183v169c-34 48 -90 73 -140 73c-110 0 -162 -84 -162 -167c0 -90 61 -165 160 -165c52 0 116 30 142 90zM447 77c-36 -51 -101 -77 -159 -77c-143 0 -248 112 -248 260c0 136 100 258 250 258c58 0 120 -25 160 -69l2 57h98v-479c0 -53 -9 -97 -28 -133
c-45 -85 -133 -118 -227 -118c-78 0 -163 23 -227 68l40 87c49 -36 124 -62 184 -62c83 0 155 41 155 143v65zM244 778h104l103 -168l-60 -39l-96 135l-95 -135l-61 39z" />
    <glyph glyph-name="Gbreve" unicode="&#x11e;" horiz-adv-x="801" 
d="M617 298h-176v94h283v-268c-69 -88 -175 -136 -291 -136c-214 0 -376 146 -376 362c0 206 169 362 376 362c110 0 207 -48 276 -127l-75 -64c-49 56 -121 96 -201 96c-152 0 -262 -113 -262 -267c0 -163 107 -267 262 -267c69 0 136 26 184 72v143zM510 906h72v-7
c0 -83 -65 -142 -148 -142s-148 59 -148 142v7h72v-8c0 -42 34 -70 76 -70s76 28 76 70v8z" />
    <glyph glyph-name="gbreve" unicode="&#x11f;" horiz-adv-x="625" 
d="M447 183v169c-34 48 -90 73 -140 73c-110 0 -162 -84 -162 -167c0 -90 61 -165 160 -165c52 0 116 30 142 90zM447 77c-36 -51 -101 -77 -159 -77c-143 0 -248 112 -248 260c0 136 100 258 250 258c58 0 120 -25 160 -69l2 57h98v-479c0 -53 -9 -97 -28 -133
c-45 -85 -133 -118 -227 -118c-78 0 -163 23 -227 68l40 87c49 -36 124 -62 184 -62c83 0 155 41 155 143v65zM380 735h72v-18c0 -83 -65 -148 -148 -148s-148 65 -148 148v18h74v-19c0 -42 32 -76 74 -76s76 34 76 76v19z" />
    <glyph glyph-name="Gdotaccent" unicode="&#x120;" horiz-adv-x="801" 
d="M617 298h-176v94h283v-268c-69 -88 -175 -136 -291 -136c-214 0 -376 146 -376 362c0 206 169 362 376 362c110 0 207 -48 276 -127l-75 -64c-49 56 -121 96 -201 96c-152 0 -262 -113 -262 -267c0 -163 107 -267 262 -267c69 0 136 26 184 72v143zM476 763h-112v114h112
v-114z" />
    <glyph glyph-name="gdotaccent" unicode="&#x121;" horiz-adv-x="625" 
d="M447 183v169c-34 48 -90 73 -140 73c-110 0 -162 -84 -162 -167c0 -90 61 -165 160 -165c52 0 116 30 142 90zM447 77c-36 -51 -101 -77 -159 -77c-143 0 -248 112 -248 260c0 136 100 258 250 258c58 0 120 -25 160 -69l2 57h98v-479c0 -53 -9 -97 -28 -133
c-45 -85 -133 -118 -227 -118c-78 0 -163 23 -227 68l40 87c49 -36 124 -62 184 -62c83 0 155 41 155 143v65zM347 598h-103v107h103v-107z" />
    <glyph glyph-name="Gcommaaccent" unicode="&#x122;" horiz-adv-x="801" 
d="M617 298h-176v94h283v-268c-69 -88 -175 -136 -291 -136c-214 0 -376 146 -376 362c0 206 169 362 376 362c110 0 207 -48 276 -127l-75 -64c-49 56 -121 96 -201 96c-152 0 -262 -113 -262 -267c0 -163 107 -267 262 -267c69 0 136 26 184 72v143zM407 -235h-83l36 178
h96z" />
    <glyph glyph-name="gcommaaccent" unicode="&#x123;" horiz-adv-x="625" 
d="M447 183v169c-34 48 -90 73 -140 73c-110 0 -162 -84 -162 -167c0 -90 61 -165 160 -165c52 0 116 30 142 90zM447 77c-36 -51 -101 -77 -159 -77c-143 0 -248 112 -248 260c0 136 100 258 250 258c58 0 120 -25 160 -69l2 57h98v-479c0 -53 -9 -97 -28 -133
c-45 -85 -133 -118 -227 -118c-78 0 -163 23 -227 68l40 87c49 -36 124 -62 184 -62c83 0 155 41 155 143v65zM296 752h86l-37 -182h-98z" />
    <glyph glyph-name="Hcircumflex" unicode="&#x124;" horiz-adv-x="749" 
d="M658 0h-107v314h-353v-314h-107v700h107v-292h353v292h107v-700zM320 921h111l108 -132l-61 -47l-103 109l-105 -109l-61 47z" />
    <glyph glyph-name="hcircumflex" unicode="&#x125;" horiz-adv-x="609" 
d="M183 750v-322c38 57 98 90 162 90c67 0 114 -24 144 -64c35 -48 45 -115 45 -191v-263h-103v254c0 46 -2 97 -24 132c-15 24 -42 39 -83 39c-54 0 -108 -37 -141 -90v-335h-103v750h103zM76 927h111l108 -132l-61 -47l-103 109l-105 -109l-61 47z" />
    <glyph glyph-name="Hbar" unicode="&#x126;" horiz-adv-x="749" 
d="M658 0h-107v314h-353v-314h-107v512h-89v81h89v107h107v-107h353v107h107v-107h89v-81h-89v-512zM198 408h353v104h-353v-104z" />
    <glyph glyph-name="hbar" unicode="&#x127;" horiz-adv-x="609" 
d="M183 750v-85h164v-78h-164v-159c38 57 98 90 162 90c67 0 114 -24 144 -64c35 -48 45 -115 45 -191v-263h-103v254c0 46 -2 97 -24 132c-15 24 -42 39 -83 39c-54 0 -108 -37 -141 -90v-335h-103v587h-70v78h70v85h103z" />
    <glyph glyph-name="Itilde" unicode="&#x128;" horiz-adv-x="289" 
d="M198 0h-107v700h107v-700zM249 874l69 7c2 -8 3 -19 3 -30c0 -59 -42 -97 -102 -97c-68 0 -105 61 -147 61c-17 0 -30 -10 -31 -28c0 -4 0 -7 1 -10l-69 -7c-2 8 -3 19 -3 30c0 59 42 97 102 97c67 0 107 -61 147 -61c17 0 31 10 31 28c0 3 0 7 -1 10z" />
    <glyph glyph-name="itilde" unicode="&#x129;" horiz-adv-x="263" 
d="M183 0h-103v506h103v-506zM29 605l-69 -7c-2 7 -4 16 -4 26c0 59 43 97 103 97c69 0 107 -61 147 -61c17 0 30 10 31 29c0 2 0 6 -1 9l69 7c2 -7 4 -16 4 -26c0 -59 -43 -97 -103 -97c-69 0 -107 61 -147 61c-17 0 -30 -10 -31 -29c0 -2 0 -6 1 -9z" />
    <glyph glyph-name="Imacron" unicode="&#x12a;" horiz-adv-x="289" 
d="M198 0h-107v700h107v-700zM314 773h-338v77h338v-77z" />
    <glyph glyph-name="imacron" unicode="&#x12b;" horiz-adv-x="263" 
d="M183 0h-103v506h103v-506zM286 608h-308v77h308v-77z" />
    <glyph glyph-name="Ibreve" unicode="&#x12c;" horiz-adv-x="289" 
d="M198 0h-107v700h107v-700zM221 906h72v-7c0 -83 -65 -142 -148 -142s-148 59 -148 142v7h72v-8c0 -42 34 -70 76 -70s76 28 76 70v8z" />
    <glyph glyph-name="ibreve" unicode="&#x12d;" horiz-adv-x="263" 
d="M183 0h-103v506h103v-506zM208 735h72v-18c0 -83 -65 -148 -148 -148s-148 65 -148 148v18h74v-19c0 -42 32 -76 74 -76s76 34 76 76v19z" />
    <glyph glyph-name="Iogonek" unicode="&#x12e;" horiz-adv-x="289" 
d="M91 3v697h107v-700c-75 -20 -101 -69 -101 -107c0 -26 15 -43 44 -43c15 0 30 5 45 14l32 -57c-23 -20 -59 -31 -94 -31c-61 0 -117 36 -117 101c0 52 30 100 84 126z" />
    <glyph glyph-name="iogonek" unicode="&#x12f;" horiz-adv-x="263" 
d="M183 598h-103v107h103v-107zM80 3v503h103v-506c-71 -20 -96 -69 -96 -101s15 -49 43 -49c15 0 31 5 45 14l33 -57c-24 -20 -59 -31 -95 -31c-60 0 -117 36 -117 101c0 59 31 100 84 126z" />
    <glyph glyph-name="Idotaccent" unicode="&#x130;" horiz-adv-x="289" 
d="M201 763h-113v114h113v-114zM198 0h-107v700h107v-700z" />
    <glyph glyph-name="idotaccent" horiz-adv-x="263" 
d="M183 0h-103v506h103v-506zM183 598h-103v107h103v-107z" />
    <glyph glyph-name="dotlessi" unicode="&#x131;" horiz-adv-x="263" 
d="M183 0h-103v506h103v-506z" />
    <glyph glyph-name="IJ" unicode="&#x132;" horiz-adv-x="646" 
d="M560 700v-521c0 -58 -11 -105 -35 -137c-27 -36 -69 -54 -134 -54c-35 0 -77 10 -109 24l31 87c20 -10 39 -16 63 -16c31 0 51 8 62 24c13 17 15 46 15 86v507h107zM198 0h-107v700h107v-700z" />
    <glyph glyph-name="ij" unicode="&#x133;" horiz-adv-x="536" 
d="M183 0h-103v506h103v-506zM183 598h-103v107h103v-107zM455 598h-103v107h103v-107zM455 506v-548c0 -41 -4 -75 -18 -104c-21 -46 -64 -77 -137 -77c-37 0 -71 7 -100 22l29 83c15 -8 35 -14 57 -14c61 0 66 47 66 106v532h103z" />
    <glyph glyph-name="Jcircumflex" unicode="&#x134;" horiz-adv-x="342" 
d="M256 700v-521c0 -58 -11 -105 -35 -137c-27 -36 -69 -54 -134 -54c-35 0 -77 10 -109 24l31 87c20 -10 39 -16 63 -16c31 0 51 8 62 24c13 17 15 46 15 86v507h107zM148 921h111l108 -132l-61 -47l-103 109l-105 -109l-61 47z" />
    <glyph glyph-name="jcircumflex" unicode="&#x135;" horiz-adv-x="272" 
d="M191 506v-548c0 -41 -4 -75 -18 -104c-21 -46 -64 -77 -137 -77c-37 0 -71 7 -100 22l29 83c15 -8 35 -14 57 -14c61 0 66 47 66 106v532h103zM88 778h104l103 -168l-60 -39l-96 135l-95 -135l-61 39z" />
    <glyph glyph-name="Kcommaaccent" unicode="&#x136;" horiz-adv-x="626" 
d="M609 700l-234 -278l246 -422h-125l-194 336l-104 -124v-212h-107v700h107v-340l280 340h131zM327 -235h-83l36 178h96z" />
    <glyph glyph-name="kcommaaccent" unicode="&#x137;" horiz-adv-x="524" 
d="M183 750v-486l2 -1l195 243h124l-179 -208l194 -298h-124l-138 218l-74 -86v-132h-103v750h103zM271 -235h-83l36 178h96z" />
    <glyph glyph-name="kgreenlandic" unicode="&#x138;" horiz-adv-x="524" 
d="M80 506h103v-242l2 -1l195 243h124l-179 -208l194 -298h-124l-138 218l-74 -86v-132h-103v506z" />
    <glyph glyph-name="Lacute" unicode="&#x139;" horiz-adv-x="503" 
d="M498 0h-407v700h107v-606h300v-94zM317 865l-177 -127l-47 61l166 139z" />
    <glyph glyph-name="lacute" unicode="&#x13a;" horiz-adv-x="263" 
d="M183 750v-750h-103v750h103zM290 909l-177 -127l-47 61l166 139z" />
    <glyph glyph-name="Lcommaaccent" unicode="&#x13b;" horiz-adv-x="503" 
d="M498 0h-407v700h107v-606h300v-94zM305 -235h-83l36 178h96z" />
    <glyph glyph-name="lcommaaccent" unicode="&#x13c;" horiz-adv-x="263" 
d="M183 750v-750h-103v750h103zM128 -235h-83l36 178h96z" />
    <glyph glyph-name="Lcaron" unicode="&#x13d;" horiz-adv-x="503" 
d="M498 0h-407v700h107v-606h300v-94zM355 496h-86l40 204h100z" />
    <glyph glyph-name="lcaron" unicode="&#x13e;" horiz-adv-x="277" 
d="M183 750v-750h-103v750h103zM300 546h-86l40 204h100z" />
    <glyph glyph-name="Ldot" unicode="&#x13f;" horiz-adv-x="506" 
d="M498 0h-407v700h107v-606h300v-94zM464 313h-112v114h112v-114z" />
    <glyph glyph-name="ldot" unicode="&#x140;" horiz-adv-x="295" 
d="M183 750v-750h-103v750h103zM337 314h-112v114h112v-114z" />
    <glyph glyph-name="Lslash" unicode="&#x141;" horiz-adv-x="503" 
d="M498 0h-407v269l-89 -58v101l89 57v331h107v-277l147 96v-101l-147 -95v-229h300v-94z" />
    <glyph glyph-name="lslash" unicode="&#x142;" horiz-adv-x="263" 
d="M183 0h-103v310l-67 -43v99l67 43v341h103v-289l69 45v-100l-69 -44v-362z" />
    <glyph glyph-name="Nacute" unicode="&#x143;" horiz-adv-x="753" 
d="M662 0h-95l-369 502v-502h-107v700h94l370 -502v502h107v-700zM541 865l-177 -127l-47 61l166 139z" />
    <glyph glyph-name="nacute" unicode="&#x144;" horiz-adv-x="609" 
d="M80 506h98l3 -80c38 59 99 92 164 92c67 0 114 -24 144 -64c35 -48 45 -115 45 -191v-263h-103v254c0 46 -2 97 -24 132c-15 24 -42 39 -83 39c-54 0 -108 -37 -141 -90v-335h-103v506zM464 732l-137 -163l-62 47l126 173z" />
    <glyph glyph-name="Ncommaaccent" unicode="&#x145;" horiz-adv-x="753" 
d="M662 0h-95l-369 502v-502h-107v700h94l370 -502v502h107v-700zM367 -235h-83l36 178h96z" />
    <glyph glyph-name="ncommaaccent" unicode="&#x146;" horiz-adv-x="609" 
d="M80 506h98l3 -80c38 59 99 92 164 92c67 0 114 -24 144 -64c35 -48 45 -115 45 -191v-263h-103v254c0 46 -2 97 -24 132c-15 24 -42 39 -83 39c-54 0 -108 -37 -141 -90v-335h-103v506zM306 -235h-83l36 178h96z" />
    <glyph glyph-name="Ncaron" unicode="&#x147;" horiz-adv-x="753" 
d="M662 0h-95l-369 502v-502h-107v700h94l370 -502v502h107v-700zM438 753h-111l-108 132l63 47l103 -109l105 109l59 -47z" />
    <glyph glyph-name="ncaron" unicode="&#x148;" horiz-adv-x="609" 
d="M80 506h98l3 -80c38 59 99 92 164 92c67 0 114 -24 144 -64c35 -48 45 -115 45 -191v-263h-103v254c0 46 -2 97 -24 132c-15 24 -42 39 -83 39c-54 0 -108 -37 -141 -90v-335h-103v506zM369 571h-104l-103 168l62 38l96 -135l95 135l59 -38z" />
    <glyph glyph-name="napostrophe" unicode="&#x149;" horiz-adv-x="618" 
d="M77 512h-96l50 245h111zM110 506h98l3 -80c38 59 99 92 164 92c67 0 114 -24 144 -64c35 -48 45 -115 45 -191v-263h-103v254c0 46 -2 97 -24 132c-15 24 -42 39 -83 39c-54 0 -108 -37 -141 -90v-335h-103v506z" />
    <glyph glyph-name="Eng" unicode="&#x14a;" horiz-adv-x="753" 
d="M662 700v-732c0 -58 -11 -105 -35 -137c-27 -36 -69 -54 -134 -54c-35 0 -77 10 -109 24l31 87c20 -10 39 -16 63 -16c31 0 51 8 62 24c13 17 15 46 15 86v34l-357 486v-502h-107v700h94l370 -502v502h107z" />
    <glyph glyph-name="eng" unicode="&#x14b;" horiz-adv-x="609" 
d="M80 506h98l3 -80c38 59 99 92 164 92c67 0 114 -24 144 -64c35 -48 45 -115 45 -191v-305c0 -41 -4 -75 -18 -104c-21 -46 -64 -77 -137 -77c-37 0 -71 7 -100 22l29 83c15 -8 35 -14 57 -14c61 0 66 47 66 106v280c0 46 -2 97 -24 132c-15 24 -42 39 -83 39
c-54 0 -108 -37 -141 -90v-335h-103v506z" />
    <glyph glyph-name="Omacron" unicode="&#x14c;" horiz-adv-x="838" 
d="M667 350c0 150 -104 267 -248 267s-248 -117 -248 -267s104 -267 248 -267s248 117 248 267zM781 350c0 -200 -157 -362 -362 -362s-362 162 -362 362s157 362 362 362s362 -162 362 -362zM588 773h-338v77h338v-77z" />
    <glyph glyph-name="omacron" unicode="&#x14d;" horiz-adv-x="600" 
d="M300 518c149 0 260 -117 260 -265s-111 -265 -260 -265c-150 0 -260 117 -260 265s110 265 260 265zM455 253c0 95 -65 172 -155 172s-155 -77 -155 -172c0 -94 65 -172 155 -172s155 78 155 172zM454 608h-308v77h308v-77z" />
    <glyph glyph-name="Obreve" unicode="&#x14e;" horiz-adv-x="838" 
d="M667 350c0 150 -104 267 -248 267s-248 -117 -248 -267s104 -267 248 -267s248 117 248 267zM781 350c0 -200 -157 -362 -362 -362s-362 162 -362 362s157 362 362 362s362 -162 362 -362zM495 906h72v-7c0 -83 -65 -142 -148 -142s-148 59 -148 142v7h72v-8
c0 -42 34 -70 76 -70s76 28 76 70v8z" />
    <glyph glyph-name="obreve" unicode="&#x14f;" horiz-adv-x="600" 
d="M300 518c149 0 260 -117 260 -265s-111 -265 -260 -265c-150 0 -260 117 -260 265s110 265 260 265zM455 253c0 95 -65 172 -155 172s-155 -77 -155 -172c0 -94 65 -172 155 -172s155 78 155 172zM376 735h72v-18c0 -83 -65 -148 -148 -148s-148 65 -148 148v18h74v-19
c0 -42 32 -76 74 -76s76 34 76 76v19z" />
    <glyph glyph-name="Ohungarumlaut" unicode="&#x150;" horiz-adv-x="838" 
d="M667 350c0 150 -104 267 -248 267s-248 -117 -248 -267s104 -267 248 -267s248 117 248 267zM781 350c0 -200 -157 -362 -362 -362s-362 162 -362 362s157 362 362 362s362 -162 362 -362zM469 865l-177 -127l-47 59l166 139zM687 861l-171 -123l-47 61l160 135z" />
    <glyph glyph-name="ohungarumlaut" unicode="&#x151;" horiz-adv-x="600" 
d="M300 518c149 0 260 -117 260 -265s-111 -265 -260 -265c-150 0 -260 117 -260 265s110 265 260 265zM455 253c0 95 -65 172 -155 172s-155 -77 -155 -172c0 -94 65 -172 155 -172s155 78 155 172zM376 745l-142 -168l-62 46l130 180zM540 731l-137 -163l-63 47l127 173z
" />
    <glyph glyph-name="OE" unicode="&#x152;" horiz-adv-x="1061" 
d="M999 0h-427v32c-42 -28 -94 -44 -153 -44c-205 0 -362 162 -362 362s157 362 362 362c58 0 111 -17 153 -43v31h427v-94h-320v-198h320v-94h-320v-220h320v-94zM419 83c59 0 111 20 153 54v426c-42 34 -94 54 -153 54c-144 0 -248 -117 -248 -267s104 -267 248 -267z" />
    <glyph glyph-name="oe" unicode="&#x153;" horiz-adv-x="977" 
d="M300 518c89 0 161 -42 204 -107c43 65 113 107 198 107c136 0 235 -100 235 -235c0 -18 -2 -41 -5 -56h-378c7 -83 63 -152 153 -152c67 0 116 25 147 80l72 -47c-52 -82 -120 -120 -224 -120c-94 0 -161 39 -201 103c-43 -63 -114 -103 -201 -103
c-150 0 -260 117 -260 265s110 265 260 265zM455 253c0 95 -65 172 -155 172s-155 -77 -155 -172c0 -94 65 -172 155 -172s155 78 155 172zM704 432c-78 0 -126 -55 -144 -126h270c-4 69 -55 126 -126 126z" />
    <glyph glyph-name="Racute" unicode="&#x154;" horiz-adv-x="618" 
d="M91 700h211c109 0 243 -57 243 -203c0 -117 -82 -177 -166 -197l220 -300h-134l-206 292h-61v-292h-107v700zM198 606v-220h80c88 0 153 32 153 108c0 67 -54 112 -134 112h-99zM451 865l-177 -127l-47 61l166 139z" />
    <glyph glyph-name="racute" unicode="&#x155;" horiz-adv-x="361" 
d="M178 506l3 -79c30 53 75 91 128 91c22 0 39 -2 58 -7l-21 -104c-15 8 -29 11 -48 11c-49 0 -87 -29 -115 -78v-340h-103v506h98zM354 732l-137 -163l-62 47l126 173z" />
    <glyph glyph-name="Rcommaaccent" unicode="&#x156;" horiz-adv-x="618" 
d="M91 700h211c109 0 243 -57 243 -203c0 -117 -82 -177 -166 -197l220 -300h-134l-206 292h-61v-292h-107v700zM198 606v-220h80c88 0 153 32 153 108c0 67 -54 112 -134 112h-99zM321 -235h-83l36 178h96z" />
    <glyph glyph-name="rcommaaccent" unicode="&#x157;" horiz-adv-x="361" 
d="M178 506l3 -79c30 53 75 91 128 91c22 0 39 -2 58 -7l-21 -104c-15 8 -29 11 -48 11c-49 0 -87 -29 -115 -78v-340h-103v506h98zM128 -235h-83l36 178h96z" />
    <glyph glyph-name="Rcaron" unicode="&#x158;" horiz-adv-x="618" 
d="M91 700h211c109 0 243 -57 243 -203c0 -117 -82 -177 -166 -197l220 -300h-134l-206 292h-61v-292h-107v700zM198 606v-220h80c88 0 153 32 153 108c0 67 -54 112 -134 112h-99zM363 753h-111l-108 132l63 47l103 -109l105 109l59 -47z" />
    <glyph glyph-name="rcaron" unicode="&#x159;" horiz-adv-x="361" 
d="M178 506l3 -79c30 53 75 91 128 91c22 0 39 -2 58 -7l-21 -104c-15 8 -29 11 -48 11c-49 0 -87 -29 -115 -78v-340h-103v506h98zM271 571h-104l-103 168l62 38l96 -135l95 135l59 -38z" />
    <glyph glyph-name="Sacute" unicode="&#x15a;" horiz-adv-x="612" 
d="M460 560c-34 31 -91 57 -146 57c-68 0 -117 -32 -117 -90c0 -59 65 -80 137 -105c99 -34 216 -79 216 -216c0 -156 -140 -218 -250 -218c-104 0 -182 34 -257 108l75 71c63 -63 112 -84 183 -84c68 0 135 33 135 113c0 73 -73 99 -151 126c-95 34 -195 81 -195 196
c0 132 100 194 214 194c86 0 156 -25 221 -75zM477 865l-177 -127l-47 61l166 139z" />
    <glyph glyph-name="sacute" unicode="&#x15b;" horiz-adv-x="458" 
d="M394 460l-60 -65c-23 21 -64 39 -100 39c-41 0 -69 -24 -69 -60c0 -37 46 -55 93 -74c66 -26 148 -62 148 -152c0 -113 -90 -160 -186 -160c-72 0 -138 28 -182 81l68 59c35 -36 70 -55 113 -55c44 0 84 22 84 69c0 39 -46 57 -96 77c-66 27 -141 57 -141 147
c0 103 81 152 168 152c60 0 118 -20 160 -58zM397 732l-137 -163l-62 47l126 173z" />
    <glyph glyph-name="Scircumflex" unicode="&#x15c;" horiz-adv-x="612" 
d="M460 560c-34 31 -91 57 -146 57c-68 0 -117 -32 -117 -90c0 -59 65 -80 137 -105c99 -34 216 -79 216 -216c0 -156 -140 -218 -250 -218c-104 0 -182 34 -257 108l75 71c63 -63 112 -84 183 -84c68 0 135 33 135 113c0 73 -73 99 -151 126c-95 34 -195 81 -195 196
c0 132 100 194 214 194c86 0 156 -25 221 -75zM260 921h111l108 -132l-61 -47l-103 109l-105 -109l-61 47z" />
    <glyph glyph-name="scircumflex" unicode="&#x15d;" horiz-adv-x="458" 
d="M394 460l-60 -65c-23 21 -64 39 -100 39c-41 0 -69 -24 -69 -60c0 -37 46 -55 93 -74c66 -26 148 -62 148 -152c0 -113 -90 -160 -186 -160c-72 0 -138 28 -182 81l68 59c35 -36 70 -55 113 -55c44 0 84 22 84 69c0 39 -46 57 -96 77c-66 27 -141 57 -141 147
c0 103 81 152 168 152c60 0 118 -20 160 -58zM187 778h104l103 -168l-60 -39l-96 135l-95 -135l-61 39z" />
    <glyph glyph-name="Scedilla" unicode="&#x15e;" horiz-adv-x="609" 
d="M460 560c-34 31 -91 57 -146 57c-68 0 -117 -32 -117 -90c0 -59 65 -80 137 -105c99 -34 216 -79 216 -216c0 -151 -131 -214 -239 -218l-22 -52l2 -1c10 9 26 16 47 16c53 0 89 -42 89 -95c0 -54 -48 -104 -111 -104c-46 0 -82 21 -106 62l60 29c9 -24 26 -32 45 -32
c25 0 41 20 41 42c0 23 -15 46 -41 46c-16 0 -30 -6 -40 -23l-65 34l38 81c-79 10 -143 44 -205 105l75 71c63 -63 112 -84 183 -84c68 0 135 33 135 113c0 73 -73 99 -151 126c-95 34 -195 81 -195 196c0 132 100 194 214 194c86 0 156 -25 221 -75z" />
    <glyph glyph-name="scedilla" unicode="&#x15f;" horiz-adv-x="458" 
d="M394 460l-60 -65c-23 21 -64 39 -100 39c-41 0 -69 -24 -69 -60c0 -37 46 -55 93 -74c66 -26 148 -62 148 -152c0 -108 -82 -155 -172 -159l-19 -53l1 -1c15 11 31 16 47 16c46 0 89 -40 89 -95c0 -54 -48 -104 -111 -104c-46 0 -83 21 -106 62l60 29
c9 -24 26 -32 45 -32c25 0 41 20 41 42c0 25 -17 46 -43 46c-16 0 -31 -8 -38 -23l-64 33l34 84c-52 9 -99 35 -132 76l68 59c35 -36 70 -55 113 -55c44 0 84 22 84 69c0 39 -46 57 -96 77c-66 27 -141 57 -141 147c0 103 81 152 168 152c60 0 118 -20 160 -58z" />
    <glyph glyph-name="Scaron" unicode="&#x160;" horiz-adv-x="612" 
d="M460 560c-34 31 -91 57 -146 57c-68 0 -117 -32 -117 -90c0 -59 65 -80 137 -105c99 -34 216 -79 216 -216c0 -156 -140 -218 -250 -218c-104 0 -182 34 -257 108l75 71c63 -63 112 -84 183 -84c68 0 135 33 135 113c0 73 -73 99 -151 126c-95 34 -195 81 -195 196
c0 132 100 194 214 194c86 0 156 -25 221 -75zM368 753h-111l-108 132l63 47l103 -109l105 109l59 -47z" />
    <glyph glyph-name="scaron" unicode="&#x161;" horiz-adv-x="458" 
d="M394 460l-60 -65c-23 21 -64 39 -100 39c-41 0 -69 -24 -69 -60c0 -37 46 -55 93 -74c66 -26 148 -62 148 -152c0 -113 -90 -160 -186 -160c-72 0 -138 28 -182 81l68 59c35 -36 70 -55 113 -55c44 0 84 22 84 69c0 39 -46 57 -96 77c-66 27 -141 57 -141 147
c0 103 81 152 168 152c60 0 118 -20 160 -58zM292 571h-104l-103 168l62 38l96 -135l95 135l59 -38z" />
    <glyph glyph-name="Scommaaccent" unicode="&#x218;" horiz-adv-x="609" 
d="M460 560c-34 31 -91 57 -146 57c-68 0 -117 -32 -117 -90c0 -59 65 -80 137 -105c99 -34 216 -79 216 -216c0 -156 -140 -218 -250 -218c-104 0 -182 34 -257 108l75 71c63 -63 112 -84 183 -84c68 0 135 33 135 113c0 73 -73 99 -151 126c-95 34 -195 81 -195 196
c0 132 100 194 214 194c86 0 156 -25 221 -75zM267 -235h-83l36 178h96z" />
    <glyph glyph-name="scommaaccent" unicode="&#x219;" horiz-adv-x="458" 
d="M394 460l-60 -65c-23 21 -64 39 -100 39c-41 0 -69 -24 -69 -60c0 -37 46 -55 93 -74c66 -26 148 -62 148 -152c0 -113 -90 -160 -186 -160c-72 0 -138 28 -182 81l68 59c35 -36 70 -55 113 -55c44 0 84 22 84 69c0 39 -46 57 -96 77c-66 27 -141 57 -141 147
c0 103 81 152 168 152c60 0 118 -20 160 -58zM203 -235h-83l36 178h96z" />
    <glyph glyph-name="uni0162" unicode="&#x162;" horiz-adv-x="489" 
d="M472 606h-174v-606h-21l-23 -64l1 -1c15 11 32 16 47 16c46 0 89 -40 89 -95c0 -54 -48 -104 -110 -104c-47 0 -83 21 -106 62l59 29c9 -24 26 -32 45 -32c25 0 42 20 42 42c0 25 -18 46 -44 46c-15 0 -30 -8 -38 -23l-64 33l38 91h-22v606h-174v94h455v-94z" />
    <glyph glyph-name="uni0163" unicode="&#x163;" horiz-adv-x="354" 
d="M328 417h-139v-220c0 -13 0 -25 1 -40c3 -48 19 -76 64 -76c22 0 41 6 57 14l30 -81c-27 -15 -66 -24 -101 -24h-10l-20 -54l1 -1c15 11 32 16 47 16c46 0 89 -40 89 -95c0 -54 -48 -104 -110 -104c-47 0 -83 21 -106 62l59 29c9 -24 26 -32 45 -32c25 0 42 20 42 42
c0 25 -18 46 -44 46c-15 0 -30 -8 -38 -23l-64 33l39 94c-34 14 -57 40 -69 73c-11 28 -15 63 -15 100v241h-66v89h66l5 119h98v-119h139v-89z" />
    <glyph glyph-name="Tcaron" unicode="&#x164;" horiz-adv-x="489" 
d="M472 606h-174v-606h-107v606h-174v94h455v-94zM298 753h-111l-108 132l63 47l103 -109l105 109l59 -47z" />
    <glyph glyph-name="tcaron" unicode="&#x165;" horiz-adv-x="354" 
d="M328 417h-139v-220c0 -13 0 -25 1 -40c3 -48 19 -76 64 -76c22 0 41 6 57 14l30 -81c-27 -15 -66 -24 -101 -24c-73 0 -119 34 -139 86c-11 28 -15 63 -15 100v241h-66v89h66l5 119h98v-119h139v-89zM332 571h-86l40 204h100z" />
    <glyph glyph-name="Tbar" unicode="&#x166;" horiz-adv-x="489" 
d="M472 606h-174v-202h109v-87h-109v-317h-107v317h-109v87h109v202h-174v94h455v-94z" />
    <glyph glyph-name="tbar" unicode="&#x167;" horiz-adv-x="354" 
d="M328 227h-139v-30c0 -13 0 -25 1 -40c3 -48 19 -76 64 -76c22 0 41 6 57 14l30 -81c-27 -15 -66 -24 -101 -24c-73 0 -119 34 -139 86c-11 28 -15 63 -15 100v51h-66v81h66v109h-66v89h66l5 119h98v-119h139v-89h-139v-109h139v-81z" />
    <glyph glyph-name="uni021A" unicode="&#x21a;" horiz-adv-x="489" 
d="M472 606h-174v-606h-107v606h-174v94h455v-94zM239 -235h-83l36 178h96z" />
    <glyph glyph-name="uni021B" unicode="&#x21b;" horiz-adv-x="354" 
d="M328 417h-139v-220c0 -13 0 -25 1 -40c3 -48 19 -76 64 -76c22 0 41 6 57 14l30 -81c-27 -15 -66 -24 -101 -24c-73 0 -119 34 -139 86c-11 28 -15 63 -15 100v241h-66v89h66l5 119h98v-119h139v-89zM183 -235h-83l36 178h96z" />
    <glyph glyph-name="Utilde" unicode="&#x168;" horiz-adv-x="721" 
d="M634 700v-371c0 -220 -82 -341 -276 -341c-190 0 -271 121 -271 341v371h107v-394c0 -150 64 -223 166 -223c104 0 167 73 167 223v394h107zM463 874l69 7c2 -8 3 -19 3 -30c0 -59 -42 -97 -102 -97c-68 0 -105 61 -147 61c-17 0 -30 -10 -31 -28c0 -4 0 -7 1 -10l-69 -7
c-2 8 -3 19 -3 30c0 59 42 97 102 97c67 0 107 -61 147 -61c17 0 31 10 31 28c0 3 0 7 -1 10z" />
    <glyph glyph-name="utilde" unicode="&#x169;" horiz-adv-x="609" 
d="M529 0h-98l-3 80c-38 -59 -99 -92 -164 -92c-67 0 -114 24 -144 64c-35 48 -45 115 -45 191v263h103v-254c0 -46 2 -97 24 -132c15 -24 42 -39 83 -39c54 0 108 37 141 90v335h103v-506zM210 605l-69 -7c-2 7 -4 16 -4 26c0 59 43 97 103 97c69 0 107 -61 147 -61
c17 0 30 10 31 29c0 2 0 6 -1 9l69 7c2 -7 4 -16 4 -26c0 -59 -43 -97 -103 -97c-69 0 -107 61 -147 61c-17 0 -30 -10 -31 -29c0 -2 0 -6 1 -9z" />
    <glyph glyph-name="Umacron" unicode="&#x16a;" horiz-adv-x="721" 
d="M634 700v-371c0 -220 -82 -341 -276 -341c-190 0 -271 121 -271 341v371h107v-394c0 -150 64 -223 166 -223c104 0 167 73 167 223v394h107zM529 773h-338v77h338v-77z" />
    <glyph glyph-name="umacron" unicode="&#x16b;" horiz-adv-x="609" 
d="M529 0h-98l-3 80c-38 -59 -99 -92 -164 -92c-67 0 -114 24 -144 64c-35 48 -45 115 -45 191v263h103v-254c0 -46 2 -97 24 -132c15 -24 42 -39 83 -39c54 0 108 37 141 90v335h103v-506zM456 608h-308v77h308v-77z" />
    <glyph glyph-name="Ubreve" unicode="&#x16c;" horiz-adv-x="721" 
d="M634 700v-371c0 -220 -82 -341 -276 -341c-190 0 -271 121 -271 341v371h107v-394c0 -150 64 -223 166 -223c104 0 167 73 167 223v394h107zM437 906h72v-7c0 -83 -65 -142 -148 -142s-148 59 -148 142v7h72v-8c0 -42 34 -70 76 -70s76 28 76 70v8z" />
    <glyph glyph-name="ubreve" unicode="&#x16d;" horiz-adv-x="609" 
d="M529 0h-98l-3 80c-38 -59 -99 -92 -164 -92c-67 0 -114 24 -144 64c-35 48 -45 115 -45 191v263h103v-254c0 -46 2 -97 24 -132c15 -24 42 -39 83 -39c54 0 108 37 141 90v335h103v-506zM382 735h72v-18c0 -83 -65 -148 -148 -148s-148 65 -148 148v18h74v-19
c0 -42 32 -76 74 -76s76 34 76 76v19z" />
    <glyph glyph-name="Uring" unicode="&#x16e;" horiz-adv-x="721" 
d="M634 700v-371c0 -220 -82 -341 -276 -341c-190 0 -271 121 -271 341v371h107v-394c0 -150 64 -223 166 -223c104 0 167 73 167 223v394h107zM262 822c0 54 44 98 98 98s98 -44 98 -98s-44 -98 -98 -98s-98 44 -98 98zM316 822c0 -24 20 -44 44 -44s44 20 44 44
s-20 44 -44 44s-44 -20 -44 -44z" />
    <glyph glyph-name="uring" unicode="&#x16f;" horiz-adv-x="609" 
d="M529 0h-98l-3 80c-38 -59 -99 -92 -164 -92c-67 0 -114 24 -144 64c-35 48 -45 115 -45 191v263h103v-254c0 -46 2 -97 24 -132c15 -24 42 -39 83 -39c54 0 108 37 141 90v335h103v-506zM207 661c0 54 44 98 98 98s98 -44 98 -98s-44 -98 -98 -98s-98 44 -98 98zM261 661
c0 -24 20 -44 44 -44s44 20 44 44s-20 44 -44 44s-44 -20 -44 -44z" />
    <glyph glyph-name="Uhungarumlaut" unicode="&#x170;" horiz-adv-x="721" 
d="M634 700v-371c0 -220 -82 -341 -276 -341c-190 0 -271 121 -271 341v371h107v-394c0 -150 64 -223 166 -223c104 0 167 73 167 223v394h107zM407 865l-177 -127l-47 59l166 139zM625 861l-171 -123l-47 61l160 135z" />
    <glyph glyph-name="uhungarumlaut" unicode="&#x171;" horiz-adv-x="609" 
d="M529 0h-98l-3 80c-38 -59 -99 -92 -164 -92c-67 0 -114 24 -144 64c-35 48 -45 115 -45 191v263h103v-254c0 -46 2 -97 24 -132c15 -24 42 -39 83 -39c54 0 108 37 141 90v335h103v-506zM366 745l-142 -168l-62 46l130 180zM530 731l-137 -163l-63 47l127 173z" />
    <glyph glyph-name="Uogonek" unicode="&#x172;" horiz-adv-x="721" 
d="M634 700v-371c0 -178 -54 -292 -177 -328c-45 -13 -98 -54 -98 -105c0 -28 15 -46 44 -46c15 0 30 5 44 14l33 -57c-23 -20 -59 -31 -95 -31c-60 0 -116 36 -116 101c0 43 22 86 62 112c-171 11 -244 131 -244 340v371h107v-394c0 -150 64 -223 166 -223
c104 0 167 73 167 223v394h107z" />
    <glyph glyph-name="uogonek" unicode="&#x173;" horiz-adv-x="609" 
d="M332 -123c0 49 31 94 99 125l-3 78c-38 -59 -99 -92 -164 -92c-67 0 -114 24 -144 64c-35 48 -45 115 -45 191v263h103v-254c0 -46 2 -97 24 -132c15 -24 42 -39 83 -39c54 0 108 37 141 90v335h103v-506c-55 -18 -107 -51 -107 -107c0 -26 15 -43 44 -43
c15 0 31 5 45 14l32 -57c-23 -20 -59 -31 -94 -31c-61 0 -117 36 -117 101z" />
    <glyph glyph-name="Wcircumflex" unicode="&#x174;" horiz-adv-x="900" 
d="M502 700l135 -509h2l140 509h116l-200 -700h-107l-137 515h-2l-147 -515h-104l-193 700h119l134 -509h2l141 509h101zM397 921h111l108 -132l-61 -47l-103 109l-105 -109l-61 47z" />
    <glyph glyph-name="wcircumflex" unicode="&#x175;" horiz-adv-x="745" 
d="M427 506l98 -373h3l97 373h106l-147 -506h-109l-102 368h-2l-104 -368h-113l-140 506h111l90 -373h2l106 373h104zM323 778h104l103 -168l-60 -39l-96 135l-95 -135l-61 39z" />
    <glyph glyph-name="Wgrave" unicode="&#x1e80;" horiz-adv-x="900" 
d="M502 700l135 -509h2l140 509h116l-200 -700h-107l-137 515h-2l-147 -515h-104l-193 700h119l134 -509h2l141 509h101zM472 738l-177 127l58 73l166 -139z" />
    <glyph glyph-name="wgrave" unicode="&#x1e81;" horiz-adv-x="745" 
d="M427 506l98 -373h3l97 373h106l-147 -506h-109l-102 368h-2l-104 -368h-113l-140 506h111l90 -373h2l106 373h104zM364 569l-137 163l73 57l126 -173z" />
    <glyph glyph-name="Wacute" unicode="&#x1e82;" horiz-adv-x="900" 
d="M502 700l135 -509h2l140 509h116l-200 -700h-107l-137 515h-2l-147 -515h-104l-193 700h119l134 -509h2l141 509h101zM613 865l-177 -127l-47 61l166 139z" />
    <glyph glyph-name="wacute" unicode="&#x1e83;" horiz-adv-x="745" 
d="M427 506l98 -373h3l97 373h106l-147 -506h-109l-102 368h-2l-104 -368h-113l-140 506h111l90 -373h2l106 373h104zM521 732l-137 -163l-62 47l126 173z" />
    <glyph glyph-name="Wdieresis" unicode="&#x1e84;" horiz-adv-x="900" 
d="M502 700l135 -509h2l140 509h116l-200 -700h-107l-137 515h-2l-147 -515h-104l-193 700h119l134 -509h2l141 509h101zM373 763h-113v114h113v-114zM644 763h-113v114h113v-114z" />
    <glyph glyph-name="wdieresis" unicode="&#x1e85;" horiz-adv-x="745" 
d="M427 506l98 -373h3l97 373h106l-147 -506h-109l-102 368h-2l-104 -368h-113l-140 506h111l90 -373h2l106 373h104zM321 598h-105v107h105v-107zM534 598h-105v107h105v-107z" />
    <glyph glyph-name="Ygrave" unicode="&#x1ef2;" horiz-adv-x="568" 
d="M335 0h-107v302l-223 398h133l148 -284h2l150 284h125l-228 -403v-297zM331 738l-177 127l58 73l166 -139z" />
    <glyph glyph-name="ygrave" unicode="&#x1ef3;" horiz-adv-x="490" 
d="M5 506h114l124 -364h2l128 364h112l-285 -735l-91 36l80 212zM266 569l-137 163l73 57l126 -173z" />
    <glyph glyph-name="Ycircumflex" unicode="&#x176;" horiz-adv-x="568" 
d="M335 0h-107v302l-223 398h133l148 -284h2l150 284h125l-228 -403v-297zM230 921h111l108 -132l-61 -47l-103 109l-105 -109l-61 47z" />
    <glyph glyph-name="ycircumflex" unicode="&#x177;" horiz-adv-x="490" 
d="M5 506h114l124 -364h2l128 364h112l-285 -735l-91 36l80 212zM201 778h104l103 -168l-60 -39l-96 135l-95 -135l-61 39z" />
    <glyph glyph-name="Ydieresis" unicode="&#x178;" horiz-adv-x="568" 
d="M335 0h-108v302l-222 398h133l148 -284h2l150 284h125l-228 -403v-297zM228 763h-112v114h112v-114zM467 763h-112v114h112v-114z" />
    <glyph glyph-name="Zacute" unicode="&#x179;" horiz-adv-x="551" 
d="M507 643l-321 -549h346v-94h-494v57l322 549h-314v94h461v-57zM424 865l-177 -127l-47 61l166 139z" />
    <glyph glyph-name="zacute" unicode="&#x17a;" horiz-adv-x="461" 
d="M57 47l216 370h-227v89h364v-46l-217 -371h234v-89h-370v47zM377 732l-137 -163l-62 47l126 173z" />
    <glyph glyph-name="Zdotaccent" unicode="&#x17b;" horiz-adv-x="551" 
d="M507 643l-321 -549h346v-94h-494v57l322 549h-314v94h461v-57zM325 763h-112v114h112v-114z" />
    <glyph glyph-name="zdotaccent" unicode="&#x17c;" horiz-adv-x="461" 
d="M57 47l216 370h-227v89h364v-46l-217 -371h234v-89h-370v47zM276 598h-103v107h103v-107z" />
    <glyph glyph-name="Zcaron" unicode="&#x17d;" horiz-adv-x="551" 
d="M507 643l-321 -549h346v-94h-494v57l322 549h-314v94h461v-57zM329 753h-111l-108 132l63 47l103 -109l105 109l59 -47z" />
    <glyph glyph-name="zcaron" unicode="&#x17e;" horiz-adv-x="461" 
d="M57 47l216 370h-227v89h364v-46l-217 -371h234v-89h-370v47zM292 571h-104l-103 168l62 38l96 -135l95 135l59 -38z" />
    <glyph glyph-name="longs" unicode="&#x17f;" horiz-adv-x="310" 
d="M353 738l-30 -84c-20 10 -40 15 -66 15s-42 -6 -54 -16c-20 -18 -23 -50 -23 -91v-562h-103v571c0 54 10 100 33 133c26 37 68 58 137 58c36 0 75 -10 106 -24z" />
    <glyph glyph-name="dotlessj" unicode="&#xf6be;" horiz-adv-x="272" 
d="M191 506v-548c0 -41 -4 -75 -18 -104c-21 -46 -64 -77 -137 -77c-37 0 -71 7 -100 22l29 83c15 -8 35 -14 57 -14c61 0 66 47 66 106v532h103z" />
    <glyph glyph-name="s_t" horiz-adv-x="812" 
d="M394 460l-60 -65c-23 21 -64 39 -100 39c-41 0 -69 -24 -69 -60c0 -37 46 -55 93 -74c66 -26 148 -62 148 -152c0 -113 -90 -160 -186 -160c-72 0 -138 28 -182 81l68 59c35 -36 70 -55 113 -55c44 0 84 22 84 69c0 39 -46 57 -96 77c-66 27 -141 57 -141 147
c0 103 81 152 168 152c60 0 118 -20 160 -58zM786 417h-139v-220c0 -13 0 -25 1 -40c3 -48 19 -76 64 -76c22 0 41 6 57 14l30 -81c-27 -15 -66 -24 -101 -24c-73 0 -119 34 -139 86c-11 28 -15 63 -15 100v241h-66v89h66l5 119h98v-119h139v-89z" />
    <glyph glyph-name="s_p" horiz-adv-x="1088" 
d="M394 460l-60 -65c-23 21 -64 39 -100 39c-41 0 -69 -24 -69 -60c0 -37 46 -55 93 -74c66 -26 148 -62 148 -152c0 -113 -90 -160 -186 -160c-72 0 -138 28 -182 81l68 59c35 -36 70 -55 113 -55c44 0 84 22 84 69c0 39 -46 57 -96 77c-66 27 -141 57 -141 147
c0 103 81 152 168 152c60 0 118 -20 160 -58zM538 506h98l3 -67c36 53 102 79 161 79c143 0 248 -118 248 -266c0 -136 -100 -264 -250 -264c-57 0 -117 24 -157 66v-304h-103v756zM641 335v-181c34 -48 90 -73 140 -73c110 0 162 90 162 173c0 90 -61 171 -160 171
c-52 0 -116 -30 -142 -90z" />
    <glyph glyph-name="c_t" horiz-adv-x="853" 
d="M408 117l52 -76c-40 -34 -98 -53 -161 -53c-146 0 -259 106 -259 265c0 148 114 265 263 265c58 0 109 -17 152 -48l-50 -81c-29 22 -65 36 -102 36c-88 0 -158 -77 -158 -172c0 -103 74 -172 158 -172c34 0 77 14 105 36zM827 417h-139v-220c0 -13 0 -25 1 -40
c3 -48 19 -76 64 -76c22 0 41 6 57 14l30 -81c-27 -15 -66 -24 -101 -24c-73 0 -119 34 -139 86c-11 28 -15 63 -15 100v241h-66v89h66l5 119h98v-119h139v-89z" />
    <glyph glyph-name="c_h" horiz-adv-x="1093" 
d="M408 117l52 -76c-40 -34 -98 -53 -161 -53c-146 0 -259 106 -259 265c0 148 114 265 263 265c58 0 109 -17 152 -48l-50 -81c-29 22 -65 36 -102 36c-88 0 -158 -77 -158 -172c0 -103 74 -172 158 -172c34 0 77 14 105 36zM667 750v-322c38 57 98 90 162 90
c67 0 114 -24 144 -64c35 -48 45 -115 45 -191v-263h-103v254c0 46 -2 97 -24 132c-15 24 -42 39 -83 39c-54 0 -108 -37 -141 -90v-335h-103v750h103z" />
    <glyph glyph-name="c_k" horiz-adv-x="1008" 
d="M408 117l52 -76c-40 -34 -98 -53 -161 -53c-146 0 -259 106 -259 265c0 148 114 265 263 265c58 0 109 -17 152 -48l-50 -81c-29 22 -65 36 -102 36c-88 0 -158 -77 -158 -172c0 -103 74 -172 158 -172c34 0 77 14 105 36zM667 750v-486l2 -1l195 243h124l-179 -208
l194 -298h-124l-138 218l-74 -86v-132h-103v750h103z" />
    <glyph glyph-name="T_h" horiz-adv-x="1058" 
d="M472 606h-174v-606h-107v606h-174v94h455v-94zM632 750v-322c38 57 98 90 162 90c67 0 114 -24 144 -64c35 -48 45 -115 45 -191v-263h-103v254c0 46 -2 97 -24 132c-15 24 -42 39 -83 39c-54 0 -108 -37 -141 -90v-335h-103v750h103z" />
    <glyph glyph-name="circumflex" unicode="&#x2c6;" horiz-adv-x="360" 
d="M128 778h104l103 -168l-60 -39l-96 135l-95 -135l-61 39z" />
    <glyph glyph-name="caron" unicode="&#x2c7;" horiz-adv-x="360" 
d="M230 571h-104l-103 168l62 38l96 -135l95 135l59 -38z" />
    <glyph glyph-name="uni02C9" unicode="&#x2c9;" horiz-adv-x="360" 
d="M334 608h-308v77h308v-77z" />
    <glyph glyph-name="breve" unicode="&#x2d8;" horiz-adv-x="360" 
d="M256 735h72v-18c0 -83 -65 -148 -148 -148s-148 65 -148 148v18h74v-19c0 -42 32 -76 74 -76s76 34 76 76v19z" />
    <glyph glyph-name="dieresis" unicode="&#xa8;" horiz-adv-x="360" 
d="M126 598h-105v107h105v-107zM339 598h-105v107h105v-107z" />
    <glyph glyph-name="macron" unicode="&#xaf;" horiz-adv-x="360" 
d="M334 608h-308v77h308v-77z" />
    <glyph glyph-name="degree" unicode="&#xb0;" horiz-adv-x="462" 
d="M76 541c0 84 69 152 154 152s154 -68 154 -152s-69 -152 -154 -152s-154 68 -154 152zM151 541c0 -45 35 -80 79 -80s79 35 79 80s-35 80 -79 80s-79 -35 -79 -80z" />
    <glyph glyph-name="acute" unicode="&#xb4;" horiz-adv-x="360" 
d="M311 732l-137 -163l-62 47l126 173z" />
    <glyph glyph-name="grave" unicode="`" horiz-adv-x="360" 
d="M186 569l-137 163l73 57l126 -173z" />
    <glyph glyph-name="cedilla" unicode="&#xb8;" horiz-adv-x="400" 
d="M191 1l-24 -65l1 -1c15 11 32 16 47 16c46 0 89 -40 89 -95c0 -54 -48 -104 -110 -104c-47 0 -83 21 -106 62l59 29c9 -24 26 -32 45 -32c25 0 42 20 42 42c0 25 -18 46 -44 46c-15 0 -30 -8 -38 -23l-64 33l44 104z" />
    <glyph glyph-name="dotaccent" unicode="&#x2d9;" horiz-adv-x="360" 
d="M232 598h-103v107h103v-107z" />
    <glyph glyph-name="ring" unicode="&#x2da;" horiz-adv-x="360" 
d="M82 678c0 54 44 98 98 98s98 -44 98 -98s-44 -98 -98 -98s-98 44 -98 98zM136 678c0 -24 20 -44 44 -44s44 20 44 44s-20 44 -44 44s-44 -20 -44 -44z" />
    <glyph glyph-name="ogonek" unicode="&#x2db;" horiz-adv-x="360" 
d="M162 11h84v-11c-72 -20 -108 -67 -108 -107c0 -26 15 -43 44 -43c15 0 31 5 45 14l32 -57c-23 -20 -59 -31 -94 -31c-61 0 -117 36 -117 101c0 61 41 107 114 134z" />
    <glyph glyph-name="tilde" unicode="&#x2dc;" horiz-adv-x="360" 
d="M77 605l-69 -7c-2 7 -4 16 -4 26c0 59 43 97 103 97c69 0 107 -61 147 -61c17 0 30 10 31 29c0 2 0 6 -1 9l69 7c2 -7 4 -16 4 -26c0 -59 -43 -97 -103 -97c-69 0 -107 61 -147 61c-17 0 -30 -10 -31 -29c0 -2 0 -6 1 -9z" />
    <glyph glyph-name="hungarumlaut" unicode="&#x2dd;" horiz-adv-x="360" 
d="M235 745l-142 -168l-62 46l130 180zM399 731l-137 -163l-63 47l127 173z" />
    <glyph glyph-name="percent" unicode="%" horiz-adv-x="851" 
d="M219 706c91 0 164 -71 164 -162s-73 -162 -164 -162s-164 71 -164 162s73 162 164 162zM219 628c-46 0 -80 -35 -80 -84s34 -84 80 -84s80 35 80 84s-34 84 -80 84zM647 713l58 -43l-497 -683l-59 43zM632 318c91 0 164 -71 164 -162s-73 -162 -164 -162
s-164 71 -164 162s73 162 164 162zM632 240c-46 0 -80 -35 -80 -84s34 -84 80 -84s80 35 80 84s-34 84 -80 84z" />
    <glyph glyph-name="perthousand" unicode="&#x2030;" horiz-adv-x="1239" 
d="M219 706c91 0 164 -71 164 -162s-73 -162 -164 -162s-164 71 -164 162s73 162 164 162zM219 628c-46 0 -80 -35 -80 -84s34 -84 80 -84s80 35 80 84s-34 84 -80 84zM647 713l58 -43l-497 -683l-59 43zM632 318c91 0 164 -71 164 -162s-73 -162 -164 -162
s-164 71 -164 162s73 162 164 162zM632 240c-46 0 -80 -35 -80 -84s34 -84 80 -84s80 35 80 84s-34 84 -80 84zM1020 318c91 0 164 -71 164 -162s-73 -162 -164 -162s-164 71 -164 162s73 162 164 162zM1020 240c-46 0 -80 -35 -80 -84s34 -84 80 -84s80 35 80 84
s-34 84 -80 84z" />
    <glyph glyph-name="fraction" unicode="&#x2044;" horiz-adv-x="136" 
d="M287 713l59 -43l-497 -683l-59 43z" />
    <glyph glyph-name="zerosuperior" horiz-adv-x="342" 
d="M171 428c43 0 67 46 67 140c0 95 -24 140 -67 140s-67 -45 -67 -140c0 -94 24 -140 67 -140zM171 775c95 0 149 -78 149 -207c0 -128 -54 -207 -149 -207s-149 79 -149 207c0 129 54 207 149 207z" />
    <glyph glyph-name="onesuperior" unicode="&#xb9;" horiz-adv-x="219" 
d="M167 367h-79v312c-18 -8 -42 -19 -58 -25v71c25 12 58 30 85 44h52v-402z" />
    <glyph glyph-name="twosuperior" unicode="&#xb2;" horiz-adv-x="322" 
d="M35 429c48 48 100 107 138 158c16 22 32 50 32 77c0 28 -22 45 -49 45c-30 0 -50 -23 -50 -57l-79 12c4 68 65 111 129 111c67 0 130 -41 130 -109c0 -40 -16 -78 -40 -111c-31 -43 -71 -86 -108 -122h165v-66h-268v62z" />
    <glyph glyph-name="threesuperior" unicode="&#xb3;" horiz-adv-x="326" 
d="M102 539v66c20 0 37 2 50 5c27 7 45 26 45 50c0 28 -22 49 -55 49c-25 0 -48 -14 -55 -41l-65 28c17 50 64 79 121 79c73 0 134 -41 134 -107c0 -34 -19 -68 -51 -86c44 -14 70 -55 70 -98c0 -77 -65 -123 -143 -123c-56 0 -113 27 -137 79l64 31c15 -29 40 -43 71 -43
c33 0 63 19 63 55c0 38 -33 60 -76 60c-9 0 -22 -1 -36 -4z" />
    <glyph glyph-name="foursuperior" horiz-adv-x="338" 
d="M19 539c53 66 117 156 171 230h81v-236h57v-64h-57v-102h-78v102h-174v70zM193 533v133c-27 -41 -68 -103 -92 -133h92z" />
    <glyph glyph-name="fivesuperior" horiz-adv-x="319" 
d="M274 704h-145c-1 -30 -3 -63 -6 -91c16 7 34 10 52 10c68 0 119 -56 119 -122c0 -80 -60 -138 -140 -138c-56 0 -110 27 -135 76l64 33c14 -32 40 -43 65 -43c40 0 64 31 64 66c0 36 -26 62 -63 62c-21 0 -40 -7 -54 -25l-53 35c6 58 11 148 13 202h219v-65z" />
    <glyph glyph-name="sixsuperior" horiz-adv-x="336" 
d="M231 793l27 -64c-68 -28 -121 -65 -143 -129c20 16 45 26 74 26c73 0 125 -57 125 -129c0 -77 -58 -136 -137 -136c-96 0 -155 74 -155 164c0 132 94 224 209 268zM172 561c-28 0 -55 -15 -69 -38c0 -50 18 -96 69 -96c39 0 61 31 61 67c0 40 -25 67 -61 67z" />
    <glyph glyph-name="sevensuperior" horiz-adv-x="284" 
d="M274 769v-49c-49 -103 -121 -264 -164 -368l-72 33c53 124 112 246 146 318h-178v66h268z" />
    <glyph glyph-name="eightsuperior" horiz-adv-x="348" 
d="M303 664c0 -40 -17 -66 -48 -86c38 -22 60 -50 60 -98c0 -67 -59 -119 -141 -119s-141 52 -141 119c0 48 21 76 59 98c-30 20 -48 46 -48 86c0 62 54 111 130 111c77 0 129 -49 129 -111zM174 543c-33 0 -61 -25 -61 -58c0 -34 28 -59 61 -59c34 0 60 25 60 59
c0 33 -26 58 -60 58zM174 709c-28 0 -51 -21 -51 -49c0 -29 23 -52 51 -52c29 0 51 23 51 52c0 28 -22 49 -51 49z" />
    <glyph glyph-name="ninesuperior" horiz-adv-x="336" 
d="M105 343l-27 65c68 27 121 65 142 129c-19 -17 -45 -26 -74 -26c-72 0 -124 56 -124 128c0 77 57 136 136 136c97 0 156 -74 156 -163c0 -132 -94 -225 -209 -269zM164 576c28 0 54 15 69 38c0 49 -19 96 -69 96c-39 0 -61 -31 -61 -68c0 -39 25 -66 61 -66z" />
    <glyph glyph-name="parenleftsuperior" horiz-adv-x="221" 
d="M224 315l-28 -53c-95 57 -170 146 -170 289c0 142 74 229 170 288l29 -53c-65 -42 -122 -115 -122 -235c0 -121 55 -194 121 -236z" />
    <glyph glyph-name="parenrightsuperior" horiz-adv-x="221" 
d="M24 262l-28 53c66 42 122 115 122 236c0 120 -58 193 -122 235l29 53c95 -59 169 -146 169 -288c0 -143 -75 -232 -170 -289z" />
    <glyph glyph-name="hyphensuperior" unicode="&#xf6e6;" horiz-adv-x="276" 
d="M217 506h-158v65h158v-65z" />
    <glyph glyph-name="commasuperior" unicode="&#xf6e2;" horiz-adv-x="165" 
d="M126 451l-42 -161h-73l33 161h82z" />
    <glyph glyph-name="periodsuperior" unicode="&#xf6e8;" horiz-adv-x="158" 
d="M120 367h-82v83h82v-83z" />
    <glyph glyph-name="minussuperior" horiz-adv-x="341" 
d="M29 587h283v-65h-283v65z" />
    <glyph glyph-name="plussuperior" horiz-adv-x="336" 
d="M135 404v118h-117v65h117v118h65v-118h118v-65h-118v-118h-65z" />
    <glyph glyph-name="equalsuperior" horiz-adv-x="341" 
d="M29 642h283v-63h-283v63zM29 531h283v-65h-283v65z" />
    <glyph glyph-name="a.sup" horiz-adv-x="342" 
d="M300 367h-68l-5 28c-22 -26 -52 -35 -86 -35c-58 0 -111 32 -111 96c0 77 70 101 136 101c16 0 35 -1 56 -6v7c0 40 -19 64 -64 64c-34 0 -69 -14 -94 -28l-21 57c37 19 84 32 130 32c85 0 127 -48 127 -130v-186zM222 503c-17 4 -30 5 -43 5c-33 0 -72 -11 -72 -48
c0 -31 24 -44 50 -44s46 12 65 28v59z" />
    <glyph glyph-name="b.sup" horiz-adv-x="386" 
d="M215 360c-34 0 -72 13 -96 42l-3 -35h-70v450h78v-177c23 30 60 43 93 43c86 0 146 -73 146 -161c0 -85 -59 -162 -148 -162zM199 616c-27 0 -59 -14 -75 -45v-108c19 -25 47 -36 74 -36c57 0 85 49 85 95c0 49 -31 94 -84 94z" />
    <glyph glyph-name="c.sup" horiz-adv-x="298" 
d="M247 450l41 -53c-28 -25 -64 -37 -106 -37c-90 0 -159 64 -159 161c0 91 69 162 161 162c39 0 74 -13 103 -35l-41 -56c-16 15 -36 24 -59 24c-49 0 -84 -43 -84 -95c0 -55 36 -94 83 -94c23 0 43 8 61 23z" />
    <glyph glyph-name="d.sup" horiz-adv-x="386" 
d="M269 367l-4 39c-21 -33 -61 -46 -95 -46c-86 0 -147 73 -147 162c0 84 60 161 147 161c32 0 68 -12 92 -38v172h78v-450h-71zM186 427c27 0 59 13 76 45v108c-20 25 -48 36 -75 36c-56 0 -84 -48 -84 -96c0 -49 32 -93 83 -93z" />
    <glyph glyph-name="e.sup" horiz-adv-x="350" 
d="M267 468l52 -34c-34 -50 -75 -74 -140 -74c-94 0 -156 67 -156 159c0 93 68 164 157 164c83 0 147 -61 147 -143c0 -13 -2 -26 -4 -38h-221c5 -45 35 -79 82 -79c38 0 64 15 83 45zM181 622c-42 0 -66 -29 -75 -66h141c-3 38 -30 66 -66 66z" />
    <glyph glyph-name="f.sup" horiz-adv-x="221" 
d="M239 808l-22 -60c-13 7 -26 10 -41 10c-35 0 -39 -21 -39 -53v-30h78v-63h-78v-245h-78v245h-34v63h34v35c0 72 28 114 107 114c25 0 51 -6 73 -16z" />
    <glyph glyph-name="g.sup" horiz-adv-x="382" 
d="M340 675v-294c0 -109 -74 -151 -156 -151c-49 0 -101 14 -143 42l29 64c33 -25 74 -40 111 -40c46 0 81 24 81 78v34c-23 -29 -60 -41 -92 -41c-86 0 -147 71 -147 158c0 83 60 158 147 158c34 0 71 -14 95 -42l4 34h71zM262 479v101c-20 25 -48 36 -75 36
c-56 0 -84 -45 -84 -92c0 -49 32 -90 82 -90c27 0 60 13 77 45z" />
    <glyph glyph-name="h.sup" horiz-adv-x="373" 
d="M124 367h-78v450h78v-182c25 33 53 48 89 48c89 0 117 -60 117 -152v-164h-78v160c0 44 -2 89 -54 89c-27 0 -56 -17 -74 -45v-204z" />
    <glyph glyph-name="i.sup" horiz-adv-x="170" 
d="M124 367h-78v308h78v-308zM124 725h-78v69h78v-69z" />
    <glyph glyph-name="j.sup" horiz-adv-x="184" 
d="M-31 244l22 61c8 -4 19 -8 30 -8c31 0 39 24 39 52v326h78v-333c0 -69 -26 -111 -103 -111c-23 0 -45 5 -66 13zM138 725h-78v69h78v-69z" />
    <glyph glyph-name="k.sup" horiz-adv-x="330" 
d="M124 817v-272h1l104 130h91l-110 -127l118 -181h-95l-76 120l-33 -40v-80h-78v450h78z" />
    <glyph glyph-name="l.sup" horiz-adv-x="170" 
d="M124 817v-450h-78v450h78z" />
    <glyph glyph-name="m.sup" horiz-adv-x="558" 
d="M124 367h-78v308h70l4 -40c25 32 59 48 91 48c39 0 71 -17 90 -52c30 39 67 52 104 52c86 0 111 -71 111 -153v-163h-78v157c0 44 -2 92 -54 92c-23 0 -49 -15 -67 -38c2 -14 3 -31 3 -48v-163h-78v157c0 42 -1 92 -52 92c-23 0 -49 -17 -66 -38v-211z" />
    <glyph glyph-name="n.sup" horiz-adv-x="373" 
d="M124 367h-78v308h70l4 -45c26 36 55 53 93 53c89 0 117 -60 117 -152v-164h-78v160c0 44 -2 89 -54 89c-27 0 -56 -17 -74 -45v-204z" />
    <glyph glyph-name="o.sup" horiz-adv-x="368" 
d="M184 683c94 0 161 -71 161 -162c0 -90 -67 -161 -161 -161s-161 71 -161 161c0 91 67 162 161 162zM265 521c0 52 -32 95 -81 95s-81 -43 -81 -95c0 -51 32 -94 81 -94s81 43 81 94z" />
    <glyph glyph-name="p.sup" horiz-adv-x="386" 
d="M116 675l5 -38c21 32 60 46 95 46c85 0 147 -73 147 -162c0 -84 -60 -161 -147 -161c-33 0 -68 12 -92 37v-178h-78v456h70zM200 616c-28 0 -59 -14 -76 -45v-108c19 -25 47 -36 74 -36c56 0 85 47 85 95c0 50 -32 94 -83 94z" />
    <glyph glyph-name="q.sup" horiz-adv-x="386" 
d="M171 683c33 0 70 -13 94 -41l4 33h71v-456h-78v183c-24 -30 -61 -42 -94 -42c-85 0 -145 73 -145 162c0 83 59 161 148 161zM186 427c28 0 59 13 76 45v108c-20 25 -49 36 -75 36c-57 0 -84 -50 -84 -96c0 -48 30 -93 83 -93z" />
    <glyph glyph-name="r.sup" horiz-adv-x="230" 
d="M124 367h-78v308h70l4 -42c18 31 43 50 74 50c16 0 27 -3 40 -7l-18 -70c-9 6 -19 8 -30 8c-25 0 -47 -14 -62 -41v-206z" />
    <glyph glyph-name="s.sup" horiz-adv-x="289" 
d="M255 644l-42 -47c-15 14 -39 25 -61 25c-20 0 -34 -11 -34 -28c0 -20 26 -31 54 -42c39 -16 87 -39 87 -93c0 -70 -58 -99 -117 -99c-46 0 -88 17 -120 52l46 45c25 -25 48 -36 72 -36c23 0 42 11 42 33c0 20 -26 31 -56 43c-37 15 -83 36 -83 92c0 62 52 94 108 94
c39 0 76 -13 104 -39z" />
    <glyph glyph-name="t.sup" horiz-adv-x="232" 
d="M199 435l23 -57c-20 -12 -46 -18 -69 -18c-70 0 -98 47 -98 115v137h-38v63h39l9 71h68v-71h80v-63h-80v-125c0 -29 0 -61 31 -61c13 0 24 4 35 9z" />
    <glyph glyph-name="u.sup" horiz-adv-x="373" 
d="M248 675h78v-308h-70l-4 45c-26 -36 -55 -53 -93 -53c-89 0 -117 60 -117 152v164h78v-160c0 -44 2 -89 54 -89c27 0 56 17 74 45v204z" />
    <glyph glyph-name="v.sup" horiz-adv-x="313" 
d="M156 473h1l67 202h86l-124 -308h-66l-116 308h86z" />
    <glyph glyph-name="w.sup" horiz-adv-x="455" 
d="M228 559h-1l-54 -192h-85l-84 308h84l48 -201h1l55 201h73l52 -201h2l51 201h81l-89 -308h-82z" />
    <glyph glyph-name="x.sup" horiz-adv-x="339" 
d="M13 675h98l64 -93l64 93h96l-116 -152l114 -156h-98l-67 98l-67 -98h-97l120 156z" />
    <glyph glyph-name="y.sup" horiz-adv-x="311" 
d="M154 480h2l66 195h85l-172 -445l-70 26l48 128l-109 291h85z" />
    <glyph glyph-name="z.sup" horiz-adv-x="287" 
d="M32 402l123 210h-129v63h231v-33l-124 -212h134v-63h-235v35z" />
    <glyph glyph-name="zeroinferior" horiz-adv-x="342" 
d="M171 -116c43 0 67 46 67 140c0 95 -24 140 -67 140s-67 -45 -67 -140c0 -94 24 -140 67 -140zM171 231c95 0 149 -78 149 -207c0 -128 -54 -207 -149 -207s-149 79 -149 207c0 129 54 207 149 207z" />
    <glyph glyph-name="oneinferior" horiz-adv-x="219" 
d="M167 -178h-79v312c-18 -8 -42 -19 -58 -25v71c25 12 58 30 85 44h52v-402z" />
    <glyph glyph-name="twoinferior" horiz-adv-x="322" 
d="M35 -116c48 48 100 107 138 158c16 22 32 50 32 77c0 28 -22 45 -49 45c-30 0 -50 -23 -50 -57l-79 12c4 68 65 111 129 111c67 0 130 -41 130 -109c0 -40 -16 -78 -40 -111c-31 -43 -71 -86 -108 -122h165v-66h-268v62z" />
    <glyph glyph-name="threeinferior" horiz-adv-x="326" 
d="M102 -6v66c20 0 37 2 50 5c27 7 45 26 45 50c0 28 -22 49 -55 49c-25 0 -48 -14 -55 -41l-65 28c17 50 64 79 121 79c73 0 134 -41 134 -107c0 -34 -19 -68 -51 -86c44 -14 70 -55 70 -98c0 -77 -65 -123 -143 -123c-56 0 -113 27 -137 79l64 31c15 -29 40 -43 71 -43
c33 0 63 19 63 55c0 38 -33 60 -76 60c-9 0 -22 -1 -36 -4z" />
    <glyph glyph-name="fourinferior" horiz-adv-x="338" 
d="M19 -6c53 66 117 156 171 230h81v-236h57v-64h-57v-102h-78v102h-174v70zM193 -12v133c-27 -41 -68 -103 -92 -133h92z" />
    <glyph glyph-name="fiveinferior" horiz-adv-x="319" 
d="M274 159h-145c-1 -30 -3 -63 -6 -91c16 7 34 10 52 10c68 0 119 -56 119 -122c0 -80 -60 -138 -140 -138c-56 0 -110 27 -135 76l64 33c14 -32 40 -43 65 -43c40 0 64 31 64 66c0 36 -26 62 -63 62c-21 0 -40 -7 -54 -25l-53 35c6 58 11 148 13 202h219v-65z" />
    <glyph glyph-name="sixinferior" horiz-adv-x="336" 
d="M231 248l27 -64c-68 -28 -121 -65 -143 -129c20 16 45 26 74 26c73 0 125 -57 125 -129c0 -77 -58 -136 -137 -136c-96 0 -155 74 -155 164c0 132 94 224 209 268zM172 16c-28 0 -55 -15 -69 -38c0 -50 18 -96 69 -96c39 0 61 31 61 67c0 40 -25 67 -61 67z" />
    <glyph glyph-name="seveninferior" horiz-adv-x="284" 
d="M274 224v-49c-49 -103 -121 -264 -164 -368l-72 33c53 124 112 246 146 318h-178v66h268z" />
    <glyph glyph-name="eightinferior" horiz-adv-x="348" 
d="M303 119c0 -40 -17 -66 -48 -86c38 -22 60 -50 60 -98c0 -67 -59 -119 -141 -119s-141 52 -141 119c0 48 21 76 59 98c-30 20 -48 46 -48 86c0 62 54 111 130 111c77 0 129 -49 129 -111zM174 -2c-33 0 -61 -25 -61 -58c0 -34 28 -59 61 -59c34 0 60 25 60 59
c0 33 -26 58 -60 58zM174 164c-28 0 -51 -21 -51 -49c0 -29 23 -52 51 -52c29 0 51 23 51 52c0 28 -22 49 -51 49z" />
    <glyph glyph-name="nineinferior" horiz-adv-x="336" 
d="M105 -202l-27 65c68 27 121 65 142 129c-19 -17 -45 -26 -74 -26c-72 0 -124 56 -124 128c0 77 57 136 136 136c97 0 156 -74 156 -163c0 -132 -94 -225 -209 -269zM164 31c28 0 54 15 69 38c0 49 -19 96 -69 96c-39 0 -61 -31 -61 -68c0 -39 25 -66 61 -66z" />
    <glyph glyph-name="parenleftinferior" horiz-adv-x="221" 
d="M224 -230l-28 -53c-95 57 -170 146 -170 289c0 142 74 229 170 288l29 -53c-65 -42 -122 -115 -122 -235c0 -121 55 -194 121 -236z" />
    <glyph glyph-name="parenrightinferior" horiz-adv-x="221" 
d="M24 -283l-28 53c66 42 122 115 122 236c0 120 -58 193 -122 235l29 53c95 -59 169 -146 169 -288c0 -143 -75 -232 -170 -289z" />
    <glyph glyph-name="hypheninferior" unicode="&#xf6e5;" horiz-adv-x="276" 
d="M217 -39h-158v65h158v-65z" />
    <glyph glyph-name="commainferior" unicode="&#xf6e1;" horiz-adv-x="165" 
d="M126 -94l-42 -161h-73l33 161h82z" />
    <glyph glyph-name="periodinferior" unicode="&#xf6e7;" horiz-adv-x="158" 
d="M120 -178h-82v83h82v-83z" />
    <glyph glyph-name="minusinferior" horiz-adv-x="341" 
d="M29 42h283v-65h-283v65z" />
    <glyph glyph-name="plusinferior" horiz-adv-x="336" 
d="M135 -141v118h-117v65h117v118h65v-118h118v-65h-118v-118h-65z" />
    <glyph glyph-name="equalinferior" horiz-adv-x="341" 
d="M29 97h283v-63h-283v63zM29 -14h283v-65h-283v65z" />
    <glyph glyph-name="a.sinf" horiz-adv-x="342" 
d="M300 -178h-68l-5 28c-22 -26 -52 -35 -86 -35c-58 0 -111 32 -111 96c0 77 70 101 136 101c16 0 35 -1 56 -6v7c0 40 -19 64 -64 64c-34 0 -69 -14 -94 -28l-21 57c37 19 84 32 130 32c85 0 127 -48 127 -130v-186zM222 -42c-17 4 -30 5 -43 5c-33 0 -72 -11 -72 -48
c0 -31 24 -44 50 -44s46 12 65 28v59z" />
    <glyph glyph-name="b.sinf" horiz-adv-x="386" 
d="M215 -185c-34 0 -72 13 -96 42l-3 -35h-70v450h78v-177c23 30 60 43 93 43c86 0 146 -73 146 -161c0 -85 -59 -162 -148 -162zM199 71c-27 0 -59 -14 -75 -45v-108c19 -25 47 -36 74 -36c57 0 85 49 85 95c0 49 -31 94 -84 94z" />
    <glyph glyph-name="c.sinf" horiz-adv-x="298" 
d="M247 -95l41 -53c-28 -25 -64 -37 -106 -37c-90 0 -159 64 -159 161c0 91 69 162 161 162c39 0 74 -13 103 -35l-41 -56c-16 15 -36 24 -59 24c-49 0 -84 -43 -84 -95c0 -55 36 -94 83 -94c23 0 43 8 61 23z" />
    <glyph glyph-name="d.sinf" horiz-adv-x="386" 
d="M269 -178l-4 39c-21 -33 -61 -46 -95 -46c-86 0 -147 73 -147 162c0 84 60 161 147 161c32 0 68 -12 92 -38v172h78v-450h-71zM186 -118c27 0 59 13 76 45v108c-20 25 -48 36 -75 36c-56 0 -84 -48 -84 -96c0 -49 32 -93 83 -93z" />
    <glyph glyph-name="e.sinf" horiz-adv-x="350" 
d="M267 -77l52 -34c-34 -50 -75 -74 -140 -74c-94 0 -156 67 -156 159c0 93 68 164 157 164c83 0 147 -61 147 -143c0 -13 -2 -26 -4 -38h-221c5 -45 35 -79 82 -79c38 0 64 15 83 45zM181 77c-42 0 -66 -29 -75 -66h141c-3 38 -30 66 -66 66z" />
    <glyph glyph-name="f.sinf" horiz-adv-x="221" 
d="M239 263l-22 -60c-13 7 -26 10 -41 10c-35 0 -39 -21 -39 -53v-30h78v-63h-78v-245h-78v245h-34v63h34v35c0 72 28 114 107 114c25 0 51 -6 73 -16z" />
    <glyph glyph-name="g.sinf" horiz-adv-x="382" 
d="M340 130v-294c0 -109 -74 -151 -156 -151c-49 0 -101 14 -143 42l29 64c33 -25 74 -40 111 -40c46 0 81 24 81 78v34c-23 -29 -60 -41 -92 -41c-86 0 -147 71 -147 158c0 83 60 158 147 158c34 0 71 -14 95 -42l4 34h71zM262 -66v101c-20 25 -48 36 -75 36
c-56 0 -84 -45 -84 -92c0 -49 32 -90 82 -90c27 0 60 13 77 45z" />
    <glyph glyph-name="h.sinf" horiz-adv-x="373" 
d="M124 -178h-78v450h78v-182c25 33 53 48 89 48c89 0 117 -60 117 -152v-164h-78v160c0 44 -2 89 -54 89c-27 0 -56 -17 -74 -45v-204z" />
    <glyph glyph-name="i.sinf" horiz-adv-x="170" 
d="M124 -178h-78v308h78v-308zM124 180h-78v69h78v-69z" />
    <glyph glyph-name="j.sinf" horiz-adv-x="184" 
d="M-31 -301l22 61c8 -4 19 -8 30 -8c31 0 39 24 39 52v326h78v-333c0 -69 -26 -111 -103 -111c-23 0 -45 5 -66 13zM138 180h-78v69h78v-69z" />
    <glyph glyph-name="k.sinf" horiz-adv-x="330" 
d="M124 272v-272h1l104 130h91l-110 -127l118 -181h-95l-76 120l-33 -40v-80h-78v450h78z" />
    <glyph glyph-name="l.sinf" horiz-adv-x="170" 
d="M124 272v-450h-78v450h78z" />
    <glyph glyph-name="m.sinf" horiz-adv-x="558" 
d="M124 -178h-78v308h70l4 -40c25 32 59 48 91 48c39 0 71 -17 90 -52c30 39 67 52 104 52c86 0 111 -71 111 -153v-163h-78v157c0 44 -2 92 -54 92c-23 0 -49 -15 -67 -38c2 -14 3 -31 3 -48v-163h-78v157c0 42 -1 92 -52 92c-23 0 -49 -17 -66 -38v-211z" />
    <glyph glyph-name="n.sinf" horiz-adv-x="373" 
d="M124 -178h-78v308h70l4 -45c26 36 55 53 93 53c89 0 117 -60 117 -152v-164h-78v160c0 44 -2 89 -54 89c-27 0 -56 -17 -74 -45v-204z" />
    <glyph glyph-name="o.sinf" horiz-adv-x="368" 
d="M184 138c94 0 161 -71 161 -162c0 -90 -67 -161 -161 -161s-161 71 -161 161c0 91 67 162 161 162zM265 -24c0 52 -32 95 -81 95s-81 -43 -81 -95c0 -51 32 -94 81 -94s81 43 81 94z" />
    <glyph glyph-name="p.sinf" horiz-adv-x="386" 
d="M116 130l5 -38c21 32 60 46 95 46c85 0 147 -73 147 -162c0 -84 -60 -161 -147 -161c-33 0 -68 12 -92 37v-178h-78v456h70zM200 71c-28 0 -59 -14 -76 -45v-108c19 -25 47 -36 74 -36c56 0 85 47 85 95c0 50 -32 94 -83 94z" />
    <glyph glyph-name="q.sinf" horiz-adv-x="386" 
d="M171 138c33 0 70 -13 94 -41l4 33h71v-456h-78v183c-24 -30 -61 -42 -94 -42c-85 0 -145 73 -145 162c0 83 59 161 148 161zM186 -118c28 0 59 13 76 45v108c-20 25 -49 36 -75 36c-57 0 -84 -50 -84 -96c0 -48 30 -93 83 -93z" />
    <glyph glyph-name="r.sinf" horiz-adv-x="230" 
d="M124 -178h-78v308h70l4 -42c18 31 43 50 74 50c16 0 27 -3 40 -7l-18 -70c-9 6 -19 8 -30 8c-25 0 -47 -14 -62 -41v-206z" />
    <glyph glyph-name="s.sinf" horiz-adv-x="289" 
d="M255 99l-42 -47c-15 14 -39 25 -61 25c-20 0 -34 -11 -34 -28c0 -20 26 -31 54 -42c39 -16 87 -39 87 -93c0 -70 -58 -99 -117 -99c-46 0 -88 17 -120 52l46 45c25 -25 48 -36 72 -36c23 0 42 11 42 33c0 20 -26 31 -56 43c-37 15 -83 36 -83 92c0 62 52 94 108 94
c39 0 76 -13 104 -39z" />
    <glyph glyph-name="t.sinf" horiz-adv-x="232" 
d="M199 -110l23 -57c-20 -12 -46 -18 -69 -18c-70 0 -98 47 -98 115v137h-38v63h39l9 71h68v-71h80v-63h-80v-125c0 -29 0 -61 31 -61c13 0 24 4 35 9z" />
    <glyph glyph-name="u.sinf" horiz-adv-x="373" 
d="M248 130h78v-308h-70l-4 45c-26 -36 -55 -53 -93 -53c-89 0 -117 60 -117 152v164h78v-160c0 -44 2 -89 54 -89c27 0 56 17 74 45v204z" />
    <glyph glyph-name="v.sinf" horiz-adv-x="313" 
d="M156 -72h1l67 202h86l-124 -308h-66l-116 308h86z" />
    <glyph glyph-name="w.sinf" horiz-adv-x="455" 
d="M228 14h-1l-54 -192h-85l-84 308h84l48 -201h1l55 201h73l52 -201h2l51 201h81l-89 -308h-82z" />
    <glyph glyph-name="x.sinf" horiz-adv-x="339" 
d="M13 130h98l64 -93l64 93h96l-116 -152l114 -156h-98l-67 98l-67 -98h-97l120 156z" />
    <glyph glyph-name="y.sinf" horiz-adv-x="311" 
d="M154 -65h2l66 195h85l-172 -445l-70 26l48 128l-109 291h85z" />
    <glyph glyph-name="z.sinf" horiz-adv-x="287" 
d="M32 -143l123 210h-129v63h231v-33l-124 -212h134v-63h-235v35z" />
    <glyph glyph-name="zero.num" horiz-adv-x="320" 
d="M161 642c-38 0 -59 -39 -59 -121c0 -83 21 -122 59 -122c36 0 58 39 58 122c0 82 -22 121 -58 121zM296 521c0 -116 -49 -187 -135 -187c-88 0 -137 71 -137 187c0 115 49 186 137 186c86 0 135 -71 135 -186z" />
    <glyph glyph-name="one.num" horiz-adv-x="231" 
d="M174 338h-76v277c-17 -8 -39 -18 -54 -24v69c23 12 53 26 78 40h52v-362z" />
    <glyph glyph-name="two.num" horiz-adv-x="304" 
d="M37 397c45 44 91 95 126 142c14 19 28 44 28 67c0 24 -18 38 -43 38s-43 -19 -43 -50l-75 13c4 62 59 100 121 100c60 0 118 -37 118 -100c0 -34 -17 -69 -38 -99c-27 -36 -60 -72 -92 -104h144v-64h-246v57z" />
    <glyph glyph-name="three.num" horiz-adv-x="307" 
d="M98 492v63c17 0 33 1 43 4c24 6 39 21 39 44s-17 41 -48 41c-23 0 -40 -13 -46 -37l-63 28c16 46 61 72 110 72c66 0 123 -37 123 -97c0 -30 -19 -61 -45 -76c37 -14 62 -49 62 -90c0 -70 -61 -110 -130 -110c-52 0 -102 24 -126 73l63 29c11 -25 33 -39 62 -39
c28 0 54 15 54 48s-29 50 -68 50c-7 0 -19 0 -30 -3z" />
    <glyph glyph-name="four.num" horiz-adv-x="314" 
d="M21 493c46 60 106 141 153 207h78v-211h50v-62h-50v-87h-75v87h-156v66zM177 489v115c-24 -35 -58 -89 -78 -115h78z" />
    <glyph glyph-name="five.num" horiz-adv-x="300" 
d="M255 637h-131c-1 -26 -3 -53 -5 -78c14 8 31 10 46 10c61 0 107 -51 107 -111c0 -71 -56 -124 -128 -124c-52 0 -100 24 -124 70l63 30c12 -27 35 -37 57 -37c35 0 55 26 55 57s-23 53 -55 53c-19 0 -34 -5 -47 -22l-50 33c5 52 10 133 12 182h200v-63z" />
    <glyph glyph-name="six.num" horiz-adv-x="315" 
d="M215 723l27 -60c-62 -25 -108 -58 -129 -113c17 14 39 22 64 22c68 0 114 -50 114 -115c0 -70 -51 -123 -125 -123c-88 0 -142 67 -142 147c0 120 87 202 191 242zM101 479c0 -43 15 -83 60 -83c35 0 54 27 54 58c0 36 -23 58 -55 58c-23 0 -47 -12 -59 -33z" />
    <glyph glyph-name="seven.num" horiz-adv-x="265" 
d="M253 653c-46 -93 -109 -233 -149 -330l-70 32c48 110 103 218 134 281h-162v64h247v-47z" />
    <glyph glyph-name="eight.num" horiz-adv-x="332" 
d="M296 441c0 -62 -57 -108 -130 -108c-75 0 -130 46 -130 108c0 42 20 69 54 88c-27 18 -44 43 -44 77c0 56 48 101 120 101s120 -45 120 -101c0 -34 -17 -59 -44 -77c35 -19 54 -46 54 -88zM120 602c0 -24 20 -44 46 -44c25 0 46 20 46 44c0 25 -21 44 -46 44
c-26 0 -46 -19 -46 -44zM113 445c0 -28 22 -50 53 -50s53 22 53 50s-22 51 -53 51s-53 -23 -53 -51z" />
    <glyph glyph-name="nine.num" horiz-adv-x="315" 
d="M100 318l-27 60c62 25 108 58 129 113c-17 -14 -39 -22 -64 -22c-68 0 -114 50 -114 115c0 70 51 123 125 123c88 0 142 -67 142 -147c0 -120 -87 -202 -191 -242zM214 562c0 43 -15 83 -60 83c-35 0 -54 -27 -54 -58c0 -36 23 -58 55 -58c23 0 47 12 59 33z" />
    <glyph glyph-name="parenleft.ordn" horiz-adv-x="249" 
d="M248 324l-30 -55c-104 64 -185 161 -185 320c0 160 80 256 184 320l32 -55c-73 -47 -137 -128 -137 -265c0 -135 62 -218 136 -265z" />
    <glyph glyph-name="parenright.ordn" horiz-adv-x="249" 
d="M30 269l-29 55c73 47 136 130 136 265c0 137 -64 218 -137 265l32 55c103 -64 184 -160 184 -320c0 -159 -81 -256 -186 -320z" />
    <glyph glyph-name="hyphen.ordn" horiz-adv-x="308" 
d="M242 542h-176v67h176v-67z" />
    <glyph glyph-name="comma.ordn" horiz-adv-x="183" 
d="M135 475l-46 -175h-75l35 175h86z" />
    <glyph glyph-name="period.ordn" horiz-adv-x="182" 
d="M135 386h-88v89h88v-89z" />
    <glyph glyph-name="minus.ordn" horiz-adv-x="382" 
d="M36 628h309v-68h-309v68z" />
    <glyph glyph-name="plus.ordn" horiz-adv-x="371" 
d="M151 427v133h-132v68h132v132h68v-132h133v-68h-133v-133h-68z" />
    <glyph glyph-name="equal.ordn" horiz-adv-x="382" 
d="M36 686h309v-65h-309v65zM36 567h309v-67h-309v67z" />
    <glyph glyph-name="a.ordn" horiz-adv-x="383" 
d="M250 588v8c-1 47 -23 72 -73 72c-38 0 -77 -14 -104 -29l-22 61c39 19 91 34 140 34c95 0 139 -53 139 -144v-204h-71l-4 32c-25 -29 -58 -40 -97 -40c-62 0 -122 35 -122 105c0 85 77 112 151 112c18 0 37 -2 63 -7zM250 537c-20 4 -35 6 -50 6c-37 0 -84 -11 -84 -55
c0 -35 27 -50 59 -50c29 0 52 14 75 33v66z" />
    <glyph glyph-name="b.ordn" horiz-adv-x="433" 
d="M57 386v500h80v-202c25 34 67 50 105 50c95 0 163 -81 163 -178c0 -91 -65 -178 -165 -178c-38 0 -79 15 -106 46l-3 -38h-74zM137 612v-122c23 -29 55 -43 87 -43c67 0 99 56 99 110c0 56 -37 108 -98 108c-32 0 -70 -17 -88 -53z" />
    <glyph glyph-name="c.ordn" horiz-adv-x="329" 
d="M276 473l42 -56c-30 -26 -70 -39 -114 -39c-99 0 -176 71 -176 178c0 100 78 178 179 178c40 0 79 -13 108 -37l-39 -58c-19 17 -44 26 -69 26c-56 0 -97 -49 -97 -109c0 -64 43 -109 97 -109c23 0 50 9 69 26z" />
    <glyph glyph-name="d.ordn" horiz-adv-x="433" 
d="M376 386h-74l-4 44c-25 -36 -67 -52 -107 -52c-94 0 -163 80 -163 178c0 92 66 178 165 178c36 0 75 -15 103 -44v196h80v-500zM296 622c-23 29 -57 43 -87 43c-67 0 -99 -56 -99 -110c0 -56 37 -108 98 -108c32 0 69 17 88 53v122z" />
    <glyph glyph-name="e.ordn" horiz-adv-x="388" 
d="M297 495l54 -36c-36 -54 -82 -81 -152 -81c-105 0 -171 75 -171 176c0 102 75 180 172 180c91 0 160 -67 160 -158c0 -13 -2 -29 -4 -40h-246c5 -52 39 -92 94 -92c41 0 73 17 93 51zM114 593h164c-2 43 -34 77 -78 77c-48 0 -76 -34 -86 -77z" />
    <glyph glyph-name="f.ordn" horiz-adv-x="247" 
d="M263 876l-23 -61c-14 7 -28 11 -44 11c-41 0 -47 -25 -47 -64v-36h88v-65h-88v-275h-80v275h-38v65h38v42c0 78 30 126 116 126c26 0 55 -7 78 -18z" />
    <glyph glyph-name="g.ordn" horiz-adv-x="429" 
d="M376 726v-322c0 -122 -82 -168 -172 -168c-54 0 -110 16 -156 46l30 65c36 -26 81 -42 123 -42c52 0 95 27 95 87v42c-26 -34 -68 -48 -105 -48c-94 0 -163 77 -163 174c0 91 66 174 165 174c37 0 78 -16 105 -47l4 39h74zM296 508v114c-23 29 -57 43 -87 43
c-67 0 -99 -54 -99 -106c0 -55 37 -104 97 -104c32 0 70 16 89 53z" />
    <glyph glyph-name="h.ordn" horiz-adv-x="421" 
d="M137 386h-80v500h80v-209c27 38 65 57 106 57c99 0 125 -76 125 -168v-180h-80v174c0 50 -2 105 -63 105c-33 0 -66 -21 -88 -54v-225z" />
    <glyph glyph-name="i.ordn" horiz-adv-x="194" 
d="M137 386h-80v340h80v-340zM137 783h-80v75h80v-75z" />
    <glyph glyph-name="j.ordn" horiz-adv-x="198" 
d="M-40 251l22 62c9 -5 22 -9 33 -9c41 0 46 25 46 61v361h80v-368c0 -73 -28 -122 -111 -122c-25 0 -49 5 -70 15zM141 783h-80v75h80v-75z" />
    <glyph glyph-name="k.ordn" horiz-adv-x="364" 
d="M137 886v-311l121 151h94l-120 -141l129 -199h-97l-85 137l-42 -49v-88h-80v500h80z" />
    <glyph glyph-name="l.ordn" horiz-adv-x="194" 
d="M137 886v-500h-80v500h80z" />
    <glyph glyph-name="m.ordn" horiz-adv-x="628" 
d="M137 386h-80v340h74l2 -49c28 36 68 57 106 57c44 0 80 -20 99 -62c31 44 74 62 115 62c97 0 122 -77 122 -168v-180h-80v174c0 48 -2 105 -62 105c-27 0 -58 -19 -80 -48c3 -16 3 -34 3 -51v-180h-80v174c0 47 -2 105 -60 105c-28 0 -58 -23 -79 -50v-229z" />
    <glyph glyph-name="n.ordn" horiz-adv-x="421" 
d="M136 386h-80v340h74l3 -53c28 41 67 61 109 61c99 0 125 -76 125 -168v-180h-80v174c0 50 -2 105 -63 105c-33 0 -66 -21 -88 -54v-225z" />
    <glyph glyph-name="o.ordn" horiz-adv-x="410" 
d="M205 734c103 0 177 -78 177 -178s-74 -178 -177 -178c-102 0 -177 78 -177 178s75 178 177 178zM300 556c0 61 -39 109 -95 109s-95 -48 -95 -109s39 -109 95 -109s95 48 95 109z" />
    <glyph glyph-name="p.ordn" horiz-adv-x="433" 
d="M57 726h74l3 -44c25 35 68 52 107 52c95 0 164 -80 164 -178c0 -92 -65 -178 -165 -178c-37 0 -77 15 -103 43v-201h-80v506zM137 612v-122c23 -29 55 -43 87 -43c67 0 99 56 99 110c0 56 -37 108 -98 108c-32 0 -70 -17 -88 -53z" />
    <glyph glyph-name="q.ordn" horiz-adv-x="433" 
d="M376 726v-506h-80v208c-27 -35 -68 -50 -106 -50c-94 0 -162 81 -162 178c0 91 65 178 166 178c36 0 77 -15 105 -46l3 38h74zM296 622c-23 29 -57 43 -87 43c-67 0 -99 -56 -99 -110c0 -56 37 -108 98 -108c32 0 69 17 88 53v122z" />
    <glyph glyph-name="r.ordn" horiz-adv-x="263" 
d="M57 726h74l3 -52c21 35 50 60 85 60c16 0 28 -3 41 -7l-18 -73c-10 5 -20 7 -32 7c-32 0 -55 -17 -73 -49v-226h-80v340z" />
    <glyph glyph-name="s.ordn" horiz-adv-x="321" 
d="M278 692l-43 -48c-17 15 -43 27 -68 27c-24 0 -42 -13 -42 -34c0 -23 31 -35 63 -48c43 -18 95 -42 95 -102c0 -76 -62 -109 -127 -109c-50 0 -95 19 -128 56l48 46c24 -25 50 -39 80 -39c26 0 50 13 50 39c0 24 -27 35 -63 50c-51 21 -93 45 -93 101
c0 69 56 103 116 103c42 0 83 -13 112 -42z" />
    <glyph glyph-name="t.ordn" horiz-adv-x="248" 
d="M209 457l24 -62c-21 -11 -49 -17 -74 -17c-78 0 -105 55 -105 127v156h-41v65h43l8 78h70v-78h90v-65h-90v-143c0 -32 3 -72 38 -72c14 0 26 4 37 11z" />
    <glyph glyph-name="u.ordn" horiz-adv-x="421" 
d="M284 726h80v-340h-74l-3 53c-28 -41 -67 -61 -109 -61c-99 0 -125 76 -125 168v180h80v-174c0 -50 2 -105 63 -105c33 0 66 21 88 54v225z" />
    <glyph glyph-name="v.ordn" horiz-adv-x="348" 
d="M343 726l-135 -340h-75l-128 340h90l80 -243h2l79 243h87z" />
    <glyph glyph-name="w.ordn" horiz-adv-x="509" 
d="M297 726l59 -236h2l58 236h85l-100 -340h-85l-61 229h-1l-63 -229h-89l-94 340h86l55 -236h2l64 236h82z" />
    <glyph glyph-name="x.ordn" horiz-adv-x="365" 
d="M360 386h-102l-76 116l-77 -116h-100l128 171l-120 169h102l74 -110l72 110h99l-124 -166z" />
    <glyph glyph-name="y.ordn" horiz-adv-x="346" 
d="M340 726l-190 -496l-71 27l51 137l-125 332h89l78 -237h2l80 237h86z" />
    <glyph glyph-name="z.ordn" horiz-adv-x="320" 
d="M40 423l138 238h-145v65h251v-35l-141 -240h152v-65h-255v37z" />
    <glyph glyph-name="zero.denom" horiz-adv-x="320" 
d="M161 301c-38 0 -59 -39 -59 -121c0 -83 21 -122 59 -122c36 0 58 39 58 122c0 82 -22 121 -58 121zM296 180c0 -116 -49 -187 -135 -187c-88 0 -137 71 -137 187c0 115 49 186 137 186c86 0 135 -71 135 -186z" />
    <glyph glyph-name="one.denom" horiz-adv-x="231" 
d="M174 0h-76v277c-17 -8 -39 -18 -54 -24v69c23 12 53 26 78 40h52v-362z" />
    <glyph glyph-name="two.denom" horiz-adv-x="304" 
d="M37 57c45 44 91 95 126 142c14 19 28 44 28 67c0 24 -18 38 -43 38s-43 -19 -43 -50l-75 13c4 62 59 100 121 100c60 0 118 -37 118 -100c0 -34 -17 -69 -38 -99c-27 -36 -60 -72 -92 -104h144v-64h-246v57z" />
    <glyph glyph-name="three.denom" horiz-adv-x="307" 
d="M98 151v63c17 0 33 1 43 4c24 6 39 21 39 44s-17 41 -48 41c-23 0 -40 -13 -46 -37l-63 28c16 46 61 72 110 72c66 0 123 -37 123 -97c0 -30 -19 -61 -45 -76c37 -14 62 -49 62 -90c0 -70 -61 -110 -130 -110c-52 0 -102 24 -126 73l63 29c11 -25 33 -39 62 -39
c28 0 54 15 54 48s-29 50 -68 50c-7 0 -19 0 -30 -3z" />
    <glyph glyph-name="four.denom" horiz-adv-x="314" 
d="M21 153c46 60 106 141 153 207h78v-211h50v-62h-50v-87h-75v87h-156v66zM177 149v115c-24 -35 -58 -89 -78 -115h78z" />
    <glyph glyph-name="five.denom" horiz-adv-x="300" 
d="M255 296h-131c-1 -26 -3 -53 -5 -78c14 8 31 10 46 10c61 0 107 -51 107 -111c0 -71 -56 -124 -128 -124c-52 0 -100 24 -124 70l63 30c12 -27 35 -37 57 -37c35 0 55 26 55 57s-23 53 -55 53c-19 0 -34 -5 -47 -22l-50 33c5 52 10 133 12 182h200v-63z" />
    <glyph glyph-name="six.denom" horiz-adv-x="315" 
d="M215 382l27 -60c-62 -25 -108 -58 -129 -113c17 14 39 22 64 22c68 0 114 -50 114 -115c0 -70 -51 -123 -125 -123c-88 0 -142 67 -142 147c0 120 87 202 191 242zM101 138c0 -43 15 -83 60 -83c35 0 54 27 54 58c0 36 -23 58 -55 58c-23 0 -47 -12 -59 -33z" />
    <glyph glyph-name="seven.denom" horiz-adv-x="265" 
d="M253 312c-46 -93 -109 -233 -149 -330l-70 32c48 110 103 218 134 281h-162v64h247v-47z" />
    <glyph glyph-name="eight.denom" horiz-adv-x="332" 
d="M296 100c0 -62 -57 -108 -130 -108c-75 0 -130 46 -130 108c0 42 20 69 54 88c-27 18 -44 43 -44 77c0 56 48 101 120 101s120 -45 120 -101c0 -34 -17 -59 -44 -77c35 -19 54 -46 54 -88zM120 261c0 -24 20 -44 46 -44c25 0 46 20 46 44c0 25 -21 44 -46 44
c-26 0 -46 -19 -46 -44zM113 104c0 -28 22 -50 53 -50s53 22 53 50s-22 51 -53 51s-53 -23 -53 -51z" />
    <glyph glyph-name="nine.denom" horiz-adv-x="315" 
d="M100 -23l-27 60c62 25 108 58 129 113c-17 -14 -39 -22 -64 -22c-68 0 -114 50 -114 115c0 70 51 123 125 123c88 0 142 -67 142 -147c0 -120 -87 -202 -191 -242zM214 221c0 43 -15 83 -60 83c-35 0 -54 -27 -54 -58c0 -36 23 -58 55 -58c23 0 47 12 59 33z" />
    <glyph glyph-name="onehalf" unicode="&#xbd;" horiz-adv-x="784" 
d="M581 713l59 -43l-498 -683l-59 43zM458 57c45 43 91 95 126 142c14 19 28 43 28 66c0 24 -18 38 -43 38c-26 0 -43 -19 -43 -50l-75 13c4 62 59 101 121 101c60 0 118 -38 118 -101c0 -34 -17 -68 -39 -98c-26 -37 -60 -73 -91 -105h144v-63h-246v57zM228 338h-76v277
c-17 -8 -39 -18 -54 -24v69c23 12 53 26 78 40h52v-362z" />
    <glyph glyph-name="onethird" unicode="&#x2153;" horiz-adv-x="785" 
d="M581 713l59 -43l-498 -683l-59 43zM228 338h-76v277c-17 -8 -39 -18 -54 -24v69c23 12 53 26 78 40h52v-362zM530 151v63c17 0 33 1 43 4c24 6 39 21 39 44s-17 41 -48 41c-23 0 -40 -13 -46 -37l-63 28c16 46 61 72 110 72c66 0 123 -37 123 -97c0 -30 -19 -61 -45 -76
c37 -14 62 -49 62 -90c0 -70 -61 -110 -130 -110c-52 0 -102 24 -126 73l63 29c11 -25 33 -39 62 -39c28 0 54 15 54 48s-29 50 -68 50c-7 0 -19 0 -30 -3z" />
    <glyph glyph-name="twothirds" unicode="&#x2154;" horiz-adv-x="876" 
d="M672 713l59 -43l-498 -683l-59 43zM87 397c45 44 91 95 126 142c14 19 28 44 28 67c0 24 -18 38 -43 38s-43 -19 -43 -50l-75 13c4 62 59 100 121 100c60 0 118 -37 118 -100c0 -34 -17 -69 -38 -99c-27 -36 -60 -72 -92 -104h144v-64h-246v57zM621 151v63
c17 0 33 1 43 4c24 6 39 21 39 44s-17 41 -48 41c-23 0 -40 -13 -46 -37l-63 28c16 46 61 72 110 72c66 0 123 -37 123 -97c0 -30 -19 -61 -45 -76c37 -14 62 -49 62 -90c0 -70 -61 -110 -130 -110c-52 0 -102 24 -126 73l63 29c11 -25 33 -39 62 -39c28 0 54 15 54 48
s-29 50 -68 50c-7 0 -19 0 -30 -3z" />
    <glyph glyph-name="onequarter" unicode="&#xbc;" horiz-adv-x="759" 
d="M581 713l59 -43l-498 -683l-59 43zM397 152c47 61 106 141 154 208h77v-211h51v-62h-51v-87h-75v87h-156v65zM553 149v114c-23 -35 -58 -88 -78 -114h78zM228 338h-76v277c-17 -8 -39 -18 -54 -24v69c23 12 53 26 78 40h52v-362z" />
    <glyph glyph-name="threequarters" unicode="&#xbe;" horiz-adv-x="828" 
d="M650 713l59 -43l-497 -683l-59 43zM467 152c46 61 106 141 154 208h77v-211h50v-62h-50v-87h-75v87h-156v65zM623 149v114c-23 -35 -58 -88 -78 -114h78zM160 492v63c17 0 33 1 43 4c24 6 39 21 39 44s-17 41 -48 41c-23 0 -40 -13 -46 -37l-63 28c16 46 61 72 110 72
c66 0 123 -37 123 -97c0 -30 -19 -61 -45 -76c37 -14 62 -49 62 -90c0 -70 -61 -110 -130 -110c-52 0 -102 24 -126 73l63 29c11 -25 33 -39 62 -39c28 0 54 15 54 48s-29 50 -68 50c-7 0 -19 0 -30 -3z" />
    <glyph glyph-name="onefifth" horiz-adv-x="792" 
d="M581 713l59 -43l-498 -683l-59 43zM695 295h-131c-1 -26 -4 -52 -6 -77c15 7 32 10 47 10c61 0 107 -51 107 -111c0 -72 -56 -124 -128 -124c-53 0 -100 23 -124 69l63 31c11 -28 35 -38 57 -38c35 0 54 26 54 58c0 30 -22 53 -54 53c-19 0 -34 -6 -48 -22l-49 32
c5 53 10 134 12 183h200v-64zM228 338h-76v277c-17 -8 -39 -18 -54 -24v69c23 12 53 26 78 40h52v-362z" />
    <glyph glyph-name="twofifths" horiz-adv-x="883" 
d="M672 713l59 -43l-498 -683l-59 43zM786 295h-131c-1 -26 -4 -52 -6 -77c15 7 32 10 47 10c61 0 107 -51 107 -111c0 -72 -56 -124 -128 -124c-53 0 -100 23 -124 69l63 31c11 -28 35 -38 57 -38c35 0 54 26 54 58c0 30 -22 53 -54 53c-19 0 -34 -6 -48 -22l-49 32
c5 53 10 134 12 183h200v-64zM87 397c45 44 91 95 126 142c14 19 28 44 28 67c0 24 -18 38 -43 38s-43 -19 -43 -50l-75 13c4 62 59 100 121 100c60 0 118 -37 118 -100c0 -34 -17 -69 -38 -99c-27 -36 -60 -72 -92 -104h144v-64h-246v57z" />
    <glyph glyph-name="threefifths" horiz-adv-x="862" 
d="M650 713l59 -43l-497 -683l-59 43zM765 295h-131c-1 -26 -4 -52 -6 -77c14 7 32 10 47 10c61 0 107 -51 107 -111c0 -72 -56 -124 -128 -124c-53 0 -100 23 -124 69l62 31c12 -28 35 -38 58 -38c35 0 54 26 54 58c0 30 -22 53 -54 53c-19 0 -34 -6 -48 -22l-49 32
c5 53 10 134 12 183h200v-64zM160 492v63c17 0 33 1 43 4c24 6 39 21 39 44s-17 41 -48 41c-23 0 -40 -13 -46 -37l-63 28c16 46 61 72 110 72c66 0 123 -37 123 -97c0 -30 -19 -61 -45 -76c37 -14 62 -49 62 -90c0 -70 -61 -110 -130 -110c-52 0 -102 24 -126 73l63 29
c11 -25 33 -39 62 -39c28 0 54 15 54 48s-29 50 -68 50c-7 0 -19 0 -30 -3z" />
    <glyph glyph-name="fourfifths" horiz-adv-x="905" 
d="M694 713l58 -43l-497 -683l-59 43zM808 295h-131c-1 -26 -4 -52 -6 -77c14 7 32 10 47 10c61 0 107 -51 107 -111c0 -72 -56 -124 -128 -124c-53 0 -100 23 -124 69l62 31c12 -28 35 -38 58 -38c35 0 54 26 54 58c0 30 -22 53 -54 53c-19 0 -34 -6 -48 -22l-49 32
c5 53 10 134 12 183h200v-64zM80 493c46 60 106 141 153 207h78v-211h50v-62h-50v-87h-75v87h-156v66zM236 489v115c-24 -35 -58 -89 -78 -115h78z" />
    <glyph glyph-name="onesixth" horiz-adv-x="767" 
d="M581 713l59 -43l-498 -683l-59 43zM228 338h-76v277c-17 -8 -39 -18 -54 -24v69c23 12 53 26 78 40h52v-362zM611 382l27 -60c-62 -25 -108 -58 -129 -113c17 14 39 22 64 22c68 0 114 -50 114 -115c0 -70 -51 -123 -125 -123c-88 0 -142 67 -142 147
c0 120 87 202 191 242zM497 138c0 -43 15 -83 60 -83c35 0 54 27 54 58c0 36 -23 58 -55 58c-23 0 -47 -12 -59 -33z" />
    <glyph glyph-name="fivesixths" horiz-adv-x="824" 
d="M638 713l59 -43l-497 -683l-59 43zM315 637h-131c-1 -26 -4 -53 -6 -78c15 8 32 10 47 10c61 0 107 -51 107 -111c0 -71 -56 -124 -128 -124c-53 0 -100 24 -124 70l63 30c11 -27 35 -37 57 -37c35 0 54 26 54 57s-22 53 -54 53c-19 0 -34 -5 -48 -22l-49 33
c5 52 10 133 12 182h200v-63zM668 382l27 -60c-62 -25 -108 -58 -129 -113c17 14 39 22 64 22c68 0 114 -50 114 -115c0 -70 -51 -123 -125 -123c-88 0 -142 67 -142 147c0 120 87 202 191 242zM554 138c0 -43 15 -83 60 -83c35 0 54 27 54 58c0 36 -23 58 -55 58
c-23 0 -47 -12 -59 -33z" />
    <glyph glyph-name="oneeighth" unicode="&#x215b;" horiz-adv-x="798" 
d="M581 713l59 -43l-498 -683l-59 43zM718 102c0 -62 -57 -108 -130 -108c-75 0 -130 46 -130 108c0 42 20 70 54 89c-27 18 -44 42 -44 77c0 55 48 100 120 100s119 -45 119 -100c0 -35 -16 -59 -44 -77c36 -19 55 -47 55 -89zM542 264c0 -25 20 -44 46 -44
c25 0 46 19 46 44c0 24 -21 43 -46 43c-26 0 -46 -19 -46 -43zM535 106c0 -28 22 -50 53 -50s53 22 53 50s-22 51 -53 51s-53 -23 -53 -51zM228 338h-76v277c-17 -8 -39 -18 -54 -24v69c23 12 53 26 78 40h52v-362z" />
    <glyph glyph-name="threeeighths" unicode="&#x215c;" horiz-adv-x="868" 
d="M650 713l59 -43l-497 -683l-59 43zM788 102c0 -62 -57 -108 -130 -108c-75 0 -130 46 -130 108c0 42 20 70 54 89c-28 18 -44 42 -44 77c0 55 48 100 120 100s119 -45 119 -100c0 -35 -16 -59 -44 -77c36 -19 55 -47 55 -89zM612 264c0 -25 20 -44 46 -44
c25 0 45 19 45 44c0 24 -20 43 -45 43c-26 0 -46 -19 -46 -43zM604 106c0 -28 23 -50 54 -50c30 0 53 22 53 50s-23 51 -53 51c-31 0 -54 -23 -54 -51zM160 492v63c17 0 33 1 43 4c24 6 39 21 39 44s-17 41 -48 41c-23 0 -40 -13 -46 -37l-63 28c16 46 61 72 110 72
c66 0 123 -37 123 -97c0 -30 -19 -61 -45 -76c37 -14 62 -49 62 -90c0 -70 -61 -110 -130 -110c-52 0 -102 24 -126 73l63 29c11 -25 33 -39 62 -39c28 0 54 15 54 48s-29 50 -68 50c-7 0 -19 0 -30 -3z" />
    <glyph glyph-name="fiveeighths" unicode="&#x215d;" horiz-adv-x="855" 
d="M638 713l59 -43l-497 -683l-59 43zM315 637h-131c-1 -26 -4 -53 -6 -78c15 8 32 10 47 10c61 0 107 -51 107 -111c0 -71 -56 -124 -128 -124c-53 0 -100 24 -124 70l63 30c11 -27 35 -37 57 -37c35 0 54 26 54 57s-22 53 -54 53c-19 0 -34 -5 -48 -22l-49 33
c5 52 10 133 12 182h200v-63zM775 102c0 -62 -57 -108 -130 -108c-74 0 -130 46 -130 108c0 42 21 70 55 89c-28 18 -44 42 -44 77c0 55 47 100 119 100s120 -45 120 -100c0 -35 -16 -59 -44 -77c36 -19 54 -47 54 -89zM600 264c0 -25 19 -44 45 -44s46 19 46 44
c0 24 -20 43 -46 43s-45 -19 -45 -43zM592 106c0 -28 23 -50 53 -50c31 0 54 22 54 50s-23 51 -54 51c-30 0 -53 -23 -53 -51z" />
    <glyph glyph-name="seveneighths" unicode="&#x215e;" horiz-adv-x="799" 
d="M582 713l59 -43l-498 -683l-59 43zM719 102c0 -62 -57 -108 -130 -108c-75 0 -130 46 -130 108c0 42 20 70 54 89c-27 18 -44 42 -44 77c0 55 48 100 120 100s120 -45 120 -100c0 -35 -17 -59 -44 -77c35 -19 54 -47 54 -89zM543 264c0 -25 20 -44 46 -44
c25 0 46 19 46 44c0 24 -21 43 -46 43c-26 0 -46 -19 -46 -43zM536 106c0 -28 22 -50 53 -50s53 22 53 50s-22 51 -53 51s-53 -23 -53 -51zM336 653c-46 -93 -109 -233 -149 -330l-70 32c48 110 103 218 134 281h-162v64h247v-47z" />
    <glyph glyph-name="oneseventh" horiz-adv-x="811" 
d="M581 713l59 -43l-498 -683l-59 43zM731 312c-46 -93 -109 -234 -149 -330l-69 31c47 110 102 219 134 282h-163v64h247v-47zM228 338h-76v277c-17 -8 -39 -18 -54 -24v69c23 12 53 26 78 40h52v-362z" />
    <glyph glyph-name="twosevenths" horiz-adv-x="902" 
d="M672 713l59 -43l-498 -683l-59 43zM87 397c45 44 91 95 126 142c14 19 28 44 28 67c0 24 -18 38 -43 38s-43 -19 -43 -50l-75 13c4 62 59 100 121 100c60 0 118 -37 118 -100c0 -34 -17 -69 -38 -99c-27 -36 -60 -72 -92 -104h144v-64h-246v57zM822 312
c-46 -93 -109 -234 -149 -330l-69 31c47 110 102 219 134 282h-163v64h247v-47z" />
    <glyph glyph-name="threesevenths" horiz-adv-x="881" 
d="M650 713l59 -43l-497 -683l-59 43zM801 312c-46 -93 -109 -234 -149 -330l-70 31c48 110 103 219 134 282h-162v64h247v-47zM160 492v63c17 0 33 1 43 4c24 6 39 21 39 44s-17 41 -48 41c-23 0 -40 -13 -46 -37l-63 28c16 46 61 72 110 72c66 0 123 -37 123 -97
c0 -30 -19 -61 -45 -76c37 -14 62 -49 62 -90c0 -70 -61 -110 -130 -110c-52 0 -102 24 -126 73l63 29c11 -25 33 -39 62 -39c28 0 54 15 54 48s-29 50 -68 50c-7 0 -19 0 -30 -3z" />
    <glyph glyph-name="foursevenths" horiz-adv-x="924" 
d="M694 713l58 -43l-497 -683l-59 43zM80 493c46 60 106 141 153 207h78v-211h50v-62h-50v-87h-75v87h-156v66zM236 489v115c-24 -35 -58 -89 -78 -115h78zM844 312c-46 -93 -109 -234 -149 -330l-70 31c48 110 103 219 134 282h-162v64h247v-47z" />
    <glyph glyph-name="fivesevenths" horiz-adv-x="869" 
d="M638 713l59 -43l-497 -683l-59 43zM315 637h-131c-1 -26 -4 -53 -6 -78c15 8 32 10 47 10c61 0 107 -51 107 -111c0 -71 -56 -124 -128 -124c-53 0 -100 24 -124 70l63 30c11 -27 35 -37 57 -37c35 0 54 26 54 57s-22 53 -54 53c-19 0 -34 -5 -48 -22l-49 33
c5 52 10 133 12 182h200v-63zM789 312c-46 -93 -109 -234 -149 -330l-70 31c48 110 102 219 134 282h-162v64h247v-47z" />
    <glyph glyph-name="sixsevenths" horiz-adv-x="886" 
d="M656 713l59 -43l-498 -683l-58 43zM806 312c-45 -93 -109 -234 -149 -330l-69 31c47 110 102 219 134 282h-163v64h247v-47zM271 723l27 -60c-62 -25 -108 -58 -129 -113c17 14 39 22 64 22c68 0 114 -50 114 -115c0 -70 -51 -123 -125 -123c-88 0 -142 67 -142 147
c0 120 87 202 191 242zM157 479c0 -43 15 -83 60 -83c35 0 54 27 54 58c0 36 -23 58 -55 58c-23 0 -47 -12 -59 -33z" />
    <glyph glyph-name="oneninth" horiz-adv-x="816" 
d="M581 713l59 -43l-498 -683l-59 43zM228 338h-76v277c-17 -8 -39 -18 -54 -24v69c23 12 53 26 78 40h52v-362zM545 -23l-27 60c62 25 108 58 129 113c-17 -14 -39 -22 -64 -22c-68 0 -114 50 -114 115c0 70 51 123 125 123c88 0 142 -67 142 -147
c0 -120 -87 -202 -191 -242zM659 221c0 43 -15 83 -60 83c-35 0 -54 -27 -54 -58c0 -36 23 -58 55 -58c23 0 47 12 59 33z" />
    <glyph glyph-name="twoninths" horiz-adv-x="850" 
d="M653 713l59 -43l-498 -683l-59 43zM69 397c44 44 90 95 125 142c14 19 28 44 28 67c0 24 -18 38 -43 38s-43 -19 -43 -50l-75 13c4 62 59 100 121 100c60 0 119 -37 119 -100c0 -34 -18 -69 -39 -99c-27 -36 -60 -72 -92 -104h144v-64h-245v57zM617 -23l-27 60
c62 25 108 58 129 113c-17 -14 -39 -22 -64 -22c-68 0 -114 50 -114 115c0 70 51 123 125 123c88 0 142 -67 142 -147c0 -120 -87 -202 -191 -242zM731 221c0 43 -15 83 -60 83c-35 0 -54 -27 -54 -58c0 -36 23 -58 55 -58c23 0 47 12 59 33z" />
    <glyph glyph-name="fourninths" horiz-adv-x="866" 
d="M668 713l59 -43l-498 -683l-58 43zM54 493c47 60 106 141 154 207h77v-211h51v-62h-51v-87h-75v87h-156v66zM210 489v115c-23 -35 -58 -89 -78 -115h78zM633 -23l-27 60c62 25 108 58 129 113c-17 -14 -39 -22 -64 -22c-68 0 -114 50 -114 115c0 70 51 123 125 123
c88 0 142 -67 142 -147c0 -120 -87 -202 -191 -242zM747 221c0 43 -15 83 -60 83c-35 0 -54 -27 -54 -58c0 -36 23 -58 55 -58c23 0 47 12 59 33z" />
    <glyph glyph-name="fiveninths" horiz-adv-x="817" 
d="M619 713l59 -43l-497 -683l-59 43zM296 637h-131c-1 -26 -4 -53 -6 -78c15 8 32 10 47 10c61 0 107 -51 107 -111c0 -71 -56 -124 -128 -124c-53 0 -100 24 -124 70l63 30c11 -27 35 -37 57 -37c35 0 54 26 54 57s-22 53 -54 53c-19 0 -34 -5 -48 -22l-49 33
c5 52 10 133 12 182h200v-63zM584 -23l-27 60c62 25 108 58 129 113c-17 -14 -39 -22 -64 -22c-68 0 -114 50 -114 115c0 70 51 123 125 123c88 0 142 -67 142 -147c0 -120 -87 -202 -191 -242zM698 221c0 43 -15 83 -60 83c-35 0 -54 -27 -54 -58c0 -36 23 -58 55 -58
c23 0 47 12 59 33z" />
    <glyph glyph-name="sevenninths" horiz-adv-x="771" 
d="M573 713l59 -43l-497 -683l-59 43zM328 653c-46 -93 -109 -233 -149 -330l-70 32c48 110 103 218 134 281h-162v64h247v-47zM538 -23l-27 60c62 25 108 58 129 113c-17 -14 -39 -22 -64 -22c-68 0 -114 50 -114 115c0 70 51 123 125 123c88 0 142 -67 142 -147
c0 -120 -87 -202 -191 -242zM652 221c0 43 -15 83 -60 83c-35 0 -54 -27 -54 -58c0 -36 23 -58 55 -58c23 0 47 12 59 33z" />
    <glyph glyph-name="eightninths" horiz-adv-x="821" 
d="M623 713l59 -43l-497 -683l-59 43zM304 441c0 -62 -56 -108 -129 -108c-75 0 -130 46 -130 108c0 42 20 69 54 88c-28 18 -44 43 -44 77c0 56 48 101 120 101c71 0 119 -45 119 -101c0 -34 -16 -59 -44 -77c36 -19 54 -46 54 -88zM129 602c0 -24 19 -44 46 -44
c25 0 45 20 45 44c0 25 -20 44 -45 44c-27 0 -46 -19 -46 -44zM121 445c0 -28 23 -50 54 -50c30 0 53 22 53 50s-23 51 -53 51c-31 0 -54 -23 -54 -51zM588 -23l-27 60c62 25 108 58 129 113c-17 -14 -39 -22 -64 -22c-68 0 -114 50 -114 115c0 70 51 123 125 123
c88 0 142 -67 142 -147c0 -120 -87 -202 -191 -242zM702 221c0 43 -15 83 -60 83c-35 0 -54 -27 -54 -58c0 -36 23 -58 55 -58c23 0 47 12 59 33z" />
    <glyph glyph-name="partialdiff" unicode="&#x2202;" 
d="M30 695l36 86c284 -118 474 -277 474 -531c0 -146 -101 -262 -268 -262c-152 0 -258 127 -258 267c0 137 106 251 250 251c29 0 58 -5 80 -13c-73 88 -185 148 -314 202zM408 392c-34 17 -66 24 -100 24c-109 0 -190 -51 -190 -159c0 -93 66 -177 161 -177
c98 0 157 77 157 164c0 55 -10 105 -28 148z" />
    <glyph glyph-name="Omega" unicode="&#x2126;" horiz-adv-x="794" 
d="M19 92h181c-103 73 -151 179 -151 283c0 180 133 337 348 337s348 -157 348 -337c0 -104 -48 -210 -151 -283h181v-92h-323v101c117 41 179 158 179 270c0 130 -76 245 -234 245s-234 -115 -234 -245c0 -112 62 -229 179 -270v-101h-323v92z" />
    <glyph glyph-name="Delta" unicode="&#x2206;" horiz-adv-x="633" 
d="M632 0h-631l271 700h92zM474 94l-160 439h-1l-161 -439h322z" />
    <glyph glyph-name="product" unicode="&#x220f;" 
d="M546 478h-90v-478h-107v478h-148v-478h-107v478h-90v94h542v-94z" />
    <glyph glyph-name="summation" unicode="&#x2211;" 
d="M402 365l-212 -271h345v-94h-518v56l250 306l-239 281v57h482v-94h-313z" />
    <glyph glyph-name="uni0394" unicode="&#x394;" 
d="M545 0h-541l222 572h100zM396 90l-123 339h-2l-125 -339h250z" />
    <glyph glyph-name="uni03A9" unicode="&#x3a9;" horiz-adv-x="794" 
d="M19 92h181c-103 73 -151 179 -151 283c0 180 133 337 348 337s348 -157 348 -337c0 -104 -48 -210 -151 -283h181v-92h-323v101c117 41 179 158 179 270c0 130 -76 245 -234 245s-234 -115 -234 -245c0 -112 62 -229 179 -270v-101h-323v92z" />
    <glyph glyph-name="uni03BC" unicode="&#x3bc;" 
d="M502 0h-98l-3 80c-38 -59 -99 -92 -164 -92c-34 0 -63 7 -85 18v-256h-104v756h103v-254c0 -46 2 -97 24 -132c15 -24 42 -39 83 -39c54 0 108 37 141 90v335h103v-506z" />
    <glyph glyph-name="pi" unicode="&#x3c0;" 
d="M540 417h-93v-239c0 -12 0 -23 1 -33c2 -45 15 -67 49 -74l-42 -88c-67 17 -102 70 -109 148c-1 11 -2 25 -2 38v248h-155v-352c0 -20 -2 -43 -6 -65h-105c7 26 8 52 8 73v344h-59v89h513v-89z" />
    <glyph glyph-name="mu" unicode="&#xb5;" 
d="M502 0h-98l-3 80c-38 -59 -99 -92 -164 -92c-34 0 -63 7 -85 18v-256h-104v756h103v-254c0 -46 2 -97 24 -132c15 -24 42 -39 83 -39c54 0 108 37 141 90v335h103v-506z" />
    <glyph glyph-name="uni2215" unicode="&#x2215;" horiz-adv-x="373" 
d="M375 731l-291 -786l-84 32l291 786z" />
    <glyph glyph-name="uni2219" unicode="&#x2219;" 
d="M333 250h-117v124h117v-124z" />
    <glyph glyph-name="asciicircum" unicode="^" 
d="M477 345h-91l-111 239l-111 -239h-91l151 340h102z" />
    <glyph glyph-name="underscore" unicode="_" 
d="M550 -232h-550v72h550v-72z" />
    <glyph glyph-name="asciitilde" unicode="~" 
d="M115 269l-84 -7c-1 7 -2 18 -2 29c0 79 57 129 139 129c104 0 152 -89 221 -89c25 0 49 18 49 44c0 6 0 11 -2 16l84 7c1 -7 2 -18 2 -29c0 -79 -57 -129 -138 -129c-106 0 -153 89 -222 89c-25 0 -49 -17 -49 -44c0 -5 0 -10 2 -16z" />
    <glyph glyph-name="radical" unicode="&#x221a;" 
d="M555 750l-242 -750h-104l-125 417h-85v89h172l93 -360h2l179 604h110z" />
    <glyph glyph-name="infinity" unicode="&#x221e;" horiz-adv-x="778" 
d="M740 247c0 -92 -75 -167 -169 -167c-64 0 -116 36 -183 108c-69 -72 -118 -108 -181 -108c-95 0 -169 76 -169 169s75 168 169 168c63 0 115 -37 183 -108c68 71 117 108 181 108c95 0 169 -76 169 -170zM568 167c43 0 73 39 73 81s-31 82 -73 82c-35 0 -77 -37 -120 -82
c43 -45 85 -81 120 -81zM210 330c-43 0 -73 -39 -73 -81s31 -82 73 -82c35 0 77 37 120 82c-43 45 -85 81 -120 81z" />
    <glyph glyph-name="integral" unicode="&#x222b;" 
d="M497 738l-28 -84c-20 10 -40 15 -64 15c-29 0 -46 -5 -57 -17c-16 -16 -17 -45 -19 -89l-26 -598c-3 -69 -18 -116 -46 -146c-27 -29 -61 -40 -110 -40c-31 0 -64 11 -95 24l28 84c20 -10 34 -16 55 -16c26 0 36 6 47 18c15 16 17 46 19 89l25 598c3 69 17 115 45 145
c27 29 66 41 119 41c36 0 76 -11 107 -24z" />
    <glyph glyph-name="approxequal" unicode="&#x2248;" 
d="M439 455l62 -44c-26 -56 -75 -84 -137 -84c-72 0 -119 48 -179 48c-30 0 -56 -10 -74 -40l-63 44c26 56 76 85 137 85c72 0 120 -48 179 -48c30 0 56 9 75 39zM439 288l62 -44c-26 -56 -75 -85 -137 -85c-72 0 -119 48 -179 48c-30 0 -56 -9 -74 -40l-63 44
c26 57 76 85 137 85c72 0 120 -48 179 -48c30 0 56 10 75 40z" />
    <glyph glyph-name="notequal" unicode="&#x2260;" 
d="M65 83l340 504l68 -47l-341 -504zM49 439h451v-88h-451v88zM49 272h451v-88h-451v88z" />
    <glyph glyph-name="lessequal" unicode="&#x2264;" 
d="M21 344v82l507 203v-88l-391 -156l391 -156v-88zM21 86h507v-86h-507v86z" />
    <glyph glyph-name="greaterequal" unicode="&#x2265;" 
d="M528 426v-82l-507 -203v88l391 156l-391 156v88zM21 86h507v-86h-507v86z" />
    <glyph glyph-name="less" unicode="&#x3c;" 
d="M21 270v83l507 202v-88l-391 -155l391 -156v-88z" />
    <glyph glyph-name="equal" unicode="=" 
d="M49 439h451v-88h-451v88zM49 272h451v-88h-451v88z" />
    <glyph glyph-name="greater" unicode="&#x3e;" 
d="M529 353v-83l-507 -202v88l391 156l-391 155v88z" />
    <glyph glyph-name="lozenge" unicode="&#x25ca;" 
d="M33 350l196 350h93l196 -350l-196 -350h-93zM420 350l-145 258l-144 -258l144 -258z" />
    <glyph glyph-name="plus" unicode="+" 
d="M319 561v-206h206v-88h-206v-206h-88v206h-206v88h206v206h88z" />
    <glyph glyph-name="minus" unicode="&#x2212;" 
d="M49 355h451v-88h-451v88z" />
    <glyph glyph-name="plusminus" unicode="&#xb1;" 
d="M25 88h500v-88h-500v88zM319 642v-206h206v-88h-206v-206h-88v206h-206v88h206v206h88z" />
    <glyph glyph-name="divide" unicode="&#xf7;" 
d="M24 268v87h501v-87h-501zM333 55h-117v124h117v-124zM333 444h-117v124h117v-124z" />
    <glyph glyph-name="multiply" unicode="&#xd7;" 
d="M129 519l146 -146l146 146l62 -62l-146 -146l146 -146l-62 -62l-146 146l-146 -146l-62 62l146 146l-146 146z" />
    <glyph glyph-name="commaaccent" horiz-adv-x="360" 
d="M175 -235h-83l36 178h96z" />
    <glyph glyph-name="revcommaaccent" horiz-adv-x="360" 
d="M180 752h86l-37 -182h-98z" />
    <glyph glyph-name="tilde.cap" horiz-adv-x="360" 
d="M283 874l69 7c2 -8 3 -19 3 -30c0 -59 -42 -97 -102 -97c-68 0 -105 61 -147 61c-17 0 -30 -10 -31 -28c0 -4 0 -7 1 -10l-69 -7c-2 8 -3 19 -3 30c0 59 42 97 102 97c67 0 107 -61 147 -61c17 0 31 10 31 28c0 3 0 7 -1 10z" />
    <glyph glyph-name="ring.cap" horiz-adv-x="360" 
d="M82 822c0 54 44 98 98 98s98 -44 98 -98s-44 -98 -98 -98s-98 44 -98 98zM136 822c0 -24 20 -44 44 -44s44 20 44 44s-20 44 -44 44s-44 -20 -44 -44z" />
    <glyph glyph-name="circumflex.cap" horiz-adv-x="360" 
d="M124 921h111l108 -132l-61 -47l-103 109l-105 -109l-61 47z" />
    <glyph glyph-name="acute.cap" horiz-adv-x="360" 
d="M325 865l-177 -127l-47 61l166 139z" />
    <glyph glyph-name="grave.cap" horiz-adv-x="360" 
d="M211 738l-177 127l58 73l166 -139z" />
    <glyph glyph-name="dieresis.cap" horiz-adv-x="360" 
d="M101 763h-113v114h113v-114zM372 763h-113v114h113v-114z" />
    <glyph glyph-name="caron.cap" horiz-adv-x="360" 
d="M232 753h-111l-108 132l63 47l103 -109l105 109l59 -47z" />
    <glyph glyph-name="macron.cap" horiz-adv-x="360" 
d="M349 773h-338v77h338v-77z" />
    <glyph glyph-name="dotaccent.cap" horiz-adv-x="360" 
d="M236 763h-112v114h112v-114z" />
    <glyph glyph-name="cedilla.cap" horiz-adv-x="360" 
d="M198 2l-28 -66l2 -1c10 9 26 16 48 16c52 0 88 -42 88 -95c0 -54 -47 -104 -110 -104c-47 0 -83 21 -106 62l60 29c8 -24 26 -32 44 -32c25 0 42 20 42 42c0 23 -15 46 -42 46c-15 0 -30 -6 -40 -23l-64 34l47 103z" />
    <glyph glyph-name="hungarumlaut.cap" horiz-adv-x="360" 
d="M224 865l-177 -127l-47 59l166 139zM442 861l-171 -123l-47 61l160 135z" />
    <glyph glyph-name="apostrophe" unicode="&#x2bc;" horiz-adv-x="360" 
d="M151 722h110l-60 -220h-90z" />
    <glyph glyph-name="commaaccent.cap" horiz-adv-x="360" 
d="M175 -235h-83l36 178h96z" />
    <glyph glyph-name="breve.cap" horiz-adv-x="360" 
d="M256 906h72v-7c0 -83 -65 -142 -148 -142s-148 59 -148 142v7h72v-8c0 -42 34 -70 76 -70s76 28 76 70v8z" />
    <glyph glyph-name="caron.alt" horiz-adv-x="360" 
d="M171 546h-86l40 204h100z" />
    <glyph glyph-name="ogonek.cap" horiz-adv-x="360" 
d="M162 11h84v-11c-72 -20 -108 -67 -108 -107c0 -26 15 -43 44 -43c15 0 31 5 45 14l32 -57c-23 -20 -59 -31 -94 -31c-61 0 -117 36 -117 101c0 61 41 107 114 134z" />
    <glyph glyph-name="square" horiz-adv-x="388" 
d="M60 155v268h268v-268h-268z" />
    <glyph glyph-name="square.open" horiz-adv-x="388" 
d="M60 155v268h268v-268h-268zM138 345v-112h112v112h-112z" />
    <glyph glyph-name="circle" unicode="&#x25cb;" horiz-adv-x="366" 
d="M35 289c0 82 66 148 148 148s148 -66 148 -148s-66 -148 -148 -148s-148 66 -148 148z" />
    <glyph glyph-name="circle.open" horiz-adv-x="366" 
d="M35 289c0 82 66 148 148 148s148 -66 148 -148s-66 -148 -148 -148s-148 66 -148 148zM121 289c0 -34 28 -62 62 -62s62 28 62 62s-28 62 -62 62s-62 -28 -62 -62z" />
    <glyph glyph-name="doublecircle" horiz-adv-x="366" 
d="M183 229c-30 0 -53 25 -53 55c0 29 23 55 53 55s53 -24 53 -54s-23 -56 -53 -56zM183 140c-79 0 -144 65 -144 144s65 143 144 143s143 -64 143 -143s-64 -144 -143 -144zM183 174c59 0 106 52 106 112s-47 107 -106 107c-60 0 -105 -50 -105 -109
c0 -60 45 -110 105 -110z" />
    <glyph glyph-name="triangle.left" horiz-adv-x="398" 
d="M338 111l-308 175l308 173v-348z" />
    <glyph glyph-name="triangle" unicode="&#x25b3;" horiz-adv-x="398" 
d="M368 286l-308 -175v348z" />
    <glyph glyph-name="raute" horiz-adv-x="356" 
d="M178 512l148 -236l-148 -236l-148 236z" />
    <glyph glyph-name="triangleWhiteLeft" horiz-adv-x="495" 
d="M435 516v-462l-405 231zM184 285l175 -99v198z" />
    <glyph glyph-name="triangleWhiteRight" horiz-adv-x="495" 
d="M60 54v462l405 -231zM136 186l176 99l-176 99v-198z" />
    <glyph glyph-name="arrow.right" horiz-adv-x="1000" 
d="M40 310v101h749l-248 243l72 71l367 -364l-367 -364l-72 71l247 242h-748z" />
    <glyph glyph-name="arrow.left" horiz-adv-x="1000" 
d="M964 411v-101h-748l246 -242l-71 -71l-367 364l367 364l71 -71l-247 -243h749z" />
    <glyph glyph-name="arrow.up" horiz-adv-x="900" 
d="M500 -99h-101v748l-242 -247l-71 72l364 367l364 -367l-71 -72l-243 248v-749z" />
    <glyph glyph-name="arrow.down" horiz-adv-x="900" 
d="M399 821h101v-749l243 248l71 -72l-364 -367l-364 367l71 72l242 -247v748z" />
    <glyph glyph-name="arrow.leftup" horiz-adv-x="1000" 
d="M856 64l-72 -72l-528 529l2 -345h-100l-2 517l517 -2v-100l-347 2z" />
    <glyph glyph-name="arrow.rightup" horiz-adv-x="1000" 
d="M226 -8l-72 72l530 529l-347 -2v100l517 2l-2 -517h-100l2 345z" />
    <glyph glyph-name="arrowleft.down" horiz-adv-x="1000" 
d="M784 701l72 -72l-530 -529l347 3v-101l-517 -2l2 517h100l-2 -345z" />
    <glyph glyph-name="arrowright.down" horiz-adv-x="1000" 
d="M154 629l72 72l528 -529l-2 345h100l2 -517l-517 2v101l347 -3z" />
    <glyph glyph-name="arrowright.alt" horiz-adv-x="482" 
d="M402 286l-264 -197l-58 83l167 114l-167 113l58 83z" />
    <glyph glyph-name="arrowleft.alt" horiz-adv-x="482" 
d="M344 89l-264 197l264 196l58 -83l-167 -113l167 -114z" />
    <glyph glyph-name="arrowup.alt" horiz-adv-x="552" 
d="M276 477l196 -264l-82 -58l-114 166l-114 -166l-82 58z" />
    <glyph glyph-name="arrowdown.alt" horiz-adv-x="552" 
d="M276 94l-196 264l82 58l114 -166l114 166l82 -58z" />
    <glyph glyph-name="arrowleftup.alt" horiz-adv-x="485" 
d="M127 104l-47 326l325 -48l-17 -100l-198 37l38 -197z" />
    <glyph glyph-name="arrowrightup.alt" horiz-adv-x="485" 
d="M405 430l-47 -326l-100 18l38 197l-199 -37l-17 100z" />
    <glyph glyph-name="arrowleftdown.alt" horiz-adv-x="485" 
d="M80 104l47 326l101 -18l-38 -197l198 37l17 -99z" />
    <glyph glyph-name="arrowrightdown.alt" horiz-adv-x="485" 
d="M358 430l47 -326l-325 49l17 99l199 -37l-38 197z" />
    <glyph glyph-name="arrowlong.left" horiz-adv-x="1204" 
d="M1134 304v-80h-911l197 -194l-57 -58l-293 292l293 291l57 -57l-197 -194h911z" />
    <glyph glyph-name="arrowlong.right" horiz-adv-x="1204" 
d="M70 224v80h910l-196 194l57 57l293 -291l-293 -292l-57 58l196 194h-910z" />
    <glyph glyph-name="arrowlong.up" horiz-adv-x="723" 
d="M402 -219h-81v910l-194 -196l-57 57l291 293l292 -293l-57 -57l-194 196v-910z" />
    <glyph glyph-name="arrowlong.down" horiz-adv-x="723" 
d="M321 823h81v-910l194 196l57 -57l-292 -293l-291 293l57 57l194 -196v910z" />
    <glyph glyph-name="arrowlong.leftup" horiz-adv-x="921" 
d="M851 -35l-57 -57l-644 644l2 -277h-80l-2 413h414v-81l-277 2z" />
    <glyph glyph-name="arrowlong.leftdown" horiz-adv-x="921" 
d="M794 688l57 -57l-644 -644l277 2v-81h-414l2 413h80l-2 -277z" />
    <glyph glyph-name="arrowlong.rightup" horiz-adv-x="921" 
d="M127 -92l-57 57l643 644l-276 -2v81h414l-2 -413h-80l1 277z" />
    <glyph glyph-name="arrowlong.rightdown" horiz-adv-x="921" 
d="M70 631l57 57l643 -644l-1 277h80l2 -413h-414v81l276 -2z" />
    <glyph glyph-name="ornm1" horiz-adv-x="666" 
d="M240 390c0 -13 6 -25 15 -34h-201c-19 0 -34 15 -34 34s15 34 34 34h200c-9 -9 -14 -21 -14 -34zM332 154c0 -18 -14 -32 -32 -32h-81c-18 0 -32 14 -32 32s14 32 32 32h81c18 0 32 -14 32 -32zM332 232c0 -18 -14 -32 -32 -32h-81c-18 0 -32 14 -32 32s14 32 32 32h81
c18 0 32 -14 32 -32zM332 310c0 -18 -14 -32 -32 -32h-81c-18 0 -32 14 -32 32s14 32 32 32h81c18 0 32 -14 32 -32zM429 122h-96c8 8 13 19 13 32c0 16 -9 31 -22 39c13 8 22 22 22 39c0 16 -9 31 -22 39c13 8 22 22 22 39c0 13 -5 24 -14 33h63v13h-107
c-19 0 -34 15 -34 34s15 34 34 34h149c41 0 28 -60 75 -60h114v-197h-114c-47 0 -34 -45 -83 -45z" />
    <glyph glyph-name="ornm2" horiz-adv-x="666" 
d="M426 390c0 13 -5 25 -14 34h200c19 0 34 -15 34 -34s-15 -34 -34 -34h-201c9 9 15 21 15 34zM40 364h114c47 0 34 60 75 60h149c19 0 34 -15 34 -34s-15 -34 -34 -34h-107v-13h63c-9 -9 -14 -20 -14 -33c0 -17 9 -31 22 -39c-13 -8 -22 -23 -22 -39c0 -17 9 -31 22 -39
c-13 -8 -22 -23 -22 -39c0 -13 5 -24 13 -32h-101c-41 0 -31 45 -78 45h-114v197zM334 154c0 18 14 32 32 32h81c18 0 32 -14 32 -32s-14 -32 -32 -32h-81c-18 0 -32 14 -32 32zM334 232c0 18 14 32 32 32h81c18 0 32 -14 32 -32s-14 -32 -32 -32h-81c-18 0 -32 14 -32 32z
M334 310c0 18 14 32 32 32h81c18 0 32 -14 32 -32s-14 -32 -32 -32h-81c-18 0 -32 14 -32 32z" />
    <glyph glyph-name="ornm3" horiz-adv-x="1100" 
d="M648 588l-61 12l31 154l61 -12zM519 601h62v-157h-62v157zM452 -78l61 -12l-31 -154l-61 12zM581 -91h-62v157h62v-157zM883 157l12 61l154 -31l-12 -61zM896 286v-62h-157v62h157zM217 353l-12 -61l-154 31l12 61zM204 224v62h157v-62h-157zM855 422l-34 51l130 88
l35 -52zM773 522l44 -44l-111 -111l-44 44zM245 88l34 -51l-130 -88l-35 52zM327 -12l-44 44l111 111l44 -44zM717 -50l51 34l88 -130l-52 -35zM817 32l-44 -44l-111 111l44 44zM383 560l-51 -34l-88 130l52 35zM283 478l44 44l111 -111l-44 -44zM765 527l-51 34l86 132
l52 -34zM651 587l57 -23l-58 -145l-58 23zM335 -17l51 -34l-86 -132l-52 34zM449 -77l-57 23l58 145l58 -23zM822 40l34 51l132 -86l-34 -52zM882 154l-23 -57l-145 58l23 58zM278 470l-34 -51l-132 86l34 52zM218 356l23 57l145 -58l-23 -58zM516 600l-61 -11l-29 155
l60 11zM392 564l57 23l59 -145l-58 -23zM584 -90l61 11l29 -155l-60 -11zM708 -54l-57 -23l-59 145l58 23zM895 289l-11 61l155 29l11 -60zM859 413l23 -57l-145 -59l-23 58zM205 221l11 -61l-155 -29l-11 60zM241 97l-23 57l145 59l23 -58z" />
    <glyph glyph-name="ornm4" horiz-adv-x="1174" 
d="M314 256c0 147 119 267 266 267c148 0 267 -120 267 -267s-119 -267 -267 -267c-147 0 -266 120 -266 267zM376 256c0 -113 91 -205 204 -205s205 92 205 205s-92 205 -205 205s-204 -92 -204 -205zM425 256c0 86 69 156 155 156s156 -70 156 -156s-70 -156 -156 -156
s-155 70 -155 156zM487 256c0 -52 42 -94 93 -94c52 0 94 42 94 94s-42 94 -94 94c-51 0 -93 -42 -93 -94zM716 568c0 24 20 45 45 45c24 0 44 -21 44 -45c0 -25 -20 -45 -44 -45c-25 0 -45 20 -45 45zM723 -67c0 25 20 45 45 45c24 0 44 -20 44 -45s-20 -45 -44 -45
c-25 0 -45 20 -45 45zM785 -175c0 25 20 45 45 45s45 -20 45 -45s-20 -45 -45 -45s-45 20 -45 45zM858 69c0 24 21 45 45 45c25 0 45 -21 45 -45c0 -25 -20 -45 -45 -45c-24 0 -45 20 -45 45zM966 6c0 25 21 45 45 45c25 0 45 -20 45 -45c0 -24 -20 -45 -45 -45
c-24 0 -45 21 -45 45zM293 676c0 24 20 45 45 45c24 0 45 -21 45 -45c0 -25 -21 -45 -45 -45c-25 0 -45 20 -45 45zM355 568c0 24 20 45 45 45s45 -21 45 -45c0 -25 -20 -45 -45 -45s-45 20 -45 45zM115 499c0 24 21 45 45 45c25 0 45 -21 45 -45c0 -25 -20 -45 -45 -45
c-24 0 -45 20 -45 45zM223 436c0 25 21 45 45 45c25 0 45 -20 45 -45c0 -24 -20 -45 -45 -45c-24 0 -45 21 -45 45zM909 256c0 24 20 45 45 45c24 0 45 -21 45 -45c0 -25 -21 -45 -45 -45c-25 0 -45 20 -45 45zM1034 256c0 24 20 45 45 45c24 0 45 -21 45 -45
c0 -25 -21 -45 -45 -45c-25 0 -45 20 -45 45zM847 436c0 25 21 45 45 45c25 0 45 -20 45 -45c0 -24 -20 -45 -45 -45c-24 0 -45 21 -45 45zM293 -164c0 24 20 45 45 45c24 0 45 -21 45 -45c0 -25 -21 -45 -45 -45c-25 0 -45 20 -45 45zM50 256c0 24 20 45 45 45
s45 -21 45 -45c0 -25 -20 -45 -45 -45s-45 20 -45 45zM778 676c0 24 20 45 45 45s45 -21 45 -45c0 -25 -20 -45 -45 -45s-45 20 -45 45zM535 616c0 25 21 45 45 45c25 0 45 -20 45 -45c0 -24 -20 -44 -45 -44c-24 0 -45 20 -45 44zM535 741c0 25 21 45 45 45
c25 0 45 -20 45 -45c0 -24 -20 -45 -45 -45c-24 0 -45 21 -45 45zM535 -229c0 24 21 44 45 44c25 0 45 -20 45 -44c0 -25 -20 -45 -45 -45c-24 0 -45 20 -45 45zM535 -105c0 25 21 45 45 45c25 0 45 -20 45 -45c0 -24 -20 -45 -45 -45c-24 0 -45 21 -45 45zM955 499
c0 24 21 45 45 45c25 0 45 -21 45 -45c0 -25 -20 -45 -45 -45c-24 0 -45 20 -45 45zM535 256c0 24 21 45 45 45c25 0 45 -21 45 -45c0 -25 -20 -45 -45 -45c-24 0 -45 20 -45 45zM115 13c0 25 21 45 45 45c25 0 45 -20 45 -45c0 -24 -20 -45 -45 -45c-24 0 -45 21 -45 45z
M223 76c0 24 21 45 45 45c25 0 45 -21 45 -45c0 -25 -20 -45 -45 -45c-24 0 -45 20 -45 45zM355 -56c0 24 20 45 45 45s45 -21 45 -45c0 -25 -20 -45 -45 -45s-45 20 -45 45zM175 256c0 24 20 45 45 45c24 0 45 -21 45 -45c0 -25 -21 -45 -45 -45c-25 0 -45 20 -45 45z" />
    <glyph glyph-name="ornm5" horiz-adv-x="1057" 
d="M233 504l48 48l85 -85c9 8 20 15 32 21l-89 222l63 25l89 -222c11 4 22 6 34 7v121h68v-121c13 -1 25 -4 37 -8l94 220l62 -28l-93 -218c10 -5 19 -12 29 -19l84 85l49 -48l-85 -85c8 -10 15 -21 21 -32l221 89l25 -64l-221 -89c4 -11 5 -22 7 -33h120v-68h-120
c-2 -13 -4 -26 -8 -38l219 -93l-27 -62l-218 92c-5 -9 -12 -20 -19 -28l85 -85l-49 -48l-84 85c-11 -8 -21 -16 -32 -22l89 -221l-64 -25l-89 221c-11 -3 -22 -5 -33 -6v-121h-68v121c-13 1 -26 4 -39 7l-92 -219l-62 27l92 218c-10 6 -20 12 -28 20l-85 -85l-48 48l84 85
c-7 9 -15 21 -21 32l-221 -89l-25 63l220 90c-2 10 -5 21 -6 33h-120v68h120c1 13 4 25 7 37l-218 94l27 62l218 -93c5 10 12 20 19 29zM324 256c0 -113 92 -205 205 -205s204 92 204 205s-91 205 -204 205s-205 -92 -205 -205zM373 256c0 86 70 156 156 156
s155 -70 155 -156s-69 -156 -155 -156s-156 70 -156 156zM435 256c0 -52 42 -94 94 -94c51 0 93 42 93 94s-42 94 -93 94c-52 0 -94 -42 -94 -94zM484 256c0 24 20 45 45 45c24 0 44 -21 44 -45c0 -25 -20 -45 -44 -45c-25 0 -45 20 -45 45z" />
    <glyph glyph-name="ornm6" horiz-adv-x="1105" 
d="M222 -123l-48 48l167 168c-8 9 -15 21 -22 32l-220 -89l-25 63l220 89c-2 11 -5 22 -6 34h-238v68h238c1 13 4 25 7 37l-218 94l27 62l218 -92c6 10 13 20 19 28l-167 168l48 48l168 -168c9 8 20 15 32 21l-90 221l64 26l88 -222c11 4 23 6 35 7v238h68v-238
c13 -1 25 -4 37 -8l93 220l63 -28l-92 -218c10 -6 19 -12 28 -19l167 168l49 -48l-168 -168c8 -10 15 -22 21 -33l221 90l25 -63l-221 -90c3 -11 5 -22 7 -33h238v-68h-238c-2 -13 -4 -25 -8 -37l219 -94l-27 -62l-218 91c-6 -9 -12 -19 -19 -27l168 -168l-49 -48l-167 168
c-11 -8 -22 -16 -33 -22l90 -221l-64 -25l-89 221c-11 -3 -22 -5 -33 -6v-239h-68v239c-13 1 -26 4 -38 7l-93 -219l-62 27l91 219c-10 5 -19 12 -27 19zM348 256c0 -113 92 -205 205 -205s204 92 204 205s-91 205 -204 205s-205 -92 -205 -205zM397 256
c0 86 70 156 156 156c85 0 155 -70 155 -156s-70 -156 -155 -156c-86 0 -156 70 -156 156zM459 256c0 -52 42 -94 94 -94c51 0 93 42 93 94s-42 94 -93 94c-52 0 -94 -42 -94 -94z" />
    <glyph glyph-name="ornm7" horiz-adv-x="1077" 
d="M50 256c0 269 219 489 489 489c269 0 488 -220 488 -489s-219 -489 -488 -489c-270 0 -489 220 -489 489zM112 256c0 -236 191 -427 427 -427s426 191 426 427s-190 427 -426 427s-427 -191 -427 -427zM161 256c0 209 169 378 378 378s377 -169 377 -378
s-168 -378 -377 -378s-378 169 -378 378zM223 256c0 -175 141 -316 316 -316c174 0 315 141 315 316c0 174 -141 316 -315 316c-175 0 -316 -142 -316 -316zM272 256c0 147 119 267 267 267c147 0 266 -120 266 -267s-119 -267 -266 -267c-148 0 -267 120 -267 267zM334 256
c0 -113 92 -205 205 -205s205 92 205 205s-92 205 -205 205s-205 -92 -205 -205zM383 256c0 86 70 156 156 156s156 -70 156 -156s-70 -156 -156 -156s-156 70 -156 156zM445 256c0 -52 42 -94 94 -94c51 0 94 42 94 94s-43 94 -94 94c-52 0 -94 -42 -94 -94zM494 256
c0 24 20 45 45 45c24 0 45 -21 45 -45c0 -25 -21 -45 -45 -45c-25 0 -45 20 -45 45z" />
    <glyph glyph-name="ornm8" horiz-adv-x="1106" 
d="M587 442h-68v318h68v-318zM587 -250h-68v318h68v-318zM740 221v68h318v-68h-318zM48 221v68h318v-68h-318zM710 364l-48 48l224 224l48 -48zM220 -126l-48 48l224 224l48 -48zM662 98l48 48l224 -224l-48 -48zM172 588l48 48l224 -224l-48 -48zM655 416l-63 25l119 295
l63 -26zM395 -226l-63 26l119 294l63 -25zM714 153l25 63l295 -119l-26 -63zM72 413l26 63l294 -119l-25 -63zM739 297l-26 63l291 124l27 -63zM102 26l-27 63l292 124l26 -63zM595 69l63 26l124 -291l-63 -27zM324 706l63 27l124 -292l-63 -26z" />
    <glyph glyph-name="ornm9" horiz-adv-x="600" 
d="M550 500v-500h-500v500h500z" />
    <glyph glyph-name="zero.alt" horiz-adv-x="553" 
d="M276 676c153 0 239 -131 239 -344s-86 -344 -239 -344c-152 0 -238 131 -238 344s86 344 238 344zM276 582c-82 0 -130 -83 -130 -250s48 -250 130 -250c83 0 131 83 131 250s-48 250 -131 250z" />
    <glyph glyph-name="one.alt" horiz-adv-x="347" 
d="M257 0h-106v539c-30 -16 -71 -32 -98 -44v98c40 20 90 46 135 71h69v-664z" />
    <glyph glyph-name="two.alt" horiz-adv-x="512" 
d="M152 483l-104 18c8 104 97 175 203 175c117 0 202 -67 202 -179c0 -60 -31 -126 -68 -180c-53 -76 -118 -152 -184 -225h278v-92h-416v90c77 83 166 183 224 270c27 40 58 92 58 138c0 51 -43 86 -95 86c-53 0 -97 -40 -98 -101z" />
    <glyph glyph-name="three.alt" horiz-adv-x="507" 
d="M162 302l-53 80l186 190h-248v92h396v-80l-176 -175c113 -6 188 -100 188 -206c0 -121 -100 -215 -229 -215c-86 0 -158 45 -197 116l83 45c25 -42 63 -68 113 -68c67 0 123 54 123 121c0 66 -55 121 -122 121c-20 0 -45 -7 -64 -21z" />
    <glyph glyph-name="four.alt" horiz-adv-x="542" 
d="M326 664h99v-400h98v-92h-98v-172h-104v172h-289v105c85 109 204 264 294 387zM144 264h177v242c-51 -73 -130 -182 -177 -242z" />
    <glyph glyph-name="five.alt" horiz-adv-x="501" 
d="M189 572c-3 -56 -7 -122 -13 -174c27 13 57 18 88 18c110 0 195 -88 195 -207c0 -123 -95 -221 -230 -221c-85 0 -158 45 -196 116l83 45c24 -42 63 -68 113 -68c66 0 123 54 123 119c0 72 -41 123 -120 123c-36 0 -67 -14 -92 -41l-76 43c10 98 22 244 27 339h336v-92
h-238z" />
    <glyph glyph-name="six.alt" horiz-adv-x="521" 
d="M261 315c-70 0 -115 -52 -115 -117c0 -64 51 -117 115 -117c69 0 114 53 114 117c0 65 -51 117 -114 117zM245 402c12 4 28 5 40 5c103 0 198 -92 198 -207c0 -119 -103 -212 -224 -212c-120 0 -221 93 -221 212c0 45 16 85 35 120c24 46 171 281 237 375l86 -52
c-48 -71 -114 -175 -151 -241z" />
    <glyph glyph-name="seven.alt" horiz-adv-x="457" 
d="M438 664v-75c-82 -170 -202 -441 -274 -613l-97 43c87 205 200 435 255 551h-312v94h428z" />
    <glyph glyph-name="eight.alt" horiz-adv-x="559" 
d="M502 189c0 -111 -98 -201 -223 -201c-124 0 -222 90 -222 201c0 70 39 129 98 161c-48 28 -80 77 -80 139c0 102 90 187 204 187c115 0 205 -85 205 -187c0 -62 -32 -111 -80 -139c59 -32 98 -91 98 -161zM181 488c0 -54 44 -97 98 -97c55 0 99 43 99 97
c0 53 -44 96 -99 96c-54 0 -98 -43 -98 -96zM164 189c0 -60 51 -109 115 -109c65 0 115 49 115 109c0 61 -50 110 -115 110c-64 0 -115 -49 -115 -110z" />
    <glyph glyph-name="nine.alt" horiz-adv-x="521" 
d="M260 349c70 0 115 53 115 117c0 65 -51 118 -115 118c-70 0 -114 -53 -114 -118c0 -64 51 -117 114 -117zM276 262c-12 -3 -29 -5 -41 -5c-102 0 -197 92 -197 207c0 119 103 212 224 212c120 0 221 -93 221 -212c0 -45 -17 -84 -35 -120c-24 -46 -171 -281 -237 -375
l-86 52c48 72 114 176 151 241z" />
    <glyph glyph-name="a.smcp" horiz-adv-x="565" 
d="M9 0l225 576h102l220 -576h-116l-43 116h-235l-42 -116h-111zM279 435l-84 -229h169l-83 229h-2z" />
    <glyph glyph-name="b.smcp" horiz-adv-x="557" 
d="M86 0v576h153c47 0 97 -5 141 -24c57 -25 91 -63 91 -134c0 -51 -25 -95 -88 -118c74 -22 111 -69 111 -134c0 -69 -39 -119 -103 -143c-48 -18 -106 -23 -160 -23h-145zM386 171c0 50 -43 79 -111 79h-85v-162h40c44 0 84 3 112 15c29 13 44 36 44 68zM367 412
c0 55 -42 76 -130 76h-47v-150h49c80 0 128 23 128 74z" />
    <glyph glyph-name="c.smcp" horiz-adv-x="570" 
d="M478 118l52 -74c-51 -36 -110 -56 -174 -56c-176 0 -313 118 -313 300c0 172 140 300 314 300c59 0 114 -17 161 -47l-47 -78c-36 23 -73 35 -115 35c-117 0 -205 -88 -205 -210c0 -129 82 -210 204 -210c42 0 85 13 123 40z" />
    <glyph glyph-name="d.smcp" horiz-adv-x="618" 
d="M86 576h86c152 0 197 -11 236 -27c96 -38 172 -118 172 -258c0 -155 -87 -244 -197 -272c-35 -9 -73 -19 -207 -19h-90v576zM190 90c68 0 106 4 142 13c87 20 140 75 140 181c0 85 -34 143 -93 173c-39 19 -80 29 -189 29v-396z" />
    <glyph glyph-name="e.smcp" horiz-adv-x="519" 
d="M447 0h-361v576h361v-90h-257v-146h257v-90h-257v-160h257v-90z" />
    <glyph glyph-name="f.smcp" horiz-adv-x="445" 
d="M397 238h-207v-238h-104v576h311v-90h-207v-158h207v-90z" />
    <glyph glyph-name="g.smcp" horiz-adv-x="673" 
d="M596 332v-229c-55 -72 -143 -115 -241 -115c-173 0 -312 117 -312 300c0 172 140 300 312 300c89 0 167 -39 225 -100l-70 -65c-37 45 -93 75 -156 75c-117 0 -203 -89 -203 -210c0 -130 83 -210 203 -210c55 0 103 19 140 55v111h-134v88h236z" />
    <glyph glyph-name="h.smcp" horiz-adv-x="666" 
d="M580 0h-104v253h-286v-253h-104v576h104v-233h286v233h104v-576z" />
    <glyph glyph-name="i.smcp" horiz-adv-x="276" 
d="M190 0h-104v576h104v-576z" />
    <glyph glyph-name="j.smcp" horiz-adv-x="335" 
d="M6 9l28 81c16 -7 30 -12 49 -12c25 0 40 5 50 17c10 13 12 35 12 70v411h104v-430c0 -46 -11 -84 -33 -111c-24 -30 -62 -47 -119 -47c-31 0 -64 9 -91 21z" />
    <glyph glyph-name="k.smcp" horiz-adv-x="562" 
d="M190 0h-104v576h104v-271l223 271h124l-193 -226l208 -350h-122l-156 269l-84 -100v-169z" />
    <glyph glyph-name="l.smcp" horiz-adv-x="446" 
d="M436 0h-350v576h104v-486h246v-90z" />
    <glyph glyph-name="m.smcp" horiz-adv-x="816" 
d="M730 576v-576h-104v443l-178 -443h-82l-176 443v-443h-104v576h156l164 -429h2l167 429h155z" />
    <glyph glyph-name="msmcp.salt" horiz-adv-x="757" 
d="M342 117l-154 328v-445h-102v576h140l153 -324h1l152 324h139v-576h-101v445l-156 -328h-72z" />
    <glyph glyph-name="n.smcp" horiz-adv-x="680" 
d="M489 0l-299 407v-407h-104v576h105l299 -407v407h104v-576h-105z" />
    <glyph glyph-name="o.smcp" horiz-adv-x="699" 
d="M656 288c0 -167 -132 -300 -306 -300c-175 0 -307 133 -307 300s132 300 307 300c174 0 306 -133 306 -300zM548 288c0 122 -84 210 -198 210c-115 0 -199 -88 -199 -210s84 -210 199 -210c114 0 198 88 198 210z" />
    <glyph glyph-name="p.smcp" horiz-adv-x="520" 
d="M190 0h-104v576h112c58 0 89 -1 113 -4c100 -14 181 -75 181 -176c0 -81 -59 -149 -142 -173c-29 -8 -62 -12 -142 -12h-18v-211zM384 395c0 41 -22 71 -65 84c-13 4 -31 7 -102 7h-27v-185h30c60 1 86 3 108 11c36 14 56 41 56 83z" />
    <glyph glyph-name="q.smcp" horiz-adv-x="699" 
d="M656 288c0 -82 -32 -155 -84 -209l78 -79l-64 -64l-87 88c-44 -23 -95 -36 -149 -36c-175 0 -307 133 -307 300s132 300 307 300c174 0 306 -133 306 -300zM548 288c0 122 -84 210 -198 210c-115 0 -199 -88 -199 -210s84 -210 199 -210c28 0 55 5 79 16l-74 75l63 64
l84 -84c29 36 46 84 46 139z" />
    <glyph glyph-name="r.smcp" horiz-adv-x="572" 
d="M86 576h140c182 0 267 -51 267 -173c0 -82 -53 -142 -131 -163l181 -240h-131l-166 225h-56v-225h-104v576zM385 397c0 70 -35 91 -170 91h-25v-175h26c109 0 169 18 169 84z" />
    <glyph glyph-name="s.smcp" horiz-adv-x="513" 
d="M429 528l-55 -74c-33 24 -72 44 -119 44c-51 0 -87 -24 -87 -68c0 -50 55 -67 117 -87c78 -26 166 -59 166 -172c0 -128 -122 -183 -209 -183c-82 0 -147 28 -209 87l64 70c51 -47 90 -67 145 -67c51 0 101 26 101 87c0 55 -55 75 -118 96c-78 26 -161 58 -161 164
c0 110 86 163 185 163c73 0 126 -22 180 -60z" />
    <glyph glyph-name="t.smcp" horiz-adv-x="454" 
d="M422 486h-143v-486h-104v486h-143v90h390v-90z" />
    <glyph glyph-name="u.smcp" horiz-adv-x="629" 
d="M551 576v-306c0 -182 -74 -282 -239 -282c-159 0 -234 100 -234 282v306h104v-317c0 -122 49 -181 132 -181c84 0 133 59 133 181v317h104z" />
    <glyph glyph-name="v.smcp" horiz-adv-x="555" 
d="M551 576l-225 -576h-102l-220 576h116l159 -435h2l159 435h111z" />
    <glyph glyph-name="w.smcp" horiz-adv-x="812" 
d="M798 576l-166 -576h-112l-112 422h-2l-121 -422h-112l-159 576h113l109 -413h2l115 413h110l110 -413h2l114 413h109z" />
    <glyph glyph-name="x.smcp" horiz-adv-x="578" 
d="M10 576h131l151 -207l151 207h127l-215 -283l219 -293h-130l-157 214l-155 -214h-128l220 290z" />
    <glyph glyph-name="y.smcp" horiz-adv-x="501" 
d="M302 0h-104v239l-193 337h126l122 -231h2l121 231h120l-194 -339v-237z" />
    <glyph glyph-name="z.smcp" horiz-adv-x="485" 
d="M439 524l-256 -434h278v-90h-418v55l254 431h-251v90h393v-52z" />
    <glyph glyph-name="thorn.smcp" horiz-adv-x="541" 
d="M86 576h104v-99h8c58 0 89 -1 113 -4c100 -14 181 -75 181 -176c0 -81 -59 -149 -142 -173c-29 -8 -62 -12 -142 -12h-18v-112h-104v576zM384 296c0 41 -22 71 -65 84c-13 4 -31 7 -102 7h-27v-185h30c60 1 86 3 108 11c36 14 56 41 56 83z" />
    <glyph glyph-name="agrave.smcp" horiz-adv-x="565" 
d="M9 0l225 576h102l220 -576h-116l-43 116h-235l-42 -116h-111zM279 435l-84 -229h169l-83 229h-2zM288 615l-137 163l73 57l126 -173z" />
    <glyph glyph-name="aacute.smcp" horiz-adv-x="565" 
d="M9 0l225 576h102l220 -576h-116l-43 116h-235l-42 -116h-111zM279 435l-84 -229h169l-83 229h-2zM413 778l-137 -163l-62 47l126 173z" />
    <glyph glyph-name="acircumflex.smcp" horiz-adv-x="565" 
d="M9 0l225 576h102l220 -576h-116l-43 116h-235l-42 -116h-111zM279 435l-84 -229h169l-83 229h-2zM235 825h104l103 -168l-60 -39l-96 135l-95 -135l-61 39z" />
    <glyph glyph-name="atilde.smcp" horiz-adv-x="565" 
d="M9 0l225 576h102l220 -576h-116l-43 116h-235l-42 -116h-111zM279 435l-84 -229h169l-83 229h-2zM199 652l-69 -7c-2 7 -4 16 -4 26c0 59 43 97 103 97c69 0 107 -61 147 -61c17 0 30 10 31 29c0 2 0 6 -1 9l69 7c2 -7 4 -16 4 -26c0 -59 -43 -97 -103 -97
c-69 0 -107 61 -147 61c-17 0 -30 -10 -31 -29c0 -2 0 -6 1 -9z" />
    <glyph glyph-name="adieresis.smcp" horiz-adv-x="565" 
d="M9 0l225 576h102l220 -576h-116l-43 116h-235l-42 -116h-111zM279 435l-84 -229h169l-83 229h-2zM235 645h-105v107h105v-107zM448 645h-105v107h105v-107z" />
    <glyph glyph-name="aring.smcp" horiz-adv-x="565" 
d="M9 0l225 576h102l220 -576h-116l-43 116h-235l-42 -116h-111zM279 435l-84 -229h169l-83 229h-2zM188 725c0 54 44 98 98 98s98 -44 98 -98s-44 -98 -98 -98s-98 44 -98 98zM242 725c0 -24 20 -44 44 -44s44 20 44 44s-20 44 -44 44s-44 -20 -44 -44z" />
    </font>
</defs>
</svg>
