<?xml version="1.0" standalone="no"?>
<!DOCTYPE svg PUBLIC "-//W3C//DTD SVG 1.1//EN" "http://www.w3.org/Graphics/SVG/1.1/DTD/svg11.dtd" >
<svg>
<metadata>
Created by FontForge 20120731 at Wed Oct 29 05:48:00 2014
 By Orthosie Webhosting
Copyright (c) 2011 by Wolfgang Homola, distributed by TypeTogether. All rights reserved.
</metadata>
<defs>
<font id="Soleil-Light" horiz-adv-x="550" >
  <font-face 
    font-family="Soleil Lt"
    font-weight="300"
    font-stretch="normal"
    units-per-em="1000"
    panose-1="2 0 5 3 0 0 0 2 0 3"
    ascent="750"
    descent="-250"
    x-height="488"
    cap-height="700"
    bbox="-210 -332 1218 1049"
    underline-thickness="50"
    underline-position="-50"
    stemh="62"
    stemv="76"
    unicode-range="U+000D-FB04"
  />
<missing-glyph 
d="M67 663h417v-663h-417v663zM113 619v-575h324v575h-324zM290 230h-43v99c45 15 94 35 94 93c0 34 -30 66 -69 66c-41 0 -69 -30 -69 -73v-1h-40v1c0 64 51 108 109 108c64 0 109 -51 109 -100c0 -73 -48 -101 -91 -119v-74zM292 118h-48v57h48v-57z" />
    <glyph glyph-name="ff" unicode="ff" horiz-adv-x="652" 
d="M350 744l-17 -56c-17 7 -37 12 -61 12c-20 0 -44 -3 -62 -17c-27 -21 -31 -61 -31 -115v-80h137v-62h-137v-426h-68v426h-57v62h57v86c0 50 8 97 31 131s60 57 120 57c32 0 65 -10 88 -18zM676 744l-17 -56c-17 7 -37 12 -61 12c-20 0 -44 -3 -62 -17
c-27 -21 -31 -61 -31 -115v-80h137v-62h-137v-426h-68v426h-57v62h57v86c0 50 8 97 31 131s60 57 120 57c32 0 65 -10 88 -18z" />
    <glyph glyph-name="fi" unicode="fi" horiz-adv-x="576" 
d="M330 751l-10 -58c-14 4 -30 7 -48 7c-20 0 -44 -3 -62 -17c-27 -21 -31 -61 -31 -115v-80h137v-62h-137v-426h-68v426h-57v62h57v86c0 50 8 97 31 131s60 57 120 57c23 0 48 -5 68 -11zM485 0h-68v488h68v-488zM485 597h-68v94h68v-94z" />
    <glyph glyph-name="fl" unicode="fl" horiz-adv-x="576" 
d="M330 751l-10 -58c-14 4 -30 7 -48 7c-20 0 -44 -3 -62 -17c-27 -21 -31 -61 -31 -115v-80h137v-62h-137v-426h-68v426h-57v62h57v86c0 50 8 97 31 131s60 57 120 57c23 0 48 -5 68 -11zM485 750v-750h-68v750h68z" />
    <glyph glyph-name="f_k" unicode="fk" horiz-adv-x="819" 
d="M330 751l-10 -58c-14 4 -30 7 -48 7c-20 0 -44 -3 -62 -17c-27 -21 -31 -61 -31 -115v-80h137v-62h-137v-426h-68v426h-57v62h57v86c0 50 8 97 31 131s60 57 120 57c23 0 48 -5 68 -11zM788 488l-166 -196l190 -292h-83l-153 237l-91 -107v-130h-68v750h68v-527l2 -1
l220 266h81z" />
    <glyph glyph-name="f_b" unicode="fb" horiz-adv-x="938" 
d="M330 751l-10 -58c-14 4 -30 7 -48 7c-20 0 -44 -3 -62 -17c-27 -21 -31 -61 -31 -115v-80h137v-62h-137v-426h-68v426h-57v62h57v86c0 50 8 97 31 131s60 57 120 57c23 0 48 -5 68 -11zM485 750v-325c37 49 97 75 157 75c143 0 250 -115 250 -254s-108 -258 -251 -258
c-55 0 -114 21 -156 60v-48h-68v750h68zM485 346v-219c36 -47 99 -77 155 -77c106 0 182 88 182 192c0 105 -75 196 -182 196c-60 0 -127 -35 -155 -92z" />
    <glyph glyph-name="f_h" unicode="fh" horiz-adv-x="927" 
d="M330 751l-10 -58c-14 4 -30 7 -48 7c-20 0 -44 -3 -62 -17c-27 -21 -31 -61 -31 -115v-80h137v-62h-137v-426h-68v426h-57v62h57v86c0 50 8 97 31 131s60 57 120 57c23 0 48 -5 68 -11zM485 750v-348c39 65 99 98 174 98c139 0 184 -89 184 -236v-264h-68v253
c0 92 -17 185 -126 185c-73 0 -132 -52 -164 -114v-324h-68v750h68z" />
    <glyph glyph-name="f_t" unicode="ft" horiz-adv-x="663" 
d="M350 744l-17 -56c-17 7 -37 12 -61 12c-20 0 -44 -3 -62 -17c-27 -21 -31 -61 -31 -115v-80h137v-62h-137v-426h-68v426h-57v62h57v86c0 50 8 97 31 131s60 57 120 57c32 0 65 -10 88 -18zM637 426h-142v-269c0 -88 30 -104 75 -104c18 0 38 5 60 13l17 -54
c-22 -12 -49 -21 -78 -21c-95 0 -142 57 -142 158v277h-69v62h69v122h68v-122h142v-62z" />
    <glyph glyph-name="f_j" unicode="fj" horiz-adv-x="583" 
d="M330 751l-10 -58c-14 4 -30 7 -48 7c-20 0 -44 -3 -62 -17c-27 -21 -31 -61 -31 -115v-80h137v-62h-137v-426h-68v426h-57v62h57v86c0 50 8 97 31 131s60 57 120 57c23 0 48 -5 68 -11zM493 597h-68v94h68v-94zM273 -198l21 56c15 -9 33 -16 53 -16c30 0 49 9 60 24
c17 23 18 61 18 107v515h68v-521c0 -45 -3 -99 -33 -139c-24 -33 -59 -48 -102 -48c-30 0 -60 8 -85 22z" />
    <glyph glyph-name="f_f_j" unicode="ffj" horiz-adv-x="909" 
d="M656 751l-10 -58c-14 4 -30 7 -48 7c-20 0 -44 -3 -62 -17c-27 -21 -31 -61 -31 -115v-80h137v-62h-137v-426h-68v426h-57v62h57v86c0 50 8 97 31 131s60 57 120 57c23 0 48 -5 68 -11zM350 744l-17 -56c-17 7 -37 12 -61 12c-20 0 -44 -3 -62 -17
c-27 -21 -31 -61 -31 -115v-80h137v-62h-137v-426h-68v426h-57v62h57v86c0 50 8 97 31 131s60 57 120 57c32 0 65 -10 88 -18zM819 597h-68v94h68v-94zM599 -198l21 56c15 -9 33 -16 53 -16c30 0 49 9 60 24c17 23 18 61 18 107v515h68v-521c0 -45 -3 -99 -33 -139
c-24 -33 -59 -48 -102 -48c-30 0 -60 8 -85 22z" />
    <glyph glyph-name="ffi" unicode="ffi" horiz-adv-x="902" 
d="M656 751l-10 -58c-14 4 -30 7 -48 7c-20 0 -44 -3 -62 -17c-27 -21 -31 -61 -31 -115v-80h137v-62h-137v-426h-68v426h-57v62h57v86c0 50 8 97 31 131s60 57 120 57c23 0 48 -5 68 -11zM350 744l-17 -56c-17 7 -37 12 -61 12c-20 0 -44 -3 -62 -17
c-27 -21 -31 -61 -31 -115v-80h137v-62h-137v-426h-68v426h-57v62h57v86c0 50 8 97 31 131s60 57 120 57c32 0 65 -10 88 -18zM811 0h-68v488h68v-488zM811 597h-68v94h68v-94z" />
    <glyph glyph-name="ffl" unicode="ffl" horiz-adv-x="902" 
d="M656 751l-10 -58c-14 4 -30 7 -48 7c-20 0 -44 -3 -62 -17c-27 -21 -31 -61 -31 -115v-80h137v-62h-137v-426h-68v426h-57v62h57v86c0 50 8 97 31 131s60 57 120 57c23 0 48 -5 68 -11zM350 744l-17 -56c-17 7 -37 12 -61 12c-20 0 -44 -3 -62 -17
c-27 -21 -31 -61 -31 -115v-80h137v-62h-137v-426h-68v426h-57v62h57v86c0 50 8 97 31 131s60 57 120 57c32 0 65 -10 88 -18zM811 750v-750h-68v750h68z" />
    <glyph glyph-name="f_f_k" unicode="ffk" horiz-adv-x="1145" 
d="M656 751l-10 -58c-14 4 -30 7 -48 7c-20 0 -44 -3 -62 -17c-27 -21 -31 -61 -31 -115v-80h137v-62h-137v-426h-68v426h-57v62h57v86c0 50 8 97 31 131s60 57 120 57c23 0 48 -5 68 -11zM350 744l-17 -56c-17 7 -37 12 -61 12c-20 0 -44 -3 -62 -17
c-27 -21 -31 -61 -31 -115v-80h137v-62h-137v-426h-68v426h-57v62h57v86c0 50 8 97 31 131s60 57 120 57c32 0 65 -10 88 -18zM1114 488l-166 -196l190 -292h-83l-153 237l-91 -107v-130h-68v750h68v-527l2 -1l220 266h81z" />
    <glyph glyph-name="f_f_b" unicode="ffb" horiz-adv-x="1264" 
d="M656 751l-10 -58c-14 4 -30 7 -48 7c-20 0 -44 -3 -62 -17c-27 -21 -31 -61 -31 -115v-80h137v-62h-137v-426h-68v426h-57v62h57v86c0 50 8 97 31 131s60 57 120 57c23 0 48 -5 68 -11zM350 744l-17 -56c-17 7 -37 12 -61 12c-20 0 -44 -3 -62 -17
c-27 -21 -31 -61 -31 -115v-80h137v-62h-137v-426h-68v426h-57v62h57v86c0 50 8 97 31 131s60 57 120 57c32 0 65 -10 88 -18zM811 750v-325c37 49 97 75 157 75c143 0 250 -115 250 -254s-108 -258 -251 -258c-55 0 -114 21 -156 60v-48h-68v750h68zM811 346v-219
c36 -47 99 -77 155 -77c106 0 182 88 182 192c0 105 -75 196 -182 196c-60 0 -127 -35 -155 -92z" />
    <glyph glyph-name="f_f_h" unicode="ffh" horiz-adv-x="1253" 
d="M656 751l-10 -58c-14 4 -30 7 -48 7c-20 0 -44 -3 -62 -17c-27 -21 -31 -61 -31 -115v-80h137v-62h-137v-426h-68v426h-57v62h57v86c0 50 8 97 31 131s60 57 120 57c23 0 48 -5 68 -11zM350 744l-17 -56c-17 7 -37 12 -61 12c-20 0 -44 -3 -62 -17
c-27 -21 -31 -61 -31 -115v-80h137v-62h-137v-426h-68v426h-57v62h57v86c0 50 8 97 31 131s60 57 120 57c32 0 65 -10 88 -18zM811 750v-348c39 65 99 98 174 98c139 0 184 -89 184 -236v-264h-68v253c0 92 -17 185 -126 185c-73 0 -132 -52 -164 -114v-324h-68v750h68z" />
    <glyph glyph-name="f_f_t" unicode="fft" horiz-adv-x="989" 
d="M676 744l-17 -56c-17 7 -37 12 -61 12c-20 0 -44 -3 -62 -17c-27 -21 -31 -61 -31 -115v-80h137v-62h-137v-426h-68v426h-57v62h57v86c0 50 8 97 31 131s60 57 120 57c32 0 65 -10 88 -18zM350 744l-17 -56c-17 7 -37 12 -61 12c-20 0 -44 -3 -62 -17
c-27 -21 -31 -61 -31 -115v-80h137v-62h-137v-426h-68v426h-57v62h57v86c0 50 8 97 31 131s60 57 120 57c32 0 65 -10 88 -18zM963 426h-142v-269c0 -88 30 -104 75 -104c18 0 38 5 60 13l17 -54c-22 -12 -49 -21 -78 -21c-95 0 -142 57 -142 158v277h-69v62h69v122h68v-122
h142v-62z" />
    <glyph glyph-name="f_iacute" unicode="f&#xed;" horiz-adv-x="576" 
d="M350 744l-17 -56c-17 7 -37 12 -61 12c-20 0 -44 -3 -62 -17c-27 -21 -31 -61 -31 -115v-80h137v-62h-137v-426h-68v426h-57v62h57v86c0 50 8 97 31 131s60 57 120 57c32 0 65 -10 88 -18zM562 711l-126 -153l-43 34l118 158zM485 0h-68v488h68v-488z" />
    <glyph glyph-name="t_t" unicode="tt" horiz-adv-x="674" 
d="M311 426h-142v-269c0 -88 30 -104 75 -104c18 0 38 5 60 13l17 -54c-22 -12 -49 -21 -78 -21c-95 0 -142 57 -142 158v277h-69v62h69v122h68v-122h142v-62zM648 426h-142v-269c0 -88 30 -104 75 -104c18 0 38 5 60 13l17 -54c-22 -12 -49 -21 -78 -21
c-95 0 -142 57 -142 158v277h-69v62h69v122h68v-122h142v-62z" />
    <glyph glyph-name=".notdef" 
d="M67 663h417v-663h-417v663zM113 619v-575h324v575h-324zM290 230h-43v99c45 15 94 35 94 93c0 34 -30 66 -69 66c-41 0 -69 -30 -69 -73v-1h-40v1c0 64 51 108 109 108c64 0 109 -51 109 -100c0 -73 -48 -101 -91 -119v-74zM292 118h-48v57h48v-57z" />
    <glyph glyph-name="CR" unicode="&#xd;" horiz-adv-x="500" 
 />
    <glyph glyph-name="space" unicode=" " horiz-adv-x="250" 
 />
    <glyph glyph-name="quotesingle" unicode="'" horiz-adv-x="248" 
d="M154 446h-60l-8 254h76z" />
    <glyph glyph-name="quotedbl" unicode="&#x22;" horiz-adv-x="462" 
d="M154 446h-60l-8 254h76zM368 446h-60l-8 254h76z" />
    <glyph glyph-name="numbersign" unicode="#" horiz-adv-x="784" 
d="M692 402h-160l-23 -141h109v-60h-118l-32 -201h-67l32 201h-129l-32 -201h-67l32 201h-146v60h155l23 141h-104v60h113l33 201h67l-33 -201h129l33 201h67l-33 -201h151v-60zM336 402l-23 -141h129l23 141h-129z" />
    <glyph glyph-name="ampersand" unicode="&#x26;" horiz-adv-x="674" 
d="M645 -13l-126 112c-63 -85 -139 -111 -228 -111c-117 0 -222 103 -222 213c0 88 46 158 124 192c-45 47 -72 97 -72 154c0 100 98 165 192 165c75 0 151 -42 172 -115l-65 -20c-16 45 -60 70 -109 70c-61 0 -120 -38 -120 -106c0 -60 49 -103 107 -155l-43 -52l-16 14
c-62 -28 -100 -82 -100 -148c0 -80 76 -147 166 -147c67 0 118 20 168 86l-86 76l45 51l258 -228z" />
    <glyph glyph-name="asterisk" unicode="*" horiz-adv-x="482" 
d="M273 712l-5 -126l119 44l20 -61l-118 -33l81 -103l-51 -38l-78 116l-78 -116l-51 38l80 103l-117 33l20 61l119 -44l-5 126h64z" />
    <glyph glyph-name="comma" unicode="," horiz-adv-x="250" 
d="M166 101l-63 -239h-65l48 239h80z" />
    <glyph glyph-name="hyphen" unicode="-" horiz-adv-x="467" 
d="M358 242h-249v63h249v-63z" />
    <glyph glyph-name="period" unicode="." horiz-adv-x="250" 
d="M166 0h-83v101h83v-101z" />
    <glyph glyph-name="colon" unicode=":" horiz-adv-x="250" 
d="M166 387h-83v101h83v-101zM166 0h-83v101h83v-101z" />
    <glyph glyph-name="semicolon" unicode=";" horiz-adv-x="250" 
d="M166 101l-63 -239h-65l48 239h80zM170 387h-83v101h83v-101z" />
    <glyph glyph-name="question" unicode="?" horiz-adv-x="539" 
d="M302 197h-75v173c78 27 164 63 164 163c0 61 -53 113 -120 113c-73 0 -122 -48 -122 -124v-2h-70v2c0 111 93 190 192 190c108 0 190 -91 190 -176c0 -128 -84 -177 -159 -209v-130zM306 0h-84v101h84v-101z" />
    <glyph glyph-name="exclam" unicode="!" horiz-adv-x="312" 
d="M200 700v-105l-10 -398h-68l-10 398v105h88zM198 0h-84v101h84v-101z" />
    <glyph glyph-name="exclamdown" unicode="&#xa1;" horiz-adv-x="312" 
d="M112 -212v105l10 398h68l10 -398v-105h-88zM114 488h84v-101h-84v101z" />
    <glyph glyph-name="questiondown" unicode="&#xbf;" horiz-adv-x="539" 
d="M237 291h75v-173c-78 -27 -164 -63 -164 -163c0 -61 53 -113 120 -113c73 0 122 48 122 124v2h70v-2c0 -111 -93 -190 -192 -190c-108 0 -190 91 -190 176c0 128 84 177 159 209v130zM233 488h84v-101h-84v101z" />
    <glyph glyph-name="at" unicode="@" horiz-adv-x="803" 
d="M502 171v74c-26 42 -70 72 -118 72c-68 0 -111 -57 -111 -122c0 -62 46 -120 110 -120c55 0 97 45 119 96zM507 362h53v-158c0 -132 26 -142 49 -142c52 0 74 78 74 166c0 158 -130 259 -281 259c-156 0 -282 -129 -282 -285s126 -285 282 -285c47 0 91 13 130 33l13 -61
c-43 -20 -92 -31 -143 -31c-189 0 -344 154 -344 344s155 344 344 344c191 0 343 -130 343 -324c0 -108 -42 -216 -147 -216c-23 0 -72 11 -92 88c-21 -49 -72 -75 -122 -75c-97 0 -173 76 -173 177c0 96 74 177 173 177c44 0 89 -19 119 -52z" />
    <glyph glyph-name="A" unicode="A" horiz-adv-x="611" 
d="M15 0l270 700h67l244 -700h-83l-53 159h-308l-60 -159h-77zM315 596l-138 -369h261l-122 369h-1z" />
    <glyph glyph-name="B" unicode="B" horiz-adv-x="616" 
d="M103 700h161c67 0 136 -13 185 -47c41 -29 68 -73 68 -138c0 -70 -30 -123 -113 -152c98 -24 141 -81 141 -168c0 -88 -43 -138 -107 -166c-50 -22 -113 -29 -178 -29h-157v700zM177 68h62c53 0 117 1 163 22c38 17 64 49 64 105c0 76 -57 129 -162 129h-127v-256z
M177 632v-240h80c115 0 186 36 186 118c0 46 -16 75 -44 93c-39 25 -99 29 -165 29h-57z" />
    <glyph glyph-name="C" unicode="C" horiz-adv-x="674" 
d="M599 102l39 -57c-55 -35 -121 -57 -196 -57c-215 0 -377 146 -377 362c0 208 170 362 378 362c63 0 126 -18 175 -48l-34 -57c-42 23 -91 37 -142 37c-171 0 -298 -122 -298 -294c0 -179 120 -294 299 -294c55 0 107 15 156 46z" />
    <glyph glyph-name="D" unicode="D" horiz-adv-x="722" 
d="M103 0v700h182c177 0 372 -94 372 -347c0 -259 -194 -353 -382 -353h-172zM177 68h41c216 0 360 65 360 276c0 189 -115 288 -312 288h-89v-564z" />
    <glyph glyph-name="E" unicode="E" horiz-adv-x="580" 
d="M510 0h-407v700h407v-68h-333v-236h333v-68h-333v-260h333v-68z" />
    <glyph glyph-name="F" unicode="F" horiz-adv-x="491" 
d="M443 310h-266v-310h-74v700h340v-68h-266v-254h266v-68z" />
    <glyph glyph-name="G" unicode="G" horiz-adv-x="808" 
d="M647 310h-183v68h257v-260c-64 -79 -166 -130 -279 -130c-215 0 -377 146 -377 362c0 208 170 362 378 362c103 0 197 -48 260 -118l-54 -42c-49 54 -126 92 -207 92c-171 0 -298 -122 -298 -294c0 -179 120 -294 299 -294c81 0 152 28 204 77v177z" />
    <glyph glyph-name="H" unicode="H" horiz-adv-x="758" 
d="M655 0h-74v330h-404v-330h-74v700h74v-302h404v302h74v-700z" />
    <glyph glyph-name="I" unicode="I" horiz-adv-x="280" 
d="M177 0h-74v700h74v-700z" />
    <glyph glyph-name="J" unicode="J" horiz-adv-x="340" 
d="M242 700v-527c0 -111 -35 -185 -158 -185c-33 0 -64 9 -88 17l18 63c17 -7 36 -12 57 -12c87 0 97 42 97 128v516h74z" />
    <glyph glyph-name="K" unicode="K" horiz-adv-x="611" 
d="M589 700l-230 -275l248 -425h-87l-212 365l-131 -158v-207h-74v700h74v-386l321 386h91z" />
    <glyph glyph-name="L" unicode="L" horiz-adv-x="494" 
d="M489 0h-386v700h74v-632h312v-68z" />
    <glyph glyph-name="M" unicode="M" horiz-adv-x="922" 
d="M819 700v-700h-74v640l-258 -640h-55l-255 638v-638h-74v700h128l229 -582l230 582h129z" />
    <glyph glyph-name="M.salt" horiz-adv-x="834" 
d="M442 166h-51l-214 437v-603h-74v700h108l206 -426h1l208 426h105v-700h-74v601z" />
    <glyph glyph-name="N" unicode="N" horiz-adv-x="749" 
d="M646 0h-56l-417 562v-562h-70v700h55l418 -563v563h70v-700z" />
    <glyph glyph-name="O" unicode="O" horiz-adv-x="844" 
d="M700 350c0 165 -118 294 -278 294s-278 -129 -278 -294s118 -294 278 -294s278 129 278 294zM779 350c0 -200 -155 -362 -357 -362s-357 162 -357 362s155 362 357 362s357 -162 357 -362z" />
    <glyph glyph-name="P" unicode="P" horiz-adv-x="578" 
d="M103 700h202c111 0 240 -55 240 -205c0 -151 -128 -206 -240 -206h-128v-289h-74v700zM177 632v-275h103c106 0 186 35 186 136c0 87 -68 139 -166 139h-123z" />
    <glyph glyph-name="Q" unicode="Q" horiz-adv-x="844" 
d="M765 -11l-50 -50l-103 103c-55 -35 -120 -54 -190 -54c-202 0 -357 162 -357 362s155 362 357 362s357 -162 357 -362c0 -105 -42 -198 -111 -264zM507 246l109 -110c52 53 84 129 84 214c0 165 -118 294 -278 294s-278 -129 -278 -294s118 -294 278 -294
c51 0 98 13 138 37l-103 103z" />
    <glyph glyph-name="R" unicode="R" horiz-adv-x="604" 
d="M177 305v-305h-74v700h201c105 0 232 -55 232 -197c0 -103 -66 -177 -182 -196c76 -104 189 -256 227 -307h-92l-220 305h-92zM177 632v-259h102c109 0 178 37 178 128c0 79 -64 131 -158 131h-122z" />
    <glyph glyph-name="S" unicode="S" horiz-adv-x="609" 
d="M453 591c-30 30 -92 53 -147 53c-86 0 -141 -41 -141 -109c0 -78 93 -102 185 -136c91 -34 182 -78 182 -195c0 -157 -137 -216 -237 -216c-99 0 -174 28 -246 99l56 50c69 -70 122 -81 191 -81c80 0 157 42 157 136c0 84 -80 115 -165 147c-96 36 -199 72 -199 186
c0 128 95 187 205 187c80 0 149 -22 208 -67z" />
    <glyph glyph-name="T" unicode="T" horiz-adv-x="486" 
d="M461 632h-181v-632h-74v632h-181v68h436v-68z" />
    <glyph glyph-name="U" unicode="U" horiz-adv-x="724" 
d="M628 700v-371c0 -220 -79 -341 -268 -341c-184 0 -264 121 -264 341v371h74v-399c0 -165 74 -245 192 -245c119 0 192 80 192 245v399h74z" />
    <glyph glyph-name="V" unicode="V" horiz-adv-x="591" 
d="M586 700l-269 -700h-69l-243 700h85l194 -588h1l222 588h79z" />
    <glyph glyph-name="W" unicode="W" horiz-adv-x="858" 
d="M467 700l150 -572h2l162 572h72l-201 -700h-73l-148 576h-2l-159 -576h-73l-192 700h77l154 -572h2l159 572h70z" />
    <glyph glyph-name="X" unicode="X" horiz-adv-x="621" 
d="M97 0h-92l254 356l-252 344h99l206 -288l204 288h92l-249 -350l257 -350h-99l-211 294z" />
    <glyph glyph-name="Y" unicode="Y" horiz-adv-x="524" 
d="M519 700l-226 -401v-299h-74v313l-214 387h91l166 -313h3l169 313h85z" />
    <glyph glyph-name="Z" unicode="Z" horiz-adv-x="535" 
d="M487 657l-346 -589h374v-68h-475v40l347 592h-340v68h440v-43z" />
    <glyph glyph-name="a" unicode="a" horiz-adv-x="534" 
d="M389 0l-5 57c-47 -51 -104 -69 -160 -69c-90 0 -169 53 -169 145c0 120 112 167 216 167c33 0 67 -4 111 -15v27c0 81 -40 126 -125 126c-57 0 -121 -21 -159 -42l-23 61c45 21 121 43 185 43c145 0 190 -76 190 -202v-298h-61zM382 230c-42 10 -79 14 -114 14
c-67 0 -145 -27 -145 -103c0 -59 46 -97 103 -97c56 0 110 29 156 73v113z" />
    <glyph glyph-name="b" unicode="b" horiz-adv-x="612" 
d="M159 750v-325c37 49 97 75 157 75c143 0 250 -115 250 -254s-108 -258 -251 -258c-55 0 -114 21 -156 60v-48h-68v750h68zM159 346v-219c36 -47 99 -77 155 -77c106 0 182 88 182 192c0 105 -75 196 -182 196c-60 0 -127 -35 -155 -92z" />
    <glyph glyph-name="c" unicode="c" horiz-adv-x="463" 
d="M402 82l35 -52c-40 -27 -82 -42 -133 -42c-152 0 -258 110 -258 256c0 143 107 256 256 256c45 0 87 -13 122 -33l-25 -57c-27 18 -69 28 -102 28c-111 0 -181 -89 -181 -194c0 -110 70 -194 183 -194c31 0 79 14 103 32z" />
    <glyph glyph-name="d" unicode="d" horiz-adv-x="612" 
d="M453 0v63c-37 -49 -97 -75 -157 -75c-143 0 -250 115 -250 254s108 258 251 258c55 0 114 -21 156 -60v310h68v-750h-68zM453 142v219c-36 47 -99 77 -155 77c-106 0 -182 -88 -182 -192c0 -105 75 -196 182 -196c60 0 127 35 155 92z" />
    <glyph glyph-name="e" unicode="e" horiz-adv-x="548" 
d="M499 227h-385c6 -94 68 -181 174 -181c65 0 120 18 155 84l48 -31c-39 -73 -124 -111 -198 -111c-160 0 -247 116 -247 259c0 144 106 253 239 253c126 0 217 -107 217 -228c0 -16 -2 -36 -3 -45zM435 285c-4 82 -67 157 -150 157c-94 0 -155 -66 -169 -157h319z" />
    <glyph glyph-name="f" unicode="f" horiz-adv-x="326" 
d="M350 744l-17 -56c-17 7 -37 12 -61 12c-20 0 -44 -3 -62 -17c-27 -21 -31 -61 -31 -115v-80h137v-62h-137v-426h-68v426h-57v62h57v86c0 50 8 97 31 131s60 57 120 57c32 0 65 -10 88 -18z" />
    <glyph glyph-name="g" unicode="g" horiz-adv-x="605" 
d="M521 488v-460c0 -172 -116 -248 -246 -248c-75 0 -153 28 -214 69l28 57c43 -34 115 -64 185 -64c92 0 179 45 179 165v68c-37 -49 -97 -75 -157 -75c-143 0 -250 115 -250 248s108 252 251 252c55 0 114 -21 156 -60v48h68zM453 154v207c-36 47 -99 77 -155 77
c-106 0 -182 -88 -182 -186c0 -99 75 -190 182 -190c60 0 127 35 155 92z" />
    <glyph glyph-name="h" unicode="h" horiz-adv-x="601" 
d="M159 750v-348c39 65 99 98 174 98c139 0 184 -89 184 -236v-264h-68v253c0 92 -17 185 -126 185c-73 0 -132 -52 -164 -114v-324h-68v750h68z" />
    <glyph glyph-name="i" unicode="i" horiz-adv-x="250" 
d="M159 0h-68v488h68v-488zM159 597h-68v94h68v-94z" />
    <glyph glyph-name="j" unicode="j" horiz-adv-x="257" 
d="M167 597h-68v94h68v-94zM-53 -198l21 56c15 -9 33 -16 53 -16c30 0 49 9 60 24c17 23 18 61 18 107v515h68v-521c0 -45 -3 -99 -33 -139c-24 -33 -59 -48 -102 -48c-30 0 -60 8 -85 22z" />
    <glyph glyph-name="k" unicode="k" horiz-adv-x="493" 
d="M462 488l-166 -196l190 -292h-83l-153 237l-91 -107v-130h-68v750h68v-527l2 -1l220 266h81z" />
    <glyph glyph-name="l" unicode="l" horiz-adv-x="250" 
d="M159 750v-750h-68v750h68z" />
    <glyph glyph-name="m" unicode="m" horiz-adv-x="915" 
d="M91 488h68v-86c39 65 99 98 163 98c82 0 130 -37 154 -101c62 79 111 101 172 101c130 0 183 -83 183 -236v-264h-68v253c0 93 -21 185 -118 185c-58 0 -117 -39 -154 -102c3 -22 4 -45 4 -70v-266h-68v253c0 92 -17 185 -115 185c-62 0 -121 -52 -153 -114v-324h-68v488
z" />
    <glyph glyph-name="n" unicode="n" horiz-adv-x="601" 
d="M91 488h68v-86c39 65 99 98 174 98c139 0 184 -89 184 -236v-264h-68v253c0 92 -17 185 -126 185c-73 0 -132 -52 -164 -114v-324h-68v488z" />
    <glyph glyph-name="o" unicode="o" horiz-adv-x="584" 
d="M292 500c145 0 246 -114 246 -256s-101 -256 -246 -256s-246 114 -246 256s101 256 246 256zM468 244c0 102 -67 194 -176 194s-176 -92 -176 -194s67 -194 176 -194s176 92 176 194z" />
    <glyph glyph-name="p" unicode="p" horiz-adv-x="612" 
d="M91 488h68v-63c37 49 97 75 157 75c143 0 250 -115 250 -254s-108 -258 -251 -258c-55 0 -114 21 -156 60v-298h-68v738zM159 346v-219c36 -47 99 -77 155 -77c106 0 182 88 182 192c0 105 -75 196 -182 196c-60 0 -127 -35 -155 -92z" />
    <glyph glyph-name="q" unicode="q" horiz-adv-x="612" 
d="M453 -250v313c-37 -49 -97 -75 -157 -75c-143 0 -250 115 -250 254s108 258 251 258c55 0 114 -21 156 -60v48h68v-738h-68zM453 142v219c-36 47 -99 77 -155 77c-106 0 -182 -88 -182 -192c0 -105 75 -196 182 -196c60 0 127 35 155 92z" />
    <glyph glyph-name="r" unicode="r" horiz-adv-x="348" 
d="M159 488v-92c27 54 74 104 142 104c13 0 27 -1 41 -4l-9 -75c-15 7 -27 9 -46 9c-56 0 -93 -42 -128 -104v-326h-68v488h68z" />
    <glyph glyph-name="s" unicode="s" horiz-adv-x="438" 
d="M356 453l-37 -46c-27 21 -63 35 -99 35c-38 0 -86 -21 -86 -67c0 -58 63 -77 125 -103c60 -25 119 -59 119 -146c0 -86 -90 -138 -172 -138c-55 0 -111 22 -151 66l41 43c29 -31 66 -51 112 -51c47 0 102 25 102 81s-52 76 -107 98c-64 26 -133 55 -133 144
c0 84 70 131 152 131c51 0 96 -16 134 -47z" />
    <glyph glyph-name="t" unicode="t" horiz-adv-x="337" 
d="M311 426h-142v-269c0 -88 30 -104 75 -104c18 0 38 5 60 13l17 -54c-22 -12 -49 -21 -78 -21c-95 0 -142 57 -142 158v277h-69v62h69v122h68v-122h142v-62z" />
    <glyph glyph-name="u" unicode="u" horiz-adv-x="601" 
d="M510 0h-68v86c-39 -65 -99 -98 -174 -98c-139 0 -184 89 -184 236v264h68v-253c0 -92 17 -185 126 -185c73 0 132 52 164 114v324h68v-488z" />
    <glyph glyph-name="v" unicode="v" horiz-adv-x="462" 
d="M184 0l-166 488h74l138 -413l147 413h73l-182 -488h-84z" />
    <glyph glyph-name="w" unicode="w" horiz-adv-x="713" 
d="M316 488h89l109 -422l112 422h67l-136 -488h-86l-114 415l-118 -415h-91l-124 488h70l102 -423z" />
    <glyph glyph-name="x" unicode="x" horiz-adv-x="458" 
d="M361 0l-135 196l-130 -196h-84l170 250l-164 238h85l128 -187l125 187h84l-167 -240l173 -248h-85z" />
    <glyph glyph-name="y" unicode="y" horiz-adv-x="456" 
d="M12 488h74l138 -413l147 413h73l-265 -711l-58 23l65 176z" />
    <glyph glyph-name="z" unicode="z" horiz-adv-x="441" 
d="M385 456l-229 -394h246v-62h-339v33l229 393h-240v62h333v-32z" />
    <glyph glyph-name="bracketleft" unicode="[" horiz-adv-x="311" 
d="M300 -170h-195v920h195v-60h-129v-800h129v-60z" />
    <glyph glyph-name="bracketright" unicode="]" horiz-adv-x="311" 
d="M206 -170h-195v60h129v800h-129v60h195v-920z" />
    <glyph glyph-name="parenleft" unicode="(" horiz-adv-x="330" 
d="M340 -124l-27 -47c-143 86 -255 229 -255 474s112 385 255 474l28 -49c-112 -73 -213 -203 -213 -425c0 -223 98 -353 212 -427z" />
    <glyph glyph-name="parenright" unicode=")" horiz-adv-x="330" 
d="M272 303c0 -245 -112 -388 -255 -474l-27 47c114 74 212 204 212 427c0 222 -101 352 -213 425l28 49c143 -89 255 -229 255 -474z" />
    <glyph glyph-name="braceleft" unicode="{" horiz-adv-x="296" 
d="M8 266l2 70c60 14 78 79 78 157v76c0 114 69 193 176 193h18v-62c-6 1 -11 1 -18 1c-79 0 -110 -73 -110 -161v-75c0 -71 -27 -127 -71 -164c44 -37 71 -93 71 -164v-86c0 -88 31 -161 110 -161c7 0 12 0 18 1v-62h-18c-107 0 -176 79 -176 193v87c0 78 -18 143 -80 157z
" />
    <glyph glyph-name="braceright" unicode="}" horiz-adv-x="296" 
d="M286 336l2 -70c-62 -14 -80 -79 -80 -157v-87c0 -114 -69 -193 -176 -193h-18v62c6 -1 11 -1 18 -1c79 0 110 73 110 161v86c0 71 27 127 71 164c-44 37 -71 93 -71 164v75c0 88 -31 161 -110 161c-7 0 -12 0 -18 -1v62h18c107 0 176 -79 176 -193v-76
c0 -78 18 -143 78 -157z" />
    <glyph glyph-name="backslash" unicode="\" horiz-adv-x="346" 
d="M292 -47l-292 788l54 21l292 -788z" />
    <glyph glyph-name="slash" unicode="/" horiz-adv-x="349" 
d="M349 740l-292 -788l-57 22l292 788z" />
    <glyph glyph-name="brokenbar" unicode="&#xa6;" horiz-adv-x="319" 
d="M189 385h-59v365h59v-365zM130 162h59v-366h-59v366z" />
    <glyph glyph-name="bar" unicode="|" horiz-adv-x="319" 
d="M189 -170h-59v1028h59v-1028z" />
    <glyph glyph-name="asciicircum" unicode="^" 
d="M248 676h54l152 -321h-57l-122 254l-122 -254h-57z" />
    <glyph glyph-name="underscore" unicode="_" 
d="M550 -241h-550v47h550v-47z" />
    <glyph glyph-name="asciitilde" unicode="~" 
d="M508 394c3 -10 4 -21 4 -32c0 -75 -56 -114 -132 -114c-94 0 -154 92 -225 92c-33 0 -58 -20 -58 -48c0 -7 1 -14 3 -19l-58 -10c-3 10 -4 21 -4 32c0 75 56 114 132 114c94 0 154 -92 225 -92c33 0 58 20 58 48c0 7 -1 14 -3 19z" />
    <glyph glyph-name="zero" unicode="0" 
d="M275 676c146 0 230 -131 230 -344s-84 -344 -230 -344s-230 131 -230 344s84 344 230 344zM275 608c-98 0 -155 -92 -155 -276s57 -276 155 -276s155 92 155 276s-57 276 -155 276z" />
    <glyph glyph-name="one" unicode="1" horiz-adv-x="339" 
d="M234 0h-73v573c-32 -16 -73 -33 -103 -45v69c39 19 87 43 129 67h47v-664z" />
    <glyph glyph-name="two" unicode="2" horiz-adv-x="501" 
d="M56 0v74c77 82 176 195 238 289c27 40 55 89 55 142c0 61 -54 103 -115 103c-58 0 -111 -42 -117 -104l-71 15c9 93 96 157 191 157s189 -71 189 -174c0 -61 -28 -118 -66 -173c-62 -89 -135 -181 -211 -261h316v-68h-409z" />
    <glyph glyph-name="three" unicode="3" horiz-adv-x="510" 
d="M142 306l2 77c48 0 74 2 104 9c51 12 100 52 100 111c0 63 -58 105 -122 105c-51 0 -97 -25 -120 -73l-64 28c30 73 106 113 186 113c97 0 194 -63 194 -174c0 -61 -30 -119 -91 -146c74 -22 123 -91 123 -168c0 -112 -90 -200 -215 -200c-78 0 -153 29 -204 100l51 35
c32 -46 86 -68 144 -68c76 0 149 45 149 127s-72 130 -170 130c-20 0 -40 -2 -67 -6z" />
    <glyph glyph-name="four" unicode="4" horiz-adv-x="530" 
d="M507 185h-99v-185h-73v185h-303v78c103 131 210 278 298 401h78v-416h99v-63zM335 563c-72 -106 -173 -238 -234 -315h234v315z" />
    <glyph glyph-name="five" unicode="5" horiz-adv-x="492" 
d="M65 321c10 99 17 243 23 343h331v-68h-265c-2 -63 -7 -153 -13 -212c31 19 69 26 107 26c114 0 210 -86 210 -210c0 -111 -92 -212 -217 -212c-76 0 -154 34 -199 101l55 39c33 -41 72 -72 130 -72c81 0 156 59 156 146c0 83 -65 140 -148 140c-42 0 -81 -14 -115 -44z
" />
    <glyph glyph-name="six" unicode="6" horiz-adv-x="530" 
d="M393 630c-135 -63 -238 -154 -266 -299c41 49 93 83 166 83c114 0 192 -100 192 -215c0 -111 -87 -211 -210 -211c-143 0 -230 128 -230 260c0 210 143 376 318 447zM120 238c5 -93 47 -182 154 -182c85 0 136 65 136 151c0 73 -46 139 -127 139
c-70 0 -128 -46 -163 -108z" />
    <glyph glyph-name="seven" unicode="7" horiz-adv-x="442" 
d="M420 664v-59c-82 -171 -206 -449 -278 -622l-68 30c89 210 213 468 267 583h-328v68h407z" />
    <glyph glyph-name="eight" unicode="8" horiz-adv-x="548" 
d="M375 348c63 -29 113 -89 113 -167c0 -108 -88 -193 -214 -193s-214 85 -214 193c0 78 50 138 113 167c-49 27 -93 74 -93 147c0 101 79 181 194 181s194 -80 194 -181c0 -73 -44 -120 -93 -147zM274 56c77 0 139 52 139 127c0 70 -62 126 -139 126s-139 -56 -139 -126
c0 -75 62 -127 139 -127zM274 377c66 0 121 54 121 117c0 67 -55 114 -121 114s-121 -47 -121 -114c0 -63 55 -117 121 -117z" />
    <glyph glyph-name="nine" unicode="9" horiz-adv-x="530" 
d="M137 34c135 63 238 154 266 299c-41 -49 -93 -83 -166 -83c-114 0 -192 100 -192 215c0 111 87 211 210 211c143 0 230 -128 230 -260c0 -210 -143 -376 -318 -447zM410 426c-5 93 -47 182 -154 182c-85 0 -136 -65 -136 -151c0 -73 46 -139 127 -139
c70 0 128 46 163 108z" />
    <glyph glyph-name="dollar" unicode="$" 
d="M41 81l51 51c48 -51 107 -80 178 -80c66 0 155 32 155 130c0 84 -77 111 -158 140c-91 32 -188 67 -188 186c0 93 73 162 176 167v95h54v-97c56 -4 110 -25 160 -60l-46 -53c-36 34 -88 50 -144 50c-61 0 -131 -28 -131 -102c0 -78 87 -99 174 -130s174 -72 174 -186
c0 -117 -84 -188 -191 -202v-96h-54v94c-78 1 -147 33 -210 93z" />
    <glyph glyph-name="Euro" unicode="&#x20ac;" horiz-adv-x="650" 
d="M465 224h-291c35 -105 123 -167 247 -167c53 0 115 13 163 42l37 -56c-53 -34 -128 -55 -197 -55c-162 0 -285 87 -325 236h-91v64h80c-1 14 -2 29 -2 45c0 14 1 28 2 42h-80v64h90c38 146 155 237 323 237c60 0 134 -16 179 -44l-32 -58c-38 22 -99 33 -147 33
c-126 0 -215 -61 -248 -168h292v-64h-305c-2 -14 -2 -28 -2 -42c0 -16 1 -31 2 -45h305v-64z" />
    <glyph glyph-name="cent" unicode="&#xa2;" 
d="M476 109c-38 -26 -78 -41 -127 -42v-85h-55v89c-125 21 -209 122 -209 252c0 127 85 231 209 252v88h55v-84c42 -2 81 -14 114 -33l-25 -57c-28 18 -66 28 -104 28c-104 0 -179 -85 -179 -194c0 -106 67 -194 180 -194c34 0 76 10 106 32z" />
    <glyph glyph-name="sterling" unicode="&#xa3;" 
d="M476 0h-392v68h58v256h-58v68h58v65c0 86 37 156 96 192c31 19 68 27 104 27c45 0 90 -12 131 -35l-31 -61c-28 18 -63 28 -100 28c-26 0 -53 -6 -74 -23c-38 -30 -53 -90 -53 -160v-33h135v-68h-135v-256h261v-68z" />
    <glyph glyph-name="yen" unicode="&#xa5;" 
d="M484 247h-174v-59h174v-64h-177v-124h-69v124h-177v64h174v59h-174v64h165l-198 352h85l164 -301h2l159 301h82l-200 -352h164v-64z" />
    <glyph glyph-name="florin" unicode="&#x192;" 
d="M11 -144c14 -3 31 -6 49 -6c54 0 64 37 73 111l42 363h-84v68h91l14 122c12 104 69 161 155 161c44 0 84 -13 118 -30l-32 -60c-21 15 -50 22 -80 22c-66 0 -85 -38 -93 -110l-12 -105h126v-68h-133l-43 -380c-12 -107 -65 -162 -133 -162c-27 0 -52 5 -74 11z" />
    <glyph glyph-name="afii61352" unicode="&#x2116;" horiz-adv-x="1122" 
d="M654 0h-64l-413 560v-560h-74v700h63l414 -561v561h74v-700zM918 704c97 0 171 -79 171 -178s-74 -178 -171 -178s-171 79 -171 178s74 178 171 178zM1031 526c0 70 -48 124 -113 124s-113 -54 -113 -124s48 -124 113 -124s113 54 113 124z" />
    <glyph glyph-name="currency" unicode="&#xa4;" 
d="M60 324c0 50 17 96 46 133l-49 49l36 36l50 -50c36 29 82 47 132 47s96 -18 133 -47l49 50l36 -36l-49 -50c28 -36 45 -82 45 -132s-17 -96 -45 -133l49 -49l-36 -36l-49 49c-37 -28 -83 -45 -133 -45s-96 17 -132 45l-50 -49l-36 36l49 49c-29 36 -46 82 -46 133z
M124 324c0 -83 68 -150 151 -150c82 0 150 67 150 150s-68 151 -150 151c-83 0 -151 -68 -151 -151z" />
    <glyph glyph-name="section" unicode="&#xa7;" 
d="M68 -74l39 49c34 -33 82 -55 137 -55c56 0 129 24 129 94c0 67 -85 84 -155 115c-77 33 -147 67 -147 166c0 64 38 117 103 140c-42 26 -72 64 -72 121c0 104 82 156 181 156c52 0 107 -13 153 -45l-34 -51c-32 24 -77 36 -123 36c-47 0 -108 -24 -108 -83
c0 -136 310 -88 310 -288c0 -63 -39 -118 -103 -140c41 -25 67 -60 67 -122c0 -105 -95 -159 -197 -159c-63 0 -123 19 -180 66zM289 384c-16 5 -34 12 -51 18c-47 -9 -95 -50 -95 -103c0 -60 61 -87 132 -112c13 -5 27 -10 40 -14c48 15 94 49 94 107c0 59 -54 80 -120 104
z" />
    <glyph glyph-name="copyright" unicode="&#xa9;" horiz-adv-x="800" 
d="M118 332c0 -156 126 -285 282 -285c157 0 282 129 282 285s-125 285 -282 285c-156 0 -282 -129 -282 -285zM287 333c0 -80 53 -120 120 -120c22 0 48 6 70 21l30 -54c-29 -16 -64 -28 -97 -28c-102 0 -191 70 -191 181c0 103 86 181 191 181c31 0 65 -7 92 -24l-30 -52
c-19 9 -45 15 -65 15c-70 0 -120 -48 -120 -120zM56 332c0 190 154 344 344 344s344 -154 344 -344s-154 -344 -344 -344s-344 154 -344 344z" />
    <glyph glyph-name="registered" unicode="&#xae;" horiz-adv-x="578" 
d="M400 363h-58l-74 99h-17v-99h-48v245h51c92 0 123 -22 123 -73c0 -30 -18 -60 -51 -71zM327 534c0 31 -20 35 -76 35v-71c44 0 76 2 76 36zM61 488c0 126 102 228 228 228s228 -102 228 -228s-102 -228 -228 -228s-228 102 -228 228zM111 488c0 -98 80 -179 178 -179
s178 81 178 179s-80 179 -178 179s-178 -81 -178 -179z" />
    <glyph glyph-name="trademark" unicode="&#x2122;" horiz-adv-x="977" 
d="M343 644h-98v-340h-59v340h-99v56h256v-56zM829 640l-136 -336h-74l-134 333v-333h-60v396h99l132 -340l133 340h100v-396h-60v336z" />
    <glyph glyph-name="trademark.salt" horiz-adv-x="884" 
d="M343 644h-98v-340h-59v340h-99v56h256v-56zM427 700h70l108 -227l112 227h69v-396h-58v287l-106 -206h-31l-106 208v-289h-58v396z" />
    <glyph glyph-name="ordfeminine" unicode="&#xaa;" horiz-adv-x="377" 
d="M261 585v17c0 52 -20 81 -78 81c-42 0 -81 -14 -110 -27l-18 47c37 16 87 31 133 31c104 0 129 -60 129 -142v-206h-52l-3 38c-27 -32 -56 -46 -98 -46c-65 0 -123 33 -123 105c0 85 77 111 152 111c16 0 43 -2 68 -9zM196 549c-41 0 -100 -10 -100 -63
c0 -42 32 -59 70 -59c36 0 66 18 95 44v70c-25 6 -46 8 -65 8z" />
    <glyph glyph-name="ordmasculine" unicode="&#xba;" horiz-adv-x="408" 
d="M204 734c97 0 171 -79 171 -178s-74 -178 -171 -178s-171 79 -171 178s74 178 171 178zM317 556c0 70 -48 124 -113 124s-113 -54 -113 -124s48 -124 113 -124s113 54 113 124z" />
    <glyph glyph-name="guillemotleft" unicode="&#xab;" horiz-adv-x="528" 
d="M427 85l-147 137v101l147 137l26 -65l-127 -122l127 -122zM222 85l-147 137v101l147 137l27 -65l-128 -122l128 -122z" />
    <glyph glyph-name="guillemotright" unicode="&#xbb;" horiz-adv-x="528" 
d="M101 460l147 -137v-101l-147 -137l-26 65l127 122l-127 122zM306 460l147 -137v-101l-147 -137l-27 65l128 122l-128 122z" />
    <glyph glyph-name="guilsinglleft" unicode="&#x2039;" horiz-adv-x="324" 
d="M222 85l-147 137v101l147 137l27 -65l-128 -122l128 -122z" />
    <glyph glyph-name="guilsinglright" unicode="&#x203a;" horiz-adv-x="323" 
d="M101 460l147 -137v-101l-147 -137l-26 65l127 122l-127 122z" />
    <glyph glyph-name="quoteleft" unicode="&#x2018;" horiz-adv-x="257" 
d="M66 463l62 237h63l-49 -237h-76z" />
    <glyph glyph-name="quoteright" unicode="&#x2019;" horiz-adv-x="257" 
d="M191 700l-62 -237h-63l49 237h76z" />
    <glyph glyph-name="quotesinglbase" unicode="&#x201a;" horiz-adv-x="257" 
d="M191 99l-62 -237h-63l49 237h76z" />
    <glyph glyph-name="quotedblleft" unicode="&#x201c;" horiz-adv-x="490" 
d="M275 463l62 237h63l-49 -237h-76zM90 463l62 237h63l-49 -237h-76z" />
    <glyph glyph-name="quotedblright" unicode="&#x201d;" horiz-adv-x="490" 
d="M215 700l-62 -237h-63l49 237h76zM400 700l-62 -237h-62l48 237h76z" />
    <glyph glyph-name="quotedblbase" unicode="&#x201e;" horiz-adv-x="490" 
d="M215 99l-62 -237h-63l49 237h76zM400 99l-62 -237h-62l48 237h76z" />
    <glyph glyph-name="dagger" unicode="&#x2020;" horiz-adv-x="405" 
d="M180 138v161l3 184l-73 -3h-34v44h34l73 -3l-3 131v48h46v-48l-3 -131l73 3h34v-44h-34l-73 3l3 -184v-161h-46z" />
    <glyph glyph-name="daggerdbl" unicode="&#x2021;" horiz-adv-x="405" 
d="M226 700l-3 -107l108 3v-44l-108 3l1 -56v-62l-1 -25l108 3v-44l-108 3l3 -236h-46l3 236l-108 -3v44l108 -3l-1 25v62l1 56l-108 -3v44l108 -3l-3 107h46z" />
    <glyph glyph-name="bullet" unicode="&#x2022;" horiz-adv-x="299" 
d="M35 289c0 64 51 115 115 115s114 -51 114 -115s-50 -115 -114 -115s-115 51 -115 115z" />
    <glyph glyph-name="periodcentered" unicode="&#xb7;" horiz-adv-x="250" 
d="M166 264h-83v101h83v-101z" />
    <glyph glyph-name="ellipsis" unicode="&#x2026;" horiz-adv-x="750" 
d="M166 0h-83v101h83v-101zM666 0h-83v101h83v-101zM416 0h-83v101h83v-101z" />
    <glyph glyph-name="paragraph" unicode="&#xb6;" 
d="M492 -175h-84v875h84v-875zM344 -175h-84v463c-104 9 -212 68 -212 207c0 150 131 205 241 205h55v-875zM134 494c0 -85 60 -125 126 -133v265c-66 -9 -126 -49 -126 -132z" />
    <glyph glyph-name="uni00AD" unicode="&#xad;" horiz-adv-x="467" 
d="M357 242h-248v63h248v-63z" />
    <glyph glyph-name="endash" unicode="&#x2013;" horiz-adv-x="600" 
d="M550 271h-500v65h500v-65z" />
    <glyph glyph-name="emdash" unicode="&#x2014;" horiz-adv-x="900" 
d="M850 271h-800v65h800v-65z" />
    <glyph glyph-name="hyphen.case" horiz-adv-x="467" 
d="M357 297h-248v63h248v-63z" />
    <glyph glyph-name="Agrave" unicode="&#xc0;" horiz-adv-x="634" 
d="M15 0l270 700h67l244 -700h-83l-53 159h-308l-60 -159h-77zM315 596l-138 -369h261l-122 369h-1zM337 740l-165 116l45 56l154 -129z" />
    <glyph glyph-name="Aacute" unicode="&#xc1;" horiz-adv-x="611" 
d="M15 0l270 700h67l244 -700h-83l-53 159h-308l-60 -159h-77zM315 596l-138 -369h261l-122 369h-1zM466 856l-165 -116l-34 43l154 129z" />
    <glyph glyph-name="Acircumflex" unicode="&#xc2;" horiz-adv-x="611" 
d="M15 0l270 700h67l244 -700h-83l-53 159h-308l-60 -159h-77zM315 596l-138 -369h261l-122 369h-1zM284 899h71l104 -124l-40 -33l-100 105l-102 -105l-41 35z" />
    <glyph glyph-name="Atilde" unicode="&#xc3;" horiz-adv-x="611" 
d="M15 0l270 700h67l244 -700h-83l-53 159h-308l-60 -159h-77zM315 596l-138 -369h261l-122 369h-1zM443 865l51 6c2 -8 3 -15 3 -23c0 -49 -33 -90 -88 -90c-76 0 -102 69 -150 69c-21 0 -36 -11 -37 -32c0 -5 0 -8 1 -12l-51 -6c-2 8 -3 15 -3 23c0 49 33 90 88 90
c74 0 100 -69 150 -69c21 0 36 11 37 32c0 5 0 8 -1 12z" />
    <glyph glyph-name="Adieresis" unicode="&#xc4;" horiz-adv-x="611" 
d="M15 0l270 700h67l244 -700h-83l-53 159h-308l-60 -159h-77zM315 596l-138 -369h261l-122 369h-1zM225 765h-80v107h80v-107zM493 765h-80v107h80v-107z" />
    <glyph glyph-name="Aring" unicode="&#xc5;" horiz-adv-x="611" 
d="M15 0l270 700h67l244 -700h-83l-53 159h-308l-60 -159h-77zM315 596l-138 -369h261l-122 369h-1zM227 816c0 52 42 94 94 94s94 -42 94 -94s-42 -94 -94 -94s-94 42 -94 94zM271 816c0 -27 23 -50 50 -50s50 23 50 50s-23 50 -50 50s-50 -23 -50 -50z" />
    <glyph glyph-name="Aringacute" unicode="&#x1fa;" horiz-adv-x="611" 
d="M437 993l-177 -94l-25 42l169 108zM15 0l270 700h67l244 -700h-83l-53 159h-308l-60 -159h-77zM315 596l-138 -369h261l-122 369h-1zM226 808c0 52 42 94 94 94s94 -42 94 -94s-42 -94 -94 -94s-94 42 -94 94zM270 808c0 -27 23 -50 50 -50s50 23 50 50s-23 50 -50 50
s-50 -23 -50 -50z" />
    <glyph glyph-name="AE" unicode="&#xc6;" horiz-adv-x="974" 
d="M903 0h-405v158h-306l-114 -158h-89l510 700h404v-68h-334v-237h334v-68h-334v-259h334v-68zM242 228h256v359z" />
    <glyph glyph-name="AEacute" unicode="&#x1fc;" horiz-adv-x="974" 
d="M903 0h-405v158h-306l-114 -158h-89l510 700h404v-68h-334v-237h334v-68h-334v-259h334v-68zM242 228h256v359zM833 856l-165 -116l-34 43l154 129z" />
    <glyph glyph-name="Ccedilla" unicode="&#xc7;" horiz-adv-x="674" 
d="M599 102l39 -57c-55 -35 -121 -57 -196 -57c-20 0 -40 1 -59 4l-26 -59l3 -1c7 7 23 16 48 16c55 0 84 -42 84 -89c0 -52 -46 -99 -106 -99c-42 0 -78 19 -98 54l52 26c10 -28 32 -32 49 -32c27 0 45 23 45 47c0 26 -15 51 -45 51c-17 0 -33 -7 -43 -26l-57 31l43 91
c-158 41 -267 170 -267 348c0 208 170 362 378 362c63 0 126 -18 175 -48l-34 -57c-42 23 -91 37 -142 37c-171 0 -298 -122 -298 -294c0 -179 120 -294 299 -294c55 0 107 15 156 46z" />
    <glyph glyph-name="Egrave" unicode="&#xc8;" horiz-adv-x="580" 
d="M510 0h-407v700h407v-68h-333v-236h333v-68h-333v-260h333v-68zM339 740l-165 116l45 56l154 -129z" />
    <glyph glyph-name="Eacute" unicode="&#xc9;" horiz-adv-x="580" 
d="M510 0h-407v700h407v-68h-333v-236h333v-68h-333v-260h333v-68zM434 856l-165 -116l-34 43l154 129z" />
    <glyph glyph-name="Ecircumflex" unicode="&#xca;" horiz-adv-x="580" 
d="M510 0h-407v700h407v-68h-333v-236h333v-68h-333v-260h333v-68zM279 899h71l104 -124l-40 -33l-100 105l-102 -105l-41 35z" />
    <glyph glyph-name="Edieresis" unicode="&#xcb;" horiz-adv-x="580" 
d="M471 765h-80v107h80v-107zM237 765h-80v107h80v-107zM510 0h-407v700h407v-68h-333v-236h333v-68h-333v-260h333v-68z" />
    <glyph glyph-name="Igrave" unicode="&#xcc;" horiz-adv-x="280" 
d="M177 0h-74v700h74v-700zM173 740l-165 116l45 56l154 -129z" />
    <glyph glyph-name="Iacute" unicode="&#xcd;" horiz-adv-x="280" 
d="M177 0h-74v700h74v-700zM299 856l-165 -116l-34 43l154 129z" />
    <glyph glyph-name="Icircumflex" unicode="&#xce;" horiz-adv-x="280" 
d="M177 0h-74v700h74v-700zM106 899h71l104 -124l-40 -33l-100 105l-102 -105l-41 35z" />
    <glyph glyph-name="Idieresis" unicode="&#xcf;" horiz-adv-x="280" 
d="M297 765h-80v107h80v-107zM63 765h-80v107h80v-107zM177 0h-74v700h74v-700z" />
    <glyph glyph-name="Eth" unicode="&#xd0;" horiz-adv-x="722" 
d="M103 0v325h-72v70h72v305h182c177 0 372 -94 372 -347c0 -259 -194 -353 -382 -353h-172zM578 344c0 189 -115 288 -312 288h-89v-237h124v-70h-124v-257h41c216 0 360 65 360 276z" />
    <glyph glyph-name="Ntilde" unicode="&#xd1;" horiz-adv-x="757" 
d="M650 0h-56l-417 562v-562h-70v700h55l418 -563v563h70v-700zM495 865l51 6c2 -8 3 -15 3 -23c0 -49 -33 -90 -88 -90c-76 0 -102 69 -150 69c-21 0 -36 -11 -37 -32c0 -5 0 -8 1 -12l-51 -6c-2 8 -3 15 -3 23c0 49 33 90 88 90c74 0 100 -69 150 -69c21 0 36 11 37 32
c0 5 0 8 -1 12z" />
    <glyph glyph-name="Ograve" unicode="&#xd2;" horiz-adv-x="844" 
d="M700 350c0 165 -118 294 -278 294s-278 -129 -278 -294s118 -294 278 -294s278 129 278 294zM779 350c0 -200 -155 -362 -357 -362s-357 162 -357 362s155 362 357 362s357 -162 357 -362zM455 740l-165 116l45 56l154 -129z" />
    <glyph glyph-name="Oacute" unicode="&#xd3;" horiz-adv-x="844" 
d="M700 350c0 165 -118 294 -278 294s-278 -129 -278 -294s118 -294 278 -294s278 129 278 294zM779 350c0 -200 -155 -362 -357 -362s-357 162 -357 362s155 362 357 362s357 -162 357 -362zM559 856l-165 -116l-34 43l154 129z" />
    <glyph glyph-name="Ocircumflex" unicode="&#xd4;" horiz-adv-x="844" 
d="M700 350c0 165 -118 294 -278 294s-278 -129 -278 -294s118 -294 278 -294s278 129 278 294zM779 350c0 -200 -155 -362 -357 -362s-357 162 -357 362s155 362 357 362s357 -162 357 -362zM386 899h71l104 -124l-40 -33l-100 105l-102 -105l-41 35z" />
    <glyph glyph-name="Otilde" unicode="&#xd5;" horiz-adv-x="844" 
d="M700 350c0 165 -118 294 -278 294s-278 -129 -278 -294s118 -294 278 -294s278 129 278 294zM779 350c0 -200 -155 -362 -357 -362s-357 162 -357 362s155 362 357 362s357 -162 357 -362zM553 865l51 6c2 -8 3 -15 3 -23c0 -49 -33 -90 -88 -90c-76 0 -102 69 -150 69
c-21 0 -36 -11 -37 -32c0 -5 0 -8 1 -12l-51 -6c-2 8 -3 15 -3 23c0 49 33 90 88 90c74 0 100 -69 150 -69c21 0 36 11 37 32c0 5 0 8 -1 12z" />
    <glyph glyph-name="Odieresis" unicode="&#xd6;" horiz-adv-x="844" 
d="M700 350c0 165 -118 294 -278 294s-278 -129 -278 -294s118 -294 278 -294s278 129 278 294zM779 350c0 -200 -155 -362 -357 -362s-357 162 -357 362s155 362 357 362s357 -162 357 -362zM328 765h-80v107h80v-107zM596 765h-80v107h80v-107z" />
    <glyph glyph-name="Oslash" unicode="&#xd8;" horiz-adv-x="844" 
d="M779 350c0 -200 -155 -362 -357 -362c-67 0 -128 17 -180 48l-33 -49l-55 33l36 53c-78 66 -125 166 -125 277c0 200 155 362 357 362c62 0 120 -16 170 -43l27 40l55 -34l-28 -42c82 -66 133 -168 133 -283zM700 350c0 90 -36 170 -95 224l-324 -480
c40 -25 88 -38 141 -38c160 0 278 129 278 294zM144 350c0 -87 32 -163 86 -217l323 478c-39 21 -83 33 -131 33c-160 0 -278 -129 -278 -294z" />
    <glyph glyph-name="Oslashacute" unicode="&#x1fe;" horiz-adv-x="844" 
d="M779 350c0 -200 -155 -362 -357 -362c-67 0 -128 17 -180 48l-33 -49l-55 33l36 53c-78 66 -125 166 -125 277c0 200 155 362 357 362c62 0 120 -16 170 -43l27 40l55 -34l-28 -42c82 -66 133 -168 133 -283zM700 350c0 90 -36 170 -95 224l-324 -480
c40 -25 88 -38 141 -38c160 0 278 129 278 294zM144 350c0 -87 32 -163 86 -217l323 478c-39 21 -83 33 -131 33c-160 0 -278 -129 -278 -294zM559 856l-165 -116l-34 43l154 129z" />
    <glyph glyph-name="Ugrave" unicode="&#xd9;" horiz-adv-x="724" 
d="M628 700v-371c0 -220 -79 -341 -268 -341c-184 0 -264 121 -264 341v371h74v-399c0 -165 74 -245 192 -245c119 0 192 80 192 245v399h74zM396 740l-165 116l45 56l154 -129z" />
    <glyph glyph-name="Uacute" unicode="&#xda;" horiz-adv-x="724" 
d="M628 700v-371c0 -220 -79 -341 -268 -341c-184 0 -264 121 -264 341v371h74v-399c0 -165 74 -245 192 -245c119 0 192 80 192 245v399h74zM507 856l-165 -116l-34 43l154 129z" />
    <glyph glyph-name="Ucircumflex" unicode="&#xdb;" horiz-adv-x="724" 
d="M628 700v-371c0 -220 -79 -341 -268 -341c-184 0 -264 121 -264 341v371h74v-399c0 -165 74 -245 192 -245c119 0 192 80 192 245v399h74zM335 899h71l104 -124l-40 -33l-100 105l-102 -105l-41 35z" />
    <glyph glyph-name="Udieresis" unicode="&#xdc;" horiz-adv-x="724" 
d="M628 700v-371c0 -220 -79 -341 -268 -341c-184 0 -264 121 -264 341v371h74v-399c0 -165 74 -245 192 -245c119 0 192 80 192 245v399h74zM268 765h-80v107h80v-107zM536 765h-80v107h80v-107z" />
    <glyph glyph-name="Yacute" unicode="&#xdd;" horiz-adv-x="524" 
d="M519 700l-226 -401v-299h-74v313l-214 387h91l166 -313h3l169 313h85zM401 856l-165 -116l-34 43l154 129z" />
    <glyph glyph-name="Thorn" unicode="&#xde;" horiz-adv-x="604" 
d="M177 0h-74v700h74v-140h128c111 0 240 -55 240 -205c0 -151 -128 -206 -240 -206h-128v-149zM466 353c0 87 -68 139 -166 139h-123v-275h103c106 0 186 35 186 136z" />
    <glyph glyph-name="germandbls.cap" horiz-adv-x="1218" 
d="M1062 591c-30 30 -92 53 -147 53c-86 0 -141 -41 -141 -109c0 -78 93 -102 185 -136c91 -34 182 -78 182 -195c0 -157 -137 -216 -237 -216c-99 0 -174 28 -246 99l56 50c69 -70 122 -81 191 -81c80 0 157 42 157 136c0 84 -80 115 -165 147c-96 36 -199 72 -199 186
c0 128 95 187 205 187c80 0 149 -22 208 -67zM453 591c-30 30 -92 53 -147 53c-86 0 -141 -41 -141 -109c0 -78 93 -102 185 -136c91 -34 182 -78 182 -195c0 -157 -137 -216 -237 -216c-99 0 -174 28 -246 99l56 50c69 -70 122 -81 191 -81c80 0 157 42 157 136
c0 84 -80 115 -165 147c-96 36 -199 72 -199 186c0 128 95 187 205 187c80 0 149 -22 208 -67z" />
    <glyph glyph-name="germandbls" unicode="&#xdf;" horiz-adv-x="617" 
d="M269 441h17c79 0 151 50 151 129c0 75 -59 130 -139 130c-94 0 -144 -71 -144 -177v-523h-68v544c0 130 91 218 210 218s209 -81 209 -196c0 -58 -33 -112 -82 -141c94 -22 144 -110 144 -202c0 -127 -85 -235 -227 -235c-40 0 -79 10 -115 30l31 58
c26 -17 57 -26 91 -26c98 0 150 75 150 167c0 108 -77 162 -187 162h-41v62z" />
    <glyph glyph-name="agrave" unicode="&#xe0;" horiz-adv-x="534" 
d="M389 0l-5 57c-47 -51 -104 -69 -160 -69c-90 0 -169 53 -169 145c0 120 112 167 216 167c33 0 67 -4 111 -15v27c0 81 -40 126 -125 126c-57 0 -121 -21 -159 -42l-23 61c45 21 121 43 185 43c145 0 190 -76 190 -202v-298h-61zM382 230c-42 10 -79 14 -114 14
c-67 0 -145 -27 -145 -103c0 -59 46 -97 103 -97c56 0 110 29 156 73v113zM275 558l-126 153l51 39l118 -158z" />
    <glyph glyph-name="aacute" unicode="&#xe1;" horiz-adv-x="534" 
d="M389 0l-5 57c-47 -51 -104 -69 -160 -69c-90 0 -169 53 -169 145c0 120 112 167 216 167c33 0 67 -4 111 -15v27c0 81 -40 126 -125 126c-57 0 -121 -21 -159 -42l-23 61c45 21 121 43 185 43c145 0 190 -76 190 -202v-298h-61zM382 230c-42 10 -79 14 -114 14
c-67 0 -145 -27 -145 -103c0 -59 46 -97 103 -97c56 0 110 29 156 73v113zM380 711l-126 -153l-43 34l118 158z" />
    <glyph glyph-name="acircumflex" unicode="&#xe2;" horiz-adv-x="534" 
d="M389 0l-5 57c-47 -51 -104 -69 -160 -69c-90 0 -169 53 -169 145c0 120 112 167 216 167c33 0 67 -4 111 -15v27c0 81 -40 126 -125 126c-57 0 -121 -21 -159 -42l-23 61c45 21 121 43 185 43c145 0 190 -76 190 -202v-298h-61zM382 230c-42 10 -79 14 -114 14
c-67 0 -145 -27 -145 -103c0 -59 46 -97 103 -97c56 0 110 29 156 73v113zM286 730l99 -142l-41 -28l-88 114l-89 -114l-43 29l99 141h63z" />
    <glyph glyph-name="atilde" unicode="&#xe3;" horiz-adv-x="534" 
d="M389 0l-5 57c-47 -51 -104 -69 -160 -69c-90 0 -169 53 -169 145c0 120 112 167 216 167c33 0 67 -4 111 -15v27c0 81 -40 126 -125 126c-57 0 -121 -21 -159 -42l-23 61c45 21 121 43 185 43c145 0 190 -76 190 -202v-298h-61zM382 230c-42 10 -79 14 -114 14
c-67 0 -145 -27 -145 -103c0 -59 46 -97 103 -97c56 0 110 29 156 73v113zM377 680l51 6c2 -8 3 -14 3 -22c0 -46 -33 -85 -90 -85c-77 0 -103 68 -151 68c-22 0 -38 -13 -39 -33c0 -5 0 -8 1 -11l-51 -6c-2 8 -3 14 -3 22c0 46 33 85 90 85c74 0 101 -68 151 -68
c22 0 38 13 39 33c0 5 0 8 -1 11z" />
    <glyph glyph-name="adieresis" unicode="&#xe4;" horiz-adv-x="534" 
d="M389 0l-5 57c-47 -51 -104 -69 -160 -69c-90 0 -169 53 -169 145c0 120 112 167 216 167c33 0 67 -4 111 -15v27c0 81 -40 126 -125 126c-57 0 -121 -21 -159 -42l-23 61c45 21 121 43 185 43c145 0 190 -76 190 -202v-298h-61zM382 230c-42 10 -79 14 -114 14
c-67 0 -145 -27 -145 -103c0 -59 46 -97 103 -97c56 0 110 29 156 73v113zM203 597h-70v94h70v-94zM389 597h-70v94h70v-94z" />
    <glyph glyph-name="aring" unicode="&#xe5;" horiz-adv-x="534" 
d="M389 0l-5 57c-47 -51 -104 -69 -160 -69c-90 0 -169 53 -169 145c0 120 112 167 216 167c33 0 67 -4 111 -15v27c0 81 -40 126 -125 126c-57 0 -121 -21 -159 -42l-23 61c45 21 121 43 185 43c145 0 190 -76 190 -202v-298h-61zM382 230c-42 10 -79 14 -114 14
c-67 0 -145 -27 -145 -103c0 -59 46 -97 103 -97c56 0 110 29 156 73v113zM169 647c0 52 42 94 94 94s94 -42 94 -94s-42 -94 -94 -94s-94 42 -94 94zM213 647c0 -27 23 -50 50 -50s50 23 50 50s-23 50 -50 50s-50 -23 -50 -50z" />
    <glyph glyph-name="aringacute" unicode="&#x1fb;" horiz-adv-x="534" 
d="M393 830l-170 -101l-29 43l165 112zM389 0l-5 57c-47 -51 -104 -69 -160 -69c-90 0 -169 53 -169 145c0 120 112 167 216 167c33 0 67 -4 111 -15v27c0 81 -40 126 -125 126c-57 0 -121 -21 -159 -42l-23 61c45 21 121 43 185 43c145 0 190 -76 190 -202v-298h-61z
M382 230c-42 10 -79 14 -114 14c-67 0 -145 -27 -145 -103c0 -59 46 -97 103 -97c56 0 110 29 156 73v113zM169 624c0 52 42 94 94 94s94 -42 94 -94s-42 -94 -94 -94s-94 42 -94 94zM213 624c0 -27 23 -50 50 -50s50 23 50 50s-23 50 -50 50s-50 -23 -50 -50z" />
    <glyph glyph-name="ae" unicode="&#xe6;" horiz-adv-x="880" 
d="M831 227h-385c6 -94 68 -181 174 -181c65 0 120 18 155 84l48 -31c-39 -73 -124 -111 -198 -111c-91 0 -156 37 -196 95c-55 -71 -128 -95 -205 -95c-90 0 -169 53 -169 145c0 120 112 167 216 167c33 0 67 -4 111 -15v27c0 81 -40 126 -125 126c-57 0 -121 -21 -159 -42
l-23 61c45 21 121 43 185 43c97 0 149 -34 173 -94c42 58 108 94 184 94c126 0 217 -107 217 -228c0 -16 -2 -36 -3 -45zM226 44c53 0 114 24 175 93c-10 28 -16 59 -18 92c-42 11 -80 15 -115 15c-67 0 -145 -27 -145 -103c0 -59 46 -97 103 -97zM617 442
c-94 0 -155 -66 -169 -157h319c-4 82 -67 157 -150 157z" />
    <glyph glyph-name="aeacute" unicode="&#x1fd;" horiz-adv-x="880" 
d="M831 227h-385c6 -94 68 -181 174 -181c65 0 120 18 155 84l48 -31c-39 -73 -124 -111 -198 -111c-91 0 -156 37 -196 95c-55 -71 -128 -95 -205 -95c-90 0 -169 53 -169 145c0 120 112 167 216 167c33 0 67 -4 111 -15v27c0 81 -40 126 -125 126c-57 0 -121 -21 -159 -42
l-23 61c45 21 121 43 185 43c97 0 149 -34 173 -94c42 58 108 94 184 94c126 0 217 -107 217 -228c0 -16 -2 -36 -3 -45zM226 44c53 0 114 24 175 93c-10 28 -16 59 -18 92c-42 11 -80 15 -115 15c-67 0 -145 -27 -145 -103c0 -59 46 -97 103 -97zM617 442
c-94 0 -155 -66 -169 -157h319c-4 82 -67 157 -150 157zM563 711l-126 -153l-43 34l118 158z" />
    <glyph glyph-name="ccedilla" unicode="&#xe7;" horiz-adv-x="463" 
d="M402 82l35 -52c-40 -27 -82 -42 -133 -42c-4 0 -10 0 -17 1l-24 -56l3 -1c7 7 23 16 48 16c54 0 84 -42 84 -89c0 -52 -46 -99 -106 -99c-42 0 -78 19 -98 54l52 26c10 -28 32 -32 49 -32c27 0 45 23 45 47c0 26 -15 51 -46 51c-16 0 -32 -7 -42 -26l-57 31l41 85
c-115 28 -190 125 -190 248c0 143 107 256 256 256c45 0 87 -13 122 -33l-25 -57c-27 18 -69 28 -102 28c-111 0 -181 -89 -181 -194c0 -110 70 -194 183 -194c31 0 79 14 103 32z" />
    <glyph glyph-name="egrave" unicode="&#xe8;" horiz-adv-x="548" 
d="M499 227h-385c6 -94 68 -181 174 -181c65 0 120 18 155 84l48 -31c-39 -73 -124 -111 -198 -111c-160 0 -247 116 -247 259c0 144 106 253 239 253c126 0 217 -107 217 -228c0 -16 -2 -36 -3 -45zM435 285c-4 82 -67 157 -150 157c-94 0 -155 -66 -169 -157h319zM290 558
l-126 153l51 39l118 -158z" />
    <glyph glyph-name="eacute" unicode="&#xe9;" horiz-adv-x="548" 
d="M499 227h-385c6 -94 68 -181 174 -181c65 0 120 18 155 84l48 -31c-39 -73 -124 -111 -198 -111c-160 0 -247 116 -247 259c0 144 106 253 239 253c126 0 217 -107 217 -228c0 -16 -2 -36 -3 -45zM435 285c-4 82 -67 157 -150 157c-94 0 -155 -66 -169 -157h319zM396 711
l-126 -153l-43 34l118 158z" />
    <glyph glyph-name="ecircumflex" unicode="&#xea;" horiz-adv-x="548" 
d="M499 227h-385c6 -94 68 -181 174 -181c65 0 120 18 155 84l48 -31c-39 -73 -124 -111 -198 -111c-160 0 -247 116 -247 259c0 144 106 253 239 253c126 0 217 -107 217 -228c0 -16 -2 -36 -3 -45zM435 285c-4 82 -67 157 -150 157c-94 0 -155 -66 -169 -157h319zM317 730
l99 -142l-41 -28l-88 114l-89 -114l-43 29l99 141h63z" />
    <glyph glyph-name="edieresis" unicode="&#xeb;" horiz-adv-x="548" 
d="M499 227h-385c6 -94 68 -181 174 -181c65 0 120 18 155 84l48 -31c-39 -73 -124 -111 -198 -111c-160 0 -247 116 -247 259c0 144 106 253 239 253c126 0 217 -107 217 -228c0 -16 -2 -36 -3 -45zM435 285c-4 82 -67 157 -150 157c-94 0 -155 -66 -169 -157h319zM227 597
h-70v94h70v-94zM413 597h-70v94h70v-94z" />
    <glyph glyph-name="igrave" unicode="&#xec;" horiz-adv-x="250" 
d="M126 558l-126 153l51 39l118 -158zM159 0h-68v488h68v-488z" />
    <glyph glyph-name="iacute" unicode="&#xed;" horiz-adv-x="250" 
d="M246 711l-126 -153l-43 34l118 158zM159 0h-68v488h68v-488z" />
    <glyph glyph-name="icircumflex" unicode="&#xee;" horiz-adv-x="250" 
d="M158 730l99 -142l-41 -28l-88 114l-89 -114l-43 29l99 141h63zM159 0h-68v488h68v-488z" />
    <glyph glyph-name="idieresis" unicode="&#xef;" horiz-adv-x="250" 
d="M67 597h-70v94h70v-94zM253 597h-70v94h70v-94zM159 0h-68v488h68v-488z" />
    <glyph glyph-name="eth" unicode="&#xf0;" horiz-adv-x="561" 
d="M46 235c0 118 101 227 230 227c43 0 84 -11 123 -34c-37 72 -95 130 -168 178l-67 -109l-49 32l65 108c-34 19 -71 37 -109 53l26 60c40 -17 79 -36 117 -58l62 102l49 -32l-62 -101c145 -99 252 -241 252 -429c0 -131 -94 -244 -242 -244c-144 0 -227 120 -227 247z
M445 238c0 38 -5 73 -13 106c-41 34 -86 56 -144 56c-95 0 -172 -63 -172 -169c0 -98 65 -181 167 -181c116 0 162 87 162 188z" />
    <glyph glyph-name="ntilde" unicode="&#xf1;" horiz-adv-x="601" 
d="M91 488h68v-86c39 65 99 98 174 98c139 0 184 -89 184 -236v-264h-68v253c0 92 -17 185 -126 185c-73 0 -132 -52 -164 -114v-324h-68v488zM421 680l51 6c2 -8 3 -14 3 -22c0 -46 -33 -85 -90 -85c-77 0 -103 68 -151 68c-22 0 -38 -13 -39 -33c0 -5 0 -8 1 -11l-51 -6
c-2 8 -3 14 -3 22c0 46 33 85 90 85c74 0 101 -68 151 -68c22 0 38 13 39 33c0 5 0 8 -1 11z" />
    <glyph glyph-name="ograve" unicode="&#xf2;" horiz-adv-x="584" 
d="M292 500c145 0 246 -114 246 -256s-101 -256 -246 -256s-246 114 -246 256s101 256 246 256zM468 244c0 102 -67 194 -176 194s-176 -92 -176 -194s67 -194 176 -194s176 92 176 194zM296 558l-126 153l51 39l118 -158z" />
    <glyph glyph-name="oacute" unicode="&#xf3;" horiz-adv-x="584" 
d="M292 500c145 0 246 -114 246 -256s-101 -256 -246 -256s-246 114 -246 256s101 256 246 256zM468 244c0 102 -67 194 -176 194s-176 -92 -176 -194s67 -194 176 -194s176 92 176 194zM433 711l-126 -153l-43 34l118 158z" />
    <glyph glyph-name="ocircumflex" unicode="&#xf4;" horiz-adv-x="584" 
d="M292 500c145 0 246 -114 246 -256s-101 -256 -246 -256s-246 114 -246 256s101 256 246 256zM468 244c0 102 -67 194 -176 194s-176 -92 -176 -194s67 -194 176 -194s176 92 176 194zM324 730l99 -142l-41 -28l-88 114l-89 -114l-43 29l99 141h63z" />
    <glyph glyph-name="otilde" unicode="&#xf5;" horiz-adv-x="584" 
d="M292 500c145 0 246 -114 246 -256s-101 -256 -246 -256s-246 114 -246 256s101 256 246 256zM468 244c0 102 -67 194 -176 194s-176 -92 -176 -194s67 -194 176 -194s176 92 176 194zM411 680l51 6c2 -8 3 -14 3 -22c0 -46 -33 -85 -90 -85c-77 0 -103 68 -151 68
c-22 0 -38 -13 -39 -33c0 -5 0 -8 1 -11l-51 -6c-2 8 -3 14 -3 22c0 46 33 85 90 85c74 0 101 -68 151 -68c22 0 38 13 39 33c0 5 0 8 -1 11z" />
    <glyph glyph-name="odieresis" unicode="&#xf6;" horiz-adv-x="584" 
d="M292 500c145 0 246 -114 246 -256s-101 -256 -246 -256s-246 114 -246 256s101 256 246 256zM468 244c0 102 -67 194 -176 194s-176 -92 -176 -194s67 -194 176 -194s176 92 176 194zM235 597h-70v94h70v-94zM421 597h-70v94h70v-94z" />
    <glyph glyph-name="oslash" unicode="&#xf8;" horiz-adv-x="584" 
d="M292 500c43 0 83 -11 117 -29l25 37l46 -29l-26 -39c53 -47 84 -117 84 -196c0 -142 -101 -256 -246 -256c-47 0 -89 12 -124 32l-25 -37l-45 29l27 40c-50 47 -79 115 -79 192c0 142 101 256 246 256zM468 244c0 53 -19 105 -52 141l-212 -312c25 -15 54 -23 88 -23
c109 0 176 92 176 194zM116 244c0 -52 17 -100 47 -136l210 310c-24 13 -51 20 -81 20c-109 0 -176 -92 -176 -194z" />
    <glyph glyph-name="oslashacute" unicode="&#x1ff;" horiz-adv-x="584" 
d="M292 500c43 0 83 -11 117 -29l25 37l46 -29l-26 -39c53 -47 84 -117 84 -196c0 -142 -101 -256 -246 -256c-47 0 -89 12 -124 32l-25 -37l-45 29l27 40c-50 47 -79 115 -79 192c0 142 101 256 246 256zM468 244c0 53 -19 105 -52 141l-212 -312c25 -15 54 -23 88 -23
c109 0 176 92 176 194zM116 244c0 -52 17 -100 47 -136l210 310c-24 13 -51 20 -81 20c-109 0 -176 -92 -176 -194zM433 711l-126 -153l-43 34l118 158z" />
    <glyph glyph-name="ugrave" unicode="&#xf9;" horiz-adv-x="601" 
d="M510 0h-68v86c-39 -65 -99 -98 -174 -98c-139 0 -184 89 -184 236v264h68v-253c0 -92 17 -185 126 -185c73 0 132 52 164 114v324h68v-488zM311 558l-126 153l51 39l118 -158z" />
    <glyph glyph-name="uacute" unicode="&#xfa;" horiz-adv-x="601" 
d="M510 0h-68v86c-39 -65 -99 -98 -174 -98c-139 0 -184 89 -184 236v264h68v-253c0 -92 17 -185 126 -185c73 0 132 52 164 114v324h68v-488zM423 711l-126 -153l-43 34l118 158z" />
    <glyph glyph-name="ucircumflex" unicode="&#xfb;" horiz-adv-x="601" 
d="M510 0h-68v86c-39 -65 -99 -98 -174 -98c-139 0 -184 89 -184 236v264h68v-253c0 -92 17 -185 126 -185c73 0 132 52 164 114v324h68v-488zM333 730l99 -142l-41 -28l-88 114l-89 -114l-43 29l99 141h63z" />
    <glyph glyph-name="udieresis" unicode="&#xfc;" horiz-adv-x="601" 
d="M510 0h-68v86c-39 -65 -99 -98 -174 -98c-139 0 -184 89 -184 236v264h68v-253c0 -92 17 -185 126 -185c73 0 132 52 164 114v324h68v-488zM241 597h-70v94h70v-94zM427 597h-70v94h70v-94z" />
    <glyph glyph-name="yacute" unicode="&#xfd;" horiz-adv-x="456" 
d="M12 488h74l138 -413l147 413h73l-265 -711l-58 23l65 176zM358 711l-126 -153l-43 34l118 158z" />
    <glyph glyph-name="thorn" unicode="&#xfe;" horiz-adv-x="612" 
d="M159 750v-325c37 49 97 75 157 75c143 0 250 -115 250 -254s-108 -258 -251 -258c-55 0 -114 21 -156 60v-310h-68v1012h68zM314 438c-60 0 -127 -35 -155 -92v-219c36 -47 99 -77 155 -77c106 0 182 88 182 192c0 105 -75 196 -182 196z" />
    <glyph glyph-name="ydieresis" unicode="&#xff;" horiz-adv-x="456" 
d="M12 488h74l138 -413l147 413h73l-265 -711l-58 23l65 176zM172 597h-70v94h70v-94zM358 597h-70v94h70v-94z" />
    <glyph glyph-name="Amacron" unicode="&#x100;" horiz-adv-x="611" 
d="M15 0l270 700h67l244 -700h-83l-53 159h-308l-60 -159h-77zM315 596l-138 -369h261l-122 369h-1zM470 775h-313v59h313v-59z" />
    <glyph glyph-name="amacron" unicode="&#x101;" horiz-adv-x="534" 
d="M389 0l-5 57c-47 -51 -104 -69 -160 -69c-90 0 -169 53 -169 145c0 120 112 167 216 167c33 0 67 -4 111 -15v27c0 81 -40 126 -125 126c-57 0 -121 -21 -159 -42l-23 61c45 21 121 43 185 43c145 0 190 -76 190 -202v-298h-61zM382 230c-42 10 -79 14 -114 14
c-67 0 -145 -27 -145 -103c0 -59 46 -97 103 -97c56 0 110 29 156 73v113zM398 607h-276v58h276v-58z" />
    <glyph glyph-name="Abreve" unicode="&#x102;" horiz-adv-x="611" 
d="M15 0l270 700h67l244 -700h-83l-53 159h-308l-60 -159h-77zM315 596l-138 -369h261l-122 369h-1zM317 810c44 0 80 28 80 74v5h55v-6c0 -73 -60 -128 -135 -128c-81 0 -135 55 -135 128v6h57v-5c0 -46 34 -74 78 -74z" />
    <glyph glyph-name="abreve" unicode="&#x103;" horiz-adv-x="534" 
d="M389 0l-5 57c-47 -51 -104 -69 -160 -69c-90 0 -169 53 -169 145c0 120 112 167 216 167c33 0 67 -4 111 -15v27c0 81 -40 126 -125 126c-57 0 -121 -21 -159 -42l-23 61c45 21 121 43 185 43c145 0 190 -76 190 -202v-298h-61zM382 230c-42 10 -79 14 -114 14
c-67 0 -145 -27 -145 -103c0 -59 46 -97 103 -97c56 0 110 29 156 73v113zM400 715v-13c0 -75 -58 -134 -133 -134c-81 0 -133 59 -133 134v13h52v-13c0 -48 34 -83 81 -83s85 35 85 83v13h48z" />
    <glyph glyph-name="Aogonek" unicode="&#x104;" horiz-adv-x="611" 
d="M15 0l269 700h69l243 -700c-78 -26 -110 -66 -110 -109c0 -37 17 -59 51 -59c15 0 33 7 48 19l30 -40c-22 -20 -56 -31 -89 -31c-61 0 -106 42 -106 99c0 53 30 96 90 124l-52 156h-304l-60 -159h-79zM316 588l-137 -361h257l-119 361h-1z" />
    <glyph glyph-name="aogonek" unicode="&#x105;" horiz-adv-x="534" 
d="M450 298v-303c-73 -25 -114 -65 -114 -114c0 -27 11 -49 45 -49c15 0 31 7 46 19l30 -40c-22 -20 -54 -31 -87 -31c-61 0 -100 41 -100 95c0 58 41 105 118 135l-4 47c-47 -51 -104 -69 -160 -69c-90 0 -169 53 -169 145c0 120 112 167 216 167c33 0 67 -4 111 -15v27
c0 81 -40 126 -125 126c-57 0 -121 -21 -159 -42l-23 61c45 21 121 43 185 43c145 0 190 -76 190 -202zM382 230c-42 10 -79 14 -114 14c-67 0 -145 -27 -145 -103c0 -59 46 -97 103 -97c56 0 110 29 156 73v113z" />
    <glyph glyph-name="Cacute" unicode="&#x106;" horiz-adv-x="674" 
d="M599 102l39 -57c-55 -35 -121 -57 -196 -57c-215 0 -377 146 -377 362c0 208 170 362 378 362c63 0 126 -18 175 -48l-34 -57c-42 23 -91 37 -142 37c-171 0 -298 -122 -298 -294c0 -179 120 -294 299 -294c55 0 107 15 156 46zM560 856l-165 -116l-34 43l154 129z" />
    <glyph glyph-name="cacute" unicode="&#x107;" horiz-adv-x="463" 
d="M402 82l35 -52c-40 -27 -82 -42 -133 -42c-152 0 -258 110 -258 256c0 143 107 256 256 256c45 0 87 -13 122 -33l-25 -57c-27 18 -69 28 -102 28c-111 0 -181 -89 -181 -194c0 -110 70 -194 183 -194c31 0 79 14 103 32zM421 711l-126 -153l-43 34l118 158z" />
    <glyph glyph-name="Ccircumflex" unicode="&#x108;" horiz-adv-x="674" 
d="M599 102l39 -57c-55 -35 -121 -57 -196 -57c-215 0 -377 146 -377 362c0 208 170 362 378 362c63 0 126 -18 175 -48l-34 -57c-42 23 -91 37 -142 37c-171 0 -298 -122 -298 -294c0 -179 120 -294 299 -294c55 0 107 15 156 46zM390 899h71l104 -124l-40 -33l-100 105
l-102 -105l-41 35z" />
    <glyph glyph-name="ccircumflex" unicode="&#x109;" horiz-adv-x="463" 
d="M402 82l35 -52c-40 -27 -82 -42 -133 -42c-152 0 -258 110 -258 256c0 143 107 256 256 256c45 0 87 -13 122 -33l-25 -57c-27 18 -69 28 -102 28c-111 0 -181 -89 -181 -194c0 -110 70 -194 183 -194c31 0 79 14 103 32zM319 730l99 -142l-41 -28l-88 114l-89 -114
l-43 29l99 141h63z" />
    <glyph glyph-name="Cdotaccent" unicode="&#x10a;" horiz-adv-x="674" 
d="M599 102l39 -57c-55 -35 -121 -57 -196 -57c-215 0 -377 146 -377 362c0 208 170 362 378 362c63 0 126 -18 175 -48l-34 -57c-42 23 -91 37 -142 37c-171 0 -298 -122 -298 -294c0 -179 120 -294 299 -294c55 0 107 15 156 46zM458 765h-80v107h80v-107z" />
    <glyph glyph-name="cdotaccent" unicode="&#x10b;" horiz-adv-x="463" 
d="M402 82l35 -52c-40 -27 -82 -42 -133 -42c-152 0 -258 110 -258 256c0 143 107 256 256 256c45 0 87 -13 122 -33l-25 -57c-27 18 -69 28 -102 28c-111 0 -181 -89 -181 -194c0 -110 70 -194 183 -194c31 0 79 14 103 32zM312 597h-70v94h70v-94z" />
    <glyph glyph-name="Ccaron" unicode="&#x10c;" horiz-adv-x="674" 
d="M599 102l39 -57c-55 -35 -121 -57 -196 -57c-215 0 -377 146 -377 362c0 208 170 362 378 362c63 0 126 -18 175 -48l-34 -57c-42 23 -91 37 -142 37c-171 0 -298 -122 -298 -294c0 -179 120 -294 299 -294c55 0 107 15 156 46zM463 753h-72l-105 122l42 35l100 -103
l102 103l41 -35z" />
    <glyph glyph-name="ccaron" unicode="&#x10d;" horiz-adv-x="463" 
d="M402 82l35 -52c-40 -27 -82 -42 -133 -42c-152 0 -258 110 -258 256c0 143 107 256 256 256c45 0 87 -13 122 -33l-25 -57c-27 18 -69 28 -102 28c-111 0 -181 -89 -181 -194c0 -110 70 -194 183 -194c31 0 79 14 103 32zM415 711l-99 -142h-63l-99 141l43 29l89 -114
l88 114z" />
    <glyph glyph-name="Dcaron" unicode="&#x10e;" horiz-adv-x="722" 
d="M103 0v700h182c177 0 372 -94 372 -347c0 -259 -194 -353 -382 -353h-172zM177 68h41c216 0 360 65 360 276c0 189 -115 288 -312 288h-89v-564zM363 753h-72l-105 122l42 35l100 -103l102 103l41 -35z" />
    <glyph glyph-name="dcaron" unicode="&#x10f;" horiz-adv-x="612" 
d="M453 0v63c-37 -49 -97 -75 -157 -75c-143 0 -250 115 -250 254s108 258 251 258c55 0 114 -21 156 -60v310h68v-750h-68zM453 142v219c-36 47 -99 77 -155 77c-106 0 -182 -88 -182 -192c0 -105 75 -196 182 -196c60 0 127 35 155 92zM608 549h-57l41 201h70z" />
    <glyph glyph-name="Dcroat" unicode="&#x110;" horiz-adv-x="722" 
d="M103 0v325h-72v70h72v305h182c177 0 372 -94 372 -347c0 -259 -194 -353 -382 -353h-172zM578 344c0 189 -115 288 -312 288h-89v-237h124v-70h-124v-257h41c216 0 360 65 360 276z" />
    <glyph glyph-name="dcroat" unicode="&#x111;" horiz-adv-x="612" 
d="M298 50c60 0 127 35 155 92v219c-36 47 -99 77 -155 77c-106 0 -182 -88 -182 -192c0 -105 75 -196 182 -196zM453 0v63c-37 -49 -97 -75 -157 -75c-143 0 -250 115 -250 254s108 258 251 258c55 0 114 -21 156 -60v148h-166v62h166v100h68v-100h70v-62h-70v-588h-68z
" />
    <glyph glyph-name="Emacron" unicode="&#x112;" horiz-adv-x="580" 
d="M510 0h-407v700h407v-68h-333v-236h333v-68h-333v-260h333v-68zM471 775h-313v59h313v-59z" />
    <glyph glyph-name="emacron" unicode="&#x113;" horiz-adv-x="548" 
d="M499 227h-385c6 -94 68 -181 174 -181c65 0 120 18 155 84l48 -31c-39 -73 -124 -111 -198 -111c-160 0 -247 116 -247 259c0 144 106 253 239 253c126 0 217 -107 217 -228c0 -16 -2 -36 -3 -45zM435 285c-4 82 -67 157 -150 157c-94 0 -155 -66 -169 -157h319zM422 607
h-276v58h276v-58z" />
    <glyph glyph-name="Ebreve" unicode="&#x114;" horiz-adv-x="580" 
d="M510 0h-407v700h407v-68h-333v-236h333v-68h-333v-260h333v-68zM322 810c44 0 80 28 80 74v5h55v-6c0 -73 -60 -128 -135 -128c-81 0 -135 55 -135 128v6h57v-5c0 -46 34 -74 78 -74z" />
    <glyph glyph-name="ebreve" unicode="&#x115;" horiz-adv-x="548" 
d="M499 227h-385c6 -94 68 -181 174 -181c65 0 120 18 155 84l48 -31c-39 -73 -124 -111 -198 -111c-160 0 -247 116 -247 259c0 144 106 253 239 253c126 0 217 -107 217 -228c0 -16 -2 -36 -3 -45zM435 285c-4 82 -67 157 -150 157c-94 0 -155 -66 -169 -157h319zM417 715
v-13c0 -75 -58 -134 -133 -134c-81 0 -133 59 -133 134v13h52v-13c0 -48 34 -83 81 -83s85 35 85 83v13h48z" />
    <glyph glyph-name="Edotaccent" unicode="&#x116;" horiz-adv-x="580" 
d="M510 0h-407v700h407v-68h-333v-236h333v-68h-333v-260h333v-68zM356 765h-80v107h80v-107z" />
    <glyph glyph-name="edotaccent" unicode="&#x117;" horiz-adv-x="548" 
d="M499 227h-385c6 -94 68 -181 174 -181c65 0 120 18 155 84l48 -31c-39 -73 -124 -111 -198 -111c-160 0 -247 116 -247 259c0 144 106 253 239 253c126 0 217 -107 217 -228c0 -16 -2 -36 -3 -45zM435 285c-4 82 -67 157 -150 157c-94 0 -155 -66 -169 -157h319zM313 597
h-70v94h70v-94z" />
    <glyph glyph-name="Eogonek" unicode="&#x118;" horiz-adv-x="580" 
d="M510 0c-93 -26 -125 -66 -125 -109c0 -33 17 -59 51 -59c15 0 33 7 48 19l30 -40c-22 -20 -56 -31 -89 -31c-61 0 -106 45 -106 99c0 51 29 94 89 121h-305v700h407v-68h-333v-236h333v-68h-333v-260h333v-68z" />
    <glyph glyph-name="eogonek" unicode="&#x119;" horiz-adv-x="548" 
d="M499 227h-385c6 -94 68 -181 174 -181c65 0 120 18 155 84l48 -31c-20 -38 -55 -67 -89 -85c-68 -36 -105 -74 -105 -127c0 -32 17 -55 51 -55c15 0 33 7 48 19l30 -40c-22 -20 -56 -31 -89 -31c-61 0 -106 41 -106 99c0 44 27 82 69 109h-7c-160 0 -247 116 -247 259
c0 144 106 253 239 253c126 0 217 -107 217 -228c0 -16 -2 -36 -3 -45zM435 285c-4 82 -67 157 -150 157c-94 0 -155 -66 -169 -157h319z" />
    <glyph glyph-name="Ecaron" unicode="&#x11a;" horiz-adv-x="580" 
d="M510 0h-407v700h407v-68h-333v-236h333v-68h-333v-260h333v-68zM349 753h-72l-105 122l42 35l100 -103l102 103l41 -35z" />
    <glyph glyph-name="ecaron" unicode="&#x11b;" horiz-adv-x="548" 
d="M499 227h-385c6 -94 68 -181 174 -181c65 0 120 18 155 84l48 -31c-39 -73 -124 -111 -198 -111c-160 0 -247 116 -247 259c0 144 106 253 239 253c126 0 217 -107 217 -228c0 -16 -2 -36 -3 -45zM435 285c-4 82 -67 157 -150 157c-94 0 -155 -66 -169 -157h319zM414 711
l-99 -142h-63l-99 141l43 29l89 -114l88 114z" />
    <glyph glyph-name="Gcircumflex" unicode="&#x11c;" horiz-adv-x="808" 
d="M647 310h-183v68h257v-260c-64 -79 -166 -130 -279 -130c-215 0 -377 146 -377 362c0 208 170 362 378 362c103 0 197 -48 260 -118l-54 -42c-49 54 -126 92 -207 92c-171 0 -298 -122 -298 -294c0 -179 120 -294 299 -294c81 0 152 28 204 77v177zM403 899h71l104 -124
l-40 -33l-100 105l-102 -105l-41 35z" />
    <glyph glyph-name="gcircumflex" unicode="&#x11d;" horiz-adv-x="605" 
d="M521 488v-460c0 -172 -116 -248 -246 -248c-75 0 -153 28 -214 69l28 57c43 -34 115 -64 185 -64c92 0 179 45 179 165v68c-37 -49 -97 -75 -157 -75c-143 0 -250 115 -250 248s108 252 251 252c55 0 114 -21 156 -60v48h68zM453 154v207c-36 47 -99 77 -155 77
c-106 0 -182 -88 -182 -186c0 -99 75 -190 182 -190c60 0 127 35 155 92zM329 730l99 -142l-41 -28l-88 114l-89 -114l-43 29l99 141h63z" />
    <glyph glyph-name="Gbreve" unicode="&#x11e;" horiz-adv-x="808" 
d="M647 310h-183v68h257v-260c-64 -79 -166 -130 -279 -130c-215 0 -377 146 -377 362c0 208 170 362 378 362c103 0 197 -48 260 -118l-54 -42c-49 54 -126 92 -207 92c-171 0 -298 -122 -298 -294c0 -179 120 -294 299 -294c81 0 152 28 204 77v177zM435 810
c44 0 80 28 80 74v5h55v-6c0 -73 -60 -128 -135 -128c-81 0 -135 55 -135 128v6h57v-5c0 -46 34 -74 78 -74z" />
    <glyph glyph-name="gbreve" unicode="&#x11f;" horiz-adv-x="605" 
d="M521 488v-460c0 -172 -116 -248 -246 -248c-75 0 -153 28 -214 69l28 57c43 -34 115 -64 185 -64c92 0 179 45 179 165v68c-37 -49 -97 -75 -157 -75c-143 0 -250 115 -250 248s108 252 251 252c55 0 114 -21 156 -60v48h68zM453 154v207c-36 47 -99 77 -155 77
c-106 0 -182 -88 -182 -186c0 -99 75 -190 182 -190c60 0 127 35 155 92zM432 715v-13c0 -75 -58 -134 -133 -134c-81 0 -133 59 -133 134v13h52v-13c0 -48 34 -83 81 -83s85 35 85 83v13h48z" />
    <glyph glyph-name="Gdotaccent" unicode="&#x120;" horiz-adv-x="808" 
d="M647 310h-183v68h257v-260c-64 -79 -166 -130 -279 -130c-215 0 -377 146 -377 362c0 208 170 362 378 362c103 0 197 -48 260 -118l-54 -42c-49 54 -126 92 -207 92c-171 0 -298 -122 -298 -294c0 -179 120 -294 299 -294c81 0 152 28 204 77v177zM463 765h-80v107h80
v-107z" />
    <glyph glyph-name="gdotaccent" unicode="&#x121;" horiz-adv-x="605" 
d="M521 488v-460c0 -172 -116 -248 -246 -248c-75 0 -153 28 -214 69l28 57c43 -34 115 -64 185 -64c92 0 179 45 179 165v68c-37 -49 -97 -75 -157 -75c-143 0 -250 115 -250 248s108 252 251 252c55 0 114 -21 156 -60v48h68zM453 154v207c-36 47 -99 77 -155 77
c-106 0 -182 -88 -182 -186c0 -99 75 -190 182 -190c60 0 127 35 155 92zM331 597h-70v94h70v-94z" />
    <glyph glyph-name="Gcommaaccent" unicode="&#x122;" horiz-adv-x="808" 
d="M647 310h-183v68h257v-260c-64 -79 -166 -130 -279 -130c-215 0 -377 146 -377 362c0 208 170 362 378 362c103 0 197 -48 260 -118l-54 -42c-49 54 -126 92 -207 92c-171 0 -298 -122 -298 -294c0 -179 120 -294 299 -294c81 0 152 28 204 77v177zM446 -59l-46 -166h-56
l34 166h68z" />
    <glyph glyph-name="gcommaaccent" unicode="&#x123;" horiz-adv-x="605" 
d="M521 488v-460c0 -172 -116 -248 -246 -248c-75 0 -153 28 -214 69l28 57c43 -34 115 -64 185 -64c92 0 179 45 179 165v68c-37 -49 -97 -75 -157 -75c-143 0 -250 115 -250 248s108 252 251 252c55 0 114 -21 156 -60v48h68zM453 154v207c-36 47 -99 77 -155 77
c-106 0 -182 -88 -182 -186c0 -99 75 -190 182 -190c60 0 127 35 155 92zM272 565l48 171h56l-36 -171h-68z" />
    <glyph glyph-name="Hcircumflex" unicode="&#x124;" horiz-adv-x="758" 
d="M655 0h-74v330h-404v-330h-74v700h74v-302h404v302h74v-700zM345 899h71l104 -124l-40 -33l-100 105l-102 -105l-41 35z" />
    <glyph glyph-name="hcircumflex" unicode="&#x125;" horiz-adv-x="601" 
d="M159 750v-348c39 65 99 98 174 98c139 0 184 -89 184 -236v-264h-68v253c0 92 -17 185 -126 185c-73 0 -132 -52 -164 -114v-324h-68v750h68zM91 909h71l104 -124l-40 -33l-100 105l-102 -105l-41 35z" />
    <glyph glyph-name="Hbar" unicode="&#x126;" horiz-adv-x="758" 
d="M655 0h-74v330h-404v-330h-74v524h-88v64h88v112h74v-112h404v112h74v-112h88v-64h-88v-524zM177 398h404v126h-404v-126z" />
    <glyph glyph-name="hbar" unicode="&#x127;" horiz-adv-x="601" 
d="M159 402c39 65 99 98 174 98c139 0 184 -89 184 -236v-264h-68v253c0 92 -17 185 -126 185c-73 0 -132 -52 -164 -114v-324h-68v588h-70v62h70v100h68v-100h166v-62h-166v-186z" />
    <glyph glyph-name="Itilde" unicode="&#x128;" horiz-adv-x="280" 
d="M177 0h-74v700h74v-700zM250 865l51 6c2 -8 3 -15 3 -23c0 -49 -33 -90 -88 -90c-76 0 -102 69 -150 69c-21 0 -36 -11 -37 -32c0 -5 0 -8 1 -12l-51 -6c-2 8 -3 15 -3 23c0 49 33 90 88 90c74 0 100 -69 150 -69c21 0 36 11 37 32c0 5 0 8 -1 12z" />
    <glyph glyph-name="itilde" unicode="&#x129;" horiz-adv-x="250" 
d="M159 0h-68v488h68v-488zM237 680l51 6c2 -8 3 -14 3 -22c0 -46 -33 -85 -90 -85c-77 0 -103 68 -151 68c-22 0 -38 -13 -39 -33c0 -5 0 -8 1 -11l-51 -6c-2 8 -3 14 -3 22c0 46 33 85 90 85c74 0 101 -68 151 -68c22 0 38 13 39 33c0 5 0 8 -1 11z" />
    <glyph glyph-name="Imacron" unicode="&#x12a;" horiz-adv-x="280" 
d="M177 0h-74v700h74v-700zM297 775h-313v59h313v-59z" />
    <glyph glyph-name="imacron" unicode="&#x12b;" horiz-adv-x="250" 
d="M159 0h-68v488h68v-488zM263 607h-276v58h276v-58z" />
    <glyph glyph-name="Ibreve" unicode="&#x12c;" horiz-adv-x="280" 
d="M177 0h-74v700h74v-700zM140 810c44 0 80 28 80 74v5h55v-6c0 -73 -60 -128 -135 -128c-81 0 -135 55 -135 128v6h57v-5c0 -46 34 -74 78 -74z" />
    <glyph glyph-name="ibreve" unicode="&#x12d;" horiz-adv-x="250" 
d="M159 0h-68v488h68v-488zM258 715v-13c0 -75 -58 -134 -133 -134c-81 0 -133 59 -133 134v13h52v-13c0 -48 34 -83 81 -83s85 35 85 83v13h48z" />
    <glyph glyph-name="Iogonek" unicode="&#x12e;" horiz-adv-x="280" 
d="M177 0c-66 -26 -97 -70 -97 -113c0 -33 17 -55 51 -55c15 0 33 7 48 19l30 -40c-22 -20 -56 -31 -89 -31c-61 0 -106 41 -106 95c0 53 30 100 89 128v697h74v-700z" />
    <glyph glyph-name="iogonek" unicode="&#x12f;" horiz-adv-x="250" 
d="M159 488v-488c-69 -27 -95 -70 -95 -113c0 -33 17 -55 51 -55c15 0 33 7 48 19l30 -40c-22 -20 -56 -31 -89 -31c-61 0 -106 41 -106 95s31 104 93 132v481h68zM159 597h-68v94h68v-94z" />
    <glyph glyph-name="Idotaccent" unicode="&#x130;" horiz-adv-x="280" 
d="M177 0h-74v700h74v-700zM180 765h-80v107h80v-107z" />
    <glyph glyph-name="idotaccent" horiz-adv-x="250" 
d="M159 0h-68v488h68v-488zM159 597h-68v94h68v-94z" />
    <glyph glyph-name="dotlessi" unicode="&#x131;" horiz-adv-x="250" 
d="M159 0h-68v488h68v-488z" />
    <glyph glyph-name="IJ" unicode="&#x132;" horiz-adv-x="635" 
d="M174 0h-71v700h71v-700zM537 700v-528c0 -51 -9 -92 -25 -124c-25 -40 -67 -60 -132 -60c-33 0 -63 10 -86 17l17 60c17 -7 35 -11 56 -11c38 0 64 6 78 25c16 19 21 52 21 104v517h71z" />
    <glyph glyph-name="ij" unicode="&#x133;" horiz-adv-x="505" 
d="M156 0h-64v486h64v-486zM156 597h-64v92h64v-92zM413 597h-64v92h64v-92zM413 486v-534c0 -26 0 -51 -4 -77c-15 -54 -54 -94 -125 -94c-34 0 -64 6 -87 22l20 54c13 -8 33 -15 53 -15c73 0 79 57 79 132v512h64z" />
    <glyph glyph-name="Jcircumflex" unicode="&#x134;" horiz-adv-x="334" 
d="M242 700v-527c0 -111 -35 -185 -158 -185c-33 0 -64 9 -88 17l18 63c17 -7 36 -12 57 -12c87 0 97 42 97 128v516h74zM171 899h71l104 -124l-40 -33l-100 105l-102 -105l-41 35z" />
    <glyph glyph-name="jcircumflex" unicode="&#x135;" horiz-adv-x="257" 
d="M-53 -198l21 56c15 -9 33 -16 53 -16c30 0 49 9 60 24c17 23 18 61 18 107v515h68v-521c0 -45 -3 -99 -33 -139c-24 -33 -59 -48 -102 -48c-30 0 -60 8 -85 22zM166 730l99 -142l-41 -28l-88 114l-89 -114l-43 29l99 141h63z" />
    <glyph glyph-name="Kcommaaccent" unicode="&#x136;" horiz-adv-x="611" 
d="M589 700l-230 -275l248 -425h-87l-212 365l-131 -158v-207h-74v700h74v-386l321 386h91zM367 -59l-46 -166h-56l34 166h68z" />
    <glyph glyph-name="kcommaaccent" unicode="&#x137;" horiz-adv-x="493" 
d="M462 488l-166 -196l190 -292h-83l-153 237l-91 -107v-130h-68v750h68v-527l2 -1l220 266h81zM301 -59l-46 -166h-56l34 166h68z" />
    <glyph glyph-name="kgreenlandic" unicode="&#x138;" horiz-adv-x="493" 
d="M462 488l-166 -196l190 -292h-83l-153 237l-91 -107v-130h-68v488h68v-265l2 -1l220 266h81z" />
    <glyph glyph-name="Lacute" unicode="&#x139;" horiz-adv-x="494" 
d="M489 0h-386v700h74v-632h312v-68zM299 856l-165 -116l-34 43l154 129z" />
    <glyph glyph-name="lacute" unicode="&#x13a;" horiz-adv-x="250" 
d="M274 907l-159 -118l-34 44l154 124zM159 750v-750h-68v750h68z" />
    <glyph glyph-name="Lcommaaccent" unicode="&#x13b;" horiz-adv-x="494" 
d="M293 -262h-60l42 203h72zM489 0h-386v700h74v-632h312v-68z" />
    <glyph glyph-name="lcommaaccent" unicode="&#x13c;" horiz-adv-x="250" 
d="M159 750v-750h-68v750h68zM156 -59l-46 -166h-56l34 166h68z" />
    <glyph glyph-name="Lcaron" unicode="&#x13d;" horiz-adv-x="494" 
d="M489 0h-386v700h74v-632h312v-68zM304 499h-57l41 201h70z" />
    <glyph glyph-name="lcaron" unicode="&#x13e;" horiz-adv-x="250" 
d="M159 750v-750h-68v750h68zM242 549h-57l41 201h70z" />
    <glyph glyph-name="Ldot" unicode="&#x13f;" horiz-adv-x="494" 
d="M489 0h-386v700h74v-632h312v-68zM385 318h-80v107h80v-107z" />
    <glyph glyph-name="ldot" unicode="&#x140;" horiz-adv-x="268" 
d="M159 750v-750h-68v750h68zM281 325h-70v94h70v-94z" />
    <glyph glyph-name="Lslash" unicode="&#x141;" horiz-adv-x="494" 
d="M489 0h-386v294l-92 -60v68l92 60v338h74v-300l153 100v-68l-153 -100v-264h312v-68z" />
    <glyph glyph-name="lslash" unicode="&#x142;" horiz-adv-x="250" 
d="M159 750v-312l70 44v-67l-70 -44v-371h-68v338l-71 -44v67l71 44v345h68z" />
    <glyph glyph-name="Nacute" unicode="&#x143;" horiz-adv-x="757" 
d="M650 0h-56l-417 562v-562h-70v700h55l418 -563v563h70v-700zM524 856l-165 -116l-34 43l154 129z" />
    <glyph glyph-name="nacute" unicode="&#x144;" horiz-adv-x="601" 
d="M91 488h68v-86c39 65 99 98 174 98c139 0 184 -89 184 -236v-264h-68v253c0 92 -17 185 -126 185c-73 0 -132 -52 -164 -114v-324h-68v488zM432 711l-126 -153l-43 34l118 158z" />
    <glyph glyph-name="Ncommaaccent" unicode="&#x145;" horiz-adv-x="757" 
d="M650 0h-56l-417 562v-562h-70v700h55l418 -563v563h70v-700zM420 -59l-46 -166h-56l34 166h68z" />
    <glyph glyph-name="ncommaaccent" unicode="&#x146;" horiz-adv-x="601" 
d="M91 488h68v-86c39 65 99 98 174 98c139 0 184 -89 184 -236v-264h-68v253c0 92 -17 185 -126 185c-73 0 -132 -52 -164 -114v-324h-68v488zM345 -59l-46 -166h-56l34 166h68z" />
    <glyph glyph-name="Ncaron" unicode="&#x147;" horiz-adv-x="757" 
d="M650 0h-56l-417 562v-562h-70v700h55l418 -563v563h70v-700zM422 753h-72l-105 122l42 35l100 -103l102 103l41 -35z" />
    <glyph glyph-name="ncaron" unicode="&#x148;" horiz-adv-x="601" 
d="M91 488h68v-86c39 65 99 98 174 98c139 0 184 -89 184 -236v-264h-68v253c0 92 -17 185 -126 185c-73 0 -132 -52 -164 -114v-324h-68v488zM447 711l-99 -142h-63l-99 141l43 29l89 -114l88 114z" />
    <glyph glyph-name="napostrophe" unicode="&#x149;" horiz-adv-x="620" 
d="M110 488h68v-86c39 65 99 98 174 98c139 0 184 -89 184 -236v-264h-68v253c0 92 -17 185 -126 185c-73 0 -132 -52 -164 -114v-324h-68v488zM126 727l-63 -239h-65l48 239h80z" />
    <glyph glyph-name="Eng" unicode="&#x14a;" horiz-adv-x="757" 
d="M654 -35c0 -111 -35 -185 -158 -185c-33 0 -64 9 -88 17l18 63c17 -7 36 -12 57 -12c87 0 97 42 97 128v37l-403 547v-560h-74v700h63l414 -561v561h74v-735z" />
    <glyph glyph-name="eng" unicode="&#x14b;" horiz-adv-x="601" 
d="M297 -198l21 56c15 -9 33 -16 53 -16c30 0 49 9 60 24c17 23 18 61 18 107v280c0 92 -17 185 -126 185c-73 0 -132 -52 -164 -114v-324h-68v488h68v-86c39 65 99 98 174 98c139 0 184 -89 184 -236v-297c0 -45 -3 -99 -33 -139c-24 -33 -59 -48 -102 -48
c-30 0 -60 8 -85 22z" />
    <glyph glyph-name="Omacron" unicode="&#x14c;" horiz-adv-x="844" 
d="M700 350c0 165 -118 294 -278 294s-278 -129 -278 -294s118 -294 278 -294s278 129 278 294zM779 350c0 -200 -155 -362 -357 -362s-357 162 -357 362s155 362 357 362s357 -162 357 -362zM579 775h-313v59h313v-59z" />
    <glyph glyph-name="omacron" unicode="&#x14d;" horiz-adv-x="584" 
d="M292 500c145 0 246 -114 246 -256s-101 -256 -246 -256s-246 114 -246 256s101 256 246 256zM468 244c0 102 -67 194 -176 194s-176 -92 -176 -194s67 -194 176 -194s176 92 176 194zM430 607h-276v58h276v-58z" />
    <glyph glyph-name="Obreve" unicode="&#x14e;" horiz-adv-x="844" 
d="M700 350c0 165 -118 294 -278 294s-278 -129 -278 -294s118 -294 278 -294s278 129 278 294zM779 350c0 -200 -155 -362 -357 -362s-357 162 -357 362s155 362 357 362s357 -162 357 -362zM422 810c44 0 80 28 80 74v5h55v-6c0 -73 -60 -128 -135 -128
c-81 0 -135 55 -135 128v6h57v-5c0 -46 34 -74 78 -74z" />
    <glyph glyph-name="obreve" unicode="&#x14f;" horiz-adv-x="584" 
d="M292 500c145 0 246 -114 246 -256s-101 -256 -246 -256s-246 114 -246 256s101 256 246 256zM468 244c0 102 -67 194 -176 194s-176 -92 -176 -194s67 -194 176 -194s176 92 176 194zM432 715v-13c0 -75 -58 -134 -133 -134c-81 0 -133 59 -133 134v13h52v-13
c0 -48 34 -83 81 -83s85 35 85 83v13h48z" />
    <glyph glyph-name="Ohungarumlaut" unicode="&#x150;" horiz-adv-x="844" 
d="M700 350c0 165 -118 294 -278 294s-278 -129 -278 -294s118 -294 278 -294s278 129 278 294zM779 350c0 -200 -155 -362 -357 -362s-357 162 -357 362s155 362 357 362s357 -162 357 -362zM654 850l-156 -110l-34 43l146 122zM472 856l-165 -116l-34 43l154 129z" />
    <glyph glyph-name="ohungarumlaut" unicode="&#x151;" horiz-adv-x="584" 
d="M292 500c145 0 246 -114 246 -256s-101 -256 -246 -256s-246 114 -246 256s101 256 246 256zM468 244c0 102 -67 194 -176 194s-176 -92 -176 -194s67 -194 176 -194s176 92 176 194zM503 706l-124 -148l-43 34l116 153zM358 716l-126 -153l-43 34l118 158z" />
    <glyph glyph-name="OE" unicode="&#x152;" horiz-adv-x="1066" 
d="M996 0h-407v39c-50 -33 -105 -51 -167 -51c-202 0 -357 162 -357 362s155 362 357 362c66 0 119 -20 167 -51v39h407v-68h-333v-236h333v-68h-333v-260h333v-68zM422 56c64 0 121 20 167 56v476c-46 36 -104 56 -167 56c-160 0 -278 -129 -278 -294s118 -294 278 -294z
" />
    <glyph glyph-name="oe" unicode="&#x153;" horiz-adv-x="969" 
d="M920 227h-385c6 -94 68 -181 174 -181c65 0 120 18 155 84l48 -31c-39 -73 -124 -111 -198 -111c-104 0 -176 49 -213 123c-40 -74 -115 -123 -209 -123c-145 0 -246 114 -246 256s101 256 246 256c95 0 170 -50 210 -124c40 75 115 124 204 124c126 0 217 -107 217 -228
c0 -16 -2 -36 -3 -45zM468 244c0 102 -67 194 -176 194s-176 -92 -176 -194s67 -194 176 -194s176 92 176 194zM706 442c-94 0 -155 -66 -169 -157h319c-4 82 -67 157 -150 157z" />
    <glyph glyph-name="Racute" unicode="&#x154;" horiz-adv-x="604" 
d="M177 305v-305h-74v700h201c105 0 232 -55 232 -197c0 -103 -66 -177 -182 -196c76 -104 189 -256 227 -307h-92l-220 305h-92zM177 632v-259h102c109 0 178 37 178 128c0 79 -64 131 -158 131h-122zM409 856l-165 -116l-34 43l154 129z" />
    <glyph glyph-name="racute" unicode="&#x155;" horiz-adv-x="348" 
d="M159 488v-92c27 54 74 104 142 104c13 0 27 -1 41 -4l-9 -75c-15 7 -27 9 -46 9c-56 0 -93 -42 -128 -104v-326h-68v488h68zM334 711l-126 -153l-43 34l118 158z" />
    <glyph glyph-name="Rcommaaccent" unicode="&#x156;" horiz-adv-x="604" 
d="M177 305v-305h-74v700h201c105 0 232 -55 232 -197c0 -103 -66 -177 -182 -196c76 -104 189 -256 227 -307h-92l-220 305h-92zM177 632v-259h102c109 0 178 37 178 128c0 79 -64 131 -158 131h-122zM358 -59l-46 -166h-56l34 166h68z" />
    <glyph glyph-name="rcommaaccent" unicode="&#x157;" horiz-adv-x="348" 
d="M159 488v-92c27 54 74 104 142 104c13 0 27 -1 41 -4l-9 -75c-15 7 -27 9 -46 9c-56 0 -93 -42 -128 -104v-326h-68v488h68zM156 -59l-46 -166h-56l34 166h68z" />
    <glyph glyph-name="Rcaron" unicode="&#x158;" horiz-adv-x="604" 
d="M177 305v-305h-74v700h201c105 0 232 -55 232 -197c0 -103 -66 -177 -182 -196c76 -104 189 -256 227 -307h-92l-220 305h-92zM177 632v-259h102c109 0 178 37 178 128c0 79 -64 131 -158 131h-122zM324 753h-72l-105 122l42 35l100 -103l102 103l41 -35z" />
    <glyph glyph-name="rcaron" unicode="&#x159;" horiz-adv-x="348" 
d="M159 488v-92c27 54 74 104 142 104c13 0 27 -1 41 -4l-9 -75c-15 7 -27 9 -46 9c-56 0 -93 -42 -128 -104v-326h-68v488h68zM350 711l-99 -142h-63l-99 141l43 29l89 -114l88 114z" />
    <glyph glyph-name="Sacute" unicode="&#x15a;" horiz-adv-x="609" 
d="M453 591c-30 30 -92 53 -147 53c-86 0 -141 -41 -141 -109c0 -78 93 -102 185 -136c91 -34 182 -78 182 -195c0 -157 -137 -216 -237 -216c-99 0 -174 28 -246 99l56 50c69 -70 122 -81 191 -81c80 0 157 42 157 136c0 84 -80 115 -165 147c-96 36 -199 72 -199 186
c0 128 95 187 205 187c80 0 149 -22 208 -67zM442 856l-165 -116l-34 43l154 129z" />
    <glyph glyph-name="sacute" unicode="&#x15b;" horiz-adv-x="438" 
d="M356 453l-37 -46c-27 21 -63 35 -99 35c-38 0 -86 -21 -86 -67c0 -58 63 -77 125 -103c60 -25 119 -59 119 -146c0 -86 -90 -138 -172 -138c-55 0 -111 22 -151 66l41 43c29 -31 66 -51 112 -51c47 0 102 25 102 81s-52 76 -107 98c-64 26 -133 55 -133 144
c0 84 70 131 152 131c51 0 96 -16 134 -47zM360 711l-126 -153l-43 34l118 158z" />
    <glyph glyph-name="Scircumflex" unicode="&#x15c;" horiz-adv-x="609" 
d="M453 591c-30 30 -92 53 -147 53c-86 0 -141 -41 -141 -109c0 -78 93 -102 185 -136c91 -34 182 -78 182 -195c0 -157 -137 -216 -237 -216c-99 0 -174 28 -246 99l56 50c69 -70 122 -81 191 -81c80 0 157 42 157 136c0 84 -80 115 -165 147c-96 36 -199 72 -199 186
c0 128 95 187 205 187c80 0 149 -22 208 -67zM272 899h71l104 -124l-40 -33l-100 105l-102 -105l-41 35z" />
    <glyph glyph-name="scircumflex" unicode="&#x15d;" horiz-adv-x="438" 
d="M356 453l-37 -46c-27 21 -63 35 -99 35c-38 0 -86 -21 -86 -67c0 -58 63 -77 125 -103c60 -25 119 -59 119 -146c0 -86 -90 -138 -172 -138c-55 0 -111 22 -151 66l41 43c29 -31 66 -51 112 -51c47 0 102 25 102 81s-52 76 -107 98c-64 26 -133 55 -133 144
c0 84 70 131 152 131c51 0 96 -16 134 -47zM261 730l99 -142l-41 -28l-88 114l-89 -114l-43 29l99 141h63z" />
    <glyph glyph-name="Scedilla" unicode="&#x15e;" horiz-adv-x="609" 
d="M453 591c-30 30 -92 53 -147 53c-86 0 -141 -41 -141 -109c0 -78 93 -102 185 -136c91 -34 182 -78 182 -195c0 -152 -128 -212 -227 -216l-24 -55l3 -1c7 7 23 16 48 16c55 0 84 -42 84 -89c0 -52 -46 -99 -106 -99c-42 0 -78 19 -98 54l52 26c10 -28 32 -32 49 -32
c27 0 45 23 45 47c0 26 -15 51 -45 51c-17 0 -33 -7 -43 -26l-57 31l37 79c-78 8 -140 37 -201 97l56 50c69 -70 122 -81 191 -81c80 0 157 42 157 136c0 84 -80 115 -165 147c-96 36 -199 72 -199 186c0 128 95 187 205 187c80 0 149 -22 208 -67z" />
    <glyph glyph-name="scedilla" unicode="&#x15f;" horiz-adv-x="438" 
d="M356 453l-37 -46c-27 21 -63 35 -99 35c-38 0 -86 -21 -86 -67c0 -58 63 -77 125 -103c60 -25 119 -59 119 -146c0 -79 -75 -128 -150 -136l-25 -57l3 -1c7 7 23 16 48 16c54 0 84 -42 84 -89c0 -52 -46 -99 -106 -99c-42 0 -78 19 -98 54l52 26c10 -28 32 -32 49 -32
c27 0 45 23 45 47c0 26 -15 51 -46 51c-16 0 -32 -7 -42 -26l-57 31l38 80c-44 7 -86 28 -118 63l41 43c29 -31 66 -51 112 -51c47 0 102 25 102 81s-52 76 -107 98c-64 26 -133 55 -133 144c0 84 70 131 152 131c51 0 96 -16 134 -47z" />
    <glyph glyph-name="Scaron" unicode="&#x160;" horiz-adv-x="609" 
d="M453 591c-30 30 -92 53 -147 53c-86 0 -141 -41 -141 -109c0 -78 93 -102 185 -136c91 -34 182 -78 182 -195c0 -157 -137 -216 -237 -216c-99 0 -174 28 -246 99l56 50c69 -70 122 -81 191 -81c80 0 157 42 157 136c0 84 -80 115 -165 147c-96 36 -199 72 -199 186
c0 128 95 187 205 187c80 0 149 -22 208 -67zM336 753h-72l-105 122l42 35l100 -103l102 103l41 -35z" />
    <glyph glyph-name="scaron" unicode="&#x161;" horiz-adv-x="438" 
d="M356 453l-37 -46c-27 21 -63 35 -99 35c-38 0 -86 -21 -86 -67c0 -58 63 -77 125 -103c60 -25 119 -59 119 -146c0 -86 -90 -138 -172 -138c-55 0 -111 22 -151 66l41 43c29 -31 66 -51 112 -51c47 0 102 25 102 81s-52 76 -107 98c-64 26 -133 55 -133 144
c0 84 70 131 152 131c51 0 96 -16 134 -47zM355 711l-99 -142h-63l-99 141l43 29l89 -114l88 114z" />
    <glyph glyph-name="Scommaaccent" unicode="&#x218;" horiz-adv-x="609" 
d="M453 591c-30 30 -92 53 -147 53c-86 0 -141 -41 -141 -109c0 -78 93 -102 185 -136c91 -34 182 -78 182 -195c0 -157 -137 -216 -237 -216c-99 0 -174 28 -246 99l56 50c69 -70 122 -81 191 -81c80 0 157 42 157 136c0 84 -80 115 -165 147c-96 36 -199 72 -199 186
c0 128 95 187 205 187c80 0 149 -22 208 -67zM322 -59l-46 -166h-56l34 166h68z" />
    <glyph glyph-name="scommaaccent" unicode="&#x219;" horiz-adv-x="438" 
d="M356 453l-37 -46c-27 21 -63 35 -99 35c-38 0 -86 -21 -86 -67c0 -58 63 -77 125 -103c60 -25 119 -59 119 -146c0 -86 -90 -138 -172 -138c-55 0 -111 22 -151 66l41 43c29 -31 66 -51 112 -51c47 0 102 25 102 81s-52 76 -107 98c-64 26 -133 55 -133 144
c0 84 70 131 152 131c51 0 96 -16 134 -47zM246 -59l-46 -166h-56l34 166h68z" />
    <glyph glyph-name="uni0162" unicode="&#x162;" horiz-adv-x="486" 
d="M461 632h-181v-632h-11l-27 -67l3 -1c7 7 23 16 48 16c54 0 84 -42 84 -89c0 -52 -46 -99 -106 -99c-42 0 -78 19 -98 54l52 26c10 -28 32 -32 49 -32c27 0 45 23 45 47c0 26 -15 51 -46 51c-16 0 -32 -7 -42 -26l-57 31l42 89h-10v632h-181v68h436v-68z" />
    <glyph glyph-name="uni0163" unicode="&#x163;" horiz-adv-x="337" 
d="M311 426h-142v-269c0 -88 30 -104 75 -104c18 0 38 5 60 13l17 -54c-22 -12 -49 -21 -78 -21c-11 0 -21 1 -30 2l-25 -60l3 -1c7 7 23 16 48 16c54 0 84 -42 84 -89c0 -52 -46 -99 -106 -99c-42 0 -78 19 -98 54l52 26c10 -28 32 -32 49 -32c27 0 45 23 45 47
c0 26 -15 51 -46 51c-16 0 -32 -7 -42 -26l-57 31l47 97c-44 24 -66 72 -66 141v277h-69v62h69v122h68v-122h142v-62z" />
    <glyph glyph-name="Tcaron" unicode="&#x164;" horiz-adv-x="486" 
d="M461 632h-181v-632h-74v632h-181v68h436v-68zM279 753h-72l-105 122l42 35l100 -103l102 103l41 -35z" />
    <glyph glyph-name="tcaron" unicode="&#x165;" horiz-adv-x="337" 
d="M311 426h-142v-269c0 -88 30 -104 75 -104c18 0 38 5 60 13l17 -54c-22 -12 -49 -21 -78 -21c-95 0 -142 57 -142 158v277h-69v62h69v122h68v-122h142v-62zM294 549h-57l41 201h70z" />
    <glyph glyph-name="Tbar" unicode="&#x166;" horiz-adv-x="486" 
d="M461 632h-181v-240h113v-62h-113v-330h-74v330h-113v62h113v240h-181v68h436v-68z" />
    <glyph glyph-name="tbar" unicode="&#x167;" horiz-adv-x="337" 
d="M311 426h-142v-130h142v-56h-142v-83c0 -88 30 -104 75 -104c18 0 38 5 60 13l17 -54c-22 -12 -49 -21 -78 -21c-95 0 -142 57 -142 158v91h-69v56h69v130h-69v62h69v122h68v-122h142v-62z" />
    <glyph glyph-name="uni021A" unicode="&#x21a;" horiz-adv-x="486" 
d="M461 632h-181v-632h-74v632h-181v68h436v-68zM273 -59l-46 -166h-56l34 166h68z" />
    <glyph glyph-name="uni021B" unicode="&#x21b;" horiz-adv-x="337" 
d="M311 426h-142v-269c0 -88 30 -104 75 -104c18 0 38 5 60 13l17 -54c-22 -12 -49 -21 -78 -21c-95 0 -142 57 -142 158v277h-69v62h69v122h68v-122h142v-62zM218 -59l-46 -166h-56l34 166h68z" />
    <glyph glyph-name="Utilde" unicode="&#x168;" horiz-adv-x="724" 
d="M628 700v-371c0 -220 -79 -341 -268 -341c-184 0 -264 121 -264 341v371h74v-399c0 -165 74 -245 192 -245c119 0 192 80 192 245v399h74zM471 865l51 6c2 -8 3 -15 3 -23c0 -49 -33 -90 -88 -90c-76 0 -102 69 -150 69c-21 0 -36 -11 -37 -32c0 -5 0 -8 1 -12l-51 -6
c-2 8 -3 15 -3 23c0 49 33 90 88 90c74 0 100 -69 150 -69c21 0 36 11 37 32c0 5 0 8 -1 12z" />
    <glyph glyph-name="utilde" unicode="&#x169;" horiz-adv-x="601" 
d="M510 0h-68v86c-39 -65 -99 -98 -174 -98c-139 0 -184 89 -184 236v264h68v-253c0 -92 17 -185 126 -185c73 0 132 52 164 114v324h68v-488zM420 680l51 6c2 -8 3 -14 3 -22c0 -46 -33 -85 -90 -85c-77 0 -103 68 -151 68c-22 0 -38 -13 -39 -33c0 -5 0 -8 1 -11l-51 -6
c-2 8 -3 14 -3 22c0 46 33 85 90 85c74 0 101 -68 151 -68c22 0 38 13 39 33c0 5 0 8 -1 11z" />
    <glyph glyph-name="Umacron" unicode="&#x16a;" horiz-adv-x="724" 
d="M628 700v-371c0 -220 -79 -341 -268 -341c-184 0 -264 121 -264 341v371h74v-399c0 -165 74 -245 192 -245c119 0 192 80 192 245v399h74zM519 775h-313v59h313v-59z" />
    <glyph glyph-name="umacron" unicode="&#x16b;" horiz-adv-x="601" 
d="M510 0h-68v86c-39 -65 -99 -98 -174 -98c-139 0 -184 89 -184 236v264h68v-253c0 -92 17 -185 126 -185c73 0 132 52 164 114v324h68v-488zM435 607h-276v58h276v-58z" />
    <glyph glyph-name="Ubreve" unicode="&#x16c;" horiz-adv-x="724" 
d="M628 700v-371c0 -220 -79 -341 -268 -341c-184 0 -264 121 -264 341v371h74v-399c0 -165 74 -245 192 -245c119 0 192 80 192 245v399h74zM362 810c44 0 80 28 80 74v5h55v-6c0 -73 -60 -128 -135 -128c-81 0 -135 55 -135 128v6h57v-5c0 -46 34 -74 78 -74z" />
    <glyph glyph-name="ubreve" unicode="&#x16d;" horiz-adv-x="601" 
d="M510 0h-68v86c-39 -65 -99 -98 -174 -98c-139 0 -184 89 -184 236v264h68v-253c0 -92 17 -185 126 -185c73 0 132 52 164 114v324h68v-488zM430 715v-13c0 -75 -58 -134 -133 -134c-81 0 -133 59 -133 134v13h52v-13c0 -48 34 -83 81 -83s85 35 85 83v13h48z" />
    <glyph glyph-name="Uring" unicode="&#x16e;" horiz-adv-x="724" 
d="M628 700v-371c0 -220 -79 -341 -268 -341c-184 0 -264 121 -264 341v371h74v-399c0 -165 74 -245 192 -245c119 0 192 80 192 245v399h74zM268 816c0 52 42 94 94 94s94 -42 94 -94s-42 -94 -94 -94s-94 42 -94 94zM312 816c0 -27 23 -50 50 -50s50 23 50 50
s-23 50 -50 50s-50 -23 -50 -50z" />
    <glyph glyph-name="uring" unicode="&#x16f;" horiz-adv-x="601" 
d="M510 0h-68v86c-39 -65 -99 -98 -174 -98c-139 0 -184 89 -184 236v264h68v-253c0 -92 17 -185 126 -185c73 0 132 52 164 114v324h68v-488zM203 647c0 52 42 94 94 94s94 -42 94 -94s-42 -94 -94 -94s-94 42 -94 94zM247 647c0 -27 23 -50 50 -50s50 23 50 50
s-23 50 -50 50s-50 -23 -50 -50z" />
    <glyph glyph-name="Uhungarumlaut" unicode="&#x170;" horiz-adv-x="724" 
d="M628 700v-371c0 -220 -79 -341 -268 -341c-184 0 -264 121 -264 341v371h74v-399c0 -165 74 -245 192 -245c119 0 192 80 192 245v399h74zM598 850l-156 -110l-34 43l146 122zM416 856l-165 -116l-34 43l154 129z" />
    <glyph glyph-name="uhungarumlaut" unicode="&#x171;" horiz-adv-x="601" 
d="M510 0h-68v86c-39 -65 -99 -98 -174 -98c-139 0 -184 89 -184 236v264h68v-253c0 -92 17 -185 126 -185c73 0 132 52 164 114v324h68v-488zM491 706l-124 -148l-43 34l116 153zM346 716l-126 -153l-43 34l118 158z" />
    <glyph glyph-name="Uogonek" unicode="&#x172;" horiz-adv-x="724" 
d="M628 700v-371c0 -165 -46 -274 -146 -319c-70 -31 -104 -80 -104 -123c0 -33 17 -55 51 -55c15 0 33 7 48 19l30 -40c-22 -20 -56 -31 -89 -31c-61 0 -106 41 -106 95c0 44 21 86 63 113h-15c-184 0 -264 121 -264 341v371h74v-399c0 -165 74 -245 192 -245
c119 0 192 80 192 245v399h74z" />
    <glyph glyph-name="uogonek" unicode="&#x173;" horiz-adv-x="601" 
d="M510 488v-488c-72 -26 -114 -66 -114 -113c0 -33 17 -55 51 -55c15 0 33 7 48 19l30 -40c-22 -20 -56 -31 -89 -31c-61 0 -106 41 -106 95c0 56 44 106 112 133v78c-39 -65 -99 -98 -174 -98c-139 0 -184 89 -184 236v264h68v-253c0 -92 17 -185 126 -185
c73 0 132 52 164 114v324h68z" />
    <glyph glyph-name="Wcircumflex" unicode="&#x174;" horiz-adv-x="860" 
d="M468 700l150 -572h2l162 572h72l-201 -700h-73l-148 576h-2l-159 -576h-73l-192 700h77l154 -572h2l159 572h70zM398 899h71l104 -124l-40 -33l-100 105l-102 -105l-41 35z" />
    <glyph glyph-name="wcircumflex" unicode="&#x175;" horiz-adv-x="715" 
d="M317 488h89l109 -422l112 422h67l-136 -488h-86l-114 415l-118 -415h-91l-124 488h70l102 -423zM394 730l99 -142l-41 -28l-88 114l-89 -114l-43 29l99 141h63z" />
    <glyph glyph-name="Wgrave" unicode="&#x1e80;" horiz-adv-x="860" 
d="M468 700l150 -572h2l162 572h72l-201 -700h-73l-148 576h-2l-159 -576h-73l-192 700h77l154 -572h2l159 572h70zM465 740l-165 116l45 56l154 -129z" />
    <glyph glyph-name="wgrave" unicode="&#x1e81;" horiz-adv-x="715" 
d="M317 488h89l109 -422l112 422h67l-136 -488h-86l-114 415l-118 -415h-91l-124 488h70l102 -423zM363 558l-126 153l51 39l118 -158z" />
    <glyph glyph-name="Wacute" unicode="&#x1e82;" horiz-adv-x="860" 
d="M468 700l150 -572h2l162 572h72l-201 -700h-73l-148 576h-2l-159 -576h-73l-192 700h77l154 -572h2l159 572h70zM570 856l-165 -116l-34 43l154 129z" />
    <glyph glyph-name="wacute" unicode="&#x1e83;" horiz-adv-x="715" 
d="M317 488h89l109 -422l112 422h67l-136 -488h-86l-114 415l-118 -415h-91l-124 488h70l102 -423zM483 711l-126 -153l-43 34l118 158z" />
    <glyph glyph-name="Wdieresis" unicode="&#x1e84;" horiz-adv-x="860" 
d="M468 700l150 -572h2l162 572h72l-201 -700h-73l-148 576h-2l-159 -576h-73l-192 700h77l154 -572h2l159 572h70zM339 765h-80v107h80v-107zM607 765h-80v107h80v-107z" />
    <glyph glyph-name="wdieresis" unicode="&#x1e85;" horiz-adv-x="715" 
d="M317 488h89l109 -422l112 422h67l-136 -488h-86l-114 415l-118 -415h-91l-124 488h70l102 -423zM304 597h-70v94h70v-94zM490 597h-70v94h70v-94z" />
    <glyph glyph-name="Ygrave" unicode="&#x1ef2;" horiz-adv-x="524" 
d="M519 700l-226 -401v-299h-74v313l-214 387h91l166 -313h3l169 313h85zM325 740l-165 116l45 56l154 -129z" />
    <glyph glyph-name="ygrave" unicode="&#x1ef3;" horiz-adv-x="456" 
d="M12 488h74l138 -413l147 413h73l-265 -711l-58 23l65 176zM254 558l-126 153l51 39l118 -158z" />
    <glyph glyph-name="Ycircumflex" unicode="&#x176;" horiz-adv-x="524" 
d="M519 700l-226 -401v-299h-74v313l-214 387h91l166 -313h3l169 313h85zM230 899h71l104 -124l-40 -33l-100 105l-102 -105l-41 35z" />
    <glyph glyph-name="ycircumflex" unicode="&#x177;" horiz-adv-x="456" 
d="M12 488h74l138 -413l147 413h73l-265 -711l-58 23l65 176zM262 730l99 -142l-41 -28l-88 114l-89 -114l-43 29l99 141h63z" />
    <glyph glyph-name="Ydieresis" unicode="&#x178;" horiz-adv-x="524" 
d="M430 765h-80v107h80v-107zM196 765h-80v107h80v-107zM519 700l-226 -401v-299h-74v313l-214 387h91l166 -313h3l169 313h85z" />
    <glyph glyph-name="Zacute" unicode="&#x179;" horiz-adv-x="535" 
d="M487 657l-346 -589h374v-68h-475v40l347 592h-340v68h440v-43zM391 856l-165 -116l-34 43l154 129z" />
    <glyph glyph-name="zacute" unicode="&#x17a;" horiz-adv-x="441" 
d="M385 456l-229 -394h246v-62h-339v33l229 393h-240v62h333v-32zM350 711l-126 -153l-43 34l118 158z" />
    <glyph glyph-name="Zdotaccent" unicode="&#x17b;" horiz-adv-x="535" 
d="M487 657l-346 -589h374v-68h-475v40l347 592h-340v68h440v-43zM311 765h-80v107h80v-107z" />
    <glyph glyph-name="zdotaccent" unicode="&#x17c;" horiz-adv-x="441" 
d="M385 456l-229 -394h246v-62h-339v33l229 393h-240v62h333v-32zM260 597h-70v94h70v-94z" />
    <glyph glyph-name="Zcaron" unicode="&#x17d;" horiz-adv-x="535" 
d="M487 657l-346 -589h374v-68h-475v40l347 592h-340v68h440v-43zM304 753h-72l-105 122l42 35l100 -103l102 103l41 -35z" />
    <glyph glyph-name="zcaron" unicode="&#x17e;" horiz-adv-x="441" 
d="M385 456l-229 -394h246v-62h-339v33l229 393h-240v62h333v-32zM357 711l-99 -142h-63l-99 141l43 29l89 -114l88 114z" />
    <glyph glyph-name="longs" unicode="&#x17f;" horiz-adv-x="304" 
d="M326 744l-17 -56c-17 7 -37 12 -61 12c-20 0 -44 -3 -62 -17c-27 -21 -31 -61 -31 -115v-568h-68v574c0 50 8 97 31 131s60 57 120 57c32 0 65 -10 88 -18z" />
    <glyph glyph-name="dotlessj" unicode="&#x237;" horiz-adv-x="257" 
d="M-53 -198l21 56c15 -9 33 -16 53 -16c30 0 49 9 60 24c17 23 18 61 18 107v515h68v-521c0 -45 -3 -99 -33 -139c-24 -33 -59 -48 -102 -48c-30 0 -60 8 -85 22z" />
    <glyph glyph-name="s_t" horiz-adv-x="775" 
d="M356 453l-37 -46c-27 21 -63 35 -99 35c-38 0 -86 -21 -86 -67c0 -58 63 -77 125 -103c60 -25 119 -59 119 -146c0 -86 -90 -138 -172 -138c-55 0 -111 22 -151 66l41 43c29 -31 66 -51 112 -51c47 0 102 25 102 81s-52 76 -107 98c-64 26 -133 55 -133 144
c0 84 70 131 152 131c51 0 96 -16 134 -47zM749 426h-142v-269c0 -88 30 -104 75 -104c18 0 38 5 60 13l17 -54c-22 -12 -49 -21 -78 -21c-95 0 -142 57 -142 158v277h-69v62h69v122h68v-122h142v-62z" />
    <glyph glyph-name="s_p" horiz-adv-x="1050" 
d="M356 453l-37 -46c-27 21 -63 35 -99 35c-38 0 -86 -21 -86 -67c0 -58 63 -77 125 -103c60 -25 119 -59 119 -146c0 -86 -90 -138 -172 -138c-55 0 -111 22 -151 66l41 43c29 -31 66 -51 112 -51c47 0 102 25 102 81s-52 76 -107 98c-64 26 -133 55 -133 144
c0 84 70 131 152 131c51 0 96 -16 134 -47zM529 488h68v-63c37 49 97 75 157 75c143 0 250 -115 250 -254s-108 -258 -251 -258c-55 0 -114 21 -156 60v-298h-68v738zM597 346v-219c36 -47 99 -77 155 -77c106 0 182 88 182 192c0 105 -75 196 -182 196
c-60 0 -127 -35 -155 -92z" />
    <glyph glyph-name="c_t" horiz-adv-x="815" 
d="M402 82l35 -52c-40 -27 -82 -42 -133 -42c-152 0 -258 110 -258 256c0 143 107 256 256 256c45 0 87 -13 122 -33l-25 -57c-27 18 -69 28 -102 28c-111 0 -181 -89 -181 -194c0 -110 70 -194 183 -194c31 0 79 14 103 32zM789 426h-142v-269c0 -88 30 -104 75 -104
c18 0 38 5 60 13l17 -54c-22 -12 -49 -21 -78 -21c-95 0 -142 57 -142 158v277h-69v62h69v122h68v-122h142v-62z" />
    <glyph glyph-name="c_h" horiz-adv-x="1064" 
d="M402 82l35 -52c-40 -27 -82 -42 -133 -42c-152 0 -258 110 -258 256c0 143 107 256 256 256c45 0 87 -13 122 -33l-25 -57c-27 18 -69 28 -102 28c-111 0 -181 -89 -181 -194c0 -110 70 -194 183 -194c31 0 79 14 103 32zM622 750v-348c39 65 99 98 174 98
c139 0 184 -89 184 -236v-264h-68v253c0 92 -17 185 -126 185c-73 0 -132 -52 -164 -114v-324h-68v750h68z" />
    <glyph glyph-name="c_k" horiz-adv-x="956" 
d="M402 82l35 -52c-40 -27 -82 -42 -133 -42c-152 0 -258 110 -258 256c0 143 107 256 256 256c45 0 87 -13 122 -33l-25 -57c-27 18 -69 28 -102 28c-111 0 -181 -89 -181 -194c0 -110 70 -194 183 -194c31 0 79 14 103 32zM925 488l-166 -196l190 -292h-83l-153 237
l-91 -107v-130h-68v750h68v-527l2 -1l220 266h81z" />
    <glyph glyph-name="T_h" horiz-adv-x="1087" 
d="M461 632h-181v-632h-74v632h-181v68h436v-68zM645 750v-348c39 65 99 98 174 98c139 0 184 -89 184 -236v-264h-68v253c0 92 -17 185 -126 185c-73 0 -132 -52 -164 -114v-324h-68v750h68z" />
    <glyph glyph-name="circumflex" unicode="&#x2c6;" horiz-adv-x="360" 
d="M212 730l99 -142l-41 -28l-88 114l-89 -114l-43 29l99 141h63z" />
    <glyph glyph-name="caron" unicode="&#x2c7;" horiz-adv-x="360" 
d="M310 711l-99 -142h-63l-99 141l43 29l89 -114l88 114z" />
    <glyph glyph-name="uni02C9" unicode="&#x2c9;" horiz-adv-x="360" 
d="M318 607h-276v58h276v-58z" />
    <glyph glyph-name="breve" unicode="&#x2d8;" horiz-adv-x="360" 
d="M313 715v-13c0 -75 -58 -134 -133 -134c-81 0 -133 59 -133 134v13h52v-13c0 -48 34 -83 81 -83s85 35 85 83v13h48z" />
    <glyph glyph-name="dieresis" unicode="&#xa8;" horiz-adv-x="360" 
d="M122 597h-70v94h70v-94zM308 597h-70v94h70v-94z" />
    <glyph glyph-name="macron" unicode="&#xaf;" horiz-adv-x="360" 
d="M318 607h-276v58h276v-58z" />
    <glyph glyph-name="degree" unicode="&#xb0;" horiz-adv-x="464" 
d="M87 548c0 80 65 145 145 145s145 -65 145 -145s-65 -145 -145 -145s-145 65 -145 145zM141 548c0 -50 41 -91 91 -91s91 41 91 91s-41 91 -91 91s-91 -41 -91 -91z" />
    <glyph glyph-name="acute" unicode="&#xb4;" horiz-adv-x="360" 
d="M287 711l-126 -153l-43 34l118 158z" />
    <glyph glyph-name="grave" unicode="`" horiz-adv-x="360" 
d="M201 558l-126 153l51 39l118 -158z" />
    <glyph glyph-name="cedilla" unicode="&#xb8;" horiz-adv-x="345" 
d="M128 10l48 -10l-28 -67l3 -1c7 7 23 16 48 16c54 0 84 -42 84 -89c0 -52 -46 -99 -106 -99c-42 0 -78 19 -98 54l52 26c10 -28 32 -32 49 -32c27 0 45 23 45 47c0 26 -15 51 -46 51c-16 0 -32 -7 -42 -26l-57 31z" />
    <glyph glyph-name="dotaccent" unicode="&#x2d9;" horiz-adv-x="360" 
d="M215 597h-70v94h70v-94z" />
    <glyph glyph-name="ring" unicode="&#x2da;" horiz-adv-x="360" 
d="M86 647c0 52 42 94 94 94s94 -42 94 -94s-42 -94 -94 -94s-94 42 -94 94zM130 647c0 -27 23 -50 50 -50s50 23 50 50s-23 50 -50 50s-50 -23 -50 -50z" />
    <glyph glyph-name="ogonek" unicode="&#x2db;" horiz-adv-x="360" 
d="M160 11l61 -6v-5c-72 -26 -104 -66 -104 -109c0 -37 17 -59 51 -59c15 0 33 7 48 19l30 -40c-22 -20 -56 -31 -89 -31c-61 0 -106 42 -106 99c0 58 37 104 109 132z" />
    <glyph glyph-name="tilde" unicode="&#x2dc;" horiz-adv-x="360" 
d="M293 680l51 6c2 -8 3 -14 3 -22c0 -46 -33 -85 -90 -85c-77 0 -103 68 -151 68c-22 0 -38 -13 -39 -33c0 -5 0 -8 1 -11l-51 -6c-2 8 -3 14 -3 22c0 46 33 85 90 85c74 0 101 -68 151 -68c22 0 38 13 39 33c0 5 0 8 -1 11z" />
    <glyph glyph-name="hungarumlaut" unicode="&#x2dd;" horiz-adv-x="360" 
d="M374 706l-124 -148l-43 34l116 153zM229 716l-126 -153l-43 34l118 158z" />
    <glyph glyph-name="perthousand" unicode="&#x2030;" horiz-adv-x="1234" 
d="M63 551c0 86 67 155 151 155s152 -69 152 -155s-68 -154 -152 -154s-151 68 -151 154zM120 551c0 -54 42 -97 94 -97c53 0 95 43 95 97c0 55 -42 98 -95 98c-52 0 -94 -43 -94 -98zM483 148c0 86 67 155 151 155s152 -69 152 -155s-68 -154 -152 -154s-151 68 -151 154z
M540 148c0 -54 42 -97 94 -97c53 0 95 43 95 97c0 55 -42 98 -95 98c-52 0 -94 -43 -94 -98zM868 148c0 86 67 155 151 155s152 -69 152 -155s-68 -154 -152 -154s-151 68 -151 154zM925 148c0 -54 42 -97 94 -97c53 0 95 43 95 97c0 55 -42 98 -95 98
c-52 0 -94 -43 -94 -98zM650 709l46 -34l-497 -684l-46 34z" />
    <glyph glyph-name="percent" unicode="%" horiz-adv-x="849" 
d="M63 551c0 86 67 155 151 155s152 -69 152 -155s-68 -154 -152 -154s-151 68 -151 154zM120 551c0 -54 42 -97 94 -97c53 0 95 43 95 97c0 55 -42 98 -95 98c-52 0 -94 -43 -94 -98zM483 148c0 86 67 155 151 155s152 -69 152 -155s-68 -154 -152 -154s-151 68 -151 154z
M540 148c0 -54 42 -97 94 -97c53 0 95 43 95 97c0 55 -42 98 -95 98c-52 0 -94 -43 -94 -98zM650 709l46 -34l-497 -684l-46 34z" />
    <glyph glyph-name="fraction" unicode="&#x2044;" horiz-adv-x="123" 
d="M287 709l46 -34l-497 -684l-46 34z" />
    <glyph glyph-name="zerosuperior" horiz-adv-x="330" 
d="M165 416c53 0 82 51 82 153s-29 153 -82 153s-82 -51 -82 -153s29 -153 82 -153zM165 775c89 0 140 -78 140 -206s-51 -206 -140 -206s-140 78 -140 206s51 206 140 206z" />
    <glyph glyph-name="onesuperior" unicode="&#xb9;" horiz-adv-x="209" 
d="M151 367h-58v334c-18 -10 -41 -21 -57 -28v56c26 13 55 28 79 42h36v-404z" />
    <glyph glyph-name="twosuperior" unicode="&#xb2;" horiz-adv-x="313" 
d="M44 367v50c42 48 101 121 136 173c15 23 32 55 32 81c0 31 -29 51 -61 51c-35 0 -61 -23 -61 -60l-56 12c6 60 65 101 121 101c59 0 115 -41 115 -105c0 -38 -23 -79 -44 -113c-29 -46 -69 -93 -104 -137h169v-53h-247z" />
    <glyph glyph-name="threesuperior" unicode="&#xb3;" horiz-adv-x="304" 
d="M90 544v58h13c41 0 91 13 91 64c0 32 -26 56 -62 56c-30 0 -55 -18 -60 -44l-50 21c14 47 57 76 109 76c69 0 120 -42 120 -107c0 -38 -22 -71 -45 -84c32 -12 65 -48 65 -96c0 -80 -61 -125 -131 -125c-49 0 -97 23 -122 70l49 25c13 -25 40 -42 75 -42s71 19 71 64
c0 43 -35 68 -82 68c-11 0 -25 0 -41 -4z" />
    <glyph glyph-name="foursuperior" horiz-adv-x="325" 
d="M22 533c48 62 120 164 174 238h57v-245h60v-53h-60v-106h-56v106h-175v60zM197 526v162c-32 -50 -85 -129 -112 -162h112z" />
    <glyph glyph-name="fivesuperior" horiz-adv-x="306" 
d="M257 718h-143c-1 -36 -5 -73 -9 -108c16 7 35 9 53 9c64 0 120 -52 120 -120c0 -76 -57 -136 -134 -136c-50 0 -101 29 -123 71l52 28c14 -32 42 -45 71 -45c48 0 76 38 76 80s-32 72 -74 72c-23 0 -45 -7 -61 -26l-41 27c6 56 12 145 14 201h199v-53z" />
    <glyph glyph-name="sixsuperior" horiz-adv-x="321" 
d="M225 790l23 -48c-71 -35 -131 -80 -153 -154c20 21 49 35 83 35c70 0 118 -58 118 -126c0 -71 -51 -134 -126 -134c-93 0 -144 81 -144 159c0 123 93 220 199 268zM166 571c-35 0 -67 -19 -82 -47c0 -55 20 -109 81 -109c46 0 74 37 74 81c0 48 -32 75 -73 75z" />
    <glyph glyph-name="sevensuperior" horiz-adv-x="268" 
d="M256 771v-45c-49 -103 -120 -262 -163 -366l-53 22c53 129 121 273 151 336h-185v53h250z" />
    <glyph glyph-name="eightsuperior" horiz-adv-x="339" 
d="M169 775c74 0 124 -49 124 -109c0 -42 -21 -68 -50 -86c37 -22 61 -52 61 -100c0 -63 -51 -117 -135 -117c-83 0 -134 54 -134 117c0 48 24 78 61 100c-29 18 -50 44 -50 86c0 60 50 109 123 109zM169 604c37 0 67 27 67 60s-30 58 -67 58c-36 0 -66 -25 -66 -58
s30 -60 66 -60zM169 416c42 0 77 28 77 66s-35 67 -77 67c-41 0 -76 -29 -76 -67s35 -66 76 -66z" />
    <glyph glyph-name="ninesuperior" horiz-adv-x="321" 
d="M96 348l-23 48c71 35 131 80 153 154c-20 -21 -49 -35 -83 -35c-70 0 -118 58 -118 126c0 71 51 134 126 134c93 0 144 -81 144 -159c0 -123 -93 -220 -199 -268zM155 567c35 0 67 19 82 47c0 55 -20 109 -81 109c-46 0 -74 -37 -74 -81c0 -48 32 -75 73 -75z" />
    <glyph glyph-name="parenleftsuperior" horiz-adv-x="209" 
d="M215 306l-18 -43c-90 55 -162 142 -162 288c0 142 70 228 162 285l19 -43c-65 -43 -125 -118 -125 -242c0 -127 57 -203 124 -245z" />
    <glyph glyph-name="parenrightsuperior" horiz-adv-x="209" 
d="M11 263l-18 43c67 42 125 118 125 245c0 124 -61 199 -125 242l19 43c92 -57 162 -143 162 -285c0 -146 -72 -233 -163 -288z" />
    <glyph glyph-name="hyphensuperior" unicode="&#xf6e6;" horiz-adv-x="275" 
d="M214 512h-153v53h153v-53z" />
    <glyph glyph-name="commasuperior" unicode="&#xf6e2;" horiz-adv-x="167" 
d="M116 439l-41 -153h-59l32 153h68z" />
    <glyph glyph-name="periodsuperior" unicode="&#xf6e8;" horiz-adv-x="164" 
d="M116 367h-68v73h68v-73z" />
    <glyph glyph-name="minussuperior" horiz-adv-x="340" 
d="M34 577h272v-51h-272v51z" />
    <glyph glyph-name="plussuperior" horiz-adv-x="331" 
d="M140 401v125h-125v51h125v125h51v-125h125v-51h-125v-125h-51z" />
    <glyph glyph-name="equalsuperior" horiz-adv-x="340" 
d="M34 509h272v-51h-272v51zM34 645h272v-51h-272v51z" />
    <glyph glyph-name="a.sup" horiz-adv-x="335" 
d="M169 556c16 0 36 -2 62 -8v10c0 47 -18 74 -70 74c-37 0 -71 -12 -97 -25l-18 46c34 17 80 30 125 30c91 0 117 -55 117 -128v-188h-52l-3 32c-22 -28 -52 -39 -89 -39c-58 0 -110 31 -110 96c0 77 70 100 135 100zM231 506c-24 5 -41 7 -56 7c-38 0 -85 -10 -85 -55
c0 -35 27 -51 57 -51c33 0 58 16 84 37v62z" />
    <glyph glyph-name="b.sup" horiz-adv-x="384" 
d="M109 817v-186c23 38 65 52 98 52c84 0 151 -70 151 -162c0 -87 -64 -161 -154 -161c-31 0 -71 12 -95 46l-3 -39h-54v450h57zM198 630c-33 0 -71 -18 -89 -58v-113c21 -31 55 -46 89 -46c71 0 101 60 101 109c0 54 -35 108 -101 108z" />
    <glyph glyph-name="c.sup" horiz-adv-x="286" 
d="M252 435l27 -44c-26 -21 -59 -31 -100 -31c-90 0 -153 67 -153 161c0 87 66 162 157 162c36 0 65 -11 92 -28l-26 -46c-18 13 -42 21 -65 21c-53 0 -99 -46 -99 -109c0 -67 47 -109 98 -109c24 0 49 8 69 23z" />
    <glyph glyph-name="d.sup" horiz-adv-x="384" 
d="M278 367l-3 42c-21 -34 -65 -49 -98 -49c-84 0 -151 70 -151 162c0 87 64 161 154 161c31 0 71 -13 95 -41v175h57v-450h-54zM186 413c33 0 72 19 89 59v111c-21 31 -55 47 -89 47c-71 0 -101 -60 -101 -109c0 -54 35 -108 101 -108z" />
    <glyph glyph-name="e.sup" horiz-adv-x="347" 
d="M274 461l42 -26c-34 -51 -72 -75 -138 -75c-96 0 -152 70 -152 159c0 93 67 164 153 164c84 0 141 -62 141 -143c0 -11 -2 -25 -3 -35h-234c5 -51 42 -94 98 -94c45 0 73 14 93 50zM182 632c-52 0 -83 -34 -94 -79h174c-3 45 -36 79 -80 79z" />
    <glyph glyph-name="f.sup" horiz-adv-x="218" 
d="M232 812l-18 -48c-13 4 -23 7 -40 7c-42 0 -48 -26 -48 -65v-31h82v-53h-82v-255h-57v255h-35v53h35v33c0 71 21 116 103 116c19 0 42 -6 60 -12z" />
    <glyph glyph-name="g.sup" horiz-adv-x="379" 
d="M186 420c33 0 71 18 89 58v106c-21 31 -55 46 -89 46c-71 0 -101 -60 -101 -106c0 -52 35 -104 101 -104zM275 374v45c-23 -38 -65 -52 -98 -52c-84 0 -151 68 -151 158c0 84 64 158 154 158c31 0 71 -12 95 -46l3 38h54v-288c0 -113 -72 -154 -153 -154
c-44 0 -98 13 -135 41l21 48c31 -23 71 -36 114 -36c52 0 96 29 96 88z" />
    <glyph glyph-name="h.sup" horiz-adv-x="368" 
d="M109 367h-57v450h57v-189c21 32 52 55 95 55c85 0 116 -63 116 -145v-171h-57v156c0 54 -2 107 -68 107c-34 0 -69 -23 -86 -54v-209z" />
    <glyph glyph-name="i.sup" horiz-adv-x="161" 
d="M109 367h-57v308h57v-308zM109 729h-57v65h57v-65z" />
    <glyph glyph-name="j.sup" horiz-adv-x="183" 
d="M-20 247l17 47c7 -3 22 -6 32 -6c37 0 45 15 45 50v337h57v-330c0 -60 -17 -110 -92 -110c-21 0 -42 5 -59 12zM131 729h-57v65h57v-65z" />
    <glyph glyph-name="k.sup" horiz-adv-x="318" 
d="M109 817v-295h1l125 153h70l-110 -127l118 -181h-70l-87 136l-47 -56v-80h-57v450h57z" />
    <glyph glyph-name="l.sup" horiz-adv-x="161" 
d="M109 817v-450h-57v450h57z" />
    <glyph glyph-name="m.sup" horiz-adv-x="561" 
d="M109 367h-57v308h54l2 -48c21 33 51 56 91 56c49 0 79 -22 96 -58c33 48 72 58 106 58c83 0 112 -63 112 -145v-171h-57v156c0 54 -2 107 -64 107c-27 0 -64 -21 -83 -57c1 -11 2 -23 2 -35v-171h-57v156c0 54 -2 107 -64 107c-29 0 -64 -23 -81 -54v-209z" />
    <glyph glyph-name="n.sup" horiz-adv-x="368" 
d="M109 367h-57v308h54l2 -48c21 33 53 56 96 56c85 0 116 -63 116 -145v-171h-57v156c0 54 -2 107 -68 107c-34 0 -69 -23 -86 -54v-209z" />
    <glyph glyph-name="o.sup" horiz-adv-x="364" 
d="M182 683c90 0 156 -72 156 -162c0 -89 -66 -161 -156 -161s-156 72 -156 161c0 90 66 162 156 162zM279 521c0 60 -39 109 -97 109s-97 -49 -97 -109c0 -59 39 -108 97 -108s97 49 97 108z" />
    <glyph glyph-name="p.sup" horiz-adv-x="384" 
d="M106 675l3 -41c21 34 65 49 98 49c84 0 151 -70 151 -162c0 -87 -64 -161 -154 -161c-31 0 -71 13 -95 41v-188h-57v462h54zM198 630c-33 0 -72 -19 -89 -59v-111c21 -31 55 -47 89 -47c71 0 101 60 101 109c0 54 -35 108 -101 108z" />
    <glyph glyph-name="q.sup" horiz-adv-x="384" 
d="M275 213v199c-23 -38 -65 -52 -98 -52c-84 0 -151 70 -151 162c0 87 64 161 154 161c31 0 71 -12 95 -46l3 38h54v-462h-57zM186 413c33 0 71 18 89 58v113c-21 31 -55 46 -89 46c-71 0 -101 -60 -101 -109c0 -54 35 -108 101 -108z" />
    <glyph glyph-name="r.sup" horiz-adv-x="220" 
d="M109 367h-57v308h54l2 -47c17 30 42 55 76 55c11 0 20 -1 32 -4l-13 -61c-8 4 -16 6 -27 6c-30 0 -53 -17 -67 -45v-212z" />
    <glyph glyph-name="s.sup" horiz-adv-x="286" 
d="M245 647l-36 -37c-14 13 -39 24 -61 24c-28 0 -45 -16 -45 -36c0 -23 26 -35 53 -45c42 -16 96 -40 96 -97c0 -68 -55 -96 -111 -96c-42 0 -83 17 -110 49l39 32c20 -21 44 -32 70 -32c29 0 55 14 55 45c0 22 -23 32 -51 43c-43 16 -94 35 -94 96c0 60 45 90 99 90
c35 0 71 -13 96 -36z" />
    <glyph glyph-name="t.sup" horiz-adv-x="227" 
d="M197 421l16 -46c-14 -9 -37 -15 -57 -15c-76 0 -91 57 -91 112v150h-41v53h38l5 71h55v-71h84v-53h-84v-136c0 -34 0 -73 39 -73c16 0 27 4 36 8z" />
    <glyph glyph-name="u.sup" horiz-adv-x="368" 
d="M259 675h57v-308h-54l-2 48c-21 -33 -53 -56 -96 -56c-85 0 -116 63 -116 145v171h57v-156c0 -54 2 -107 68 -107c34 0 69 23 86 54v209z" />
    <glyph glyph-name="v.sup" horiz-adv-x="297" 
d="M149 442h1l80 233h62l-121 -308h-49l-117 308h63z" />
    <glyph glyph-name="w.sup" horiz-adv-x="444" 
d="M222 596l-69 -229h-63l-85 308h61l58 -235h1l69 235h59l62 -233h2l63 233h59l-91 -308h-61z" />
    <glyph glyph-name="x.sup" horiz-adv-x="311" 
d="M13 675h73l74 -108l74 108h72l-113 -150l113 -158h-74l-77 113l-78 -113h-72l116 154z" />
    <glyph glyph-name="y.sup" horiz-adv-x="295" 
d="M149 442h1l80 233h62l-173 -442l-50 19l49 124l-113 299h63z" />
    <glyph glyph-name="z.sup" horiz-adv-x="280" 
d="M35 395l133 227h-139v53h217v-27l-132 -227h143v-54h-222v28z" />
    <glyph glyph-name="zeroinferior" horiz-adv-x="330" 
d="M165 -129c53 0 82 51 82 153s-29 153 -82 153s-82 -51 -82 -153s29 -153 82 -153zM165 230c89 0 140 -78 140 -206s-51 -206 -140 -206s-140 78 -140 206s51 206 140 206z" />
    <glyph glyph-name="oneinferior" horiz-adv-x="209" 
d="M151 -178h-58v334c-18 -10 -41 -21 -57 -28v56c26 13 55 28 79 42h36v-404z" />
    <glyph glyph-name="twoinferior" horiz-adv-x="313" 
d="M44 -177v50c42 48 101 121 136 173c15 23 32 55 32 81c0 31 -29 51 -61 51c-35 0 -61 -23 -61 -60l-56 12c6 60 65 101 121 101c59 0 115 -41 115 -105c0 -38 -23 -79 -44 -113c-29 -46 -69 -93 -104 -137h169v-53h-247z" />
    <glyph glyph-name="threeinferior" horiz-adv-x="304" 
d="M90 -1v58h13c41 0 91 13 91 64c0 32 -26 56 -62 56c-30 0 -55 -18 -60 -44l-50 21c14 47 57 76 109 76c69 0 120 -42 120 -107c0 -38 -22 -71 -45 -84c32 -12 65 -48 65 -96c0 -80 -61 -125 -131 -125c-49 0 -97 23 -122 70l49 25c13 -25 40 -42 75 -42s71 19 71 64
c0 43 -35 68 -82 68c-11 0 -25 0 -41 -4z" />
    <glyph glyph-name="fourinferior" horiz-adv-x="325" 
d="M22 -12c48 62 120 164 174 238h57v-245h60v-53h-60v-106h-56v106h-175v60zM197 -19v162c-32 -50 -85 -129 -112 -162h112z" />
    <glyph glyph-name="fiveinferior" horiz-adv-x="306" 
d="M257 173h-143c-1 -36 -5 -73 -9 -108c16 7 35 9 53 9c64 0 120 -52 120 -120c0 -76 -57 -136 -134 -136c-50 0 -101 29 -123 71l52 28c14 -32 42 -45 71 -45c48 0 76 38 76 80s-32 72 -74 72c-23 0 -45 -7 -61 -26l-41 27c6 56 12 145 14 201h199v-53z" />
    <glyph glyph-name="sixinferior" horiz-adv-x="321" 
d="M225 245l23 -48c-71 -35 -131 -80 -153 -154c20 21 49 35 83 35c70 0 118 -58 118 -126c0 -71 -51 -134 -126 -134c-93 0 -144 81 -144 159c0 123 93 220 199 268zM166 26c-35 0 -67 -19 -82 -47c0 -55 20 -109 81 -109c46 0 74 37 74 81c0 48 -32 75 -73 75z" />
    <glyph glyph-name="seveninferior" horiz-adv-x="268" 
d="M256 226v-45c-49 -103 -120 -262 -163 -366l-53 22c53 129 121 273 151 336h-185v53h250z" />
    <glyph glyph-name="eightinferior" horiz-adv-x="339" 
d="M169 230c74 0 124 -49 124 -109c0 -42 -21 -68 -50 -86c37 -22 61 -52 61 -100c0 -63 -51 -117 -135 -117c-83 0 -134 54 -134 117c0 48 24 78 61 100c-29 18 -50 44 -50 86c0 60 50 109 123 109zM169 59c37 0 67 27 67 60s-30 58 -67 58c-36 0 -66 -25 -66 -58
s30 -60 66 -60zM169 -129c42 0 77 28 77 66s-35 67 -77 67c-41 0 -76 -29 -76 -67s35 -66 76 -66z" />
    <glyph glyph-name="nineinferior" horiz-adv-x="321" 
d="M96 -197l-23 48c71 35 131 80 153 154c-20 -21 -49 -35 -83 -35c-70 0 -118 58 -118 126c0 71 51 134 126 134c93 0 144 -81 144 -159c0 -123 -93 -220 -199 -268zM155 22c35 0 67 19 82 47c0 55 -20 109 -81 109c-46 0 -74 -37 -74 -81c0 -48 32 -75 73 -75z" />
    <glyph glyph-name="parenleftinferior" horiz-adv-x="209" 
d="M215 -239l-18 -43c-90 55 -162 142 -162 288c0 142 70 228 162 285l19 -43c-65 -43 -125 -118 -125 -242c0 -127 57 -203 124 -245z" />
    <glyph glyph-name="parenrightinferior" horiz-adv-x="209" 
d="M11 -282l-18 43c67 42 125 118 125 245c0 124 -61 199 -125 242l19 43c92 -57 162 -143 162 -285c0 -146 -72 -233 -163 -288z" />
    <glyph glyph-name="hypheninferior" unicode="&#xf6e5;" horiz-adv-x="275" 
d="M214 -33h-153v53h153v-53z" />
    <glyph glyph-name="commainferior" unicode="&#xf6e1;" horiz-adv-x="167" 
d="M116 -106l-41 -153h-59l32 153h68z" />
    <glyph glyph-name="periodinferior" unicode="&#xf6e7;" horiz-adv-x="164" 
d="M116 -178h-68v73h68v-73z" />
    <glyph glyph-name="minusinferior" horiz-adv-x="340" 
d="M34 32h272v-51h-272v51z" />
    <glyph glyph-name="plusinferior" horiz-adv-x="331" 
d="M140 -144v125h-125v51h125v125h51v-125h125v-51h-125v-125h-51z" />
    <glyph glyph-name="equalinferior" horiz-adv-x="340" 
d="M34 -36h272v-51h-272v51zM34 100h272v-51h-272v51z" />
    <glyph glyph-name="a.sinf" horiz-adv-x="335" 
d="M169 11c16 0 36 -2 62 -8v10c0 47 -18 74 -70 74c-37 0 -71 -12 -97 -25l-18 46c34 17 80 30 125 30c91 0 117 -55 117 -128v-188h-52l-3 32c-22 -28 -52 -39 -89 -39c-58 0 -110 31 -110 96c0 77 70 100 135 100zM231 -39c-24 5 -41 7 -56 7c-38 0 -85 -10 -85 -55
c0 -35 27 -51 57 -51c33 0 58 16 84 37v62z" />
    <glyph glyph-name="b.sinf" horiz-adv-x="384" 
d="M109 272v-186c23 38 65 52 98 52c84 0 151 -70 151 -162c0 -87 -64 -161 -154 -161c-31 0 -71 12 -95 46l-3 -39h-54v450h57zM198 85c-33 0 -71 -18 -89 -58v-113c21 -31 55 -46 89 -46c71 0 101 60 101 109c0 54 -35 108 -101 108z" />
    <glyph glyph-name="c.sinf" horiz-adv-x="286" 
d="M252 -110l27 -44c-26 -21 -59 -31 -100 -31c-90 0 -153 67 -153 161c0 87 66 162 157 162c36 0 65 -11 92 -28l-26 -46c-18 13 -42 21 -65 21c-53 0 -99 -46 -99 -109c0 -67 47 -109 98 -109c24 0 49 8 69 23z" />
    <glyph glyph-name="d.sinf" horiz-adv-x="384" 
d="M278 -178l-3 42c-21 -34 -65 -49 -98 -49c-84 0 -151 70 -151 162c0 87 64 161 154 161c31 0 71 -13 95 -41v175h57v-450h-54zM186 -132c33 0 72 19 89 59v111c-21 31 -55 47 -89 47c-71 0 -101 -60 -101 -109c0 -54 35 -108 101 -108z" />
    <glyph glyph-name="e.sinf" horiz-adv-x="347" 
d="M274 -84l42 -26c-34 -51 -72 -75 -138 -75c-96 0 -152 70 -152 159c0 93 67 164 153 164c84 0 141 -62 141 -143c0 -11 -2 -25 -3 -35h-234c5 -51 42 -94 98 -94c45 0 73 14 93 50zM182 87c-52 0 -83 -34 -94 -79h174c-3 45 -36 79 -80 79z" />
    <glyph glyph-name="f.sinf" horiz-adv-x="218" 
d="M232 267l-18 -48c-13 4 -23 7 -40 7c-42 0 -48 -26 -48 -65v-31h82v-53h-82v-255h-57v255h-35v53h35v33c0 71 21 116 103 116c19 0 42 -6 60 -12z" />
    <glyph glyph-name="g.sinf" horiz-adv-x="379" 
d="M186 -125c33 0 71 18 89 58v106c-21 31 -55 46 -89 46c-71 0 -101 -60 -101 -106c0 -52 35 -104 101 -104zM275 -171v45c-23 -38 -65 -52 -98 -52c-84 0 -151 68 -151 158c0 84 64 158 154 158c31 0 71 -12 95 -46l3 38h54v-288c0 -113 -72 -154 -153 -154
c-44 0 -98 13 -135 41l21 48c31 -23 71 -36 114 -36c52 0 96 29 96 88z" />
    <glyph glyph-name="h.sinf" horiz-adv-x="368" 
d="M109 -178h-57v450h57v-189c21 32 52 55 95 55c85 0 116 -63 116 -145v-171h-57v156c0 54 -2 107 -68 107c-34 0 -69 -23 -86 -54v-209z" />
    <glyph glyph-name="i.sinf" horiz-adv-x="161" 
d="M109 -178h-57v308h57v-308zM109 184h-57v65h57v-65z" />
    <glyph glyph-name="j.sinf" horiz-adv-x="183" 
d="M-20 -298l17 47c7 -3 22 -6 32 -6c37 0 45 15 45 50v337h57v-330c0 -60 -17 -110 -92 -110c-21 0 -42 5 -59 12zM131 184h-57v65h57v-65z" />
    <glyph glyph-name="k.sinf" horiz-adv-x="318" 
d="M109 272v-295h1l125 153h70l-110 -127l118 -181h-70l-87 136l-47 -56v-80h-57v450h57z" />
    <glyph glyph-name="l.sinf" horiz-adv-x="161" 
d="M109 272v-450h-57v450h57z" />
    <glyph glyph-name="m.sinf" horiz-adv-x="561" 
d="M109 -178h-57v308h54l2 -48c21 33 51 56 91 56c49 0 79 -22 96 -58c33 48 72 58 106 58c83 0 112 -63 112 -145v-171h-57v156c0 54 -2 107 -64 107c-27 0 -64 -21 -83 -57c1 -11 2 -23 2 -35v-171h-57v156c0 54 -2 107 -64 107c-29 0 -64 -23 -81 -54v-209z" />
    <glyph glyph-name="n.sinf" horiz-adv-x="368" 
d="M109 -178h-57v308h54l2 -48c21 33 53 56 96 56c85 0 116 -63 116 -145v-171h-57v156c0 54 -2 107 -68 107c-34 0 -69 -23 -86 -54v-209z" />
    <glyph glyph-name="o.sinf" horiz-adv-x="364" 
d="M182 138c90 0 156 -72 156 -162c0 -89 -66 -161 -156 -161s-156 72 -156 161c0 90 66 162 156 162zM279 -24c0 60 -39 109 -97 109s-97 -49 -97 -109c0 -59 39 -108 97 -108s97 49 97 108z" />
    <glyph glyph-name="p.sinf" horiz-adv-x="384" 
d="M106 130l3 -41c21 34 65 49 98 49c84 0 151 -70 151 -162c0 -87 -64 -161 -154 -161c-31 0 -71 13 -95 41v-188h-57v462h54zM198 85c-33 0 -72 -19 -89 -59v-111c21 -31 55 -47 89 -47c71 0 101 60 101 109c0 54 -35 108 -101 108z" />
    <glyph glyph-name="q.sinf" horiz-adv-x="384" 
d="M275 -332v199c-23 -38 -65 -52 -98 -52c-84 0 -151 70 -151 162c0 87 64 161 154 161c31 0 71 -12 95 -46l3 38h54v-462h-57zM186 -132c33 0 71 18 89 58v113c-21 31 -55 46 -89 46c-71 0 -101 -60 -101 -109c0 -54 35 -108 101 -108z" />
    <glyph glyph-name="r.sinf" horiz-adv-x="220" 
d="M109 -178h-57v308h54l2 -47c17 30 42 55 76 55c11 0 20 -1 32 -4l-13 -61c-8 4 -16 6 -27 6c-30 0 -53 -17 -67 -45v-212z" />
    <glyph glyph-name="s.sinf" horiz-adv-x="286" 
d="M245 102l-36 -37c-14 13 -39 24 -61 24c-28 0 -45 -16 -45 -36c0 -23 26 -35 53 -45c42 -16 96 -40 96 -97c0 -68 -55 -96 -111 -96c-42 0 -83 17 -110 49l39 32c20 -21 44 -32 70 -32c29 0 55 14 55 45c0 22 -23 32 -51 43c-43 16 -94 35 -94 96c0 60 45 90 99 90
c35 0 71 -13 96 -36z" />
    <glyph glyph-name="t.sinf" horiz-adv-x="227" 
d="M197 -124l16 -46c-14 -9 -37 -15 -57 -15c-76 0 -91 57 -91 112v150h-41v53h38l5 71h55v-71h84v-53h-84v-136c0 -34 0 -73 39 -73c16 0 27 4 36 8z" />
    <glyph glyph-name="u.sinf" horiz-adv-x="368" 
d="M259 130h57v-308h-54l-2 48c-21 -33 -53 -56 -96 -56c-85 0 -116 63 -116 145v171h57v-156c0 -54 2 -107 68 -107c34 0 69 23 86 54v209z" />
    <glyph glyph-name="v.sinf" horiz-adv-x="297" 
d="M149 -103h1l80 233h62l-121 -308h-49l-117 308h63z" />
    <glyph glyph-name="w.sinf" horiz-adv-x="444" 
d="M222 51l-69 -229h-63l-85 308h61l58 -235h1l69 235h59l62 -233h2l63 233h59l-91 -308h-61z" />
    <glyph glyph-name="x.sinf" horiz-adv-x="311" 
d="M13 130h73l74 -108l74 108h72l-113 -150l113 -158h-74l-77 113l-78 -113h-72l116 154z" />
    <glyph glyph-name="y.sinf" horiz-adv-x="295" 
d="M149 -103h1l80 233h62l-173 -442l-50 19l49 124l-113 299h63z" />
    <glyph glyph-name="z.sinf" horiz-adv-x="280" 
d="M35 -150l133 227h-139v53h217v-27l-132 -227h143v-54h-222v28z" />
    <glyph glyph-name="zero.num" horiz-adv-x="301" 
d="M151 654c-46 0 -71 -47 -71 -135s25 -135 71 -135c45 0 70 47 70 135s-25 135 -70 135zM277 519c0 -116 -46 -185 -126 -185c-81 0 -127 69 -127 185s46 185 127 185c80 0 126 -69 126 -185z" />
    <glyph glyph-name="one.num" horiz-adv-x="206" 
d="M149 338h-54v293c-16 -7 -35 -15 -51 -21v50c27 14 51 26 75 40h30v-362z" />
    <glyph glyph-name="two.num" horiz-adv-x="288" 
d="M267 338h-228v46c40 44 93 109 125 156c13 19 28 46 28 68c0 28 -24 46 -54 46c-31 0 -52 -22 -52 -57l-56 11c4 55 58 96 112 96c53 0 107 -37 107 -98c0 -33 -19 -69 -39 -100c-27 -40 -61 -81 -94 -118h151v-50z" />
    <glyph glyph-name="three.num" horiz-adv-x="288" 
d="M88 495l1 53c20 0 36 1 48 4c28 9 46 27 46 55c0 27 -22 48 -57 48c-24 0 -46 -14 -53 -41l-50 20c16 43 56 70 103 70c63 0 113 -39 113 -97c0 -31 -19 -61 -43 -75c36 -13 60 -47 60 -89c0 -67 -53 -109 -122 -109c-46 0 -93 22 -115 67l48 24c14 -28 40 -42 69 -42
c34 0 63 20 63 57s-32 59 -75 59c-10 0 -22 0 -36 -4z" />
    <glyph glyph-name="four.num" horiz-adv-x="298" 
d="M21 485c42 56 111 150 156 215h54v-220h55v-49h-55v-93h-54v93h-156v54zM177 480v138c-28 -41 -71 -109 -93 -138h93z" />
    <glyph glyph-name="five.num" horiz-adv-x="284" 
d="M242 650h-129c-1 -32 -5 -62 -7 -93c14 6 30 8 46 8c57 0 107 -48 107 -110c0 -70 -53 -121 -122 -121c-48 0 -93 25 -115 65l49 25c12 -29 38 -42 65 -42c42 0 66 32 66 70c0 39 -28 66 -65 66c-23 0 -40 -7 -56 -25l-35 28c5 50 11 130 13 179h183v-50z" />
    <glyph glyph-name="six.num" horiz-adv-x="295" 
d="M205 720l22 -44c-66 -32 -118 -68 -139 -133c19 18 44 28 73 28c66 0 110 -52 110 -112c0 -68 -46 -125 -118 -125c-84 0 -129 74 -129 146c0 112 84 197 181 240zM80 482c0 -51 20 -100 71 -100c40 0 64 33 64 72c0 42 -26 68 -64 68c-29 0 -57 -15 -71 -40z" />
    <glyph glyph-name="seven.num" horiz-adv-x="246" 
d="M234 662c-43 -93 -112 -245 -148 -334l-50 24c52 120 110 237 140 298h-170v50h228v-38z" />
    <glyph glyph-name="eight.num" horiz-adv-x="313" 
d="M278 438c0 -53 -44 -104 -121 -104c-78 0 -122 51 -122 104c0 48 23 71 54 90c-25 15 -45 38 -45 77c0 54 47 99 113 99c65 0 112 -45 112 -99c0 -39 -20 -62 -45 -77c31 -19 54 -42 54 -90zM100 602c0 -29 25 -53 57 -53c31 0 56 24 56 53c0 31 -24 53 -56 53
c-33 0 -57 -22 -57 -53zM92 442c0 -33 27 -59 65 -59c37 0 64 26 64 59c0 34 -27 61 -64 61c-38 0 -65 -27 -65 -61z" />
    <glyph glyph-name="nine.num" horiz-adv-x="295" 
d="M90 318l-22 44c66 32 118 68 139 133c-19 -18 -44 -28 -73 -28c-66 0 -110 52 -110 112c0 68 46 125 118 125c84 0 129 -74 129 -146c0 -112 -84 -197 -181 -240zM215 556c0 51 -20 100 -71 100c-40 0 -64 -33 -64 -72c0 -42 26 -68 64 -68c29 0 57 15 71 40z" />
    <glyph glyph-name="parenleft.ordn" horiz-adv-x="237" 
d="M236 314l-16 -41c-100 61 -177 157 -177 317c0 163 76 256 174 318l20 -41c-73 -48 -140 -132 -140 -277c0 -141 64 -228 139 -276z" />
    <glyph glyph-name="parenright.ordn" horiz-adv-x="237" 
d="M17 273l-16 41c75 48 139 135 139 276c0 145 -66 229 -140 277l20 41c98 -62 174 -155 174 -318c0 -160 -77 -256 -177 -317z" />
    <glyph glyph-name="hyphen.ordn" horiz-adv-x="308" 
d="M239 549h-170v53h170v-53z" />
    <glyph glyph-name="comma.ordn" horiz-adv-x="185" 
d="M120 462l-43 -165h-57l34 165h66z" />
    <glyph glyph-name="period.ordn" horiz-adv-x="191" 
d="M130 387h-68v75h68v-75z" />
    <glyph glyph-name="minus.ordn" horiz-adv-x="383" 
d="M45 599h293v-50h-293v50z" />
    <glyph glyph-name="plus.ordn" horiz-adv-x="365" 
d="M157 408v141h-141v50h141v141h50v-141h141v-50h-141v-141h-50z" />
    <glyph glyph-name="equal.ordn" horiz-adv-x="383" 
d="M45 530h293v-50h-293v50zM45 668h293v-50h-293v50z" />
    <glyph glyph-name="a.ordn" horiz-adv-x="377" 
d="M261 585v17c0 52 -20 81 -78 81c-42 0 -81 -14 -110 -27l-18 47c37 16 87 31 133 31c104 0 129 -60 129 -142v-206h-52l-3 38c-27 -32 -56 -46 -98 -46c-65 0 -123 33 -123 105c0 85 77 111 152 111c16 0 43 -2 68 -9zM196 549c-41 0 -100 -10 -100 -63
c0 -42 32 -59 70 -59c36 0 66 18 95 44v70c-25 6 -46 8 -65 8z" />
    <glyph glyph-name="b.ordn" horiz-adv-x="433" 
d="M122 886v-209c27 42 76 57 110 57c94 0 168 -80 168 -179c0 -92 -68 -177 -170 -177c-32 0 -74 9 -107 48l-2 -40h-55v500h56zM228 680c-38 0 -87 -24 -106 -68v-124c25 -37 69 -56 105 -56c80 0 115 64 115 125c0 66 -43 123 -114 123z" />
    <glyph glyph-name="c.ordn" horiz-adv-x="316" 
d="M280 455l26 -45c-25 -20 -62 -32 -102 -32c-96 0 -171 75 -171 178c0 96 76 178 174 178c36 0 67 -10 95 -27l-25 -49c-19 14 -48 22 -74 22c-59 0 -112 -51 -112 -123c0 -78 55 -125 113 -125c22 0 57 8 76 23z" />
    <glyph glyph-name="d.ordn" horiz-adv-x="433" 
d="M311 687v199h56v-500h-55l-2 48c-24 -39 -72 -56 -109 -56c-94 0 -168 80 -168 179c0 92 68 177 170 177c36 0 80 -15 108 -47zM206 680c-80 0 -115 -64 -115 -125c0 -66 43 -123 114 -123c38 0 87 24 106 68v124c-25 37 -69 56 -105 56z" />
    <glyph glyph-name="e.ordn" horiz-adv-x="385" 
d="M307 485l40 -25c-35 -54 -78 -82 -149 -82c-108 0 -165 79 -165 178c0 100 73 178 166 178c92 0 152 -67 152 -158c0 -11 -1 -27 -2 -35h-262c5 -60 47 -112 114 -112c49 0 83 15 106 56zM202 683c-60 0 -98 -41 -110 -94h204c-2 52 -42 94 -94 94z" />
    <glyph glyph-name="f.ordn" horiz-adv-x="249" 
d="M253 880l-16 -50c-14 7 -26 10 -43 10c-51 0 -57 -33 -57 -81v-33h93v-54h-93v-286h-56v286h-38v54h38v40c0 76 22 128 110 128c20 0 46 -7 62 -14z" />
    <glyph glyph-name="g.ordn" horiz-adv-x="427" 
d="M205 440c38 0 87 24 106 68v116c-25 37 -69 56 -105 56c-80 0 -115 -64 -115 -121c0 -62 43 -119 114 -119zM311 443c-27 -42 -76 -57 -110 -57c-94 0 -168 80 -168 175c0 88 68 173 170 173c32 0 74 -9 107 -48l2 40h55v-318c0 -129 -82 -172 -169 -172
c-51 0 -107 16 -148 45l21 50c33 -23 91 -41 128 -41c57 0 112 27 112 102v51z" />
    <glyph glyph-name="h.ordn" horiz-adv-x="416" 
d="M122 886v-213c30 42 71 61 109 61c101 0 125 -83 125 -177v-171h-56v167c0 63 -2 127 -80 127c-38 0 -79 -28 -98 -62v-232h-56v500h56z" />
    <glyph glyph-name="i.ordn" horiz-adv-x="188" 
d="M122 386h-56v340h56v-340zM122 789h-56v69h56v-69z" />
    <glyph glyph-name="j.ordn" horiz-adv-x="195" 
d="M-27 253l16 46c8 -4 21 -7 31 -7c49 0 54 32 54 79v355h56v-368c0 -63 -16 -120 -96 -120c-21 0 -44 5 -61 15zM130 789h-56v69h56v-69z" />
    <glyph glyph-name="k.ordn" horiz-adv-x="352" 
d="M122 886v-333l142 173h69l-118 -139l131 -201h-68l-101 158l-55 -65v-93h-56v500h56z" />
    <glyph glyph-name="l.ordn" horiz-adv-x="187" 
d="M121 886v-500h-55v500h55z" />
    <glyph glyph-name="m.ordn" horiz-adv-x="624" 
d="M122 386h-56v340h54l2 -53c30 42 74 61 106 61c49 0 79 -23 96 -60c30 36 74 60 126 60c99 0 114 -94 114 -176v-172h-56v168c0 50 -2 126 -74 126c-26 0 -66 -14 -96 -53c4 -21 5 -44 5 -69v-172h-56v168c0 64 0 126 -70 126c-30 0 -75 -28 -95 -62v-232z" />
    <glyph glyph-name="n.ordn" horiz-adv-x="416" 
d="M122 386h-56v340h54l2 -53c30 42 71 61 109 61c101 0 125 -83 125 -177v-171h-56v167c0 63 -2 127 -80 127c-38 0 -79 -28 -98 -62v-232z" />
    <glyph glyph-name="o.ordn" horiz-adv-x="408" 
d="M204 734c97 0 171 -79 171 -178s-74 -178 -171 -178s-171 79 -171 178s74 178 171 178zM317 556c0 70 -48 124 -113 124s-113 -54 -113 -124s48 -124 113 -124s113 54 113 124z" />
    <glyph glyph-name="p.ordn" horiz-adv-x="433" 
d="M122 425v-205h-56v506h55l2 -48c24 39 72 56 109 56c94 0 168 -80 168 -179c0 -92 -68 -177 -170 -177c-36 0 -80 15 -108 47zM227 432c80 0 115 64 115 125c0 66 -43 123 -114 123c-38 0 -87 -24 -106 -68v-124c25 -37 69 -56 105 -56z" />
    <glyph glyph-name="q.ordn" horiz-adv-x="433" 
d="M311 220v215c-27 -42 -76 -57 -110 -57c-94 0 -168 80 -168 179c0 92 68 177 170 177c32 0 74 -9 107 -48l2 40h55v-506h-56zM205 432c38 0 87 24 106 68v124c-25 37 -69 56 -105 56c-80 0 -115 -64 -115 -125c0 -66 43 -123 114 -123z" />
    <glyph glyph-name="r.ordn" horiz-adv-x="256" 
d="M204 734c12 0 22 -1 35 -4l-9 -58c-10 3 -20 4 -33 4c-32 0 -58 -16 -75 -49v-241h-56v340h54l2 -51c18 33 45 59 82 59z" />
    <glyph glyph-name="s.ordn" horiz-adv-x="317" 
d="M265 695l-39 -36c-14 15 -41 24 -63 24c-32 0 -51 -19 -51 -45c0 -27 28 -40 57 -52c46 -18 106 -42 106 -105c0 -73 -57 -103 -119 -103c-47 0 -89 18 -118 53l45 33c23 -25 46 -35 70 -35c35 0 64 20 64 53c0 29 -33 42 -68 56c-44 17 -93 37 -93 96
c0 66 49 100 106 100c37 0 77 -13 103 -39z" />
    <glyph glyph-name="t.ordn" horiz-adv-x="244" 
d="M205 441l18 -50c-14 -8 -40 -13 -62 -13c-86 0 -98 70 -98 124v170h-47v54h47l5 78h51v-78h95v-54h-95v-152c0 -38 3 -88 49 -88c16 0 28 4 37 9z" />
    <glyph glyph-name="u.ordn" horiz-adv-x="416" 
d="M294 726h56v-340h-54l-2 53c-30 -42 -71 -61 -109 -61c-101 0 -125 83 -125 177v171h56v-167c0 -63 2 -127 80 -127c38 0 79 28 98 62v232z" />
    <glyph glyph-name="v.ordn" horiz-adv-x="312" 
d="M305 726l-127 -340h-47l-124 340h63l86 -245h2l86 245h61z" />
    <glyph glyph-name="w.ordn" horiz-adv-x="485" 
d="M272 726l74 -260h2l72 260h58l-97 -340h-63l-76 259h-1l-79 -259h-62l-93 340h60l67 -260h2l81 260h55z" />
    <glyph glyph-name="x.ordn" horiz-adv-x="326" 
d="M319 386h-72l-85 126l-86 -126h-69l126 174l-118 166h72l82 -119l81 119h69l-122 -169z" />
    <glyph glyph-name="y.ordn" horiz-adv-x="309" 
d="M305 726l-181 -480l-50 22l51 133l-118 325h63l86 -245h2l86 245h61z" />
    <glyph glyph-name="z.ordn" horiz-adv-x="311" 
d="M46 416l150 256h-159v54h234v-27l-152 -259h163v-54h-236v30z" />
    <glyph glyph-name="zero.denom" horiz-adv-x="301" 
d="M151 316c-46 0 -71 -47 -71 -135s25 -135 71 -135c45 0 70 47 70 135s-25 135 -70 135zM277 181c0 -116 -46 -185 -126 -185c-81 0 -127 69 -127 185s46 185 127 185c80 0 126 -69 126 -185z" />
    <glyph glyph-name="one.denom" horiz-adv-x="206" 
d="M149 0h-54v293c-16 -7 -35 -15 -51 -21v50c27 14 51 26 75 40h30v-362z" />
    <glyph glyph-name="two.denom" horiz-adv-x="288" 
d="M267 0h-228v46c40 44 93 109 125 156c13 19 28 46 28 68c0 28 -24 46 -54 46c-31 0 -52 -22 -52 -57l-56 11c4 55 58 96 112 96c53 0 107 -37 107 -98c0 -33 -19 -69 -39 -100c-27 -40 -61 -81 -94 -118h151v-50z" />
    <glyph glyph-name="three.denom" horiz-adv-x="288" 
d="M88 157l1 53c20 0 36 1 48 4c28 9 46 27 46 55c0 27 -22 48 -57 48c-24 0 -46 -14 -53 -41l-50 20c16 43 56 70 103 70c63 0 113 -39 113 -97c0 -31 -19 -61 -43 -75c36 -13 60 -47 60 -89c0 -67 -53 -109 -122 -109c-46 0 -93 22 -115 67l48 24c14 -28 40 -42 69 -42
c34 0 63 20 63 57s-32 59 -75 59c-10 0 -22 0 -36 -4z" />
    <glyph glyph-name="four.denom" horiz-adv-x="298" 
d="M21 147c42 56 111 150 156 215h54v-220h55v-49h-55v-93h-54v93h-156v54zM177 142v138c-28 -41 -71 -109 -93 -138h93z" />
    <glyph glyph-name="five.denom" horiz-adv-x="284" 
d="M242 312h-129c-1 -32 -5 -62 -7 -93c14 6 30 8 46 8c57 0 107 -48 107 -110c0 -70 -53 -121 -122 -121c-48 0 -93 25 -115 65l49 25c12 -29 38 -42 65 -42c42 0 66 32 66 70c0 39 -28 66 -65 66c-23 0 -40 -7 -56 -25l-35 28c5 50 11 130 13 179h183v-50z" />
    <glyph glyph-name="six.denom" horiz-adv-x="295" 
d="M205 382l22 -44c-66 -32 -118 -68 -139 -133c19 18 44 28 73 28c66 0 110 -52 110 -112c0 -68 -46 -125 -118 -125c-84 0 -129 74 -129 146c0 112 84 197 181 240zM80 144c0 -51 20 -100 71 -100c40 0 64 33 64 72c0 42 -26 68 -64 68c-29 0 -57 -15 -71 -40z" />
    <glyph glyph-name="seven.denom" horiz-adv-x="246" 
d="M234 324c-43 -93 -112 -245 -148 -334l-50 24c52 120 110 237 140 298h-170v50h228v-38z" />
    <glyph glyph-name="eight.denom" horiz-adv-x="313" 
d="M278 100c0 -53 -44 -104 -121 -104c-78 0 -122 51 -122 104c0 48 23 71 54 90c-25 15 -45 38 -45 77c0 54 47 99 113 99c65 0 112 -45 112 -99c0 -39 -20 -62 -45 -77c31 -19 54 -42 54 -90zM100 264c0 -29 25 -53 57 -53c31 0 56 24 56 53c0 31 -24 53 -56 53
c-33 0 -57 -22 -57 -53zM92 104c0 -33 27 -59 65 -59c37 0 64 26 64 59c0 34 -27 61 -64 61c-38 0 -65 -27 -65 -61z" />
    <glyph glyph-name="nine.denom" horiz-adv-x="295" 
d="M90 -20l-22 44c66 32 118 68 139 133c-19 -18 -44 -28 -73 -28c-66 0 -110 52 -110 112c0 68 46 125 118 125c84 0 129 -74 129 -146c0 -112 -84 -197 -181 -240zM215 218c0 51 -20 100 -71 100c-40 0 -64 -33 -64 -72c0 -42 26 -68 64 -68c29 0 57 15 71 40z" />
    <glyph glyph-name="onehalf" unicode="&#xbd;" horiz-adv-x="740" 
d="M570 709l46 -34l-497 -684l-46 34zM215 338h-54v293c-16 -7 -35 -15 -51 -21v50c27 14 51 26 75 40h30v-362zM660 0h-228v46c40 44 93 109 125 156c13 19 28 46 28 68c0 28 -24 46 -54 46c-31 0 -52 -22 -52 -57l-56 11c4 55 58 96 112 96c53 0 107 -37 107 -98
c0 -33 -19 -69 -39 -100c-27 -40 -61 -81 -94 -118h151v-50z" />
    <glyph glyph-name="onethird" unicode="&#x2153;" horiz-adv-x="738" 
d="M570 709l46 -34l-497 -684l-46 34zM215 338h-54v293c-16 -7 -35 -15 -51 -21v50c27 14 51 26 75 40h30v-362zM490 157l1 53c20 0 36 1 48 4c28 9 46 27 46 55c0 27 -22 48 -57 48c-24 0 -46 -14 -53 -41l-50 20c16 43 56 70 103 70c63 0 113 -39 113 -97
c0 -31 -19 -61 -43 -75c36 -13 60 -47 60 -89c0 -67 -53 -109 -122 -109c-46 0 -93 22 -115 67l48 24c14 -28 40 -42 69 -42c34 0 63 20 63 57s-32 59 -75 59c-10 0 -22 0 -36 -4z" />
    <glyph glyph-name="twothirds" unicode="&#x2154;" horiz-adv-x="820" 
d="M651 709l46 -34l-497 -684l-46 34zM317 338h-228v46c40 44 93 109 125 156c13 19 28 46 28 68c0 28 -24 46 -54 46c-31 0 -52 -22 -52 -57l-56 11c4 55 58 96 112 96c53 0 107 -37 107 -98c0 -33 -19 -69 -39 -100c-27 -40 -61 -81 -94 -118h151v-50zM572 157l1 53
c20 0 36 1 48 4c28 9 46 27 46 55c0 27 -22 48 -57 48c-24 0 -46 -14 -53 -41l-50 20c16 43 56 70 103 70c63 0 113 -39 113 -97c0 -31 -19 -61 -43 -75c36 -13 60 -47 60 -89c0 -67 -53 -109 -122 -109c-46 0 -93 22 -115 67l48 24c14 -28 40 -42 69 -42c34 0 63 20 63 57
s-32 59 -75 59c-10 0 -22 0 -36 -4z" />
    <glyph glyph-name="onequarter" unicode="&#xbc;" horiz-adv-x="716" 
d="M570 709l46 -34l-497 -684l-46 34zM215 338h-54v293c-16 -7 -35 -15 -51 -21v50c27 14 51 26 75 40h30v-362zM371 147c42 56 111 150 156 215h54v-220h55v-49h-55v-93h-54v93h-156v54zM527 142v138c-28 -41 -71 -109 -93 -138h93z" />
    <glyph glyph-name="threequarters" unicode="&#xbe;" horiz-adv-x="777" 
d="M631 709l46 -34l-497 -684l-46 34zM149 495l1 53c20 0 36 1 48 4c28 9 46 27 46 55c0 27 -22 48 -57 48c-24 0 -46 -14 -53 -41l-50 20c16 43 56 70 103 70c63 0 113 -39 113 -97c0 -31 -19 -61 -43 -75c36 -13 60 -47 60 -89c0 -67 -53 -109 -122 -109
c-46 0 -93 22 -115 67l48 24c14 -28 40 -42 69 -42c34 0 63 20 63 57s-32 59 -75 59c-10 0 -22 0 -36 -4zM432 147c42 56 111 150 156 215h54v-220h55v-49h-55v-93h-54v93h-156v54zM588 142v138c-28 -41 -71 -109 -93 -138h93z" />
    <glyph glyph-name="onefifth" horiz-adv-x="751" 
d="M570 709l46 -34l-497 -684l-46 34zM215 338h-54v293c-16 -7 -35 -15 -51 -21v50c27 14 51 26 75 40h30v-362zM654 312h-129c-1 -32 -5 -62 -7 -93c14 6 30 8 46 8c57 0 107 -48 107 -110c0 -70 -53 -121 -122 -121c-48 0 -93 25 -115 65l49 25c12 -29 38 -42 65 -42
c42 0 66 32 66 70c0 39 -28 66 -65 66c-23 0 -40 -7 -56 -25l-35 28c5 50 11 130 13 179h183v-50z" />
    <glyph glyph-name="twofifths" horiz-adv-x="833" 
d="M651 709l46 -34l-497 -684l-46 34zM317 338h-228v46c40 44 93 109 125 156c13 19 28 46 28 68c0 28 -24 46 -54 46c-31 0 -52 -22 -52 -57l-56 11c4 55 58 96 112 96c53 0 107 -37 107 -98c0 -33 -19 -69 -39 -100c-27 -40 -61 -81 -94 -118h151v-50zM735 312h-129
c-1 -32 -5 -62 -7 -93c14 6 30 8 46 8c57 0 107 -48 107 -110c0 -70 -53 -121 -122 -121c-48 0 -93 25 -115 65l49 25c12 -29 38 -42 65 -42c42 0 66 32 66 70c0 39 -28 66 -65 66c-23 0 -40 -7 -56 -25l-35 28c5 50 11 130 13 179h183v-50z" />
    <glyph glyph-name="threefifths" horiz-adv-x="812" 
d="M631 709l46 -34l-497 -684l-46 34zM149 495l1 53c20 0 36 1 48 4c28 9 46 27 46 55c0 27 -22 48 -57 48c-24 0 -46 -14 -53 -41l-50 20c16 43 56 70 103 70c63 0 113 -39 113 -97c0 -31 -19 -61 -43 -75c36 -13 60 -47 60 -89c0 -67 -53 -109 -122 -109
c-46 0 -93 22 -115 67l48 24c14 -28 40 -42 69 -42c34 0 63 20 63 57s-32 59 -75 59c-10 0 -22 0 -36 -4zM715 312h-129c-1 -32 -5 -62 -7 -93c14 6 30 8 46 8c57 0 107 -48 107 -110c0 -70 -53 -121 -122 -121c-48 0 -93 25 -115 65l49 25c12 -29 38 -42 65 -42
c42 0 66 32 66 70c0 39 -28 66 -65 66c-23 0 -40 -7 -56 -25l-35 28c5 50 11 130 13 179h183v-50z" />
    <glyph glyph-name="fourfifths" horiz-adv-x="865" 
d="M683 709l46 -34l-497 -684l-46 34zM80 485c42 56 111 150 156 215h54v-220h55v-49h-55v-93h-54v93h-156v54zM236 480v138c-28 -41 -71 -109 -93 -138h93zM767 312h-129c-1 -32 -5 -62 -7 -93c14 6 30 8 46 8c57 0 107 -48 107 -110c0 -70 -53 -121 -122 -121
c-48 0 -93 25 -115 65l49 25c12 -29 38 -42 65 -42c42 0 66 32 66 70c0 39 -28 66 -65 66c-23 0 -40 -7 -56 -25l-35 28c5 50 11 130 13 179h183v-50z" />
    <glyph glyph-name="onesixth" horiz-adv-x="708" 
d="M570 709l46 -34l-497 -684l-46 34zM215 338h-54v293c-16 -7 -35 -15 -51 -21v50c27 14 51 26 75 40h30v-362zM562 382l22 -44c-66 -32 -118 -68 -139 -133c19 18 44 28 73 28c66 0 110 -52 110 -112c0 -68 -46 -125 -118 -125c-84 0 -129 74 -129 146
c0 112 84 197 181 240zM437 144c0 -51 20 -100 71 -100c40 0 64 33 64 72c0 42 -26 68 -64 68c-29 0 -57 -15 -71 -40z" />
    <glyph glyph-name="fivesixths" horiz-adv-x="754" 
d="M616 709l46 -34l-497 -684l-46 34zM299 650h-129c-1 -32 -5 -62 -7 -93c14 6 30 8 46 8c57 0 107 -48 107 -110c0 -70 -53 -121 -122 -121c-48 0 -93 25 -115 65l49 25c12 -29 38 -42 65 -42c42 0 66 32 66 70c0 39 -28 66 -65 66c-23 0 -40 -7 -56 -25l-35 28
c5 50 11 130 13 179h183v-50zM608 382l22 -44c-66 -32 -118 -68 -139 -133c19 18 44 28 73 28c66 0 110 -52 110 -112c0 -68 -46 -125 -118 -125c-84 0 -129 74 -129 146c0 112 84 197 181 240zM483 144c0 -51 20 -100 71 -100c40 0 64 33 64 72c0 42 -26 68 -64 68
c-29 0 -57 -15 -71 -40z" />
    <glyph glyph-name="oneeighth" unicode="&#x215b;" horiz-adv-x="754" 
d="M570 709l46 -34l-497 -684l-46 34zM215 338h-54v293c-16 -7 -35 -15 -51 -21v50c27 14 51 26 75 40h30v-362zM675 100c0 -53 -44 -104 -121 -104c-78 0 -122 51 -122 104c0 48 23 71 54 90c-25 15 -45 38 -45 77c0 54 47 99 113 99c65 0 112 -45 112 -99
c0 -39 -20 -62 -45 -77c31 -19 54 -42 54 -90zM497 264c0 -29 25 -53 57 -53c31 0 56 24 56 53c0 31 -24 53 -56 53c-33 0 -57 -22 -57 -53zM489 104c0 -33 27 -59 65 -59c37 0 64 26 64 59c0 34 -27 61 -64 61c-38 0 -65 -27 -65 -61z" />
    <glyph glyph-name="threeeighths" unicode="&#x215c;" horiz-adv-x="815" 
d="M631 709l46 -34l-497 -684l-46 34zM149 495l1 53c20 0 36 1 48 4c28 9 46 27 46 55c0 27 -22 48 -57 48c-24 0 -46 -14 -53 -41l-50 20c16 43 56 70 103 70c63 0 113 -39 113 -97c0 -31 -19 -61 -43 -75c36 -13 60 -47 60 -89c0 -67 -53 -109 -122 -109
c-46 0 -93 22 -115 67l48 24c14 -28 40 -42 69 -42c34 0 63 20 63 57s-32 59 -75 59c-10 0 -22 0 -36 -4zM736 100c0 -53 -44 -104 -121 -104c-78 0 -122 51 -122 104c0 48 23 71 54 90c-25 15 -45 38 -45 77c0 54 47 99 113 99c65 0 112 -45 112 -99c0 -39 -20 -62 -45 -77
c31 -19 54 -42 54 -90zM558 264c0 -29 25 -53 57 -53c31 0 56 24 56 53c0 31 -24 53 -56 53c-33 0 -57 -22 -57 -53zM550 104c0 -33 27 -59 65 -59c37 0 64 26 64 59c0 34 -27 61 -64 61c-38 0 -65 -27 -65 -61z" />
    <glyph glyph-name="fiveeighths" unicode="&#x215d;" horiz-adv-x="801" 
d="M616 709l46 -34l-497 -684l-46 34zM299 650h-129c-1 -32 -5 -62 -7 -93c14 6 30 8 46 8c57 0 107 -48 107 -110c0 -70 -53 -121 -122 -121c-48 0 -93 25 -115 65l49 25c12 -29 38 -42 65 -42c42 0 66 32 66 70c0 39 -28 66 -65 66c-23 0 -40 -7 -56 -25l-35 28
c5 50 11 130 13 179h183v-50zM722 100c0 -53 -44 -104 -121 -104c-78 0 -122 51 -122 104c0 48 23 71 54 90c-25 15 -45 38 -45 77c0 54 47 99 113 99c65 0 112 -45 112 -99c0 -39 -20 -62 -45 -77c31 -19 54 -42 54 -90zM544 264c0 -29 25 -53 57 -53c31 0 56 24 56 53
c0 31 -24 53 -56 53c-33 0 -57 -22 -57 -53zM536 104c0 -33 27 -59 65 -59c37 0 64 26 64 59c0 34 -27 61 -64 61c-38 0 -65 -27 -65 -61z" />
    <glyph glyph-name="seveneighths" unicode="&#x215e;" horiz-adv-x="752" 
d="M568 709l46 -34l-497 -684l-46 34zM323 662c-43 -93 -112 -245 -148 -334l-50 24c52 120 110 237 140 298h-170v50h228v-38zM673 100c0 -53 -44 -104 -121 -104c-78 0 -122 51 -122 104c0 48 23 71 54 90c-25 15 -45 38 -45 77c0 54 47 99 113 99c65 0 112 -45 112 -99
c0 -39 -20 -62 -45 -77c31 -19 54 -42 54 -90zM495 264c0 -29 25 -53 57 -53c31 0 56 24 56 53c0 31 -24 53 -56 53c-33 0 -57 -22 -57 -53zM487 104c0 -33 27 -59 65 -59c37 0 64 26 64 59c0 34 -27 61 -64 61c-38 0 -65 -27 -65 -61z" />
    <glyph glyph-name="oneseventh" horiz-adv-x="763" 
d="M570 709l46 -34l-497 -684l-46 34zM215 338h-54v293c-16 -7 -35 -15 -51 -21v50c27 14 51 26 75 40h30v-362zM683 324c-43 -93 -112 -245 -148 -334l-50 24c52 120 110 237 140 298h-170v50h228v-38z" />
    <glyph glyph-name="twosevenths" horiz-adv-x="845" 
d="M651 709l46 -34l-497 -684l-46 34zM317 338h-228v46c40 44 93 109 125 156c13 19 28 46 28 68c0 28 -24 46 -54 46c-31 0 -52 -22 -52 -57l-56 11c4 55 58 96 112 96c53 0 107 -37 107 -98c0 -33 -19 -69 -39 -100c-27 -40 -61 -81 -94 -118h151v-50zM765 324
c-43 -93 -112 -245 -148 -334l-50 24c52 120 110 237 140 298h-170v50h228v-38z" />
    <glyph glyph-name="threesevenths" horiz-adv-x="824" 
d="M631 709l46 -34l-497 -684l-46 34zM149 495l1 53c20 0 36 1 48 4c28 9 46 27 46 55c0 27 -22 48 -57 48c-24 0 -46 -14 -53 -41l-50 20c16 43 56 70 103 70c63 0 113 -39 113 -97c0 -31 -19 -61 -43 -75c36 -13 60 -47 60 -89c0 -67 -53 -109 -122 -109
c-46 0 -93 22 -115 67l48 24c14 -28 40 -42 69 -42c34 0 63 20 63 57s-32 59 -75 59c-10 0 -22 0 -36 -4zM744 324c-43 -93 -112 -245 -148 -334l-50 24c52 120 110 237 140 298h-170v50h228v-38z" />
    <glyph glyph-name="foursevenths" horiz-adv-x="877" 
d="M683 709l46 -34l-497 -684l-46 34zM80 485c42 56 111 150 156 215h54v-220h55v-49h-55v-93h-54v93h-156v54zM236 480v138c-28 -41 -71 -109 -93 -138h93zM796 324c-43 -93 -112 -245 -148 -334l-50 24c52 120 110 237 140 298h-170v50h228v-38z" />
    <glyph glyph-name="fivesevenths" horiz-adv-x="810" 
d="M616 709l46 -34l-497 -684l-46 34zM299 650h-129c-1 -32 -5 -62 -7 -93c14 6 30 8 46 8c57 0 107 -48 107 -110c0 -70 -53 -121 -122 -121c-48 0 -93 25 -115 65l49 25c12 -29 38 -42 65 -42c42 0 66 32 66 70c0 39 -28 66 -65 66c-23 0 -40 -7 -56 -25l-35 28
c5 50 11 130 13 179h183v-50zM730 324c-43 -93 -112 -245 -148 -334l-50 24c52 120 110 237 140 298h-170v50h228v-38z" />
    <glyph glyph-name="sixsevenths" horiz-adv-x="825" 
d="M632 709l46 -34l-497 -684l-46 34zM261 720l22 -44c-66 -32 -118 -68 -139 -133c19 18 44 28 73 28c66 0 110 -52 110 -112c0 -68 -46 -125 -118 -125c-84 0 -129 74 -129 146c0 112 84 197 181 240zM136 482c0 -51 20 -100 71 -100c40 0 64 33 64 72c0 42 -26 68 -64 68
c-29 0 -57 -15 -71 -40zM745 324c-43 -93 -112 -245 -148 -334l-50 24c52 120 110 237 140 298h-170v50h228v-38z" />
    <glyph glyph-name="oneninth" horiz-adv-x="774" 
d="M570 709l46 -34l-497 -684l-46 34zM215 338h-54v293c-16 -7 -35 -15 -51 -21v50c27 14 51 26 75 40h30v-362zM513 -20l-22 44c66 32 118 68 139 133c-19 -18 -44 -28 -73 -28c-66 0 -110 52 -110 112c0 68 46 125 118 125c84 0 129 -74 129 -146
c0 -112 -84 -197 -181 -240zM638 218c0 51 -20 100 -71 100c-40 0 -64 -33 -64 -72c0 -42 26 -68 64 -68c29 0 57 15 71 40z" />
    <glyph glyph-name="twoninths" horiz-adv-x="856" 
d="M651 709l46 -34l-497 -684l-46 34zM317 338h-228v46c40 44 93 109 125 156c13 19 28 46 28 68c0 28 -24 46 -54 46c-31 0 -52 -22 -52 -57l-56 11c4 55 58 96 112 96c53 0 107 -37 107 -98c0 -33 -19 -69 -39 -100c-27 -40 -61 -81 -94 -118h151v-50zM595 -20l-22 44
c66 32 118 68 139 133c-19 -18 -44 -28 -73 -28c-66 0 -110 52 -110 112c0 68 46 125 118 125c84 0 129 -74 129 -146c0 -112 -84 -197 -181 -240zM720 218c0 51 -20 100 -71 100c-40 0 -64 -33 -64 -72c0 -42 26 -68 64 -68c29 0 57 15 71 40z" />
    <glyph glyph-name="fourninths" horiz-adv-x="888" 
d="M683 709l46 -34l-497 -684l-46 34zM80 485c42 56 111 150 156 215h54v-220h55v-49h-55v-93h-54v93h-156v54zM236 480v138c-28 -41 -71 -109 -93 -138h93zM627 -20l-22 44c66 32 118 68 139 133c-19 -18 -44 -28 -73 -28c-66 0 -110 52 -110 112c0 68 46 125 118 125
c84 0 129 -74 129 -146c0 -112 -84 -197 -181 -240zM752 218c0 51 -20 100 -71 100c-40 0 -64 -33 -64 -72c0 -42 26 -68 64 -68c29 0 57 15 71 40z" />
    <glyph glyph-name="fiveninths" horiz-adv-x="821" 
d="M616 709l46 -34l-497 -684l-46 34zM299 650h-129c-1 -32 -5 -62 -7 -93c14 6 30 8 46 8c57 0 107 -48 107 -110c0 -70 -53 -121 -122 -121c-48 0 -93 25 -115 65l49 25c12 -29 38 -42 65 -42c42 0 66 32 66 70c0 39 -28 66 -65 66c-23 0 -40 -7 -56 -25l-35 28
c5 50 11 130 13 179h183v-50zM560 -20l-22 44c66 32 118 68 139 133c-19 -18 -44 -28 -73 -28c-66 0 -110 52 -110 112c0 68 46 125 118 125c84 0 129 -74 129 -146c0 -112 -84 -197 -181 -240zM685 218c0 51 -20 100 -71 100c-40 0 -64 -33 -64 -72c0 -42 26 -68 64 -68
c29 0 57 15 71 40z" />
    <glyph glyph-name="sevenninths" horiz-adv-x="772" 
d="M568 709l46 -34l-497 -684l-46 34zM323 662c-43 -93 -112 -245 -148 -334l-50 24c52 120 110 237 140 298h-170v50h228v-38zM511 -20l-22 44c66 32 118 68 139 133c-19 -18 -44 -28 -73 -28c-66 0 -110 52 -110 112c0 68 46 125 118 125c84 0 129 -74 129 -146
c0 -112 -84 -197 -181 -240zM636 218c0 51 -20 100 -71 100c-40 0 -64 -33 -64 -72c0 -42 26 -68 64 -68c29 0 57 15 71 40z" />
    <glyph glyph-name="eightninths" horiz-adv-x="846" 
d="M642 709l46 -34l-497 -684l-46 34zM322 438c0 -53 -44 -104 -121 -104c-78 0 -122 51 -122 104c0 48 23 71 54 90c-25 15 -45 38 -45 77c0 54 47 99 113 99c65 0 112 -45 112 -99c0 -39 -20 -62 -45 -77c31 -19 54 -42 54 -90zM144 602c0 -29 25 -53 57 -53
c31 0 56 24 56 53c0 31 -24 53 -56 53c-33 0 -57 -22 -57 -53zM136 442c0 -33 27 -59 65 -59c37 0 64 26 64 59c0 34 -27 61 -64 61c-38 0 -65 -27 -65 -61zM585 -20l-22 44c66 32 118 68 139 133c-19 -18 -44 -28 -73 -28c-66 0 -110 52 -110 112c0 68 46 125 118 125
c84 0 129 -74 129 -146c0 -112 -84 -197 -181 -240zM710 218c0 51 -20 100 -71 100c-40 0 -64 -33 -64 -72c0 -42 26 -68 64 -68c29 0 57 15 71 40z" />
    <glyph glyph-name="partialdiff" unicode="&#x2202;" 
d="M272 -12c-151 0 -245 125 -245 256c0 136 100 244 243 244c43 0 88 -9 122 -21c-21 33 -51 61 -81 86c-74 60 -170 108 -278 153l26 63c320 -132 467 -285 467 -532c0 -133 -88 -249 -254 -249zM454 233c0 55 -9 108 -28 163c-36 16 -76 25 -118 25
c-106 0 -209 -48 -209 -174c0 -103 75 -191 180 -191c108 0 175 83 175 177z" />
    <glyph glyph-name="Omega" unicode="&#x2126;" horiz-adv-x="794" 
d="M22 70h189c-111 76 -159 192 -159 295c0 162 107 347 345 347s345 -185 345 -347c0 -103 -48 -219 -159 -295h189v-70h-308v79c131 43 195 166 195 283c0 129 -66 278 -262 278s-262 -149 -262 -278c0 -117 64 -240 195 -283v-79h-308v70z" />
    <glyph glyph-name="Delta" unicode="&#x2206;" horiz-adv-x="633" 
d="M619 0h-605l271 700h66zM516 68l-199 538h-1l-199 -538h399z" />
    <glyph glyph-name="product" unicode="&#x220f;" 
d="M537 496h-91v-496h-74v496h-194v-496h-74v496h-91v70h524v-70z" />
    <glyph glyph-name="summation" unicode="&#x2211;" 
d="M380 367l-229 -297h375v-70h-499v41l260 322l-249 293v44h462v-70h-343z" />
    <glyph glyph-name="uni0394" unicode="&#x394;" 
d="M530 0h-510l220 566h74zM430 63l-156 429h-2l-158 -429h316z" />
    <glyph glyph-name="uni03A9" unicode="&#x3a9;" horiz-adv-x="794" 
d="M22 70h189c-111 76 -159 192 -159 295c0 162 107 347 345 347s345 -185 345 -347c0 -103 -48 -219 -159 -295h189v-70h-308v79c131 43 195 166 195 283c0 129 -66 278 -262 278s-262 -149 -262 -278c0 -117 64 -240 195 -283v-79h-308v70z" />
    <glyph glyph-name="uni03BC" unicode="&#x3bc;" 
d="M488 0h-68v86c-39 -65 -99 -98 -174 -98c-50 0 -84 10 -116 36v-274h-68v738h68v-253c0 -92 17 -185 126 -185c73 0 132 52 164 114v324h68v-488z" />
    <glyph glyph-name="pi" unicode="&#x3c0;" 
d="M531 424h-96v-253c0 -14 0 -25 1 -36c2 -54 14 -80 45 -86l-30 -63c-50 13 -75 60 -81 136c-1 13 -2 25 -2 40v262h-203v-372c0 -20 -2 -37 -4 -52h-68c4 14 6 40 6 63v361h-62v62h494v-62z" />
    <glyph glyph-name="mu" unicode="&#xb5;" 
d="M488 0h-68v86c-39 -65 -99 -98 -174 -98c-50 0 -84 10 -116 36v-274h-68v738h68v-253c0 -92 17 -185 126 -185c73 0 132 52 164 114v324h68v-488z" />
    <glyph glyph-name="minus" unicode="&#x2212;" 
d="M485 282h-419v60h419v-60z" />
    <glyph glyph-name="uni2215" unicode="&#x2215;" horiz-adv-x="346" 
d="M346 741l-292 -788l-54 21l292 788z" />
    <glyph glyph-name="uni2219" unicode="&#x2219;" 
d="M316 259h-83v101h83v-101z" />
    <glyph glyph-name="radical" unicode="&#x221a;" 
d="M298 -1h-68l-129 425h-81v63h131l113 -406h1l196 668h66z" />
    <glyph glyph-name="infinity" unicode="&#x221e;" horiz-adv-x="778" 
d="M206 402c59 0 107 -29 184 -109c77 80 123 109 182 109c92 0 163 -73 163 -159c0 -85 -72 -157 -163 -157c-59 0 -107 30 -184 109c-77 -79 -123 -109 -182 -109c-92 0 -163 73 -163 159c0 85 72 157 163 157zM580 143c55 0 93 48 93 101c0 52 -39 101 -93 101
c-47 0 -104 -46 -154 -101c50 -56 107 -101 154 -101zM198 345c-55 0 -93 -48 -93 -101c0 -52 39 -101 93 -101c47 0 104 46 154 101c-50 56 -107 101 -154 101z" />
    <glyph glyph-name="integral" unicode="&#x222b;" 
d="M216 -29l27 611c3 70 16 112 39 139c27 31 66 41 119 41c28 0 59 -9 84 -18l-21 -61c-19 7 -39 11 -69 11s-48 -8 -60 -20c-20 -20 -20 -67 -22 -105l-27 -611c-3 -69 -16 -110 -38 -138c-26 -32 -60 -42 -107 -42c-27 0 -52 9 -77 18l21 61c15 -6 31 -11 53 -11
c31 0 42 8 55 20c20 20 21 55 23 105z" />
    <glyph glyph-name="approxequal" unicode="&#x2248;" 
d="M440 447l46 -31c-23 -47 -69 -76 -124 -76c-72 0 -123 50 -177 50c-29 0 -55 -13 -74 -46l-46 31c23 47 69 76 124 76c72 0 123 -50 177 -50c29 0 55 13 74 46zM440 283l46 -31c-23 -47 -69 -76 -124 -76c-72 0 -123 50 -177 50c-29 0 -55 -13 -74 -46l-46 31
c23 47 69 76 124 76c72 0 123 -50 177 -50c29 0 55 13 74 46z" />
    <glyph glyph-name="notequal" unicode="&#x2260;" 
d="M485 364h-143l-70 -104h213v-60h-254l-104 -156l-50 36l80 120h-91v60h132l70 104h-202v60h242l103 153l50 -36l-79 -117h103v-60z" />
    <glyph glyph-name="lessequal" unicode="&#x2264;" 
d="M31 60h489v-60h-489v60zM31 339v67l489 195v-65l-412 -164l412 -164v-65z" />
    <glyph glyph-name="greaterequal" unicode="&#x2265;" 
d="M31 60h489v-60h-489v60zM520 406v-67l-489 -196v65l412 164l-412 164v65z" />
    <glyph glyph-name="less" unicode="&#x3c;" 
d="M31 277v67l489 195v-65l-412 -164l412 -164v-65z" />
    <glyph glyph-name="equal" unicode="=" 
d="M485 200h-419v60h419v-60zM485 364h-419v60h419v-60z" />
    <glyph glyph-name="greater" unicode="&#x3e;" 
d="M520 344v-67l-489 -196v65l412 164l-412 164v65z" />
    <glyph glyph-name="lozenge" unicode="&#x25ca;" 
d="M44 350l196 350h72l196 -350l-196 -350h-72zM447 350l-171 304l-171 -304l171 -304z" />
    <glyph glyph-name="plus" unicode="+" 
d="M245 68v214h-214v60h214v214h60v-214h214v-60h-214v-214h-60z" />
    <glyph glyph-name="plusminus" unicode="&#xb1;" 
d="M245 113v214h-214v60h214v214h60v-214h214v-60h-214v-214h-60zM31 60h488v-60h-488v60z" />
    <glyph glyph-name="divide" unicode="&#xf7;" 
d="M317 387h-83v101h83v-101zM317 0h-83v101h83v-101zM519 214h-488v60h488v-60z" />
    <glyph glyph-name="multiply" unicode="&#xd7;" 
d="M426 116l-151 152l-151 -152l-43 43l152 151l-152 151l43 43l151 -152l151 152l43 -43l-152 -151l152 -151z" />
    <glyph glyph-name="commaaccent" horiz-adv-x="360" 
d="M209 -59l-46 -166h-56l34 166h68z" />
    <glyph glyph-name="revcommaaccent" horiz-adv-x="360" 
d="M163 565l48 171h56l-36 -171h-68z" />
    <glyph glyph-name="tilde.cap" horiz-adv-x="360" 
d="M290 865l51 6c2 -8 3 -15 3 -23c0 -49 -33 -90 -88 -90c-76 0 -102 69 -150 69c-21 0 -36 -11 -37 -32c0 -5 0 -8 1 -12l-51 -6c-2 8 -3 15 -3 23c0 49 33 90 88 90c74 0 100 -69 150 -69c21 0 36 11 37 32c0 5 0 8 -1 12z" />
    <glyph glyph-name="ring.cap" horiz-adv-x="360" 
d="M86 816c0 52 42 94 94 94s94 -42 94 -94s-42 -94 -94 -94s-94 42 -94 94zM130 816c0 -27 23 -50 50 -50s50 23 50 50s-23 50 -50 50s-50 -23 -50 -50z" />
    <glyph glyph-name="circumflex.cap" horiz-adv-x="360" 
d="M145 899h71l104 -124l-40 -33l-100 105l-102 -105l-41 35z" />
    <glyph glyph-name="acute.cap" horiz-adv-x="360" 
d="M305 856l-165 -116l-34 43l154 129z" />
    <glyph glyph-name="grave.cap" horiz-adv-x="360" 
d="M229 740l-165 116l45 56l154 -129z" />
    <glyph glyph-name="dieresis.cap" horiz-adv-x="360" 
d="M86 765h-80v107h80v-107zM354 765h-80v107h80v-107z" />
    <glyph glyph-name="caron.cap" horiz-adv-x="360" 
d="M214 753h-72l-105 122l42 35l100 -103l102 103l41 -35z" />
    <glyph glyph-name="macron.cap" horiz-adv-x="360" 
d="M336 775h-313v59h313v-59z" />
    <glyph glyph-name="dotaccent.cap" horiz-adv-x="360" 
d="M220 765h-80v107h80v-107z" />
    <glyph glyph-name="cedilla.cap" horiz-adv-x="360" 
d="M144 5l50 -10l-27 -62l3 -1c7 7 23 16 48 16c55 0 84 -42 84 -89c0 -52 -46 -99 -106 -99c-42 0 -78 19 -98 54l52 26c10 -28 32 -32 49 -32c27 0 45 23 45 47c0 26 -15 51 -45 51c-17 0 -33 -7 -43 -26l-57 31z" />
    <glyph glyph-name="hungarumlaut.cap" horiz-adv-x="360" 
d="M413 850l-156 -110l-34 43l146 122zM231 856l-165 -116l-34 43l154 129z" />
    <glyph glyph-name="apostrophe" unicode="&#x2bc;" horiz-adv-x="360" 
d="M240 700l-54 -197h-62l39 197h77z" />
    <glyph glyph-name="commaaccent.cap" horiz-adv-x="360" 
d="M209 -59l-46 -166h-56l34 166h68z" />
    <glyph glyph-name="breve.cap" horiz-adv-x="360" 
d="M180 810c44 0 80 28 80 74v5h55v-6c0 -73 -60 -128 -135 -128c-81 0 -135 55 -135 128v6h57v-5c0 -46 34 -74 78 -74z" />
    <glyph glyph-name="caron.alt" horiz-adv-x="360" 
d="M166 549h-57l41 201h70z" />
    <glyph glyph-name="ogonek.cap" horiz-adv-x="360" 
d="M160 11l61 -6v-5c-72 -26 -104 -66 -104 -109c0 -37 17 -59 51 -59c15 0 33 7 48 19l30 -40c-22 -20 -56 -31 -89 -31c-61 0 -106 42 -106 99c0 58 37 104 109 132z" />
    <glyph glyph-name="square" horiz-adv-x="388" 
d="M60 155v268h268v-268h-268z" />
    <glyph glyph-name="square.open" horiz-adv-x="388" 
d="M60 155v268h268v-268h-268zM138 345v-112h112v112h-112z" />
    <glyph glyph-name="circle" unicode="&#x25cb;" horiz-adv-x="366" 
d="M35 289c0 82 66 148 148 148s148 -66 148 -148s-66 -148 -148 -148s-148 66 -148 148z" />
    <glyph glyph-name="circle.open" horiz-adv-x="366" 
d="M35 289c0 82 66 148 148 148s148 -66 148 -148s-66 -148 -148 -148s-148 66 -148 148zM121 289c0 -34 28 -62 62 -62s62 28 62 62s-28 62 -62 62s-62 -28 -62 -62z" />
    <glyph glyph-name="doublecircle" horiz-adv-x="366" 
d="M39 283c0 79 65 144 144 144s144 -65 144 -144s-65 -144 -144 -144s-144 65 -144 144zM128 283c0 30 25 55 55 55s55 -25 55 -55s-25 -55 -55 -55s-55 25 -55 55zM75 283c0 -59 49 -108 108 -108s108 49 108 108s-49 108 -108 108s-108 -49 -108 -108z" />
    <glyph glyph-name="triangle.left" horiz-adv-x="398" 
d="M338 111l-308 175l308 173v-348z" />
    <glyph glyph-name="triangle" unicode="&#x25b3;" horiz-adv-x="398" 
d="M368 286l-308 -175v348z" />
    <glyph glyph-name="triangleWhiteLeft" horiz-adv-x="462" 
d="M402 77l-372 208l372 208v-416zM349 403l-214 -118l214 -119v237z" />
    <glyph glyph-name="triangleWhiteRight" horiz-adv-x="462" 
d="M432 285l-372 -208v416zM327 285l-214 118v-237z" />
    <glyph glyph-name="raute" horiz-adv-x="356" 
d="M178 512l148 -236l-148 -236l-148 236z" />
    <glyph glyph-name="arrow.right" horiz-adv-x="1000" 
d="M40 327v68h812l-287 281l48 49l367 -364l-367 -363l-48 48l286 281h-811z" />
    <glyph glyph-name="arrow.left" horiz-adv-x="1000" 
d="M952 395v-68h-811l286 -281l-48 -48l-367 363l367 364l48 -49l-287 -281h812z" />
    <glyph glyph-name="arrow.up" horiz-adv-x="900" 
d="M485 -99h-68v812l-281 -287l-49 48l365 367l362 -367l-48 -48l-281 286v-811z" />
    <glyph glyph-name="arrow.down" horiz-adv-x="900" 
d="M416 821h68v-812l281 287l49 -48l-365 -367l-362 367l48 48l281 -286v811z" />
    <glyph glyph-name="arrow.leftup" horiz-adv-x="1000" 
d="M851 52l-48 -48l-574 573l4 -401h-68l-3 516l517 -2l-1 -68l-401 4z" />
    <glyph glyph-name="arrow.rightup" horiz-adv-x="1000" 
d="M213 4l-48 48l574 574l-401 -4l-1 68l517 2l-3 -516h-68l4 401z" />
    <glyph glyph-name="arrowleft.down" horiz-adv-x="1000" 
d="M803 688l48 -48l-574 -574l401 4l1 -68l-517 -2l3 516h68l-4 -401z" />
    <glyph glyph-name="arrowright.down" horiz-adv-x="1000" 
d="M165 640l48 48l574 -573l-4 401h68l3 -516l-517 2l1 68l401 -4z" />
    <glyph glyph-name="arrowright.alt" horiz-adv-x="441" 
d="M361 284l-243 -180l-38 56l177 124l-177 124l38 56z" />
    <glyph glyph-name="arrowleft.alt" horiz-adv-x="441" 
d="M323 104l-243 180l243 180l38 -56l-177 -124l177 -124z" />
    <glyph glyph-name="arrowup.alt" horiz-adv-x="520" 
d="M260 475l180 -243l-56 -38l-124 177l-124 -177l-56 38z" />
    <glyph glyph-name="arrowdown.alt" horiz-adv-x="520" 
d="M260 93l-180 243l56 38l124 -177l124 177l56 -38z" />
    <glyph glyph-name="arrowleftup.alt" horiz-adv-x="459" 
d="M80 434l299 -45l-13 -66l-213 37l38 -213l-67 -12z" />
    <glyph glyph-name="arrowrightup.alt" horiz-adv-x="459" 
d="M80 389l299 45l-44 -299l-67 12l38 213l-213 -37z" />
    <glyph glyph-name="arrowleftdown.alt" horiz-adv-x="459" 
d="M379 180l-299 -45l44 299l67 -12l-38 -213l213 37z" />
    <glyph glyph-name="arrowrightdown.alt" horiz-adv-x="459" 
d="M379 135l-299 45l13 66l213 -37l-38 213l67 12z" />
    <glyph glyph-name="arrowlong.left" horiz-adv-x="1192" 
d="M1122 291v-54h-950l229 -225l-38 -40l-293 292l293 291l38 -39l-229 -225h950z" />
    <glyph glyph-name="arrowlong.right" horiz-adv-x="1192" 
d="M70 237v54h950l-229 225l38 39l293 -291l-293 -292l-38 40l229 225h-950z" />
    <glyph glyph-name="arrowlong.up" horiz-adv-x="723" 
d="M388 -219h-54v950l-225 -229l-39 38l291 293l292 -293l-40 -38l-225 229v-950z" />
    <glyph glyph-name="arrowlong.down" horiz-adv-x="723" 
d="M335 823h54v-950l225 229l39 -38l-291 -293l-292 293l40 38l225 -229v950z" />
    <glyph glyph-name="arrowlong.leftup" horiz-adv-x="902" 
d="M832 -47l-37 -38l-672 672l3 -321l-54 -1l-2 412l413 1l-1 -55l-321 2z" />
    <glyph glyph-name="arrowlong.leftdown" horiz-adv-x="902" 
d="M795 677l37 -38l-671 -672l321 2l1 -55l-413 1l2 412l54 -1l-3 -321z" />
    <glyph glyph-name="arrowlong.rightup" horiz-adv-x="902" 
d="M107 -85l-37 38l671 672l-321 -2l-1 55l413 -1l-2 -412l-54 1l3 321z" />
    <glyph glyph-name="arrowlong.rightdown" horiz-adv-x="902" 
d="M70 639l37 38l672 -672l-3 321l54 1l2 -412l-413 -1l1 55l321 -2z" />
    <glyph glyph-name="ornm1" horiz-adv-x="666" 
d="M240 390c0 -13 6 -25 15 -34h-201c-19 0 -34 15 -34 34s15 34 34 34h200c-9 -9 -14 -21 -14 -34zM426 122h-93c8 8 13 19 13 32c0 16 -9 31 -22 39c13 8 22 22 22 39c0 16 -9 31 -22 39c13 8 22 22 22 39c0 13 -5 24 -14 33h63v13h-107c-19 0 -34 15 -34 34s15 34 34 34
h149c41 0 28 -60 75 -60h114v-197h-114c-47 0 -34 -47 -86 -45zM332 154c0 -18 -14 -32 -32 -32h-81c-18 0 -32 14 -32 32s14 32 32 32h81c18 0 32 -14 32 -32zM332 232c0 -18 -14 -32 -32 -32h-81c-18 0 -32 14 -32 32s14 32 32 32h81c18 0 32 -14 32 -32zM332 310
c0 -18 -14 -32 -32 -32h-81c-18 0 -32 14 -32 32s14 32 32 32h81c18 0 32 -14 32 -32z" />
    <glyph glyph-name="ornm2" horiz-adv-x="666" 
d="M426 390c0 13 -5 25 -14 34h200c19 0 34 -15 34 -34s-15 -34 -34 -34h-201c9 9 15 21 15 34zM240 122c-52 -2 -39 45 -86 45h-114v197h114c47 0 34 60 75 60h149c19 0 34 -15 34 -34s-15 -34 -34 -34h-107v-13h63c-9 -9 -14 -20 -14 -33c0 -17 9 -31 22 -39
c-13 -8 -22 -23 -22 -39c0 -17 9 -31 22 -39c-13 -8 -22 -23 -22 -39c0 -13 5 -24 13 -32h-93zM334 154c0 18 14 32 32 32h81c18 0 32 -14 32 -32s-14 -32 -32 -32h-81c-18 0 -32 14 -32 32zM334 232c0 18 14 32 32 32h81c18 0 32 -14 32 -32s-14 -32 -32 -32h-81
c-18 0 -32 14 -32 32zM334 310c0 18 14 32 32 32h81c18 0 32 -14 32 -32s-14 -32 -32 -32h-81c-18 0 -32 14 -32 32z" />
    <glyph glyph-name="ornm3" horiz-adv-x="1100" 
d="M519 601h62v-157h-62v157zM581 -91h-62v157h62v-157zM896 286v-62h-157v62h157zM204 224v62h157v-62h-157zM424 743l60 12l30 -154l-60 -12zM676 -233l-60 -12l-30 154l60 12zM62 129l-12 60l154 30l12 -60zM1038 381l12 -60l-154 -30l-12 60zM283 478l44 44l111 -111
l-44 -44zM817 32l-44 -44l-111 111l44 44zM773 522l44 -44l-111 -111l-44 44zM327 -12l-44 44l111 111l44 -44zM115 511l35 51l130 -87l-35 -52zM985 -1l-35 -51l-130 87l35 52zM294 -180l-51 35l87 130l52 -35zM806 690l51 -35l-87 -130l-52 35zM392 564l57 23l59 -145
l-58 -23zM708 -54l-57 -23l-59 145l58 23zM859 413l23 -57l-145 -59l-23 58zM241 97l-23 57l145 59l23 -58zM250 660l52 34l86 -132l-52 -34zM850 -150l-52 -34l-86 132l52 34zM145 -45l-34 52l132 86l34 -52zM955 555l34 -52l-132 -86l-34 52zM219 362l24 57l145 -61
l-25 -58zM881 148l-24 -57l-145 61l25 58zM657 586l57 -24l-61 -145l-58 25zM443 -76l-57 24l61 145l58 -25zM51 329l13 61l153 -33l-12 -60zM1049 181l-13 -61l-153 33l12 60zM476 -244l-61 13l33 153l60 -12zM624 754l61 -13l-33 -153l-60 12z" />
    <glyph glyph-name="ornm4" horiz-adv-x="1185" 
d="M550 -247c0 20 16 36 36 36s36 -16 36 -36s-16 -36 -36 -36s-36 16 -36 36zM550 -118c0 20 16 36 36 36s36 -16 36 -36s-16 -36 -36 -36s-36 16 -36 36zM550 253c0 20 16 36 36 36s36 -16 36 -36s-16 -36 -36 -36s-36 16 -36 36zM550 624c0 20 16 36 36 36s36 -16 36 -36
s-16 -36 -36 -36s-36 16 -36 36zM550 753c0 20 16 36 36 36s36 -16 36 -36s-16 -36 -36 -36s-36 16 -36 36zM322 253c0 146 118 264 264 264s264 -118 264 -264s-118 -264 -264 -264s-264 118 -264 264zM364 253c0 -123 99 -222 222 -222s222 99 222 222s-99 222 -222 222
s-222 -99 -222 -222zM436 253c0 83 67 150 150 150s150 -67 150 -150s-67 -150 -150 -150s-150 67 -150 150zM478 253c0 -60 48 -108 108 -108s108 48 108 108s-48 108 -108 108s-108 -48 -108 -108zM50 253c0 20 16 36 36 36s36 -16 36 -36s-16 -36 -36 -36s-36 16 -36 36z
M179 253c0 20 16 36 36 36s36 -16 36 -36s-16 -36 -36 -36s-36 16 -36 36zM934 253c0 20 16 36 36 36s36 -16 36 -36s-16 -36 -36 -36s-36 16 -36 36zM1063 253c0 20 16 36 36 36s36 -16 36 -36s-16 -36 -36 -36s-36 16 -36 36zM300 686c0 20 16 36 36 36s36 -16 36 -36
s-16 -36 -36 -36s-36 16 -36 36zM364 574c0 20 16 36 36 36s36 -16 36 -36s-16 -36 -36 -36s-36 16 -36 36zM742 -80c0 20 16 36 36 36s36 -16 36 -36s-16 -36 -36 -36s-36 16 -36 36zM806 -192c0 20 16 36 36 36s36 -16 36 -36s-16 -36 -36 -36s-36 16 -36 36zM229 68
c0 20 16 36 36 36s36 -16 36 -36s-16 -36 -36 -36s-36 16 -36 36zM117 3c0 20 16 36 36 36s36 -16 36 -36s-16 -36 -36 -36s-36 16 -36 36zM983 503c0 20 16 36 36 36s36 -16 36 -36s-16 -36 -36 -36s-36 16 -36 36zM871 438c0 20 16 36 36 36s36 -16 36 -36
s-16 -36 -36 -36s-36 16 -36 36zM872 686c0 -20 -16 -36 -36 -36s-36 16 -36 36s16 36 36 36s36 -16 36 -36zM808 574c0 -20 -16 -36 -36 -36s-36 16 -36 36s16 36 36 36s36 -16 36 -36zM954 60c0 -20 -16 -36 -36 -36s-36 16 -36 36s16 36 36 36s36 -16 36 -36zM1066 -5
c0 -20 -16 -36 -36 -36s-36 16 -36 36s16 36 36 36s36 -16 36 -36zM436 -68c0 -20 -16 -36 -36 -36s-36 16 -36 36s16 36 36 36s36 -16 36 -36zM372 -180c0 -20 -16 -36 -36 -36s-36 16 -36 36s16 36 36 36s36 -16 36 -36zM189 503c0 -20 -16 -36 -36 -36s-36 16 -36 36
s16 36 36 36s36 -16 36 -36zM301 438c0 -20 -16 -36 -36 -36s-36 16 -36 36s16 36 36 36s36 -16 36 -36z" />
    <glyph glyph-name="ornm5" horiz-adv-x="1060" 
d="M50 86l227 92c-5 16 -8 32 -10 50h-123v50h123c2 19 6 37 11 54l-226 97l20 45l226 -95c8 15 17 29 28 42l-87 87l36 36l87 -87c14 12 30 22 46 30l-91 228l46 18l92 -227c16 5 32 8 50 9v124h50v-124c19 -2 37 -5 54 -11l97 227l45 -20l-95 -227c15 -8 29 -17 42 -27
l87 87l36 -36l-87 -87c12 -15 22 -30 30 -47l228 92l18 -46l-227 -92c5 -16 8 -33 9 -50h124v-50h-124c-2 -19 -5 -37 -11 -55l227 -96l-20 -45l-227 94c-8 -14 -17 -28 -27 -41l87 -87l-36 -36l-87 87c-15 -12 -30 -22 -47 -31l92 -227l-46 -18l-92 227
c-16 -5 -33 -8 -50 -9v-124h-50v124c-19 2 -37 5 -55 10l-96 -226l-45 20l94 226c-14 8 -28 17 -41 28l-87 -87l-36 36l87 87c-12 14 -22 30 -31 46l-227 -91zM494 253c0 20 16 36 36 36s36 -16 36 -36s-16 -36 -36 -36s-36 16 -36 36zM308 253c0 -123 99 -222 222 -222
s222 99 222 222s-99 222 -222 222s-222 -99 -222 -222zM380 253c0 83 67 150 150 150s150 -67 150 -150s-67 -150 -150 -150s-150 67 -150 150zM422 253c0 -60 48 -108 108 -108s108 48 108 108s-48 108 -108 108s-108 -48 -108 -108z" />
    <glyph glyph-name="ornm6" horiz-adv-x="1116" 
d="M78 86l227 92c-5 16 -8 32 -10 50h-245v50h245c2 19 6 37 11 54l-226 97l20 45l226 -95c8 15 17 29 28 42l-173 174l35 35l174 -173c14 12 30 22 46 30l-91 228l46 18l92 -227c16 5 32 8 50 9v246h50v-246c19 -2 37 -5 54 -11l97 227l45 -20l-95 -227
c15 -8 29 -17 42 -27l174 173l35 -35l-173 -174c12 -15 22 -30 30 -47l228 92l18 -46l-227 -92c5 -16 8 -33 9 -50h246v-50h-246c-2 -19 -5 -37 -11 -55l227 -96l-20 -45l-227 94c-8 -14 -17 -28 -27 -41l173 -174l-35 -35l-174 173c-15 -12 -30 -22 -47 -31l92 -227
l-46 -18l-92 227c-16 -5 -33 -8 -50 -9v-246h-50v246c-19 2 -37 5 -55 10l-96 -226l-45 20l94 226c-14 8 -28 17 -41 28l-174 -173l-35 35l173 174c-12 14 -22 30 -31 46l-227 -91zM336 253c0 -123 99 -222 222 -222s222 99 222 222s-99 222 -222 222s-222 -99 -222 -222z
M408 253c0 83 67 150 150 150s150 -67 150 -150s-67 -150 -150 -150s-150 67 -150 150zM450 253c0 -60 48 -108 108 -108s108 48 108 108s-48 108 -108 108s-108 -48 -108 -108z" />
    <glyph glyph-name="ornm7" horiz-adv-x="1084" 
d="M506 253c0 20 16 36 36 36s36 -16 36 -36s-16 -36 -36 -36s-36 16 -36 36zM278 253c0 146 118 264 264 264s264 -118 264 -264s-118 -264 -264 -264s-264 118 -264 264zM320 253c0 -123 99 -222 222 -222s222 99 222 222s-99 222 -222 222s-222 -99 -222 -222zM392 253
c0 83 67 150 150 150s150 -67 150 -150s-67 -150 -150 -150s-150 67 -150 150zM434 253c0 -60 48 -108 108 -108s108 48 108 108s-48 108 -108 108s-108 -48 -108 -108zM164 253c0 209 169 378 378 378s378 -169 378 -378s-169 -378 -378 -378s-378 169 -378 378zM206 253
c0 -186 150 -336 336 -336s336 150 336 336s-150 336 -336 336s-336 -150 -336 -336zM92 253c0 -248 202 -450 450 -450s450 202 450 450s-202 450 -450 450s-450 -202 -450 -450zM50 253c0 272 220 492 492 492s492 -220 492 -492s-220 -492 -492 -492s-492 220 -492 492z
" />
    <glyph glyph-name="ornm8" horiz-adv-x="1106" 
d="M584 442h-62v314h62v-314zM522 64h62v-314h-62v314zM364 284v-62h-314v62h314zM742 222v62h314v-62h-314zM441 409l-44 -44l-222 222l44 44zM665 97l44 44l222 -222l-44 -44zM397 141l44 -44l-222 -222l-44 44zM709 365l-44 44l222 222l44 -44zM653 417l-58 23l118 291
l57 -23zM453 89l58 -23l-118 -291l-57 23zM389 353l-23 -58l-291 118l23 57zM717 153l23 58l291 -118l-23 -57zM508 440l-58 -25l-122 289l57 25zM598 66l58 25l122 -289l-57 -25zM366 208l25 -58l-289 -122l-25 57zM740 298l-25 58l289 122l25 -57z" />
    <glyph glyph-name="ornm9" horiz-adv-x="600" 
d="M550 500v-500h-500v500h500z" />
    <glyph glyph-name="zero.alt" 
d="M275 676c146 0 230 -131 230 -344s-84 -344 -230 -344s-230 131 -230 344s84 344 230 344zM275 608c-98 0 -155 -92 -155 -276s57 -276 155 -276s155 92 155 276s-57 276 -155 276z" />
    <glyph glyph-name="one.alt" horiz-adv-x="334" 
d="M235 0h-73v573c-32 -16 -73 -33 -103 -45v69c39 19 87 43 129 67h47v-664z" />
    <glyph glyph-name="two.alt" horiz-adv-x="490" 
d="M56 0v74c77 82 176 195 238 289c27 40 55 89 55 142c0 61 -54 103 -115 103c-58 0 -111 -42 -117 -104l-71 15c9 93 96 157 191 157s189 -71 189 -174c0 -61 -28 -118 -66 -173c-62 -89 -135 -181 -211 -261h316v-68h-409z" />
    <glyph glyph-name="three.alt" horiz-adv-x="497" 
d="M116 384l204 211h-272v68h371v-65l-188 -194h4c135 -3 201 -101 201 -201c0 -122 -91 -215 -217 -215c-72 0 -140 36 -180 100l57 31c27 -40 73 -63 123 -63c78 0 142 54 142 138c0 71 -48 143 -146 143c-18 0 -44 -4 -63 -17z" />
    <glyph glyph-name="four.alt" horiz-adv-x="538" 
d="M507 185h-99v-185h-73v185h-303v78c103 131 210 278 298 401h78v-416h99v-63zM335 563c-72 -106 -173 -238 -234 -315h234v315z" />
    <glyph glyph-name="five.alt" horiz-adv-x="497" 
d="M405 595h-245l-15 -215c30 17 62 24 104 24c100 0 187 -85 187 -203c0 -117 -91 -213 -221 -213c-75 0 -139 38 -176 100l57 31c27 -42 71 -63 122 -63c77 0 143 63 143 139c0 84 -44 141 -139 141c-43 0 -75 -15 -101 -41l-51 30l23 338h312v-68z" />
    <glyph glyph-name="six.alt" horiz-adv-x="503" 
d="M386 190c0 75 -50 139 -136 139s-134 -64 -134 -139c0 -76 58 -134 134 -134c75 0 136 58 136 134zM44 194c0 41 15 82 35 119c24 46 171 281 237 375l55 -36c-51 -76 -127 -196 -163 -263c15 5 38 8 53 8c102 0 198 -90 198 -203c0 -116 -95 -206 -210 -206
c-114 0 -205 90 -205 206z" />
    <glyph glyph-name="seven.alt" horiz-adv-x="442" 
d="M427 664v-56c-83 -172 -208 -450 -281 -625l-68 30c94 221 218 470 270 582h-331v69h410z" />
    <glyph glyph-name="eight.alt" horiz-adv-x="526" 
d="M465 181c0 -111 -87 -193 -202 -193s-202 82 -202 193c0 79 36 131 109 166c-56 28 -95 77 -95 151c0 101 83 178 188 178s188 -77 188 -178c0 -74 -39 -123 -95 -151c73 -35 109 -87 109 -166zM392 183c0 74 -56 127 -129 127s-129 -53 -129 -127s56 -127 129 -127
s129 53 129 127zM378 495c0 64 -49 113 -115 113s-115 -49 -115 -113c0 -67 49 -115 115 -115s115 48 115 115z" />
    <glyph glyph-name="nine.alt" horiz-adv-x="503" 
d="M117 474c0 -75 50 -139 136 -139s134 64 134 139c0 76 -58 134 -134 134c-75 0 -136 -58 -136 -134zM459 470c0 -41 -15 -82 -35 -119c-24 -46 -171 -281 -237 -375l-55 36c51 76 127 196 163 263c-15 -5 -38 -8 -53 -8c-102 0 -198 90 -198 203c0 116 95 206 210 206
c114 0 205 -90 205 -206z" />
    <glyph glyph-name="zero.lf" 
d="M275 676c146 0 230 -131 230 -344s-84 -344 -230 -344s-230 131 -230 344s84 344 230 344zM275 608c-98 0 -155 -92 -155 -276s57 -276 155 -276s155 92 155 276s-57 276 -155 276z" />
    <glyph glyph-name="one.lf" horiz-adv-x="339" 
d="M234 0h-73v573c-32 -16 -73 -33 -103 -45v69c39 19 87 43 129 67h47v-664z" />
    <glyph glyph-name="two.lf" horiz-adv-x="501" 
d="M56 0v74c77 82 176 195 238 289c27 40 55 89 55 142c0 61 -54 103 -115 103c-58 0 -111 -42 -117 -104l-71 15c9 93 96 157 191 157s189 -71 189 -174c0 -61 -28 -118 -66 -173c-62 -89 -135 -181 -211 -261h316v-68h-409z" />
    <glyph glyph-name="three.lf" horiz-adv-x="510" 
d="M142 306l2 77c48 0 74 2 104 9c51 12 100 52 100 111c0 63 -58 105 -122 105c-51 0 -97 -25 -120 -73l-64 28c30 73 106 113 186 113c97 0 194 -63 194 -174c0 -61 -30 -119 -91 -146c74 -22 123 -91 123 -168c0 -112 -90 -200 -215 -200c-78 0 -153 29 -204 100l51 35
c32 -46 86 -68 144 -68c76 0 149 45 149 127s-72 130 -170 130c-20 0 -40 -2 -67 -6z" />
    <glyph glyph-name="four.lf" horiz-adv-x="530" 
d="M507 185h-99v-185h-73v185h-303v78c103 131 210 278 298 401h78v-416h99v-63zM335 563c-72 -106 -173 -238 -234 -315h234v315z" />
    <glyph glyph-name="five.lf" horiz-adv-x="492" 
d="M65 321c10 99 17 243 23 343h331v-68h-265c-2 -63 -7 -153 -13 -212c31 19 69 26 107 26c114 0 210 -86 210 -210c0 -111 -92 -212 -217 -212c-76 0 -154 34 -199 101l55 39c33 -41 72 -72 130 -72c81 0 156 59 156 146c0 83 -65 140 -148 140c-42 0 -81 -14 -115 -44z
" />
    <glyph glyph-name="six.lf" horiz-adv-x="530" 
d="M393 630c-135 -63 -238 -154 -266 -299c41 49 93 83 166 83c114 0 192 -100 192 -215c0 -111 -87 -211 -210 -211c-143 0 -230 128 -230 260c0 210 143 376 318 447zM120 238c5 -93 47 -182 154 -182c85 0 136 65 136 151c0 73 -46 139 -127 139
c-70 0 -128 -46 -163 -108z" />
    <glyph glyph-name="seven.lf" horiz-adv-x="442" 
d="M420 664v-59c-82 -171 -206 -449 -278 -622l-68 30c89 210 213 468 267 583h-328v68h407z" />
    <glyph glyph-name="eight.lf" horiz-adv-x="548" 
d="M375 348c63 -29 113 -89 113 -167c0 -108 -88 -193 -214 -193s-214 85 -214 193c0 78 50 138 113 167c-49 27 -93 74 -93 147c0 101 79 181 194 181s194 -80 194 -181c0 -73 -44 -120 -93 -147zM274 56c77 0 139 52 139 127c0 70 -62 126 -139 126s-139 -56 -139 -126
c0 -75 62 -127 139 -127zM274 377c66 0 121 54 121 117c0 67 -55 114 -121 114s-121 -47 -121 -114c0 -63 55 -117 121 -117z" />
    <glyph glyph-name="nine.lf" horiz-adv-x="530" 
d="M137 34c135 63 238 154 266 299c-41 -49 -93 -83 -166 -83c-114 0 -192 100 -192 215c0 111 87 211 210 211c143 0 230 -128 230 -260c0 -210 -143 -376 -318 -447zM410 426c-5 93 -47 182 -154 182c-85 0 -136 -65 -136 -151c0 -73 46 -139 127 -139
c70 0 128 46 163 108z" />
    <glyph glyph-name="dollar.lf" 
d="M41 81l51 51c48 -51 107 -80 178 -80c66 0 155 32 155 130c0 84 -77 111 -158 140c-91 32 -188 67 -188 186c0 93 73 162 176 167v95h54v-97c56 -4 110 -25 160 -60l-46 -53c-36 34 -88 50 -144 50c-61 0 -131 -28 -131 -102c0 -78 87 -99 174 -130s174 -72 174 -186
c0 -117 -84 -188 -191 -202v-96h-54v94c-78 1 -147 33 -210 93z" />
    <glyph glyph-name="Euro.lf" horiz-adv-x="650" 
d="M465 224h-291c35 -105 123 -167 247 -167c53 0 115 13 163 42l37 -56c-53 -34 -128 -55 -197 -55c-162 0 -285 87 -325 236h-91v64h80c-1 14 -2 29 -2 45c0 14 1 28 2 42h-80v64h90c38 146 155 237 323 237c60 0 134 -16 179 -44l-32 -58c-38 22 -99 33 -147 33
c-126 0 -215 -61 -248 -168h292v-64h-305c-2 -14 -2 -28 -2 -42c0 -16 1 -31 2 -45h305v-64z" />
    <glyph glyph-name="cent.lf" 
d="M476 109c-38 -26 -78 -41 -127 -42v-85h-55v89c-125 21 -209 122 -209 252c0 127 85 231 209 252v88h55v-84c42 -2 81 -14 114 -33l-25 -57c-28 18 -66 28 -104 28c-104 0 -179 -85 -179 -194c0 -106 67 -194 180 -194c34 0 76 10 106 32z" />
    <glyph glyph-name="sterling.lf" 
d="M476 0h-392v68h58v256h-58v68h58v65c0 86 37 156 96 192c31 19 68 27 104 27c45 0 90 -12 131 -35l-31 -61c-28 18 -63 28 -100 28c-26 0 -53 -6 -74 -23c-38 -30 -53 -90 -53 -160v-33h135v-68h-135v-256h261v-68z" />
    <glyph glyph-name="yen.lf" 
d="M484 247h-174v-59h174v-64h-177v-124h-69v124h-177v64h174v59h-174v64h165l-198 352h85l164 -301h2l159 301h82l-200 -352h164v-64z" />
    <glyph glyph-name="florin.lf" 
d="M11 -144c14 -3 31 -6 49 -6c54 0 64 37 73 111l42 363h-84v68h91l14 122c12 104 69 161 155 161c44 0 84 -13 118 -30l-32 -60c-21 15 -50 22 -80 22c-66 0 -85 -38 -93 -110l-12 -105h126v-68h-133l-43 -380c-12 -107 -65 -162 -133 -162c-27 0 -52 5 -74 11z" />
    <glyph glyph-name="afii61352.lf" horiz-adv-x="1122" 
d="M650 0h-56l-417 562v-562h-70v700h55l418 -563v563h70v-700zM918 704c97 0 171 -79 171 -178s-74 -178 -171 -178s-171 79 -171 178s74 178 171 178zM1031 526c0 70 -48 124 -113 124s-113 -54 -113 -124s48 -124 113 -124s113 54 113 124z" />
    <glyph glyph-name="percent.lf" horiz-adv-x="849" 
d="M63 551c0 86 67 155 151 155s152 -69 152 -155s-68 -154 -152 -154s-151 68 -151 154zM120 551c0 -54 42 -97 94 -97c53 0 95 43 95 97c0 55 -42 98 -95 98c-52 0 -94 -43 -94 -98zM483 148c0 86 67 155 151 155s152 -69 152 -155s-68 -154 -152 -154s-151 68 -151 154z
M540 148c0 -54 42 -97 94 -97c53 0 95 43 95 97c0 55 -42 98 -95 98c-52 0 -94 -43 -94 -98zM650 709l46 -34l-497 -684l-46 34z" />
    <glyph glyph-name="perthousand.lf" horiz-adv-x="1234" 
d="M63 551c0 86 67 155 151 155s152 -69 152 -155s-68 -154 -152 -154s-151 68 -151 154zM120 551c0 -54 42 -97 94 -97c53 0 95 43 95 97c0 55 -42 98 -95 98c-52 0 -94 -43 -94 -98zM483 148c0 86 67 155 151 155s152 -69 152 -155s-68 -154 -152 -154s-151 68 -151 154z
M540 148c0 -54 42 -97 94 -97c53 0 95 43 95 97c0 55 -42 98 -95 98c-52 0 -94 -43 -94 -98zM868 148c0 86 67 155 151 155s152 -69 152 -155s-68 -154 -152 -154s-151 68 -151 154zM925 148c0 -54 42 -97 94 -97c53 0 95 43 95 97c0 55 -42 98 -95 98
c-52 0 -94 -43 -94 -98zM650 709l46 -34l-497 -684l-46 34z" />
    <glyph glyph-name="zero.osf" horiz-adv-x="598" 
d="M299 500c140 0 255 -118 255 -256s-115 -256 -255 -256s-255 118 -255 256s115 256 255 256zM299 54c102 0 179 84 179 190s-77 190 -179 190s-180 -84 -180 -190s78 -190 180 -190z" />
    <glyph glyph-name="one.osf" horiz-adv-x="339" 
d="M234 0h-73v409c-32 -16 -73 -33 -103 -45v69c39 19 87 43 129 67h47v-500z" />
    <glyph glyph-name="two.osf" horiz-adv-x="493" 
d="M125 341l-69 24c20 81 96 135 181 135c94 0 171 -58 171 -161c0 -113 -115 -191 -255 -271h304v-68h-399v85c149 93 273 178 273 257c0 59 -36 90 -97 90c-54 0 -97 -36 -109 -91z" />
    <glyph glyph-name="three.osf" horiz-adv-x="510" 
d="M142 130l2 77c48 0 74 2 104 9c51 12 100 52 100 111c0 63 -58 105 -122 105c-51 0 -97 -25 -120 -73l-64 28c30 73 106 113 186 113c97 0 194 -63 194 -174c0 -61 -30 -119 -91 -146c74 -22 123 -91 123 -168c0 -112 -90 -200 -215 -200c-78 0 -153 29 -204 100l51 35
c32 -46 86 -68 144 -68c76 0 149 45 149 127s-72 130 -170 130c-20 0 -40 -2 -67 -6z" />
    <glyph glyph-name="four.osf" horiz-adv-x="538" 
d="M424 -180h-73v180h-336v85c119 135 230 275 327 403h82v-420h95v-68h-95v-180zM351 394c-75 -104 -200 -255 -265 -326h265v326z" />
    <glyph glyph-name="five.osf" horiz-adv-x="492" 
d="M65 145c10 99 17 243 23 343h331v-68h-265c-2 -63 -7 -153 -13 -212c31 19 69 26 107 26c114 0 210 -86 210 -210c0 -111 -92 -212 -217 -212c-76 0 -154 34 -199 101l55 39c33 -41 72 -72 130 -72c81 0 156 59 156 146c0 83 -65 140 -148 140c-42 0 -81 -14 -115 -44z
" />
    <glyph glyph-name="six.osf" horiz-adv-x="530" 
d="M393 630c-135 -63 -238 -154 -266 -299c41 49 93 83 166 83c114 0 192 -100 192 -215c0 -111 -87 -211 -210 -211c-143 0 -230 128 -230 260c0 210 143 376 318 447zM120 238c5 -93 47 -182 154 -182c85 0 136 65 136 151c0 73 -46 139 -127 139
c-70 0 -128 -46 -163 -108z" />
    <glyph glyph-name="seven.osf" horiz-adv-x="442" 
d="M420 488v-59c-82 -171 -206 -449 -278 -622l-68 30c89 210 213 468 267 583h-328v68h407z" />
    <glyph glyph-name="eight.osf" horiz-adv-x="544" 
d="M373 348c63 -29 113 -89 113 -167c0 -108 -88 -193 -214 -193s-214 85 -214 193c0 78 50 138 113 167c-49 27 -93 74 -93 147c0 101 79 181 194 181s194 -80 194 -181c0 -73 -44 -120 -93 -147zM272 56c77 0 139 52 139 127c0 70 -62 126 -139 126s-139 -56 -139 -126
c0 -75 62 -127 139 -127zM272 377c66 0 121 54 121 117c0 67 -55 114 -121 114s-121 -47 -121 -114c0 -63 55 -117 121 -117z" />
    <glyph glyph-name="nine.osf" horiz-adv-x="530" 
d="M137 -142c135 63 238 154 266 299c-41 -49 -93 -83 -166 -83c-114 0 -192 100 -192 215c0 111 87 211 210 211c143 0 230 -128 230 -260c0 -210 -143 -376 -318 -447zM410 250c-5 93 -47 182 -154 182c-85 0 -136 -65 -136 -151c0 -73 46 -139 127 -139
c70 0 128 46 163 108z" />
    <glyph glyph-name="dollar.osf" 
d="M41 81l51 51c48 -51 107 -80 178 -80c66 0 155 32 155 130c0 84 -77 111 -158 140c-91 32 -188 67 -188 186c0 93 73 162 176 167v95h54v-97c56 -4 110 -25 160 -60l-46 -53c-36 34 -88 50 -144 50c-61 0 -131 -28 -131 -102c0 -78 87 -99 174 -130s174 -72 174 -186
c0 -117 -84 -188 -191 -202v-96h-54v94c-78 1 -147 33 -210 93z" />
    <glyph glyph-name="Euro.osf" horiz-adv-x="650" 
d="M465 224h-291c35 -105 123 -167 247 -167c53 0 115 13 163 42l37 -56c-53 -34 -128 -55 -197 -55c-162 0 -285 87 -325 236h-91v64h80c-1 14 -2 29 -2 45c0 14 1 28 2 42h-80v64h90c38 146 155 237 323 237c60 0 134 -16 179 -44l-32 -58c-38 22 -99 33 -147 33
c-126 0 -215 -61 -248 -168h292v-64h-305c-2 -14 -2 -28 -2 -42c0 -16 1 -31 2 -45h305v-64z" />
    <glyph glyph-name="cent.osf" 
d="M476 109c-38 -26 -78 -41 -127 -42v-85h-55v89c-125 21 -209 122 -209 252c0 127 85 231 209 252v88h55v-84c42 -2 81 -14 114 -33l-25 -57c-28 18 -66 28 -104 28c-104 0 -179 -85 -179 -194c0 -106 67 -194 180 -194c34 0 76 10 106 32z" />
    <glyph glyph-name="sterling.osf" 
d="M476 0h-392v68h58v256h-58v68h58v65c0 86 37 156 96 192c31 19 68 27 104 27c45 0 90 -12 131 -35l-31 -61c-28 18 -63 28 -100 28c-26 0 -53 -6 -74 -23c-38 -30 -53 -90 -53 -160v-33h135v-68h-135v-256h261v-68z" />
    <glyph glyph-name="yen.osf" 
d="M484 247h-174v-59h174v-64h-177v-124h-69v124h-177v64h174v59h-174v64h165l-198 352h85l164 -301h2l159 301h82l-200 -352h164v-64z" />
    <glyph glyph-name="florin.osf" 
d="M11 -144c14 -3 31 -6 49 -6c54 0 64 37 73 111l42 363h-84v68h91l14 122c12 104 69 161 155 161c44 0 84 -13 118 -30l-32 -60c-21 15 -50 22 -80 22c-66 0 -85 -38 -93 -110l-12 -105h126v-68h-133l-43 -380c-12 -107 -65 -162 -133 -162c-27 0 -52 5 -74 11z" />
    <glyph glyph-name="afii61352.osf" horiz-adv-x="1122" 
d="M650 0h-56l-417 562v-562h-70v700h55l418 -563v563h70v-700zM918 704c97 0 171 -79 171 -178s-74 -178 -171 -178s-171 79 -171 178s74 178 171 178zM1031 526c0 70 -48 124 -113 124s-113 -54 -113 -124s48 -124 113 -124s113 54 113 124z" />
    <glyph glyph-name="percent.osf" horiz-adv-x="849" 
d="M63 551c0 86 67 155 151 155s152 -69 152 -155s-68 -154 -152 -154s-151 68 -151 154zM120 551c0 -54 42 -97 94 -97c53 0 95 43 95 97c0 55 -42 98 -95 98c-52 0 -94 -43 -94 -98zM483 148c0 86 67 155 151 155s152 -69 152 -155s-68 -154 -152 -154s-151 68 -151 154z
M540 148c0 -54 42 -97 94 -97c53 0 95 43 95 97c0 55 -42 98 -95 98c-52 0 -94 -43 -94 -98zM650 709l46 -34l-497 -684l-46 34z" />
    <glyph glyph-name="perthousand.osf" horiz-adv-x="1234" 
d="M63 551c0 86 67 155 151 155s152 -69 152 -155s-68 -154 -152 -154s-151 68 -151 154zM120 551c0 -54 42 -97 94 -97c53 0 95 43 95 97c0 55 -42 98 -95 98c-52 0 -94 -43 -94 -98zM483 148c0 86 67 155 151 155s152 -69 152 -155s-68 -154 -152 -154s-151 68 -151 154z
M540 148c0 -54 42 -97 94 -97c53 0 95 43 95 97c0 55 -42 98 -95 98c-52 0 -94 -43 -94 -98zM868 148c0 86 67 155 151 155s152 -69 152 -155s-68 -154 -152 -154s-151 68 -151 154zM925 148c0 -54 42 -97 94 -97c53 0 95 43 95 97c0 55 -42 98 -95 98
c-52 0 -94 -43 -94 -98zM650 709l46 -34l-497 -684l-46 34z" />
    <glyph glyph-name="zero.slash" 
d="M275 676c146 0 230 -131 230 -344s-84 -344 -230 -344s-230 131 -230 344s84 344 230 344zM275 608c-92 0 -148 -81 -154 -242h308c-7 161 -62 242 -154 242zM275 56c92 0 147 80 154 242h-308c6 -162 62 -242 154 -242z" />
    <glyph glyph-name="zero.tf" 
d="M275 676c146 0 230 -131 230 -344s-84 -344 -230 -344s-230 131 -230 344s84 344 230 344zM275 608c-98 0 -155 -92 -155 -276s57 -276 155 -276s155 92 155 276s-57 276 -155 276z" />
    <glyph glyph-name="one.tf" 
d="M121 0v68h158v518c-38 -20 -119 -58 -179 -82v73c60 25 136 60 190 87h62v-596h136v-68h-367z" />
    <glyph glyph-name="two.tf" 
d="M83 0v74c77 82 176 195 238 289c27 40 55 89 55 142c0 61 -54 103 -115 103c-58 0 -111 -42 -117 -104l-71 15c9 93 96 157 191 157s189 -71 189 -174c0 -61 -28 -118 -66 -173c-62 -89 -135 -181 -211 -261h316v-68h-409z" />
    <glyph glyph-name="three.tf" 
d="M167 306l2 77c48 0 74 2 104 9c51 12 100 52 100 111c0 63 -58 105 -122 105c-51 0 -97 -25 -120 -73l-64 28c30 73 106 113 186 113c97 0 194 -63 194 -174c0 -61 -30 -119 -91 -146c74 -22 123 -91 123 -168c0 -112 -90 -200 -215 -200c-78 0 -153 29 -204 100l51 35
c32 -46 86 -68 144 -68c76 0 149 45 149 127s-72 130 -170 130c-20 0 -40 -2 -67 -6z" />
    <glyph glyph-name="four.tf" 
d="M512 185h-99v-185h-73v185h-303v78c103 131 210 278 298 401h78v-416h99v-63zM340 563c-72 -106 -173 -238 -234 -315h234v315z" />
    <glyph glyph-name="five.tf" 
d="M94 321c10 99 17 243 23 343h331v-68h-265c-2 -63 -7 -153 -13 -212c31 19 69 26 107 26c114 0 210 -86 210 -210c0 -111 -92 -212 -217 -212c-76 0 -154 34 -199 101l55 39c33 -41 72 -72 130 -72c81 0 156 59 156 146c0 83 -65 140 -148 140c-42 0 -81 -14 -115 -44z
" />
    <glyph glyph-name="six.tf" 
d="M403 630c-135 -63 -238 -154 -266 -299c41 49 93 83 166 83c114 0 192 -100 192 -215c0 -111 -87 -211 -210 -211c-143 0 -230 128 -230 260c0 210 143 376 318 447zM130 238c5 -93 47 -182 154 -182c85 0 136 65 136 151c0 73 -46 139 -127 139
c-70 0 -128 -46 -163 -108z" />
    <glyph glyph-name="seven.tf" 
d="M466 664v-59c-82 -171 -206 -449 -278 -622l-68 30c89 210 213 468 267 583h-328v68h407z" />
    <glyph glyph-name="eight.tf" 
d="M376 348c63 -29 113 -89 113 -167c0 -108 -88 -193 -214 -193s-214 85 -214 193c0 78 50 138 113 167c-49 27 -93 74 -93 147c0 101 79 181 194 181s194 -80 194 -181c0 -73 -44 -120 -93 -147zM275 56c77 0 139 52 139 127c0 70 -62 126 -139 126s-139 -56 -139 -126
c0 -75 62 -127 139 -127zM275 377c66 0 121 54 121 117c0 67 -55 114 -121 114s-121 -47 -121 -114c0 -63 55 -117 121 -117z" />
    <glyph glyph-name="nine.tf" 
d="M147 34c135 63 238 154 266 299c-41 -49 -93 -83 -166 -83c-114 0 -192 100 -192 215c0 111 87 211 210 211c143 0 230 -128 230 -260c0 -210 -143 -376 -318 -447zM420 426c-5 93 -47 182 -154 182c-85 0 -136 -65 -136 -151c0 -73 46 -139 127 -139
c70 0 128 46 163 108z" />
    <glyph glyph-name="dollar.tf" 
d="M41 81l51 51c48 -51 107 -80 178 -80c66 0 155 32 155 130c0 84 -77 111 -158 140c-91 32 -188 67 -188 186c0 93 73 162 176 167v95h54v-97c56 -4 110 -25 160 -60l-46 -53c-36 34 -88 50 -144 50c-61 0 -131 -28 -131 -102c0 -78 87 -99 174 -130s174 -72 174 -186
c0 -117 -84 -188 -191 -202v-96h-54v94c-78 1 -147 33 -210 93z" />
    <glyph glyph-name="Euro.tf" 
d="M22 380v63h81c25 146 102 233 221 233c87 0 152 -46 190 -128l-67 -26c-26 58 -68 86 -123 86c-76 0 -126 -55 -146 -165h201v-63h-209c-1 -15 -1 -32 -1 -48s0 -30 1 -44h209v-63h-202c19 -113 70 -169 147 -169c66 0 113 41 137 124l68 -26
c-35 -106 -106 -166 -205 -166c-120 0 -198 88 -222 237h-80v63h73c-1 14 -1 29 -1 44c0 16 0 32 1 48h-73z" />
    <glyph glyph-name="cent.tf" 
d="M476 109c-38 -26 -78 -41 -127 -42v-85h-55v89c-125 21 -209 122 -209 252c0 127 85 231 209 252v88h55v-84c42 -2 81 -14 114 -33l-25 -57c-28 18 -66 28 -104 28c-104 0 -179 -85 -179 -194c0 -106 67 -194 180 -194c34 0 76 10 106 32z" />
    <glyph glyph-name="sterling.tf" 
d="M476 0h-392v68h58v256h-58v68h58v65c0 86 37 156 96 192c31 19 68 27 104 27c45 0 90 -12 131 -35l-31 -61c-28 18 -63 28 -100 28c-26 0 -53 -6 -74 -23c-38 -30 -53 -90 -53 -160v-33h135v-68h-135v-256h261v-68z" />
    <glyph glyph-name="yen.tf" 
d="M484 247h-174v-59h174v-64h-177v-124h-69v124h-177v64h174v59h-174v64h165l-198 352h85l164 -301h2l159 301h82l-200 -352h164v-64z" />
    <glyph glyph-name="florin.tf" 
d="M11 -144c14 -3 31 -6 49 -6c54 0 64 37 73 111l42 363h-84v68h91l14 122c12 104 69 161 155 161c44 0 84 -13 118 -30l-32 -60c-21 15 -50 22 -80 22c-66 0 -85 -38 -93 -110l-12 -105h126v-68h-133l-43 -380c-12 -107 -65 -162 -133 -162c-27 0 -52 5 -74 11z" />
    <glyph glyph-name="afii61352.tf" horiz-adv-x="1122" 
d="M650 0h-56l-417 562v-562h-70v700h55l418 -563v563h70v-700zM918 704c97 0 171 -79 171 -178s-74 -178 -171 -178s-171 79 -171 178s74 178 171 178zM1031 526c0 70 -48 124 -113 124s-113 -54 -113 -124s48 -124 113 -124s113 54 113 124z" />
    <glyph glyph-name="percent.tf" horiz-adv-x="849" 
d="M63 551c0 86 67 155 151 155s152 -69 152 -155s-68 -154 -152 -154s-151 68 -151 154zM120 551c0 -54 42 -97 94 -97c53 0 95 43 95 97c0 55 -42 98 -95 98c-52 0 -94 -43 -94 -98zM483 148c0 86 67 155 151 155s152 -69 152 -155s-68 -154 -152 -154s-151 68 -151 154z
M540 148c0 -54 42 -97 94 -97c53 0 95 43 95 97c0 55 -42 98 -95 98c-52 0 -94 -43 -94 -98zM650 709l46 -34l-497 -684l-46 34z" />
    <glyph glyph-name="perthousand.tf" horiz-adv-x="1234" 
d="M63 551c0 86 67 155 151 155s152 -69 152 -155s-68 -154 -152 -154s-151 68 -151 154zM120 551c0 -54 42 -97 94 -97c53 0 95 43 95 97c0 55 -42 98 -95 98c-52 0 -94 -43 -94 -98zM483 148c0 86 67 155 151 155s152 -69 152 -155s-68 -154 -152 -154s-151 68 -151 154z
M540 148c0 -54 42 -97 94 -97c53 0 95 43 95 97c0 55 -42 98 -95 98c-52 0 -94 -43 -94 -98zM868 148c0 86 67 155 151 155s152 -69 152 -155s-68 -154 -152 -154s-151 68 -151 154zM925 148c0 -54 42 -97 94 -97c53 0 95 43 95 97c0 55 -42 98 -95 98
c-52 0 -94 -43 -94 -98zM650 709l46 -34l-497 -684l-46 34z" />
    <glyph glyph-name="zeroslash.tosf" 
d="M275 500c151 0 235 -131 235 -256s-84 -256 -235 -256s-235 131 -235 256s84 256 235 256zM275 56c91 0 146 71 158 154h-316c12 -83 67 -154 158 -154zM275 432c-91 0 -146 -72 -158 -154h316c-12 82 -67 154 -158 154z" />
    <glyph glyph-name="zero.tosf" 
d="M275 500c151 0 235 -131 235 -256s-84 -256 -235 -256s-235 131 -235 256s84 256 235 256zM275 432c-103 0 -160 -92 -160 -188s57 -188 160 -188s160 92 160 188s-57 188 -160 188z" />
    <glyph glyph-name="one.tosf" 
d="M121 0v68h158v354c-38 -20 -119 -58 -179 -82v73c60 25 136 60 190 87h62v-432h136v-68h-367z" />
    <glyph glyph-name="two.tosf" 
d="M157 341l-69 24c20 81 96 135 181 135c94 0 171 -58 171 -161c0 -113 -115 -191 -255 -271h304v-68h-399v85c149 93 273 178 273 257c0 59 -36 90 -97 90c-54 0 -97 -36 -109 -91z" />
    <glyph glyph-name="three.tosf" 
d="M167 130l2 77c48 0 74 2 104 9c51 12 100 52 100 111c0 63 -58 105 -122 105c-51 0 -97 -25 -120 -73l-64 28c30 73 106 113 186 113c97 0 194 -63 194 -174c0 -61 -30 -119 -91 -146c74 -22 123 -91 123 -168c0 -112 -90 -200 -215 -200c-78 0 -153 29 -204 100l51 35
c32 -46 86 -68 144 -68c76 0 149 45 149 127s-72 130 -170 130c-20 0 -40 -2 -67 -6z" />
    <glyph glyph-name="four.tosf" 
d="M429 -180h-73v180h-336v85c119 135 230 275 327 403h82v-420h95v-68h-95v-180zM356 394c-75 -104 -200 -255 -265 -326h265v326z" />
    <glyph glyph-name="five.tosf" 
d="M94 145c10 99 17 243 23 343h331v-68h-265c-2 -63 -7 -153 -13 -212c31 19 69 26 107 26c114 0 210 -86 210 -210c0 -111 -92 -212 -217 -212c-76 0 -154 34 -199 101l55 39c33 -41 72 -72 130 -72c81 0 156 59 156 146c0 83 -65 140 -148 140c-42 0 -81 -14 -115 -44z
" />
    <glyph glyph-name="six.tosf" 
d="M403 630c-135 -63 -238 -154 -266 -299c41 49 93 83 166 83c114 0 192 -100 192 -215c0 -111 -87 -211 -210 -211c-143 0 -230 128 -230 260c0 210 143 376 318 447zM130 238c5 -93 47 -182 154 -182c85 0 136 65 136 151c0 73 -46 139 -127 139
c-70 0 -128 -46 -163 -108z" />
    <glyph glyph-name="seven.tosf" 
d="M466 488v-59c-82 -171 -206 -449 -278 -622l-68 30c89 210 213 468 267 583h-328v68h407z" />
    <glyph glyph-name="eight.tosf" 
d="M376 348c63 -29 113 -89 113 -167c0 -108 -88 -193 -214 -193s-214 85 -214 193c0 78 50 138 113 167c-49 27 -93 74 -93 147c0 101 79 181 194 181s194 -80 194 -181c0 -73 -44 -120 -93 -147zM275 56c77 0 139 52 139 127c0 70 -62 126 -139 126s-139 -56 -139 -126
c0 -75 62 -127 139 -127zM275 377c66 0 121 54 121 117c0 67 -55 114 -121 114s-121 -47 -121 -114c0 -63 55 -117 121 -117z" />
    <glyph glyph-name="nine.tosf" 
d="M147 -142c135 63 238 154 266 299c-41 -49 -93 -83 -166 -83c-114 0 -192 100 -192 215c0 111 87 211 210 211c143 0 230 -128 230 -260c0 -210 -143 -376 -318 -447zM420 250c-5 93 -47 182 -154 182c-85 0 -136 -65 -136 -151c0 -73 46 -139 127 -139
c70 0 128 46 163 108z" />
    <glyph glyph-name="dollar.tosf" 
d="M41 81l51 51c48 -51 107 -80 178 -80c66 0 155 32 155 130c0 84 -77 111 -158 140c-91 32 -188 67 -188 186c0 93 73 162 176 167v95h54v-97c56 -4 110 -25 160 -60l-46 -53c-36 34 -88 50 -144 50c-61 0 -131 -28 -131 -102c0 -78 87 -99 174 -130s174 -72 174 -186
c0 -117 -84 -188 -191 -202v-96h-54v94c-78 1 -147 33 -210 93z" />
    <glyph glyph-name="Euro.tosf" 
d="M22 380v63h81c25 146 102 233 221 233c87 0 152 -46 190 -128l-67 -26c-26 58 -68 86 -123 86c-76 0 -126 -55 -146 -165h201v-63h-209c-1 -15 -1 -32 -1 -48s0 -30 1 -44h209v-63h-202c19 -113 70 -169 147 -169c66 0 113 41 137 124l68 -26
c-35 -106 -106 -166 -205 -166c-120 0 -198 88 -222 237h-80v63h73c-1 14 -1 29 -1 44c0 16 0 32 1 48h-73z" />
    <glyph glyph-name="cent.tosf" 
d="M476 109c-38 -26 -78 -41 -127 -42v-85h-55v89c-125 21 -209 122 -209 252c0 127 85 231 209 252v88h55v-84c42 -2 81 -14 114 -33l-25 -57c-28 18 -66 28 -104 28c-104 0 -179 -85 -179 -194c0 -106 67 -194 180 -194c34 0 76 10 106 32z" />
    <glyph glyph-name="sterling.tosf" 
d="M476 0h-392v68h58v256h-58v68h58v65c0 86 37 156 96 192c31 19 68 27 104 27c45 0 90 -12 131 -35l-31 -61c-28 18 -63 28 -100 28c-26 0 -53 -6 -74 -23c-38 -30 -53 -90 -53 -160v-33h135v-68h-135v-256h261v-68z" />
    <glyph glyph-name="yen.tosf" 
d="M484 247h-174v-59h174v-64h-177v-124h-69v124h-177v64h174v59h-174v64h165l-198 352h85l164 -301h2l159 301h82l-200 -352h164v-64z" />
    <glyph glyph-name="florin.tosf" 
d="M11 -144c14 -3 31 -6 49 -6c54 0 64 37 73 111l42 363h-84v68h91l14 122c12 104 69 161 155 161c44 0 84 -13 118 -30l-32 -60c-21 15 -50 22 -80 22c-66 0 -85 -38 -93 -110l-12 -105h126v-68h-133l-43 -380c-12 -107 -65 -162 -133 -162c-27 0 -52 5 -74 11z" />
    <glyph glyph-name="afii61352.tosf" horiz-adv-x="1122" 
d="M650 0h-56l-417 562v-562h-70v700h55l418 -563v563h70v-700zM918 704c97 0 171 -79 171 -178s-74 -178 -171 -178s-171 79 -171 178s74 178 171 178zM1031 526c0 70 -48 124 -113 124s-113 -54 -113 -124s48 -124 113 -124s113 54 113 124z" />
    <glyph glyph-name="percent.tosf" horiz-adv-x="849" 
d="M63 551c0 86 67 155 151 155s152 -69 152 -155s-68 -154 -152 -154s-151 68 -151 154zM120 551c0 -54 42 -97 94 -97c53 0 95 43 95 97c0 55 -42 98 -95 98c-52 0 -94 -43 -94 -98zM483 148c0 86 67 155 151 155s152 -69 152 -155s-68 -154 -152 -154s-151 68 -151 154z
M540 148c0 -54 42 -97 94 -97c53 0 95 43 95 97c0 55 -42 98 -95 98c-52 0 -94 -43 -94 -98zM650 709l46 -34l-497 -684l-46 34z" />
    <glyph glyph-name="perthousand.tosf" horiz-adv-x="1234" 
d="M63 551c0 86 67 155 151 155s152 -69 152 -155s-68 -154 -152 -154s-151 68 -151 154zM120 551c0 -54 42 -97 94 -97c53 0 95 43 95 97c0 55 -42 98 -95 98c-52 0 -94 -43 -94 -98zM483 148c0 86 67 155 151 155s152 -69 152 -155s-68 -154 -152 -154s-151 68 -151 154z
M540 148c0 -54 42 -97 94 -97c53 0 95 43 95 97c0 55 -42 98 -95 98c-52 0 -94 -43 -94 -98zM868 148c0 86 67 155 151 155s152 -69 152 -155s-68 -154 -152 -154s-151 68 -151 154zM925 148c0 -54 42 -97 94 -97c53 0 95 43 95 97c0 55 -42 98 -95 98
c-52 0 -94 -43 -94 -98zM650 709l46 -34l-497 -684l-46 34z" />
    <glyph glyph-name="a.smcp" horiz-adv-x="527" 
d="M12 0l214 558h75l214 -558h-74l-48 126h-266l-46 -126h-69zM260 485l-109 -296h219l-108 296h-2z" />
    <glyph glyph-name="b.smcp" horiz-adv-x="531" 
d="M98 0v558h131c46 0 96 -5 140 -24c52 -26 77 -59 77 -123c0 -55 -28 -97 -100 -121c83 -23 124 -65 124 -135c0 -58 -29 -108 -88 -132c-46 -18 -105 -23 -162 -23h-122zM397 161c0 58 -50 93 -132 93h-99v-191h49c49 0 96 2 131 18c34 15 51 45 51 80zM378 407
c0 64 -53 88 -155 88h-57v-179h61c95 0 151 31 151 91z" />
    <glyph glyph-name="c.smcp" horiz-adv-x="543" 
d="M122 279c0 -138 96 -227 229 -227c42 0 81 12 119 36l39 -53c-44 -29 -95 -47 -156 -47c-169 0 -304 120 -304 291c0 167 137 291 304 291c51 0 100 -14 139 -39l-34 -54c-32 18 -69 29 -107 29c-132 0 -229 -95 -229 -227z" />
    <glyph glyph-name="d.smcp" horiz-adv-x="612" 
d="M563 282c0 -152 -81 -237 -186 -263c-35 -9 -70 -19 -207 -19h-73v558h69c153 0 195 -11 234 -27c91 -37 163 -112 163 -249zM490 275c0 90 -38 154 -105 187c-43 22 -91 32 -220 32v-430c83 0 126 4 168 14c98 22 157 83 157 197z" />
    <glyph glyph-name="e.smcp" horiz-adv-x="508" 
d="M427 0h-330v558h330v-64h-262v-175h262v-64h-262v-191h262v-64z" />
    <glyph glyph-name="f.smcp" horiz-adv-x="430" 
d="M376 242h-211v-242h-68v558h279v-64h-211v-188h211v-64z" />
    <glyph glyph-name="g.smcp" horiz-adv-x="646" 
d="M576 310v-217c-56 -69 -137 -105 -228 -105c-165 0 -299 121 -299 291c0 166 136 291 299 291c89 0 165 -40 218 -103l-55 -43c-36 50 -96 82 -164 82c-130 0 -225 -98 -225 -227c0 -132 93 -227 225 -227c71 0 123 26 163 69v127h-136v62h202z" />
    <glyph glyph-name="h.smcp" horiz-adv-x="661" 
d="M564 0h-68v257h-331v-257h-68v558h68v-237h331v237h68v-558z" />
    <glyph glyph-name="i.smcp" horiz-adv-x="262" 
d="M165 0h-68v558h68v-558z" />
    <glyph glyph-name="j.smcp" horiz-adv-x="329" 
d="M28 1l15 58c13 -5 29 -7 47 -7c22 0 47 6 59 23c13 18 15 47 15 89v394h68v-424c0 -42 -4 -72 -20 -96c-21 -32 -60 -50 -121 -50c-22 0 -47 5 -63 13z" />
    <glyph glyph-name="k.smcp" horiz-adv-x="533" 
d="M165 0h-68v558h68v-303l254 303h85l-185 -215l203 -343h-82l-167 289l-108 -128v-161z" />
    <glyph glyph-name="l.smcp" horiz-adv-x="426" 
d="M416 0h-319v558h68v-494h251v-64z" />
    <glyph glyph-name="m.smcp" horiz-adv-x="789" 
d="M692 558v-558h-68v496l-202 -496h-60l-197 491v-491h-68v558h112l185 -465l185 465h113z" />
    <glyph glyph-name="msmcp.salt" horiz-adv-x="726" 
d="M629 0h-67v485l-172 -362h-55l-170 363v-486h-68v559h103l164 -346l164 346h101v-559z" />
    <glyph glyph-name="n.smcp" horiz-adv-x="664" 
d="M495 0l-334 461v-461h-64v558h72l334 -461v461h64v-558h-72z" />
    <glyph glyph-name="o.smcp" horiz-adv-x="684" 
d="M635 279c0 -161 -126 -291 -293 -291s-293 130 -293 291s126 291 293 291s293 -130 293 -291zM562 279c0 130 -93 227 -220 227s-220 -97 -220 -227s93 -227 220 -227s220 97 220 227z" />
    <glyph glyph-name="p.smcp" horiz-adv-x="504" 
d="M165 0h-68v558h95c58 0 88 -1 113 -4c94 -12 168 -70 168 -164c0 -77 -55 -142 -131 -162c-28 -7 -58 -11 -132 -11h-45v-217zM400 387c0 48 -27 83 -79 98c-17 5 -36 9 -126 9h-30v-213h38c82 0 110 4 134 14c41 17 63 48 63 92z" />
    <glyph glyph-name="q.smcp" horiz-adv-x="684" 
d="M635 279c0 -84 -35 -160 -91 -213l81 -81l-41 -41l-87 87c-44 -27 -97 -43 -155 -43c-167 0 -293 130 -293 291s126 291 293 291s293 -130 293 -291zM412 199l85 -85c41 40 65 98 65 165c0 130 -93 227 -220 227s-220 -97 -220 -227s93 -227 220 -227c40 0 76 9 108 27
l-79 79z" />
    <glyph glyph-name="r.smcp" horiz-adv-x="537" 
d="M512 0h-87l-173 230h-87v-230h-68v558h182c130 0 195 -73 195 -161c0 -85 -57 -145 -142 -160zM401 392c0 59 -26 104 -165 104h-71v-204h75c110 0 161 34 161 100z" />
    <glyph glyph-name="s.smcp" horiz-adv-x="477" 
d="M392 518l-40 -51c-31 21 -66 39 -115 39c-66 0 -108 -30 -108 -83c0 -63 69 -79 137 -103c76 -27 155 -58 155 -161c0 -126 -121 -171 -190 -171c-75 0 -136 22 -193 78l47 48c54 -49 93 -62 145 -62c59 0 118 29 118 101c0 77 -76 92 -151 117c-69 23 -136 62 -136 150
c0 101 77 150 168 150c69 0 116 -19 163 -52z" />
    <glyph glyph-name="t.smcp" horiz-adv-x="438" 
d="M399 494h-146v-494h-68v494h-146v64h360v-64z" />
    <glyph glyph-name="u.smcp" horiz-adv-x="619" 
d="M531 558v-297c0 -176 -69 -273 -223 -273c-150 0 -220 97 -220 273v297h68v-306c0 -135 57 -200 154 -200c96 0 153 65 153 200v306h68z" />
    <glyph glyph-name="v.smcp" horiz-adv-x="517" 
d="M512 558l-213 -558h-80l-214 558h79l176 -480h2l177 480h73z" />
    <glyph glyph-name="w.smcp" horiz-adv-x="767" 
d="M750 558l-157 -558h-83l-123 461h-2l-131 -461h-81l-155 558h70l128 -469h1l132 469h76l125 -469h2l133 469h65z" />
    <glyph glyph-name="x.smcp" horiz-adv-x="524" 
d="M12 558h89l163 -225l165 225h87l-208 -273l210 -285h-88l-168 234l-171 -234h-86l214 282z" />
    <glyph glyph-name="y.smcp" horiz-adv-x="452" 
d="M262 0h-68v227l-188 331h86l136 -256h2l136 256h80l-184 -324v-234z" />
    <glyph glyph-name="z.smcp" horiz-adv-x="463" 
d="M414 522l-271 -458h293v-64h-387v42l266 452h-263v64h362v-36z" />
    <glyph glyph-name="thorn.smcp" horiz-adv-x="527" 
d="M97 558h68v-100h27c58 0 88 -1 113 -4c94 -12 168 -70 168 -164c0 -77 -55 -142 -131 -162c-28 -7 -58 -11 -132 -11h-45v-117h-68v558zM400 287c0 48 -27 83 -79 98c-17 5 -36 9 -126 9h-30v-213h38c82 0 110 4 134 14c41 17 63 48 63 92z" />
    <glyph glyph-name="agrave.smcp" horiz-adv-x="529" 
d="M13 0l214 558h75l214 -558h-74l-48 126h-266l-46 -126h-69zM261 485l-109 -296h219l-108 296h-2zM284 601l-126 153l51 39l118 -158z" />
    <glyph glyph-name="aacute.smcp" horiz-adv-x="529" 
d="M13 0l214 558h75l214 -558h-74l-48 126h-266l-46 -126h-69zM261 485l-109 -296h219l-108 296h-2zM366 754l-126 -153l-43 34l118 158z" />
    <glyph glyph-name="acircumflex.smcp" horiz-adv-x="529" 
d="M13 0l214 558h75l214 -558h-74l-48 126h-266l-46 -126h-69zM261 485l-109 -296h219l-108 296h-2zM297 773l99 -142l-41 -28l-88 114l-89 -114l-43 29l99 141h63z" />
    <glyph glyph-name="atilde.smcp" horiz-adv-x="529" 
d="M13 0l214 558h75l214 -558h-74l-48 126h-266l-46 -126h-69zM261 485l-109 -296h219l-108 296h-2zM384 723l51 6c2 -8 3 -14 3 -22c0 -46 -33 -85 -90 -85c-77 0 -103 68 -151 68c-22 0 -38 -13 -39 -33c0 -5 0 -8 1 -11l-51 -6c-2 8 -3 14 -3 22c0 46 33 85 90 85
c74 0 101 -68 151 -68c22 0 38 13 39 33c0 5 0 8 -1 11z" />
    <glyph glyph-name="adieresis.smcp" horiz-adv-x="529" 
d="M13 0l214 558h75l214 -558h-74l-48 126h-266l-46 -126h-69zM261 485l-109 -296h219l-108 296h-2zM209 640h-70v94h70v-94zM395 640h-70v94h70v-94z" />
    <glyph glyph-name="aring.smcp" horiz-adv-x="529" 
d="M13 0l214 558h75l214 -558h-74l-48 126h-266l-46 -126h-69zM261 485l-109 -296h219l-108 296h-2zM174 690c0 52 42 94 94 94s94 -42 94 -94s-42 -94 -94 -94s-94 42 -94 94zM218 690c0 -27 23 -50 50 -50s50 23 50 50s-23 50 -50 50s-50 -23 -50 -50z" />
    <glyph glyph-name="aringacute.smcp" horiz-adv-x="529" 
d="M393 873l-170 -101l-29 47l165 108zM13 0l214 558h75l214 -558h-74l-48 126h-266l-46 -126h-69zM261 485l-109 -296h219l-108 296h-2zM169 670c0 52 42 94 94 94s94 -42 94 -94s-42 -94 -94 -94s-94 42 -94 94zM213 670c0 -27 23 -50 50 -50s50 23 50 50s-23 50 -50 50
s-50 -23 -50 -50z" />
    <glyph glyph-name="ccedilla.smcp" horiz-adv-x="543" 
d="M122 279c0 -138 96 -227 229 -227c42 0 81 12 119 36l39 -53c-44 -29 -95 -47 -156 -47c-16 0 -31 1 -45 3l-26 -58l3 -1c7 7 23 16 48 16c54 0 84 -42 84 -89c0 -52 -46 -99 -106 -99c-42 0 -78 19 -98 54l52 26c10 -28 32 -32 49 -32c27 0 45 23 45 47
c0 26 -15 51 -46 51c-16 0 -32 -7 -42 -26l-57 31l43 91c-122 36 -208 140 -208 277c0 167 137 291 304 291c51 0 100 -14 139 -39l-34 -54c-32 18 -69 29 -107 29c-132 0 -229 -95 -229 -227z" />
    <glyph glyph-name="egrave.smcp" horiz-adv-x="508" 
d="M427 0h-330v558h330v-64h-262v-175h262v-64h-262v-191h262v-64zM289 601l-126 153l51 39l118 -158z" />
    <glyph glyph-name="eacute.smcp" horiz-adv-x="508" 
d="M427 0h-330v558h330v-64h-262v-175h262v-64h-262v-191h262v-64zM379 754l-126 -153l-43 34l118 158z" />
    <glyph glyph-name="ecircumflex.smcp" horiz-adv-x="508" 
d="M427 0h-330v558h330v-64h-262v-175h262v-64h-262v-191h262v-64zM305 773l99 -142l-41 -28l-88 114l-89 -114l-43 29l99 141h63z" />
    <glyph glyph-name="edieresis.smcp" horiz-adv-x="508" 
d="M427 0h-330v558h330v-64h-262v-175h262v-64h-262v-191h262v-64zM209 640h-70v94h70v-94zM395 640h-70v94h70v-94z" />
    <glyph glyph-name="igrave.smcp" horiz-adv-x="262" 
d="M165 0h-68v558h68v-558zM139 601l-126 153l51 39l118 -158z" />
    <glyph glyph-name="iacute.smcp" horiz-adv-x="262" 
d="M165 0h-68v558h68v-558zM251 754l-126 -153l-43 34l118 158z" />
    <glyph glyph-name="icircumflex.smcp" horiz-adv-x="262" 
d="M165 0h-68v558h68v-558zM164 773l99 -142l-41 -28l-88 114l-89 -114l-43 29l99 141h63z" />
    <glyph glyph-name="idieresis.smcp" horiz-adv-x="262" 
d="M165 0h-68v558h68v-558zM73 640h-70v94h70v-94zM259 640h-70v94h70v-94z" />
    <glyph glyph-name="eth.smcp" horiz-adv-x="612" 
d="M563 282c0 -152 -81 -237 -186 -263c-35 -9 -70 -19 -207 -19h-73v256h-61v64h61v238h69c153 0 195 -11 234 -27c91 -37 163 -112 163 -249zM490 275c0 90 -38 154 -105 187c-43 22 -91 32 -220 32v-174h111v-64h-111v-192c83 0 126 4 168 14c98 22 157 83 157 197z" />
    <glyph glyph-name="ntilde.smcp" horiz-adv-x="670" 
d="M498 0l-334 461v-461h-64v558h72l334 -461v461h64v-558h-72zM450 723l51 6c2 -8 3 -14 3 -22c0 -46 -33 -85 -90 -85c-77 0 -103 68 -151 68c-22 0 -38 -13 -39 -33c0 -5 0 -8 1 -11l-51 -6c-2 8 -3 14 -3 22c0 46 33 85 90 85c74 0 101 -68 151 -68c22 0 38 13 39 33
c0 5 0 8 -1 11z" />
    </font>
</defs>
</svg>
