<?xml version="1.0" standalone="no"?>
<!DOCTYPE svg PUBLIC "-//W3C//DTD SVG 1.1//EN" "http://www.w3.org/Graphics/SVG/1.1/DTD/svg11.dtd" >
<svg xmlns="http://www.w3.org/2000/svg" xmlns:xlink="http://www.w3.org/1999/xlink" version="1.1">
<metadata></metadata>
<defs>
<font id="youngserifregular" horiz-adv-x="1228" >
<font-face units-per-em="2048" ascent="1638" descent="-410" />
<missing-glyph horiz-adv-x="512" />
<glyph unicode="&#xfb01;" horiz-adv-x="1433" d="M26 31v61q0 31 30 31q73 0 112 54.5t37 140.5v350q0 44 -1 68t-9 60.5t-22.5 55.5t-44 34t-72.5 15q-30 0 -30 31v61q0 31 30 31h152v17q0 77 19 156t63 159.5t108.5 142.5t164 101t220.5 39q211 0 326.5 -81.5t115.5 -214.5q0 -41 -18 -85q-12 -30 -51 -39l-215 -48 l-5 -1q-15 0 -15 19q0 13 6 23q33 65 33 119q0 94 -56 145t-151 51q-133 0 -196.5 -102t-64.5 -267v-134h297q114 -1 228 19t179 40q1 0 5.5 1.5t8 2.5t4.5 1h5q2 0 4 -3v-767q0 -87 39 -141t112 -54h5q31 0 31 -31v-61q0 -15 -10 -23t-25 -8h-580q-34 0 -34 31v61v3 q0 28 31 28h3q73 0 112 54.5t37 140.5v360q0 32 -2.5 56t-11.5 52t-25 46t-45.5 30t-70.5 12h-296v-556q0 -87 39 -141t111 -54q31 0 31 -31v-61q0 -31 -31 -31h-587q-30 0 -30 31z" />
<glyph unicode="&#xfb02;" horiz-adv-x="1515" d="M26 31v61q0 31 30 31q73 0 112 54.5t37 140.5v350q0 44 -1 68t-9 60.5t-22.5 55.5t-44 34t-72.5 15q-30 0 -30 31v61q0 31 30 31h152v17q0 78 14 156t49.5 159t87.5 143t135.5 101t186.5 39q127 0 205.5 -40t104.5 -109q142 59 260 144q6 4 9 4h5q3 0 5 -3v-1317 q0 -87 39 -141t112 -54q30 0 30 -31v-61q0 -31 -30 -31h-587q-31 0 -31 31v61q0 31 31 31q72 0 110 54t38 141v862q0 66 -10.5 87t-41.5 13l-214 -48l-5 -1q-12 0 -15 14t5 28q38 73 38 135q0 55 -28 87t-68 32q-49 0 -86 -46q-35 -44 -50 -122t-16 -201v-134h275 q31 0 31 -31v-88q0 -31 -31 -31h-273v-556q0 -87 39 -141t111 -54q31 0 31 -31v-61q0 -31 -31 -31h-587q-30 0 -30 31z" />
<glyph horiz-adv-x="0" />
<glyph horiz-adv-x="682" />
<glyph unicode=" "  horiz-adv-x="512" />
<glyph unicode="&#x09;" horiz-adv-x="512" />
<glyph unicode="&#xa0;" horiz-adv-x="512" />
<glyph unicode="!" horiz-adv-x="765" d="M165 160q0 40 39 79l80 81q38 38 79 38t80 -39l80 -80q39 -39 39 -79q0 -41 -39 -80l-80 -80q-38 -38 -80 -38q-41 0 -79 38l-80 80q-39 39 -39 80zM165 1389q0 39 39 78l80 80q39 39 79 39q41 0 80 -39l80 -80q39 -39 39 -77q0 -48 -42.5 -286t-54.5 -387 q-10 -123 -10 -157q0 -26 -27 -26h-128q-27 0 -27 26q0 22 -11 157q-12 152 -54.5 388.5t-42.5 283.5z" />
<glyph unicode="&#x22;" horiz-adv-x="831" d="M102 1565v5q0 27 29 27h194q32 0 29 -32l-48 -466q-3 -29 -33 -29h-91q-29 0 -32 29zM477 1565v5q0 27 29 27h194q32 0 29 -32l-48 -466q-3 -29 -33 -29h-91q-29 0 -32 29z" />
<glyph unicode="#" horiz-adv-x="1558" d="M48 337q0 -24 28 -24h276l-70 -279l-1 -10q0 -24 28 -24h139q28 0 34 27l71 286h288l-69 -279l-1 -10q0 -24 28 -24h138q28 0 34 27l72 286h263q28 0 34 26l29 116l1 10q0 24 -28 24h-255l96 386h263q28 0 34 27l29 115l1 11q0 23 -28 23h-255l80 323l2 10q0 24 -29 24 h-138q-28 0 -34 -27l-82 -330h-289l80 323l2 10q0 24 -28 24h-139q-28 0 -34 -27l-82 -330h-283q-28 0 -34 -26l-29 -116l-2 -10q0 -24 28 -24h276l-96 -386h-284q-28 0 -34 -27l-29 -115zM597 489l96 386h289l-97 -386h-288z" />
<glyph unicode="$" horiz-adv-x="1480" d="M41 494q0 21 23 34l89 52q14 8 25 8q20 0 34 -24q201 -307 472 -390v500q-130 40 -226.5 90t-151.5 97.5t-88 103.5t-43.5 101.5t-10.5 98.5q0 171 140.5 271t379.5 100v141q0 31 30 31h139q31 0 31 -31v-174q83 -25 149 -61q7 -4 12 -4q21 0 4 60q-3 10 -3 20 q0 30 37 30h75q37 0 50 -34l144 -367q8 -22 8 -28q0 -18 -24 -31l-69 -37q-12 -6 -23 -6q-17 0 -36 22q-151 188 -324 264v-397q70 -21 123 -39.5t114.5 -44.5t106.5 -53t89 -63.5t71.5 -77t44 -93t16.5 -111.5q0 -201 -151 -331t-414 -137v-132q0 -30 -31 -30h-139 q-30 0 -30 30v150q-90 20 -165 57q-14 7 -25 7q-27 0 -14 -43q4 -12 4 -25q0 -24 -33 -23h-103q-36 0 -51 29l-249 465q-7 13 -7 25zM489 1195q0 -117 195 -196v372q-39 -2 -71.5 -11.5t-61.5 -28.5t-45.5 -53.5t-16.5 -82.5zM884 147q122 4 191 63.5t69 150.5q0 55 -19 97 t-57.5 71.5t-80.5 48.5t-103 38v-469z" />
<glyph unicode="%" horiz-adv-x="1804" d="M149 1119q0 108 56.5 199t155.5 135q69 31 145 31q107 0 200 -60.5t140 -164.5q33 -73 33 -156q0 -107 -57 -198.5t-156 -135.5q-69 -31 -144 -31q-107 0 -200 60.5t-140 164.5q-33 77 -33 156zM261 -5q0 9 8 20l1133 1473q15 18 37 18h85q26 0 26 -18q0 -8 -8 -19 l-1133 -1473q-16 -19 -37 -19h-85q-26 0 -26 18zM336 1199q0 -71 36 -151q33 -75 83 -123.5t107 -48.5q27 0 52 11q78 35 78 136q0 69 -37 151q-33 75 -82.5 123.5t-106.5 48.5q-27 0 -52 -11q-78 -35 -78 -136zM931 365q0 69 26 138q43 111 138.5 177t207.5 66 q64 0 127 -24q106 -41 168.5 -135t62.5 -207q0 -69 -26 -138q-43 -111 -138.5 -177t-207.5 -66q-64 0 -127 24q-106 41 -168.5 135t-62.5 207zM1123 289q0 -112 85 -145q24 -9 46 -9q58 0 107.5 52t79.5 130q28 72 28 139q0 114 -85 146q-21 8 -46 8q-58 0 -107.5 -52 t-79.5 -130q-28 -72 -28 -139z" />
<glyph unicode="&#x26;" horiz-adv-x="1665" d="M41 382q0 84 30.5 152t86 115.5t125 80.5t156.5 54l-116 133q-103 119 -103 267q0 75 30 142.5t86.5 121t147 85t203.5 31.5q177 0 282.5 -64t105.5 -156q0 -48 -21 -99q-12 -30 -52 -39l-214 -51h-5q-17 0 -17 21q0 13 7 21q26 33 35 59t9 61q0 56 -31 91.5t-103 35.5 q-107 0 -162 -48t-55 -126q0 -109 95 -219l502 -580q53 89 83.5 177t30.5 133q0 52 -33.5 84.5t-86.5 35.5h-33q-30 0 -30 31v62q0 30 30 30h570q31 0 31 -30v-62q0 -31 -31 -31h-14q-77 -4 -141 -59t-97 -135q-90 -215 -176 -354l89 -103q57 -65 110 -93.5t138 -28.5 q9 0 32 2.5t27 2.5q24 0 27 -28l6 -61l1 -5q0 -24 -28 -29q-65 -10 -125 -10q-149 0 -255 29.5t-189 111.5q-180 -172 -426 -172q-79 0 -152 13t-143.5 44t-122 77.5t-83 118t-31.5 160.5zM338 394q0 -64 22.5 -113t61 -77.5t84.5 -42.5t99 -14q152 0 287 115l-352 406 q-88 -39 -145 -107.5t-57 -166.5z" />
<glyph unicode="'" horiz-adv-x="440" d="M91 1565v5q0 27 29 27h194q32 0 29 -32l-48 -466q-3 -29 -33 -29h-91q-29 0 -32 29z" />
<glyph unicode="(" horiz-adv-x="983" d="M164 679q0 -275 148.5 -530.5t390.5 -381.5q9 -6 17 -6q14 0 25 16l34 53q7 10 7 17q0 13 -14 24q-137 109 -241.5 346t-104.5 462q0 226 104 462.5t242 345.5q14 11 14 24q0 7 -6 18l-38 57q-11 16 -26 16q-6 0 -16 -5q-160 -84 -283 -232t-188 -326.5t-65 -359.5z" />
<glyph unicode=")" horiz-adv-x="983" d="M197 -153q0 13 14 24q137 109 242 346t105 462q0 226 -104.5 462.5t-242.5 345.5q-14 11 -14 24q0 6 7 18l38 57q11 16 25 16q7 0 17 -5q160 -84 283 -232t187.5 -326.5t64.5 -359.5t-65.5 -358t-189 -324t-283.5 -230q-9 -6 -18 -6q-13 0 -24 16l-35 53q-7 10 -7 17z " />
<glyph unicode="*" d="M153 929q0 17 17 23l185 71q84 27 154 53q-70 26 -154 53l-185 71q-17 6 -17 23q0 9 6 19l88 154q10 18 26 18q5 0 16 -7l155 -125q76 -69 123 -107q-4 24 -32 160l-30 196l-1 6q0 25 31 25h178q15 0 23.5 -8t6.5 -23l-30 -196q-28 -136 -32 -160q47 38 123 107l155 125 q10 7 16 7q16 0 26 -18l88 -154q6 -10 6 -19q0 -17 -17 -23l-185 -71q-90 -29 -155 -53q65 -24 155 -53l185 -72q17 -6 17 -23q0 -8 -6 -19l-88 -153q-10 -18 -26 -18q-7 0 -16 6l-155 125q-76 69 -123 107q3 -19 32 -159l30 -197l1 -5q0 -12 -8.5 -19t-22.5 -7h-178 q-15 0 -23.5 8t-6.5 23l30 197q29 140 32 159q-47 -38 -123 -107l-155 -125q-9 -6 -16 -6q-16 0 -26 18l-88 154q-6 10 -6 19z" />
<glyph unicode="+" d="M77 452v177q0 31 31 31h387v387q0 31 31 31h177q31 0 31 -31v-387h387q31 0 31 -31v-177q0 -31 -31 -31h-387v-387q0 -31 -31 -31h-177q-31 0 -31 31v387h-387q-31 0 -31 31z" />
<glyph unicode="," horiz-adv-x="485" d="M32 -285q72 56 116.5 123t44.5 116q0 30 -17 47l-80 80q-39 39 -39 79q0 41 39 80l80 80q38 38 80 38q41 0 80 -39l80 -79q43 -43 43 -114q0 -28 -7 -60q-16 -74 -91 -167.5t-149 -153.5t-99 -60q-15 0 -81 30z" />
<glyph unicode="-" horiz-adv-x="1067" d="M46 452v177q0 31 31 31h911q31 0 31 -31v-177q0 -31 -31 -31h-911q-31 0 -31 31z" />
<glyph unicode="." horiz-adv-x="724" d="M165 160q0 40 39 79l80 81q38 38 79 38t80 -39l80 -80q39 -39 39 -79q0 -41 -39 -80l-80 -80q-38 -38 -80 -38q-41 0 -79 38l-80 80q-39 39 -39 80z" />
<glyph unicode="/" horiz-adv-x="1024" d="M100 -244l655 1822q8 24 35 24h167q17 0 24 -9.5t1 -25.5l-655 -1821q-10 -25 -35 -25h-167q-37 0 -25 35z" />
<glyph unicode="0" d="M54 545q0 158 75.5 292t205.5 212t283 78t283.5 -78t206 -212t75.5 -292t-75.5 -292t-206 -212t-283.5 -78t-283 78t-205.5 212t-75.5 292zM340 540q0 -80 18 -156t52 -138.5t89.5 -100.5t123.5 -38t121.5 39.5t85 104t48 141t16.5 157.5q0 80 -17 154t-50 134.5 t-87.5 97t-122.5 36.5t-122.5 -37.5t-87.5 -100t-50 -138t-17 -155.5z" />
<glyph unicode="1" horiz-adv-x="864" d="M41 31v61q0 31 31 31h54q139 7 139 195v414q0 46 -7 78t-26.5 60.5t-59.5 42.5t-100 14q-31 0 -31 31v61q0 31 31 31q353 0 711 62q31 0 31 -31v-62q0 -31 -31 -31l-43 -3q-83 -6 -115.5 -63.5t-32.5 -189.5v-414q0 -188 138 -195h53q31 0 31 -31v-61q0 -31 -31 -31h-711 q-31 0 -31 31z" />
<glyph unicode="2" horiz-adv-x="1087" d="M41 31v62q0 13 7 27q33 67 92.5 134.5t122.5 119.5t130.5 109.5t119.5 107t85.5 109t33.5 118.5q0 89 -37.5 135t-106.5 46q-66 0 -114.5 -33.5t-48.5 -104.5q0 -64 45 -150q6 -11 6 -22q0 -23 -21 -19l-214 48q-40 9 -52 39q-14 34 -14 74q0 115 119 201t303 86 q430 0 430 -302q0 -88 -47.5 -162.5t-125 -132t-159.5 -108.5t-169.5 -115.5t-136.5 -128.5l191 6q6 0 44.5 1t51.5 1.5t51 2.5t55.5 4.5t52 7.5t53.5 11t46 15.5t44 20.5t33.5 26.5t27.5 33.5l7 11q9 17 24 17q9 0 18 -6l63 -37q17 -9 17 -24q0 -8 -6 -17l-152 -253 q-10 -17 -25 -17q-7 0 -17 7l-11 10q-12 10 -38 10h-747q-31 0 -31 31z" />
<glyph unicode="3" horiz-adv-x="1103" d="M61 832q0 115 120 201t303 86q211 0 320.5 -75t109.5 -226q0 -231 -274 -334q183 -27 292.5 -128t109.5 -266q0 -95 -34.5 -175t-97 -136.5t-149 -96t-189.5 -58.5t-220 -19q-94 0 -191 12q-29 3 -32 29l-11 88v5q0 13 8.5 20.5t22.5 4.5q95 -21 182 -21q115 0 202.5 36 t140.5 117t53 200q0 265 -281 265q-76 0 -165 -18l-10 -1q-22 0 -27 25l-12 60l-1 9q0 15 13 23q5 4 15 7q173 56 266.5 148.5t93.5 203.5q0 89 -37.5 135t-106.5 46q-66 0 -114.5 -33.5t-48.5 -104.5q0 -64 45 -150q6 -11 6 -22q0 -23 -21 -19l-214 49q-40 9 -52 39 q-15 36 -15 74z" />
<glyph unicode="4" horiz-adv-x="1157" d="M0 33v127q0 20 11 38q45 69 110.5 151t115.5 143t97 129t73 138t26 140q0 92 -46 190q-5 12 -5 22q0 23 20 19l295 -62q22 -4 33.5 -13.5t17.5 -26.5q10 -30 10 -66q0 -69 -37.5 -155t-107.5 -181.5t-127 -164.5t-141.5 -163t-105.5 -118h365v209q0 29 27 34l181 34l10 1 q24 0 24 -28v-250h229q31 0 31 -30v-117q0 -31 -31 -31h-229v-381q0 -31 -30 -31h-181q-31 0 -31 31v381h-573q-31 0 -31 31z" />
<glyph unicode="5" horiz-adv-x="1130" d="M31 -252q0 13 8.5 20.5t22.5 4.5q99 -21 178 -21q90 0 164 23.5t132.5 71.5t91 130t32.5 190q0 77 -21.5 135.5t-55 94t-81.5 58t-95.5 30.5t-101.5 8q-92 0 -176 -20l-10 -1q-27 0 -21 30l112 583q6 27 33 27l301 5q350 7 396 87l7 11q9 17 24 17q10 0 18 -5l63 -37 q17 -9 17 -24q0 -9 -6 -18l-130 -216q-10 -16 -25 -16q-7 0 -16 6l-12 10q-13 11 -38 11h-436l-70 -322q53 8 118 8q151 0 272 -52t195.5 -160t74.5 -257q0 -138 -58.5 -244.5t-160.5 -171.5t-232 -98t-282 -33q-93 0 -189 12q-29 3 -32 29l-11 88v6z" />
<glyph unicode="6" horiz-adv-x="1314" d="M61 622q0 83 10.5 168t36.5 179t65 177.5t101 160t139 132t184.5 88.5t233.5 33q183 0 303 -86t120 -200q0 -38 -15 -74q-12 -30 -52 -39l-214 -48l-6 -1q-12 0 -14.5 14t5.5 28q45 86 45 146q0 35 -14.5 60t-39.5 38t-51.5 18.5t-57.5 5.5q-90 0 -164 -32.5t-125.5 -91 t-87 -128t-58.5 -154.5q54 20 104 28q58 10 105 10q134 0 257 -56t210.5 -157.5t119.5 -229.5q16 -63 16 -127q0 -185 -122.5 -327t-318.5 -177q-51 -9 -103 -9q-206 0 -373.5 124.5t-217.5 320.5l-6 27q-15 82 -15 179zM362 667q0 -129 18 -201q36 -144 118 -242.5 t196 -98.5q25 0 45 4q96 17 141 90.5t45 181.5q0 72 -21 158q-36 144 -118 242t-196 98q-29 0 -44 -3q-86 -15 -131 -76.5t-53 -152.5z" />
<glyph unicode="7" horiz-adv-x="1191" d="M41 894q0 10 5 18l130 215q10 17 26 17q7 0 16 -6l12 -11q12 -10 38 -10h30h4h819q30 0 30 -30v-117q0 -20 -11 -38q-35 -54 -109.5 -161.5t-134 -194t-132 -205t-121 -217t-82 -207t-33.5 -195.5q0 -89 31 -155q6 -14 6 -22q0 -23 -21 -19l-335 63q-39 5 -51 39 q-6 16 -6 43q0 281 822 1248l-409 -6q-349 -7 -396 -88l-6 -11q-9 -16 -24 -16q-11 0 -18 5l-63 37q-17 9 -17 24z" />
<glyph unicode="8" horiz-adv-x="1142" d="M61 396q0 246 280 363q-246 158 -246 402q0 179 138 293t347 114q205 0 332 -109.5t127 -276.5q0 -111 -69 -209.5t-173 -154.5q138 -75 211 -175.5t73 -244.5q0 -191 -147 -304.5t-376 -113.5q-226 0 -361.5 111.5t-135.5 304.5zM285 396q0 -122 69.5 -205t203.5 -83 q132 0 192.5 66t60.5 197q0 60 -30 113.5t-76.5 89t-91 58.5t-86.5 36q-242 -72 -242 -272zM357 1184q0 -51 25.5 -99.5t65.5 -84.5t82 -61t81 -39q102 31 151 106t49 176q0 106 -59 181.5t-172 75.5q-102 0 -162.5 -65t-60.5 -190z" />
<glyph unicode="9" horiz-adv-x="1265" d="M53 216q0 40 14 74q12 30 52 39l215 48l5 1q12 0 14.5 -14t-5.5 -28q-45 -86 -45 -146q0 -35 14.5 -59.5t39.5 -37.5t51.5 -18.5t57.5 -5.5q97 0 174 38t127.5 106t82.5 148t52 179q-62 -28 -131 -40q-61 -11 -129 -11q-194 0 -337.5 102.5t-189.5 287.5q-16 64 -16 132 q0 184 118.5 324.5t312.5 175.5q69 12 137 12q99 0 187 -26.5t162 -79t125.5 -139.5t71.5 -201q12 -67 12 -162q0 -81 -8.5 -164.5t-31.5 -182t-58.5 -187t-95 -172.5t-135 -144.5t-183.5 -97.5t-237 -37q-184 0 -303.5 85.5t-119.5 200.5zM381 1090q0 -72 21 -158 q73 -288 275 -288q73 0 125 26.5t79 72t38.5 94.5t11.5 106q0 48 -11.5 103.5t-37.5 112.5t-61.5 103t-88.5 75t-115 29q-121 0 -178.5 -76.5t-57.5 -199.5z" />
<glyph unicode=":" horiz-adv-x="724" d="M164 160q0 41 39 80l80 81q38 38 79 38t80 -39l80 -80q39 -39 39 -80q0 -40 -39 -79l-80 -80q-39 -39 -80 -39q-40 0 -79 39l-80 80q-39 39 -39 79zM164 1001q0 41 39 80l80 80q39 39 79 39q41 0 80 -39l80 -80q39 -39 39 -80q0 -40 -39 -79l-80 -81q-38 -38 -80 -38 q-41 0 -79 38l-80 81q-39 39 -39 79z" />
<glyph unicode=";" horiz-adv-x="759" d="M164 -284q72 56 117 123t45 116q0 29 -17 46l-80 80q-39 39 -39 80t39 80l80 80q38 38 79 38t80 -39l80 -80q43 -43 43 -113q0 -29 -7 -61q-16 -74 -91 -167.5t-149 -153.5t-99 -60q-13 0 -81 31zM198 1001q0 41 39 80l80 81q38 38 80 38q40 0 79 -39l81 -80 q38 -38 38 -80q0 -41 -38 -79l-81 -80q-39 -39 -79 -39q-41 0 -80 39l-80 80q-39 39 -39 79z" />
<glyph unicode="&#x3c;" d="M47 588q0 -12 17 -21l1087 -549q8 -4 16 -4q21 0 21 27v141q0 24 -23 36l-733 370l733 370q23 12 23 37v140q0 27 -21 27q-8 0 -16 -4l-1087 -549q-17 -9 -17 -21z" />
<glyph unicode="=" d="M127 259v177q0 31 31 31h911q31 0 31 -31v-177q0 -31 -31 -31h-911q-31 0 -31 31zM127 732v178q0 31 31 31h911q31 0 31 -31v-178q0 -30 -31 -30h-911q-31 0 -31 30z" />
<glyph unicode="&#x3e;" d="M47 41v141q0 24 22 36l734 370l-734 370q-22 12 -22 37v140q0 27 20 27q8 0 16 -4l1087 -549q18 -10 18 -21t-18 -21l-1087 -549q-8 -4 -16 -4q-20 0 -20 27z" />
<glyph unicode="?" horiz-adv-x="1083" d="M50 1422q0 93 105 155t267 62q226 0 341 -88t115 -225q0 -72 -23 -128t-60.5 -91t-82 -65t-89.5 -58.5t-82.5 -61.5t-60.5 -85t-23 -119q0 -54 -0.5 -89.5t-1 -50t-0.5 -18.5q0 -25 -27 -25h-128q-27 0 -27 25q0 6 -1.5 19t-4 49.5t-5.5 89.5q-3 70 12.5 127.5t44 97.5 t63.5 74.5t70.5 66.5t65.5 65.5t48.5 79.5t18.5 101q0 58 -14 98.5t-38 61t-48.5 29t-53.5 8.5q-43 0 -80 -33t-37 -86q0 -62 38 -135q5 -9 5 -22q0 -23 -20 -19l-214 49q-40 9 -52 39q-21 52 -21 102zM165 160q0 41 39 80l80 80q39 39 79 39q41 0 80 -39l80 -80 q39 -39 39 -80t-39 -80l-80 -80q-38 -38 -80 -38q-41 0 -79 38l-80 80q-39 39 -39 80z" />
<glyph unicode="@" horiz-adv-x="1972" d="M41 678q0 155 48 301t136.5 263t206 205.5t263 136.5t300.5 48q167 0 314.5 -48.5t259.5 -136t193.5 -206t123.5 -262.5t42 -301q0 -77 -22 -149t-65.5 -133.5t-118 -99t-168.5 -37.5t-168 -12t-109.5 -25t-94.5 -39q-8 -4 -17 -4h-5q-3 0 -3 6l23 177q-8 -20 -20 -40 t-37.5 -47t-57 -47t-81 -34.5t-107.5 -14.5q-56 0 -114.5 17t-118 57t-105 98.5t-74.5 149.5t-29 202q0 133 38.5 235.5t104 163t147 91t174.5 30.5q196 0 323 -115q102 42 197 111q8 5 9 5h4q3 0 3 -3v-20v-15v-31v-582q2 -85 26 -136t91 -59q104 -6 162 78.5t58 221.5 q0 166 -54.5 311.5t-153 253.5t-246 170.5t-324.5 62.5q-162 0 -310 -63t-255 -170t-170 -255t-63 -310t63 -310t170 -255t255 -170.5t310 -63.5q97 0 194 25l44 -150q-114 -30 -238 -30q-155 0 -300.5 48t-263 136.5t-206 205.5t-136.5 263t-48 301zM692 767 q0 -189 76 -301t199 -112q41 0 76 13.5t55 33t34.5 38.5t19.5 33l6 13v399q-5 27 -13.5 52.5t-26 54.5t-40.5 50.5t-60 35.5t-82 14q-56 0 -99 -18t-70 -48t-44 -73t-24 -88t-7 -97z" />
<glyph unicode="A" horiz-adv-x="1609" d="M12 31v61q0 31 31 31q15 0 27.5 2.5t23.5 10.5t19.5 13.5t17.5 20t14 22.5t13.5 28.5t12 29t13 34t12.5 34.5l441 1192q9 25 35 25h247q27 0 35 -24l462 -1193q4 -9 13 -33.5t12.5 -33.5t12 -29t14 -28.5t14.5 -23t17 -20.5t18.5 -13.5t23 -10.5t26.5 -3q30 0 30 -31v-61 q0 -31 -30 -31h-628q-31 0 -31 31v61q0 31 31 31q64 0 111 40t47 101q0 28 -10 54l-64 173h-560l-61 -173q-9 -27 -9 -51q0 -61 47.5 -102.5t111.5 -41.5q31 0 31 -31v-61q0 -31 -31 -31h-509q-31 0 -31 31zM525 669h433l-221 600z" />
<glyph unicode="B" horiz-adv-x="1476" d="M61 31v61q0 31 31 31h2q149 0 149 195v900q0 195 -149 195h-2q-31 0 -31 30v62q0 31 31 31h659q135 0 249.5 -44.5t185.5 -130.5t71 -196q0 -83 -51 -158.5t-156 -127.5q341 -97 341 -426q0 -88 -39 -169.5t-108.5 -144.5t-173.5 -101t-225 -38h-753q-31 0 -31 31z M558 918h128q138 0 201 68t63 179q0 113 -68.5 180.5t-187.5 67.5h-136v-495zM570 318q0 -186 134 -195h51q151 0 240 92.5t89 237.5q0 169 -94.5 244.5t-300.5 75.5h-119v-455z" />
<glyph unicode="C" horiz-adv-x="1531" d="M72 752q0 77 10.5 152.5t36.5 156.5t64.5 152t99 135.5t136.5 110.5t180.5 73t226.5 27q105 0 203.5 -25t185.5 -75.5t150 -135t87 -193.5l2 -13q0 -31 -36 -40l-262 -91q-17 -5 -26 -5q-26 0 -23 21l3 31l2 37q0 46 -8.5 90t-30.5 88t-55.5 76.5t-87 53t-120.5 20.5 q-70 0 -129.5 -25t-101 -68.5t-72.5 -98.5t-49 -119t-27 -125t-9 -121q0 -203 46.5 -350.5t147.5 -233t250 -85.5q87 0 161.5 21t125.5 53t93.5 79t67.5 88.5t48 91.5q12 27 35 27q12 0 26 -8l72 -33q18 -8 24.5 -16.5t-0.5 -25.5q-28 -69 -66.5 -131t-99 -125.5 t-132.5 -109t-172.5 -74.5t-214.5 -29q-181 0 -326.5 58.5t-240 162.5t-145 244.5t-50.5 306.5z" />
<glyph unicode="D" horiz-adv-x="1617" d="M61 31v61q0 31 31 31h14q137 7 137 195v900q0 195 -149 195h-2q-31 0 -31 30v62q0 31 31 31h630q237 0 422.5 -89t294 -264.5t108.5 -411.5q0 -165 -45.5 -302.5t-136.5 -243.5t-240.5 -165.5t-345.5 -59.5h-687q-31 0 -31 31zM570 328q0 -41 1.5 -63.5t9.5 -51.5 t23.5 -43.5t45 -25t72.5 -10.5q118 0 206.5 28t146.5 79.5t94 131.5t51 176t15 222q0 305 -148.5 473.5t-421.5 168.5h-95v-1085z" />
<glyph unicode="E" horiz-adv-x="1546" d="M61 30v62q0 30 31 30h2q149 0 149 195v900q0 195 -149 195h-2q-31 0 -31 31v61q0 31 31 31h1026q27 0 39 11l12 11q9 6 17 6q16 0 26 -17l163 -279q6 -9 6 -18q0 -14 -17 -25l-86 -46q-9 -6 -18 -6q-14 0 -25 17l-7 12q-59 102 -131.5 145.5t-194.5 43.5h-344v-481h191 q188 0 195 138v14q0 31 30 31h62q31 0 31 -31v-466q0 -30 -31 -30h-62q-30 0 -30 30v13q-7 138 -195 138h-179v-407q0 -189 141 -194h133q56 0 92.5 2.5t86.5 12t89 29.5t84 53t88.5 86t87.5 125l7 11q11 18 25 18q9 0 18 -6l66 -38q17 -11 17 -25q0 -9 -6 -18l-192 -406 q-8 -18 -24 -18q-9 0 -19 8l-11 10q-12 10 -40 10h-1121q-31 0 -31 31z" />
<glyph unicode="F" horiz-adv-x="1421" d="M61 1443v62q0 31 31 31h1026q27 0 39 11l12 10q11 7 17 7q16 0 26 -17l163 -279q6 -9 6 -18q0 -14 -17 -25l-86 -46q-9 -6 -18 -6q-14 0 -25 17l-7 11q-109 189 -367 189h-303v-500h191q188 0 195 137v14q0 31 30 31h62q31 0 31 -31v-465q0 -31 -31 -31h-62q-30 0 -30 31 v12q-7 138 -195 138h-179v-408q0 -188 138 -195h14q31 0 31 -31v-61q0 -31 -31 -31h-630q-30 0 -30 31v61q0 31 30 31h13q138 7 138 195v900q0 195 -149 195h-2q-31 0 -31 30z" />
<glyph unicode="G" horiz-adv-x="1581" d="M72 751q0 77 10.5 152.5t36.5 156.5t64.5 152.5t99 136t136.5 110.5t180.5 73t226.5 27q105 0 203.5 -25t185.5 -75.5t150 -135t87 -193.5l1 -13q0 -31 -35 -40l-262 -92q-17 -5 -26 -5q-13 0 -19.5 5.5t-4.5 15.5l4 31l1 38q0 46 -8.5 90t-30.5 88t-55 76.5t-86.5 53 t-120.5 20.5q-84 0 -152 -36t-111 -93.5t-72.5 -132.5t-41.5 -148.5t-12 -146.5q0 -123 27.5 -239t79.5 -213.5t139.5 -157t197.5 -59.5q42 0 80.5 6.5t74 20t56.5 39t21 59.5v106q0 55 -8 95.5t-23.5 65t-34 40t-44 22t-48.5 9.5t-52 4h-8h-14q-31 0 -31 30v62q0 31 31 31 l644 -1q31 0 31 -30v-62q0 -31 -31 -31h-16q-29 0 -41.5 -15.5t-12.5 -50.5v-222q-21 -57 -70 -120q-199 -251 -557 -251q-219 0 -388.5 101t-260.5 276t-91 395z" />
<glyph unicode="H" horiz-adv-x="1839" d="M61 31v61q0 31 31 31h12q139 7 139 195v900q0 188 -139 195h-12q-31 0 -31 31v61q0 31 31 31h630q31 0 31 -31v-61q0 -31 -31 -31h-14q-138 -7 -138 -195v-349h699v349q0 188 -138 195h-14q-30 0 -30 31v61q0 31 30 31h630q31 0 31 -31v-61q0 -31 -31 -31h-12 q-138 -7 -138 -195v-900q0 -188 138 -195h12q31 0 31 -31v-61q0 -31 -31 -31h-630q-30 0 -30 31v61q0 31 30 31h14q138 7 138 195v388h-699v-388q0 -188 138 -195h14q31 0 31 -31v-61q0 -31 -31 -31h-630q-31 0 -31 31z" />
<glyph unicode="I" horiz-adv-x="833" d="M72 31v61q0 31 30 31h14q138 7 138 195v900q0 188 -138 195h-14q-30 0 -30 31v61q0 31 30 31h630q31 0 31 -31v-61q0 -31 -31 -31h-12q-138 -7 -138 -195v-900q0 -188 138 -195h12q31 0 31 -31v-61q0 -31 -31 -31h-630q-30 0 -30 31z" />
<glyph unicode="J" horiz-adv-x="1075" d="M10 252q0 32 33 49l203 109q8 4 12 4q11 0 18.5 -9.5t6.5 -27.5q-6 -37 -6 -78q0 -80 26.5 -134t86.5 -54q125 0 125 150v957q0 188 -138 195h-14q-30 0 -30 31v61q0 31 30 31h630q31 0 31 -31v-62q0 -30 -31 -30h-12q-138 -7 -138 -195v-771q0 -470 -472 -470 q-77 0 -142 23.5t-104 57.5t-66.5 73.5t-38 70.5t-10.5 50z" />
<glyph unicode="K" horiz-adv-x="1634" d="M61 31v61q0 31 31 31h14q138 7 138 195v900q0 187 -136 195h-15q-31 0 -31 31v61q0 31 31 31h629q31 0 31 -31v-61q0 -31 -31 -31h-14q-137 -8 -137 -197v-403l402 446l62 71q21 24 21 49q0 35 -41 35h-42q-12 0 -19.5 8t-6.5 23v62q0 30 30 30h517q30 0 31 -30v-62 q0 -31 -27 -31h-24q-61 0 -106.5 -27t-119.5 -107l-301 -325l425 -637q12 -18 36.5 -58t36.5 -56t33 -38.5t44.5 -32t53.5 -10.5h12q30 0 30 -31v-61q0 -31 -30 -31h-630q-31 0 -31 31v61q0 31 31 31h13q51 2 80.5 28.5t29.5 68.5q0 48 -36 98l-299 422l-175 -188v-234 q0 -188 139 -195h12q31 0 31 -31v-61q0 -31 -31 -31h-630q-31 0 -31 31z" />
<glyph unicode="L" horiz-adv-x="1452" d="M61 30v62q0 30 31 30h2q149 0 149 195v900q0 195 -149 195h-2q-31 0 -31 31v61q0 31 31 31h622q16 0 26.5 -8.5t10.5 -22.5v-61q0 -14 -19.5 -22.5t-37.5 -8.5h-124v-1073q0 -189 141 -194h79q44 0 75 2.5t75.5 11.5t82 30t81 53.5t87.5 86t87 124.5l7 11q11 18 25 18 q9 0 18 -6l65 -38q17 -11 17 -25q0 -11 -5 -18l-192 -406q-8 -18 -25 -18q-8 0 -18 8l-12 10q-12 10 -39 10h-1027q-31 0 -31 31z" />
<glyph unicode="M" horiz-adv-x="2121" d="M61 31v61q0 31 31 31q72 0 111.5 54t41.5 141v1064q-55 31 -129 31q-31 0 -31 31v61q0 31 31 31h385q21 0 38 -18l522 -1056l522 1056q17 18 38 18h385q31 0 31 -31v-61q0 -31 -31 -31q-74 0 -127 -31v-1064q0 -87 39 -141t111 -54q31 0 31 -31v-61q0 -31 -31 -31h-505 q-30 0 -30 31v61q0 31 30 31q72 0 110.5 54t38.5 141v776l-482 -979q-11 -22 -36 -22h-188q-25 0 -36 22l-482 979v-776q0 -87 38 -141t110 -54q31 0 31 -31v-61q0 -31 -31 -31h-505q-31 0 -31 31z" />
<glyph unicode="N" horiz-adv-x="1824" d="M61 31v61q0 31 31 31q72 0 110.5 54t38.5 141v1044q-58 51 -129 51q-30 0 -30 31v61q0 31 30 31h355q21 0 37 -18l915 -1044v745q0 87 -39 141t-112 54q-31 0 -31 30v62q0 30 31 30h505q31 0 31 -30v-62q0 -30 -31 -30q-73 0 -112 -54q-37 -52 -37 -133v-8v-1188 q0 -31 -30 -31h-142q-20 0 -37 18l-968 1115v-815q0 -87 39 -141t111 -54q31 0 31 -31v-61q0 -31 -31 -31h-505q-31 0 -31 31z" />
<glyph unicode="O" horiz-adv-x="1683" d="M72 776q0 181 75 343t213 275.5t315 150.5q76 16 154 16q271 0 487.5 -178.5t276.5 -456.5q18 -85 18 -171q0 -181 -75.5 -341.5t-214 -273t-315.5 -150.5q-80 -17 -155 -17q-271 0 -486 177.5t-275 455.5q-18 86 -18 170zM377 885q0 -107 23 -213q17 -79 43.5 -151 t68 -139.5t92.5 -117t120 -79t147 -29.5q49 0 98 10q91 20 158.5 67t105 113.5t55.5 141.5t18 162q0 98 -23 210q-17 79 -44 151.5t-69 141t-93.5 118t-120.5 79.5t-148 30q-47 0 -96 -10q-73 -15 -131 -49.5t-95.5 -80.5t-62.5 -104.5t-35.5 -120t-10.5 -130.5z" />
<glyph unicode="P" horiz-adv-x="1433" d="M61 31v61q0 31 31 31h14q138 7 138 195v900q0 195 -148 195h-2q-31 0 -31 31v61q0 31 31 31h752q121 0 225 -38t173.5 -101t108.5 -144.5t39 -169.5q0 -81 -21 -149t-70.5 -127.5t-125.5 -100.5t-190.5 -64.5t-260.5 -23.5h-153v-300q0 -188 139 -195h12q31 0 31 -31v-61 q0 -31 -31 -31h-630q-31 0 -31 31zM559 763h131q206 0 300.5 75.5t94.5 244.5q0 145 -88.5 237.5t-239.5 92.5h-198v-650z" />
<glyph unicode="Q" horiz-adv-x="1683" d="M72 776q0 181 75 342.5t213 275t315 150.5q76 16 154 16q271 0 487.5 -178.5t276.5 -456.5q18 -86 18 -170q0 -167 -65 -318t-185 -263t-276 -164q-4 -2 -22.5 -8t-24.5 -8.5t-22 -9t-23 -10.5t-20 -12t-19 -15t-14.5 -17t-12.5 -20.5t-7 -24t-3 -28.5q0 -127 189 -127 q51 0 113.5 13t106.5 27t117 40q7 3 15 3q15 0 25 -18l45 -89q5 -10 5 -17q0 -15 -18 -26q-122 -61 -228.5 -95t-221.5 -34q-92 0 -165 16.5t-118.5 43t-75 63t-41.5 73.5t-12 77q0 104 85 174q-236 36 -415.5 206.5t-232.5 417.5q-18 85 -18 171zM377 884q0 -106 23 -212 q21 -100 59 -188.5t94.5 -164t138.5 -120t179 -44.5q45 0 98 11q74 16 132 50t96 79.5t63 104t35.5 119.5t10.5 130q0 98 -23 210q-21 101 -59.5 189.5t-95.5 165t-140 121.5t-180 45q-43 0 -96 -11q-73 -15 -131 -49.5t-95.5 -80.5t-62.5 -104.5t-35.5 -120t-10.5 -130.5z " />
<glyph unicode="R" horiz-adv-x="1634" d="M61 31v61q0 31 31 31h14q138 7 138 195v900q0 195 -148 195h-2q-31 0 -31 31v61q0 31 31 31h752q121 0 224.5 -35t173.5 -94t109 -138t39 -166q0 -112 -59 -208.5t-184 -156.5l223 -420q20 -38 26 -48.5t25 -41.5t31 -42.5t32.5 -29.5t42 -25t47.5 -8h12q30 0 30 -30v-62 q0 -31 -30 -31h-630q-31 0 -31 31v62q0 30 31 30h13q49 3 75 30t26 70q0 45 -27 95l-186 347q-63 -6 -135 -6h-153v-341q0 -188 139 -195h12q31 0 31 -31v-61q0 -31 -31 -31h-630q-31 0 -31 31zM571 804h119q199 0 297 78.5t98 221.5t-87.5 226t-240.5 83h-186v-609z" />
<glyph unicode="S" horiz-adv-x="1480" d="M41 494q0 21 23 34l89 52q14 8 25 8q20 0 34 -24q136 -208 304.5 -312.5t349.5 -104.5q130 0 204 59t74 154q0 31 -6.5 58.5t-17.5 48.5t-29.5 40.5t-37 33.5t-46.5 28t-51 23t-58.5 20t-61 18t-65 18t-65.5 19q-136 40 -237 90.5t-158 99t-91.5 105.5t-45 103t-10.5 100 q0 171 140 271t378 100q100 0 198.5 -31.5t152.5 -62.5q7 -4 12 -4q12 0 12 18q0 15 -8 42q-3 10 -3 20q0 30 37 30h75q37 0 50 -34l144 -367q8 -22 8 -28q0 -18 -24 -31l-69 -37q-12 -6 -23 -6q-17 0 -36 22q-123 154 -255 229t-245 75q-42 0 -78 -7.5t-69.5 -26t-52.5 -55 t-19 -87.5q0 -45 27 -83.5t76 -67t100.5 -49t117.5 -39.5q82 -24 135.5 -40.5t127.5 -45t121.5 -54.5t100.5 -65t83.5 -81t50.5 -98t20 -120q0 -207 -159.5 -337.5t-435.5 -130.5q-182 0 -335 75q-14 7 -25 7q-27 0 -14 -43q4 -12 4 -25q0 -24 -33 -23h-103q-36 0 -51 29 l-249 465q-7 13 -7 25z" />
<glyph unicode="T" horiz-adv-x="1613" d="M10 1229q0 8 5 18l164 300q10 17 25 17q8 0 18 -7l11 -10q12 -11 39 -11h1048q27 0 39 11l11 10q10 7 18 7q16 0 26 -17l163 -300q5 -8 5 -18q0 -14 -17 -25l-85 -46q-9 -6 -19 -6q-14 0 -25 18l-6 11q-109 189 -368 189h-105v-1052q0 -188 138 -195h14q31 0 31 -31v-61 q0 -31 -31 -31h-630q-30 0 -30 31v61q0 31 30 31h13q138 7 138 195v1052h-100q-258 0 -367 -189l-7 -11q-11 -18 -25 -18q-9 0 -18 6l-86 46q-17 11 -17 25z" />
<glyph unicode="U" horiz-adv-x="1654" d="M51 1444v61q0 31 31 31h630q30 0 30 -31v-61q0 -31 -30 -31h-13q-138 -7 -138 -195v-635q0 -77 7 -133.5t29.5 -115.5t61 -96t106 -60.5t160.5 -23.5q70 0 124.5 21t91 58.5t60.5 92t34.5 118t10.5 139.5v635q0 188 -138 195h-12q-31 0 -31 31v61q0 31 31 31h508 q31 0 31 -31v-61q0 -31 -31 -31h-14q-138 -7 -138 -195v-655q0 -590 -586 -590q-303 0 -467.5 150t-164.5 419v676q0 188 -138 195h-14q-31 0 -31 31z" />
<glyph unicode="V" horiz-adv-x="1605" d="M10 1449v62q0 30 31 30h628q31 0 31 -30v-62q0 -31 -31 -31q-64 0 -111.5 -40.5t-47.5 -100.5q0 -26 10 -53l356 -936l330 936q9 27 9 51q0 61 -47.5 102t-112.5 41q-30 0 -30 31v62q0 30 30 30h509q31 0 31 -30v-62q0 -31 -31 -31q-13 0 -25 -3t-21.5 -6.5t-19 -12.5 t-15.5 -15t-14 -20.5t-12 -21.5t-12 -26.5t-11 -27t-11 -30.5t-11 -31l-442 -1199q-9 -25 -35 -25h-246q-26 0 -35 25l-462 1199q-3 9 -12.5 33.5t-13 33.5t-12 29t-14 28t-14.5 22.5t-17 20.5t-18.5 14t-23 10.5t-26.5 2.5q-31 0 -31 31z" />
<glyph unicode="W" horiz-adv-x="2471" d="M10 1449v62q0 30 31 30h628q31 0 31 -30v-62q0 -31 -31 -31q-64 0 -111 -40.5t-47 -101.5q0 -29 9 -52l336 -936l278 843l-34 93q-40 107 -57 135q-36 59 -94 59q-30 0 -30 31v62q0 30 30 30h628q31 0 31 -30v-62q0 -31 -31 -31h-53q-41 0 -76.5 -32t-35.5 -87 q0 -25 13 -64l339 -947l309 936q9 26 9 50q0 62 -47 103t-112 41q-31 0 -31 31v62q0 30 31 30h509q31 0 31 -30v-62q0 -31 -31 -31t-53 -11t-40.5 -42.5t-26.5 -50.5t-26 -71q-5 -13 -7 -19l-421 -1199q-9 -25 -35 -25h-246q-26 0 -35 25l-303 822l-289 -822q-9 -25 -35 -25 h-247q-26 0 -35 25l-441 1199q-40 107 -57 135q-36 59 -94 59q-31 0 -31 31z" />
<glyph unicode="X" horiz-adv-x="1746" d="M20 34v69q0 23 17 31v3h28q33 0 56 6t49 28t39 37t50 62q6 7 9 11l414 531l-363 442q-119 144 -202 144h-5q-35 0 -35 35v69q0 34 35 34h596q34 0 34 -34v-69q0 -35 -34 -35h-4q-84 0 -84 -33q0 -24 40 -73l269 -329l229 292q69 87 69 116q0 28 -56 28h-22q-35 0 -35 35 v69q0 34 35 34h482q34 0 34 -34v-69q0 -35 -34 -35h-33q-34 0 -58.5 -6.5t-50 -28.5t-42 -41.5t-52.5 -66.5l-347 -438l438 -536q118 -145 201 -145h6q34 0 34 -34v-69q0 -34 -34 -34h-607q-35 0 -35 34v69q0 34 34 34h5q18 0 35.5 3.5t33 15.5t15.5 30q0 26 -33 66 l-340 414l-297 -384q-68 -87 -68 -117q0 -28 56 -28h45q34 0 34 -34v-69q0 -34 -34 -34h-499v3q-18 8 -18 31z" />
<glyph unicode="Y" horiz-adv-x="1626" d="M20 1449v62q0 30 31 30h710q31 0 31 -30v-62q0 -31 -31 -31q-60 0 -101 -23.5t-41 -71.5q0 -42 34 -99l239 -391l222 391q45 80 45 127q0 67 -93 67q-31 0 -31 31v62q0 30 31 30h509q30 0 30 -30v-62q0 -31 -30 -31q-141 0 -255 -194l-317 -542q-11 -20 -11 -38v-326 q0 -188 138 -195h14q31 0 31 -31v-61q0 -31 -31 -31h-629q-31 0 -31 31v61q0 31 31 31h12q138 7 138 195v314q0 20 -12 38l-369 554q-72 108 -121.5 151t-111.5 43q-31 0 -31 31z" />
<glyph unicode="Z" horiz-adv-x="1525" d="M31 31v134l937 1204h-350q-246 0 -367 -209l-7 -11q-11 -18 -25 -18q-9 0 -18 6l-86 46q-16 10 -16 25q0 8 5 18l163 320q10 17 26 17q8 0 17 -6l12 -11q12 -11 39 -11h1080q27 0 27 -18q0 -9 -9 -19l-1009 -1317l278 5q284 5 416 47t190 142l6 11q10 18 26 18q9 0 18 -6 l85 -46q18 -11 18 -25q0 -9 -6 -18l-163 -320q-10 -17 -26 -17q-6 0 -17 7l-12 10q-12 10 -39 10h-1162q-31 0 -31 32z" />
<glyph unicode="[" horiz-adv-x="833" d="M164 -379v1923q0 31 31 31h444q31 0 31 -31v-96q0 -31 -31 -31h-236v-1669h236q31 0 31 -31v-96q0 -31 -31 -31h-444q-31 0 -31 31z" />
<glyph unicode="\" horiz-adv-x="1024" d="M58 1567l654 -1821q10 -25 36 -25h167q36 0 24 35l-655 1822q-8 24 -35 24h-167q-17 0 -23.5 -9.5t-0.5 -25.5z" />
<glyph unicode="]" horiz-adv-x="833" d="M164 -283q0 31 31 31h235v1669h-235q-31 0 -31 31v96q0 31 31 31h444q31 0 31 -31v-1923q0 -31 -31 -31h-444q-31 0 -31 31v96z" />
<glyph unicode="^" d="M37 462q0 -20 27 -20h141q24 0 36 22l371 733l370 -733q12 -22 36 -22h141q27 0 27 20q0 6 -5 16l-548 1087q-9 17 -21 17t-21 -18l-549 -1086q-5 -10 -5 -16z" />
<glyph unicode="_" d="M42 -305l46 178q8 27 34 27h1023q34 0 26 -33l-45 -180q-8 -25 -34 -25h-1023q-35 0 -27 33z" />
<glyph unicode="`" d="M384 1478q0 -59 33.5 -116t86 -98.5t106 -71.5t103.5 -47q8 -3 14 -3q7 0 19 5l75 36q-95 121 -137 193.5t-82 176.5q-8 22 -36 26q-20 3 -39 3q-62 0 -102.5 -26.5t-40.5 -77.5z" />
<glyph unicode="a" horiz-adv-x="1267" d="M61 514q0 137 39.5 242.5t107.5 168t152 94t180 31.5q201 0 332 -119q24 10 44.5 19.5t39 19.5t30.5 16.5t28 17t21.5 14t21.5 15.5t18 13q6 4 9 4l5 1q2 0 2 -4v-668q1 -42 6 -72t17.5 -59.5t37 -47t60.5 -21.5q26 -3 24 -27v-69q0 -27 -30 -27q-94 0 -169.5 -13 t-111 -26t-96.5 -40q-8 -4 -17 -4h-5q-3 0 -3 7l24 182q-11 -27 -30 -54t-54.5 -60t-95 -54t-133.5 -21q-58 0 -118.5 17.5t-121.5 59.5t-108 102t-76.5 154t-29.5 208zM325 580q0 -195 78 -310.5t205 -115.5q43 0 78.5 14t56.5 33.5t36 39.5t21 34l5 14v411q-7 36 -20.5 69 t-38.5 68t-68.5 56t-100.5 21t-102 -19t-72.5 -50t-45.5 -75t-25 -90t-7 -100z" />
<glyph unicode="b" horiz-adv-x="1247" d="M10 1348v69q0 12 6.5 17t23.5 10q228 76 385 190q6 4 9 4h4q3 0 3 -3v-684q27 43 95.5 71.5t152.5 28.5q69 0 136.5 -17.5t133 -59t115.5 -102.5t80.5 -154.5t30.5 -207.5q0 -239 -145 -387t-392 -148q-84 0 -156 15.5t-135 51t-107 89t-69.5 132.5t-25.5 178v644 q0 50 -3.5 83t-14.5 70t-37 58t-66 25q-26 3 -24 27zM441 398q0 -142 66.5 -216t162.5 -74q57 0 102 19t72.5 50.5t45.5 75.5t25 90.5t7 100.5q0 199 -85 312.5t-240 113.5q-83 0 -156 -52v-420z" />
<glyph unicode="c" horiz-adv-x="1052" d="M63 561q10 122 59.5 218.5t123 153.5t159 86t175.5 29l38 -2q172 -12 260 -90t112 -190l1 -9q0 -21 -24 -27l-235 -63q-10 -3 -18 -3q-9 0 -13 3.5t-3 10.5l2 21q1 11 1 22q0 73 -37 115q-42 48 -131 49q-92 0 -143 -72.5t-61 -186.5q-4 -52 -4 -77q0 -80 15 -148 t46.5 -124t87.5 -88.5t130 -32.5q13 0 39 2q63 6 123.5 43.5t104.5 102.5q10 16 24 16q10 0 18 -6l54 -38q24 -17 12 -42q-105 -222 -373 -250q-28 -3 -56 -3q-112 0 -208.5 49.5t-159.5 130.5q-64 81 -96 186q-25 82 -25 167q0 23 2 47z" />
<glyph unicode="d" horiz-adv-x="1267" d="M61 514q0 137 39.5 242.5t107.5 168t152 94t180 31.5q156 0 266 -95v130q0 50 -3.5 83t-15 70t-37.5 58t-66 25q-26 3 -24 27v69q0 12 6.5 17t23.5 10q228 76 385 190q6 4 9 4h5q2 0 2 -3v-1256q1 -42 6 -72t17.5 -59.5t37 -47t60.5 -21.5q26 -3 24 -27v-69 q0 -27 -29 -27q-94 0 -170 -13.5t-109.5 -25.5t-97.5 -40q-8 -4 -18 -4h-5q-4 0 -2 7l23 182q-11 -27 -30 -54t-54.5 -60t-95 -54t-133.5 -21q-58 0 -118.5 17.5t-121.5 59.5t-108 102t-76.5 154t-29.5 208zM325 580q0 -195 78 -310.5t205 -115.5q43 0 78.5 18t56.5 43 t36 50.5t21 43.5l5 18v336q-12 101 -71 166t-157 65q-252 0 -252 -314z" />
<glyph unicode="e" horiz-adv-x="1054" d="M61 521q0 110 28 200t74.5 149.5t110 100t132 58.5t143.5 18q78 0 147.5 -26.5t118.5 -68.5t84.5 -94.5t53 -105.5t17.5 -100q0 -18 -17 -26l-594 -260q39 -95 117.5 -157.5t189.5 -62.5q69 0 139 38t122 113q6 9 17 9q14 0 82 -40q8 -5 8 -16q0 -12 -13 -36 q-129 -239 -410 -239q-165 0 -292 75t-192.5 198.5t-65.5 272.5zM315 650q0 -102 19 -156l329 166q0 97 -46.5 161t-117.5 64q-83 0 -133.5 -66.5t-50.5 -168.5z" />
<glyph unicode="f" horiz-adv-x="823" d="M41 31v61q0 31 31 31q73 0 112 54q36 51 36 132v9v350q0 32 -0.5 48.5t-3 45.5t-8 45t-16 36.5t-26 31t-39.5 18.5t-55 8t-31 31v61q0 31 31 31h152l-1 17q0 78 13 156t47 159t84.5 142.5t133 101t185.5 39.5q157 0 240 -60.5t83 -157.5q0 -47 -22 -102q-12 -30 -51 -39 l-215 -48l-5 -1q-12 0 -14.5 14t5.5 28q38 73 38 135q0 55 -28.5 87t-68.5 32q-49 0 -86 -46q-35 -44 -49.5 -121.5t-15.5 -201.5v-134h274q31 0 31 -31v-88q0 -31 -31 -31h-273v-556q0 -87 39 -141t111 -54q31 0 31 -31v-61q0 -31 -31 -31h-576q-31 0 -31 31z" />
<glyph unicode="g" horiz-adv-x="1069" d="M41 -190q0 123 123 193q-104 66 -104 186q0 66 35 116t92 74q-121 110 -121 278q0 167 123 279.5t327 112.5q165 0 283 -78l9 -4q9 -3 20 -3q36 0 36 43v9l-1 6q0 25 23 30l141 34l10 1q25 0 27 -30q1 -14 1 -27q0 -78 -35 -126q-41 -56 -112 -57q49 -86 49 -190 q0 -167 -122.5 -279t-328.5 -112q-140 0 -248 57q-26 -21 -26 -50q0 -34 21.5 -53.5t87.5 -33.5t189 -20q81 -4 143 -12.5t128 -29t108.5 -52t70 -85t27.5 -124.5q0 -65 -30 -117t-79 -86t-116.5 -57t-138.5 -33t-147 -10q-129 0 -231.5 26t-168 83.5t-65.5 140.5zM245 -162 q0 -56 61 -96.5t201 -40.5q150 0 232 28t82 76q0 32 -21 53.5t-67 34t-100 19t-139 10.5q-107 6 -191 26q-58 -43 -58 -110zM316 657q0 -48 10 -93t31.5 -86.5t62.5 -66.5t96 -25q45 0 79.5 17t54 43.5t32 64t16.5 72t4 74.5q0 51 -7.5 94t-26.5 85.5t-57.5 67.5t-94.5 25 q-44 0 -79.5 -17t-57.5 -44t-36.5 -64t-20.5 -73t-6 -74z" />
<glyph unicode="h" horiz-adv-x="1394" d="M31 31v61q0 31 30 31h5q73 1 112 55q37 52 37 132v8v767q0 50 -3.5 83t-15 70t-37.5 58t-66 25q-26 3 -24 27v69q0 12 6.5 17t23.5 10q228 76 385 190q6 4 9 4h5q2 0 2 -3v-787q15 31 42.5 63t69 65t101.5 54t126 21q85 0 148.5 -21t101 -54t60 -83.5t30.5 -101.5t8 -115 v-358q0 -87 39 -141t112 -54h5q30 0 30 -31v-61q0 -31 -30 -31h-556q-31 0 -31 31v61q0 31 31 31h5q56 -1 82 53q25 50 25 130v12v308v20q0 41 -0.5 60.5t-4.5 51.5t-13 47.5t-25 33t-42.5 24.5t-62.5 7q-77 0 -150 -45t-99 -109v-398q0 -87 39 -141t112 -54h4q31 0 31 -31 v-61q0 -31 -31 -31h-596q-30 0 -30 31z" />
<glyph unicode="i" horiz-adv-x="716" d="M37 31v61q0 31 31 31h3q73 1 112 55q37 52 37 132v8v217q0 42 -3.5 72t-14.5 65t-37 55.5t-66 24.5q-26 3 -24 27v69q0 12 6.5 17t22.5 10q263 88 377 208q5 5 9 5h5q2 0 4 -3v-767q0 -87 39 -141t112 -54h5q31 0 31 -31v-61q0 -15 -10 -23t-25 -8h-579q-15 0 -25 8 t-10 23zM202 1362q0 51 51 102t103 51q51 0 102 -51q52 -52 52 -102q0 -51 -52 -103q-51 -51 -102 -51q-52 0 -103 51t-51 103z" />
<glyph unicode="j" horiz-adv-x="620" d="M-252 -238q0 26 23 43l145 105q7 5 14 5q9 0 15.5 -8t7.5 -22q0 -41 6.5 -75.5t21.5 -66t44.5 -49.5t69.5 -18q30 0 52 11t36 34t22.5 48t12.5 65.5t5 73t1 82.5v545q0 42 -3.5 72t-14.5 65t-37 55.5t-66 24.5q-26 3 -24 27v69q0 12 6.5 17t22.5 10q275 92 385 208 q5 5 9 5l5 1q2 0 5 -4v-958q0 -84 -10 -157t-39 -150.5t-75.5 -132.5t-125.5 -90t-182 -35q-71 0 -130.5 17t-95.5 42t-61 54t-35 51t-10 36zM210 1362q0 51 51 102t103 51t103 -51t51 -102q0 -52 -51 -103t-103 -51t-103 51t-51 103z" />
<glyph unicode="k" horiz-adv-x="1292" d="M31 31v61q0 31 30 31q73 1 112 55q37 52 37 132v8v767q0 50 -3.5 83t-14.5 70t-37 58t-66 25q-26 3 -24 27v69q0 12 6.5 17t22.5 10q228 76 385 190q6 4 9 4h5q2 0 4 -3v-1016l251 226q15 13 15 30q0 26 -39 26h-63q-12 0 -20 8t-7 23v61q0 31 31 31h456q29 0 31 -31v-61 q0 -31 -27 -31h-25q-56 0 -97.5 -26t-133.5 -108l-158 -140l438 -440q37 -37 56.5 -50.5t38.5 -13.5h8q27 0 27 -31v-61q-2 -31 -31 -31h-503q-31 0 -31 31v61v3q0 13 7.5 20.5t19.5 7.5h31q21 0 38 8.5t17 23.5q0 13 -15 29l-272 292l-42 -38v-120q0 -124 18 -159.5 t91 -35.5q31 0 31 -31v-61q0 -31 -31 -31h-546q-30 0 -30 31z" />
<glyph unicode="l" horiz-adv-x="710" d="M31 31v61q0 31 30 31q73 1 112 55q37 52 37 132v8v767q0 50 -3.5 83t-14.5 70t-37 58t-66 25q-26 3 -24 27v69q0 12 6.5 17t22.5 10q228 76 385 190q6 4 9 4h5q3 0 5 -3v-1317q0 -87 39 -141t111 -54q31 0 31 -31v-61q0 -31 -31 -31h-587q-30 0 -30 31z" />
<glyph unicode="m" horiz-adv-x="2111" d="M31 31v61q0 31 30 31h5q72 0 110 54t38 141v257q0 50 -3.5 83t-14.5 70t-37 58t-66 25q-26 3 -24 26v70q0 23 30 27q131 21 241.5 65.5t163.5 83.5q8 5 9 5h5q2 0 2 -3l-36 -269q147 235 354 235q264 0 326 -200q154 200 376 200q85 0 148.5 -23t101 -59.5t60 -90 t30.5 -106.5t8 -117v-337q0 -87 39 -141t112 -54h20q31 0 31 -31v-61q0 -31 -31 -31h-576q-31 0 -31 31v61q0 31 31 31h10q62 0 84.5 45.5t22.5 149.5v308v19q0 36 -0.5 55t-4 50.5t-13 48.5t-25 35.5t-42 27t-62.5 8.5q-84 0 -152 -52.5t-114 -141.5v-358q0 -108 33 -151.5 t97 -43.5h16q30 0 30 -31v-61q0 -31 -30 -31h-556q-31 0 -31 31v61q0 31 31 31h14q49 0 79 45q29 44 29 143v7v308v20q0 41 -0.5 60.5t-4.5 51.5t-13 47.5t-25 33t-42.5 24.5t-62.5 7q-74 0 -148 -54t-101 -121v-377q0 -85 35.5 -140t94.5 -55h6q30 0 30 -31v-61 q0 -31 -30 -31h-577q-30 0 -30 31z" />
<glyph unicode="n" horiz-adv-x="1398" d="M31 31v61q0 31 30 31h5q72 0 110.5 54t38.5 141v257q0 50 -3.5 83t-14.5 70t-37 58t-66 25q-26 3 -24 26v70q0 23 29 27q131 21 242 66t164 83q7 5 9 5h5q2 0 2 -3l-36 -269q147 235 354 235q85 0 148.5 -23t101 -59.5t60 -90t30.5 -106.5t8 -117v-337q0 -87 39 -141 t112 -54h9q31 0 31 -31v-61q0 -31 -31 -31h-556q-31 0 -31 31v61q0 31 32 31q56 -1 83 53q25 50 25 130v12v308v17v47.5t-3 44.5t-8 43.5t-16 35.5t-26.5 30.5t-39.5 18t-55 7.5q-74 0 -148 -54t-101 -121v-377q0 -87 39 -141t111 -54h5q30 0 30 -31v-61q0 -31 -31 -31h-596 q-30 0 -30 31z" />
<glyph unicode="o" horiz-adv-x="1175" d="M62 523q0 155 82 287t224 195q98 44 207 44q155 0 289.5 -87t201.5 -237q48 -106 48 -224q0 -155 -82 -286t-225 -195q-101 -45 -208 -45q-155 0 -289.5 87t-200.5 237q-47 107 -47 224zM306 651q0 -112 57 -239q53 -118 132 -195.5t168 -77.5q40 0 82 18q124 54 124 216 q0 112 -57 239q-53 118 -132.5 195.5t-168.5 77.5q-40 0 -82 -18q-123 -54 -123 -216z" />
<glyph unicode="p" horiz-adv-x="1292" d="M20 -317q0 30 33 30q73 0 111 54q37 51 37 132v9l1 39v665q0 39 -1.5 66t-8.5 60t-19.5 53.5t-35.5 36.5t-56 19q-26 3 -24 27v69q0 27 30 27q94 0 170 13.5t109 25.5t97 40q8 4 17 4h5q3 0 2 -6l-22 -183q8 20 20.5 41t38.5 49t58.5 48.5t83.5 35.5t111 15 q58 0 118.5 -17.5t121.5 -59t108 -102t76.5 -154t29.5 -207.5q0 -137 -39.5 -243t-107 -169t-151.5 -94.5t-180 -31.5q-156 0 -266 96v-163q0 -87 39 -141t112 -54q30 0 30 -30v-62q0 -31 -30 -31h-587q-31 0 -31 31v62zM487 364q12 -104 72.5 -179.5t156.5 -75.5 q57 0 102 19t72.5 50.5t45.5 76t25 91t7 100.5q0 195 -78 310.5t-205 115.5q-43 0 -79 -14t-57 -34t-36 -39.5t-21 -33.5l-5 -14v-373z" />
<glyph unicode="q" horiz-adv-x="1280" d="M61 514q0 137 39.5 242t107.5 167t152 92.5t180 30.5q200 0 330 -115q24 10 45 20t39 20t31 17t28.5 17.5t22 15t21.5 15.5t18 13q7 5 9 5h5q3 0 3 -4v-1143v-9q0 -81 36 -132q38 -53 111 -53q30 0 30 -31v-61q0 -31 -30 -31h-587q-31 0 -31 31v61q0 31 30 31h4 q73 0 112 54t39 141v211q-37 -59 -108 -102.5t-183 -43.5q-58 0 -118.5 17.5t-121.5 59.5t-108 102t-76.5 154t-29.5 208zM325 580q0 -195 78 -310.5t205 -115.5q43 0 78.5 14t56.5 33.5t36 39.5t21 34l5 14v265l1 -4q0 36 -3 70.5t-11 78t-25 79.5t-41 67.5t-62.5 49.5 t-86.5 18q-57 0 -102 -18.5t-72.5 -49.5t-45.5 -75t-25 -90t-7 -100z" />
<glyph unicode="r" horiz-adv-x="1085" d="M31 31v61q0 31 30 31h5q72 0 110.5 54t38.5 141v257q0 50 -3.5 83t-14.5 70t-37 58t-66 25q-26 3 -24 26v70q0 23 29 27q131 21 242 66t164 83q7 5 9 5h5q2 0 2 -3l-48 -275q55 115 151.5 177.5t208.5 62.5q101 0 166.5 -55t65.5 -156q0 -55 -10 -85.5t-44 -44.5 l-192 -79q-9 -4 -18 -4q-19 0 -19 20q0 10 4 18q19 46 19 102q0 53 -26.5 79.5t-70.5 26.5q-64 0 -121 -55.5t-84 -121.5v-377q0 -87 39 -141t111 -54h4q31 0 31 -31v-61q0 -31 -31 -31h-596q-30 0 -30 31z" />
<glyph unicode="s" horiz-adv-x="1110" d="M51 339q0 16 17 25l63 37q7 5 18 5q15 0 24 -17q181 -276 464 -276q197 0 197 117q0 17 -5.5 32.5t-18.5 28.5t-25 24t-35.5 22t-39 18t-46 16.5t-46 14.5t-49 14.5t-46.5 13.5q-98 29 -169 62.5t-113 66.5t-67 72.5t-33.5 74.5t-8.5 79q0 124 96.5 202t255.5 78 q84 0 158 -22t113 -45q6 -3 9 -3q15 0 3 43q-2 10 -2 14q0 21 26 21h53q26 0 35 -24l103 -260q5 -13 5 -20q0 -14 -16 -22l-50 -27q-10 -5 -16 -5q-13 0 -26 16q-86 107 -185 158.5t-182 51.5q-62 0 -102.5 -25t-40.5 -79q0 -32 18.5 -57.5t55 -43.5t70 -29.5t84.5 -24.5 q172 -44 240 -73q200 -84 221 -244q2 -19 2 -40q0 -146 -117.5 -239.5t-314.5 -93.5q-129 0 -237 53q-12 5 -18 5q-19 0 -10 -30q3 -9 3 -17q0 -17 -24 -16h-73q-24 0 -36 21l-177 330q-5 10 -5 17z" />
<glyph unicode="t" horiz-adv-x="839" d="M37 932v61q0 31 31 31h148v137q0 26 19 37q142 77 251 169q5 5 9 5h3q5 0 5 -3v-345h274q31 0 31 -31v-88q0 -31 -31 -31h-273v-585q0 -139 85 -139q52 0 146 58l2 2q9 6 18 6q13 0 24 -16l33 -52q6 -9 6 -18q0 -13 -16 -24l-61 -39q-151 -93 -287 -93q-50 0 -91 15.5 t-75 50.5t-53 98t-19 151v379q0 32 -0.5 48.5t-3 45.5t-8 45t-16 36.5t-26 31t-39.5 18.5t-55 8t-31 31z" />
<glyph unicode="u" horiz-adv-x="1349" d="M20 931v62q0 30 31 30l5 1h412q30 0 30 -31v-596v-17v-47t3 -44.5t8 -43.5t16 -35t26.5 -30.5t39.5 -18t55 -7.5q74 0 148 53.5t101 120.5v378q0 87 -39 141t-111 54h-5q-30 0 -30 30v62q0 29 31 31h411q31 0 31 -31v-578q0 -50 3.5 -83t14.5 -70t37 -58t66 -25 q26 -3 24 -27v-69q0 -27 -30 -27q-94 0 -170 -13.5t-109 -25.5t-97 -40q-8 -4 -17 -4h-5q-3 0 -3 7l32 258q-23 -47 -56 -90.5t-79 -84.5t-107 -65.5t-128 -24.5q-85 0 -148.5 23t-101 59t-60 89.5t-30.5 106.5t-8 117v338q0 87 -39 141t-112 54h-9q-31 0 -31 30z" />
<glyph unicode="v" d="M12 933v61q0 31 31 31h473q30 0 30 -31v-61q0 -31 -30 -31h-4q-69 0 -69 -61q0 -49 41 -134l189 -399l173 399q49 111 49 152q0 43 -45 43h-40q-31 0 -31 31v61q0 31 31 31h375q31 0 31 -31v-61q0 -31 -31 -31h-29q-34 0 -60 -26.5t-60 -101.5l-345 -751q-10 -23 -36 -23 h-108q-26 0 -36 23l-345 750q-36 78 -58.5 103.5t-59.5 25.5h-5q-31 0 -31 31z" />
<glyph unicode="w" horiz-adv-x="1908" d="M12 933v61q0 31 31 31h473q30 0 30 -31v-61q0 -31 -30 -31h-4q-69 0 -69 -61q0 -49 41 -134l164 -383l178 435q26 64 26 99q0 44 -43 44h-44q-27 2 -27 31v61q0 30 27 31h492q31 0 31 -31v-61q0 -31 -31 -31h-24q-69 0 -69 -61q0 -49 41 -134l164 -383l178 435 q26 64 26 99q0 44 -43 44h-41q-30 0 -30 31v61q0 31 30 31h376q30 0 30 -31v-61q0 -31 -30 -31h-29q-34 0 -60 -26.5t-60 -101.5l-325 -751q-10 -23 -36 -23h-108q-26 0 -36 23l-270 626l-271 -626q-10 -23 -36 -23h-108q-26 0 -36 23l-324 750q-33 77 -56.5 103t-61.5 26 h-5q-31 0 -31 31z" />
<glyph unicode="x" horiz-adv-x="1234" d="M16 30v62q0 22 15 28v3h25q31 0 52.5 6t44.5 26t36.5 36.5t47.5 59.5l221 282l-198 240q-106 129 -180 129h-5q-30 0 -30 31v61q0 31 30 31h514q31 0 31 -31v-61q0 -31 -31 -31h-4q-74 0 -74 -30q0 -20 36 -65l137 -167l103 133q61 79 61 104t-50 25h-20q-31 0 -31 31v61 q0 31 31 31h376q30 0 30 -31v-61q0 -31 -30 -31h-30q-31 0 -52.5 -6t-44.5 -26t-36.5 -36.5t-47.5 -59.5l-180 -231l240 -291q108 -130 180 -130h5q31 0 31 -30v-62q0 -30 -31 -30h-524q-30 0 -30 30v62q0 30 30 30h4q28 0 51.5 10t23.5 34t-29 59l-177 213l-143 -186 q-62 -80 -62 -104q0 -25 50 -25h41q30 0 30 -31v-62q0 -30 -30 -30h-391v3q-16 6 -16 27z" />
<glyph unicode="y" horiz-adv-x="1183" d="M12 933v61q0 31 31 31h473q30 0 30 -31v-61q0 -31 -30 -31h-4q-65 0 -65 -53q0 -38 46 -140l137 -300l148 304q51 104 51 145q0 44 -47 44h-36q-31 0 -31 31v61q0 31 31 31h396q30 0 30 -31v-61q0 -31 -30 -31h-30q-34 0 -59 -26.5t-60 -101.5l-594 -1196 q-13 -26 -41 -14l-105 53q-29 13 -15 41l229 491l-301 624q-38 79 -59.5 104t-58.5 25h-5q-31 0 -31 31z" />
<glyph unicode="z" horiz-adv-x="1114" d="M20 31v88q0 14 8 22l643 751l-195 -9q-105 -5 -178 -47t-129 -130l-10 -14q-9 -17 -24 -17q-8 0 -17 6l-70 40q-14 8 -16 17l-1 7q0 11 5 18l169 269q11 18 27 18q8 0 15 -7l9 -9q9 -10 38 -10h756q27 0 27 -18q0 -10 -9 -20l-720 -850l159 5q154 5 222 20 q167 36 237 156l6 11q9 16 25 16q9 0 17 -5l64 -37q16 -9 16 -24q0 -10 -5 -18l-159 -270q-10 -17 -25 -17q-7 0 -17 7l-11 10q-12 10 -38 10h-788q-31 0 -31 31z" />
<glyph unicode="{" horiz-adv-x="927" d="M164 592q0 -30 30 -31q248 -10 248 -187q0 -40 -22 -99.5t-44 -133.5t-22 -149q0 -62 22.5 -113.5t54 -83.5t77.5 -58t79 -38t73 -23l11 -1q15 0 29 12l21 16q12 11 12 20q0 14 -22 23q-87 33 -126.5 71t-39.5 74q0 41 26 97.5t56.5 104t56.5 108.5t26 112 q0 60 -17 107.5t-44 79.5t-70 57t-86 40t-101 29q58 14 101 29t86 40t70 57t44 79.5t17 107.5q0 51 -26 112t-56.5 108.5t-56.5 103.5t-26 97q0 36 39.5 74.5t127.5 72.5q21 7 21 22q0 9 -12 20l-21 17q-19 14 -40 9q-296 -76 -306 -293q-4 -81 18 -159t46 -141.5t24 -103.5 q0 -176 -248 -186q-30 -2 -30 -31v-69z" />
<glyph unicode="|" d="M514 -270v1824q0 31 30 31h139q31 0 31 -31v-1824q0 -31 -31 -31h-139q-30 0 -30 31z" />
<glyph unicode="}" horiz-adv-x="927" d="M195 -277q0 14 22 23q87 33 126.5 71t39.5 74q0 41 -26 97.5t-56.5 104t-56.5 108.5t-26 112q0 60 17 107.5t44 79.5t70 57t86 40t101 29q-58 14 -101 29t-86 40t-70 57t-44 79.5t-17 107.5q0 51 26 112t56.5 108.5t56.5 103.5t26 97q0 82 -166 147q-22 8 -22 22 q0 9 12 20l21 17q19 14 40 9q296 -76 306 -293q4 -81 -18 -159t-46 -141.5t-24 -103.5q0 -176 248 -186q30 -2 30 -31v-69q0 -30 -30 -31q-248 -10 -248 -187q0 -40 22 -99.5t44 -133.5t22 -149q0 -62 -22.5 -113.5t-54 -83.5t-77.5 -58t-79 -38t-73 -23l-11 -1 q-15 0 -29 12l-21 16q-12 11 -12 20z" />
<glyph unicode="~" horiz-adv-x="1443" d="M65 438q0 34 1.5 60t9 67t20.5 72t38.5 66t60.5 57t89.5 37t122.5 15q93 0 177.5 -25t146 -60.5t117 -71.5t113 -61t110.5 -25q85 0 85 97q0 38 30 38h164q30 0 32 -29q2 -42 -2.5 -82.5t-22.5 -87t-49 -81t-86 -57.5t-128 -23q-85 0 -166 25t-144 60.5t-122.5 71.5 t-125.5 61t-129 25q-118 0 -118 -143q0 -36 -30 -36h-163q-31 0 -31 30z" />
<glyph unicode="&#xa1;" horiz-adv-x="765" d="M165 -305q0 -39 39 -78l80 -80q39 -39 79 -39q41 0 80 39l80 80q39 39 39 77q0 48 -42.5 286t-54.5 387q-10 123 -10 157q0 26 -27 26h-128q-27 0 -27 -26q0 -22 -11 -157q-12 -152 -54.5 -388.5t-42.5 -283.5zM165 925q0 -41 39 -80l80 -80q39 -39 79 -39q41 0 80 39 l80 80q39 39 39 80q0 40 -39 79l-80 81q-38 38 -80 38q-41 0 -79 -38l-80 -81q-39 -39 -39 -79z" />
<glyph unicode="&#xa2;" horiz-adv-x="1019" d="M61 514q0 15 2 47q8 100 42.5 182.5t87.5 139t116.5 93.5t136.5 55v380q0 31 31 31h139q30 0 30 -31v-367q82 -9 145.5 -36t102.5 -66.5t62 -82.5t34 -93l1 -9q0 -21 -24 -27l-235 -63q-10 -3 -18 -3q-9 0 -13 3.5t-3 10.5l2 21q6 89 -36 137.5t-131 48.5 q-92 0 -143 -72.5t-61 -186.5q-4 -52 -4 -77q0 -80 15 -148t46.5 -124t87.5 -88.5t130 -32.5q13 0 39 2q63 6 123.5 43.5t104.5 102.5q10 16 24 16q10 0 18 -6l54 -38q24 -17 12 -42q-96 -206 -333 -245v-358q0 -30 -30 -30h-139q-31 0 -31 30v361q-171 39 -278 188 t-107 334z" />
<glyph unicode="&#xa3;" horiz-adv-x="1427" d="M38 31v61q0 31 31 31h2q88 0 173 55.5t139 146t54 185.5q0 24 -3 46h-222q-30 0 -30 31v116q0 30 30 30h159q-15 25 -45.5 70.5t-50 77.5t-41 77.5t-32 98t-10.5 111.5q0 87 30 154t77.5 108t113 67t129 35.5t133.5 9.5q29 0 56 -2t52 -7.5t45 -10t42 -13t35.5 -13.5 t33 -15.5t26.5 -14t24 -13.5t18 -11q7 -4 13 -4q11 0 11 19q0 15 -7 41q-3 10 -3 20q0 30 37 30h75q36 0 49 -34l145 -367q7 -19 7 -28q0 -19 -23 -31l-70 -37q-12 -6 -22 -6q-18 0 -37 22q-129 161 -244 232.5t-237 71.5q-32 0 -64 -10.5t-62 -32t-48.5 -61t-18.5 -91.5 q0 -81 26.5 -152t72.5 -154.5t66 -136.5h450q31 0 31 -30v-116q0 -31 -31 -31h-409v-48q0 -67 -24.5 -129.5t-63.5 -107.5t-79 -76.5t-78 -49.5q86 0 141 1t122.5 5.5t112.5 13.5t97.5 24t90.5 37.5t78.5 54.5t75.5 74.5t68 97.5l6 12q11 17 25 17q9 0 18 -6l66 -38 q17 -11 17 -25q0 -9 -6 -18l-192 -405q-8 -19 -24 -19q-10 0 -19 9l-11 10q-12 10 -40 10h-1026q-31 0 -31 31z" />
<glyph unicode="&#xa5;" horiz-adv-x="1626" d="M20 1449v62q0 30 31 30h710q31 0 31 -30v-62q0 -31 -31 -31q-60 0 -101 -23.5t-41 -71.5q0 -42 34 -99l239 -391l222 391q45 80 45 127q0 67 -93 67q-31 0 -31 31v62q0 30 31 30h509q30 0 30 -30v-62q0 -31 -30 -31q-141 0 -255 -194l-158 -269h268q30 0 30 -31v-139 q0 -30 -30 -30h-385l-42 -73q-11 -20 -11 -38v-33h438q30 0 30 -31v-139q0 -30 -30 -30h-438v-93q0 -188 138 -195h14q31 0 31 -31v-61q0 -31 -31 -31h-629q-31 0 -31 31v61q0 31 31 31h12q138 7 138 195v93h-478q-31 0 -31 30v139q0 31 31 31h478v21q0 20 -12 38l-56 85 h-410q-31 0 -31 30v139q0 31 31 31h276l-179 269q-72 108 -121.5 151t-111.5 43q-31 0 -31 31z" />
<glyph unicode="&#xa6;" d="M514 -270v674q0 31 30 31h139q31 0 31 -31v-674q0 -31 -31 -31h-139q-30 0 -30 31zM514 880v674q0 31 30 31h139q31 0 31 -31v-674q0 -31 -31 -31h-139q-30 0 -30 31z" />
<glyph unicode="&#xa7;" horiz-adv-x="1503" d="M27 22q0 21 23 34l89 52q14 8 25 8q20 0 34 -24q136 -209 304 -313.5t350 -104.5q130 0 203.5 59t73.5 154q0 35 -7 64t-23.5 53t-33.5 42.5t-46.5 35t-53 28t-63 24t-66 20.5t-72.5 20.5t-72 20.5q-136 40 -236.5 90.5t-158 98.5t-92 105t-45 103.5t-10.5 99.5 q0 200 185 300q-106 76 -145.5 159.5t-39.5 176.5q0 171 140 271.5t378 100.5q100 0 198 -31.5t152 -62.5q7 -4 13 -4q21 0 4 60q-3 11 -3 20q0 30 36 30h76q36 0 49 -34l145 -367q7 -19 7 -29q0 -18 -23 -30l-70 -36q-14 -7 -23 -7q-16 0 -36 23q-123 154 -254.5 229 t-244.5 75q-42 0 -78 -8t-69.5 -26t-53 -55t-19.5 -88q0 -45 27 -83.5t76.5 -67t100.5 -49t118 -39.5q82 -24 135.5 -40.5t127.5 -45t121.5 -54.5t100.5 -65t83.5 -81t50.5 -98t20 -120q0 -207 -156 -335q156 -120 156 -301q0 -207 -159.5 -338t-435.5 -131q-180 0 -335 76 q-14 7 -25 7q-28 0 -15 -44q5 -15 5 -24q0 -24 -33 -23h-103q-37 0 -52 28l-248 465q-7 14 -7 26zM474 723q0 -45 27 -83.5t76.5 -67t100.5 -49t118 -39.5q187 -54 282 -93q51 54 51 134q0 39 -10.5 71.5t-25.5 56t-45 45.5t-54 35t-68 28.5t-72 23.5t-81 23t-81 23 q-65 19 -129 44q-89 -42 -89 -152z" />
<glyph unicode="&#xa8;" d="M226 1362q0 50 52 102q51 51 102 51q52 0 103 -51t51 -102q0 -52 -51 -103t-103 -51q-51 0 -102 51q-52 52 -52 103zM703 1362q0 51 51 102t103 51t103 -51t51 -102q0 -52 -51 -103t-103 -51t-103 51t-51 103z" />
<glyph unicode="&#xa9;" horiz-adv-x="1613" d="M31 760q0 211 103.5 389.5t282 282.5t389.5 104q158 0 302 -61.5t248 -165.5t165.5 -247.5t61.5 -301.5t-61.5 -301.5t-165.5 -247.5t-248 -165.5t-302 -61.5q-211 0 -389.5 104t-282 282.5t-103.5 389.5zM174 760q0 -172 84.5 -317.5t230 -230.5t317.5 -85t317.5 85 t230.5 230.5t85 317.5t-85 317.5t-230.5 230.5t-317.5 85t-317.5 -85t-230 -230.5t-84.5 -317.5zM440 813q8 98 49 173.5t101.5 118t130 62t140.5 14.5q130 -9 196.5 -68t85.5 -144l1 -7q0 -16 -19 -21l-178 -47q-13 -4 -20 -1.5t-6 9.5l2 16q5 69 -27 109t-99 40 q-70 0 -109.5 -58t-46.5 -146q-2 -20 -2 -61q0 -65 12.5 -120t39.5 -100t75 -67.5t112 -15.5q46 5 93.5 36.5t81.5 82.5q14 20 32 7l41 -28q18 -12 9 -32q-79 -169 -284 -190q-14 -2 -42 -2q-113 0 -202 64t-132.5 164.5t-34.5 211.5z" />
<glyph unicode="&#xaa;" horiz-adv-x="1060" d="M58 1104q0 114 33 202.5t89.5 140.5t126.5 78t150 26q169 0 277 -99q82 34 168 96q6 4 8 4h4q2 0 2 -3v-557q2 -73 23 -117t78 -50q22 -3 20 -22v-57q0 -23 -25 -23q-78 0 -140.5 -10.5t-92.5 -21.5t-81 -33q-6 -4 -15 -4h-4q-2 0 -2 5l20 152q-9 -22 -25 -44.5 t-46 -50.5t-79.5 -45t-110.5 -17q-49 0 -99 14.5t-100.5 49t-90 85t-64 128.5t-24.5 173zM278 1160q0 -163 65 -259t171 -96q36 0 66 11.5t47 28t29.5 33t17.5 28.5l4 11v343q-6 30 -17 57.5t-32 56.5t-57.5 46.5t-84.5 17.5q-59 0 -101.5 -23t-65 -64t-32.5 -87.5 t-10 -103.5z" />
<glyph unicode="&#xab;" horiz-adv-x="1388" d="M180 549q0 -12 10 -22l398 -409q11 -11 22 -11t21 10l55 52q11 10 11 22q0 10 -8 21l-263 337l265 332q8 9 8 21t-11 23l-57 55q-10 10 -22 10q-11 0 -22 -11l-397 -409q-10 -10 -10 -21zM691 549q0 -11 11 -22l397 -409q11 -11 22 -11t21 10l55 52q11 10 11 22 q0 10 -8 21l-263 337l265 332q8 9 8 21t-11 23l-57 55q-10 10 -22 10q-10 0 -21 -11l-397 -409q-11 -11 -11 -21z" />
<glyph unicode="&#xac;" d="M77 452v177q0 31 31 31h1037q31 0 31 -31v-595q0 -31 -31 -31h-177q-31 0 -31 31v387h-829q-31 0 -31 31z" />
<glyph unicode="&#xad;" horiz-adv-x="1067" d="M46 452v177q0 31 31 31h911q31 0 31 -31v-177q0 -31 -31 -31h-911q-31 0 -31 31z" />
<glyph unicode="&#xae;" horiz-adv-x="1613" d="M31 760q0 211 104 389.5t282.5 282.5t389.5 104t389.5 -104t282.5 -282.5t104 -389.5t-104 -389.5t-282.5 -282.5t-389.5 -104t-389.5 104t-282.5 282.5t-104 389.5zM174 760q0 -172 85 -317.5t230.5 -230.5t317.5 -85t317.5 85t230.5 230.5t85 317.5t-85 317.5 t-230.5 230.5t-317.5 85t-317.5 -85t-230.5 -230.5t-85 -317.5zM435 398v46q0 16 15 16h8q38 1 54 22t16 64v462q0 77 -63 85h-14q-16 0 -16 16v46q0 16 16 16h417q122 0 191 -63.5t69 -158.5q0 -137 -121 -195l110 -208q23 -43 45 -64t59 -22h7q16 0 16 -16v-46 q0 -15 -16 -15h-338q-15 0 -15 15v46q0 16 15 16h8q51 2 51 41q0 19 -14 45l-92 171l-38 -1h-98v-170q0 -43 15.5 -64t53.5 -22h8q16 0 16 -16v-46q0 -15 -16 -15h-334q-15 0 -15 15zM707 810h61q182 0 182 139q0 126 -148 126h-95v-265z" />
<glyph unicode="&#xaf;" d="M294 1280v123q0 31 31 31h548q31 0 31 -31v-123q0 -31 -31 -31h-548q-31 0 -31 31z" />
<glyph unicode="&#xb0;" horiz-adv-x="727" d="M82 1341q0 103 84 179t197 76t197.5 -76t84.5 -179t-84.5 -179.5t-197.5 -76.5t-197 76.5t-84 179.5zM240 1341q0 -47 35.5 -80t87.5 -33t88 33t36 80t-36 79.5t-88 32.5t-87.5 -32.5t-35.5 -79.5z" />
<glyph unicode="&#xb1;" d="M67 31v177q0 31 31 31h1033q31 0 31 -31v-177q0 -31 -31 -31h-1033q-31 0 -31 31zM77 677v178q0 30 31 30h387v244q0 31 31 31h177q31 0 31 -31v-244h387q31 0 31 -30v-178q0 -30 -31 -30h-387v-244q0 -31 -31 -31h-177q-31 0 -31 31v244h-387q-31 0 -31 30z" />
<glyph unicode="&#xb2;" horiz-adv-x="872" d="M41 803v48q0 9 5 21q30 60 88.5 121.5t118 109.5t116 96.5t92 102.5t35.5 107q0 68 -29 103.5t-82 35.5q-50 0 -87.5 -26.5t-37.5 -80.5q0 -48 34 -115q4 -8 4 -17q0 -8 -3.5 -12t-11.5 -3l-165 38q-30 7 -40 30q-11 26 -11 56q0 88 92 154.5t233 66.5q331 0 331 -232 q0 -57 -27 -107.5t-68.5 -87t-97 -75t-107.5 -70t-105.5 -74t-85.5 -84.5l147 4q152 4 211 16q108 22 142 80l5 8q13 21 32 9l49 -28q21 -13 9 -33l-118 -193q-13 -23 -32 -8l-8 8q-9 6 -30 6h-574q-24 0 -24 25z" />
<glyph unicode="&#xb3;" horiz-adv-x="835" d="M41 1423q0 88 92 154t233 66q331 0 331 -232q0 -176 -211 -256q141 -21 225 -98.5t84 -204.5q0 -121 -71.5 -206.5t-189.5 -126t-270 -40.5q-71 0 -146 9q-22 3 -25 22l-9 68v4q0 10 6.5 16t17.5 4q74 -17 140 -17q137 0 221 68t84 204q0 204 -217 204q-56 0 -126 -14 l-8 -1q-18 0 -21 19l-9 46v7q0 12 9 18q5 3 12 6q133 43 205 114t72 156q0 68 -29.5 104t-81.5 36q-50 0 -87.5 -26.5t-37.5 -80.5q0 -48 34 -115q5 -10 5 -17q0 -18 -16 -15l-165 38q-30 7 -40 30q-11 26 -11 57z" />
<glyph unicode="&#xb4;" d="M384 1183q95 121 137 193.5t82 176.5q8 22 36 26q19 3 39 3q62 0 102.5 -26.5t40.5 -77.5q0 -59 -33.5 -116t-86 -98.5t-106 -71.5t-103.5 -47q-8 -3 -14 -3q-8 0 -20 5z" />
<glyph unicode="&#xb6;" d="M149 1102q0 64 19.5 121t60 105.5t112 77t166.5 28.5h590q31 0 31 -31v-62q0 -31 -31 -31h-12q-138 -7 -138 -194v-1352q0 -30 -31 -30h-102q-30 0 -30 30v1546h-135v-1546q0 -30 -31 -30h-102q-30 0 -30 30v1020h-68q-107 0 -188 95t-81 223z" />
<glyph unicode="&#xb7;" d="M414 731q0 41 39 80l80 80q39 39 79 39q41 0 80 -39l80 -80q39 -39 39 -80q0 -40 -39 -79l-80 -81q-38 -38 -80 -38q-41 0 -79 38l-80 81q-39 39 -39 79z" />
<glyph unicode="&#xb8;" d="M286 -365q0 13 9.5 18.5t24.5 0.5q99 -33 173 -33q98 0 98 66q0 51 -42.5 76.5t-115.5 25.5q-21 0 -60 -6t-56 -6q-20 0 -20 16q0 9 6 19l148 249q13 21 37 21h106q26 0 26 -18q0 -11 -8 -20l-138 -167q48 17 93 17q92 0 161.5 -53t69.5 -154q0 -92 -73.5 -151.5 t-192.5 -59.5q-101 0 -204 43q-42 17 -42 116z" />
<glyph unicode="&#xb9;" horiz-adv-x="675" d="M61 828v47q0 24 24 24h42q106 5 106 149v320q0 74 -29.5 111.5t-118.5 37.5q-24 0 -24 24v47q0 24 24 24q260 0 527 47q24 0 24 -24v-47q0 -24 -24 -24l-33 -3q-64 -4 -89 -48t-25 -145v-320q0 -144 106 -149h41q24 0 24 -24v-47q0 -24 -24 -24h-527q-24 0 -24 24z" />
<glyph unicode="&#xba;" horiz-adv-x="937" d="M61 1111q0 130 68 239t187 162q83 37 173 37q129 0 241 -72.5t167 -197.5q40 -90 40 -187q0 -129 -68 -238.5t-187 -162.5q-83 -37 -173 -37q-130 0 -242 72.5t-167 197.5q-39 88 -39 187zM264 1217q0 -91 48 -199q44 -98 110 -162.5t140 -64.5q34 0 69 15 q102 45 102 180q0 94 -47 199q-44 98 -110.5 162.5t-140.5 64.5q-33 0 -68 -15q-103 -46 -103 -180z" />
<glyph unicode="&#xbb;" horiz-adv-x="1388" d="M180 902q0 12 11 23l57 55q10 10 22 10q11 0 22 -11l397 -409q10 -10 10 -21q0 -12 -10 -22l-397 -409q-11 -11 -22 -11q-12 0 -22 10l-54 52q-12 10 -12 22q0 10 8 21l263 337l-265 332q-8 9 -8 21zM691 902q0 12 11 23l58 55q10 10 21 10t22 -11l397 -409 q10 -10 10 -21q0 -12 -10 -22l-397 -409q-11 -11 -22 -11q-12 0 -22 10l-54 52q-12 10 -12 22q0 8 9 21l262 337l-264 332q-9 11 -9 21z" />
<glyph unicode="&#xbc;" horiz-adv-x="1589" d="M64 828v47q0 24 24 24h42q106 5 106 149v320q0 74 -29.5 111.5t-118.5 37.5q-24 0 -24 24v47q0 24 24 24q289 0 527 47q23 0 23 -24v-47q0 -24 -23 -24l-33 -3q-64 -4 -89 -48t-25 -145v-320q0 -144 106 -149h41q23 0 23 -24v-47q0 -24 -23 -24h-527q-24 0 -24 24zM82 -5 q0 9 8 20l1133 1473q15 18 37 18h85q26 0 26 -18q0 -8 -8 -19l-1133 -1473q-16 -19 -37 -19h-85q-26 0 -26 18zM730 6v90q0 14 9 29q38 60 105.5 146.5t109.5 142.5t75.5 131.5t33.5 144.5q0 75 -35 149q-4 8 -4 17q0 19 16 15l195 -48q31 -8 39 -31q8 -21 8 -51 q0 -40 -15.5 -87.5t-46 -100.5t-60.5 -98.5t-76 -103t-74 -91t-73 -85t-55 -63.5h282v189q0 22 20 26l139 26l8 1q19 0 19 -22v-220h175q24 0 24 -24v-82q0 -24 -24 -24h-175v-273q0 -22 -24 -22h-139q-23 0 -23 22v273h-410q-24 0 -24 24z" />
<glyph unicode="&#xbd;" horiz-adv-x="1708" d="M61 828v47q0 24 24 24h42q106 5 106 149v320q0 74 -29.5 111.5t-118.5 37.5q-24 0 -24 24v47q0 24 24 24q289 0 527 47q24 0 24 -24v-47q0 -24 -24 -24l-33 -3q-64 -4 -89 -48t-25 -145v-320q0 -144 106 -149h41q24 0 24 -24v-47q0 -24 -24 -24h-527q-24 0 -24 24zM82 -5 q0 9 8 20l1133 1473q15 18 37 18h85q26 0 26 -18q0 -8 -8 -19l-1133 -1473q-16 -19 -37 -19h-85q-26 0 -26 18zM878 6v48q0 6 6 21q30 60 88.5 121.5t118 109.5t115.5 96.5t91.5 102.5t35.5 107q0 68 -29 103.5t-82 35.5q-51 0 -88 -26t-37 -80q0 -48 34 -115q5 -10 5 -18 q0 -17 -16 -14l-165 37q-30 7 -40 30q-11 26 -11 57q0 88 92 154t233 66q331 0 331 -232q0 -68 -36.5 -125t-96 -101.5t-123 -83t-130.5 -88t-105 -99.5l147 4q4 0 34 1t39.5 1t39 1.5t43 3.5t40 6t41 8.5t35.5 11.5t34 16t26 20.5t21 25.5l5 9q13 21 32 9l49 -29 q21 -13 9 -32l-117 -194q-14 -24 -33 -8l-8 8q-10 7 -30 7h-574q-24 0 -24 24z" />
<glyph unicode="&#xbe;" horiz-adv-x="1939" d="M41 1423q0 88 92 154t233 66q331 0 331 -232q0 -176 -211 -256q141 -21 225 -98.5t84 -204.5q0 -121 -71.5 -206.5t-189.5 -126t-270 -40.5q-71 0 -146 9q-22 3 -25 22l-9 68v4q0 10 6.5 16t17.5 4q74 -17 140 -17q137 0 221 68t84 204q0 204 -217 204q-56 0 -126 -14 l-8 -1q-18 0 -21 19l-9 46v7q0 12 9 18q5 3 12 6q133 43 205 114t72 156q0 68 -29.5 104t-81.5 36q-50 0 -87.5 -26.5t-37.5 -80.5q0 -48 34 -115q5 -10 5 -17q0 -18 -16 -15l-165 38q-30 7 -40 30q-11 26 -11 57zM409 -5q0 9 8 20l1133 1473q15 18 38 18h84q27 0 27 -18 q0 -8 -8 -19l-1133 -1473q-16 -19 -38 -19h-84q-27 0 -27 18zM1079 6v90q0 16 8 29q39 60 106 146.5t109 142.5t76 131.5t34 144.5q0 73 -36 149q-4 8 -4 17q0 19 16 15l195 -48q31 -8 39 -31q8 -21 8 -51q0 -46 -24.5 -107.5t-52 -110t-84.5 -124t-83.5 -107.5t-90 -105 t-64.5 -75h281v189q0 21 21 26l139 26l7 1q19 0 19 -22v-220h176q24 0 24 -24v-82q0 -24 -24 -24h-176v-273q0 -22 -23 -22h-139q-24 0 -24 22v273h-410q-23 0 -23 24z" />
<glyph unicode="&#xbf;" horiz-adv-x="1083" d="M49 -241q0 72 23.5 128t60.5 91t82 65t90 58.5t82 61.5t60.5 85t23.5 119q0 54 0.5 89.5t1 50t0.5 18.5q0 25 27 25h128q27 0 27 -25q0 -6 1 -19t3.5 -49.5t5.5 -89.5q3 -70 -12.5 -127.5t-44 -97.5t-63 -74.5t-70.5 -66.5t-65.5 -65.5t-48 -79.5t-18.5 -101 q0 -58 14 -98.5t38 -61t48.5 -29t53.5 -8.5q43 0 80 33t37 86q0 61 -38 134q-6 11 -6 23q0 23 20 19l215 -49q39 -9 51 -39q22 -55 22 -102q0 -93 -105.5 -155t-267.5 -62q-226 0 -341 88t-115 225zM366 926q0 41 38 79l80 80q39 39 80 39t80 -39l80 -80q39 -39 39 -79 q0 -41 -39 -80l-80 -81q-38 -38 -80 -38q-41 0 -80 39l-80 80q-38 38 -38 80z" />
<glyph unicode="&#xc0;" horiz-adv-x="1609" d="M12 31v61q0 31 31 31q15 0 27.5 2.5t23.5 10.5t19.5 13.5t17.5 20t14 22.5t13.5 28.5t12 29t13 34t12.5 34.5l441 1192q9 25 35 25h247q27 0 35 -24l462 -1193q4 -9 13 -33.5t12.5 -33.5t12 -29t14 -28.5t14.5 -23t17 -20.5t18.5 -13.5t23 -10.5t26.5 -3q30 0 30 -31v-61 q0 -31 -30 -31h-628q-31 0 -31 31v61q0 31 31 31q64 0 111 40t47 101q0 28 -10 54l-64 173h-560l-61 -173q-9 -27 -9 -51q0 -61 47.5 -102.5t111.5 -41.5q31 0 31 -31v-61q0 -31 -31 -31h-509q-31 0 -31 31zM518 1987q0 51 40.5 77.5t102.5 26.5q26 0 39 -2q28 -4 36 -26 q40 -104 82 -176.5t137 -193.5l-75 -36q-17 -8 -33 -3q-50 17 -103.5 47t-106 71.5t-86 98.5t-33.5 116zM525 669h433l-221 600z" />
<glyph unicode="&#xc1;" horiz-adv-x="1609" d="M12 31v61q0 31 31 31q15 0 27.5 2.5t23.5 10.5t19.5 13.5t17.5 20t14 22.5t13.5 28.5t12 29t13 34t12.5 34.5l441 1192q9 25 35 25h247q27 0 35 -24l462 -1193q4 -9 13 -33.5t12.5 -33.5t12 -29t14 -28.5t14.5 -23t17 -20.5t18.5 -13.5t23 -10.5t26.5 -3q30 0 30 -31v-61 q0 -31 -30 -31h-628q-31 0 -31 31v61q0 31 31 31q64 0 111 40t47 101q0 28 -10 54l-64 173h-560l-61 -173q-9 -27 -9 -51q0 -61 47.5 -102.5t111.5 -41.5q31 0 31 -31v-61q0 -31 -31 -31h-509q-31 0 -31 31zM525 669h433l-221 600zM650 1693q95 121 137 193.5t82 176.5 q8 22 37 26q13 2 39 2q62 0 102.5 -26.5t40.5 -77.5q0 -59 -33.5 -116t-86.5 -98.5t-106 -71.5t-104 -47q-5 -2 -14 -2q-7 0 -19 5z" />
<glyph unicode="&#xc2;" horiz-adv-x="1609" d="M12 31v61q0 31 31 31q15 0 27.5 2.5t23.5 10.5t19.5 13.5t17.5 20t14 22.5t13.5 28.5t12 29t13 34t12.5 34.5l441 1192q9 25 35 25h247q27 0 35 -24l462 -1193q4 -9 13 -33.5t12.5 -33.5t12 -29t14 -28.5t14.5 -23t17 -20.5t18.5 -13.5t23 -10.5t26.5 -3q30 0 30 -31v-61 q0 -31 -30 -31h-628q-31 0 -31 31v61q0 31 31 31q64 0 111 40t47 101q0 28 -10 54l-64 173h-560l-61 -173q-9 -27 -9 -51q0 -61 47.5 -102.5t111.5 -41.5q31 0 31 -31v-61q0 -31 -31 -31h-509q-31 0 -31 31zM406 1790q0 20 3 39q4 28 26 36q104 40 176.5 82t193.5 137 q121 -95 193.5 -137t176.5 -82q22 -8 26 -36q2 -13 2 -39q0 -62 -26.5 -102.5t-77.5 -40.5q-90 0 -166 70t-128 170q-52 -100 -128.5 -170t-166.5 -70q-51 0 -77.5 40.5t-26.5 102.5zM525 669h433l-221 600z" />
<glyph unicode="&#xc3;" horiz-adv-x="1609" d="M12 31v62q0 31 31 31q13 0 25 3t21.5 6.5t19 12.5t15.5 15t14 20t12.5 22t12 26.5t11 27t11.5 30.5t11 31l441 1193q9 25 35 25h247q26 0 35 -25l462 -1193q3 -9 12.5 -33.5t13 -33.5t12 -29t14 -28t14.5 -22.5t17 -20.5t18.5 -14t23 -10.5t26.5 -2.5q30 0 30 -31v-62 q0 -30 -30 -30h-628q-31 0 -31 30v62q0 31 31 31q64 0 111 40t47 101q0 27 -10 53l-64 173h-560l-61 -173q-9 -27 -9 -51q0 -61 47.5 -102t111.5 -41q31 0 31 -31v-62q0 -30 -31 -30h-509q-31 0 -31 30zM487 1805q0 96 60 156t141 60q23 0 43.5 -2.5t38 -9.5t31.5 -12.5 t28 -17t22 -18t20 -21t16 -19.5t14.5 -20.5t12.5 -17.5q22 -32 35 -44t30 -12q38 0 38 46q0 48 -31 87q19 23 52 42.5t63 19.5t66.5 -49.5t36.5 -106.5q0 -96 -60 -156t-141 -60q-26 0 -49.5 4.5t-40.5 9.5t-34.5 16.5t-27.5 19t-23.5 23t-18.5 22t-17 23.5t-14 20 q-22 32 -35.5 44t-30.5 12q-20 0 -29 -14t-9 -32q0 -48 31 -87q-20 -23 -51.5 -42.5t-61.5 -19.5t-67.5 49t-37.5 107zM525 669h433l-221 600z" />
<glyph unicode="&#xc4;" horiz-adv-x="1609" d="M12 31v61q0 31 31 31q15 0 27.5 2.5t23.5 10.5t19.5 13.5t17.5 20t14 22.5t13.5 28.5t12 29t13 34t12.5 34.5l441 1192q9 25 35 25h247q27 0 35 -24l462 -1193q4 -9 13 -33.5t12.5 -33.5t12 -29t14 -28.5t14.5 -23t17 -20.5t18.5 -13.5t23 -10.5t26.5 -3q30 0 30 -31v-61 q0 -31 -30 -31h-628q-31 0 -31 31v61q0 31 31 31q64 0 111 40t47 101q0 28 -10 54l-64 173h-560l-61 -173q-9 -27 -9 -51q0 -61 47.5 -102.5t111.5 -41.5q31 0 31 -31v-61q0 -31 -31 -31h-509q-31 0 -31 31zM415 1871q0 51 52 103q51 51 102 51q52 0 103 -51t51 -103 t-51 -103t-103 -51q-51 0 -102 51q-52 52 -52 103zM525 669h433l-221 600zM892 1871q0 52 51 103t103 51t103 -51t51 -103t-51 -103t-103 -51t-103 51t-51 103z" />
<glyph unicode="&#xc5;" horiz-adv-x="1609" d="M12 31v61q0 31 31 31q15 0 27.5 2.5t23.5 10.5t19.5 13.5t17.5 20t14 22.5t13.5 28.5t12 29t13 34t12.5 34.5l441 1192q7 20 24 24q-67 34 -109 94.5t-42 130.5q0 103 84 179t197 76t197.5 -76t84.5 -179q0 -69 -41 -129.5t-108 -94.5q22 -3 30 -24l462 -1193 q4 -9 13 -33.5t12.5 -33.5t12 -29t14 -28.5t14.5 -23t17 -20.5t18.5 -13.5t23 -10.5t26.5 -3q30 0 30 -31v-61q0 -31 -30 -31h-628q-31 0 -31 31v61q0 31 31 31q64 0 111 40t47 101q0 28 -10 54l-64 173h-560l-61 -173q-9 -27 -9 -51q0 -61 47.5 -102.5t111.5 -41.5 q31 0 31 -31v-61q0 -31 -31 -31h-509q-31 0 -31 31zM525 669h433l-221 600zM668 1759q0 -47 35.5 -80t87.5 -33t88 33t36 80t-36 79.5t-88 32.5t-87.5 -32.5t-35.5 -79.5z" />
<glyph unicode="&#xc6;" horiz-adv-x="2398" d="M12 30v72q0 30 31 30q50 0 89.5 13.5t70 43t50 56.5t45.5 72l559 970q32 56 32 82q0 43 -93 43h-2q-31 0 -31 31v61q0 31 31 31h1176q28 0 40 11l11 11q9 6 18 6q15 0 25 -17l164 -279q5 -8 5 -18q0 -14 -17 -25l-86 -46q-9 -6 -18 -6q-14 0 -25 17l-7 12 q-59 102 -131.5 145.5t-194.5 43.5h-344v-481h192q187 0 194 139v13q0 31 31 31h62q30 0 30 -31v-466q0 -30 -30 -30h-62q-31 0 -31 30v13q-7 138 -194 138h-180v-407q0 -189 142 -194h132q47 0 79 1.5t75.5 8t76 19t73 35t75.5 55t73.5 80t76.5 109.5l6 11q11 18 26 18 q9 0 18 -6l65 -38q17 -11 17 -25q0 -9 -6 -18l-191 -406q-8 -18 -25 -18q-9 0 -19 8l-11 10q-12 10 -39 10h-1127q-31 0 -31 31v78q0 31 31 31q150 0 148 178v173h-486l-97 -173q-36 -66 -36 -112q0 -73 84 -73q31 0 31 -30v-72q0 -31 -31 -31h-509q-31 0 -31 31zM701 668 h384v686z" />
<glyph unicode="&#xc7;" horiz-adv-x="1531" d="M72 752q0 77 10.5 152.5t36.5 156.5t64.5 152t99 135.5t136.5 110.5t180.5 73t226.5 27q105 0 203.5 -25t185.5 -75.5t150 -135t87 -193.5l2 -13q0 -31 -36 -40l-262 -91q-17 -5 -26 -5q-26 0 -23 21l3 31l2 37q0 46 -8.5 90t-30.5 88t-55.5 76.5t-87 53t-120.5 20.5 q-70 0 -129.5 -25t-101 -68.5t-72.5 -98.5t-49 -119t-27 -125t-9 -121q0 -203 46.5 -350.5t147.5 -233t250 -85.5q87 0 161.5 21t125.5 53t93.5 79t67.5 88.5t48 91.5q12 27 35 27q12 0 26 -8l72 -33q18 -8 24.5 -16.5t-0.5 -25.5q-27 -67 -64.5 -128t-95.5 -123t-127 -108 t-164.5 -76.5t-204.5 -33.5l-85 -103q48 17 93 17q93 0 162.5 -53t69.5 -154q0 -92 -74 -151.5t-193 -59.5q-101 0 -204 43q-41 16 -41 116q0 29 33 19q99 -33 173 -33q99 0 99 66q0 51 -42.5 76.5t-115.5 25.5q-21 0 -60.5 -6t-56.5 -6q-20 0 -20 16q0 9 6 19l104 175 q-203 25 -349 131t-218 268.5t-72 365.5z" />
<glyph unicode="&#xc8;" horiz-adv-x="1546" d="M61 30v62q0 30 31 30h2q149 0 149 195v900q0 195 -149 195h-2q-31 0 -31 31v61q0 31 31 31h1026q27 0 39 11l12 11q9 6 17 6q16 0 26 -17l163 -279q6 -9 6 -18q0 -14 -17 -25l-86 -46q-9 -6 -18 -6q-14 0 -25 17l-7 12q-59 102 -131.5 145.5t-194.5 43.5h-344v-481h191 q188 0 195 138v14q0 31 30 31h62q31 0 31 -31v-466q0 -30 -31 -30h-62q-30 0 -30 30v13q-7 138 -195 138h-179v-406q0 -190 141 -195h133q56 0 92.5 2.5t86.5 12t89 29.5t84 53t88.5 86t87.5 125l7 11q11 18 25 18q9 0 18 -6l66 -38q17 -11 17 -25q0 -9 -6 -18l-192 -406 q-8 -18 -24 -18q-9 0 -19 8l-11 10q-12 10 -40 10h-1121q-31 0 -31 31zM499 1990q0 51 40 77.5t102 26.5q21 0 40 -3q28 -4 36 -26q40 -104 82 -176.5t137 -193.5l-75 -36q-16 -8 -33 -2q-50 17 -103.5 47t-106 71.5t-86 98.5t-33.5 116z" />
<glyph unicode="&#xc9;" horiz-adv-x="1546" d="M61 30v62q0 30 31 30h2q149 0 149 195v900q0 195 -149 195h-2q-31 0 -31 31v61q0 31 31 31h1026q27 0 39 11l12 11q9 6 17 6q16 0 26 -17l163 -279q6 -9 6 -18q0 -14 -17 -25l-86 -46q-9 -6 -18 -6q-14 0 -25 17l-7 12q-59 102 -131.5 145.5t-194.5 43.5h-344v-481h191 q188 0 195 138v14q0 31 30 31h62q31 0 31 -31v-466q0 -30 -31 -30h-62q-30 0 -30 30v13q-7 138 -195 138h-179v-406q0 -190 141 -195h133q56 0 92.5 2.5t86.5 12t89 29.5t84 53t88.5 86t87.5 125l7 11q11 18 25 18q9 0 18 -6l66 -38q17 -11 17 -25q0 -9 -6 -18l-192 -406 q-8 -18 -24 -18q-9 0 -19 8l-11 10q-12 10 -40 10h-1121q-31 0 -31 31zM631 1695q95 121 137 193.5t82 176.5q8 22 36 26q20 3 40 3q62 0 102.5 -26.5t40.5 -77.5q0 -59 -33.5 -116t-86.5 -98.5t-106 -71.5t-104 -47q-8 -3 -14 -3q-7 0 -19 5z" />
<glyph unicode="&#xca;" horiz-adv-x="1546" d="M61 30v62q0 30 31 30h2q149 0 149 195v900q0 195 -149 195h-2q-31 0 -31 31v61q0 31 31 31h1026q27 0 39 11l12 11q9 6 17 6q16 0 26 -17l163 -279q6 -9 6 -18q0 -14 -17 -25l-86 -46q-9 -6 -18 -6q-14 0 -25 17l-7 12q-59 102 -131.5 145.5t-194.5 43.5h-344v-481h191 q188 0 195 138v14q0 31 30 31h62q31 0 31 -31v-466q0 -30 -31 -30h-62q-30 0 -30 30v13q-7 138 -195 138h-179v-407q0 -189 141 -194h133q56 0 92.5 2.5t86.5 12t89 29.5t84 53t88.5 86t87.5 125l7 11q11 18 25 18q9 0 18 -6l66 -38q17 -11 17 -25q0 -9 -6 -18l-192 -406 q-8 -18 -24 -18q-9 0 -19 8l-11 10q-12 10 -40 10h-1121q-31 0 -31 31zM387 1792q0 20 3 39q4 29 25 36q105 40 178 82.5t193 136.5q121 -95 193.5 -137t176.5 -82q22 -8 26 -36q2 -13 2 -39q0 -62 -26.5 -102.5t-77.5 -40.5q-90 0 -166 70.5t-128 170.5 q-52 -100 -128.5 -170.5t-166.5 -70.5q-51 0 -77.5 40.5t-26.5 102.5z" />
<glyph unicode="&#xcb;" horiz-adv-x="1546" d="M61 30v62q0 30 31 30h2q149 0 149 195v900q0 195 -149 195h-2q-31 0 -31 31v61q0 31 31 31h1026q27 0 39 11l12 11q9 6 17 6q16 0 26 -17l163 -279q6 -9 6 -18q0 -14 -17 -25l-86 -46q-9 -6 -18 -6q-14 0 -25 17l-7 12q-59 102 -131.5 145.5t-194.5 43.5h-344v-481h191 q188 0 195 138v14q0 31 30 31h62q31 0 31 -31v-466q0 -30 -31 -30h-62q-30 0 -30 30v13q-7 138 -195 138h-179v-406q0 -190 141 -195h133q56 0 92.5 2.5t86.5 12t89 29.5t84 53t88.5 86t87.5 125l7 11q11 18 25 18q9 0 18 -6l66 -38q17 -11 17 -25q0 -9 -6 -18l-192 -406 q-8 -18 -24 -18q-9 0 -19 8l-11 10q-12 10 -40 10h-1121q-31 0 -31 31zM396 1874q0 50 52 102q51 51 102 51q52 0 103 -51t51 -102q0 -52 -51 -103t-103 -51q-51 0 -102 51q-52 52 -52 103zM873 1874q0 51 51 102t103 51q51 0 102 -51q52 -52 52 -102q0 -51 -52 -103 q-51 -51 -102 -51q-52 0 -103 51t-51 103z" />
<glyph unicode="&#xcc;" horiz-adv-x="833" d="M72 31v61q0 31 30 31h14q138 7 138 195v900q0 188 -138 195h-14q-30 0 -30 31v61q0 31 30 31h630q31 0 31 -31v-61q0 -31 -31 -31h-12q-138 -7 -138 -195v-900q0 -188 138 -195h12q31 0 31 -31v-61q0 -31 -31 -31h-630q-30 0 -30 31zM131 1990q0 51 40.5 77.5t102.5 26.5 q20 0 39 -3q28 -4 36 -26q40 -104 82 -176.5t137 -193.5l-74 -36q-16 -8 -34 -2q-50 17 -103.5 47t-106 71.5t-86 98.5t-33.5 116z" />
<glyph unicode="&#xcd;" horiz-adv-x="833" d="M72 31v61q0 31 30 31h14q138 7 138 195v900q0 188 -138 195h-14q-30 0 -30 31v61q0 31 30 31h630q31 0 31 -31v-61q0 -31 -31 -31h-12q-138 -7 -138 -195v-900q0 -188 138 -195h12q31 0 31 -31v-61q0 -31 -31 -31h-630q-30 0 -30 31zM264 1695q94 120 136 192.5t82 177.5 q8 22 37 26q19 3 39 3q62 0 102.5 -26.5t40.5 -77.5q0 -59 -33.5 -116t-86.5 -98.5t-106 -71.5t-104 -47q-7 -3 -14 -3t-19 5z" />
<glyph unicode="&#xce;" horiz-adv-x="833" d="M19 1792q0 20 3 39q4 28 26 36q104 40 176.5 82t193.5 137q121 -95 193.5 -137t176.5 -82q22 -8 26 -36q2 -13 2 -39q0 -62 -26.5 -102.5t-77.5 -40.5q-90 0 -166 70.5t-128 170.5q-52 -100 -128.5 -170.5t-166.5 -70.5q-51 0 -77.5 40.5t-26.5 102.5zM72 31v61 q0 31 30 31h14q138 7 138 195v900q0 188 -138 195h-14q-30 0 -30 31v61q0 31 30 31h630q31 0 31 -31v-61q0 -31 -31 -31h-12q-138 -7 -138 -195v-900q0 -188 138 -195h12q31 0 31 -31v-61q0 -31 -31 -31h-630q-30 0 -30 31z" />
<glyph unicode="&#xcf;" horiz-adv-x="833" d="M29 1874q0 51 51 102t102 51q52 0 103 -51t51 -102q0 -52 -51 -103t-103 -51q-51 0 -102 51t-51 103zM72 31v61q0 31 30 31h14q138 7 138 195v900q0 188 -138 195h-14q-30 0 -30 31v61q0 31 30 31h630q31 0 31 -31v-61q0 -31 -31 -31h-12q-138 -7 -138 -195v-900 q0 -188 138 -195h12q31 0 31 -31v-61q0 -31 -31 -31h-630q-30 0 -30 31zM505 1874q0 51 51 102t103 51t103 -51t51 -102q0 -52 -51 -103t-103 -51t-103 51t-51 103z" />
<glyph unicode="&#xd0;" horiz-adv-x="1617" d="M61 31v61q0 31 31 31h14q137 7 137 195v303h-151q-31 0 -31 31v177q0 31 31 31h151v358q0 195 -149 195h-2q-31 0 -31 30v62q0 31 31 31h630q237 0 422.5 -89t294 -264.5t108.5 -411.5q0 -165 -45.5 -302.5t-136.5 -243.5t-240.5 -165.5t-345.5 -59.5h-687q-31 0 -31 31z M570 328q0 -41 1.5 -63.5t9.5 -51.5t23.5 -43.5t45 -25t72.5 -10.5q118 0 206.5 28t146.5 79.5t94 131.5t51 176t15 222q0 305 -148.5 473.5t-421.5 168.5h-95v-553h433q31 0 31 -31v-177q0 -31 -31 -31h-433v-293z" />
<glyph unicode="&#xd1;" horiz-adv-x="1824" d="M61 31v62q0 31 31 31q72 0 110.5 53.5t38.5 140.5v1044q-59 52 -129 52q-30 0 -30 31v61q0 31 30 31h355q21 0 37 -18l915 -1045v746q0 87 -39 140.5t-112 53.5q-31 0 -31 31v61q0 31 31 31h505q31 0 31 -31v-61q0 -31 -31 -31q-73 0 -112 -54t-37 -140v-1189 q0 -30 -30 -30h-142q-21 0 -37 17l-968 1115v-815q0 -87 38.5 -140.5t111.5 -53.5q31 0 31 -31v-62q0 -30 -31 -30h-505q-31 0 -31 30zM620 1808q0 96 59.5 156t140.5 60q26 0 49.5 -4.5t40 -9.5t35 -17.5t27.5 -18.5t24 -23.5t19 -22t17.5 -23.5t13.5 -20q22 -32 35.5 -44 t30.5 -12q38 0 38 47t-31 86q20 23 52 43t62 20t66.5 -50t36.5 -107q0 -96 -59.5 -155.5t-140.5 -59.5q-26 0 -49.5 4.5t-40.5 9.5t-34.5 17t-27.5 18.5t-24 23t-18.5 22t-17 23.5t-14.5 20q-22 32 -35.5 44t-30.5 12q-20 0 -29 -14.5t-9 -32.5q0 -48 31 -87 q-20 -23 -51.5 -42.5t-61.5 -19.5t-67 49.5t-37 107.5z" />
<glyph unicode="&#xd2;" horiz-adv-x="1683" d="M72 776q0 181 75 343t213 275.5t315 150.5q76 16 154 16q271 0 487.5 -178.5t276.5 -456.5q18 -85 18 -171q0 -181 -75.5 -341.5t-214 -273t-315.5 -150.5q-80 -17 -155 -17q-271 0 -486 177.5t-275 455.5q-18 86 -18 170zM377 885q0 -107 23 -213q17 -79 43.5 -151 t68 -139.5t92.5 -117t120 -79t147 -29.5q49 0 98 10q91 20 158.5 67t105 113.5t55.5 141.5t18 162q0 98 -23 210q-17 79 -44 151.5t-69 141t-93.5 118t-120.5 79.5t-148 30q-47 0 -96 -10q-73 -15 -131 -49.5t-95.5 -80.5t-62.5 -104.5t-35.5 -120t-10.5 -130.5zM554 1990 q0 -59 33.5 -116t86 -98.5t106 -71.5t103.5 -47q8 -3 14 -3q8 0 20 5l74 36q-95 121 -137 193.5t-82 176.5q-8 22 -36 26q-20 3 -39 3q-62 0 -102.5 -26.5t-40.5 -77.5z" />
<glyph unicode="&#xd3;" horiz-adv-x="1683" d="M72 776q0 181 75 343t213 275.5t315 150.5q76 16 154 16q271 0 487.5 -178.5t276.5 -456.5q18 -85 18 -171q0 -181 -75.5 -341.5t-214 -273t-315.5 -150.5q-80 -17 -155 -17q-271 0 -486 177.5t-275 455.5q-18 86 -18 170zM377 885q0 -107 23 -213q17 -79 43.5 -151 t68 -139.5t92.5 -117t120 -79t147 -29.5q49 0 98 10q91 20 158.5 67t105 113.5t55.5 141.5t18 162q0 98 -23 210q-17 79 -44 151.5t-69 141t-93.5 118t-120.5 79.5t-148 30q-47 0 -96 -10q-73 -15 -131 -49.5t-95.5 -80.5t-62.5 -104.5t-35.5 -120t-10.5 -130.5zM687 1695 q95 121 137 193.5t82 176.5q8 22 36 26q20 3 39 3q62 0 102.5 -26.5t40.5 -77.5q0 -59 -33.5 -116t-86 -98.5t-106 -71.5t-103.5 -47q-7 -3 -15 -3q-7 0 -19 5z" />
<glyph unicode="&#xd4;" horiz-adv-x="1683" d="M72 776q0 181 75 343t213 275.5t315 150.5q76 16 154 16q271 0 487.5 -178t276.5 -457q18 -85 18 -171q0 -181 -75.5 -341.5t-214 -273t-315.5 -150.5q-80 -17 -155 -17q-271 0 -486 177.5t-275 455.5q-18 86 -18 170zM377 885q0 -107 23 -213q17 -79 43.5 -151 t68 -139.5t92.5 -117t120 -79t147 -29.5q49 0 98 10q91 20 158.5 67t105 113.5t55.5 141.5t18 162q0 98 -23 210q-17 79 -44 151.5t-69 141t-93.5 118t-120.5 79.5t-148 30q-47 0 -96 -10q-73 -15 -131 -49.5t-95.5 -80.5t-62.5 -104.5t-35.5 -120t-10.5 -130.5zM442 1792 q0 20 3 39q4 28 26 36q104 40 176.5 82t193.5 137q121 -95 193.5 -137t176.5 -82q22 -8 26 -36q3 -19 3 -39q0 -62 -27 -102.5t-78 -40.5q-90 0 -166 70.5t-128 170.5q-52 -100 -128 -170.5t-166 -70.5q-51 0 -78 40.5t-27 102.5z" />
<glyph unicode="&#xd5;" horiz-adv-x="1683" d="M72 777q0 181 75 343t213 275t315 150q80 17 154 17q177 0 337.5 -80.5t274 -226t152.5 -329.5q18 -85 18 -170q0 -181 -75.5 -342t-214 -273.5t-315.5 -150.5q-76 -16 -155 -16q-271 0 -486 177.5t-275 455.5q-18 85 -18 170zM377 885q0 -106 23 -212q21 -100 59 -188.5 t94.5 -164t138.5 -120t179 -44.5q45 0 98 11q91 20 158.5 67t105 113.5t55.5 141.5t18 162q0 97 -23 209q-21 101 -59.5 189.5t-95.5 165t-140 121.5t-180 45q-43 0 -96 -11q-73 -15 -131 -49.5t-95.5 -80.5t-62.5 -104.5t-35.5 -120t-10.5 -130.5zM524 1807q0 96 59.5 156 t140.5 60q26 0 49 -4.5t40 -10t35 -17t28 -18.5t24 -23t19 -22t17 -23.5t14 -19.5q22 -32 35 -44t30 -12q38 0 38 47q0 48 -30 86q20 23 52 43t62 20t66.5 -50t36.5 -107q0 -96 -60 -155.5t-141 -59.5q-26 0 -49.5 4.5t-40.5 9.5t-34.5 16.5t-27.5 19t-23.5 23t-18.5 22 t-17 23.5t-14 20q-22 32 -35.5 44t-30.5 12q-20 0 -29 -14.5t-9 -32.5q0 -48 31 -87q-19 -23 -51.5 -42.5t-62.5 -19.5t-66.5 49.5t-36.5 106.5z" />
<glyph unicode="&#xd6;" horiz-adv-x="1683" d="M72 776q0 181 75 343t213 275.5t315 150.5q76 16 154 16q271 0 487.5 -178.5t276.5 -456.5q18 -85 18 -171q0 -181 -75.5 -341.5t-214 -273t-315.5 -150.5q-80 -17 -155 -17q-271 0 -486 177.5t-275 455.5q-18 86 -18 170zM377 885q0 -107 23 -213q17 -79 43.5 -151 t68 -139.5t92.5 -117t120 -79t147 -29.5q49 0 98 10q91 20 158.5 67t105 113.5t55.5 141.5t18 162q0 98 -23 210q-17 79 -44 151.5t-69 141t-93.5 118t-120.5 79.5t-148 30q-47 0 -96 -10q-73 -15 -131 -49.5t-95.5 -80.5t-62.5 -104.5t-35.5 -120t-10.5 -130.5zM452 1874 q0 51 51 102t103 51q51 0 102 -51t51 -102q0 -52 -51 -103t-102 -51q-52 0 -103 51t-51 103zM928 1874q0 51 51 102t103 51t103 -51t51 -102q0 -52 -51 -103t-103 -51t-103 51t-51 103z" />
<glyph unicode="&#xd7;" d="M74 923q0 10 11 21l125 126q11 11 22 11t22 -11l360 -360l361 360q11 11 22 11q10 0 21 -11l126 -125q10 -10 10 -22q0 -11 -10 -21l-361 -361l361 -363q11 -11 11 -22q0 -10 -11 -21l-125 -126q-10 -10 -22 -10t-22 11l-361 361l-361 -361q-10 -10 -21 -10q-12 0 -22 11 l-125 125q-10 10 -10 22t10 22l360 361l-360 360q-11 11 -11 22z" />
<glyph unicode="&#xd8;" horiz-adv-x="1683" d="M72 776q0 181 75 343t213 275.5t315 150.5q76 16 154 16q81 0 154 -16l61 172q8 24 35 24h167q17 0 24 -9.5t1 -25.5l-84 -236q153 -82 260.5 -223.5t145.5 -320.5q18 -85 18 -171q0 -181 -75.5 -341.5t-214 -273t-315.5 -150.5q-80 -17 -155 -17q-99 0 -194 26l-41 -114 q-10 -25 -35 -25h-167q-37 0 -25 35l69 189q-139 84 -236 219.5t-132 302.5q-18 86 -18 170zM377 885q0 -107 23 -213q44 -206 146 -342l372 1034q-54 16 -110 16q-47 0 -96 -10q-73 -15 -131 -49.5t-95.5 -80.5t-62.5 -104.5t-35.5 -120t-10.5 -130.5zM724 185 q67 -29 147 -29q49 0 98 10q91 20 158.5 67t105 113.5t55.5 141.5t18 162q0 98 -23 210q-50 239 -179 382z" />
<glyph unicode="&#xd9;" horiz-adv-x="1654" d="M51 1444v61q0 31 31 31h630q30 0 30 -31v-61q0 -31 -30 -31h-13q-138 -7 -138 -195v-635q0 -77 7 -133.5t29.5 -115.5t61 -96t106 -60.5t160.5 -23.5q70 0 124.5 21t91 58.5t60.5 92t34.5 118t10.5 139.5v635q0 188 -138 195h-12q-31 0 -31 31v61q0 31 31 31h508 q31 0 31 -31v-61q0 -31 -31 -31h-14q-138 -7 -138 -195v-655q0 -590 -586 -590q-303 0 -467.5 150t-164.5 419v676q0 188 -138 195h-14q-31 0 -31 31zM605 1990q0 51 40.5 77.5t102.5 26.5q20 0 39 -3q28 -4 36 -26q40 -104 82 -176.5t137 -193.5l-75 -36q-16 -8 -33 -2 q-50 17 -103.5 47t-106 71.5t-86 98.5t-33.5 116z" />
<glyph unicode="&#xda;" horiz-adv-x="1654" d="M51 1444v61q0 31 31 31h630q30 0 30 -31v-61q0 -31 -30 -31h-13q-138 -7 -138 -195v-635q0 -77 7 -133.5t29.5 -115.5t61 -96t106 -60.5t160.5 -23.5q70 0 124.5 21t91 58.5t60.5 92t34.5 118t10.5 139.5v635q0 188 -138 195h-12q-31 0 -31 31v61q0 31 31 31h508 q31 0 31 -31v-61q0 -31 -31 -31h-14q-138 -7 -138 -195v-655q0 -590 -586 -590q-303 0 -467.5 150t-164.5 419v676q0 188 -138 195h-14q-31 0 -31 31zM737 1695q95 121 137 193.5t82 176.5q8 22 36 26q19 3 40 3q62 0 102.5 -26.5t40.5 -77.5q0 -59 -33.5 -116t-86.5 -98.5 t-106 -71.5t-104 -47q-7 -3 -14 -3t-19 5z" />
<glyph unicode="&#xdb;" horiz-adv-x="1654" d="M51 1444v61q0 31 31 31h630q30 0 30 -31v-61q0 -31 -30 -31h-13q-138 -7 -138 -195v-635q0 -77 7 -133.5t29.5 -115.5t61 -96t106 -60.5t160.5 -23.5q70 0 124.5 21t91 58.5t60.5 92t34.5 118t10.5 139.5v635q0 188 -138 195h-12q-31 0 -31 31v61q0 31 31 31h508 q31 0 31 -31v-61q0 -31 -31 -31h-14q-138 -7 -138 -195v-655q0 -590 -586 -590q-303 0 -467.5 150t-164.5 419v676q0 188 -138 195h-14q-31 0 -31 31zM493 1792q0 20 3 39q4 28 26 36q104 40 176.5 82t193.5 137q121 -95 193.5 -137t176.5 -82q22 -8 26 -36q2 -13 2 -39 q0 -62 -26.5 -102.5t-77.5 -40.5q-90 0 -166 70.5t-128 170.5q-52 -100 -128.5 -170.5t-166.5 -70.5q-51 0 -77.5 40.5t-26.5 102.5z" />
<glyph unicode="&#xdc;" horiz-adv-x="1654" d="M51 1444v61q0 31 31 31h630q30 0 30 -31v-61q0 -31 -30 -31h-13q-138 -7 -138 -195v-635q0 -77 7 -133.5t29.5 -115.5t61 -96t106 -60.5t160.5 -23.5q70 0 124.5 21t91 58.5t60.5 92t34.5 118t10.5 139.5v635q0 188 -138 195h-12q-31 0 -31 31v61q0 31 31 31h508 q31 0 31 -31v-61q0 -31 -31 -31h-14q-138 -7 -138 -195v-655q0 -590 -586 -590q-303 0 -467.5 150t-164.5 419v676q0 188 -138 195h-14q-31 0 -31 31zM502 1874q0 50 52 102q51 51 102 51q52 0 103 -51t51 -102q0 -52 -51 -103t-103 -51q-51 0 -102 51q-52 52 -52 103z M979 1874q0 51 51 102t103 51q51 0 102 -51q52 -52 52 -102q0 -51 -52 -103q-51 -51 -102 -51q-52 0 -103 51t-51 103z" />
<glyph unicode="&#xdd;" horiz-adv-x="1626" d="M20 1449v62q0 30 31 30h710q31 0 31 -30v-62q0 -31 -31 -31q-60 0 -101 -23.5t-41 -71.5q0 -42 34 -99l239 -391l222 391q45 80 45 127q0 67 -93 67q-31 0 -31 31v62q0 30 31 30h509q30 0 30 -30v-62q0 -31 -30 -31q-141 0 -255 -194l-317 -542q-11 -20 -11 -38v-326 q0 -188 138 -195h14q31 0 31 -31v-61q0 -31 -31 -31h-629q-31 0 -31 31v61q0 31 31 31h12q138 7 138 195v314q0 20 -12 38l-369 554q-72 108 -121.5 151t-111.5 43q-31 0 -31 31zM770 1695q95 121 137 193.5t82 176.5q8 22 36 26q19 3 40 3q62 0 102.5 -26.5t40.5 -77.5 q0 -59 -33.5 -116t-86.5 -98.5t-106 -71.5t-104 -47q-7 -3 -14 -3t-19 5z" />
<glyph unicode="&#xde;" horiz-adv-x="1433" d="M61 31v61q0 31 31 31h14q138 7 138 195v900q0 195 -148 195h-2q-31 0 -31 31v61q0 31 31 31h597q30 0 30 -31v-61q0 -31 -30 -31h-132v-117h287q121 0 225 -38t173.5 -101t108.5 -145t39 -170q0 -81 -21 -149t-70.5 -127.5t-125.5 -100.5t-190.5 -64.5t-260.5 -23.5h-153 v-59q0 -188 139 -195h12q31 0 31 -31v-61q0 -31 -31 -31h-630q-31 0 -31 31zM559 523h131q206 0 300.5 75.5t94.5 243.5q0 145 -88.5 237.5t-239.5 92.5h-198v-649z" />
<glyph unicode="&#xdf;" horiz-adv-x="1484" d="M58 31v61q0 31 31 31h5q146 3 146 195v347q0 50 -3.5 83t-14.5 70t-37 58t-66 25q-27 3 -25 27v69q0 23 30 27h116v30q0 28 2 54.5t9 64t18.5 70.5t32.5 70.5t49.5 68.5t71 60.5t94 49.5t122.5 32t154 12q196 0 324 -94.5t136 -253.5v-4q0 -21 -15 -35l-290 -269 q223 0 369.5 -132t146.5 -323q0 -95 -28.5 -172.5t-76.5 -129t-113.5 -86t-135.5 -49.5t-146 -15q-196 0 -330 132q-11 11 -11 22q0 3 33 66q6 13 19 13q10 0 25 -11q81 -55 184 -55q121 0 200.5 73t79.5 212q0 310 -370 313q-4 0 -8 1t-6.5 2t-6 4t-5 4t-5.5 5.5t-5 6.5 q-9 10 -19 21t-16.5 17.5t-13.5 14.5t-11 13t-8.5 10.5t-7 8.5t-4.5 7t-2.5 7t-0.5 6q0 17 19 17h7q18 0 38 18l259 248q15 15 13 39q-6 96 -63.5 144t-139.5 48q-100 0 -181 -64t-81 -163v-1122q0 -31 -30 -31h-427q-31 0 -31 31z" />
<glyph unicode="&#xe0;" horiz-adv-x="1267" d="M61 514q0 137 39.5 242.5t107.5 168t152 94t180 31.5q201 0 332 -119q24 10 44.5 19.5t39 19.5t30.5 16.5t28 17t21.5 14t21.5 15.5t18 13q6 4 9 4l5 1q2 0 2 -4v-668q1 -42 6 -72t17.5 -59.5t37 -47t60.5 -21.5q26 -3 24 -27v-69q0 -27 -30 -27q-94 0 -169.5 -13 t-111 -26t-96.5 -40q-8 -4 -17 -4h-5q-3 0 -3 7l24 182q-11 -27 -30 -54t-54.5 -60t-95 -54t-133.5 -21q-58 0 -118.5 17.5t-121.5 59.5t-108 102t-76.5 154t-29.5 208zM287 1478q0 51 40.5 77.5t102.5 26.5q20 0 39 -3q28 -4 36 -26q40 -104 82 -176.5t137 -193.5l-74 -36 q-16 -8 -34 -2q-50 17 -103.5 47t-106 71.5t-86 98.5t-33.5 116zM325 580q0 -195 78 -310.5t205 -115.5q43 0 78.5 14t56.5 33.5t36 39.5t21 34l5 14v411q-7 36 -20.5 69t-38.5 68t-68.5 56t-100.5 21t-102 -19t-72.5 -50t-45.5 -75t-25 -90t-7 -100z" />
<glyph unicode="&#xe1;" horiz-adv-x="1267" d="M61 514q0 137 39.5 242.5t107.5 168t152 94t180 31.5q201 0 332 -119q24 10 44.5 19.5t39 19.5t30.5 16.5t28 17t21.5 14t21.5 15.5t18 13q6 4 9 4l5 1q2 0 2 -4v-668q1 -42 6 -72t17.5 -59.5t37 -47t60.5 -21.5q26 -3 24 -27v-69q0 -27 -30 -27q-94 0 -169.5 -13 t-111 -26t-96.5 -40q-8 -4 -17 -4h-5q-3 0 -3 7l24 182q-11 -27 -30 -54t-54.5 -60t-95 -54t-133.5 -21q-58 0 -118.5 17.5t-121.5 59.5t-108 102t-76.5 154t-29.5 208zM325 580q0 -195 78 -310.5t205 -115.5q43 0 78.5 14t56.5 33.5t36 39.5t21 34l5 14v411q-7 36 -20.5 69 t-38.5 68t-68.5 56t-100.5 21t-102 -19t-72.5 -50t-45.5 -75t-25 -90t-7 -100zM420 1183q95 121 137 193.5t82 176.5q8 22 36 26q19 3 39 3q62 0 102.5 -26.5t40.5 -77.5q0 -59 -33.5 -116t-86.5 -98.5t-106 -71.5t-104 -47q-8 -3 -14 -3q-7 0 -19 5z" />
<glyph unicode="&#xe2;" horiz-adv-x="1267" d="M61 514q0 137 39.5 242.5t107.5 168t152 94t180 31.5q201 0 332 -119q24 10 44.5 19.5t39 19.5t30.5 16.5t28 17t21.5 14t21.5 15.5t18 13q6 4 9 4l5 1q2 0 2 -4v-668q1 -42 6 -72t17.5 -59.5t37 -47t60.5 -21.5q26 -3 24 -27v-69q0 -27 -30 -27q-94 0 -169.5 -13 t-111 -26t-96.5 -40q-8 -4 -17 -4h-5q-3 0 -3 7l24 182q-11 -27 -30 -54t-54.5 -60t-95 -54t-133.5 -21q-58 0 -118.5 17.5t-121.5 59.5t-108 102t-76.5 154t-29.5 208zM175 1280q0 20 3 39q4 28 26 36q104 40 176.5 82t193.5 137q121 -95 193.5 -137t176.5 -82 q22 -8 26 -36q2 -13 2 -39q0 -62 -26.5 -102.5t-77.5 -40.5q-90 0 -166 70.5t-128 170.5q-52 -100 -128.5 -170.5t-166.5 -70.5q-51 0 -77.5 40.5t-26.5 102.5zM325 580q0 -195 78 -310.5t205 -115.5q43 0 78.5 14t56.5 33.5t36 39.5t21 34l5 14v411q-7 36 -20.5 69 t-38.5 68t-68.5 56t-100.5 21t-102 -19t-72.5 -50t-45.5 -75t-25 -90t-7 -100z" />
<glyph unicode="&#xe3;" horiz-adv-x="1267" d="M61 514q0 137 39.5 242.5t107.5 168t152 94t180 31.5q202 0 332 -118q103 42 203 114q7 5 9 5h5q2 0 2 -3v-668q1 -42 6 -72t17.5 -59.5t37 -47t60.5 -21.5q26 -3 24 -27v-69q0 -27 -30 -27q-94 0 -169.5 -13t-111 -26t-96.5 -40q-8 -4 -17 -4h-5q-3 0 -3 6l24 183 q-11 -27 -30 -54t-54.5 -60t-95 -54t-133.5 -21q-58 0 -118.5 17.5t-121.5 59t-108 102t-76.5 154t-29.5 207.5zM257 1296q0 96 59.5 156t140.5 60q26 0 49.5 -4.5t40 -9.5t35 -17.5t27.5 -18.5t24 -23.5t19 -22t17.5 -23.5t13.5 -20q22 -32 35 -44t30 -12q38 0 38 47 q0 48 -30 86q20 23 52 43t62 20t66.5 -50t36.5 -107q0 -96 -60 -155.5t-141 -59.5q-26 0 -49.5 4.5t-40.5 9.5t-34.5 16.5t-27.5 19t-23.5 23t-18.5 22t-17 23.5t-14 20q-22 32 -35.5 44t-30.5 12q-20 0 -29 -14.5t-9 -32.5q0 -48 31 -87q-20 -23 -51.5 -42.5t-61.5 -19.5 t-67 49.5t-37 107.5zM325 581q0 -195 78 -310.5t205 -115.5q43 0 78.5 14t56.5 33.5t36 39.5t21 34l5 14v411q-7 36 -20.5 68.5t-38.5 67.5t-68.5 56t-100.5 21t-102 -18.5t-72.5 -49.5t-45.5 -75t-25 -90t-7 -100z" />
<glyph unicode="&#xe4;" horiz-adv-x="1267" d="M61 514q0 137 39.5 242.5t107.5 168t152 94t180 31.5q201 0 332 -119q24 10 44.5 19.5t39 19.5t30.5 16.5t28 17t21.5 14t21.5 15.5t18 13q6 4 9 4l5 1q2 0 2 -4v-668q1 -42 6 -72t17.5 -59.5t37 -47t60.5 -21.5q26 -3 24 -27v-69q0 -27 -30 -27q-94 0 -169.5 -13 t-111 -26t-96.5 -40q-8 -4 -17 -4h-5q-3 0 -3 7l24 182q-11 -27 -30 -54t-54.5 -60t-95 -54t-133.5 -21q-58 0 -118.5 17.5t-121.5 59.5t-108 102t-76.5 154t-29.5 208zM185 1362q0 51 51 102t103 51q51 0 102 -51t51 -102q0 -52 -51 -103t-102 -51q-52 0 -103 51t-51 103z M325 580q0 -195 78 -310.5t205 -115.5q43 0 78.5 14t56.5 33.5t36 39.5t21 34l5 14v411q-7 36 -20.5 69t-38.5 68t-68.5 56t-100.5 21t-102 -19t-72.5 -50t-45.5 -75t-25 -90t-7 -100zM661 1362q0 51 51 102t103 51t103 -51t51 -102q0 -52 -51 -103t-103 -51t-103 51 t-51 103z" />
<glyph unicode="&#xe5;" horiz-adv-x="1267" d="M61 514q0 226 100.5 356.5t261.5 166.5q-58 36 -92.5 92.5t-34.5 119.5q0 103 84 179.5t197 76.5t197 -76.5t84 -179.5q0 -70 -41.5 -130t-108.5 -94q92 -30 164 -94q24 10 44.5 19.5t39 19.5t30.5 16.5t28 17t21.5 14t21.5 15.5t18 13q6 4 9 4l5 1q2 0 2 -4v-668 q1 -42 6 -72t17.5 -59.5t37 -47t60.5 -21.5q26 -3 24 -27v-69q0 -27 -30 -27q-94 0 -169.5 -13t-111 -26t-96.5 -40q-8 -4 -17 -4h-5q-3 0 -3 7l24 182q-11 -27 -30 -54t-54.5 -60t-95 -54t-133.5 -21q-58 0 -118.5 17.5t-121.5 59.5t-108 102t-76.5 154t-29.5 208zM325 580 q0 -195 78 -310.5t205 -115.5q43 0 78.5 14t56.5 33.5t36 39.5t21 34l5 14v411q-7 36 -20.5 69t-38.5 68t-68.5 56t-100.5 21t-102 -19t-72.5 -50t-45.5 -75t-25 -90t-7 -100zM453 1249q0 -47 36 -79.5t88 -32.5t88 32.5t36 79.5t-36 80t-88 33t-88 -33t-36 -80z" />
<glyph unicode="&#xe6;" horiz-adv-x="1837" d="M61 514q0 137 39.5 242.5t107.5 168t152 94t180 31.5q198 0 329 -117q21 10 41 21t34 19.5t30.5 21.5t25 19t23 20t18.5 18t18.5 19t15.5 16q4 4 9 4h5q2 0 2 -3l-3 -89q102 48 225 48q78 0 147.5 -26.5t118.5 -68.5t84.5 -94.5t53 -105.5t17.5 -100q0 -18 -17 -26 l-594 -260q39 -95 117.5 -157.5t189.5 -62.5q69 0 139 38t122 113q6 9 17 9q14 0 82 -40q8 -5 8 -16q0 -14 -12 -36q-129 -239 -411 -239q-163 0 -292 75q-55 -6 -104.5 -18.5t-76 -23t-73.5 -31.5q-8 -4 -17 -4h-5q-3 0 -3 7l24 182q-11 -27 -30 -54t-54.5 -60t-95 -54 t-133.5 -21q-58 0 -118.5 17.5t-121.5 59.5t-108 102t-76.5 154t-29.5 208zM325 580q0 -195 78 -310.5t205 -115.5q43 0 78.5 14t56.5 33.5t36 39.5t21 34l5 14v411q-7 36 -20.5 69t-38.5 68t-68.5 56t-100.5 21t-102 -19t-72.5 -50t-45.5 -75t-25 -90t-7 -100zM1079 650 q0 -102 19 -156l329 166q0 97 -46.5 161t-117.5 64q-83 0 -133.5 -66.5t-50.5 -168.5z" />
<glyph unicode="&#xe7;" horiz-adv-x="1052" d="M61 514q0 15 2 47q10 122 59.5 218.5t123 153.5t159 86t175.5 29l38 -2q172 -12 260 -90t112 -190l1 -9q0 -21 -24 -27l-235 -63q-10 -3 -18 -3q-9 0 -13 3.5t-3 10.5l2 21q6 89 -36 137.5t-131 48.5q-92 0 -143 -72.5t-61 -186.5q-4 -52 -4 -77q0 -80 15 -148t46.5 -124 t87.5 -88.5t130 -32.5q13 0 39 2q63 6 123.5 43.5t104.5 102.5q10 16 24 16q10 0 18 -6l54 -38q24 -17 12 -42q-104 -221 -369 -250l-88 -107q48 17 93 17q93 0 162.5 -53t69.5 -154q0 -92 -74 -151.5t-193 -59.5q-101 0 -204 43q-41 16 -41 116q0 29 33 19q99 -33 173 -33 q99 0 99 66q0 51 -42.5 76.5t-115.5 25.5q-21 0 -60.5 -6t-56.5 -6q-20 0 -20 16q0 9 6 19l106 178q-116 23 -207.5 102t-140 189.5t-48.5 232.5z" />
<glyph unicode="&#xe8;" horiz-adv-x="1054" d="M61 521q0 110 28 200t74.5 149.5t110 100t132 58.5t143.5 18q78 0 147.5 -26.5t118.5 -68.5t84.5 -94.5t53 -105.5t17.5 -100q0 -18 -17 -26l-594 -260q39 -95 117.5 -157.5t189.5 -62.5q69 0 139 38t122 113q6 9 17 9q14 0 82 -40q8 -5 8 -16q0 -12 -13 -36 q-129 -239 -410 -239q-165 0 -292 75t-192.5 198.5t-65.5 272.5zM260 1478q0 -59 33.5 -116t86 -98.5t106 -71.5t103.5 -47q7 -3 14 -3q8 0 20 5l74 36q-95 121 -137 193.5t-82 176.5q-8 22 -36 26q-20 3 -39 3q-62 0 -102.5 -26.5t-40.5 -77.5zM315 650q0 -102 19 -156 l329 166q0 97 -46.5 161t-117.5 64q-83 0 -133.5 -66.5t-50.5 -168.5z" />
<glyph unicode="&#xe9;" horiz-adv-x="1054" d="M61 521q0 110 28 200t74.5 149.5t110 100t132 58.5t143.5 18q78 0 147.5 -26.5t118.5 -68.5t84.5 -94.5t53 -105.5t17.5 -100q0 -18 -17 -26l-594 -260q39 -95 117.5 -157.5t189.5 -62.5q69 0 139 38t122 113q6 9 17 9q14 0 82 -40q8 -5 8 -16q0 -12 -13 -36 q-129 -239 -410 -239q-165 0 -292 75t-192.5 198.5t-65.5 272.5zM315 650q0 -102 19 -156l329 166q0 97 -46.5 161t-117.5 64q-83 0 -133.5 -66.5t-50.5 -168.5zM393 1183q95 121 137 193.5t82 176.5q8 22 36 26q20 3 39 3q62 0 102.5 -26.5t40.5 -77.5q0 -59 -33.5 -116 t-86.5 -98.5t-106 -71.5t-104 -47q-8 -3 -14 -3q-7 0 -19 5z" />
<glyph unicode="&#xea;" horiz-adv-x="1054" d="M61 521q0 110 28 200t74.5 149.5t110 100t132 58.5t143.5 18q78 0 147.5 -26.5t118.5 -68.5t84.5 -94.5t53 -105.5t17.5 -100q0 -18 -17 -26l-594 -260q39 -95 117.5 -157.5t189.5 -62.5q69 0 139 38t122 113q6 9 17 9q14 0 82 -40q8 -5 8 -16q0 -12 -13 -36 q-129 -239 -410 -239q-165 0 -292 75t-192.5 198.5t-65.5 272.5zM148 1280q0 20 3 39q4 28 26 36q104 40 176.5 82t193.5 137q121 -95 193.5 -137t176.5 -82q22 -8 26 -36q2 -13 2 -39q0 -62 -26.5 -102.5t-77.5 -40.5q-90 0 -166 70.5t-128 170.5q-52 -100 -128.5 -170.5 t-166.5 -70.5q-51 0 -77.5 40.5t-26.5 102.5zM315 650q0 -102 19 -156l329 166q0 97 -46.5 161t-117.5 64q-83 0 -133.5 -66.5t-50.5 -168.5z" />
<glyph unicode="&#xeb;" horiz-adv-x="1054" d="M61 521q0 110 28 200t74.5 149.5t110 100t132 58.5t143.5 18q78 0 147.5 -26.5t118.5 -68.5t84.5 -94.5t53 -105.5t17.5 -100q0 -18 -17 -26l-594 -260q39 -95 117.5 -157.5t189.5 -62.5q69 0 139 38t122 113q6 9 17 9q14 0 82 -40q8 -5 8 -16q0 -12 -13 -36 q-129 -239 -410 -239q-165 0 -292 75t-192.5 198.5t-65.5 272.5zM158 1362q0 51 51 102t102 51q52 0 103 -51t51 -102q0 -52 -51 -103t-103 -51q-51 0 -102 51t-51 103zM315 650q0 -102 19 -156l329 166q0 97 -46.5 161t-117.5 64q-83 0 -133.5 -66.5t-50.5 -168.5z M634 1362q0 51 51 102t103 51t103 -51t51 -102q0 -52 -51 -103t-103 -51t-103 51t-51 103z" />
<glyph unicode="&#xec;" horiz-adv-x="716" d="M37 31v61q0 31 31 31h3q73 0 112 54.5t37 140.5v217q0 42 -3.5 72t-14.5 65t-37 55.5t-66 24.5q-26 3 -24 27v69q0 12 6.5 17t22.5 10q263 88 377 208q5 5 9 5h5q2 0 4 -3v-767q0 -87 39 -141t112 -54h5q31 0 31 -31v-61q0 -15 -10 -23t-25 -8h-579q-15 0 -25 8t-10 23z M69 1478q0 51 40.5 77.5t102.5 26.5q20 0 39 -3q28 -4 36 -26q40 -104 82 -176.5t137 -193.5l-74 -36q-16 -8 -34 -2q-50 17 -103.5 47t-106 71.5t-86 98.5t-33.5 116z" />
<glyph unicode="&#xed;" horiz-adv-x="716" d="M37 31v61q0 31 31 31h3q73 0 112 54.5t37 140.5v217q0 42 -3.5 72t-14.5 65t-37 55.5t-66 24.5q-26 3 -24 27v69q0 12 6.5 17t22.5 10q263 88 377 208q5 5 9 5h5q2 0 4 -3v-767q0 -87 39 -141t112 -54h5q31 0 31 -31v-61q0 -15 -10 -23t-25 -8h-579q-15 0 -25 8t-10 23z M202 1183q95 121 137 193.5t82 176.5q8 22 36 26q19 3 39 3q62 0 102.5 -26.5t40.5 -77.5q0 -59 -33.5 -116t-86 -98.5t-106 -71.5t-103.5 -47q-8 -3 -15 -3t-19 5z" />
<glyph unicode="&#xee;" horiz-adv-x="716" d="M-43 1280q0 20 3 39q4 28 26 36q104 40 176.5 82t193.5 137q121 -95 193.5 -137t176.5 -82q22 -8 26 -36q2 -13 2 -39q0 -62 -26.5 -102.5t-77.5 -40.5q-90 0 -166 70.5t-128 170.5q-52 -100 -128 -170.5t-166 -70.5q-51 0 -78 40.5t-27 102.5zM37 31v61q0 31 31 31h3 q73 0 112 54.5t37 140.5v217q0 42 -3.5 72t-14.5 65t-37 55.5t-66 24.5q-26 3 -24 27v69q0 12 6.5 17t22.5 10q263 88 377 208q5 5 9 5h5q2 0 4 -3v-767q0 -87 39 -141t112 -54h5q31 0 31 -31v-61q0 -15 -10 -23t-25 -8h-579q-15 0 -25 8t-10 23z" />
<glyph unicode="&#xef;" horiz-adv-x="716" d="M-33 1362q0 51 51 102t103 51q51 0 102 -51t51 -102q0 -52 -51 -103t-102 -51q-52 0 -103 51t-51 103zM37 31v61q0 31 31 31h3q73 0 112 54.5t37 140.5v217q0 42 -3.5 72t-14.5 65t-37 55.5t-66 24.5q-26 3 -24 27v69q0 12 6.5 17t22.5 10q263 88 377 208q5 5 9 5h5 q2 0 4 -3v-767q0 -87 39 -141t112 -54h5q31 0 31 -31v-61q0 -15 -10 -23t-25 -8h-579q-15 0 -25 8t-10 23zM443 1362q0 51 51 102t103 51t103 -51t51 -102q0 -52 -51 -103t-103 -51t-103 51t-51 103z" />
<glyph unicode="&#xf0;" horiz-adv-x="1173" d="M63 512q0 182 108.5 327.5t284.5 189.5q66 16 124 16q57 0 116 -14q-85 154 -207 255l-82 -98q-11 -12 -23 -12q-10 0 -20 7l-101 77q-14 11 -14 22q0 10 9 21l70 83q-102 45 -210 53q-29 1 -29 31v115q0 30 29 30q158 0 336 -78l88 105q11 13 23 13q9 0 20 -8l102 -76 q13 -10 13 -23q0 -11 -8 -20l-70 -84q219 -151 352.5 -394t135.5 -520q11 -190 -99 -345.5t-294 -201.5q-66 -16 -124 -16q-179 0 -324 114.5t-190 297.5q-16 65 -16 133zM327 612q0 -79 22 -165q35 -138 108 -231t173 -93q24 0 51 6q85 21 125 94.5t40 177.5q0 82 -21 164 q-35 138 -108 231t-173 93q-24 0 -51 -6q-85 -21 -125.5 -94t-40.5 -177z" />
<glyph unicode="&#xf1;" horiz-adv-x="1398" d="M31 31v62q0 31 30 31h5q72 0 110.5 53.5t38.5 140.5v258q0 39 -1.5 66t-8.5 60t-19.5 53.5t-35.5 36.5t-56 19q-26 3 -24 27v69q0 23 29 27q131 21 242 66t164 84q7 5 9 5h5q2 0 2 -3l-36 -269q147 235 354 235q85 0 148.5 -23t101 -59.5t60 -90t30.5 -106.5t8 -117v-338 q0 -87 39 -140.5t112 -53.5h9q31 0 31 -31v-62q0 -30 -31 -30h-556q-31 0 -31 30v62q0 31 32 31q56 0 83 53t25 141v309v17v47t-3 44.5t-8 43.5t-16 35t-26.5 30.5t-39.5 18t-55 7.5q-74 0 -148 -53.5t-101 -120.5v-378q0 -87 38.5 -140.5t111.5 -53.5h5q30 0 30 -31v-62 q0 -30 -31 -30h-596q-30 0 -30 30zM385 1296q0 96 59.5 156t140.5 60q26 0 49.5 -4.5t40 -9.5t35 -17.5t27.5 -18.5t24 -23.5t19 -22t17.5 -23.5t13.5 -20q22 -32 35.5 -44t30.5 -12q38 0 38 47t-31 86q20 23 52 43t62 20t66.5 -50t36.5 -107q0 -96 -59.5 -155.5 t-140.5 -59.5q-26 0 -49.5 4.5t-40.5 9.5t-34.5 17t-27.5 18.5t-24 23t-18.5 22t-17 23.5t-14.5 20q-22 32 -35.5 44t-30.5 12q-20 0 -29 -14.5t-9 -32.5q0 -48 31 -87q-20 -23 -51.5 -42.5t-61.5 -19.5t-67 49.5t-37 107.5z" />
<glyph unicode="&#xf2;" horiz-adv-x="1175" d="M62 523q0 155 82 287t224 195q98 44 207 44q155 0 289.5 -87t201.5 -237q48 -106 48 -224q0 -155 -82 -286t-225 -195q-101 -45 -208 -45q-155 0 -289.5 87t-200.5 237q-47 107 -47 224zM300 1478q0 -59 33.5 -116t86 -98.5t106 -71.5t103.5 -47q7 -3 14 -3q8 0 20 5 l74 36q-95 121 -137 193.5t-82 176.5q-8 22 -36 26q-20 3 -39 3q-62 0 -102.5 -26.5t-40.5 -77.5zM306 651q0 -112 57 -239q53 -118 132 -195.5t168 -77.5q40 0 82 18q124 54 124 216q0 112 -57 239q-53 118 -132.5 195.5t-168.5 77.5q-40 0 -82 -18q-123 -54 -123 -216z " />
<glyph unicode="&#xf3;" horiz-adv-x="1175" d="M62 523q0 155 82 287t224 195q98 44 207 44q155 0 289.5 -87t201.5 -237q48 -106 48 -224q0 -155 -82 -286t-225 -195q-101 -45 -208 -45q-155 0 -289.5 87t-200.5 237q-47 107 -47 224zM306 651q0 -112 57 -239q53 -118 132 -195.5t168 -77.5q40 0 82 18q124 54 124 216 q0 112 -57 239q-53 118 -132.5 195.5t-168.5 77.5q-40 0 -82 -18q-123 -54 -123 -216zM433 1183q94 120 136 192.5t82 177.5q8 22 37 26q20 3 39 3q62 0 102.5 -26.5t40.5 -77.5q0 -59 -33.5 -116t-86.5 -98.5t-106 -71.5t-104 -47q-8 -3 -14 -3q-7 0 -19 5z" />
<glyph unicode="&#xf4;" horiz-adv-x="1175" d="M62 523q0 155 82 287t224 195q98 44 207 44q155 0 289.5 -87t201.5 -237q48 -106 48 -224q0 -155 -82 -286t-225 -195q-101 -45 -208 -45q-155 0 -289.5 87t-200.5 237q-47 107 -47 224zM188 1280q0 20 3 39q4 28 26 36q104 40 176.5 82t193.5 137q121 -95 193.5 -137 t176.5 -82q22 -8 26 -36q2 -13 2 -39q0 -62 -26.5 -102.5t-77.5 -40.5q-90 0 -166 70.5t-128 170.5q-52 -100 -128.5 -170.5t-166.5 -70.5q-51 0 -77.5 40.5t-26.5 102.5zM306 651q0 -112 57 -239q53 -118 132 -195.5t168 -77.5q40 0 82 18q124 54 124 216q0 112 -57 239 q-53 118 -132.5 195.5t-168.5 77.5q-40 0 -82 -18q-123 -54 -123 -216z" />
<glyph unicode="&#xf5;" horiz-adv-x="1175" d="M62 524q0 155 82 287t224 195q98 44 207 44q155 0 289.5 -87t201.5 -237q48 -106 48 -225q0 -155 -82 -286t-225 -195q-98 -44 -208 -44q-155 0 -289.5 87t-200.5 237q-47 107 -47 224zM270 1295q0 96 59.5 156t140.5 60q26 0 49 -4.5t40 -10t35 -17t28 -18.5t24 -23 t19 -22t17 -23.5t14 -19.5q22 -32 35 -44t30 -12q38 0 38 47q0 48 -30 86q20 23 52 43t62 20t66.5 -50t36.5 -107q0 -96 -60 -155.5t-141 -59.5q-26 0 -49.5 4.5t-40.5 9.5t-34.5 16.5t-27.5 19t-23.5 23t-18.5 22t-17 23.5t-14 20q-22 32 -35.5 44t-30.5 12 q-20 0 -29 -14.5t-9 -32.5q0 -48 31 -87q-19 -23 -51.5 -42.5t-62.5 -19.5t-66.5 49.5t-36.5 106.5zM306 652q0 -112 57 -239q53 -118 132 -195.5t168 -77.5q40 0 82 18q124 54 124 216q0 112 -57 239q-53 118 -132.5 195.5t-168.5 77.5q-40 0 -82 -18q-123 -54 -123 -216z " />
<glyph unicode="&#xf6;" horiz-adv-x="1175" d="M62 523q0 155 82 287t224 195q98 44 207 44q155 0 289.5 -87t201.5 -237q48 -106 48 -224q0 -155 -82 -286t-225 -195q-101 -45 -208 -45q-155 0 -289.5 87t-200.5 237q-47 107 -47 224zM198 1362q0 51 51 102t102 51q52 0 103 -51t51 -102q0 -52 -51 -103t-103 -51 q-51 0 -102 51t-51 103zM306 651q0 -112 57 -239q53 -118 132 -195.5t168 -77.5q40 0 82 18q124 54 124 216q0 112 -57 239q-53 118 -132.5 195.5t-168.5 77.5q-40 0 -82 -18q-123 -54 -123 -216zM674 1362q0 51 51 102t103 51t103 -51t51 -102q0 -52 -51 -103t-103 -51 t-103 51t-51 103z" />
<glyph unicode="&#xf7;" d="M38 490v177q0 31 30 31h1086q31 0 31 -31v-177q0 -31 -31 -31h-1086q-30 0 -30 31zM445 160q0 41 39 80l80 81q38 38 80 38q41 0 80 -39l80 -80q38 -38 38 -80q0 -41 -38 -79l-80 -80q-39 -39 -80 -39t-80 39l-80 80q-39 39 -39 79zM445 1001q0 41 39 80l80 80 q39 39 80 39t80 -39l80 -80q38 -38 38 -80q0 -41 -38 -79l-80 -81q-38 -38 -80 -38t-80 38l-80 81q-39 39 -39 79z" />
<glyph unicode="&#xf8;" horiz-adv-x="1175" d="M62 523q0 155 82 287t224 195q98 44 207 44q36 0 64 -4l145 402q9 25 35 25h167q17 0 23.5 -10t0.5 -26l-166 -461q152 -90 222 -250q48 -106 48 -224q0 -155 -82 -286t-225 -195q-101 -45 -208 -45q-56 0 -110 12l-133 -372q-9 -24 -36 -24h-167q-36 0 -24 34l162 451 q-123 89 -182 223q-47 107 -47 224zM306 651q0 -112 57 -239q18 -38 28 -56l186 517q-31 12 -66 12q-40 0 -82 -18q-123 -54 -123 -216zM555 171q54 -32 108 -32q40 0 82 18q124 54 124 216q0 112 -57 239q-27 59 -59 108z" />
<glyph unicode="&#xf9;" horiz-adv-x="1349" d="M20 931v62q0 30 31 30l5 1h412q30 0 30 -31v-596v-17v-47t3 -44.5t8 -43.5t16 -35t26.5 -30.5t39.5 -18t55 -7.5q74 0 148 53.5t101 120.5v378q0 87 -39 141t-111 54h-5q-30 0 -30 30v62q0 29 31 31h411q31 0 31 -31v-578q0 -50 3.5 -83t14.5 -70t37 -58t66 -25 q26 -3 24 -27v-69q0 -27 -30 -27q-94 0 -170 -13.5t-109 -25.5t-97 -40q-8 -4 -17 -4h-5q-3 0 -3 7l32 258q-23 -47 -56 -90.5t-79 -84.5t-107 -65.5t-128 -24.5q-85 0 -148.5 23t-101 59t-60 89.5t-30.5 106.5t-8 117v338q0 87 -39 141t-112 54h-9q-31 0 -31 30zM399 1478 q0 51 40.5 77.5t102.5 26.5q20 0 39 -3q28 -4 36 -26q40 -104 82 -176.5t137 -193.5l-75 -36q-16 -8 -33 -2q-50 17 -103.5 47t-106 71.5t-86 98.5t-33.5 116z" />
<glyph unicode="&#xfa;" horiz-adv-x="1349" d="M20 931v62q0 30 31 30l5 1h412q30 0 30 -31v-596v-17v-47t3 -44.5t8 -43.5t16 -35t26.5 -30.5t39.5 -18t55 -7.5q74 0 148 53.5t101 120.5v378q0 87 -39 141t-111 54h-5q-30 0 -30 30v62q0 29 31 31h411q31 0 31 -31v-578q0 -50 3.5 -83t14.5 -70t37 -58t66 -25 q26 -3 24 -27v-69q0 -27 -30 -27q-94 0 -170 -13.5t-109 -25.5t-97 -40q-8 -4 -17 -4h-5q-3 0 -3 7l32 258q-23 -47 -56 -90.5t-79 -84.5t-107 -65.5t-128 -24.5q-85 0 -148.5 23t-101 59t-60 89.5t-30.5 106.5t-8 117v338q0 87 -39 141t-112 54h-9q-31 0 -31 30zM531 1183 q95 121 137 193.5t82 176.5q8 22 36 26q19 3 40 3q62 0 102.5 -26.5t40.5 -77.5q0 -59 -33.5 -116t-86.5 -98.5t-106 -71.5t-104 -47q-7 -3 -14 -3t-19 5z" />
<glyph unicode="&#xfb;" horiz-adv-x="1349" d="M20 931v62q0 30 31 30l5 1h412q30 0 30 -31v-596v-17v-47t3 -44.5t8 -43.5t16 -35t26.5 -30.5t39.5 -18t55 -7.5q74 0 148 53.5t101 120.5v378q0 87 -39 141t-111 54h-5q-30 0 -30 30v62q0 29 31 31h411q31 0 31 -31v-578q0 -50 3.5 -83t14.5 -70t37 -58t66 -25 q26 -3 24 -27v-69q0 -27 -30 -27q-94 0 -170 -13.5t-109 -25.5t-97 -40q-8 -4 -17 -4h-5q-3 0 -3 7l32 258q-23 -47 -56 -90.5t-79 -84.5t-107 -65.5t-128 -24.5q-85 0 -148.5 23t-101 59t-60 89.5t-30.5 106.5t-8 117v338q0 87 -39 141t-112 54h-9q-31 0 -31 30zM287 1280 q0 20 3 39q4 28 26 36q104 40 176.5 82t193.5 137q121 -95 193.5 -137t176.5 -82q22 -8 26 -36q2 -13 2 -39q0 -62 -26.5 -102.5t-77.5 -40.5q-90 0 -166 70.5t-128 170.5q-52 -100 -128.5 -170.5t-166.5 -70.5q-51 0 -77.5 40.5t-26.5 102.5z" />
<glyph unicode="&#xfc;" horiz-adv-x="1349" d="M20 931v62q0 30 31 30l5 1h412q30 0 30 -31v-596v-17v-47t3 -44.5t8 -43.5t16 -35t26.5 -30.5t39.5 -18t55 -7.5q74 0 148 53.5t101 120.5v378q0 87 -39 141t-111 54h-5q-30 0 -30 30v62q0 29 31 31h411q31 0 31 -31v-578q0 -50 3.5 -83t14.5 -70t37 -58t66 -25 q26 -3 24 -27v-69q0 -27 -30 -27q-94 0 -170 -13.5t-109 -25.5t-97 -40q-8 -4 -17 -4h-5q-3 0 -3 7l32 258q-23 -47 -56 -90.5t-79 -84.5t-107 -65.5t-128 -24.5q-85 0 -148.5 23t-101 59t-60 89.5t-30.5 106.5t-8 117v338q0 87 -39 141t-112 54h-9q-31 0 -31 30zM296 1362 q0 50 52 102q51 51 102 51q52 0 103 -51t51 -102q0 -52 -51 -103t-103 -51q-51 0 -102 51q-52 52 -52 103zM773 1362q0 51 51 102t103 51t103 -51t51 -102q0 -52 -51 -103t-103 -51t-103 51t-51 103z" />
<glyph unicode="&#xfd;" horiz-adv-x="1183" d="M12 933v61q0 31 31 31h473q30 0 30 -31v-61q0 -31 -30 -31h-4q-65 0 -65 -53q0 -38 46 -140l137 -300l148 304q51 104 51 145q0 44 -47 44h-36q-31 0 -31 31v61q0 31 31 31h396q30 0 30 -31v-61q0 -31 -30 -31h-30q-34 0 -59 -26.5t-60 -101.5l-594 -1196 q-13 -26 -41 -14l-105 53q-29 13 -15 41l229 491l-301 624q-38 79 -59.5 104t-58.5 25h-5q-31 0 -31 31zM449 1183q95 121 137 193.5t82 176.5q8 22 37 26q19 3 39 3q62 0 102.5 -26.5t40.5 -77.5q0 -59 -33.5 -116t-86.5 -98.5t-106 -71.5t-104 -47q-8 -3 -14 -3 q-7 0 -19 5z" />
<glyph unicode="&#xfe;" horiz-adv-x="1292" d="M20 -317q0 30 33 30q72 0 110 54t38 141l1 39v1157q0 50 -3.5 83t-14.5 70t-37 58t-66 25q-26 3 -24 27v69q0 27 30 27q94 0 170 13.5t109 25.5t97 40q8 4 17 4h5q2 0 2 -7v-474l-22 -201q8 20 20.5 41t38.5 49t58.5 48.5t83.5 35.5t111 15q58 0 118.5 -17.5t121.5 -59 t108 -102t76.5 -154t29.5 -207.5q0 -137 -39.5 -243t-107 -169t-151.5 -94.5t-180 -31.5q-156 0 -266 96v-163q0 -87 39 -141t112 -54q30 0 30 -30v-62q0 -31 -30 -31h-587q-31 0 -31 31v62zM487 364q12 -104 72.5 -179.5t156.5 -75.5q57 0 102 19t72.5 50.5t45.5 76t25 91 t7 100.5q0 195 -78 310.5t-205 115.5q-43 0 -79 -14t-57 -34t-36 -39.5t-21 -33.5l-5 -14v-373z" />
<glyph unicode="&#xff;" horiz-adv-x="1183" d="M12 933v61q0 31 31 31h473q30 0 30 -31v-61q0 -31 -30 -31h-4q-65 0 -65 -53q0 -38 46 -140l137 -300l148 304q51 104 51 145q0 44 -47 44h-36q-31 0 -31 31v61q0 31 31 31h396q30 0 30 -31v-61q0 -31 -30 -31h-30q-34 0 -59 -26.5t-60 -101.5l-594 -1196 q-13 -26 -41 -14l-105 53q-29 13 -15 41l229 491l-301 624q-38 79 -59.5 104t-58.5 25h-5q-31 0 -31 31zM215 1362q0 51 51 102t102 51q52 0 103 -51t51 -102q0 -52 -51 -103t-103 -51q-51 0 -102 51t-51 103zM691 1362q0 51 51 102t103 51t103 -51t51 -102q0 -52 -51 -103 t-103 -51t-103 51t-51 103z" />
<glyph unicode="&#x152;" horiz-adv-x="2537" d="M72 775q0 181 75 343t213 275.5t315 150.5q76 16 154 16q95 0 192 -25h1090q27 0 39 11l11 11q9 6 18 6q16 0 26 -17l163 -279q5 -8 5 -18q0 -14 -17 -25l-86 -46q-9 -6 -18 -6q-14 0 -25 17l-6 12q-59 102 -132 145.5t-195 43.5h-344v-481h192q187 0 194 139v13 q0 31 31 31h62q30 0 30 -31v-466q0 -30 -30 -30h-62q-31 0 -31 30v13q-7 138 -194 138h-179v-407q0 -189 141 -194h132q47 0 79 1.5t75.5 8t76 19t73 35t75.5 55t73.5 80t76.5 109.5l7 11q10 18 25 18q9 0 18 -6l65 -38q17 -11 17 -26q0 -11 -5 -18l-192 -405 q-8 -18 -25 -18q-8 0 -18 8l-12 10q-12 10 -39 10h-1158l-42 -10q-76 -16 -155 -16q-271 0 -486 177.5t-275 455.5q-18 86 -18 169zM377 884q0 -106 23 -212q21 -100 59 -188.5t94.5 -164t138.5 -120t179 -44.5q45 0 98 11q74 16 132 50t96 79.5t63 104t35.5 119.5t10.5 130 q0 98 -23 210q-21 101 -59.5 189.5t-95.5 165t-140 121.5t-180 45q-43 0 -96 -11q-73 -15 -131 -49.5t-95.5 -80.5t-62.5 -104.5t-35.5 -120t-10.5 -130.5z" />
<glyph unicode="&#x153;" horiz-adv-x="1777" d="M62 523q0 155 82 287t224 195q98 44 207 44q199 0 351 -133q132 131 345 131q78 0 147.5 -26t118.5 -68.5t85 -95t53.5 -105.5t17.5 -100q0 -18 -17 -26l-595 -260q39 -94 118 -157t190 -63q69 0 139 38t122 113q6 9 17 9q14 0 82 -40q8 -5 8 -16q0 -12 -13 -36 q-129 -239 -410 -239q-230 0 -382 142q-60 -58 -145 -97q-101 -45 -208 -45q-155 0 -289.5 87t-200.5 237q-47 107 -47 224zM306 651q0 -112 57 -239q53 -118 132 -195.5t168 -77.5q40 0 82 18q124 54 124 216q0 112 -57 239q-53 118 -132.5 195.5t-168.5 77.5 q-40 0 -82 -18q-123 -54 -123 -216zM1038 650q0 -102 19 -156l329 166q0 97 -47 161t-118 64q-83 0 -133 -66.5t-50 -168.5z" />
<glyph unicode="&#x178;" horiz-adv-x="1626" d="M20 1449v62q0 30 31 30h710q31 0 31 -30v-62q0 -31 -31 -31q-60 0 -101 -23.5t-41 -71.5q0 -42 34 -99l239 -391l222 391q45 80 45 127q0 67 -93 67q-31 0 -31 31v62q0 30 31 30h509q30 0 30 -30v-62q0 -31 -30 -31q-141 0 -255 -194l-317 -542q-11 -20 -11 -38v-326 q0 -188 138 -195h14q31 0 31 -31v-61q0 -31 -31 -31h-629q-31 0 -31 31v61q0 31 31 31h12q138 7 138 195v314q0 20 -12 38l-369 554q-72 108 -121.5 151t-111.5 43q-31 0 -31 31zM535 1874q0 50 52 102q51 51 102 51q52 0 103 -51t51 -102q0 -52 -51 -103t-103 -51 q-51 0 -102 51q-52 52 -52 103zM1012 1874q0 51 51 102t103 51t103 -51t51 -102q0 -52 -51 -103t-103 -51t-103 51t-51 103z" />
<glyph unicode="&#x2c6;" d="M181 1280q0 20 3 39q4 28 26 36q104 40 176.5 82t193.5 137q121 -95 193.5 -137t176.5 -82q22 -8 26 -36q3 -19 3 -39q0 -62 -27 -102.5t-78 -40.5q-90 0 -166 70.5t-128 170.5q-52 -100 -128 -170.5t-166 -70.5q-51 0 -78 40.5t-27 102.5z" />
<glyph unicode="&#x2dc;" d="M215 1295q0 96 60 156t141 60q26 0 49 -4.5t40 -10t34.5 -17t28 -19t24 -23t18.5 -22t17 -23t14 -19.5q22 -32 35.5 -44t30.5 -12q38 0 38 47t-31 86q20 23 52 43t62 20t67 -50t37 -107q0 -96 -60 -155.5t-141 -59.5q-26 0 -49.5 4.5t-40.5 9.5t-34.5 17t-27.5 18.5 t-24 23t-18.5 22t-17 23.5t-14.5 20q-22 32 -35 44t-30 12q-20 0 -29 -14.5t-9 -32.5q0 -48 31 -87q-19 -23 -52 -42.5t-63 -19.5t-66.5 49.5t-36.5 106.5z" />
<glyph unicode="&#x2000;" horiz-adv-x="1047" />
<glyph unicode="&#x2001;" horiz-adv-x="2094" />
<glyph unicode="&#x2002;" horiz-adv-x="1047" />
<glyph unicode="&#x2003;" horiz-adv-x="2094" />
<glyph unicode="&#x2004;" horiz-adv-x="698" />
<glyph unicode="&#x2005;" horiz-adv-x="523" />
<glyph unicode="&#x2006;" horiz-adv-x="349" />
<glyph unicode="&#x2007;" horiz-adv-x="349" />
<glyph unicode="&#x2008;" horiz-adv-x="261" />
<glyph unicode="&#x2009;" horiz-adv-x="418" />
<glyph unicode="&#x200a;" horiz-adv-x="116" />
<glyph unicode="&#x2010;" horiz-adv-x="1067" d="M46 452v177q0 31 31 31h911q31 0 31 -31v-177q0 -31 -31 -31h-911q-31 0 -31 31z" />
<glyph unicode="&#x2011;" horiz-adv-x="1067" d="M46 452v177q0 31 31 31h911q31 0 31 -31v-177q0 -31 -31 -31h-911q-31 0 -31 31z" />
<glyph unicode="&#x2012;" horiz-adv-x="1067" d="M46 452v177q0 31 31 31h911q31 0 31 -31v-177q0 -31 -31 -31h-911q-31 0 -31 31z" />
<glyph unicode="&#x2013;" horiz-adv-x="1009" d="M104 537l46 179q7 26 34 26h696q34 0 26 -34l-46 -178q-8 -27 -34 -27h-696q-34 0 -26 34z" />
<glyph unicode="&#x2014;" horiz-adv-x="2076" d="M104 537l46 179q7 26 34 26h1762q35 0 27 -34l-46 -178q-7 -27 -34 -27h-1763q-34 0 -26 34z" />
<glyph unicode="&#x2018;" horiz-adv-x="509" d="M41 1253q0 29 7 61q16 74 91 167.5t149 153.5t99 60q13 0 81 -31q-73 -56 -117.5 -122.5t-44.5 -115.5q0 -29 18 -47l80 -80q39 -39 39 -80q0 -40 -39 -79l-80 -80q-39 -39 -80 -39t-80 39l-80 80q-43 43 -43 113z" />
<glyph unicode="&#x2019;" horiz-adv-x="499" d="M32 1089q72 56 116.5 122.5t44.5 115.5q0 30 -17 47l-80 80q-39 39 -39 80q0 40 39 79l80 80q39 39 80 39t80 -39l80 -80q43 -43 43 -114q0 -28 -7 -60q-16 -74 -91 -167.5t-149 -153.5t-99 -60q-13 0 -81 31z" />
<glyph unicode="&#x201a;" horiz-adv-x="509" d="M41 -285q72 56 117 123t45 116q0 30 -17 47l-80 80q-39 39 -39 79q0 41 39 80l80 80q38 38 79 38t80 -39l80 -79q43 -43 43 -114q0 -32 -6 -60q-12 -57 -60.5 -127.5t-104.5 -124.5t-106.5 -91.5t-68.5 -37.5q-15 0 -81 30z" />
<glyph unicode="&#x201c;" horiz-adv-x="954" d="M38 1253q0 29 7 61q16 74 91 167.5t149 153.5t99 60q14 0 82 -31q-73 -56 -117.5 -122.5t-44.5 -115.5q0 -30 17 -47l2 -2l78 -78q39 -39 39 -80q0 -40 -39 -79l-80 -80q-39 -39 -80 -39q-40 0 -79 39l-81 80q-43 43 -43 113zM483 1254q0 28 7 60q16 74 91 167.5 t149 153.5t99 60q13 0 81 -31q-73 -56 -117.5 -122.5t-44.5 -115.5q0 -29 18 -47l80 -80q39 -39 39 -79q0 -41 -39 -80l-80 -80q-39 -39 -80 -39t-80 39l-80 80q-43 43 -43 114z" />
<glyph unicode="&#x201d;" horiz-adv-x="964" d="M41 1089q72 56 117 122.5t45 115.5q0 30 -17 47l-80 80q-39 39 -39 80q0 40 39 79l80 80q39 39 79 39q41 0 80 -39l80 -80q43 -43 43 -114q0 -32 -6 -60q-12 -57 -60.5 -127.5t-104.5 -124.5t-106.5 -91.5t-68.5 -37.5q-13 0 -81 31zM497 1088q72 56 117 123t45 116 q0 30 -17 47l-2 2l-78 78q-39 39 -39 79q0 41 39 80l80 80q38 38 79 38t80 -39l80 -79q43 -43 43 -114q0 -32 -6 -60q-12 -57 -60.5 -127.5t-104.5 -124.5t-106.5 -91.5t-68.5 -37.5q-15 0 -81 30z" />
<glyph unicode="&#x201e;" horiz-adv-x="987" d="M32 -285q72 56 116.5 123t44.5 116q0 30 -17 47l-80 80q-39 39 -39 79q0 41 39 80l80 80q38 38 80 38q41 0 80 -39l80 -79q43 -43 43 -114q0 -28 -7 -60q-16 -74 -91 -167.5t-149 -153.5t-99 -60q-15 0 -81 30zM478 -285q72 56 117 123t45 116q0 29 -17 46l-80 80 q-39 39 -39 80t39 80l80 80q38 38 79 38t80 -39l80 -79q44 -44 44 -114q0 -29 -7 -61q-12 -57 -60.5 -127.5t-104.5 -124.5t-106.5 -91.5t-68.5 -37.5q-13 0 -81 31z" />
<glyph unicode="&#x2022;" d="M293 585q0 66 62 128l129 128q63 63 129 63t128 -62l129 -129q62 -62 62 -128q0 -67 -62 -129l-129 -129q-62 -61 -128 -61q-65 0 -129 62l-129 129q-62 62 -62 128z" />
<glyph unicode="&#x2026;" horiz-adv-x="1792" d="M165 160q0 40 39 79l80 81q38 38 79 38t80 -39l80 -80q39 -39 39 -79q0 -41 -39 -80l-80 -80q-38 -38 -80 -38q-41 0 -79 38l-80 80q-39 39 -39 80zM703 160q0 41 39 80l80 81q38 38 79 38t80 -39l80 -80q39 -39 39 -80q0 -40 -39 -79l-80 -80q-39 -39 -80 -39 q-40 0 -79 39l-80 80q-39 39 -39 79zM1231 161q0 42 38 80l80 80q38 38 80 38t80 -38l80 -80q39 -39 39 -80t-39 -80l-80 -80q-38 -38 -80 -38t-80 38l-80 80q-38 38 -38 80z" />
<glyph unicode="&#x202f;" horiz-adv-x="418" />
<glyph unicode="&#x2039;" horiz-adv-x="876" d="M180 549q0 -12 10 -22l398 -409q11 -11 22 -11t21 10l55 52q11 10 11 22q0 10 -8 21l-263 337l265 332q8 9 8 21t-11 23l-57 55q-10 10 -22 10q-11 0 -22 -11l-397 -409q-10 -10 -10 -21z" />
<glyph unicode="&#x203a;" horiz-adv-x="876" d="M180 902q0 12 11 23l57 55q10 10 22 10q11 0 22 -11l397 -409q10 -10 10 -21q0 -12 -10 -22l-397 -409q-11 -11 -22 -11q-12 0 -22 10l-54 52q-12 10 -12 22q0 10 8 21l263 337l-265 332q-8 9 -8 21z" />
<glyph unicode="&#x205f;" horiz-adv-x="523" />
<glyph unicode="&#x20ac;" horiz-adv-x="1697" d="M22 487l29 117q6 26 35 26h180q-8 62 -8 122v4h-172q-17 0 -24.5 9t-2.5 25l29 117q7 27 35 27h151q17 96 50 182t93 169t140 142t197.5 95.5t258.5 36.5q105 0 203.5 -25t185.5 -75.5t150 -135t87 -193.5l1 -13q0 -31 -35 -40l-263 -91q-17 -5 -26 -5q-26 0 -23 21l3 31 l2 37q0 46 -8.5 90t-30.5 88t-55.5 76.5t-87 53t-120.5 20.5q-73 0 -134.5 -28t-103.5 -73t-73 -106.5t-48 -125t-24 -131.5h490q16 0 23.5 -9.5t3.5 -25.5l-30 -116q-8 -27 -34 -27h-456q3 -56 13 -126h443q35 0 27 -34l-30 -117q-7 -26 -34 -26h-360q109 -281 383 -281 q87 0 161.5 21t125.5 53t93.5 79t67.5 88.5t48 91.5q12 27 35 27q12 0 26 -8l72 -33q18 -8 24.5 -16.5t-0.5 -25.5q-28 -69 -66.5 -131t-99 -125.5t-132.5 -109t-172.5 -74.5t-214.5 -29q-272 0 -456 127t-259 346h-256q-17 0 -24.5 9t-2.5 25z" />
<glyph unicode="&#x2122;" horiz-adv-x="1718" d="M26.5 1416.5q-3.5 12.5 2.5 23.5l75 137q9 14 27 14q9 0 17 -6l6 -4h483h7l6 6q6 5 16 5q20 0 28 -15l74 -138q4 -5 4 -14q0 -19 -15 -28l-39 -21q-5 -4 -14 -4q-18 0 -28 15l-3 5q-46 78 -153 78h-32v-462q0 -36 10 -53.5t37 -18.5h6q12 0 21.5 -9t9.5 -21v-28 q0 -12 -9.5 -21t-21.5 -9h-286q-12 0 -21.5 9t-9.5 21v28q0 12 9.5 21t21.5 9h4q27 1 37.5 19t10.5 54v463h-29q-107 0 -153 -78l-3 -6q-6 -10 -19 -13.5t-23 2.5l-39 21q-11 6 -14.5 18.5zM750 877v28q0 12 9.5 21.5t21.5 9.5q51 0 53 72v474q-17 8 -42 8q-12 0 -21.5 9 t-9.5 21v28q0 12 9.5 21.5t21.5 9.5h175q19 0 31 -16l224 -453l224 453q12 16 31 16h175q12 0 21 -9.5t9 -21.5v-28q0 -12 -9 -21t-21 -9q-25 0 -42 -8v-474q0 -72 53 -72q12 0 21 -9.5t9 -21.5v-28q0 -12 -9 -21t-21 -9h-230q-12 0 -21.5 9t-9.5 21v28q0 12 9.5 21.5 t21.5 9.5q51 0 51 72v283l-188 -383q-10 -19 -31 -19h-86q-21 0 -31 19l-189 383v-283q0 -72 52 -72q12 0 21 -9.5t9 -21.5v-28q0 -12 -9 -21t-21 -9h-230q-12 0 -21.5 9t-9.5 21z" />
<glyph unicode="&#x25fc;" horiz-adv-x="1024" d="M0 0v1024h1024v-1024h-1024z" />
</font>
</defs>
</svg>
