<?xml version="1.0" standalone="no"?> <!DOCTYPE svg PUBLIC "-//W3C//DTD SVG 1.0//EN" "http://www.w3.org/TR/2001/REC-SVG-20010904/DTD/svg10.dtd" > <svg xmlns="http://www.w3.org/2000/svg" width="100%" height="100%">
<defs >
<font id="apercumono" horiz-adv-x="1269" ><font-face
    font-family="Apercu"
    units-per-em="2048"
    panose-1="2 0 5 6 3 0 0 2 0 4"
    ascent="1944"
    descent="-500"
    alphabetic="0" />
<missing-glyph d="M176 0V1434H1092V0H176ZM920 1278H348V156H920V1278Z" />
<glyph unicode=" " glyph-name="space" />
<glyph unicode="!" glyph-name="exclam" d="M518 1434H752L702 410H567L518 1434ZM492 133Q492 195 533 237T635 279T737 237T778 133Q778 74 737 34T635 -6T533 34T492 133Z" />
<glyph unicode="&quot;" glyph-name="quotedbl" d="M373 946L322 1450H555L504 946H373ZM764 946L713 1450H946L895 946H764Z" />
<glyph unicode="#" glyph-name="numbersign" d="M164 856V1008H397L465 1434H625L557 1008H825L895 1434H1055L985 1008H1186V856H961L915 578H1124V426H891L823 0H664L731 426H463L393 0H233L303 426H102V578H328L373 856H164ZM532 856L487 578H756L801 856H532Z" />
<glyph unicode="$" glyph-name="dollar" d="M1106 1143L948 1063Q854 1280 657 1280Q538 1280 469 1221T399 1057Q399 1029 405 1005T425 961T453 926T494 896T542 871T599 850T661 832T731 813Q785 799 823 788T907 758T984 721T1046 674T1097 614T1127 537T1139
440Q1139 236 1034 122T745 -12V-205H582V-12Q404 8 285 116T129 410L297 475Q382 156 664 156Q799 156 878 222T958 416Q958 448 951 473T932 518T897 554T852 582T791 606T720 627T633 649Q580 662 546 672T463 700T384 738T319 788T265 855T232 941T219 1051Q219
1208 314 1316T582 1446V1638H745V1442Q882 1420 973 1338T1106 1143Z" />
<glyph unicode="%" glyph-name="percent" d="M27 1122Q27 1260 121 1355T354 1450Q494 1450 588 1355T682 1122Q682 985 588 890T354 795T121 890T27 1122ZM176 1202T176 1122T224 990T354 938T483 990T532 1122Q532 1203 484 1255T354 1307Q273 1307 225 1255ZM588
311Q588 449 682 544T915 639Q1055 639 1149 544T1243 311Q1243 174 1149 79T915 -16T682 79T588 311ZM737 391T737 311T785 179T915 127Q997 127 1045 179T1094 311Q1094 392 1046 444T915 496Q834 496 786 444ZM1120 1130L1190 1032L152 309L82 408L1120 1130Z"
/>
<glyph unicode="&amp;" glyph-name="ampersand" d="M543 -16Q347 -16 228 97T109 410Q109 512 151 602T253 750T387 846Q262 1015 262 1145Q262 1278 352 1364T580 1450Q724 1450 811 1365T899 1163Q899 1079 848 989Q791 890 621 803L920 424Q963 515 1016 668L1130
543Q1085 408 1024 291L1253 0H1047L926 152Q779 -16 543 -16ZM543 139Q716 139 827 276L475 729Q385 679 333 598T281 406Q281 282 357 211T543 139ZM580 1303Q510 1303 468 1256T426 1137Q426 1044 526 913Q629 965 683 1020T737 1153Q737 1217 693 1260T580
1303Z" />
<glyph unicode="&apos;" glyph-name="quotesingle" d="M569 946L518 1450H752L700 946H569Z" />
<glyph unicode="(" glyph-name="parenleft" d="M705 1536H877Q768 1364 714 1168T659 717T713 267T877 -102H705Q600 63 542 257T483 717Q483 982 541 1176T705 1536Z" />
<glyph unicode=")" glyph-name="parenright" d="M401 1536H573Q678 1370 736 1176T795 717Q795 451 737 257T573 -102H401Q510 70 564 266T618 717T564 1168T401 1536Z" />
<glyph unicode="*" glyph-name="asterisk" d="M705 1450V1167L973 1255L1016 1122L750 1034L913 807L801 727L635 954L469 727L356 807L520 1034L254 1122L297 1255L565 1167V1450H705Z" />
<glyph unicode="+" glyph-name="plus" d="M559 1104H711V729H1085V578H711V203H559V578H184V729H559V1104Z" />
<glyph unicode="," glyph-name="comma" d="M406 -219L602 225H854L555 -219H406Z" />
<glyph unicode="-" glyph-name="hyphen" d="M279 573V725H993V573H279Z" />
<glyph unicode="." glyph-name="period" d="M471 156Q471 226 517 272T635 319T752 273T799 156Q799 85 753 39T635 -8T518 38T471 156Z" />
<glyph unicode="/" glyph-name="slash" d="M958 1536H1135L303 -102H127L958 1536Z" />
<glyph unicode="0" glyph-name="zero" d="M883 -16T635 -16T249 181T111 717Q111 1055 249 1252T635 1450T1021 1253T1159 717Q1159 378 1021 181ZM291 717Q291 477 367 328L793 1239Q725 1286 635 1286Q472 1286 382 1134T291 717ZM635 147Q798 147 888 299T979
717Q979 957 903 1106L477 195Q547 147 635 147Z" />
<glyph unicode="1" glyph-name="one" d="M715 1434H780V156H1149V0H240V156H608V1176L250 963V1151L715 1434Z" />
<glyph unicode="2" glyph-name="two" d="M244 0V80L809 780Q877 865 901 924T926 1053Q926 1154 872 1217Q814 1286 700 1286Q599 1286 533 1215T449 1026L274 1059Q291 1227 413 1338T700 1450Q900 1450 1012 1325Q1102 1222 1102 1053Q1102 888 987 741L524
164H1128V0H244Z" />
<glyph unicode="3" glyph-name="three" d="M164 393L336 416Q354 286 426 217T621 147Q749 147 828 227T907 451T829 674T621 754Q549 754 494 727L422 823L748 1270H231V1434H1010V1378L645 885Q663 891 702 891Q869 891 976 769T1083 451Q1083 245 954 115T621
-16Q439 -16 311 96T164 393Z" />
<glyph unicode="4" glyph-name="four" d="M750 0V305H127V377L733 1434H926V469H1143V305H926V0H750ZM360 469H750V1163L360 469Z" />
<glyph unicode="5" glyph-name="five" d="M195 375L369 408Q387 282 461 215T645 147Q775 147 855 235T936 467Q936 612 864 699T662 786Q566 786 480 742T340 627L227 651L309 1434H1010V1270H459L406 854Q448 895 525 922T674 950Q879 950 995 820T1112 467Q1112
254 982 119T645 -16Q463 -16 339 85T195 375Z" />
<glyph unicode="6" glyph-name="six" d="M674 918Q870 918 994 788T1118 451Q1118 252 991 118T666 -16T341 118T213 451Q213 593 287 719L711 1450H907L596 903Q629 918 674 918ZM786 754T666 754T470 672T393 451Q393 318 470 233T666 147Q784 147 861 233T938
451Q938 589 862 671Z" />
<glyph unicode="7" glyph-name="seven" d="M500 0H309L913 1270H219V1434H1139V1358L500 0Z" />
<glyph unicode="8" glyph-name="eight" d="M635 1450Q806 1450 918 1340T1030 1067Q1030 976 984 893T866 772Q963 728 1021 635T1079 412Q1079 281 1017 182T855 34T635 -16Q514 -16 414 33T252 182T190 412Q190 541 248 634T403 772Q331 810 286 893T240 1067Q240
1229 351 1339T635 1450ZM635 676Q519 676 445 604T371 412Q371 291 445 219T635 147Q750 147 824 219T899 412Q899 532 825 604T635 676ZM735 1294T635 1294T476 1231T416 1067T475 904T635 840T794 903T854 1067T795 1230Z" />
<glyph unicode="9" glyph-name="nine" d="M612 516Q416 516 292 646T168 983Q168 1182 295 1316T621 1450Q818 1450 945 1316T1073 983Q1073 838 999 715L575 -16H379L690 530Q659 516 612 516ZM501 680T621 680T817 762T893 983Q893 1115 816 1200T621 1286Q502
1286 425 1201T348 983Q348 845 424 763Z" />
<glyph unicode=":" glyph-name="colon" d="M471 156Q471 226 517 272T635 319T752 273T799 156Q799 85 753 39T635 -8T518 38T471 156ZM471 786T471 856T517 973T635 1020T752 973T799 856T753 739T635 692T518 739Z" />
<glyph unicode=";" glyph-name="semicolon" d="M330 -219L526 225H778L479 -219H330ZM471 786T471 856T517 973T635 1020T752 973T799 856T753 739T635 692T518 739Z" />
<glyph unicode="&lt;" glyph-name="less" d="M201 545V725L1038 1126V948L373 635L1038 322V143L201 545Z" />
<glyph unicode="=" glyph-name="equal" d="M227 729V881H1044V729H227ZM227 389V541H1044V389H227Z" />
<glyph unicode="&gt;" glyph-name="greater" d="M1069 725V545L231 143V322L897 635L231 948V1126L1069 725Z" />
<glyph unicode="?" glyph-name="question" d="M506 129Q506 188 545 228T641 268Q700 268 740 228T780 129Q780 72 740 33T641 -6Q584 -6 545 33T506 129ZM915 629Q880 524 809 469T641 414Q517 414 444 482T371 668Q371 835 545 926Q590 949 646 971T733 1010Q784
1037 802 1071T821 1155Q821 1225 778 1262Q727 1305 645 1305Q567 1305 511 1254T430 1116L270 1143Q295 1283 393 1366T645 1450Q802 1450 899 1360Q993 1272 993 1145Q993 978 836 901L629 801Q528 745 528 659Q528 610 556 583T635 555Q733 555 782 676L915
629Z" />
<glyph unicode="@" glyph-name="at" d="M1186 219H1026L1010 309Q929 203 788 203Q623 203 522 323T420 623Q420 807 520 923T788 1040Q861 1040 925 1016T1028 950V993Q1028 1147 936 1235T686 1323Q490 1323 374 1151T258 651V582Q258 283 375 118T717 -47Q834
-47 921 -11T1083 100L1163 -25Q1086 -101 972 -147T717 -193Q417 -193 252 8T86 578V657Q86 1050 243 1260T686 1470Q918 1470 1052 1351T1186 1006V219ZM906 889T805 889T646 816T588 623T646 429T805 354T964 428T1022 623T964 816Z" />
<glyph unicode="A" glyph-name="A" d="M549 1434H721L1231 0H1044L915 383H354L225 0H39L549 1434ZM635 1200L414 555H856L635 1200Z" />
<glyph unicode="B" glyph-name="B" d="M197 1434H700Q892 1434 1000 1337T1108 1065Q1108 974 1062 899T944 784Q1051 741 1115 648T1180 426Q1180 227 1061 114T733 0H197V1434ZM377 678V172H707Q851 172 922 233T993 426Q993 555 922 616T707 678H377ZM696 1262H377V850H696Q800
850 861 901T922 1055Q922 1156 861 1209T696 1262Z" />
<glyph unicode="C" glyph-name="C" d="M1036 471L1206 420Q1157 221 1025 103T692 -16Q594 -16 507 12T344 99T215 244T131 451T100 717T130 983T215 1189T344 1334T506 1421T692 1450Q893 1450 1025 1332T1206 1014L1036 963Q988 1123 906 1200T692 1278Q502
1278 395 1140T287 717T394 295T692 156Q824 156 906 233T1036 471Z" />
<glyph unicode="D" glyph-name="D" d="M160 1434H522Q664 1434 779 1390T980 1258T1112 1033T1159 717T1112 401T980 176T780 45T522 0H160V1434ZM504 1262H340V172H504Q614 172 697 201T841 293T935 462T967 717Q967 1006 848 1134T504 1262Z" />
<glyph unicode="E" glyph-name="E" d="M186 1434H1096V1262H367V850H993V678H367V172H1116V0H186V1434Z" />
<glyph unicode="F" glyph-name="F" d="M186 1434H1081V1262H367V834H981V662H367V0H186V1434Z" />
<glyph unicode="G" glyph-name="G" d="M1040 0L1030 193Q983 89 886 37T670 -16T448 29T264 163T137 394T90 717Q90 862 120 983T205 1189T333 1334T496 1421T682 1450Q886 1450 1016 1332T1196 1014L1026 963Q978 1123 896 1200T682 1278Q492 1278 384 1140T276
717T384 295T682 156Q828 156 909 257T1004 551H682V723H1190V0H1040Z" />
<glyph unicode="H" glyph-name="H" d="M950 1434H1130V0H950V676H319V0H139V1434H319V848H950V1434Z" />
<glyph unicode="I" glyph-name="I" d="M1071 0H199V156H545V1278H199V1434H1071V1278H725V156H1071V0Z" />
<glyph unicode="J" glyph-name="J" d="M856 455V1434H1036V459Q1036 341 1003 250T909 101T770 14T596 -16Q410 -16 293 94T150 373L332 412Q357 292 425 224T596 156Q718 156 787 230T856 455Z" />
<glyph unicode="K" glyph-name="K" d="M1210 0H981L381 719V0H201V1434H381V858L930 1434H1165L547 788L1210 0Z" />
<glyph unicode="L" glyph-name="L" d="M1184 0H272V1434H453V172H1184V0Z" />
<glyph unicode="M" glyph-name="M" d="M137 1434H330L635 639L940 1434H1133V0H952V1051L702 412H567L317 1051V0H137V1434Z" />
<glyph unicode="N" glyph-name="N" d="M942 1434H1122V0H926L326 1106V0H145V1434H342L942 328V1434Z" />
<glyph unicode="O" glyph-name="O" d="M517 1450T635 1450T853 1404T1030 1268T1149 1038T1192 717Q1192 537 1149 396T1030 165T854 30T635 -16T417 30T240 165T121 395T78 717Q78 896 121 1037T240 1268T416 1403ZM804 1278T635 1278T365 1142T264 717T364 292T635
156T905 292T1006 717T905 1142Z" />
<glyph unicode="P" glyph-name="P" d="M745 614H383V0H203V1434H745Q950 1434 1060 1325T1171 1024T1061 724T745 614ZM741 786Q860 786 922 846T985 1024T923 1202T741 1262H383V786H741Z" />
<glyph unicode="Q" glyph-name="Q" d="M517 1450T635 1450T853 1404T1030 1268T1149 1038T1192 717Q1192 429 1085 246L1219 113L1094 -16L971 106Q832 -16 635 -16Q517 -16 417 30T240 165T121 395T78 717Q78 896 121 1037T240 1268T416 1403ZM700 381L825 510L952
381Q1006 518 1006 717Q1006 1006 905 1142T635 1278T365 1142T264 717T364 292T635 156Q762 156 848 229L700 381Z" />
<glyph unicode="R" glyph-name="R" d="M1004 0L584 676H344V0H164V1434H666Q862 1434 974 1338T1087 1055Q1087 900 1010 809T788 688L1217 0H1004ZM670 1262H344V848H670Q901 848 901 1055T670 1262Z" />
<glyph unicode="S" glyph-name="S" d="M1098 1143L940 1063Q847 1278 649 1278Q530 1278 461 1220T391 1057Q391 1025 400 998T422 950T462 912T511 881T574 856T643 834T723 813Q787 796 830 783T925 747T1010 699T1072 636T1116 550T1130 440Q1130 213 1002
99T655 -16Q447 -16 304 94T121 410L289 475Q374 156 655 156Q790 156 870 222T950 416Q950 448 943 473T924 518T889 554T844 582T783 606T712 627T625 649Q572 662 538 672T455 700T376 738T311 788T257 855T224 941T211 1051Q211 1226 327 1338T649 1450Q739
1450 815 1425T946 1355T1037 1257T1098 1143Z" />
<glyph unicode="T" glyph-name="T" d="M98 1262V1434H1171V1262H725V0H545V1262H98Z" />
<glyph unicode="U" glyph-name="U" d="M127 498V1434H307V485Q307 338 393 247T635 156T877 247T963 485V1434H1143V498Q1143 338 1075 220T893 43T635 -16T377 43T195 220T127 498Z" />
<glyph unicode="V" glyph-name="V" d="M1036 1434H1223L721 0H549L47 1434H233L635 256L1036 1434Z" />
<glyph unicode="W" glyph-name="W" d="M1020 1434H1206L1069 0H846L635 842L424 0H201L63 1434H250L336 266L553 1141H717L934 266L1020 1434Z" />
<glyph unicode="X" glyph-name="X" d="M143 1434H350L635 946L920 1434H1126L737 770L1190 0H983L635 594L287 0H80L532 770L143 1434Z" />
<glyph unicode="Y" glyph-name="Y" d="M545 565L84 1434H283L635 745L987 1434H1186L725 565V0H545V565Z" />
<glyph unicode="Z" glyph-name="Z" d="M178 1262V1434H1112V1348L410 172H1135V0H150V86L852 1262H178Z" />
<glyph unicode="[" glyph-name="bracketleft" d="M420 -102V1536H969V1380H584V53H969V-102H420Z" />
<glyph unicode="\" glyph-name="backslash" d="M137 1536H313L1145 -102H969L137 1536Z" />
<glyph unicode="]" glyph-name="bracketright" d="M850 1536V-102H301V53H686V1380H301V1536H850Z" />
<glyph unicode="^" glyph-name="asciicircum" d="M567 1434H702L1085 862H909L635 1278L360 862H184L567 1434Z" />
<glyph unicode="_" glyph-name="underscore" d="M143 -164V0H1126V-164H143Z" />
<glyph unicode="`" glyph-name="grave" d="M688 1442L825 1147H690L440 1442H688Z" />
<glyph unicode="a" glyph-name="a" d="M403 297Q403 224 449 182T573 139Q627 139 681 156T787 208T871 308T903 455V487H678Q547 487 475 437T403 297ZM1075 651V0H936L911 145Q862 74 762 29T547 -16Q410 -16 319 65T227 297Q227 464 351 549T694 635H903V680Q903
792 837 842T666 893Q578 893 513 844T422 717L270 758Q305 892 414 970T666 1049Q857 1049 966 953T1075 651Z" />
<glyph unicode="b" glyph-name="b" d="M1165 757T1165 516T1040 130T692 -16Q592 -16 508 28T377 137V0H205V1450H377V901Q423 964 507 1006T692 1049Q915 1049 1040 903ZM989 348T989 516T905 788T676 893T447 789T362 516T446 243T676 139T905 243Z" />
<glyph unicode="c" glyph-name="c" d="M963 330L1112 268Q1049 124 942 54T676 -16Q561 -16 466 27T310 145T216 314T182 516T215 718T310 888T466 1005T676 1049Q835 1049 942 979T1112 764L963 702Q880 893 676 893Q527 893 443 787T358 516T442 245T676 139Q880
139 963 330Z" />
<glyph unicode="d" glyph-name="d" d="M143 275T143 516T268 903T616 1049Q718 1049 801 1007T932 901V1450H1104V0H932V137Q885 72 801 28T616 -16Q393 -16 268 129ZM319 685T319 516T403 243T633 139T862 243T946 516T862 788T633 893T404 789Z" />
<glyph unicode="e" glyph-name="e" d="M1139 551V479H332Q340 325 426 232T649 139Q870 139 981 344L1118 272Q1038 117 921 51T649 -16Q502 -16 389 54T216 245T156 516Q156 625 190 722T286 891T442 1006T649 1049Q766 1049 860 1010T1014 902T1107 743T1139
551ZM649 893Q527 893 449 824T344 635H956Q933 759 854 826T649 893Z" />
<glyph unicode="f" glyph-name="f" d="M1018 1391L975 1239Q889 1294 809 1294Q657 1294 657 1100V1032H1059V877H657V0H485V877H195V1032H485V1096Q485 1450 803 1450Q919 1450 1018 1391Z" />
<glyph unicode="g" glyph-name="g" d="M291 702Q291 859 394 954T655 1049Q765 1049 858 995L1073 1106L1151 965L977 874Q1020 801 1020 702Q1020 544 918 450T655 356Q549 356 465 399Q371 364 371 293Q371 207 516 207H784Q951 207 1040 134T1130 -78Q1130
-153 1102 -214T1028 -316T919 -383T788 -422T647 -434Q422 -434 296 -347T170 -94Q170 -25 199 32T276 127Q203 184 203 285Q203 354 243 410T354 492Q291 577 291 702ZM780 59H537Q472 59 430 68Q342 22 342 -88Q342 -178 425 -230T647 -283Q793 -283 873 -233T954
-94Q954 -12 910 23T780 59ZM459 795T459 702T515 557T655 504Q740 504 796 556T852 702T796 848T655 901Q572 901 516 848Z" />
<glyph unicode="h" glyph-name="h" d="M1083 713V0H911V676Q911 893 721 893Q591 893 492 768T393 432V0H221V1450H393V842Q455 931 554 990T768 1049Q929 1049 1006 961T1083 713Z" />
<glyph unicode="i" glyph-name="i" d="M264 881V1032H752V152H1133V0H223V152H580V881H264ZM512 1307Q512 1366 553 1408T653 1450Q713 1450 754 1409T795 1307Q795 1248 754 1208T653 1167Q594 1167 553 1208T512 1307Z" />
<glyph unicode="j" glyph-name="j" d="M494 -434L436 -270Q583 -221 648 -135T713 102V881H307V1032H885V57Q885 -30 863 -105T803 -233T714 -327T608 -394T494 -434ZM645 1307Q645 1366 686 1408T786 1450Q846 1450 887 1409T928 1307Q928 1248 887 1208T786
1167Q728 1167 687 1208T645 1307Z" />
<glyph unicode="k" glyph-name="k" d="M227 1450H399V600L840 1032H1065L584 559L1112 0H887L399 518V0H227V1450Z" />
<glyph unicode="l" glyph-name="l" d="M412 1278H127V1434H584V389Q584 139 801 139Q897 139 959 200T1040 389L1196 358Q1169 174 1066 79T801 -16Q620 -16 516 90T412 389V1278Z" />
<glyph unicode="m" glyph-name="m" d="M1204 770V0H1032V733Q1032 817 1006 854T920 891Q840 891 789 791T737 485V0H565V733Q565 817 539 854T453 891Q373 891 322 791T270 485V0H98V1032H270V901Q363 1049 512 1049Q677 1049 725 881Q766 957 833 1003T979 1049Q1080
1049 1142 980T1204 770Z" />
<glyph unicode="n" glyph-name="n" d="M1069 719V0H897V682Q897 893 707 893Q580 893 492 764T403 416V0H231V1032H403V842Q461 935 554 992T754 1049Q911 1049 990 961T1069 719Z" />
<glyph unicode="o" glyph-name="o" d="M127 516Q127 623 162 719T262 889T423 1006T635 1049T847 1006T1008 890T1107 720T1143 516T1108 313T1008 143T847 27T635 -16Q482 -16 365 58T187 252T127 516ZM303 673T303 516T393 249T635 139T877 249T967 516T877
783T635 893T393 783Z" />
<glyph unicode="p" glyph-name="p" d="M1174 757T1174 516T1049 130T700 -16Q598 -16 515 26T385 131V-418H213V1032H385V895Q431 960 515 1004T700 1049Q924 1049 1049 903ZM997 347T997 516T913 789T684 893T455 789T371 516T455 243T684 139T913 243Z" />
<glyph unicode="q" glyph-name="q" d="M117 275T117 516T242 903T590 1049Q690 1049 774 1005T905 895V1032H1077V-418H905V131Q859 68 776 26T590 -16Q367 -16 242 129ZM293 684T293 516T377 244T606 139T835 243T920 516T836 789T606 893T377 789Z" />
<glyph unicode="r" glyph-name="r" d="M1145 705H973Q949 893 774 893Q705 893 643 860T532 765T453 602T424 373V0H252V1032H424V842Q486 939 583 994T805 1049Q959 1049 1047 960T1145 705Z" />
<glyph unicode="s" glyph-name="s" d="M631 1049Q766 1049 856 993T1008 825L872 729Q825 815 767 854T625 893Q551 893 499 860T446 756Q446 693 504 657T686 596Q752 583 799 570T899 534T983 483T1036 412T1057 315Q1057 212 1002 136T857 22T659 -16Q500 -16
379 61T211 283L375 344Q409 247 482 193T659 139Q753 139 816 180T879 299Q879 325 866 345T833 380T776 408T704 430T612 451Q553 463 510 476T420 513T345 567T298 644T279 750Q279 884 381 966T631 1049Z" />
<glyph unicode="t" glyph-name="t" d="M135 877V1032H410V1341L582 1450V1032H1085V877H582V348Q582 139 760 139Q830 139 889 166T1014 262L1077 117Q1007 47 932 16T760 -16Q589 -16 500 74T410 342V877H135Z" />
<glyph unicode="u" glyph-name="u" d="M211 313V1032H383V350Q383 139 573 139Q700 139 788 268T877 616V1032H1049V0H877V190Q819 98 726 41T526 -16Q369 -16 290 71T211 313Z" />
<glyph unicode="v" glyph-name="v" d="M967 1032H1153L721 0H549L117 1032H303L635 205L967 1032Z" />
<glyph unicode="w" glyph-name="w" d="M1038 1032H1214L989 0H834L635 725L436 0H281L55 1032H231L373 268L549 930H721L897 268L1038 1032Z" />
<glyph unicode="x" glyph-name="x" d="M862 1032H1065L729 547L1104 0H909L635 406L360 0H166L541 547L205 1032H408L635 690L862 1032Z" />
<glyph unicode="y" glyph-name="y" d="M991 1032H1178L565 -418H393L594 70L147 1032H340L686 276L991 1032Z" />
<glyph unicode="z" glyph-name="z" d="M252 877V1032H1026V958L479 156H1051V0H225V74L766 877H252Z" />
<glyph unicode="{" glyph-name="braceleft" d="M543 102V455Q543 556 491 597T338 639V795Q438 795 490 836T543 979V1331Q543 1423 599 1479T748 1536H1030V1380H799Q750 1380 729 1359T707 1288V918Q707 821 670 778T563 717Q633 699 670 656T707 516V145Q707
96 728 75T799 53H1030V-102H748Q656 -102 600 -46T543 102Z" />
<glyph unicode="|" glyph-name="bar" d="M553 1536H717V-102H553V1536Z" />
<glyph unicode="}" glyph-name="braceright" d="M727 455V102Q727 10 671 -46T522 -102H240V53H471Q520 53 541 74T563 145V516Q563 612 600 655T707 717Q637 734 600 777T563 918V1288Q563 1338 542 1359T471 1380H240V1536H522Q614 1536 670 1480T727 1331V979Q727
878 779 837T932 795V639Q832 639 780 598T727 455Z" />
<glyph unicode="~" glyph-name="asciitilde" d="M256 549L156 653Q201 737 271 785T426 834Q484 834 540 818T634 783T723 747T823 731Q877 731 928 755T1014 823L1114 719Q1069 635 998 587T844 539Q771 539 703 564T571 615T446 641Q393 641 342 617T256 549Z" />
</font>
</defs>
</svg>
