<?xml version="1.0" standalone="no"?>
<!DOCTYPE svg PUBLIC "-//W3C//DTD SVG 1.1//EN" "http://www.w3.org/Graphics/SVG/1.1/DTD/svg11.dtd" >
<svg>
<metadata>
Created by FontForge 20120731 at Mon Jun  2 05:53:08 2014
 By World Wide Web Server
Copyright (c) 1981, 1982, 1983, 1989 and 1993, Linotype Library GmbH or its affiliated Linotype-Hell companies. All rights reserved.The digitally encoded machine readable software for producing the Typefaces licensed to you is now the property of Heidelberger Druckmaschinen AG and its licensors, and may not be reproduced, used, displayed, modified, disclosed or transferred without the express written approval of Heidelberger Druckmaschinen AG.Copyright (c) 1988, 1990, 1993 Adobe Systems Incorporated. All Rights Reserved.
</metadata>
<defs>
<font id="Didot-Bold" horiz-adv-x="556" >
  <font-face 
    font-family="Didot"
    font-weight="700"
    font-stretch="normal"
    units-per-em="1000"
    panose-1="2 0 5 3 0 0 0 2 0 3"
    ascent="800"
    descent="-200"
    x-height="429"
    cap-height="712"
    bbox="-780 -294 1409 981"
    underline-thickness="50"
    underline-position="-75"
    unicode-range="U+0008-FB02"
  />
    <missing-glyph />
    <glyph glyph-name="fi" unicode="fi" horiz-adv-x="630" 
d="M45 14v-14h249v14h-61v401h173v-401h-61v-14h250v14h-67v415h-295v129q0 16 2 42.5t13 51.5t35 43.5t69 18.5q9 0 19.5 -1.5t19 -5t14.5 -10.5t6 -18q0 -15 -5.5 -30t-5.5 -38q0 -26 20 -35t42 -9q26 0 43 14.5t17 40.5q0 31 -18 51.5t-44.5 32.5t-57 17t-54.5 5
q-25 0 -52 -4.5t-53 -15.5t-50 -29.5t-42 -46.5q-14 -22 -22 -43.5t-12 -45.5t-5 -52t-1 -62h-66v-14h66v-401h-66z" />
    <glyph glyph-name="fl" unicode="fl" horiz-adv-x="611" 
d="M105 429q0 49 0.5 82t3.5 57t10 42.5t20 38.5q19 29 44.5 43t49.5 19t45 5.5t36 0.5q103 -5 126 -5h74v-698h66v-14h-244v14h56v684q-39 4 -58.5 4.5t-28.5 0.5q-28 -1 -44 -8t-23.5 -27t-9 -45t-1.5 -49v-145h72v-14h-72v-401h55v-14h-244v14h67v401h-67v14h67z" />
    <glyph glyph-name="NULL" horiz-adv-x="0" 
 />
    <glyph glyph-name="NULL" horiz-adv-x="0" 
 />
    <glyph glyph-name="space" horiz-adv-x="278" 
 />
    <glyph glyph-name="space" unicode=" " horiz-adv-x="278" 
 />
    <glyph glyph-name="space" horiz-adv-x="278" 
 />
    <glyph glyph-name="exclam" unicode="!" horiz-adv-x="296" 
d="M77 61q0 -29 21 -49.5t50 -20.5t50 20.5t21 49.5t-21 50t-50 21t-50 -21t-21 -50zM90 598l48 -397h20l48 397q3 25 5 40t2 22q0 30 -18 49t-47 19t-47 -19t-18 -49q0 -7 2 -22t5 -40z" />
    <glyph glyph-name="quotedbl" unicode="&#x22;" horiz-adv-x="370" 
d="M224 637l26 -213h18l26 213q4 20 4 42q0 29 -12.5 39t-26.5 10t-26.5 -10t-12.5 -39q0 -22 4 -42zM76 637l26 -213h18l26 213q4 20 4 42q0 29 -12.5 39t-26.5 10t-26.5 -10t-12.5 -39q0 -22 4 -42z" />
    <glyph glyph-name="numbersign" unicode="#" 
d="M157 255l72 198h169l-72 -198h-169zM64 0l86 237h169l-86 -237h21l86 237h133l7 18h-133l72 198h133l7 18h-133l87 241h-21l-87 -241h-169l87 241h-21l-87 -241h-133l-7 -18h133l-72 -198h-133l-6 -18h132l-86 -237h21z" />
    <glyph glyph-name="dollar" unicode="$" horiz-adv-x="630" 
d="M296 787v-59q-50 -3 -91.5 -21t-71.5 -46.5t-46.5 -64.5t-16.5 -74q0 -54 20 -90t52 -60t72.5 -39t81.5 -27v-306q-14 0 -30.5 1t-35 7t-38.5 18t-41 33q-21 20 -35.5 43.5t-24 46t-14.5 42t-7 31.5h-14v-222h15q5 14 11 18.5t20 4.5q10 0 30 -6t46.5 -12.5t57 -12.5
t60.5 -6v-70h17v70q59 3 107 23.5t82 53t53 75t19 90.5q0 58 -24 95.5t-61.5 62t-84 40t-91.5 29.5v259q48 -1 79.5 -18.5t52.5 -44.5t34 -61t25 -68h14v190h-17q-5 -12 -9.5 -16.5t-18.5 -4.5q-12 0 -26.5 6t-33 12.5t-43 12.5t-57.5 6v59h-17zM296 714v-255
q-32 9 -59.5 20t-48 26.5t-32 36t-11.5 47.5q0 21 10 42.5t29 39t47.5 29.5t64.5 14zM313 0v302q35 -10 65.5 -21.5t53.5 -28.5t36.5 -40.5t13.5 -57.5q0 -18 -7.5 -44.5t-26.5 -51t-52 -41.5t-83 -17z" />
    <glyph glyph-name="percent" unicode="%" horiz-adv-x="778" 
d="M217 406q32 0 63 12t55 33.5t39 51t15 64.5t-15 64.5t-39 51t-55 33.5t-63 12t-63 -12t-55 -33.5t-39 -51t-15 -64.5t15 -64.5t39 -51t55 -33.5t63 -12zM561 -13q32 0 63 12t55 33t39 50.5t15 64.5t-15 64.5t-39 51t-55 33.5t-63 12t-63 -12t-55 -33.5t-39 -51t-15 -64.5
t15 -64.5t39 -50.5t55 -33t63 -12zM217 420q-28 0 -43.5 11t-23 30.5t-8.5 46.5t-1 59t1 59t8.5 46.5t23 30.5t43.5 11q29 0 44 -11t22.5 -30.5t8.5 -46.5t1 -59t-1 -59t-8.5 -46.5t-22.5 -30.5t-44 -11zM567 728l-376 -732l20 -9l376 732zM561 0q-28 0 -43.5 11t-23 30.5
t-8.5 46.5t-1 59t1 59t8.5 46.5t23 30.5t43.5 11q29 0 44 -11t22.5 -30.5t8.5 -46.5t1 -59t-1 -59t-8.5 -46.5t-22.5 -30.5t-44 -11z" />
    <glyph glyph-name="ampersand" unicode="&#x26;" horiz-adv-x="796" 
d="M465 624q0 -25 -8.5 -44t-21 -33.5t-26.5 -24.5t-24 -17q-9 15 -18.5 33.5t-17 37t-12 36t-4.5 32.5q0 26 9 40.5t20.5 21t22 7.5t13.5 1q18 0 30.5 -8t20.5 -21t12 -29t4 -32zM294 392l150 -291q5 -11 10.5 -20.5t15.5 -23.5q-25 -20 -46.5 -32.5t-48.5 -12.5
q-24 0 -47.5 17t-44 43.5t-38 59.5t-30 66t-19.5 62.5t-7 47.5q0 24 5 41.5t15.5 32t26 27.5t36.5 29q3 -5 9 -18.5t13 -27.5zM559 164l-168 329q54 36 70.5 69.5t16.5 63.5q0 28 -7.5 47.5t-20.5 31.5t-30 17.5t-36 5.5q-28 0 -55 -13.5t-48 -36t-33.5 -51t-12.5 -59.5
q0 -26 8 -51.5t24 -67.5q-32 -20 -66 -43.5t-62.5 -53t-47 -66t-18.5 -82.5q0 -26 9.5 -63t36 -71.5t73.5 -59t123 -24.5q32 0 56 5t42.5 13t33 18.5t29.5 22.5q18 -24 42 -41.5t68 -17.5q48 0 74.5 18.5t39 41.5t14.5 43.5t2 24.5q0 5 -1 9.5t-2 6.5h-14q2 -5 2.5 -9
t0.5 -9q0 -4 -1.5 -16t-7 -25t-14.5 -23t-24 -10q-18 0 -28 11t-14 18l-46 81q15 23 24.5 51.5t15 58t8 57t3.5 47.5q2 43 6.5 66.5t14 36t24.5 17t38 8.5v14h-202v-14q26 0 45.5 -5t32.5 -19t19.5 -39.5t6.5 -67.5q0 -76 -15 -125.5t-29 -69.5z" />
    <glyph glyph-name="quotesingle" unicode="'" horiz-adv-x="278" 
d="M104 637l26 -213h18l26 213q4 20 4 42q0 29 -12.5 39t-26.5 10t-26.5 -10t-12.5 -39q0 -22 4 -42z" />
    <glyph glyph-name="parenleft" unicode="(" horiz-adv-x="259" 
d="M227 -285l16 10q-83 121 -117.5 242t-34.5 249t34.5 249.5t117.5 242.5l-16 10q-7 -9 -32 -47.5t-52.5 -103.5t-49.5 -153.5t-22 -197.5q0 -108 22 -197t49.5 -153.5t52.5 -103t32 -47.5z" />
    <glyph glyph-name="parenright" unicode=")" horiz-adv-x="259" 
d="M16 -275l16 -10q7 9 32 47.5t52.5 103t49.5 153.5t22 197q0 109 -22 197.5t-49.5 153.5t-52.5 103.5t-32 47.5l-16 -10q83 -121 117.5 -242.5t34.5 -249.5t-34.5 -249t-117.5 -242z" />
    <glyph glyph-name="asterisk" unicode="*" horiz-adv-x="482" 
d="M48 595q0 -20 13 -35.5t47 -19.5q24 -2 61 -8.5t67 -18.5q-25 -7 -48.5 -12.5t-55.5 -8.5q-16 -2 -31 -4.5t-27 -8t-19.5 -16.5t-7.5 -29q0 -21 15.5 -37t39.5 -16q9 0 16.5 2.5t15.5 9.5t17.5 19t22.5 31q11 15 26 30.5t38 37.5q-1 -11 -2 -18.5t-3.5 -16.5t-7.5 -21
t-14 -33q-8 -19 -12.5 -30.5t-7 -19t-3 -12t-0.5 -9.5q0 -20 16 -34.5t37 -14.5t37 14.5t16 34.5q0 5 -0.5 9.5t-3 12t-7 19t-12.5 30.5q-9 21 -14 33t-8 21t-4 16.5t-2 18.5q23 -22 38 -37.5t26 -30.5q13 -19 22.5 -31t17.5 -19t15.5 -9.5t16.5 -2.5q24 0 39.5 16t15.5 37
q0 18 -7.5 29t-19.5 16.5t-27 8t-31 4.5q-32 3 -55.5 8.5t-48.5 12.5v2q30 10 67.5 16.5t61.5 8.5q34 4 47 19.5t13 35.5q0 24 -17 39t-34 15q-22 0 -35.5 -11.5t-27 -29.5t-30.5 -41.5t-47 -47.5q1 11 2 18.5t4 16.5t8 21t14 33q8 19 12.5 30.5t7 19t3 12t0.5 9.5
q0 20 -16 34.5t-37 14.5t-37 -14.5t-16 -34.5q0 -5 0.5 -9.5t3 -12t7 -19t12.5 -30.5q9 -21 14 -33.5t7.5 -21t3.5 -16t3 -18.5q-30 24 -47 47.5t-30.5 41.5t-26.5 29.5t-36 11.5q-17 0 -34 -15t-17 -39z" />
    <glyph glyph-name="plus" unicode="+" horiz-adv-x="593" 
d="M286 231v-231h20v231h230v18h-230v231h-20v-231h-230v-18h230z" />
    <glyph glyph-name="comma" unicode="," horiz-adv-x="278" 
d="M74 -167l7 -13q21 13 46 30.5t46.5 41t35.5 53.5t14 68q0 57 -27 88t-65 31q-13 0 -26.5 -4t-24.5 -12.5t-18 -22t-7 -32.5t7 -32.5t17 -21.5t22.5 -12t22.5 -4q11 0 22 2t20 7q5 -4 10 -14t5 -26q0 -36 -29 -64.5t-78 -62.5z" />
    <glyph glyph-name="hyphen" unicode="-" horiz-adv-x="370" 
d="M91 264v-98h188v98h-188z" />
    <glyph glyph-name="period" unicode="." horiz-adv-x="278" 
d="M68 61q0 -29 21 -49.5t50 -20.5t50 20.5t21 49.5t-21 50t-50 21t-50 -21t-21 -50z" />
    <glyph glyph-name="slash" unicode="/" horiz-adv-x="296" 
d="M273 718l-270 -718l20 -5l270 717z" />
    <glyph glyph-name="zero" unicode="0" 
d="M169 357q0 95 2.5 162.5t13.5 110.5t32.5 63.5t60.5 20.5t60.5 -18.5t32.5 -61t13.5 -110.5t2.5 -167q0 -94 -2.5 -162t-13.5 -111t-32.5 -63.5t-60.5 -20.5t-60.5 20.5t-32.5 63.5t-13.5 111t-2.5 162zM34 357q0 -19 1 -54t8 -76t21.5 -83.5t41.5 -77.5t69 -57t103 -22
q55 0 94.5 20.5t66.5 54t43.5 74.5t25 82.5t11.5 78t3 60.5q0 19 -1 53.5t-8 76t-21.5 84.5t-41.5 77.5t-69 57t-103 22.5q-55 0 -94.5 -21t-66.5 -54t-43.5 -74.5t-25 -83t-11.5 -78t-3 -60.5z" />
    <glyph glyph-name="one" unicode="1" 
d="M450 0v14h-92v714h-40q-30 -28 -55 -47.5t-49.5 -35.5t-52.5 -32t-64 -37l8 -13q32 18 65 37t66 37v-623h-94v-14h308z" />
    <glyph glyph-name="two" unicode="2" 
d="M369 104h-220l148 146l72 74q33 34 53.5 65t32 58t16 49t4.5 38q0 37 -11.5 72t-37 62t-65.5 43.5t-96 16.5t-95.5 -15.5t-64 -37.5t-36 -46.5t-11.5 -41.5q0 -19 7 -29.5t16.5 -15t20 -5.5t17.5 -1q23 0 40 9.5t17 34.5q0 3 -1 11t-2 17t-2 17t-1 11q0 25 7.5 40
t19.5 23.5t26.5 11.5t28.5 3q29 0 46.5 -13.5t26.5 -38t12 -58t3 -74.5q0 -83 -15 -142t-50 -113t-93.5 -113.5t-145.5 -142.5l-6 -5v-14h456v205h-14q-2 -38 -15.5 -58.5t-31 -30t-33.5 -11t-23 -1.5z" />
    <glyph glyph-name="three" unicode="3" 
d="M36 147l-16 -5q10 -44 29.5 -73.5t46.5 -47.5t60.5 -26t70.5 -8q71 0 122 21t84 53t49 71.5t16 75.5q0 49 -20 83.5t-53 58t-76 37.5t-89 22v2q44 11 83.5 24t69 32.5t47 47t17.5 66.5q0 19 -8.5 44t-31.5 48t-64 39t-106 16q-90 0 -143 -34.5t-53 -94.5q0 -28 18 -38
t37 -10q9 0 20 0.5t20.5 5t16 14t6.5 27.5q0 3 -1 11.5t-2.5 18.5t-3 18.5t-1.5 12.5q0 30 21 42.5t49 12.5q36 0 55.5 -14.5t28.5 -35t10.5 -41.5t1.5 -35q0 -56 -13 -88.5t-31 -50t-37 -23.5t-31 -9q-36 -7 -66.5 -15.5t-63.5 -29.5l8 -14q29 18 58 29t62 11
q49 0 75.5 -17.5t38.5 -44.5t14 -58.5t2 -59.5q0 -43 -5 -82.5t-21 -69.5t-45.5 -48t-78.5 -18q-46 0 -78 16t-53 38.5t-32 48t-14 44.5z" />
    <glyph glyph-name="four" unicode="4" 
d="M314 429v-256h-264q21 48 51.5 99t65 100.5t70.5 95t69.5 84t61.5 67t46 43.5q9 8 15 15.5t6 18.5t-5.5 17t-14 9.5t-18.5 4.5t-19 1q-15 0 -28 -2t-28 -12t-33 -32t-42 -62q-31 -52 -64.5 -118.5t-64 -132.5t-54 -122.5t-33.5 -87.5h283v-145h-88v-14h299v14h-89v145h89
v14h-89v256h-122z" />
    <glyph glyph-name="five" unicode="5" 
d="M145 721l-67 -413h13q7 15 17.5 35.5t26.5 38.5t39 31t56 13q25 0 46.5 -6.5t38 -27.5t26 -60.5t9.5 -105.5q0 -84 -12.5 -130t-31 -67t-41 -25t-42.5 -4q-8 0 -18.5 2.5t-19.5 9.5t-15.5 19t-6.5 31q0 3 1 9.5t1.5 14t1.5 14t1 9.5q0 17 -11.5 30.5t-49.5 13.5
q-5 0 -15 -1t-20.5 -6.5t-18 -16.5t-7.5 -32q0 -22 13.5 -42t38 -35t58 -24t72.5 -9q62 0 109.5 23t80.5 59t50 80t17 85q0 47 -18.5 85.5t-50 66t-73 42.5t-88.5 15q-33 0 -56 -5.5t-40 -15t-29 -22t-24 -27.5l-2 2l36 219q15 -6 34 -13.5t39.5 -14.5t41 -11.5t37.5 -4.5
q29 0 50.5 7.5t42.5 26.5t44.5 50t56.5 78l-13 6q-18 -26 -37.5 -40t-37 -21t-32 -8t-21.5 -1q-31 0 -58.5 8.5t-50 20.5t-38.5 24.5t-23 19.5h-30z" />
    <glyph glyph-name="six" unicode="6" 
d="M389 231q0 -80 -8.5 -126t-23 -69.5t-34 -29.5t-42.5 -6q-18 0 -38.5 5.5t-38 30t-29 76t-11.5 142.5q0 30 1.5 50t5 33.5t8.5 22.5t12 18q23 30 50.5 38t47.5 8q55 0 77.5 -48.5t22.5 -144.5zM32 300q0 -75 19.5 -133.5t53.5 -98.5t80.5 -60.5t99.5 -20.5q45 0 88 17.5
t76.5 48.5t54 72t20.5 88t-18.5 88t-50 71.5t-72.5 48t-87 17.5q-30 0 -51.5 -6.5t-36.5 -16.5t-24.5 -21.5t-16.5 -20.5l-2 2q3 30 7.5 66.5t13 74t21 73.5t31.5 63.5t45.5 44.5t62.5 17q17 0 26.5 -5.5t14 -12.5t6 -14t1.5 -10q0 -14 -8.5 -32.5t-8.5 -36.5q0 -20 12 -32
t47 -12q60 0 60 59q0 29 -12.5 49.5t-33 34t-46.5 20t-53 6.5q-68 0 -126.5 -35t-101 -94t-67 -136.5t-24.5 -162.5z" />
    <glyph glyph-name="seven" unicode="7" 
d="M73 712v-198h14q1 11 5 24.5t11.5 25t20 19t30.5 7.5h311q-7 -38 -25 -92.5t-47 -115t-70.5 -121.5t-96.5 -112l-87 -81q-9 -9 -14.5 -18.5t-5.5 -23.5q0 -23 21 -31t45 -8q28 0 51.5 17.5t47 54.5t49.5 96t59 141q25 62 44.5 123.5t32.5 117t19.5 101t6.5 74.5h-422z
" />
    <glyph glyph-name="eight" unicode="8" 
d="M163 593q0 25 8.5 47t23.5 38.5t36.5 26t46.5 9.5q35 0 54.5 -16.5t28.5 -39t11 -45.5t2 -37q0 -43 -4 -69.5t-10.5 -42t-14 -23.5t-14.5 -14q-38 17 -69 32.5t-53 34t-34 42.5t-12 57zM213 351l85 -45q26 -14 46 -28t33.5 -32t20.5 -41t7 -55q0 -22 -6.5 -48.5t-22 -49
t-42.5 -37.5t-68 -15q-25 0 -47 8.5t-37.5 29t-24.5 54t-9 83.5q0 21 1.5 46t8 49t19.5 45.5t36 35.5zM39 171q0 -40 18.5 -74t49.5 -58.5t72 -38t87 -13.5q55 0 100 21.5t76.5 55t49 74.5t17.5 80q0 70 -42 117.5t-123 84.5q69 32 101.5 70t32.5 87q0 32 -15 59.5t-40.5 48
t-59.5 32t-73 11.5q-47 0 -87.5 -14t-70.5 -39t-47 -60.5t-17 -77.5q0 -39 10.5 -66t28 -47.5t41 -35.5t50.5 -30q-33 -16 -61.5 -32.5t-50.5 -38t-34.5 -49.5t-12.5 -67z" />
    <glyph glyph-name="nine" unicode="9" 
d="M159 483q0 76 9 121.5t24 70t34.5 32t40.5 7.5q18 0 38 -5.5t37 -30t28 -75.5t11 -143q0 -25 -1.5 -47.5t-3.5 -31.5q-9 -43 -40.5 -67t-76.5 -24q-51 0 -75.5 44.5t-24.5 148.5zM24 501q0 -47 18.5 -88t50 -71.5t72.5 -48t87 -17.5q30 0 51.5 6.5t36 16.5t23.5 21.5
t15 20.5h2q0 -73 -6 -135.5t-23 -108t-46 -71.5t-76 -26q-9 0 -20 0.5t-20.5 5t-15.5 13.5t-6 26q0 6 2 15t4 19t4 19.5t2 15.5q0 14 -5 22t-13 12.5t-17 5.5t-17 1q-31 0 -48.5 -15t-17.5 -47q0 -14 6.5 -32.5t24.5 -35t50.5 -27.5t83.5 -11q77 0 131.5 34t90 92t52 135.5
t16.5 165.5q0 75 -19.5 133.5t-53.5 98.5t-80.5 61t-99.5 21q-45 0 -88 -18t-76.5 -49t-54 -72t-20.5 -88z" />
    <glyph glyph-name="colon" unicode=":" horiz-adv-x="278" 
d="M68 61q0 -29 21 -49.5t50 -20.5t50 20.5t21 49.5t-21 50t-50 21t-50 -21t-21 -50zM68 372q0 -29 21 -50t50 -21t50 21t21 50t-21 50t-50 21t-50 -21t-21 -50z" />
    <glyph glyph-name="semicolon" unicode=";" horiz-adv-x="278" 
d="M68 372q0 -29 21 -50t50 -21t50 21t21 50t-21 50t-50 21t-50 -21t-21 -50zM74 -167l7 -13q21 13 46 30.5t46.5 41t35.5 53.5t14 68q0 57 -27 88t-65 31q-13 0 -26.5 -4t-24.5 -12.5t-18 -22t-7 -32.5t7 -32.5t17 -21.5t22.5 -12t22.5 -4q11 0 22 2t20 7q5 -4 10 -14
t5 -26q0 -36 -29 -64.5t-78 -62.5z" />
    <glyph glyph-name="less" unicode="&#x3c;" horiz-adv-x="593" 
d="M580 0v20l-535 220l535 220v20l-568 -236v-8z" />
    <glyph glyph-name="equal" unicode="=" horiz-adv-x="593" 
d="M56 163v-18h480v18h-480zM56 335v-18h480v18h-480z" />
    <glyph glyph-name="greater" unicode="&#x3e;" horiz-adv-x="593" 
d="M12 480v-20l536 -220l-536 -220v-20l568 236v8z" />
    <glyph glyph-name="question" unicode="?" horiz-adv-x="444" 
d="M60 61q0 -29 21 -49.5t50 -20.5t50 20.5t21 49.5t-21 50t-50 21t-50 -21t-21 -50zM123 427v-235h17v205h2q8 -11 26.5 -22.5t53.5 -11.5q20 0 48.5 10t55.5 31.5t46 56.5t19 85q0 37 -11.5 70t-34 58t-56.5 39.5t-78 14.5q-25 0 -50.5 -6.5t-46.5 -19.5t-34 -33.5
t-13 -48.5q0 -26 17 -36.5t37 -10.5q29 0 42 9.5t13 35.5q0 11 -3.5 18t-7 13l-7 12t-3.5 15q0 14 12.5 26t39.5 12q18 0 30 -7.5t19 -25.5t10 -47.5t3 -73.5q0 -88 -13 -134t-52 -46q-22 0 -37 14.5t-27 32.5h-17z" />
    <glyph glyph-name="at" unicode="@" horiz-adv-x="833" 
d="M534 444q0 -15 -4.5 -37.5t-11.5 -46.5t-14.5 -46.5t-13.5 -36.5q-8 -19 -17 -36t-20.5 -30t-26.5 -20.5t-35 -7.5q-25 0 -38.5 12t-20 27.5t-7.5 31.5t-1 23q0 42 11.5 84t31 76t46.5 55.5t57 21.5q10 0 21 -3t20.5 -11t16 -21.5t6.5 -34.5zM655 528h-85l-18 -63
q-2 8 -6.5 20.5t-14.5 24.5t-27.5 20.5t-46.5 8.5q-39 0 -78.5 -19.5t-71.5 -52.5t-52 -77t-20 -94q0 -42 15.5 -69t37 -42.5t45.5 -21.5t41 -6q30 0 51 9.5t36 23.5t24.5 29.5t15.5 26.5q1 -9 3.5 -24t11.5 -29.5t26 -25t47 -10.5q38 0 74 23.5t64.5 62t45.5 88.5t17 103
q0 62 -23.5 115.5t-67 93.5t-104.5 62.5t-136 22.5q-85 0 -161 -30.5t-132.5 -83.5t-89.5 -124t-33 -152q0 -79 30.5 -144t83 -111t123 -71t149.5 -25t152 24.5t136 72.5l-13 17q-66 -51 -136 -73t-133 -22q-78 0 -143 25.5t-111.5 70t-72.5 104.5t-26 130t27.5 136.5
t77.5 119t120 84.5t155 32q73 0 130 -22.5t96.5 -60.5t60 -88t20.5 -105q0 -46 -14 -88.5t-35.5 -75t-47.5 -51.5t-50 -19q-22 0 -33 12t-11 32q0 13 3 27.5t6 25.5z" />
    <glyph glyph-name="A" unicode="A" horiz-adv-x="759" 
d="M303 569l118 -273h-230zM-25 14v-14h189v14h-89l111 268h240l116 -268h-93v-14h336v14h-86l-315 726h-27l-298 -726h-84z" />
    <glyph glyph-name="B" unicode="B" horiz-adv-x="685" 
d="M272 389v309l22 2t22 1q38 0 62.5 -10t38.5 -30.5t20 -52t6 -75.5q0 -27 -3.5 -53t-16.5 -46.5t-39 -32.5t-71 -12h-41zM272 14v361h58q50 0 77.5 -20.5t41 -48.5t16.5 -56.5t3 -45.5q0 -61 -9.5 -98.5t-27.5 -58.5t-43.5 -28.5t-57.5 -7.5q-31 0 -58 3zM127 698v-684
h-92v-14h151q42 0 83.5 -1t83.5 -1q38 0 86 8.5t90.5 30.5t72 60t29.5 96q0 53 -23 88t-58 56.5t-77 31.5t-81 13v4q24 3 58.5 13t66.5 29t54.5 48.5t22.5 72.5q0 48 -23 80t-58.5 51t-78.5 27t-82 8q-42 0 -83 -1.5t-83 -1.5h-151v-14h92z" />
    <glyph glyph-name="C" unicode="C" horiz-adv-x="722" 
d="M657 508v204h-16q-3 -14 -10 -17.5t-21 -3.5q-13 0 -32 6t-42.5 12.5t-51 12.5t-59.5 6q-64 0 -130.5 -26.5t-120.5 -75.5t-88.5 -118t-34.5 -154q0 -78 31 -145t82.5 -116.5t119.5 -78t141 -28.5q32 0 61 5.5t53.5 12t43.5 12t31 5.5q14 0 21 -4.5t12 -16.5h16v212h-16
q-9 -41 -28 -79t-47 -67.5t-64.5 -47.5t-81.5 -18q-56 0 -96.5 16t-66 56t-37.5 108t-12 172q0 79 6 145.5t27.5 114.5t63.5 75t115 27q54 0 90.5 -19.5t61 -50t40 -67t26.5 -69.5h13z" />
    <glyph glyph-name="D" unicode="D" horiz-adv-x="815" 
d="M269 14v684q10 2 26 2.5t36 0.5q87 0 140.5 -25t83 -71.5t39.5 -112t10 -146.5q0 -33 -3 -70.5t-12.5 -75t-28 -71.5t-50 -60.5t-77.5 -42t-111 -15.5q-24 0 -53 3zM124 698v-684h-92v-14h92q57 0 113.5 -1t113.5 -1q39 0 84.5 6t92 21.5t89.5 41.5t76.5 66t53.5 95
t20 128q0 74 -20 129t-54 95t-78 66t-93 41.5t-99 21.5t-95 6q-51 0 -102 -1.5t-102 -1.5h-92v-14h92z" />
    <glyph glyph-name="E" unicode="E" horiz-adv-x="722" 
d="M37 712v-14h92v-684h-92v-14h639v219h-13q-10 -43 -29 -80.5t-47.5 -65.5t-65.5 -43.5t-83 -15.5h-164v361h67q35 0 58.5 -12t39.5 -32.5t25.5 -47.5t16.5 -56h13v311h-13q-7 -34 -18 -61.5t-28 -47t-42.5 -30t-62.5 -10.5h-56v309h159q49 0 83 -18.5t55.5 -43.5
t33.5 -51.5t17 -43.5h13v171h-598z" />
    <glyph glyph-name="F" unicode="F" horiz-adv-x="685" 
d="M129 698v-684h-92v-14h330v14h-93v348h67q35 0 58.5 -12t39.5 -32.5t25.5 -47.5t16.5 -56h13v311h-13q-7 -34 -18 -61.5t-28 -47t-42.5 -30t-62.5 -10.5h-56v322h151q40 0 69.5 -11t51.5 -31.5t38.5 -49.5t30.5 -65h13v171h-591v-14h92z" />
    <glyph glyph-name="G" unicode="G" horiz-adv-x="778" 
d="M654 508v204h-17q-5 -12 -11 -16.5t-20 -4.5q-13 0 -32 6t-43 12.5t-52 12.5t-58 6q-64 0 -130.5 -26.5t-120.5 -75.5t-88.5 -118t-34.5 -154q0 -78 31 -145t82.5 -116.5t119.5 -78t141 -28.5q46 0 78.5 9.5t57.5 20.5t46.5 20.5t45.5 9.5q12 0 21.5 -5.5t11.5 -17.5h18
v229h65v14h-309v-14h103v-38q0 -46 -4 -85t-18.5 -67.5t-41.5 -45t-73 -16.5q-56 0 -96.5 16.5t-66 54.5t-37.5 100t-12 153v87q0 56 7 110.5t29.5 97t64.5 69t111 26.5q87 1 139 -53.5t78 -152.5h15z" />
    <glyph glyph-name="H" unicode="H" horiz-adv-x="833" 
d="M35 712v-14h92v-684h-92v-14h329v14h-92v342h289v-342h-92v-14h329v14h-92v684h92v14h-329v-14h92v-328h-289v328h92v14h-329z" />
    <glyph glyph-name="I" unicode="I" horiz-adv-x="407" 
d="M39 712v-14h92v-684h-92v-14h329v14h-92v684h92v14h-329z" />
    <glyph glyph-name="J" unicode="J" horiz-adv-x="500" 
d="M380 204v494h92v14h-329v-14h92v-633q0 -9 -0.5 -20.5t-4.5 -21.5t-12.5 -16.5t-25.5 -6.5q-4 0 -11.5 0.5t-14.5 4t-12.5 11.5t-5.5 23q0 4 2 14t5 22t5 23t2 18q0 16 -6.5 25.5t-16 14.5t-20 6.5t-18.5 1.5q-30 0 -46 -9.5t-23.5 -21.5t-8.5 -23.5t-1 -16.5
q0 -32 15 -53t38 -33t51 -16.5t54 -4.5q74 0 114.5 25t59.5 59.5t22.5 71.5t3.5 62z" />
    <glyph glyph-name="K" unicode="K" horiz-adv-x="778" 
d="M42 712v-14h92v-684h-92v-14h329v14h-92v350h8l266 -350h-90v-14h334v14h-62l-346 450l223 234h80v14h-200v-14h101l-306 -320h-8v320h92v14h-329z" />
    <glyph glyph-name="L" unicode="L" horiz-adv-x="722" 
d="M46 712v-14h92v-684h-92v-14h634v226h-13q-13 -58 -36.5 -98.5t-53 -66t-63 -36.5t-66.5 -11h-165v684h92v14h-329z" />
    <glyph glyph-name="M" unicode="M" horiz-adv-x="926" 
d="M34 712v-14h92v-684h-92v-14h200v14h-92v684h2l247 -698h16l246 698h2v-684h-91v-14h328v14h-92v684h92v14h-250l-176 -498h-2l-173 498h-257z" />
    <glyph glyph-name="N" unicode="N" horiz-adv-x="741" 
d="M34 712v-14h92v-684h-92v-14h200v14h-92v627h2l450 -641h27v698h92v14h-200v-14h92v-462h-2l-333 476h-236z" />
    <glyph glyph-name="O" unicode="O" horiz-adv-x="833" 
d="M205 354q0 79 7 145t29 114t64 74.5t112 26.5q75 0 117.5 -28.5t63.5 -77t25.5 -112t4.5 -133.5q0 -78 -5.5 -144.5t-26.5 -115t-63 -76t-116 -27.5q-56 0 -96.5 16t-66 56.5t-37.5 109t-12 172.5zM42 354q0 -78 31 -145t82.5 -116.5t119.5 -78t142 -28.5
q75 0 142.5 29.5t119 80.5t82 118.5t30.5 142.5q0 86 -32.5 154.5t-85 116.5t-120 74t-136.5 26q-64 0 -131 -26.5t-121 -75.5t-88.5 -118t-34.5 -154z" />
    <glyph glyph-name="P" unicode="P" horiz-adv-x="648" 
d="M271 353v345q8 1 18 2t21 1q87 0 120 -46t33 -133q0 -92 -38 -130.5t-123 -38.5h-31zM271 14v325h41q80 0 139 15t98 40.5t58 60t19 73.5q0 58 -29.5 94.5t-73.5 57t-96 28t-97 7.5q-51 0 -102 -1.5t-102 -1.5h-92v-14h92v-684h-92v-14h329v14h-92z" />
    <glyph glyph-name="Q" unicode="Q" horiz-adv-x="833" 
d="M205 354q0 79 7 145t29 114t64 74.5t112 26.5q75 0 117.5 -28.5t63.5 -77t25.5 -112t4.5 -133.5q0 -78 -5.5 -144.5t-26.5 -115t-63 -76t-116 -27.5q-56 0 -96.5 16t-66 56.5t-37.5 109t-12 172.5zM735 -213v14q-26 0 -41.5 2.5t-26 9.5t-18 18.5t-17.5 29.5
q-19 34 -44.5 57t-75.5 28q-31 3 -51 6t-34.5 7.5t-24 11.5t-19.5 18q15 -3 34 -3q75 0 142.5 29.5t119 80.5t82 118.5t30.5 142.5q0 86 -32.5 154.5t-85 116.5t-120 74t-136.5 26q-64 0 -131 -26.5t-121 -75.5t-88.5 -118t-34.5 -154q0 -69 25 -131t68.5 -110t101 -80
t122.5 -41q13 -14 29 -34.5t30 -43.5q22 -39 44 -62t55.5 -36t85 -19t132.5 -10z" />
    <glyph glyph-name="R" unicode="R" horiz-adv-x="722" 
d="M272 389v309l22 2t22 1q38 0 62.5 -10t38.5 -30.5t20 -52t6 -75.5q0 -27 -3.5 -53t-16.5 -46.5t-39 -32.5t-71 -12h-41zM127 698v-684h-92v-14h329v14h-92v361h66q47 0 73 -18t39 -48t16.5 -68.5t5.5 -79.5q1 -27 4.5 -57.5t18.5 -56.5t46 -43.5t86 -17.5q27 0 45 3.5
t30.5 9.5t22 14.5t19.5 18.5l-10 9q-10 -10 -23 -21.5t-33 -11.5q-18 0 -27.5 7t-15 28t-8.5 59t-8 101q-4 54 -20.5 86t-44.5 50t-66.5 27t-87.5 18v5q34 3 69 12.5t63.5 27.5t46.5 46.5t18 68.5q0 50 -23.5 83t-59.5 52.5t-79.5 27.5t-82.5 8q-42 0 -83 -1.5t-83 -1.5
h-151v-14h92z" />
    <glyph glyph-name="S" unicode="S" horiz-adv-x="648" 
d="M63 222v-222h16q5 14 11 18.5t20 4.5q10 0 30.5 -6t47 -12.5t57 -12.5t61.5 -6q62 0 112.5 19.5t87 52.5t56.5 77t20 93q0 50 -18.5 84t-48.5 58t-68.5 39.5t-79 28.5t-79 25t-68.5 28.5t-48.5 39.5t-18.5 58q0 23 11 45t32 40t51.5 29t70.5 11q49 0 81 -17t53 -44.5
t34.5 -61.5t25.5 -69h13v190h-16q-5 -12 -9.5 -16.5t-18.5 -4.5q-12 0 -26.5 6t-33.5 12.5t-44 12.5t-58 6q-52 0 -96.5 -17.5t-76.5 -46t-50 -65.5t-18 -77q0 -54 17.5 -90t46.5 -60.5t66 -40t76 -27t76 -22.5t66 -27t46.5 -40t17.5 -61q0 -20 -8 -46.5t-27.5 -50.5
t-53.5 -40.5t-87 -16.5q-15 0 -32.5 0.5t-37 6t-41 17.5t-44.5 35q-21 20 -35.5 43.5t-24 46t-14.5 42t-7 31.5h-15z" />
    <glyph glyph-name="T" unicode="T" horiz-adv-x="705" 
d="M280 698v-684h-92v-14h329v14h-92v684h36q37 0 66 -7.5t52 -26t41 -51.5t33 -84h13v183h-627v-183h13q15 51 33 84t41 51.5t52 26t66 7.5h36z" />
    <glyph glyph-name="U" unicode="U" horiz-adv-x="778" 
d="M32 712v-14h93v-467q0 -45 10 -89t41.5 -78.5t90.5 -56t156 -21.5q60 0 101 13.5t68 35t41 48.5t21 54t8 51.5t1 40.5v469h93v14h-200v-14h91v-470q0 -15 -1 -37.5t-7 -48t-19 -51t-37 -46t-60.5 -33t-90.5 -12.5q-55 0 -87.5 21.5t-49 56.5t-21 79.5t-4.5 91.5v449h92
v14h-330z" />
    <glyph glyph-name="V" unicode="V" horiz-adv-x="722" 
d="M-17 712v-14h84l276 -725h29l282 725h86v14h-191v-14h90l-211 -542l-207 542h96v14h-334z" />
    <glyph glyph-name="W" unicode="W" horiz-adv-x="1037" 
d="M-11 712v-14h82l248 -725h29l168 473h2l164 -473h29l257 725h81v14h-184v-14h86l-185 -528h-2l-181 528h93v14h-299v-14h54l78 -229l-105 -298h-2l-180 527h73v14h-306z" />
    <glyph glyph-name="X" unicode="X" horiz-adv-x="759" 
d="M10 712v-14h80l224 -368l-195 -316h-82v-14h190v14h-90l186 301l182 -301h-89v-14h343v14h-83l-258 422l164 262h78v14h-181v-14h86l-156 -248l-146 248h82v14h-335z" />
    <glyph glyph-name="Y" unicode="Y" horiz-adv-x="704" 
d="M-15 712v-14h78l232 -405v-279h-92v-14h330v14h-93v317l193 367h87v14h-191v-14h87l-184 -349l-204 349h79v14h-322z" />
    <glyph glyph-name="Z" unicode="Z" horiz-adv-x="685" 
d="M436 698l-402 -698h601v226h-13q-13 -58 -36.5 -98.5t-55 -66t-68.5 -36.5t-77 -11h-181l404 698h-518v-167h13q15 35 32 63t39.5 48t52.5 31t70 11h139z" />
    <glyph glyph-name="bracketleft" unicode="[" horiz-adv-x="259" 
d="M97 712v-991h122v20h-102v951h102v20h-122z" />
    <glyph glyph-name="backslash" unicode="\" horiz-adv-x="296" 
d="M293 0l-270 718l-20 -6l270 -717z" />
    <glyph glyph-name="bracketright" unicode="]" horiz-adv-x="259" 
d="M162 -279v991h-122v-20h102v-951h-102v-20h122z" />
    <glyph glyph-name="asciicircum" unicode="^" horiz-adv-x="593" 
d="M292 712l-173 -407h22l155 369l156 -369h21l-172 407h-9z" />
    <glyph glyph-name="underscore" unicode="_" horiz-adv-x="500" 
d="M0 -74v-31h500v31h-500z" />
    <glyph glyph-name="grave" unicode="`" horiz-adv-x="278" 
d="M182 529l-88 176q-5 11 -13.5 21t-28.5 10q-8 0 -20.5 -7.5t-12.5 -22.5q0 -4 1.5 -12t7.5 -15l141 -150h13z" />
    <glyph glyph-name="a" unicode="a" horiz-adv-x="519" 
d="M305 248v-132q0 -29 -6 -49.5t-16 -33t-22.5 -18.5t-25.5 -6q-23 0 -36 10.5t-19.5 25.5t-8 31t-1.5 28q0 30 9.5 49t24.5 32t34 21.5t38 17.5q14 7 19.5 12.5t7.5 11.5h2zM507 16l-9 9q-8 -9 -16.5 -14t-21.5 -5q-22 0 -27.5 14.5t-5.5 33.5v248q0 42 -14.5 69.5
t-39 43.5t-58 22t-71.5 6q-33 0 -63.5 -7t-54.5 -20.5t-38.5 -34t-14.5 -46.5q0 -17 5.5 -27t13.5 -15.5t18.5 -7t20.5 -1.5q7 0 17.5 0.5t20 4.5t16.5 12.5t7 23.5q0 3 -1 11t-2 17t-2 16.5t-1 10.5q0 28 17 38.5t40 10.5q36 0 49 -22t13 -49v-61q0 -19 -5.5 -31
t-19.5 -21.5t-39.5 -18t-66.5 -20.5q-25 -8 -48.5 -16.5t-42 -22t-30 -33t-11.5 -48.5q0 -28 13 -47.5t34 -30.5t46 -16t49 -5q53 0 81 14t44 54h2q6 -32 30.5 -50t75.5 -18q23 0 49.5 4t40.5 25z" />
    <glyph glyph-name="b" unicode="b" horiz-adv-x="593" 
d="M219 214q0 33 3.5 71t14.5 70t33 53t59 21q26 0 43 -11t28 -36t15.5 -66.5t4.5 -101.5q0 -49 -2.5 -88.5t-11 -67.5t-25 -43t-44.5 -15q-42 0 -65.5 21.5t-35.5 54t-14.5 70t-2.5 68.5zM97 707v-693h-66v-14h186v74h2q16 -42 44.5 -64.5t73.5 -22.5q49 0 89 19t68.5 50.5
t44.5 72.5t16 86q0 35 -12.5 75t-39 74t-67.5 56.5t-99 22.5q-45 0 -73 -21t-43 -63h-2v362h-188v-14h66z" />
    <glyph glyph-name="c" unicode="c" horiz-adv-x="481" 
d="M35 215q0 -51 14.5 -88t38 -62.5t51.5 -40.5t55.5 -23.5t51 -11t36.5 -2.5q48 0 79.5 13t51.5 31.5t30.5 40t15.5 39.5l-14 5q-2 -9 -10.5 -28.5t-25.5 -39t-45 -34t-69 -14.5q-43 0 -68 20t-38 52t-16 71t-3 78q0 42 3.5 79.5t15 66t32.5 45.5t57 17q26 0 43.5 -11.5
t17.5 -31.5q0 -4 -2.5 -14t-5 -21t-5 -21t-2.5 -14q0 -27 19.5 -35.5t42.5 -8.5q31 0 48 13.5t17 46.5q0 25 -12.5 45.5t-35 35t-53.5 22.5t-69 8q-60 0 -105.5 -22t-77 -55.5t-47.5 -73.5t-16 -77z" />
    <glyph glyph-name="d" unicode="d" horiz-adv-x="593" 
d="M374 214q0 -31 -2.5 -68.5t-14.5 -70t-35.5 -54t-65.5 -21.5q-28 0 -44.5 15t-25 43t-11 67.5t-2.5 88.5q0 60 4.5 101.5t15.5 66.5t28.5 36t42.5 11q37 0 59 -21t33 -53t14.5 -70t3.5 -71zM496 14v707h-190v-14h68v-348h-2q-15 42 -43 63t-73 21q-58 0 -99 -22.5
t-67.5 -56.5t-39 -74t-12.5 -75q0 -45 16 -86t44.5 -72.5t68.5 -50.5t89 -19q45 0 73.5 22.5t44.5 64.5h2v-74h186v14h-66z" />
    <glyph glyph-name="e" unicode="e" horiz-adv-x="500" 
d="M330 265h-160q1 26 3.5 54.5t11.5 53t27.5 40.5t52.5 16q24 0 37.5 -11t19.5 -27t7 -32t1 -27v-67zM170 251h295q0 51 -18 87.5t-46 59.5t-63 34t-70 11q-49 0 -91.5 -19.5t-74 -51t-49.5 -72.5t-18 -84q0 -54 19 -96.5t52.5 -72t78.5 -45t97 -15.5q44 0 75 12.5t52 31
t33 40t17 40.5l-14 5q-1 -9 -9.5 -28t-26 -38.5t-45 -34.5t-67.5 -15q-45 0 -70 19t-38 48.5t-16 66t-3 72.5v45z" />
    <glyph glyph-name="f" unicode="f" horiz-adv-x="352" 
d="M38 429v-14h66v-401h-66v-14h265v14h-77v401h83v14h-83v155q0 26 1 49.5t6 41.5t17 28.5t33 10.5q17 0 30 -8.5t13 -26.5q0 -3 -1 -10t-2.5 -15.5t-3 -16t-1.5 -10.5q0 -51 53 -51q23 0 40 16t17 39q0 26 -11 44.5t-29 30t-40 17t-45 5.5q-50 0 -84 -13t-56 -35.5
t-34 -52t-17.5 -62.5t-6.5 -68t-1 -68h-66z" />
    <glyph glyph-name="g" unicode="g" horiz-adv-x="537" 
d="M140 -156q0 40 16.5 64t46.5 48h104q15 0 33 -4t33 -15t25 -29.5t10 -48.5t-12 -55t-31.5 -43t-45.5 -28t-55 -10q-38 0 -62 12t-38 30.5t-19 39.5t-5 39zM256 167q-17 0 -32 4t-25.5 18.5t-16.5 42.5t-6 75q0 23 3 45t11.5 39t24.5 27.5t41 10.5q27 0 42 -10t23 -28
t10 -42.5t2 -53.5q0 -41 -5.5 -66.5t-15.5 -39t-24 -18t-32 -4.5zM286 71h-110q-34 0 -54 12t-20 37q0 11 5 24.5t34 32.5q20 -8 51 -16t71 -8q50 0 84 12.5t55.5 32.5t31 44.5t9.5 49.5q0 41 -14 62.5t-26 34.5q20 14 28 18.5t14 4.5q11 0 13 -7t4 -21q1 -4 2.5 -10.5
t6 -12t13 -9.5t22.5 -4q20 0 32 11.5t12 31.5q0 23 -14.5 37.5t-43.5 14.5q-33 0 -53 -11.5t-45 -34.5q-23 18 -55.5 32t-77.5 14t-81.5 -12t-61.5 -32.5t-38.5 -48t-13.5 -58.5q0 -22 6.5 -38.5t16 -29t20.5 -22t20 -16.5q-31 -17 -49.5 -36t-27.5 -36.5t-11.5 -30.5
t-2.5 -18q0 -31 15 -52t37 -33t47.5 -17t45.5 -5v-2q-23 -6 -46.5 -17t-43 -26.5t-31.5 -36.5t-12 -48q0 -14 6 -34.5t26 -40t57.5 -33.5t100.5 -14q56 0 99.5 18t74.5 47t47 66t16 76q0 46 -16 76.5t-42 48.5t-60.5 25.5t-72.5 7.5z" />
    <glyph glyph-name="h" unicode="h" horiz-adv-x="630" 
d="M37 14v-14h251v14h-63v214q0 46 10 80t26.5 57t38.5 34.5t46 11.5q29 0 46 -19.5t17 -61.5v-316h-62v-14h251v14h-67v282q0 66 -36.5 104t-102.5 38q-45 0 -74.5 -13t-48.5 -30.5t-28.5 -35t-13.5 -26.5h-2v388h-188v-14h66v-693h-66z" />
    <glyph glyph-name="i" unicode="i" horiz-adv-x="315" 
d="M93 644q0 -29 21 -50t50 -21t50 21t21 50t-21 50t-50 21t-50 -21t-21 -50zM36 429v-14h67v-401h-67v-14h256v14h-67v415h-189z" />
    <glyph glyph-name="j" unicode="j" horiz-adv-x="333" 
d="M109 644q0 -29 21 -50t50 -21t50 21t21 50t-21 50t-50 21t-50 -21t-21 -50zM119 415v-626q0 -39 -9 -50t-27 -11q-24 0 -28 11t-4 21q0 11 4 25.5t4 25.5q0 21 -14 32.5t-39 11.5q-21 0 -38 -12t-17 -44q0 -40 34.5 -62.5t88.5 -22.5q47 0 79 18.5t51.5 51.5t28 77.5
t8.5 96.5v471h-189v-14h67z" />
    <glyph glyph-name="k" unicode="k" horiz-adv-x="593" 
d="M35 721v-14h66v-693h-66v-14h250v14h-62v216h5l169 -216h-72v-14h265v14h-39l-229 295l112 106h64v14h-157v-14h73l-186 -171h-5v477h-188z" />
    <glyph glyph-name="l" unicode="l" horiz-adv-x="315" 
d="M36 721v-14h67v-693h-67v-14h256v14h-67v707h-189z" />
    <glyph glyph-name="m" unicode="m" horiz-adv-x="889" 
d="M42 429v-14h66v-401h-66v-14h247v14h-59v244q0 25 1.5 42.5t5 31t9.5 24t14 20.5q30 35 70 35q23 0 42 -17.5t19 -61.5v-318h-60v-14h241v14h-59v295q0 27 10.5 46.5t25.5 31.5t31 18t27 6q36 0 51.5 -22.5t15.5 -64.5v-310h-59v-14h247v14h-66v273q0 18 -2.5 44
t-16.5 49.5t-45 40.5t-88 17q-11 0 -28 -2.5t-36 -11t-37.5 -24t-33.5 -42.5q-8 14 -17.5 28t-25 25.5t-39 19t-58.5 7.5q-33 0 -56.5 -9t-40 -21.5t-26.5 -26t-16 -23.5h-2v71h-186z" />
    <glyph glyph-name="n" unicode="n" horiz-adv-x="630" 
d="M42 14v-14h251v14h-63v214q0 46 10 80t26.5 57t38.5 34.5t46 11.5q29 0 46 -19.5t17 -61.5v-316h-62v-14h251v14h-67v282q0 66 -36.5 104t-102.5 38q-45 0 -75 -13.5t-49 -31.5t-29 -36.5t-14 -27.5h-2v100h-186v-14h66v-401h-66z" />
    <glyph glyph-name="o" unicode="o" 
d="M278 0q-39 0 -61 18.5t-32.5 48.5t-13 69t-2.5 79t2.5 78.5t13 68.5t32.5 48.5t61 18.5t61 -18.5t32.5 -48.5t13 -68.5t2.5 -78.5t-2.5 -79t-13 -69t-32.5 -48.5t-61 -18.5zM278 443q-52 0 -96.5 -18.5t-77.5 -49.5t-51.5 -72.5t-18.5 -87.5q0 -47 18.5 -88.5t51.5 -72.5
t77.5 -49t96.5 -18t96.5 18t77.5 49t51.5 72.5t18.5 88.5q0 46 -18.5 87.5t-51.5 72.5t-77.5 49.5t-96.5 18.5z" />
    <glyph glyph-name="p" unicode="p" horiz-adv-x="593" 
d="M219 214q0 33 3.5 71t14.5 70t33 53t59 21q26 0 43 -11t28 -36t15.5 -66.5t4.5 -101.5q0 -49 -2.5 -88.5t-11 -67.5t-25 -43t-44.5 -15q-42 0 -65.5 21.5t-35.5 54t-14.5 70t-2.5 68.5zM97 415v-680h-66v-14h256v14h-68v337h2q14 -35 42 -60t74 -25q49 0 89 19t68.5 50.5
t44.5 72.5t16 86q0 35 -12.5 75t-39 74t-67.5 56.5t-99 22.5q-87 0 -118 -88h-2v74h-186v-14h66z" />
    <glyph glyph-name="q" unicode="q" horiz-adv-x="593" 
d="M374 214q0 -31 -2.5 -68.5t-14.5 -70t-35.5 -54t-65.5 -21.5q-28 0 -44.5 15t-25 43t-11 67.5t-2.5 88.5q0 60 4.5 101.5t15.5 66.5t28.5 36t42.5 11q37 0 59 -21t33 -53t14.5 -70t3.5 -71zM496 -265v680h66v14h-186v-74h-2q-31 88 -118 88q-58 0 -99 -22.5t-67.5 -56.5
t-39 -74t-12.5 -75q0 -45 16 -86t44.5 -72.5t68.5 -50.5t89 -19q46 0 74 25t42 60h2v-337h-68v-14h256v14h-66z" />
    <glyph glyph-name="r" unicode="r" horiz-adv-x="444" 
d="M41 429v-14h65v-401h-65v-14h266v14h-79v256q0 32 9.5 57.5t22.5 43.5t28 27.5t25 9.5q9 0 13.5 -3.5t6.5 -8t2.5 -8.5l0.5 -4q0 -1 -1 -8t-2.5 -15.5t-2.5 -16t-1 -10.5q0 -26 19 -35.5t42 -9.5q32 0 46.5 17t14.5 47q0 40 -26 62.5t-68 22.5q-50 0 -80.5 -27.5
t-48.5 -65.5h-2v84h-185z" />
    <glyph glyph-name="s" unicode="s" horiz-adv-x="426" 
d="M44 145v-145h14q3 8 6.5 11t11.5 3q9 0 25 -4t35.5 -9.5t40.5 -9.5t39 -4q33 0 64 10t54.5 28.5t38 45t14.5 59.5q0 48 -28 79t-82 50l-85 29q-25 9 -40 18.5t-22 19t-9 18.5t-2 16q0 34 27.5 51.5t60.5 17.5q31 0 52 -9.5t35.5 -26t25 -38.5t20.5 -46h13v122h-14
q-2 -5 -5 -9t-14 -4q-6 0 -16.5 4t-24 8.5t-30 8.5t-35.5 4q-36 0 -66.5 -11.5t-52 -31t-33.5 -45.5t-12 -55q0 -27 9 -46.5t22.5 -33.5t29.5 -22.5t30 -13.5l81 -30q27 -10 42.5 -19.5t23.5 -19.5t10.5 -19.5t2.5 -18.5q0 -29 -10.5 -44.5t-25 -23t-29.5 -8.5t-24 -1
q-35 0 -59 12.5t-41 32.5t-29.5 46t-24.5 54h-14z" />
    <glyph glyph-name="t" unicode="t" horiz-adv-x="370" 
d="M101 558v-129h-67v-14h67v-308q0 -18 2 -39t15.5 -39t42 -30t80.5 -12q19 0 40 3.5t39.5 14.5t33 31.5t20.5 54.5l-15 3q-4 -15 -10.5 -31t-16.5 -28.5t-23.5 -20.5t-32.5 -8q-17 0 -27.5 6t-16 16.5t-7.5 23.5t-2 28v335h117v14h-117v129q-15 -6 -30.5 -10t-30.5 -4
t-30.5 4t-30.5 10z" />
    <glyph glyph-name="u" unicode="u" horiz-adv-x="611" 
d="M27 429v-14h67v-289q0 -73 37 -103.5t107 -30.5q22 0 45 5.5t43.5 17t36.5 28t24 38.5h2v-81h186v14h-66v415h-188v-14h66v-258q0 -27 -7.5 -52t-21 -43.5t-32.5 -29.5t-42 -11q-38 0 -53 26.5t-15 64.5v317h-189z" />
    <glyph glyph-name="v" unicode="v" horiz-adv-x="463" 
d="M-13 429v-14h54l199 -442h8l177 442h46v14h-140v-14h77l-109 -277l-123 277h72v14h-261z" />
    <glyph glyph-name="w" unicode="w" horiz-adv-x="741" 
d="M54 415l174 -442h7l139 374l148 -374h7l164 442h49v14h-135v-14h70l-96 -260l-103 260h67v14h-250v-14h51l20 -47l-79 -213l-103 260h65v14h-254v-14h59z" />
    <glyph glyph-name="x" unicode="x" horiz-adv-x="500" 
d="M3 429v-14h51l149 -233l-121 -168h-67v-14h163v14h-77l111 155l99 -155h-69v-14h255v14h-41l-157 248l110 153h56v14h-141v-14h67l-102 -140l-85 140h61v14h-262z" />
    <glyph glyph-name="y" unicode="y" horiz-adv-x="481" 
d="M299 126l-122 289h70v14h-254v-14h53l188 -450l-43 -107q-7 -18 -16.5 -40t-22 -41.5t-28 -32.5t-33.5 -13q-8 0 -14 5.5t-6 16.5q0 15 6.5 26t6.5 29q0 21 -17 31.5t-36 10.5q-26 0 -44.5 -13t-18.5 -42q0 -38 28.5 -59.5t73.5 -21.5q42 0 67 21t45 66q20 43 42.5 99.5
t52 130.5t69.5 169t96 215h46v14h-145v-14h83z" />
    <glyph glyph-name="z" unicode="z" horiz-adv-x="463" 
d="M277 415l-243 -415h391l11 138h-11q-8 -22 -16.5 -44.5t-22 -40t-34 -28.5t-51.5 -11h-122l242 415h-357l-15 -119h11q12 26 23 46t25.5 33t33.5 19.5t46 6.5h89z" />
    <glyph glyph-name="braceleft" unicode="{" horiz-adv-x="370" 
d="M337 694v18q-9 -1 -22 -2t-27.5 -4t-30 -9.5t-28.5 -17.5q-22 -17 -34 -37t-17.5 -44t-6.5 -52.5t-1 -63.5v-107q0 -36 -5 -61.5t-19.5 -43.5t-41 -30t-70.5 -21v-6q44 -9 70.5 -21t41 -30t19.5 -43.5t5 -61.5v-106q0 -35 1 -63.5t6.5 -52.5t17.5 -44t34 -37
q13 -11 28.5 -17.5t30 -9.5t27.5 -4t22 -2v18q-55 3 -84.5 21t-43.5 44.5t-16.5 57.5t-2.5 60v78q0 42 -1 70.5t-4.5 49t-10.5 34t-18 24.5q-12 12 -25.5 19t-26.5 11t-24 5.5t-18 2.5q7 1 18 2.5t24 5.5t26.5 11t25.5 19q11 11 18 25t10.5 34t4.5 49t1 71v78q0 29 2.5 60
t16.5 57.5t43.5 44.5t84.5 21z" />
    <glyph glyph-name="bar" unicode="|" horiz-adv-x="222" 
d="M101 750v-999h20v999h-20z" />
    <glyph glyph-name="braceright" unicode="}" horiz-adv-x="370" 
d="M34 -261v-18q9 1 22 2.5t27.5 4.5t29.5 9t29 17q22 17 34 37t17.5 44t6.5 52.5t1 63.5v106q0 36 5 61.5t19.5 43.5t41.5 30t70 21v6q-43 9 -70 21t-41.5 30t-19.5 43.5t-5 61.5v107q0 35 -1 63.5t-6.5 52.5t-17.5 44t-34 37q-14 11 -29 17t-29.5 9t-27.5 4.5t-22 2.5v-18
q55 -3 84.5 -21t43.5 -44.5t16.5 -57.5t2.5 -60v-78q0 -42 1 -71t4.5 -49t10.5 -34t18 -25q12 -12 25.5 -19t26.5 -11t24 -5.5t18 -2.5q-7 -1 -18 -2.5t-24 -5.5t-26.5 -11t-25.5 -19q-11 -11 -18 -24.5t-10.5 -34t-4.5 -49t-1 -70.5v-78q0 -29 -2.5 -60t-16.5 -57.5
t-43.5 -44.5t-84.5 -21z" />
    <glyph glyph-name="asciitilde" unicode="~" horiz-adv-x="593" 
d="M577 320h-18q-16 -48 -42.5 -81.5t-70.5 -33.5q-15 0 -32 5t-50 18l-124 47q-5 2 -15 5.5t-22 7t-25 6t-25 2.5q-36 0 -60.5 -14.5t-39.5 -35.5t-23.5 -44t-13.5 -40h18q5 14 12.5 33.5t20 37.5t32 30.5t48.5 12.5q23 0 46.5 -7.5t40.5 -14.5l122 -47q41 -16 58 -19
t28 -3q35 0 58.5 15t39 36.5t24 44.5t13.5 39z" />
    <glyph glyph-name="Adieresis" unicode="&#xc4;" horiz-adv-x="759" 
d="M395 857q0 -26 19 -45t45 -19t45 19t19 45t-19 45t-45 19t-45 -19t-19 -45zM221 857q0 -26 19 -45t45 -19t45 19t19 45t-19 45t-45 19t-45 -19t-19 -45zM303 569l118 -273h-230zM-25 14v-14h189v14h-89l111 268h240l116 -268h-93v-14h336v14h-86l-315 726h-27l-298 -726
h-84z" />
    <glyph glyph-name="Aring" unicode="&#xc5;" horiz-adv-x="759" 
d="M365 945q29 0 38 -23t9 -65t-9 -65t-38 -23t-38 23t-9 65t9 65t38 23zM470 857q0 16 -6.5 33.5t-19.5 32t-32.5 24t-46.5 9.5t-46.5 -9.5t-32.5 -24t-19.5 -32t-6.5 -33.5t6.5 -33.5t19.5 -32t32.5 -24t46.5 -9.5t46.5 9.5t32.5 24t19.5 32t6.5 33.5zM303 569l118 -273
h-230zM-25 14v-14h189v14h-89l111 268h240l116 -268h-93v-14h336v14h-86l-315 726h-27l-298 -726h-84z" />
    <glyph glyph-name="Ccedilla" unicode="&#xc7;" horiz-adv-x="722" 
d="M663 0v212h-16q-9 -41 -28 -79t-47 -67.5t-64.5 -47.5t-81.5 -18q-56 0 -96.5 16.5t-66 54.5t-37.5 100t-12 153v87q0 56 7 110.5t29.5 97t64.5 69t111 26.5q54 0 90.5 -19.5t61 -50t40 -67t26.5 -69.5h13v204h-16q-3 -14 -10 -17.5t-21 -3.5q-13 0 -32 6t-42.5 12.5
t-51 12.5t-59.5 6q-64 0 -130.5 -26.5t-120.5 -75.5t-88.5 -118t-34.5 -154q0 -72 27 -135t72.5 -112t106 -80t127.5 -38l-62 -67l14 -14q16 10 37 10q14 0 21.5 -6.5t11.5 -16t4.5 -21.5t0.5 -22q0 -12 -2 -24.5t-7 -23t-14 -17t-24 -6.5q-20 0 -31 5.5t-27 16.5l-9 -12
q20 -15 37 -22.5t43 -7.5q21 0 41.5 6t36.5 18t25.5 29.5t9.5 41.5q0 18 -7.5 34t-20.5 27t-29 17.5t-34 6.5q-13 0 -27 -4.5t-25 -9.5l-2 2l57 57h23q32 0 61 5.5t53.5 12t43.5 12t31 5.5q14 0 21 -4.5t12 -16.5h16z" />
    <glyph glyph-name="Eacute" unicode="&#xc9;" horiz-adv-x="722" 
d="M414 938l-88 -176h13l141 150q6 7 7.5 15t1.5 12q0 15 -12.5 22.5t-20.5 7.5q-20 0 -28.5 -10t-13.5 -21zM37 712v-14h92v-684h-92v-14h639v219h-13q-10 -43 -29 -80.5t-47.5 -65.5t-65.5 -43.5t-83 -15.5h-164v361h67q35 0 58.5 -12t39.5 -32.5t25.5 -47.5t16.5 -56h13
v311h-13q-7 -34 -18 -61.5t-28 -47t-42.5 -30t-62.5 -10.5h-56v309h159q49 0 83 -18.5t55.5 -43.5t33.5 -51.5t17 -43.5h13v171h-598z" />
    <glyph glyph-name="Ntilde" unicode="&#xd1;" horiz-adv-x="741" 
d="M229 802l12 27q5 11 13 15.5t15 4.5q12 0 33 -6.5t45 -14t46.5 -14t37.5 -6.5q23 0 39.5 13t28 31.5t18.5 38.5t10 33h-14q0 -2 -2.5 -9.5t-7.5 -15.5t-12.5 -14.5t-17.5 -6.5q-4 0 -27 6.5t-50 14t-51 13.5t-31 6q-11 0 -26.5 -5t-24.5 -13q-7 -6 -12.5 -13.5
t-10.5 -18.5t-11 -27t-14 -39h14zM34 712v-14h92v-684h-92v-14h200v14h-92v627h2l450 -641h27v698h92v14h-200v-14h92v-462h-2l-333 476h-236z" />
    <glyph glyph-name="Odieresis" unicode="&#xd6;" horiz-adv-x="833" 
d="M440 857q0 -26 19 -45t45 -19t45 19t19 45t-19 45t-45 19t-45 -19t-19 -45zM266 857q0 -26 19 -45t45 -19t45 19t19 45t-19 45t-45 19t-45 -19t-19 -45zM205 354q0 79 7 145t29 114t64 74.5t112 26.5q75 0 117.5 -28.5t63.5 -77t25.5 -112t4.5 -133.5q0 -78 -5.5 -144.5
t-26.5 -115t-63 -76t-116 -27.5q-56 0 -96.5 16t-66 56.5t-37.5 109t-12 172.5zM42 354q0 -78 31 -145t82.5 -116.5t119.5 -78t142 -28.5q75 0 142.5 29.5t119 80.5t82 118.5t30.5 142.5q0 86 -32.5 154.5t-85 116.5t-120 74t-136.5 26q-64 0 -131 -26.5t-121 -75.5
t-88.5 -118t-34.5 -154z" />
    <glyph glyph-name="Udieresis" unicode="&#xdc;" horiz-adv-x="778" 
d="M442 857q0 -26 19 -45t45 -19t45 19t19 45t-19 45t-45 19t-45 -19t-19 -45zM268 857q0 -26 19 -45t45 -19t45 19t19 45t-19 45t-45 19t-45 -19t-19 -45zM32 712v-14h93v-467q0 -45 10 -89t41.5 -78.5t90.5 -56t156 -21.5q60 0 101 13.5t68 35t41 48.5t21 54t8 51.5
t1 40.5v469h93v14h-200v-14h91v-470q0 -15 -1 -37.5t-7 -48t-19 -51t-37 -46t-60.5 -33t-90.5 -12.5q-55 0 -87.5 21.5t-49 56.5t-21 79.5t-4.5 91.5v449h92v14h-330z" />
    <glyph glyph-name="aacute" unicode="&#xe1;" horiz-adv-x="519" 
d="M305 705l-88 -176h13l141 150q6 7 7.5 15t1.5 12q0 15 -12.5 22.5t-20.5 7.5q-20 0 -28.5 -10t-13.5 -21zM305 248v-132q0 -29 -6 -49.5t-16 -33t-22.5 -18.5t-25.5 -6q-23 0 -36 10.5t-19.5 25.5t-8 31t-1.5 28q0 30 9.5 49t24.5 32t34 21.5t38 17.5q14 7 19.5 12.5
t7.5 11.5h2zM507 16l-9 9q-8 -9 -16.5 -14t-21.5 -5q-22 0 -27.5 14.5t-5.5 33.5v248q0 42 -14.5 69.5t-39 43.5t-58 22t-71.5 6q-33 0 -63.5 -7t-54.5 -20.5t-38.5 -34t-14.5 -46.5q0 -17 5.5 -27t13.5 -15.5t18.5 -7t20.5 -1.5q7 0 17.5 0.5t20 4.5t16.5 12.5t7 23.5
q0 3 -1 11t-2 17t-2 16.5t-1 10.5q0 28 17 38.5t40 10.5q36 0 49 -22t13 -49v-61q0 -19 -5.5 -31t-19.5 -21.5t-39.5 -18t-66.5 -20.5q-25 -8 -48.5 -16.5t-42 -22t-30 -33t-11.5 -48.5q0 -28 13 -47.5t34 -30.5t46 -16t49 -5q53 0 81 14t44 54h2q6 -32 30.5 -50t75.5 -18
q23 0 49.5 4t40.5 25z" />
    <glyph glyph-name="agrave" unicode="&#xe0;" horiz-adv-x="519" 
d="M303 529l-88 176q-5 11 -13.5 21t-28.5 10q-8 0 -20.5 -7.5t-12.5 -22.5q0 -4 1.5 -12t7.5 -15l141 -150h13zM305 248v-132q0 -29 -6 -49.5t-16 -33t-22.5 -18.5t-25.5 -6q-23 0 -36 10.5t-19.5 25.5t-8 31t-1.5 28q0 30 9.5 49t24.5 32t34 21.5t38 17.5q14 7 19.5 12.5
t7.5 11.5h2zM507 16l-9 9q-8 -9 -16.5 -14t-21.5 -5q-22 0 -27.5 14.5t-5.5 33.5v248q0 42 -14.5 69.5t-39 43.5t-58 22t-71.5 6q-33 0 -63.5 -7t-54.5 -20.5t-38.5 -34t-14.5 -46.5q0 -17 5.5 -27t13.5 -15.5t18.5 -7t20.5 -1.5q7 0 17.5 0.5t20 4.5t16.5 12.5t7 23.5
q0 3 -1 11t-2 17t-2 16.5t-1 10.5q0 28 17 38.5t40 10.5q36 0 49 -22t13 -49v-61q0 -19 -5.5 -31t-19.5 -21.5t-39.5 -18t-66.5 -20.5q-25 -8 -48.5 -16.5t-42 -22t-30 -33t-11.5 -48.5q0 -28 13 -47.5t34 -30.5t46 -16t49 -5q53 0 81 14t44 54h2q6 -32 30.5 -50t75.5 -18
q23 0 49.5 4t40.5 25z" />
    <glyph glyph-name="acircumflex" unicode="&#xe2;" horiz-adv-x="519" 
d="M224 726l-109 -197h12l133 127l133 -127h12l-108 197h-73zM305 248v-132q0 -29 -6 -49.5t-16 -33t-22.5 -18.5t-25.5 -6q-23 0 -36 10.5t-19.5 25.5t-8 31t-1.5 28q0 30 9.5 49t24.5 32t34 21.5t38 17.5q14 7 19.5 12.5t7.5 11.5h2zM507 16l-9 9q-8 -9 -16.5 -14
t-21.5 -5q-22 0 -27.5 14.5t-5.5 33.5v248q0 42 -14.5 69.5t-39 43.5t-58 22t-71.5 6q-33 0 -63.5 -7t-54.5 -20.5t-38.5 -34t-14.5 -46.5q0 -17 5.5 -27t13.5 -15.5t18.5 -7t20.5 -1.5q7 0 17.5 0.5t20 4.5t16.5 12.5t7 23.5q0 3 -1 11t-2 17t-2 16.5t-1 10.5q0 28 17 38.5
t40 10.5q36 0 49 -22t13 -49v-61q0 -19 -5.5 -31t-19.5 -21.5t-39.5 -18t-66.5 -20.5q-25 -8 -48.5 -16.5t-42 -22t-30 -33t-11.5 -48.5q0 -28 13 -47.5t34 -30.5t46 -16t49 -5q53 0 81 14t44 54h2q6 -32 30.5 -50t75.5 -18q23 0 49.5 4t40.5 25z" />
    <glyph glyph-name="adieresis" unicode="&#xe4;" horiz-adv-x="519" 
d="M283 644q0 -26 19 -45t45 -19t45 19t19 45t-19 45t-45 19t-45 -19t-19 -45zM109 644q0 -26 19 -45t45 -19t45 19t19 45t-19 45t-45 19t-45 -19t-19 -45zM305 248v-132q0 -29 -6 -49.5t-16 -33t-22.5 -18.5t-25.5 -6q-23 0 -36 10.5t-19.5 25.5t-8 31t-1.5 28q0 30 9.5 49
t24.5 32t34 21.5t38 17.5q14 7 19.5 12.5t7.5 11.5h2zM507 16l-9 9q-8 -9 -16.5 -14t-21.5 -5q-22 0 -27.5 14.5t-5.5 33.5v248q0 42 -14.5 69.5t-39 43.5t-58 22t-71.5 6q-33 0 -63.5 -7t-54.5 -20.5t-38.5 -34t-14.5 -46.5q0 -17 5.5 -27t13.5 -15.5t18.5 -7t20.5 -1.5
q7 0 17.5 0.5t20 4.5t16.5 12.5t7 23.5q0 3 -1 11t-2 17t-2 16.5t-1 10.5q0 28 17 38.5t40 10.5q36 0 49 -22t13 -49v-61q0 -19 -5.5 -31t-19.5 -21.5t-39.5 -18t-66.5 -20.5q-25 -8 -48.5 -16.5t-42 -22t-30 -33t-11.5 -48.5q0 -28 13 -47.5t34 -30.5t46 -16t49 -5
q53 0 81 14t44 54h2q6 -32 30.5 -50t75.5 -18q23 0 49.5 4t40.5 25z" />
    <glyph glyph-name="atilde" unicode="&#xe3;" horiz-adv-x="519" 
d="M118 569l12 27q5 11 13 15.5t15 4.5q12 0 33 -6.5t45 -14t46.5 -14t37.5 -6.5q23 0 39.5 13t28 31.5t18.5 38.5t10 33h-14q0 -2 -2.5 -9.5t-7.5 -15.5t-12.5 -14.5t-17.5 -6.5q-4 0 -27 6.5t-50 14t-51 13.5t-31 6q-11 0 -26.5 -5t-24.5 -13q-7 -6 -12.5 -13.5
t-10.5 -18.5t-11 -27t-14 -39h14zM305 248v-132q0 -29 -6 -49.5t-16 -33t-22.5 -18.5t-25.5 -6q-23 0 -36 10.5t-19.5 25.5t-8 31t-1.5 28q0 30 9.5 49t24.5 32t34 21.5t38 17.5q14 7 19.5 12.5t7.5 11.5h2zM507 16l-9 9q-8 -9 -16.5 -14t-21.5 -5q-22 0 -27.5 14.5
t-5.5 33.5v248q0 42 -14.5 69.5t-39 43.5t-58 22t-71.5 6q-33 0 -63.5 -7t-54.5 -20.5t-38.5 -34t-14.5 -46.5q0 -17 5.5 -27t13.5 -15.5t18.5 -7t20.5 -1.5q7 0 17.5 0.5t20 4.5t16.5 12.5t7 23.5q0 3 -1 11t-2 17t-2 16.5t-1 10.5q0 28 17 38.5t40 10.5q36 0 49 -22
t13 -49v-61q0 -19 -5.5 -31t-19.5 -21.5t-39.5 -18t-66.5 -20.5q-25 -8 -48.5 -16.5t-42 -22t-30 -33t-11.5 -48.5q0 -28 13 -47.5t34 -30.5t46 -16t49 -5q53 0 81 14t44 54h2q6 -32 30.5 -50t75.5 -18q23 0 49.5 4t40.5 25z" />
    <glyph glyph-name="aring" unicode="&#xe5;" horiz-adv-x="519" 
d="M260 717q29 0 38 -23t9 -65t-9 -65t-38 -23t-38 23t-9 65t9 65t38 23zM365 629q0 16 -6.5 33.5t-19.5 32t-32.5 24t-46.5 9.5t-46.5 -9.5t-32.5 -24t-19.5 -32t-6.5 -33.5t6.5 -33.5t19.5 -32t32.5 -24t46.5 -9.5t46.5 9.5t32.5 24t19.5 32t6.5 33.5zM305 248v-132
q0 -29 -6 -49.5t-16 -33t-22.5 -18.5t-25.5 -6q-23 0 -36 10.5t-19.5 25.5t-8 31t-1.5 28q0 30 9.5 49t24.5 32t34 21.5t38 17.5q14 7 19.5 12.5t7.5 11.5h2zM507 16l-9 9q-8 -9 -16.5 -14t-21.5 -5q-22 0 -27.5 14.5t-5.5 33.5v248q0 42 -14.5 69.5t-39 43.5t-58 22
t-71.5 6q-33 0 -63.5 -7t-54.5 -20.5t-38.5 -34t-14.5 -46.5q0 -17 5.5 -27t13.5 -15.5t18.5 -7t20.5 -1.5q7 0 17.5 0.5t20 4.5t16.5 12.5t7 23.5q0 3 -1 11t-2 17t-2 16.5t-1 10.5q0 28 17 38.5t40 10.5q36 0 49 -22t13 -49v-61q0 -19 -5.5 -31t-19.5 -21.5t-39.5 -18
t-66.5 -20.5q-25 -8 -48.5 -16.5t-42 -22t-30 -33t-11.5 -48.5q0 -28 13 -47.5t34 -30.5t46 -16t49 -5q53 0 81 14t44 54h2q6 -32 30.5 -50t75.5 -18q23 0 49.5 4t40.5 25z" />
    <glyph glyph-name="ccedilla" unicode="&#xe7;" horiz-adv-x="481" 
d="M190 -78l14 -14q16 10 37 10q14 0 21.5 -6.5t11.5 -16t4.5 -21.5t0.5 -22q0 -12 -2 -24.5t-7 -23t-14 -17t-24 -6.5q-20 0 -31 5.5t-27 16.5l-9 -12q20 -15 37 -22.5t43 -7.5q21 0 41.5 6t36.5 18t25.5 29.5t9.5 41.5q0 18 -7.5 34t-20.5 27t-29 17.5t-34 6.5
q-13 0 -27 -4.5t-25 -9.5l-2 2l58 58h11q48 0 79.5 13t51.5 31.5t30.5 40t15.5 39.5l-14 5q-2 -9 -10.5 -28.5t-25.5 -39t-45 -34t-69 -14.5q-43 0 -68 20t-38 52t-16 71t-3 78q0 42 3.5 79.5t15 66t32.5 45.5t57 17q26 0 43.5 -11.5t17.5 -31.5q0 -4 -2.5 -14t-5 -21
t-5 -21t-2.5 -14q0 -27 19.5 -35.5t42.5 -8.5q31 0 48 13.5t17 46.5q0 25 -12.5 45.5t-35 35t-53.5 22.5t-69 8q-61 0 -107.5 -22.5t-77 -56t-46 -73.5t-15.5 -76q0 -66 24 -109t58 -68t71.5 -35.5t64.5 -12.5z" />
    <glyph glyph-name="eacute" unicode="&#xe9;" horiz-adv-x="500" 
d="M295 705l-88 -176h13l141 150q6 7 7.5 15t1.5 12q0 15 -12.5 22.5t-20.5 7.5q-20 0 -28.5 -10t-13.5 -21zM330 265h-160q1 26 3.5 54.5t11.5 53t27.5 40.5t52.5 16q24 0 37.5 -11t19.5 -27t7 -32t1 -27v-67zM170 251h295q0 51 -18 87.5t-46 59.5t-63 34t-70 11
q-49 0 -91.5 -19.5t-74 -51t-49.5 -72.5t-18 -84q0 -54 19 -96.5t52.5 -72t78.5 -45t97 -15.5q44 0 75 12.5t52 31t33 40t17 40.5l-14 5q-1 -9 -9.5 -28t-26 -38.5t-45 -34.5t-67.5 -15q-45 0 -70 19t-38 48.5t-16 66t-3 72.5v45z" />
    <glyph glyph-name="egrave" unicode="&#xe8;" horiz-adv-x="500" 
d="M293 529l-88 176q-5 11 -13.5 21t-28.5 10q-8 0 -20.5 -7.5t-12.5 -22.5q0 -4 1.5 -12t7.5 -15l141 -150h13zM330 265h-160q1 26 3.5 54.5t11.5 53t27.5 40.5t52.5 16q24 0 37.5 -11t19.5 -27t7 -32t1 -27v-67zM170 251h295q0 51 -18 87.5t-46 59.5t-63 34t-70 11
q-49 0 -91.5 -19.5t-74 -51t-49.5 -72.5t-18 -84q0 -54 19 -96.5t52.5 -72t78.5 -45t97 -15.5q44 0 75 12.5t52 31t33 40t17 40.5l-14 5q-1 -9 -9.5 -28t-26 -38.5t-45 -34.5t-67.5 -15q-45 0 -70 19t-38 48.5t-16 66t-3 72.5v45z" />
    <glyph glyph-name="ecircumflex" unicode="&#xea;" horiz-adv-x="500" 
d="M214 726l-109 -197h12l133 127l133 -127h12l-108 197h-73zM330 265h-160q1 26 3.5 54.5t11.5 53t27.5 40.5t52.5 16q24 0 37.5 -11t19.5 -27t7 -32t1 -27v-67zM170 251h295q0 51 -18 87.5t-46 59.5t-63 34t-70 11q-49 0 -91.5 -19.5t-74 -51t-49.5 -72.5t-18 -84
q0 -54 19 -96.5t52.5 -72t78.5 -45t97 -15.5q44 0 75 12.5t52 31t33 40t17 40.5l-14 5q-1 -9 -9.5 -28t-26 -38.5t-45 -34.5t-67.5 -15q-45 0 -70 19t-38 48.5t-16 66t-3 72.5v45z" />
    <glyph glyph-name="edieresis" unicode="&#xeb;" horiz-adv-x="500" 
d="M273 644q0 -26 19 -45t45 -19t45 19t19 45t-19 45t-45 19t-45 -19t-19 -45zM99 644q0 -26 19 -45t45 -19t45 19t19 45t-19 45t-45 19t-45 -19t-19 -45zM330 265h-160q1 26 3.5 54.5t11.5 53t27.5 40.5t52.5 16q24 0 37.5 -11t19.5 -27t7 -32t1 -27v-67zM170 251h295
q0 51 -18 87.5t-46 59.5t-63 34t-70 11q-49 0 -91.5 -19.5t-74 -51t-49.5 -72.5t-18 -84q0 -54 19 -96.5t52.5 -72t78.5 -45t97 -15.5q44 0 75 12.5t52 31t33 40t17 40.5l-14 5q-1 -9 -9.5 -28t-26 -38.5t-45 -34.5t-67.5 -15q-45 0 -70 19t-38 48.5t-16 66t-3 72.5v45z" />
    <glyph glyph-name="iacute" unicode="&#xed;" horiz-adv-x="315" 
d="M203 705l-88 -176h13l141 150q6 7 7.5 15t1.5 12q0 15 -12.5 22.5t-20.5 7.5q-20 0 -28.5 -10t-13.5 -21zM36 429v-14h67v-401h-67v-14h256v14h-67v415h-189z" />
    <glyph glyph-name="igrave" unicode="&#xec;" horiz-adv-x="315" 
d="M201 529l-88 176q-5 11 -13.5 21t-28.5 10q-8 0 -20.5 -7.5t-12.5 -22.5q0 -4 1.5 -12t7.5 -15l141 -150h13zM36 429v-14h67v-401h-67v-14h256v14h-67v415h-189z" />
    <glyph glyph-name="icircumflex" unicode="&#xee;" horiz-adv-x="315" 
d="M122 726l-109 -197h12l133 127l133 -127h12l-108 197h-73zM36 429v-14h67v-401h-67v-14h256v14h-67v415h-189z" />
    <glyph glyph-name="idieresis" unicode="&#xef;" horiz-adv-x="315" 
d="M181 644q0 -26 19 -45t45 -19t45 19t19 45t-19 45t-45 19t-45 -19t-19 -45zM7 644q0 -26 19 -45t45 -19t45 19t19 45t-19 45t-45 19t-45 -19t-19 -45zM36 429v-14h67v-401h-67v-14h256v14h-67v415h-189z" />
    <glyph glyph-name="ntilde" unicode="&#xf1;" horiz-adv-x="630" 
d="M173 569l12 27q5 11 13 15.5t15 4.5q12 0 33 -6.5t45 -14t46.5 -14t37.5 -6.5q23 0 39.5 13t28 31.5t18.5 38.5t10 33h-14q0 -2 -2.5 -9.5t-7.5 -15.5t-12.5 -14.5t-17.5 -6.5q-4 0 -27 6.5t-50 14t-51 13.5t-31 6q-11 0 -26.5 -5t-24.5 -13q-7 -6 -12.5 -13.5
t-10.5 -18.5t-11 -27t-14 -39h14zM42 14v-14h251v14h-63v214q0 46 10 80t26.5 57t38.5 34.5t46 11.5q29 0 46 -19.5t17 -61.5v-316h-62v-14h251v14h-67v282q0 66 -36.5 104t-102.5 38q-45 0 -75 -13.5t-49 -31.5t-29 -36.5t-14 -27.5h-2v100h-186v-14h66v-401h-66z" />
    <glyph glyph-name="oacute" unicode="&#xf3;" 
d="M323 705l-88 -176h13l141 150q6 7 7.5 15t1.5 12q0 15 -12.5 22.5t-20.5 7.5q-20 0 -28.5 -10t-13.5 -21zM278 0q-39 0 -61 18.5t-32.5 48.5t-13 69t-2.5 79t2.5 78.5t13 68.5t32.5 48.5t61 18.5t61 -18.5t32.5 -48.5t13 -68.5t2.5 -78.5t-2.5 -79t-13 -69t-32.5 -48.5
t-61 -18.5zM278 443q-52 0 -96.5 -18.5t-77.5 -49.5t-51.5 -72.5t-18.5 -87.5q0 -47 18.5 -88.5t51.5 -72.5t77.5 -49t96.5 -18t96.5 18t77.5 49t51.5 72.5t18.5 88.5q0 46 -18.5 87.5t-51.5 72.5t-77.5 49.5t-96.5 18.5z" />
    <glyph glyph-name="ograve" unicode="&#xf2;" 
d="M321 529l-88 176q-5 11 -13.5 21t-28.5 10q-8 0 -20.5 -7.5t-12.5 -22.5q0 -4 1.5 -12t7.5 -15l141 -150h13zM278 0q-39 0 -61 18.5t-32.5 48.5t-13 69t-2.5 79t2.5 78.5t13 68.5t32.5 48.5t61 18.5t61 -18.5t32.5 -48.5t13 -68.5t2.5 -78.5t-2.5 -79t-13 -69
t-32.5 -48.5t-61 -18.5zM278 443q-52 0 -96.5 -18.5t-77.5 -49.5t-51.5 -72.5t-18.5 -87.5q0 -47 18.5 -88.5t51.5 -72.5t77.5 -49t96.5 -18t96.5 18t77.5 49t51.5 72.5t18.5 88.5q0 46 -18.5 87.5t-51.5 72.5t-77.5 49.5t-96.5 18.5z" />
    <glyph glyph-name="ocircumflex" unicode="&#xf4;" 
d="M242 726l-109 -197h12l133 127l133 -127h12l-108 197h-73zM278 0q-39 0 -61 18.5t-32.5 48.5t-13 69t-2.5 79t2.5 78.5t13 68.5t32.5 48.5t61 18.5t61 -18.5t32.5 -48.5t13 -68.5t2.5 -78.5t-2.5 -79t-13 -69t-32.5 -48.5t-61 -18.5zM278 443q-52 0 -96.5 -18.5
t-77.5 -49.5t-51.5 -72.5t-18.5 -87.5q0 -47 18.5 -88.5t51.5 -72.5t77.5 -49t96.5 -18t96.5 18t77.5 49t51.5 72.5t18.5 88.5q0 46 -18.5 87.5t-51.5 72.5t-77.5 49.5t-96.5 18.5z" />
    <glyph glyph-name="odieresis" unicode="&#xf6;" 
d="M301 644q0 -26 19 -45t45 -19t45 19t19 45t-19 45t-45 19t-45 -19t-19 -45zM127 644q0 -26 19 -45t45 -19t45 19t19 45t-19 45t-45 19t-45 -19t-19 -45zM278 0q-39 0 -61 18.5t-32.5 48.5t-13 69t-2.5 79t2.5 78.5t13 68.5t32.5 48.5t61 18.5t61 -18.5t32.5 -48.5
t13 -68.5t2.5 -78.5t-2.5 -79t-13 -69t-32.5 -48.5t-61 -18.5zM278 443q-52 0 -96.5 -18.5t-77.5 -49.5t-51.5 -72.5t-18.5 -87.5q0 -47 18.5 -88.5t51.5 -72.5t77.5 -49t96.5 -18t96.5 18t77.5 49t51.5 72.5t18.5 88.5q0 46 -18.5 87.5t-51.5 72.5t-77.5 49.5t-96.5 18.5z
" />
    <glyph glyph-name="otilde" unicode="&#xf5;" 
d="M136 569l12 27q5 11 13 15.5t15 4.5q12 0 33 -6.5t45 -14t46.5 -14t37.5 -6.5q23 0 39.5 13t28 31.5t18.5 38.5t10 33h-14q0 -2 -2.5 -9.5t-7.5 -15.5t-12.5 -14.5t-17.5 -6.5q-4 0 -27 6.5t-50 14t-51 13.5t-31 6q-11 0 -26.5 -5t-24.5 -13q-7 -6 -12.5 -13.5
t-10.5 -18.5t-11 -27t-14 -39h14zM278 0q-39 0 -61 18.5t-32.5 48.5t-13 69t-2.5 79t2.5 78.5t13 68.5t32.5 48.5t61 18.5t61 -18.5t32.5 -48.5t13 -68.5t2.5 -78.5t-2.5 -79t-13 -69t-32.5 -48.5t-61 -18.5zM278 443q-52 0 -96.5 -18.5t-77.5 -49.5t-51.5 -72.5
t-18.5 -87.5q0 -47 18.5 -88.5t51.5 -72.5t77.5 -49t96.5 -18t96.5 18t77.5 49t51.5 72.5t18.5 88.5q0 46 -18.5 87.5t-51.5 72.5t-77.5 49.5t-96.5 18.5z" />
    <glyph glyph-name="uacute" unicode="&#xfa;" horiz-adv-x="611" 
d="M351 705l-88 -176h13l141 150q6 7 7.5 15t1.5 12q0 15 -12.5 22.5t-20.5 7.5q-20 0 -28.5 -10t-13.5 -21zM27 429v-14h67v-289q0 -73 37 -103.5t107 -30.5q22 0 45 5.5t43.5 17t36.5 28t24 38.5h2v-81h186v14h-66v415h-188v-14h66v-258q0 -27 -7.5 -52t-21 -43.5
t-32.5 -29.5t-42 -11q-38 0 -53 26.5t-15 64.5v317h-189z" />
    <glyph glyph-name="ugrave" unicode="&#xf9;" horiz-adv-x="611" 
d="M349 529l-88 176q-5 11 -13.5 21t-28.5 10q-8 0 -20.5 -7.5t-12.5 -22.5q0 -4 1.5 -12t7.5 -15l141 -150h13zM27 429v-14h67v-289q0 -73 37 -103.5t107 -30.5q22 0 45 5.5t43.5 17t36.5 28t24 38.5h2v-81h186v14h-66v415h-188v-14h66v-258q0 -27 -7.5 -52t-21 -43.5
t-32.5 -29.5t-42 -11q-38 0 -53 26.5t-15 64.5v317h-189z" />
    <glyph glyph-name="ucircumflex" unicode="&#xfb;" horiz-adv-x="611" 
d="M270 726l-109 -197h12l133 127l133 -127h12l-108 197h-73zM27 429v-14h67v-289q0 -73 37 -103.5t107 -30.5q22 0 45 5.5t43.5 17t36.5 28t24 38.5h2v-81h186v14h-66v415h-188v-14h66v-258q0 -27 -7.5 -52t-21 -43.5t-32.5 -29.5t-42 -11q-38 0 -53 26.5t-15 64.5v317
h-189z" />
    <glyph glyph-name="udieresis" unicode="&#xfc;" horiz-adv-x="611" 
d="M325 644q0 -26 19 -45t45 -19t45 19t19 45t-19 45t-45 19t-45 -19t-19 -45zM151 644q0 -26 19 -45t45 -19t45 19t19 45t-19 45t-45 19t-45 -19t-19 -45zM27 429v-14h67v-289q0 -73 37 -103.5t107 -30.5q22 0 45 5.5t43.5 17t36.5 28t24 38.5h2v-81h186v14h-66v415h-188
v-14h66v-258q0 -27 -7.5 -52t-21 -43.5t-32.5 -29.5t-42 -11q-38 0 -53 26.5t-15 64.5v317h-189z" />
    <glyph glyph-name="dagger" unicode="&#x2020;" 
d="M211 667q0 -7 1 -13t4 -14.5t9.5 -21.5t17.5 -34q10 -21 15.5 -35.5t8 -27.5t3 -26t0.5 -31q-20 0 -43.5 1.5t-40.5 12.5q-5 3 -15 10.5t-22 15t-25 13t-24 5.5q-29 0 -47.5 -19.5t-18.5 -45.5q0 -24 17 -44.5t46 -20.5q12 0 20.5 3t16 7.5t15 10t17.5 11.5
q15 9 27.5 14.5t24.5 8t24.5 3t27.5 0.5q0 -31 -2 -65.5t-10.5 -66.5t-24.5 -58.5t-43 -43.5q10 -8 24 -21t26.5 -37t21 -61t8.5 -94v-282h17v282q0 57 8.5 94t21 61t26.5 37t24 21q-27 17 -43 43.5t-24.5 58.5t-10.5 66.5t-2 65.5q15 0 27 -0.5t23.5 -3.5t24 -8t28.5 -14
q10 -6 17.5 -11.5t15 -10t16 -7.5t20.5 -3q29 0 46 20.5t17 44.5q0 26 -18.5 45.5t-47.5 19.5q-11 0 -24 -5.5t-25 -13t-22 -15t-15 -10.5q-17 -11 -40.5 -12.5t-42.5 -1.5q0 18 0.5 31t3 26t8 27.5t15.5 35.5q11 21 17.5 34t9.5 21.5t4 14.5t1 13q0 9 -3.5 19.5t-11.5 19.5
t-20.5 15.5t-31.5 6.5t-32 -6.5t-21 -15.5t-11.5 -19.5t-3.5 -19.5z" />
    <glyph glyph-name="degree" unicode="&#xb0;" horiz-adv-x="400" 
d="M85 593q0 24 9 45t24.5 36.5t36.5 24.5t45 9t45 -9t36.5 -24.5t24.5 -36.5t9 -45t-9 -45t-24.5 -36.5t-36.5 -24.5t-45 -9t-45 9t-36.5 24.5t-24.5 36.5t-9 45zM65 593q0 -28 10.5 -52.5t29 -43t43 -29t52.5 -10.5t52.5 10.5t43 29t29 43t10.5 52.5t-10.5 52.5t-29 43
t-43 29t-52.5 10.5t-52.5 -10.5t-43 -29t-29 -43t-10.5 -52.5z" />
    <glyph glyph-name="cent" unicode="&#xa2;" horiz-adv-x="520" 
d="M324 422l-107 -378q-23 32 -28.5 80.5t-5.5 96.5q0 42 3.5 79.5t15 66t32.5 45.5t57 17q23 0 33 -7zM205 1l-27 -92l14 -3l26 92q25 -7 45 -9t32 -2q48 0 79.5 13t51.5 31.5t30.5 40t15.5 39.5l-14 5q-2 -9 -10.5 -28.5t-25.5 -39t-45 -34t-69 -14.5q-27 0 -46.5 8
t-33.5 22l109 386q15 -12 15 -30q0 -4 -2.5 -14t-5 -21t-5 -21t-2.5 -14q0 -27 19.5 -35.5t42.5 -8.5q31 0 48 13.5t17 46.5q0 42 -33 69.5t-87 37.5l23 82l-14 3l-24 -84q-8 2 -17 2.5t-18 0.5q-60 0 -105.5 -22t-77 -55.5t-47.5 -73.5t-16 -77q0 -46 14.5 -82t37 -62.5
t50.5 -43.5t55 -26z" />
    <glyph glyph-name="sterling" unicode="&#xa3;" horiz-adv-x="592" 
d="M216 67q-19 -25 -37.5 -39t-55.5 -14q-26 0 -45 14t-19 37q0 26 17 40t40 14q11 0 21 -2t21 -7.5t25 -15.5t33 -27zM38 391v-14h104q24 -46 41 -79t28 -59.5t16 -49t5 -47.5q0 -12 -3 -24q-29 6 -49 10.5t-47 4.5q-14 0 -29.5 -2.5t-28.5 -10t-21.5 -20.5t-8.5 -34
q0 -18 7 -31t18 -20.5t25 -11t28 -3.5q40 0 61.5 16t41.5 42l36 -26t37.5 -23t41 -16t46.5 -6q38 0 65.5 16.5t47 40.5t32.5 51t22 49l-13 4q-9 -14 -16.5 -23t-20.5 -14.5t-34 -7.5t-59 -2q-28 0 -51 1t-42.5 3.5t-37.5 5t-36 5.5q3 20 5 37.5t2 32.5t-2 43t-4 57.5
t-4.5 55t-3.5 35.5h155v14h-154q-1 5 -2 17t-2 27t-1 31v30v27q0 33 4.5 67t17 61.5t36 45t62.5 17.5q30 0 45 -15t15 -32q0 -20 -4.5 -40.5t-4.5 -31.5q0 -17 7 -26t16.5 -13.5t19.5 -5t15 -0.5q28 0 44.5 10.5t16.5 41.5q0 18 -10 40t-32 41t-55 32t-80 13
q-45 0 -89.5 -15t-79.5 -43t-57 -67.5t-22 -87.5q0 -17 6 -50.5t30 -73.5h-96z" />
    <glyph glyph-name="section" unicode="&#xa7;" 
d="M116 317q0 29 17 48.5t38 38.5q43 -32 92.5 -62t97.5 -60q31 -20 51 -44.5t20 -59.5q0 -19 -5.5 -34t-13 -26t-16.5 -19t-15 -13l-56 37l-120 75q-15 9 -31 21.5t-29 27.5t-21.5 33t-8.5 37zM406 397l-134 84q-15 9 -30.5 21.5t-27.5 27.5t-20 32.5t-8 37.5q0 11 4.5 30
t18 38t38 32.5t63.5 13.5q12 0 24.5 -2t23.5 -7.5t18 -14t7 -22.5q0 -11 -3.5 -19t-7.5 -16t-7.5 -16t-3.5 -19q0 -15 6.5 -23.5t16 -12.5t19 -4.5t15.5 -0.5q21 0 32 6t16 15t6 19t1 18q0 27 -12 48t-33.5 35.5t-50 22t-61.5 7.5q-54 0 -94.5 -17t-67.5 -44t-40.5 -60
t-13.5 -65q0 -50 19 -79.5t41 -50.5q-11 -8 -27.5 -22.5t-31.5 -36t-26 -49t-11 -60.5q0 -56 23 -92t73 -67l136 -82q42 -24 66.5 -52.5t24.5 -75.5q0 -22 -7 -46.5t-22.5 -45.5t-40 -34.5t-59.5 -13.5q-37 0 -64.5 17t-27.5 47q0 10 3.5 18.5t8 16.5t8 16.5t3.5 19.5
q0 23 -18 31.5t-36 8.5q-63 0 -63 -56q0 -17 7.5 -39.5t28 -43.5t56 -35.5t91.5 -14.5q54 0 95.5 20t69 50t42 65.5t14.5 66.5q0 29 -6.5 51.5t-17.5 41t-26 33.5t-32 29q16 14 33 32t31.5 40.5t24 49.5t9.5 59q0 30 -9 52.5t-22 39t-28 27.5t-27 19z" />
    <glyph glyph-name="bullet" unicode="&#x2022;" horiz-adv-x="500" 
d="M72 356q0 -37 14 -69.5t38 -56.5t56.5 -38t69.5 -14t69.5 14t56.5 38t38 56.5t14 69.5t-14 69.5t-38 56.5t-56.5 38t-69.5 14t-69.5 -14t-56.5 -38t-38 -56.5t-14 -69.5z" />
    <glyph glyph-name="paragraph" unicode="&#xb6;" horiz-adv-x="593" 
d="M384 698v-551q0 -72 -6.5 -119.5t-16.5 -77.5t-22.5 -47t-24.5 -28q-17 -16 -33.5 -25t-31.5 -13.5t-27.5 -5.5t-21.5 -1q39 9 62 32.5t34.5 62.5t14.5 94t3 128v551h70zM558 712h-244q-50 0 -92 -6t-92 -28q-45 -20 -74.5 -67.5t-29.5 -107.5q0 -33 9.5 -63t26.5 -55
t39.5 -43.5t48.5 -28.5q42 -16 79.5 -19.5t69.5 -4.5v-142q0 -21 -0.5 -51.5t-2.5 -63t-6 -63t-12 -49.5q-9 -24 -20.5 -38.5t-22 -22t-18.5 -10t-11 -2.5q-6 0 -7.5 3.5t-1.5 4.5q0 2 2.5 10t3.5 10q6 17 7.5 26.5t1.5 14.5q0 13 -6.5 20.5t-15 11t-17.5 4.5t-14 1
q-25 0 -44.5 -13t-19.5 -43q0 -7 3 -20.5t13.5 -27t31.5 -23.5t57 -10q13 0 34 2t46 8t52.5 18t54.5 32q59 44 81.5 111.5t22.5 159.5v551h67v14z" />
    <glyph glyph-name="germandbls" unicode="&#xdf;" horiz-adv-x="648" 
d="M34 14v-14h189v542q0 31 5 61t20 53t42 37.5t71 14.5q16 0 34 -5.5t33 -18t25 -33t10 -50.5q0 -44 -23 -73.5t-51 -54.5t-51 -50t-23 -59q0 -27 15 -49.5t37 -43.5t48 -41t48 -41.5t37 -46t15 -53.5q0 -10 -4 -25.5t-15 -29.5t-30 -24t-50 -10q-16 0 -29 6.5t-13 24.5
q0 11 5.5 30.5t5.5 31.5q0 20 -17 29t-34 9q-24 0 -43 -14t-19 -40q0 -27 13.5 -44.5t33.5 -27.5t44.5 -14t45.5 -4q41 0 76.5 12.5t62 35t42 53t15.5 65.5t-14.5 62t-36 49.5t-47 41.5t-47 38t-36 39t-14.5 45q0 20 11.5 37t25 37t25 45t11.5 61q0 14 -5 34.5t-21.5 39.5
t-46.5 32.5t-80 13.5q-48 0 -92.5 -15t-79.5 -49q-35 -35 -46 -72t-11 -85v-493h-67z" />
    <glyph glyph-name="registered" unicode="&#xae;" horiz-adv-x="490" 
d="M227 556v85q3 0 6 0.5t6 0.5q21 0 28 -11t7 -35q0 -16 -5.5 -28t-30.5 -12h-11zM70 542q0 36 13.5 68t37.5 56t56 38t68 14t68 -14t56 -38t38 -56t14 -68t-14 -68t-38 -55.5t-56 -37.5t-68 -14t-68 14t-56 37.5t-37.5 55.5t-13.5 68zM187 641v-188h-26v-4h91v4h-25v99h18
q13 0 20 -5t10.5 -13.5t4.5 -19t2 -21.5q0 -7 1 -15.5t5 -15.5t12.5 -12t23.5 -5t21 3.5t12 9.5l-3 2q-3 -2 -6.5 -5.5t-9.5 -3.5q-9 0 -11 9.5t-5 44.5q-2 30 -17.5 37.5t-42.5 12.5v1q19 2 36.5 11t17.5 32q0 14 -6.5 23t-16 14t-21.5 7.5t-23 2.5t-23 -0.5t-23 -0.5h-42
v-4h26zM60 542q0 -38 14.5 -72t39.5 -59t59 -39.5t72 -14.5t72 14.5t59.5 39.5t40 59t14.5 72t-14.5 72t-40 59.5t-59.5 40t-72 14.5t-72 -14.5t-59 -40t-39.5 -59.5t-14.5 -72z" />
    <glyph glyph-name="copyright" unicode="&#xa9;" horiz-adv-x="833" 
d="M571 150v126h-10q-5 -24 -16 -47t-28 -40.5t-39 -28.5t-48 -11q-34 0 -58 10t-39.5 32.5t-22.5 59.5t-7 92q0 60 4.5 104t18 72.5t38.5 42.5t66 14q32 0 54 -11.5t36.5 -29.5t23.5 -40t15 -42h8v121h-10q-2 -8 -5.5 -10t-11.5 -2q-17 0 -45 11t-66 11t-78 -16t-72.5 -45
t-53 -70t-20.5 -92q0 -46 18.5 -86t49.5 -70t71.5 -47t84.5 -17q19 0 36.5 3.5t32.5 7.5t26 7.5t18 3.5q15 0 19 -13h10zM65 357q0 72 27.5 136t75 112t111.5 75.5t137 27.5q72 0 136 -27.5t112 -75.5t75.5 -112t27.5 -136t-27.5 -136t-75.5 -112t-112 -75.5t-136 -27.5
q-73 0 -137 27.5t-111.5 75.5t-75 112t-27.5 136zM45 357q0 -77 29 -144.5t79.5 -117.5t118 -79t144.5 -29t144.5 29t117.5 79t79.5 117.5t29.5 144.5t-29.5 144.5t-79.5 117.5t-117.5 79.5t-144.5 29.5t-144.5 -29.5t-118 -79.5t-79.5 -117.5t-29 -144.5z" />
    <glyph glyph-name="trademark" unicode="&#x2122;" horiz-adv-x="981" 
d="M474 701v-368h-48v-11h109v11h-48v357l134 -368h11l134 368v-357h-48v-11h180v11h-48v368h48v11h-138l-96 -265l-95 265h-143v-11h48zM185 701v-368h-51v-11h186v11h-51v368q17 0 34 -1.5t32.5 -10.5t28.5 -27.5t21 -53.5h11v104h-338v-104h11q8 35 21 53.5t28.5 27.5
t32.5 10.5t34 1.5z" />
    <glyph glyph-name="acute" unicode="&#xb4;" horiz-adv-x="278" 
d="M184 705l-88 -176h13l141 150q6 7 7.5 15t1.5 12q0 15 -12.5 22.5t-20.5 7.5q-20 0 -28.5 -10t-13.5 -21z" />
    <glyph glyph-name="dieresis" unicode="&#xa8;" horiz-adv-x="278" 
d="M162 644q0 -26 19 -45t45 -19t45 19t19 45t-19 45t-45 19t-45 -19t-19 -45zM-11 644q0 -26 18.5 -45t44.5 -19t45 19t19 45t-19 45t-45 19t-44.5 -19t-18.5 -45z" />
    <glyph glyph-name="notequal" unicode="&#x2260;" horiz-adv-x="549" 
d="M12 399v-45h278l-71 -181h-207v-46h189l-102 -257h39l103 257h296v46h-278l70 181h208v45h-190l101 261h-39l-103 -261h-294z" />
    <glyph glyph-name="AE" unicode="&#xc6;" horiz-adv-x="981" 
d="M263 389l178 309h2v-309h-180zM-30 14v-14h175v14h-99l209 361h188v-361h-92v-14h570v219h-13q-10 -43 -29 -80.5t-47.5 -65.5t-65.5 -43.5t-83 -15.5h-95v361h30q35 0 58.5 -12t39.5 -32.5t25.5 -47.5t16.5 -56h13v311h-13q-7 -34 -18 -61.5t-28 -47t-42.5 -30
t-62.5 -10.5h-19v309h107q49 0 83 -18.5t55.5 -43.5t33.5 -51.5t17 -43.5h13v171h-566v-14h93l-395 -684h-59z" />
    <glyph glyph-name="Oslash" unicode="&#xd8;" horiz-adv-x="833" 
d="M238 33l-52 -100l14 -7l51 99q78 -39 166 -39q75 0 142.5 29.5t119 80.5t82 118.5t30.5 142.5q0 59 -15.5 109t-42.5 91.5t-63.5 73.5t-78.5 54l49 96l-14 7l-49 -97q-78 37 -160 37q-64 0 -131 -26.5t-121 -75.5t-88.5 -118t-34.5 -154q0 -53 14.5 -101t40.5 -89.5
t62 -74.5t79 -56zM267 56l306 595q19 -24 30 -55.5t16.5 -68.5t7 -78.5t1.5 -85.5q0 -78 -5.5 -144.5t-26.5 -115t-63 -76t-116 -27.5q-51 0 -87.5 12t-62.5 44zM562 663l-305 -593q-27 42 -39.5 110t-12.5 174q0 79 7 145t29 114t64 74.5t112 26.5q51 0 86 -13t59 -38z" />
    <glyph glyph-name="infinity" unicode="&#x221e;" horiz-adv-x="713" 
d="M319 326q-38 68 -69 89q-31 22 -74 22q-60 0 -105 -49t-45 -130t49 -130q48 -50 118 -50q53 0 90 26.5t69 87.5q47 -81 74 -104q42 -36 90 -36q66 0 118 58q53 59 53 147q0 92 -54 147q-55 57 -133 57q-68 0 -109 -30q-39 -28 -72 -105zM366 227q37 99 51 124
q20 38 45 55t59 17q53 0 95 -47q43 -46 43 -119q0 -36 -11 -65.5t-29.5 -50t-44.5 -32t-56 -11.5q-22 0 -42 5.5t-38.5 20t-36 39.5t-35.5 64zM305 288q-35 -103 -58 -130q-36 -42 -82 -42q-43 0 -78 39q-34 37 -34 104q0 30 9.5 55t25.5 42.5t38.5 27t47.5 9.5
q45 0 76 -25.5t55 -79.5z" />
    <glyph glyph-name="plusminus" unicode="&#xb1;" horiz-adv-x="593" 
d="M56 18v-18h480v18h-480zM286 263v-197h20v197h230v18h-230v199h-20v-199h-230v-18h230z" />
    <glyph glyph-name="lessequal" unicode="&#x2264;" horiz-adv-x="549" 
d="M536 120v50l-464 193l464 192v50l-524 -222v-40zM12 -33v-45h525v45h-525z" />
    <glyph glyph-name="greaterequal" unicode="&#x2265;" horiz-adv-x="549" 
d="M12 605v-50l464 -193l-464 -192v-50l524 222v40zM12 -33v-45h525v45h-525z" />
    <glyph glyph-name="yen" unicode="&#xa5;" 
d="M226 281v-267h-92v-14h325v14h-93v267h179v17h-178l37 105h141v17h-136l97 278h84v14h-188v-14h87l-135 -377l-157 377h79v14h-309v-14h77l124 -278h-120v-17h127l47 -105h-174v-17h178z" />
    <glyph glyph-name="mu" unicode="&#xb5;" horiz-adv-x="611" 
d="M94 415v-694h122v296q12 -12 25 -17t31 -5q31 0 64.5 24t50.5 62h2v-81h186v14h-66v415h-188v-14h66v-258q0 -27 -7.5 -52t-21 -43.5t-32.5 -29.5t-42 -11q-38 0 -53 26.5t-15 64.5v317h-189v-14h67z" />
    <glyph glyph-name="partialdiff" unicode="&#x2202;" horiz-adv-x="494" 
d="M454 350q-13 27 -27 41q-21 22 -53.5 37t-72.5 15q-57 0 -113 -29q-30 -15 -58.5 -42t-50 -62t-35 -76.5t-13.5 -85.5q0 -75 45 -118.5t121 -43.5q129 0 214 153q75 137 75 310q1 68 -14.5 114.5t-41 75t-58 41.5t-65.5 14q-61 0 -104.5 -34.5t-81.5 -112.5h23
q26 39 60.5 58.5t86.5 19.5q76 0 122 -48t46 -136q0 -18 -1.5 -40.5t-3.5 -50.5zM445 307q-34 -151 -113 -231q-63 -63 -123 -63q-42 0 -68.5 30t-26.5 85q0 78 31 152q31 76 73 106q43 31 87 31q46 0 83.5 -28t56.5 -82z" />
    <glyph glyph-name="summation" unicode="&#x2211;" horiz-adv-x="713" 
d="M662 -214l31 202l-19 4q-12 -51 -30.5 -74.5t-46.5 -32.5q-38 -13 -75 -13h-399l307 412l-274 370h361q54 0 84 -29t38 -96h19l-13 164h-624v-18l327 -433l-327 -438v-18h641z" />
    <glyph glyph-name="product" unicode="&#x220f;" horiz-adv-x="823" 
d="M605 655v-775q0 -42 -18 -59t-61 -17h-17v-18h292v18h-17q-43 0 -61 17t-18 59v720q0 40 18 57.5t61 17.5h17v18h-779v-18h18q43 0 61 -17.5t18 -57.5v-720q0 -42 -18 -59t-61 -17h-18v-18h292v18h-18q-43 0 -61 17t-18 59v775h388z" />
    <glyph glyph-name="integral" unicode="&#x222b;" horiz-adv-x="274" 
d="M106 721l-8 -284q0 -93 6 -215q5 -94 12 -165q2 -19 3.5 -33.5t1.5 -23.5q0 -30 -19 -30q-10 0 -25 16q-14 14 -33 14t-31.5 -12.5t-12.5 -34.5q0 -26 16 -42.5t42 -16.5q40 0 65 33q39 50 44 193q4 129 6 200t2 88q0 123 -18 324q-2 26 -3.5 43.5t-1.5 27.5q0 17 6 24
t14 7q9 0 19 -10q20 -17 38 -17q19 0 31.5 13.5t12.5 36.5q0 20 -18 36.5t-43 16.5q-22 0 -45 -16t-36 -49q-10 -24 -16.5 -55t-8.5 -69z" />
    <glyph glyph-name="ordfeminine" unicode="&#xaa;" horiz-adv-x="311" 
d="M185 602v-84q0 -23 -10 -38.5t-31 -15.5q-26 0 -31 19t-5 43q0 33 14.5 44.5t30.5 17.5q13 5 20 7.5t12 6.5zM266 495v149q0 9 -2 23t-12.5 27.5t-33 23.5t-64.5 10q-57 0 -84.5 -20t-27.5 -48q0 -15 9.5 -23.5t25.5 -8.5q17 0 30.5 4.5t13.5 27.5q0 3 -2 14.5t-2 15.5
q0 19 12.5 23t21.5 4q36 0 36 -34v-43q0 -29 -27 -37l-49 -14q-29 -8 -46.5 -16.5t-27 -18t-12.5 -19.5t-3 -21q0 -19 9 -31.5t23.5 -19.5t32.5 -10t36 -3q35 0 49.5 14.5t18.5 24.5q3 -11 17.5 -25t48.5 -14q15 0 25 2t16.5 5t10.5 7.5t8 9.5l-9 9q-3 -5 -9 -12t-15 -7
q-11 0 -14.5 11.5t-3.5 19.5z" />
    <glyph glyph-name="ordmasculine" unicode="&#xba;" horiz-adv-x="334" 
d="M167 461q-24 0 -37.5 10.5t-19.5 28.5t-7 41t-1 48t1 48t7 41t19.5 28.5t37.5 10.5t37.5 -10.5t19.5 -28.5t7 -41t1 -48t-1 -48t-7 -41t-19.5 -28.5t-37.5 -10.5zM321 589q0 29 -12.5 54.5t-34 44t-49.5 29.5t-58 11t-58 -11t-49.5 -29.5t-34 -44t-12.5 -54.5t12.5 -54.5
t34 -44t49.5 -29.5t58 -11t58 11t49.5 29.5t34 44t12.5 54.5z" />
    <glyph glyph-name="ae" unicode="&#xe6;" horiz-adv-x="741" 
d="M566 265h-144q1 26 3 54.5t9.5 53t23 40.5t43.5 16q24 0 37.5 -11t19.5 -27t7 -32t1 -27v-67zM300 248v-132q0 -29 -7 -49.5t-18 -33t-24.5 -18.5t-26.5 -6q-23 0 -36 10.5t-19.5 25.5t-8 31t-1.5 28q0 32 10 50.5t26.5 30.5t37.5 21.5t42 23.5q6 4 13.5 8t9.5 10h2z
M31 86q0 -28 13 -47.5t34 -30.5t46 -16t49 -5q42 0 68.5 10t41.5 25.5t21 35.5t8 40h2q26 -61 79 -86t125 -25q44 0 75 12.5t52 31t33 40t17 40.5l-14 5q-1 -9 -9.5 -28t-26 -38.5t-45 -34.5t-67.5 -15q-39 0 -61 19t-33 48.5t-14 66t-3 72.5v45h279q0 51 -18 87.5
t-45.5 59.5t-62 34t-67.5 11t-63.5 -12t-55.5 -32q-12 9 -25.5 17t-31 14t-40 9.5t-53.5 3.5q-33 0 -63.5 -7t-54.5 -20.5t-38.5 -34t-14.5 -46.5q0 -17 5.5 -27t13.5 -15.5t18.5 -7t20.5 -1.5q7 0 17.5 0.5t20 4.5t16.5 12.5t7 23.5q0 3 -1 11t-2 17t-2 16.5t-1 10.5
q0 28 17 38.5t40 10.5q22 0 34.5 -7t18.5 -16.5t7.5 -19.5t1.5 -16v-73q0 -19 -5.5 -31t-20.5 -21.5t-41.5 -18t-69.5 -20.5q-25 -8 -48.5 -16.5t-42 -22t-30 -33t-11.5 -48.5z" />
    <glyph glyph-name="oslash" unicode="&#xf8;" 
d="M160 16l-43 -82l14 -6l42 81q45 -22 105 -22q52 0 96.5 18t77.5 49t51.5 72.5t18.5 88.5q0 67 -37 122t-100 82l41 79l-14 6l-41 -79q-43 18 -93 18q-52 0 -96.5 -18.5t-77.5 -49.5t-51.5 -72.5t-18.5 -87.5q0 -64 34.5 -117t91.5 -82zM355 393l-168 -325q-12 29 -15 67
t-3 80q0 40 2.5 78.5t13 68.5t32.5 48.5t61 18.5q28 0 46.5 -9.5t30.5 -26.5zM194 49l170 329q16 -31 19.5 -74t3.5 -89q0 -40 -2.5 -79t-13 -69t-32.5 -48.5t-61 -18.5q-33 0 -53 13t-31 36z" />
    <glyph glyph-name="questiondown" unicode="&#xbf;" horiz-adv-x="444" 
d="M384 372q0 29 -21 50t-50 21t-50 -21t-21 -50t21 -50t50 -21t50 21t21 50zM321 6v235h-17v-205h-2q-8 11 -26.5 22.5t-53.5 11.5q-19 0 -48 -10t-56 -31.5t-46 -56.5t-19 -84q0 -37 11.5 -70t34 -58t56.5 -39.5t78 -14.5q25 0 50.5 6.5t46.5 19.5t34 33.5t13 48.5
q0 26 -17 36.5t-37 10.5q-29 0 -42 -9.5t-13 -35.5q0 -11 3.5 -18t7 -13l7 -12t3.5 -15q0 -14 -12.5 -26t-39.5 -12q-18 0 -30 7.5t-19 25.5t-10 47.5t-3 73.5q0 88 13 133.5t52 45.5q22 0 37 -14.5t27 -32.5h17z" />
    <glyph glyph-name="exclamdown" unicode="&#xa1;" horiz-adv-x="296" 
d="M219 372q0 29 -21 50t-50 21t-50 -21t-21 -50t21 -50t50 -21t50 21t21 50zM206 -164l-48 396h-20l-48 -396q-3 -25 -5 -40t-2 -22q0 -30 18 -49t47 -19t47 19t18 49q0 7 -2 22t-5 40z" />
    <glyph glyph-name="logicalnot" unicode="&#xac;" horiz-adv-x="593" 
d="M516 317v-172h20v190h-480v-18h460z" />
    <glyph glyph-name="radical" unicode="&#x221a;" horiz-adv-x="549" 
d="M512 913l-127 -794l-198 402l-146 -74l16 -31l97 44l242 -497l152 950h-36z" />
    <glyph glyph-name="florin" unicode="&#x192;" 
d="M64 354v-14h124q-11 -109 -15 -214.5t-7 -214.5q-2 -82 -21 -129t-61 -47q-12 0 -19 3t-10.5 7t-4 7.5t-0.5 5.5q0 5 2.5 13t6 16.5t6 16.5t2.5 13q0 17 -14.5 25t-31.5 8q-22 0 -38 -12.5t-16 -36.5q0 -20 10 -35t25.5 -25t34 -15t35.5 -5q41 0 68.5 23.5t47 61
t34.5 84.5t30 93q9 27 18.5 66t17.5 86.5t15.5 100t13.5 104.5h117v14h-116l3 27q1 7 3 30t4.5 50t4.5 52t3 37q3 30 8 59.5t15.5 52.5t28.5 37.5t47 14.5q2 0 8 -0.5t12.5 -3t12 -8t5.5 -14.5t-3 -15.5t-7 -13.5t-7 -15.5t-3 -20.5q0 -39 55 -39q7 0 17 2t19 8t15.5 16
t6.5 25q0 25 -11 42.5t-28.5 29t-39 16.5t-41.5 5q-57 0 -101 -32.5t-75.5 -85t-51 -119.5t-28.5 -137h-126z" />
    <glyph glyph-name="approxequal" unicode="&#x2248;" horiz-adv-x="549" 
d="M535 507h-21q-5 -45 -30 -68t-62 -23q-18 0 -32 3q-14 4 -33 11t-44 18q-46 20 -81 33t-61 20q-20 7 -43 7q-21 -1 -41.5 -10t-36.5 -26t-25.5 -41t-9.5 -56h21q9 46 32.5 67.5t57.5 21.5t108 -31q54 -22 87.5 -35t46.5 -17q22 -7 49 -7q48 0 82 35t36 98zM535 267h-21
q-5 -45 -30 -68t-62 -23q-21 0 -32 4q-14 4 -33.5 10.5t-43.5 17.5q-94 40 -142 54q-22 6 -44 6q-22 -1 -42 -10t-35.5 -25.5t-25 -41t-9.5 -57.5h21q9 48 32.5 69t57.5 21t108 -31l109 -45q51 -15 74 -15q48 0 82 35.5t36 98.5z" />
    <glyph glyph-name="Delta" unicode="&#x2206;" horiz-adv-x="612" 
d="M599 0l-280 677l-306 -677h586zM483 40h-409l215 472z" />
    <glyph glyph-name="guillemotleft" unicode="&#xab;" horiz-adv-x="444" 
d="M397 344l-3 12q-19 -4 -48 -12t-56 -23.5t-46.5 -41t-19.5 -64.5q0 -38 18.5 -63.5t45.5 -41t56 -24t50 -12.5l3 12q-19 5 -33.5 12t-24.5 21t-15.5 37t-5.5 59q0 41 7 64.5t18.5 36.5t25.5 18.5t28 9.5zM220 344l-3 12q-19 -4 -48 -12t-56 -23.5t-46.5 -41t-19.5 -64.5
q0 -38 18.5 -63.5t45.5 -41t56 -24t50 -12.5l3 12q-19 5 -33.5 12t-24.5 21t-15.5 37t-5.5 59q0 41 7 64.5t18.5 36.5t25.5 18.5t28 9.5z" />
    <glyph glyph-name="guillemotright" unicode="&#xbb;" horiz-adv-x="444" 
d="M47 86l3 -12q19 4 48 12t56 23.5t46.5 41t19.5 64.5t-18.5 64t-45.5 40.5t-56 23.5t-50 13l-3 -12q19 -5 33.5 -12t24.5 -21t15.5 -37t5.5 -59q0 -40 -7 -64t-18.5 -37t-25.5 -18.5t-28 -9.5zM224 86l3 -12q19 4 48 12t56 23.5t46.5 41t19.5 64.5t-18.5 64t-45.5 40.5
t-56 23.5t-50 13l-3 -12q19 -5 33.5 -12t24.5 -21t15.5 -37t5.5 -59q0 -40 -7 -64t-18.5 -37t-25.5 -18.5t-28 -9.5z" />
    <glyph glyph-name="ellipsis" unicode="&#x2026;" horiz-adv-x="1000" 
d="M762 61q0 -29 21 -49.5t50 -20.5t50 20.5t21 49.5t-21 50t-50 21t-50 -21t-21 -50zM429 61q0 -29 21 -49.5t50 -20.5t50 20.5t21 49.5t-21 50t-50 21t-50 -21t-21 -50zM96 61q0 -29 21 -49.5t50 -20.5t50 20.5t21 49.5t-21 50t-50 21t-50 -21t-21 -50z" />
    <glyph glyph-name="nonbreakingspace" unicode="&#xa0;" horiz-adv-x="278" 
 />
    <glyph glyph-name="Agrave" unicode="&#xc0;" horiz-adv-x="759" 
d="M415 762l-88 176q-5 11 -13.5 21t-28.5 10q-8 0 -20.5 -7.5t-12.5 -22.5q0 -4 1.5 -12t7.5 -15l141 -150h13zM303 569l118 -273h-230zM-25 14v-14h189v14h-89l111 268h240l116 -268h-93v-14h336v14h-86l-315 726h-27l-298 -726h-84z" />
    <glyph glyph-name="Atilde" unicode="&#xc3;" horiz-adv-x="759" 
d="M230 802l12 27q5 11 13 15.5t15 4.5q12 0 33 -6.5t45 -14t46.5 -14t37.5 -6.5q23 0 39.5 13t28 31.5t18.5 38.5t10 33h-14q0 -2 -2.5 -9.5t-7.5 -15.5t-12.5 -14.5t-17.5 -6.5q-4 0 -27 6.5t-50 14t-51 13.5t-31 6q-11 0 -26.5 -5t-24.5 -13q-7 -6 -12.5 -13.5
t-10.5 -18.5t-11 -27t-14 -39h14zM303 569l118 -273h-230zM-25 14v-14h189v14h-89l111 268h240l116 -268h-93v-14h336v14h-86l-315 726h-27l-298 -726h-84z" />
    <glyph glyph-name="Otilde" unicode="&#xd5;" horiz-adv-x="833" 
d="M275 802l12 27q5 11 13 15.5t15 4.5q12 0 33 -6.5t45 -14t46.5 -14t37.5 -6.5q23 0 39.5 13t28 31.5t18.5 38.5t10 33h-14q0 -2 -2.5 -9.5t-7.5 -15.5t-12.5 -14.5t-17.5 -6.5q-4 0 -27 6.5t-50 14t-51 13.5t-31 6q-11 0 -26.5 -5t-24.5 -13q-7 -6 -12.5 -13.5
t-10.5 -18.5t-11 -27t-14 -39h14zM205 354q0 79 7 145t29 114t64 74.5t112 26.5q75 0 117.5 -28.5t63.5 -77t25.5 -112t4.5 -133.5q0 -78 -5.5 -144.5t-26.5 -115t-63 -76t-116 -27.5q-56 0 -96.5 16t-66 56.5t-37.5 109t-12 172.5zM42 354q0 -78 31 -145t82.5 -116.5
t119.5 -78t142 -28.5q75 0 142.5 29.5t119 80.5t82 118.5t30.5 142.5q0 86 -32.5 154.5t-85 116.5t-120 74t-136.5 26q-64 0 -131 -26.5t-121 -75.5t-88.5 -118t-34.5 -154z" />
    <glyph glyph-name="OE" unicode="&#x152;" horiz-adv-x="1093" 
d="M512 695v-678q-14 -3 -38 -6t-47 -3q-60 0 -101 17.5t-66.5 57.5t-36.5 105.5t-11 161.5q0 68 5 132t26 113.5t63.5 79t118.5 29.5q12 0 39 -2.5t48 -6.5zM1059 0v219h-13q-10 -43 -29 -80.5t-47.5 -65.5t-65.5 -43.5t-83 -15.5h-164v361h67q35 0 58.5 -12t39.5 -32.5
t25.5 -47.5t16.5 -56h13v311h-13q-7 -34 -18 -61.5t-28 -47t-42.5 -30t-62.5 -10.5h-56v309h159q49 0 83 -18.5t55.5 -43.5t33.5 -51.5t17 -43.5h13v171h-410q-46 0 -91 3t-91 3q-72 0 -139.5 -28t-120.5 -77.5t-85 -117t-32 -147.5q0 -34 10 -74t30.5 -79t51 -75t72.5 -64
t95.5 -44.5t118.5 -16.5q39 0 78 2.5t78 2.5h476z" />
    <glyph glyph-name="oe" unicode="&#x153;" horiz-adv-x="852" 
d="M681 265h-160q1 26 3.5 54.5t11.5 53t27.5 40.5t52.5 16q24 0 37.5 -11t19.5 -27t7 -32t1 -27v-67zM521 251h295q0 51 -18 87.5t-46 59.5t-62.5 34t-68.5 11q-51 0 -92.5 -20t-72.5 -52q-32 33 -77 52.5t-99 19.5q-52 0 -96.5 -18.5t-77.5 -49.5t-51.5 -72.5t-18.5 -87.5
q0 -47 18.5 -88.5t51.5 -72.5t77.5 -49t96.5 -18q51 0 95 17.5t78 49.5q34 -33 80.5 -50t101.5 -17q43 0 73.5 12.5t51.5 31t33 40t17 40.5l-14 5q-1 -9 -9.5 -28t-26 -38.5t-45 -34.5t-67.5 -15q-45 0 -70 19t-38 48.5t-16 66t-3 72.5v45zM280 0q-39 0 -61 18.5t-32.5 48.5
t-13 69t-2.5 79t2.5 78.5t13 68.5t32.5 48.5t61 18.5t61 -18.5t32.5 -48.5t13 -68.5t2.5 -78.5t-2.5 -79t-13 -69t-32.5 -48.5t-61 -18.5z" />
    <glyph glyph-name="endash" unicode="&#x2013;" horiz-adv-x="500" 
d="M0 225v-14h500v14h-500z" />
    <glyph glyph-name="emdash" unicode="&#x2014;" horiz-adv-x="1000" 
d="M130 225v-14h740v14h-740z" />
    <glyph glyph-name="quotedblleft" unicode="&#x201c;" horiz-adv-x="463" 
d="M400 715l-7 13q-21 -14 -46 -31.5t-46 -40.5t-35.5 -53t-14.5 -69q0 -57 27 -88t65 -31q13 0 26.5 4t24.5 12.5t18 22t7 32.5t-7 32.5t-17 22t-22 12.5t-23 4t-22 -2t-20 -8q-5 5 -10 15t-5 26q0 36 29 64.5t78 62.5zM193 715l-7 13q-21 -14 -46 -31.5t-46 -40.5
t-35.5 -53t-14.5 -69q0 -57 27 -88t65 -31q13 0 26.5 4t24.5 12.5t18 22t7 32.5t-7 32.5t-17 22t-22 12.5t-23 4t-22 -2t-20 -8q-5 5 -10 15t-5 26q0 36 29 64.5t78 62.5z" />
    <glyph glyph-name="quotedblright" unicode="&#x201d;" horiz-adv-x="463" 
d="M63 428l7 -13q21 13 46 30.5t46.5 41t35.5 53.5t14 69q0 57 -27 88t-65 31q-13 0 -26.5 -4t-24.5 -12.5t-18 -22t-7 -32.5t7 -32.5t17 -22t22.5 -12.5t22.5 -4q11 0 22 2t20 8q5 -5 10 -15t5 -26q0 -36 -29 -64.5t-78 -62.5zM270 428l7 -13q21 13 46 30.5t46.5 41
t35.5 53.5t14 69q0 57 -27 88t-65 31q-13 0 -26.5 -4t-24.5 -12.5t-18 -22t-7 -32.5t7 -32.5t17 -22t22.5 -12.5t22.5 -4q11 0 22 2t20 8q5 -5 10 -15t5 -26q0 -36 -29 -64.5t-78 -62.5z" />
    <glyph glyph-name="quoteleft" unicode="&#x2018;" horiz-adv-x="278" 
d="M204 715l-7 13q-21 -14 -46 -31.5t-46 -40.5t-35.5 -53t-14.5 -69q0 -57 27 -88t65 -31q13 0 26.5 4t24.5 12.5t18 22t7 32.5t-7 32.5t-17 22t-22 12.5t-23 4t-22 -2t-20 -8q-5 5 -10 15t-5 26q0 36 29 64.5t78 62.5z" />
    <glyph glyph-name="quoteright" unicode="&#x2019;" horiz-adv-x="278" 
d="M74 428l7 -13q21 13 46 30.5t46.5 41t35.5 53.5t14 69q0 57 -27 88t-65 31q-13 0 -26.5 -4t-24.5 -12.5t-18 -22t-7 -32.5t7 -32.5t17 -22t22.5 -12.5t22.5 -4q11 0 22 2t20 8q5 -5 10 -15t5 -26q0 -36 -29 -64.5t-78 -62.5z" />
    <glyph glyph-name="divide" unicode="&#xf7;" horiz-adv-x="593" 
d="M225 398q0 -29 21 -50t50 -21t50 21t21 50t-21 50t-50 21t-50 -21t-21 -50zM225 82q0 -29 21 -50t50 -21t50 21t21 50t-21 50t-50 21t-50 -21t-21 -50zM56 249v-18h480v18h-480z" />
    <glyph glyph-name="lozenge" unicode="&#x25ca;" horiz-adv-x="494" 
d="M268 694h-54l-191 -348l191 -346h54l204 346zM242 647l175 -301l-175 -300l-166 300z" />
    <glyph glyph-name="ydieresis" unicode="&#xff;" horiz-adv-x="481" 
d="M274 644q0 -26 19 -45t45 -19t45 19t19 45t-19 45t-45 19t-45 -19t-19 -45zM100 644q0 -26 19 -45t45 -19t45 19t19 45t-19 45t-45 19t-45 -19t-19 -45zM299 126l-122 289h70v14h-254v-14h53l188 -450l-43 -107q-7 -18 -16.5 -40t-22 -41.5t-28 -32.5t-33.5 -13
q-8 0 -14 5.5t-6 16.5q0 15 6.5 26t6.5 29q0 21 -17 31.5t-36 10.5q-26 0 -44.5 -13t-18.5 -42q0 -38 28.5 -59.5t73.5 -21.5q42 0 67 21t45 66q20 43 42.5 99.5t52 130.5t69.5 169t96 215h46v14h-145v-14h83z" />
    <glyph glyph-name="Ydieresis" unicode="&#x178;" horiz-adv-x="704" 
d="M405 857q0 -26 19 -45t45 -19t45 19t19 45t-19 45t-45 19t-45 -19t-19 -45zM231 857q0 -26 19 -45t45 -19t45 19t19 45t-19 45t-45 19t-45 -19t-19 -45zM-15 712v-14h78l232 -405v-279h-92v-14h330v14h-93v317l193 367h87v14h-191v-14h87l-184 -349l-204 349h79v14h-322z
" />
    <glyph glyph-name="fraction" unicode="&#x2044;" horiz-adv-x="74" 
d="M215 728l-375 -732l20 -9l375 732z" />
    <glyph glyph-name="Euro" unicode="&#x20ac;" 
d="M530 528v184h-13q0 -16 -9.5 -18.5t-15.5 -2.5q-8 0 -13.5 1.5t-25.5 11.5q-14 6 -37.5 15t-61.5 9q-54 0 -102.5 -20t-83.5 -58q-16 -18 -30 -43t-25 -53t-19 -57.5t-12 -56.5h-64l-6 -17h67q-2 -16 -3 -30.5t-1 -27.5t0.5 -24.5t1.5 -22.5h-58l-7 -17h66q2 -26 8.5 -59
t18 -67t27.5 -65t37 -53q11 -12 27.5 -25t39.5 -23t52.5 -16.5t66.5 -6.5q27 0 41.5 4t33.5 10q29 10 43 15.5t24 5.5q21 0 25 -21h13v192h-13q-4 -19 -15.5 -53t-38.5 -71q-23 -32 -51 -50t-68 -18q-38 0 -60.5 14t-34.5 30q-2 3 -9.5 16.5t-15 42.5t-13.5 77t-5 121h227
l5 17h-232v55v25q0 13 1 25h270l6 17h-276q0 17 1 47t4.5 62.5t10.5 63t20 49.5q15 23 42 37.5t62 14.5q22 0 49 -10.5t53 -39.5q20 -23 38.5 -61t27.5 -75h10z" />
    <glyph glyph-name="guilsinglleft" unicode="&#x2039;" horiz-adv-x="259" 
d="M216 344l-3 12q-19 -4 -48 -12t-56 -23.5t-46.5 -41t-19.5 -64.5q0 -38 18.5 -63.5t45.5 -41t56 -24t50 -12.5l3 12q-19 5 -33.5 12t-24.5 21t-15.5 37t-5.5 59q0 41 7 64.5t18.5 36.5t25.5 18.5t28 9.5z" />
    <glyph glyph-name="guilsinglright" unicode="&#x203a;" horiz-adv-x="259" 
d="M43 86l3 -12q19 4 48 12t56 23.5t46.5 41t19.5 64.5t-18.5 64t-45.5 40.5t-56 23.5t-50 13l-3 -12q19 -5 33.5 -12t24.5 -21t15.5 -37t5.5 -59q0 -40 -7 -64t-18.5 -37t-25.5 -18.5t-28 -9.5z" />
    <glyph glyph-name="daggerdbl" unicode="&#x2021;" 
d="M279 728q-19 0 -32 -6.5t-21 -15.5t-11.5 -19.5t-3.5 -19.5q0 -7 1 -13t4 -14.5t9.5 -21.5t17.5 -34q10 -21 15.5 -35.5t8 -27.5t3 -26t0.5 -31q-20 0 -43.5 1.5t-40.5 12.5q-5 3 -15 10.5t-22 15t-25 13t-24 5.5q-29 0 -47.5 -19.5t-18.5 -45.5q0 -24 17 -44.5t46 -20.5
q12 0 20.5 3t16 7.5t15 10t17.5 11.5q15 9 27.5 14.5t24.5 8t24.5 3t27.5 0.5q0 -31 -2 -65t-10.5 -65t-24.5 -56.5t-43 -39.5q27 -13 43 -39t24.5 -57t10.5 -65t2 -64h-28q-12 0 -24 2.5t-24.5 8t-27.5 14.5q-19 12 -32.5 22t-36.5 10q-29 0 -46 -20.5t-17 -43.5
q0 -26 18.5 -45.5t47.5 -19.5q11 0 24 5.5t25 13t22 15t15 10.5q17 11 40.5 12.5t43.5 1.5q0 -18 -0.5 -31t-3 -26t-8 -27.5t-15.5 -35.5q-11 -21 -17.5 -34t-9.5 -21.5t-4 -14.5t-1 -13q0 -9 3.5 -19.5t11.5 -19.5t21 -15.5t32 -6.5t31.5 6.5t20.5 15.5t11.5 19.5t3.5 19.5
q0 7 -1 13t-4 14.5t-9.5 21.5t-17.5 34q-10 21 -15.5 35.5t-8 27.5t-3 26t-0.5 31q19 0 42.5 -1.5t40.5 -12.5q5 -3 15 -10.5t22 -15t25 -13t24 -5.5q29 0 47.5 19.5t18.5 45.5q0 23 -17 43.5t-46 20.5q-12 0 -20.5 -2.5t-16 -7t-15 -10.5t-17.5 -12q-16 -9 -28.5 -14.5
t-24 -7.5t-23.5 -2.5t-27 -0.5q0 30 2 64t10.5 65t24.5 57t43 39q-27 14 -43 39.5t-24.5 56.5t-10.5 65t-2 65q15 0 27 -0.5t23.5 -3.5t24 -8t28.5 -14q10 -6 17.5 -11.5t15 -10t16 -7.5t20.5 -3q29 0 46 20.5t17 44.5q0 26 -18.5 45.5t-47.5 19.5q-11 0 -24 -5.5t-25 -13
t-22 -15t-15 -10.5q-17 -11 -40.5 -12.5t-42.5 -1.5q0 18 0.5 31t3 26t8 27.5t15.5 35.5q11 21 17.5 34t9.5 21.5t4 14.5t1 13q0 9 -3.5 19.5t-11.5 19.5t-20.5 15.5t-31.5 6.5z" />
    <glyph glyph-name="periodcentered" unicode="&#xb7;" horiz-adv-x="278" 
d="M68 282q0 -29 21 -50t50 -21t50 21t21 50t-21 50t-50 21t-50 -21t-21 -50z" />
    <glyph glyph-name="quotesinglbase" unicode="&#x201a;" horiz-adv-x="278" 
d="M74 -167l7 -13q21 13 46 30.5t46.5 41t35.5 53.5t14 68q0 57 -27 88t-65 31q-13 0 -26.5 -4t-24.5 -12.5t-18 -22t-7 -32.5t7 -32.5t17 -21.5t22.5 -12t22.5 -4q11 0 22 2t20 7q5 -4 10 -14t5 -26q0 -36 -29 -64.5t-78 -62.5z" />
    <glyph glyph-name="quotedblbase" unicode="&#x201e;" horiz-adv-x="463" 
d="M63 -167l7 -13q21 13 46 30.5t46.5 41t35.5 53.5t14 68q0 57 -27 88t-65 31q-13 0 -26.5 -4t-24.5 -12.5t-18 -22t-7 -32.5t7 -32.5t17 -21.5t22.5 -12t22.5 -4q11 0 22 2t20 7q5 -4 10 -14t5 -26q0 -36 -29 -64.5t-78 -62.5zM270 -167l7 -13q21 13 46 30.5t46.5 41
t35.5 53.5t14 68q0 57 -27 88t-65 31q-13 0 -26.5 -4t-24.5 -12.5t-18 -22t-7 -32.5t7 -32.5t17 -21.5t22.5 -12t22.5 -4q11 0 22 2t20 7q5 -4 10 -14t5 -26q0 -36 -29 -64.5t-78 -62.5z" />
    <glyph glyph-name="perthousand" unicode="&#x2030;" horiz-adv-x="1037" 
d="M465 0q-26 0 -40.5 11t-21 29t-7.5 42t-1 50t1 50t7.5 42t21 29t40.5 11t40.5 -11t21 -29t7.5 -42t1 -50t-1 -50t-7.5 -42t-21 -29t-40.5 -11zM465 -13q32 0 60 10.5t49.5 29t34 45.5t12.5 60t-12.5 59.5t-34 46t-49.5 30t-60 10.5q-31 0 -59.5 -10.5t-50 -30t-34 -46
t-12.5 -59.5t12.5 -60t34 -45.5t50 -29t59.5 -10.5zM205 436q32 0 60 10.5t49.5 30t34 46t12.5 59.5t-12.5 59.5t-34 46t-49.5 30t-60 10.5q-31 0 -59.5 -10.5t-50 -30t-34 -46t-12.5 -59.5t12.5 -59.5t34 -46t50 -30t59.5 -10.5zM832 -13q32 0 60 10.5t49.5 29t34 45.5
t12.5 60t-12.5 59.5t-34 46t-49.5 30t-60 10.5q-31 0 -59.5 -10.5t-50 -30t-34 -46t-12.5 -59.5t12.5 -60t34 -45.5t50 -29t59.5 -10.5zM205 450q-26 0 -40.5 11t-21 29t-7.5 42t-1 50t1 50t7.5 42t21 29t40.5 11t40.5 -11t21 -29t7.5 -42t1 -50t-1 -50t-7.5 -42t-21 -29
t-40.5 -11zM513 728l-376 -732l20 -9l376 732zM832 0q-26 0 -40.5 11t-21 29t-7.5 42t-1 50t1 50t7.5 42t21 29t40.5 11t40.5 -11t21 -29t7.5 -42t1 -50t-1 -50t-7.5 -42t-21 -29t-40.5 -11z" />
    <glyph glyph-name="Acircumflex" unicode="&#xc2;" horiz-adv-x="759" 
d="M336 959l-109 -197h12l133 127l133 -127h12l-108 197h-73zM303 569l118 -273h-230zM-25 14v-14h189v14h-89l111 268h240l116 -268h-93v-14h336v14h-86l-315 726h-27l-298 -726h-84z" />
    <glyph glyph-name="Ecircumflex" unicode="&#xca;" horiz-adv-x="722" 
d="M333 959l-109 -197h12l133 127l133 -127h12l-108 197h-73zM37 712v-14h92v-684h-92v-14h639v219h-13q-10 -43 -29 -80.5t-47.5 -65.5t-65.5 -43.5t-83 -15.5h-164v361h67q35 0 58.5 -12t39.5 -32.5t25.5 -47.5t16.5 -56h13v311h-13q-7 -34 -18 -61.5t-28 -47t-42.5 -30
t-62.5 -10.5h-56v309h159q49 0 83 -18.5t55.5 -43.5t33.5 -51.5t17 -43.5h13v171h-598z" />
    <glyph glyph-name="Aacute" unicode="&#xc1;" horiz-adv-x="759" 
d="M417 938l-88 -176h13l141 150q6 7 7.5 15t1.5 12q0 15 -12.5 22.5t-20.5 7.5q-20 0 -28.5 -10t-13.5 -21zM303 569l118 -273h-230zM-25 14v-14h189v14h-89l111 268h240l116 -268h-93v-14h336v14h-86l-315 726h-27l-298 -726h-84z" />
    <glyph glyph-name="Edieresis" unicode="&#xcb;" horiz-adv-x="722" 
d="M392 857q0 -26 19 -45t45 -19t45 19t19 45t-19 45t-45 19t-45 -19t-19 -45zM218 857q0 -26 19 -45t45 -19t45 19t19 45t-19 45t-45 19t-45 -19t-19 -45zM37 712v-14h92v-684h-92v-14h639v219h-13q-10 -43 -29 -80.5t-47.5 -65.5t-65.5 -43.5t-83 -15.5h-164v361h67
q35 0 58.5 -12t39.5 -32.5t25.5 -47.5t16.5 -56h13v311h-13q-7 -34 -18 -61.5t-28 -47t-42.5 -30t-62.5 -10.5h-56v309h159q49 0 83 -18.5t55.5 -43.5t33.5 -51.5t17 -43.5h13v171h-598z" />
    <glyph glyph-name="Egrave" unicode="&#xc8;" horiz-adv-x="722" 
d="M412 762l-88 176q-5 11 -13.5 21t-28.5 10q-8 0 -20.5 -7.5t-12.5 -22.5q0 -4 1.5 -12t7.5 -15l141 -150h13zM37 712v-14h92v-684h-92v-14h639v219h-13q-10 -43 -29 -80.5t-47.5 -65.5t-65.5 -43.5t-83 -15.5h-164v361h67q35 0 58.5 -12t39.5 -32.5t25.5 -47.5t16.5 -56
h13v311h-13q-7 -34 -18 -61.5t-28 -47t-42.5 -30t-62.5 -10.5h-56v309h159q49 0 83 -18.5t55.5 -43.5t33.5 -51.5t17 -43.5h13v171h-598z" />
    <glyph glyph-name="Iacute" unicode="&#xcd;" horiz-adv-x="407" 
d="M249 938l-88 -176h13l141 150q6 7 7.5 15t1.5 12q0 15 -12.5 22.5t-20.5 7.5q-20 0 -28.5 -10t-13.5 -21zM39 712v-14h92v-684h-92v-14h329v14h-92v684h92v14h-329z" />
    <glyph glyph-name="Icircumflex" unicode="&#xce;" horiz-adv-x="407" 
d="M168 959l-109 -197h12l133 127l133 -127h12l-108 197h-73zM39 712v-14h92v-684h-92v-14h329v14h-92v684h92v14h-329z" />
    <glyph glyph-name="Idieresis" unicode="&#xcf;" horiz-adv-x="407" 
d="M227 857q0 -26 19 -45t45 -19t45 19t19 45t-19 45t-45 19t-45 -19t-19 -45zM53 857q0 -26 19 -45t45 -19t45 19t19 45t-19 45t-45 19t-45 -19t-19 -45zM39 712v-14h92v-684h-92v-14h329v14h-92v684h92v14h-329z" />
    <glyph glyph-name="Igrave" unicode="&#xcc;" horiz-adv-x="407" 
d="M247 762l-88 176q-5 11 -13.5 21t-28.5 10q-8 0 -20.5 -7.5t-12.5 -22.5q0 -4 1.5 -12t7.5 -15l141 -150h13zM39 712v-14h92v-684h-92v-14h329v14h-92v684h92v14h-329z" />
    <glyph glyph-name="Oacute" unicode="&#xd3;" horiz-adv-x="833" 
d="M462 938l-88 -176h13l141 150q6 7 7.5 15t1.5 12q0 15 -12.5 22.5t-20.5 7.5q-20 0 -28.5 -10t-13.5 -21zM205 354q0 79 7 145t29 114t64 74.5t112 26.5q75 0 117.5 -28.5t63.5 -77t25.5 -112t4.5 -133.5q0 -78 -5.5 -144.5t-26.5 -115t-63 -76t-116 -27.5
q-56 0 -96.5 16t-66 56.5t-37.5 109t-12 172.5zM42 354q0 -78 31 -145t82.5 -116.5t119.5 -78t142 -28.5q75 0 142.5 29.5t119 80.5t82 118.5t30.5 142.5q0 86 -32.5 154.5t-85 116.5t-120 74t-136.5 26q-64 0 -131 -26.5t-121 -75.5t-88.5 -118t-34.5 -154z" />
    <glyph glyph-name="Ocircumflex" unicode="&#xd4;" horiz-adv-x="833" 
d="M381 959l-109 -197h12l133 127l133 -127h12l-108 197h-73zM205 354q0 79 7 145t29 114t64 74.5t112 26.5q75 0 117.5 -28.5t63.5 -77t25.5 -112t4.5 -133.5q0 -78 -5.5 -144.5t-26.5 -115t-63 -76t-116 -27.5q-56 0 -96.5 16t-66 56.5t-37.5 109t-12 172.5zM42 354
q0 -78 31 -145t82.5 -116.5t119.5 -78t142 -28.5q75 0 142.5 29.5t119 80.5t82 118.5t30.5 142.5q0 86 -32.5 154.5t-85 116.5t-120 74t-136.5 26q-64 0 -131 -26.5t-121 -75.5t-88.5 -118t-34.5 -154z" />
    <glyph glyph-name="apple" unicode="&#xf8ff;" horiz-adv-x="790" 
d="M408 588q-16 0 -69 15q-52 15 -89 15q-86 0 -143 -72q-56 -73 -56 -187q0 -124 74 -252q74 -129 150 -129q24 0 66 17q39 16 72 16q32 0 75 -15q44 -16 71 -16q65 0 129 97q21 32 36 63.5t25 61.5q-45 14 -79 63q-35 50 -35 112q0 57 33 103q18 26 57 60q-13 16 -26 28
t-26 22q-47 32 -107 32q-36 0 -87 -17t-71 -17zM561 790q0 4 -0.5 9t-2.5 12q-88 -20 -125.5 -74.5t-38.5 -128.5q32 3 51 8q26 9 55 36q31 32 46 69t15 69z" />
    <glyph glyph-name="Ograve" unicode="&#xd2;" horiz-adv-x="833" 
d="M460 762l-88 176q-5 11 -13.5 21t-28.5 10q-8 0 -20.5 -7.5t-12.5 -22.5q0 -4 1.5 -12t7.5 -15l141 -150h13zM205 354q0 79 7 145t29 114t64 74.5t112 26.5q75 0 117.5 -28.5t63.5 -77t25.5 -112t4.5 -133.5q0 -78 -5.5 -144.5t-26.5 -115t-63 -76t-116 -27.5
q-56 0 -96.5 16t-66 56.5t-37.5 109t-12 172.5zM42 354q0 -78 31 -145t82.5 -116.5t119.5 -78t142 -28.5q75 0 142.5 29.5t119 80.5t82 118.5t30.5 142.5q0 86 -32.5 154.5t-85 116.5t-120 74t-136.5 26q-64 0 -131 -26.5t-121 -75.5t-88.5 -118t-34.5 -154z" />
    <glyph glyph-name="Uacute" unicode="&#xda;" horiz-adv-x="778" 
d="M464 938l-88 -176h13l141 150q6 7 7.5 15t1.5 12q0 15 -12.5 22.5t-20.5 7.5q-20 0 -28.5 -10t-13.5 -21zM32 712v-14h93v-467q0 -45 10 -89t41.5 -78.5t90.5 -56t156 -21.5q60 0 101 13.5t68 35t41 48.5t21 54t8 51.5t1 40.5v469h93v14h-200v-14h91v-470q0 -15 -1 -37.5
t-7 -48t-19 -51t-37 -46t-60.5 -33t-90.5 -12.5q-55 0 -87.5 21.5t-49 56.5t-21 79.5t-4.5 91.5v449h92v14h-330z" />
    <glyph glyph-name="Ucircumflex" unicode="&#xdb;" horiz-adv-x="778" 
d="M383 959l-109 -197h12l133 127l133 -127h12l-108 197h-73zM32 712v-14h93v-467q0 -45 10 -89t41.5 -78.5t90.5 -56t156 -21.5q60 0 101 13.5t68 35t41 48.5t21 54t8 51.5t1 40.5v469h93v14h-200v-14h91v-470q0 -15 -1 -37.5t-7 -48t-19 -51t-37 -46t-60.5 -33
t-90.5 -12.5q-55 0 -87.5 21.5t-49 56.5t-21 79.5t-4.5 91.5v449h92v14h-330z" />
    <glyph glyph-name="Ugrave" unicode="&#xd9;" horiz-adv-x="778" 
d="M462 762l-88 176q-5 11 -13.5 21t-28.5 10q-8 0 -20.5 -7.5t-12.5 -22.5q0 -4 1.5 -12t7.5 -15l141 -150h13zM32 712v-14h93v-467q0 -45 10 -89t41.5 -78.5t90.5 -56t156 -21.5q60 0 101 13.5t68 35t41 48.5t21 54t8 51.5t1 40.5v469h93v14h-200v-14h91v-470
q0 -15 -1 -37.5t-7 -48t-19 -51t-37 -46t-60.5 -33t-90.5 -12.5q-55 0 -87.5 21.5t-49 56.5t-21 79.5t-4.5 91.5v449h92v14h-330z" />
    <glyph glyph-name="dotlessi" unicode="&#x131;" horiz-adv-x="315" 
d="M36 429v-14h67v-401h-67v-14h256v14h-67v415h-189z" />
    <glyph glyph-name="circumflex" unicode="&#x2c6;" horiz-adv-x="278" 
d="M103 726l-108 -197h11l133 127l133 -127h12l-108 197h-73z" />
    <glyph glyph-name="tilde" unicode="&#x2dc;" horiz-adv-x="278" 
d="M-2 569l11 27q5 11 13 15.5t15 4.5q12 0 33 -6.5t45 -14t46.5 -14t37.5 -6.5q23 0 39.5 13t28 31.5t18.5 38.5t10 33h-14q0 -2 -2.5 -9.5t-7.5 -15.5t-12.5 -14.5t-17.5 -6.5q-4 0 -27 6.5t-50 14t-51 13.5t-31 6q-11 0 -26.5 -5t-24.5 -13q-7 -6 -12.5 -13.5
t-10.5 -18.5t-10.5 -27t-13.5 -39h14z" />
    <glyph glyph-name="macron" unicode="&#xaf;" horiz-adv-x="278" 
d="M-21 642v-30h321v30h-321z" />
    <glyph glyph-name="breve" unicode="&#x2d8;" horiz-adv-x="278" 
d="M9 712h-11q-1 -78 38 -117t103 -39t103.5 39t38.5 117h-12q-14 -52 -49 -71t-81 -19t-81 19t-49 71z" />
    <glyph glyph-name="dotaccent" unicode="&#x2d9;" horiz-adv-x="278" 
d="M75 644q0 -26 19 -45t45 -19t45 19t19 45t-19 45t-45 19t-45 -19t-19 -45z" />
    <glyph glyph-name="ring" unicode="&#x2da;" horiz-adv-x="278" 
d="M139 717q29 0 38 -23t9 -65t-9 -65t-38 -23t-38 23t-9 65t9 65t38 23zM244 629q0 16 -6.5 33.5t-19.5 32t-32.5 24t-46.5 9.5t-46.5 -9.5t-32.5 -24t-19.5 -32t-6.5 -33.5t6.5 -33.5t19.5 -32t32.5 -24t46.5 -9.5t46.5 9.5t32.5 24t19.5 32t6.5 33.5z" />
    <glyph glyph-name="cedilla" unicode="&#xb8;" horiz-adv-x="278" 
d="M155 0l-73 -78l14 -14q16 10 37 10q14 0 21.5 -6.5t11.5 -16t4.5 -21.5t0.5 -22q0 -12 -2 -24.5t-7 -23t-14 -17t-24 -6.5q-20 0 -31 5.5t-27 16.5l-9 -12q20 -15 37 -22.5t43 -7.5q21 0 41.5 6t36.5 18t25.5 29.5t9.5 41.5q0 18 -7.5 34t-20.5 27t-29 17.5t-34 6.5
q-13 0 -27 -4.5t-25 -9.5l-2 2l70 71h-20z" />
    <glyph glyph-name="hungarumlaut" unicode="&#x2dd;" horiz-adv-x="278" 
d="M123 705l-88 -176h13l141 150q6 7 7.5 15t1.5 12q0 15 -12.5 22.5t-20.5 7.5q-20 0 -28.5 -10t-13.5 -21zM245 705l-88 -176h13l141 150q6 7 7.5 15t1.5 12q0 15 -12.5 22.5t-20.5 7.5q-20 0 -28.5 -10t-13.5 -21z" />
    <glyph glyph-name="ogonek" unicode="&#x2db;" horiz-adv-x="278" 
d="M222 0l-79 -41q-25 -14 -40.5 -26.5t-23.5 -24t-10.5 -21.5t-2.5 -19q0 -26 20 -46.5t65 -20.5q14 0 25 1.5t21.5 5t21 9.5t24.5 16l-7 12q-6 -5 -15 -9.5t-29 -4.5q-16 0 -25 6.5t-13.5 14.5t-5 15.5t-0.5 10.5q0 23 22 51t73 71h-21z" />
    <glyph glyph-name="caron" unicode="&#x2c7;" horiz-adv-x="278" 
d="M175 529l109 197h-12l-133 -127l-133 127h-11l107 -197h73z" />
    <glyph glyph-name="Omega" unicode="&#x2126;" horiz-adv-x="768" 
d="M330 0l-15 142q-44 15 -66 37q-36 31 -55.5 85t-19.5 126q0 125 63 195q50 56 150 56q96 0 152 -63t56 -189q0 -112 -51 -183q-31 -42 -90 -64l-16 -142h296v163h-17q-5 -19 -10 -31t-12.5 -18.5t-19 -8.5t-29.5 -2h-148v14q77 23 121 57.5t69 93.5q26 61 26 120
q0 76 -40 143q-38 69 -115 107q-73 37 -175 37q-100 0 -175.5 -37.5t-115.5 -106.5q-39 -69 -39 -143q0 -62 25.5 -120t69.5 -94q44 -35 122 -57v-14h-148q-18 0 -29.5 2t-19 8.5t-13 18.5t-10.5 31h-16v-163h295z" />
    <glyph glyph-name="currency" unicode="&#xa4;" 
d="M95 357q0 38 14.5 71.5t39 58t58 39t71.5 14.5t71.5 -14.5t58 -39t39 -58t14.5 -71.5t-14.5 -71.5t-39 -58t-58 -39t-71.5 -14.5t-71.5 14.5t-58 39t-39 58t-14.5 71.5zM127 220l-63 -64l13 -13l64 64q7 -6 19 -15t29 -17.5t39 -14.5t49 -6q33 0 70 12t67 41l65 -64
l13 13l-64 64q19 21 29.5 41.5t16 39t6.5 33.5t1 23t-1 22t-6.5 33t-16 40t-29.5 42l64 64l-13 13l-65 -64q-29 25 -63.5 39t-72.5 14q-78 0 -137 -53l-64 64l-13 -13l64 -64q-26 -28 -39.5 -64.5t-13.5 -72.5q0 -24 9.5 -61.5t42.5 -75.5z" />
    <glyph glyph-name="Lslash" unicode="&#x141;" horiz-adv-x="722" 
d="M138 329v-315h-92v-14h634v226h-13q-13 -58 -36.5 -98.5t-53 -66t-63 -36.5t-66.5 -11h-165v390l148 83v20l-148 -83v274h92v14h-329v-14h92v-349l-92 -52v-20z" />
    <glyph glyph-name="lslash" unicode="&#x142;" horiz-adv-x="315" 
d="M103 707v-348l-67 -39v-20l67 39v-325h-67v-14h256v14h-67v396l67 39v20l-67 -39v291h-189v-14h67z" />
    <glyph glyph-name="threequarters" unicode="&#xbe;" horiz-adv-x="834" 
d="M595 728l-376 -732l20 -9l376 732zM712 108v149h-81v-149h-157q28 54 56.5 96.5t52 72t40 46.5t20.5 21l49 45q13 12 16 15.5t3 10.5q0 8 -5 12.5t-11.5 6.5t-13 2.5t-9.5 0.5q-26 0 -49.5 -22t-55.5 -79q-3 -6 -14 -27t-27 -53t-35 -73.5t-38 -88.5h178v-80h-56v-14h191
v14h-54v80h54v14h-54zM94 514l8 -13q12 9 24 14.5t23 8t19.5 3t12.5 0.5q28 0 43 -11t22 -26t8 -30.5t1 -25.5q0 -27 -2 -52.5t-11.5 -44.5t-28 -30.5t-51.5 -11.5q-38 0 -66.5 25t-39.5 60h-15q13 -51 46.5 -75t87.5 -24q35 0 65.5 10.5t53.5 29t36.5 43.5t13.5 54
t-12.5 50t-32.5 35.5t-44 22.5t-48 10v2q20 5 42 12t40 18t29.5 27.5t11.5 41.5q0 26 -12.5 43t-31 28t-40.5 15.5t-42 4.5q-12 0 -34 -2.5t-43.5 -11t-37.5 -24t-16 -41.5q0 -13 5.5 -20t12.5 -10t13 -3.5t7 -0.5q5 0 11.5 1.5t13.5 5t11.5 10t4.5 16.5q0 4 -3 17t-3 18
q0 20 13.5 25.5t26.5 5.5q58 0 58 -69q0 -12 -1.5 -27t-7 -29t-15 -25t-24.5 -15l-68 -18q-9 -2 -17.5 -7t-16.5 -10z" />
    <glyph glyph-name="onequarter" unicode="&#xbc;" horiz-adv-x="834" 
d="M567 728l-376 -732l20 -9l376 732zM147 665v-360h-58v-14h196v14h-57v423h-28q-31 -31 -66.5 -51.5t-73.5 -40.5l7 -13q9 4 16.5 7.5t16 7.5t19.5 10.5t28 16.5zM684 108v149h-81v-149h-157q28 54 56.5 96.5t52 72t40 46.5t20.5 21l49 45q13 12 16 15.5t3 10.5
q0 8 -5 12.5t-11.5 6.5t-13 2.5t-9.5 0.5q-26 0 -49.5 -22t-55.5 -79q-3 -6 -14 -27t-27 -53t-35 -73.5t-38 -88.5h178v-80h-56v-14h191v14h-54v80h54v14h-54z" />
    <glyph glyph-name="onesuperior" unicode="&#xb9;" horiz-adv-x="333" 
d="M147 665v-360h-58v-14h196v14h-57v423h-28q-31 -31 -66.5 -51.5t-73.5 -40.5l7 -13q9 4 16.5 7.5t16 7.5t19.5 10.5t28 16.5z" />
    <glyph glyph-name="multiply" unicode="&#xd7;" horiz-adv-x="593" 
d="M296 227l208 -208l13 14l-207 207l207 207l-13 14l-208 -208l-208 208l-13 -14l207 -207l-207 -207l13 -14z" />
    <glyph glyph-name="Thorn" unicode="&#xde;" horiz-adv-x="648" 
d="M271 234v345q8 1 18 2t21 1q87 0 120 -46t33 -133q0 -92 -38 -130.5t-123 -38.5h-31zM271 14v206h41q80 0 139 15t98 40.5t58 60t19 73.5q0 58 -29.5 94.5t-73.5 57t-96 28t-97 7.5h-59v102h92v14h-329v-14h92v-684h-92v-14h329v14h-92z" />
    <glyph glyph-name="brokenbar" unicode="&#xa6;" horiz-adv-x="222" 
d="M101 675v-350h20v350h-20zM101 175v-349h20v349h-20z" />
    <glyph glyph-name="Eth" unicode="&#xd0;" horiz-adv-x="815" 
d="M269 389v309q10 2 26 2.5t36 0.5q87 0 140.5 -25t83 -71.5t39.5 -112t10 -146.5q0 -33 -3 -70.5t-12.5 -75t-28 -71.5t-50 -60.5t-77.5 -42t-111 -15.5q-24 0 -53 3v358h148v17h-148zM124 372v-358h-92v-14h92q57 0 113.5 -1t113.5 -1q39 0 84.5 6t92 21.5t89.5 41.5
t76.5 66t53.5 95t20 128q0 74 -20 129t-54 95t-78 66t-93 41.5t-99 21.5t-95 6q-51 0 -102 -1.5t-102 -1.5h-92v-14h92v-309h-92v-17h92z" />
    <glyph glyph-name="onehalf" unicode="&#xbd;" horiz-adv-x="834" 
d="M622 66h-92l131 127q25 24 38.5 44.5t20 36t7.5 27t1 17.5q0 29 -11.5 51t-30 37t-43.5 23t-52 8q-19 0 -41.5 -5.5t-41.5 -17t-31.5 -28.5t-12.5 -40q0 -15 13 -22t26 -7q16 0 28.5 8.5t12.5 22.5q0 4 -3 16.5t-3 16.5q0 5 0.5 12.5t5 14t14.5 11t28 4.5q8 0 17.5 -1.5
t17 -11.5t12.5 -31.5t5 -60.5q0 -48 -8 -82t-28.5 -65.5t-55.5 -65.5t-89 -82l-10 -9v-14h288v126h-14q-3 -22 -10.5 -34.5t-19.5 -18t-29 -6.5t-40 -1zM147 665v-360h-58v-14h196v14h-57v423h-28q-31 -31 -66.5 -51.5t-73.5 -40.5l7 -13q9 4 16.5 7.5t16 7.5t19.5 10.5
t28 16.5zM567 728l-376 -732l20 -9l376 732z" />
    <glyph glyph-name="minus" unicode="&#x2212;" horiz-adv-x="593" 
d="M56 249v-18h480v18h-480z" />
    <glyph glyph-name="eth" unicode="&#xf0;" 
d="M169 215q0 40 2.5 78.5t13 68.5t32.5 48.5t61 18.5t61 -18.5t32.5 -48.5t13 -68.5t2.5 -78.5t-2.5 -79t-13 -69t-32.5 -48.5t-61 -18.5t-61 18.5t-32.5 48.5t-13 69t-2.5 79zM247 613l-114 -75l8 -11l115 76q26 -28 44.5 -58t31.5 -56t20 -45.5t9 -27.5q-20 12 -37 19.5
t-46 7.5q-52 0 -96.5 -18.5t-77.5 -49.5t-51.5 -72.5t-18.5 -87.5q0 -47 18.5 -88.5t51.5 -72.5t77.5 -49t96.5 -18q12 0 35 2.5t50 11t55.5 25.5t51.5 45.5t37.5 71t14.5 102.5q0 115 -55.5 208t-172.5 174l112 74l-8 11l-116 -76q-16 10 -31 19t-32.5 18t-38.5 18.5
t-48 20.5l-8 -14q40 -20 69.5 -40t53.5 -45z" />
    <glyph glyph-name="thorn" unicode="&#xfe;" horiz-adv-x="593" 
d="M219 214q0 33 3.5 71t14.5 70t33 53t59 21q26 0 43 -11t28 -36t15.5 -66.5t4.5 -101.5q0 -49 -2.5 -88.5t-11 -67.5t-25 -43t-44.5 -15q-42 0 -65.5 21.5t-35.5 54t-14.5 70t-2.5 68.5zM97 707v-972h-66v-14h256v14h-68v337h2q14 -35 42 -60t74 -25q49 0 89 19t68.5 50.5
t44.5 72.5t16 86q0 35 -12.5 75t-39 74t-67.5 56.5t-99 22.5q-45 0 -73 -21t-43 -63h-2v362h-188v-14h66z" />
    <glyph glyph-name="twosuperior" unicode="&#xb2;" horiz-adv-x="333" 
d="M195 357h-92l131 127q25 24 38.5 44.5t20 36t7.5 27t1 17.5q0 29 -11.5 51t-30 37t-43.5 23t-52 8q-19 0 -41.5 -5.5t-41.5 -17t-31.5 -28.5t-12.5 -40q0 -15 13 -22t26 -7q16 0 28.5 8.5t12.5 22.5q0 4 -3 16.5t-3 16.5q0 5 0.5 12.5t5 14t14.5 11t28 4.5q8 0 17.5 -1.5
t17 -11.5t12.5 -31.5t5 -60.5q0 -48 -8 -82t-28.5 -65.5t-55.5 -65.5t-89 -82l-10 -9v-14h288v126h-14q-3 -22 -10.5 -34.5t-19.5 -18t-29 -6.5t-40 -1z" />
    <glyph glyph-name="threesuperior" unicode="&#xb3;" horiz-adv-x="333" 
d="M66 514l8 -13q12 9 24 14.5t23 8t19.5 3t12.5 0.5q28 0 43 -11t22 -26t8 -30.5t1 -25.5q0 -27 -2 -52.5t-11.5 -44.5t-28 -30.5t-51.5 -11.5q-38 0 -66.5 25t-39.5 60h-15q13 -51 46.5 -75t87.5 -24q35 0 65.5 10.5t53.5 29t36.5 43.5t13.5 54t-12.5 50t-32.5 35.5
t-44 22.5t-48 10v2q20 5 42 12t40 18t29.5 27.5t11.5 41.5q0 26 -12.5 43t-31 28t-40.5 15.5t-42 4.5q-12 0 -34 -2.5t-43.5 -11t-37.5 -24t-16 -41.5q0 -13 5.5 -20t12.5 -10t13 -3.5t7 -0.5q5 0 11.5 1.5t13.5 5t11.5 10t4.5 16.5q0 4 -3 17t-3 18q0 20 13.5 25.5
t26.5 5.5q58 0 58 -69q0 -12 -1.5 -27t-7 -29t-15 -25t-24.5 -15l-68 -18q-9 -2 -17.5 -7t-16.5 -10z" />
    <glyph glyph-name="Scaron" unicode="&#x160;" horiz-adv-x="648" 
d="M360 762l109 197h-12l-133 -127l-133 127h-12l108 -197h73zM63 222v-222h16q5 14 11 18.5t20 4.5q10 0 30.5 -6t47 -12.5t57 -12.5t61.5 -6q62 0 112.5 19.5t87 52.5t56.5 77t20 93q0 50 -18.5 84t-48.5 58t-68.5 39.5t-79 28.5t-79 25t-68.5 28.5t-48.5 39.5t-18.5 58
q0 23 11 45t32 40t51.5 29t70.5 11q49 0 81 -17t53 -44.5t34.5 -61.5t25.5 -69h13v190h-16q-5 -12 -9.5 -16.5t-18.5 -4.5q-12 0 -26.5 6t-33.5 12.5t-44 12.5t-58 6q-52 0 -96.5 -17.5t-76.5 -46t-50 -65.5t-18 -77q0 -54 17.5 -90t46.5 -60.5t66 -40t76 -27t76 -22.5
t66 -27t46.5 -40t17.5 -61q0 -20 -8 -46.5t-27.5 -50.5t-53.5 -40.5t-87 -16.5q-15 0 -32.5 0.5t-37 6t-41 17.5t-44.5 35q-21 20 -35.5 43.5t-24 46t-14.5 42t-7 31.5h-15z" />
    <glyph glyph-name="Yacute" unicode="&#xdd;" horiz-adv-x="704" 
d="M427 938l-88 -176h13l141 150q6 7 7.5 15t1.5 12q0 15 -12.5 22.5t-20.5 7.5q-20 0 -28.5 -10t-13.5 -21zM-15 712v-14h78l232 -405v-279h-92v-14h330v14h-93v317l193 367h87v14h-191v-14h87l-184 -349l-204 349h79v14h-322z" />
    <glyph glyph-name="Zcaron" unicode="&#x17d;" horiz-adv-x="685" 
d="M379 762l109 197h-12l-133 -127l-133 127h-12l108 -197h73zM436 698l-402 -698h601v226h-13q-13 -58 -36.5 -98.5t-55 -66t-68.5 -36.5t-77 -11h-181l404 698h-518v-167h13q15 35 32 63t39.5 48t52.5 31t70 11h139z" />
    <glyph glyph-name="scaron" unicode="&#x161;" horiz-adv-x="426" 
d="M249 529l109 197h-12l-133 -127l-133 127h-12l108 -197h73zM44 145v-145h14q3 8 6.5 11t11.5 3q9 0 25 -4t35.5 -9.5t40.5 -9.5t39 -4q33 0 64 10t54.5 28.5t38 45t14.5 59.5q0 48 -28 79t-82 50l-85 29q-25 9 -40 18.5t-22 19t-9 18.5t-2 16q0 34 27.5 51.5t60.5 17.5
q31 0 52 -9.5t35.5 -26t25 -38.5t20.5 -46h13v122h-14q-2 -5 -5 -9t-14 -4q-6 0 -16.5 4t-24 8.5t-30 8.5t-35.5 4q-36 0 -66.5 -11.5t-52 -31t-33.5 -45.5t-12 -55q0 -27 9 -46.5t22.5 -33.5t29.5 -22.5t30 -13.5l81 -30q27 -10 42.5 -19.5t23.5 -19.5t10.5 -19.5
t2.5 -18.5q0 -29 -10.5 -44.5t-25 -23t-29.5 -8.5t-24 -1q-35 0 -59 12.5t-41 32.5t-29.5 46t-24.5 54h-14z" />
    <glyph glyph-name="yacute" unicode="&#xfd;" horiz-adv-x="481" 
d="M310 705l-88 -176h13l141 150q6 7 7.5 15t1.5 12q0 15 -12.5 22.5t-20.5 7.5q-20 0 -28.5 -10t-13.5 -21zM299 126l-122 289h70v14h-254v-14h53l188 -450l-43 -107q-7 -18 -16.5 -40t-22 -41.5t-28 -32.5t-33.5 -13q-8 0 -14 5.5t-6 16.5q0 15 6.5 26t6.5 29
q0 21 -17 31.5t-36 10.5q-26 0 -44.5 -13t-18.5 -42q0 -38 28.5 -59.5t73.5 -21.5q42 0 67 21t45 66q20 43 42.5 99.5t52 130.5t69.5 169t96 215h46v14h-145v-14h83z" />
    <glyph glyph-name="zcaron" unicode="&#x17e;" horiz-adv-x="463" 
d="M268 529l109 197h-12l-133 -127l-133 127h-12l108 -197h73zM277 415l-243 -415h391l11 138h-11q-8 -22 -16.5 -44.5t-22 -40t-34 -28.5t-51.5 -11h-122l242 415h-357l-15 -119h11q12 26 23 46t25.5 33t33.5 19.5t46 6.5h89z" />
    <glyph glyph-name="gravecmb" unicode="&#x300;" horiz-adv-x="0" 
d="M-93 529l-88 176q-5 11 -13.5 21t-28.5 10q-8 0 -20.5 -7.5t-12.5 -22.5q0 -4 1.5 -12t7.5 -15l141 -150h13z" />
    <glyph glyph-name="acutecmb" unicode="&#x301;" horiz-adv-x="0" 
d="M-91 705l-88 -176h13l141 150q6 7 7.5 15t1.5 12q0 15 -12.5 22.5t-20.5 7.5q-20 0 -28.5 -10t-13.5 -21z" />
    <glyph glyph-name="circumflexcmb" unicode="&#x302;" horiz-adv-x="0" 
d="M-172 726l-108 -197h11l133 127l133 -127h12l-108 197h-73z" />
    <glyph glyph-name="tildecmb" unicode="&#x303;" horiz-adv-x="0" 
d="M-277 569l11 27q5 11 13 15.5t15 4.5q12 0 33 -6.5t45 -14t46.5 -14t37.5 -6.5q23 0 39.5 13t28 31.5t18.5 38.5t10 33h-14q0 -2 -2.5 -9.5t-7.5 -15.5t-12.5 -14.5t-17.5 -6.5q-4 0 -27 6.5t-50 14t-51 13.5t-31 6q-11 0 -26.5 -5t-24.5 -13q-7 -6 -12.5 -13.5
t-10.5 -18.5t-10.5 -27t-13.5 -39h14z" />
    <glyph glyph-name="macroncmb" unicode="&#x304;" horiz-adv-x="0" 
d="M-296 642v-30h321v30h-321z" />
    <glyph glyph-name="brevecmb" unicode="&#x306;" horiz-adv-x="0" 
d="M-266 712h-11q-1 -78 38 -117t103 -39t103.5 39t38.5 117h-12q-14 -52 -49 -71t-81 -19t-81 19t-49 71z" />
    <glyph glyph-name="dotaccentcmb" unicode="&#x307;" horiz-adv-x="0" 
d="M-200 644q0 -26 19 -45t45 -19t45 19t19 45t-19 45t-45 19t-45 -19t-19 -45z" />
    <glyph glyph-name="dieresiscmb" unicode="&#x308;" horiz-adv-x="0" 
d="M-113 644q0 -26 19 -45t45 -19t45 19t19 45t-19 45t-45 19t-45 -19t-19 -45zM-286 644q0 -26 18.5 -45t44.5 -19t45 19t19 45t-19 45t-45 19t-44.5 -19t-18.5 -45z" />
    <glyph glyph-name="ringcmb" unicode="&#x30a;" horiz-adv-x="0" 
d="M-136 717q29 0 38 -23t9 -65t-9 -65t-38 -23t-38 23t-9 65t9 65t38 23zM-31 629q0 16 -6.5 33.5t-19.5 32t-32.5 24t-46.5 9.5t-46.5 -9.5t-32.5 -24t-19.5 -32t-6.5 -33.5t6.5 -33.5t19.5 -32t32.5 -24t46.5 -9.5t46.5 9.5t32.5 24t19.5 32t6.5 33.5z" />
    <glyph glyph-name="hungarumlautcmb" unicode="&#x30b;" horiz-adv-x="0" 
d="M-152 705l-88 -176h13l141 150q6 7 7.5 15t1.5 12q0 15 -12.5 22.5t-20.5 7.5q-20 0 -28.5 -10t-13.5 -21zM-30 705l-88 -176h13l141 150q6 7 7.5 15t1.5 12q0 15 -12.5 22.5t-20.5 7.5q-20 0 -28.5 -10t-13.5 -21z" />
    <glyph glyph-name="caroncmb" unicode="&#x30c;" horiz-adv-x="0" 
d="M-100 529l109 197h-12l-133 -127l-133 127h-11l107 -197h73z" />
    <glyph glyph-name="cedillacmb" unicode="&#x327;" horiz-adv-x="0" 
d="M-120 0l-73 -78l14 -14q16 10 37 10q14 0 21.5 -6.5t11.5 -16t4.5 -21.5t0.5 -22q0 -12 -2 -24.5t-7 -23t-14 -17t-24 -6.5q-20 0 -31 5.5t-27 16.5l-9 -12q20 -15 37 -22.5t43 -7.5q21 0 41.5 6t36.5 18t25.5 29.5t9.5 41.5q0 18 -7.5 34t-20.5 27t-29 17.5t-34 6.5
q-13 0 -27 -4.5t-25 -9.5l-2 2l70 71h-20z" />
    <glyph glyph-name="ogonekcmb" unicode="&#x328;" horiz-adv-x="0" 
d="M-53 0l-79 -41q-25 -14 -40.5 -26.5t-23.5 -24t-10.5 -21.5t-2.5 -19q0 -26 20 -46.5t65 -20.5q14 0 25 1.5t21.5 5t21 9.5t24.5 16l-7 12q-6 -5 -15 -9.5t-29 -4.5q-16 0 -25 6.5t-13.5 14.5t-5 15.5t-0.5 10.5q0 23 22 51t73 71h-21z" />
    <glyph glyph-name="soliduslongoverlaycmb" unicode="&#x338;" horiz-adv-x="0" 
d="M-20 718l-270 -718l20 -5l270 717z" />
    <glyph glyph-name="Ibreve" unicode="&#x12c;" horiz-adv-x="407" 
d="M39 712v-14h92v-684h-92v-14h329v14h-92v684h92v14h-329zM80 922h-11q-1 -78 38 -117t103 -39t103.5 39t38.5 117h-12q-14 -52 -49 -71t-81 -19t-81 19t-49 71z" />
    <glyph glyph-name="ibreve" unicode="&#x12d;" horiz-adv-x="315" 
d="M36 429v-14h67v-401h-67v-14h256v14h-67v415h-189zM26 647h-11q-1 -78 38 -117t103 -39t103.5 39t38.5 117h-12q-14 -52 -49 -71t-81 -19t-81 19t-49 71z" />
    <glyph glyph-name="commaturnedmod" unicode="&#x2bb;" horiz-adv-x="278" 
d="M204 715l-7 13q-21 -14 -46 -31.5t-46 -40.5t-35.5 -53t-14.5 -69q0 -57 27 -88t65 -31q13 0 26.5 4t24.5 12.5t18 22t7 32.5t-7 32.5t-17 22t-22 12.5t-23 4t-22 -2t-20 -8q-5 5 -10 15t-5 26q0 36 29 64.5t78 62.5z" />
    <glyph glyph-name="apostrophemod" unicode="&#x2bc;" horiz-adv-x="278" 
d="M74 428l7 -13q21 13 46 30.5t46.5 41t35.5 53.5t14 69q0 57 -27 88t-65 31q-13 0 -26.5 -4t-24.5 -12.5t-18 -22t-7 -32.5t7 -32.5t17 -22t22.5 -12.5t22.5 -4q11 0 22 2t20 8q5 -5 10 -15t5 -26q0 -36 -29 -64.5t-78 -62.5z" />
    <glyph glyph-name="dotlessj" horiz-adv-x="333" 
d="M52 415v14h189v-470q0 -52 -8.5 -96.5t-28 -77.5t-51.5 -51.5t-79 -18.5q-54 0 -88 22.5t-34 62.5q0 32 17 44t37 12q25 0 39 -11.5t14 -32.5q0 -11 -4 -25.5t-4 -25.5q0 -10 4 -21t28 -11q18 0 27 11t9 50v625h-67z" />
    <glyph glyph-name="softhyphen" unicode="&#xad;" horiz-adv-x="370" 
d="M91 264v-98h188v98h-188z" />
    <glyph glyph-name="Amacron" unicode="&#x100;" horiz-adv-x="759" 
d="M303 569l118 -273h-230zM-25 14v-14h189v14h-89l111 268h240l116 -268h-93v-14h336v14h-86l-315 726h-27l-298 -726h-84zM203 875v-30h321v30h-321z" />
    <glyph glyph-name="amacron" unicode="&#x101;" horiz-adv-x="519" 
d="M305 248v-132q0 -29 -6 -49.5t-16 -33t-22.5 -18.5t-25.5 -6q-23 0 -36 10.5t-19.5 25.5t-8 31t-1.5 28q0 30 9.5 49t24.5 32t34 21.5t38 17.5q14 7 19.5 12.5t7.5 11.5h2zM507 16l-9 9q-8 -9 -16.5 -14t-21.5 -5q-22 0 -27.5 14.5t-5.5 33.5v248q0 42 -14.5 69.5
t-39 43.5t-58 22t-71.5 6q-33 0 -63.5 -7t-54.5 -20.5t-38.5 -34t-14.5 -46.5q0 -17 5.5 -27t13.5 -15.5t18.5 -7t20.5 -1.5q7 0 17.5 0.5t20 4.5t16.5 12.5t7 23.5q0 3 -1 11t-2 17t-2 16.5t-1 10.5q0 28 17 38.5t40 10.5q36 0 49 -22t13 -49v-61q0 -19 -5.5 -31
t-19.5 -21.5t-39.5 -18t-66.5 -20.5q-25 -8 -48.5 -16.5t-42 -22t-30 -33t-11.5 -48.5q0 -28 13 -47.5t34 -30.5t46 -16t49 -5q53 0 81 14t44 54h2q6 -32 30.5 -50t75.5 -18q23 0 49.5 4t40.5 25zM115 642v-30h321v30h-321z" />
    <glyph glyph-name="Abreve" unicode="&#x102;" horiz-adv-x="759" 
d="M303 569l118 -273h-230zM-25 14v-14h189v14h-89l111 268h240l116 -268h-93v-14h336v14h-86l-315 726h-27l-298 -726h-84zM229 945h-11q-1 -78 38 -117t103 -39t103.5 39t38.5 117h-12q-14 -52 -49 -71t-81 -19t-81 19t-49 71z" />
    <glyph glyph-name="abreve" unicode="&#x103;" horiz-adv-x="519" 
d="M305 248v-132q0 -29 -6 -49.5t-16 -33t-22.5 -18.5t-25.5 -6q-23 0 -36 10.5t-19.5 25.5t-8 31t-1.5 28q0 30 9.5 49t24.5 32t34 21.5t38 17.5q14 7 19.5 12.5t7.5 11.5h2zM507 16l-9 9q-8 -9 -16.5 -14t-21.5 -5q-22 0 -27.5 14.5t-5.5 33.5v248q0 42 -14.5 69.5
t-39 43.5t-58 22t-71.5 6q-33 0 -63.5 -7t-54.5 -20.5t-38.5 -34t-14.5 -46.5q0 -17 5.5 -27t13.5 -15.5t18.5 -7t20.5 -1.5q7 0 17.5 0.5t20 4.5t16.5 12.5t7 23.5q0 3 -1 11t-2 17t-2 16.5t-1 10.5q0 28 17 38.5t40 10.5q36 0 49 -22t13 -49v-61q0 -19 -5.5 -31
t-19.5 -21.5t-39.5 -18t-66.5 -20.5q-25 -8 -48.5 -16.5t-42 -22t-30 -33t-11.5 -48.5q0 -28 13 -47.5t34 -30.5t46 -16t49 -5q53 0 81 14t44 54h2q6 -32 30.5 -50t75.5 -18q23 0 49.5 4t40.5 25zM135 712h-11q-1 -78 38 -117t103 -39t103.5 39t38.5 117h-12
q-14 -52 -49 -71t-81 -19t-81 19t-49 71z" />
    <glyph glyph-name="Aogonek" unicode="&#x104;" horiz-adv-x="759" 
d="M303 569l118 -273h-230zM-25 14v-14h189v14h-89l111 268h240l116 -268h-93v-14h336v14h-86l-315 726h-27l-298 -726h-84zM677 0l-79 -41q-25 -14 -40.5 -26.5t-23.5 -24t-10.5 -21.5t-2.5 -19q0 -26 20 -46.5t65 -20.5q14 0 25 1.5t21.5 5t21 9.5t24.5 16l-7 12
q-6 -5 -15 -9.5t-29 -4.5q-16 0 -25 6.5t-13.5 14.5t-5 15.5t-0.5 10.5q0 23 22 51t73 71h-21z" />
    <glyph glyph-name="aogonek" unicode="&#x105;" horiz-adv-x="519" 
d="M305 248v-132q0 -29 -6 -49.5t-16 -33t-22.5 -18.5t-25.5 -6q-23 0 -36 10.5t-19.5 25.5t-8 31t-1.5 28q0 30 9.5 49t24.5 32t34 21.5t38 17.5q14 7 19.5 12.5t7.5 11.5h2zM507 16l-9 9q-8 -9 -16.5 -14t-21.5 -5q-22 0 -27.5 14.5t-5.5 33.5v248q0 42 -14.5 69.5
t-39 43.5t-58 22t-71.5 6q-33 0 -63.5 -7t-54.5 -20.5t-38.5 -34t-14.5 -46.5q0 -17 5.5 -27t13.5 -15.5t18.5 -7t20.5 -1.5q7 0 17.5 0.5t20 4.5t16.5 12.5t7 23.5q0 3 -1 11t-2 17t-2 16.5t-1 10.5q0 28 17 38.5t40 10.5q36 0 49 -22t13 -49v-61q0 -19 -5.5 -31
t-19.5 -21.5t-39.5 -18t-66.5 -20.5q-25 -8 -48.5 -16.5t-42 -22t-30 -33t-11.5 -48.5q0 -28 13 -47.5t34 -30.5t46 -16t49 -5q53 0 81 14t44 54h2q6 -32 30.5 -50t75.5 -18q23 0 49.5 4t40.5 25zM473 3l-79 -41q-25 -14 -40.5 -26.5t-23.5 -24t-10.5 -21.5t-2.5 -19
q0 -26 20 -46.5t65 -20.5q14 0 25 1.5t21.5 5t21 9.5t24.5 16l-7 12q-6 -5 -15 -9.5t-29 -4.5q-16 0 -25 6.5t-13.5 14.5t-5 15.5t-0.5 10.5q0 23 22 51t73 71h-21z" />
    <glyph glyph-name="Cacute" unicode="&#x106;" horiz-adv-x="722" 
d="M657 508v204h-16q-3 -14 -10 -17.5t-21 -3.5q-13 0 -32 6t-42.5 12.5t-51 12.5t-59.5 6q-64 0 -130.5 -26.5t-120.5 -75.5t-88.5 -118t-34.5 -154q0 -78 31 -145t82.5 -116.5t119.5 -78t141 -28.5q32 0 61 5.5t53.5 12t43.5 12t31 5.5q14 0 21 -4.5t12 -16.5h16v212h-16
q-9 -41 -28 -79t-47 -67.5t-64.5 -47.5t-81.5 -18q-56 0 -96.5 16t-66 56t-37.5 108t-12 172q0 79 6 145.5t27.5 114.5t63.5 75t115 27q54 0 90.5 -19.5t61 -50t40 -67t26.5 -69.5h13zM411 938l-88 -176h13l141 150q6 7 7.5 15t1.5 12q0 15 -12.5 22.5t-20.5 7.5
q-20 0 -28.5 -10t-13.5 -21z" />
    <glyph glyph-name="cacute" unicode="&#x107;" horiz-adv-x="481" 
d="M35 215q0 -51 14.5 -88t38 -62.5t51.5 -40.5t55.5 -23.5t51 -11t36.5 -2.5q48 0 79.5 13t51.5 31.5t30.5 40t15.5 39.5l-14 5q-2 -9 -10.5 -28.5t-25.5 -39t-45 -34t-69 -14.5q-43 0 -68 20t-38 52t-16 71t-3 78q0 42 3.5 79.5t15 66t32.5 45.5t57 17q26 0 43.5 -11.5
t17.5 -31.5q0 -4 -2.5 -14t-5 -21t-5 -21t-2.5 -14q0 -27 19.5 -35.5t42.5 -8.5q31 0 48 13.5t17 46.5q0 25 -12.5 45.5t-35 35t-53.5 22.5t-69 8q-60 0 -105.5 -22t-77 -55.5t-47.5 -73.5t-16 -77zM283 705l-88 -176h13l141 150q6 7 7.5 15t1.5 12q0 15 -12.5 22.5
t-20.5 7.5q-20 0 -28.5 -10t-13.5 -21z" />
    <glyph glyph-name="Ccircumflex" unicode="&#x108;" horiz-adv-x="722" 
d="M657 508v204h-16q-3 -14 -10 -17.5t-21 -3.5q-13 0 -32 6t-42.5 12.5t-51 12.5t-59.5 6q-64 0 -130.5 -26.5t-120.5 -75.5t-88.5 -118t-34.5 -154q0 -78 31 -145t82.5 -116.5t119.5 -78t141 -28.5q32 0 61 5.5t53.5 12t43.5 12t31 5.5q14 0 21 -4.5t12 -16.5h16v212h-16
q-9 -41 -28 -79t-47 -67.5t-64.5 -47.5t-81.5 -18q-56 0 -96.5 16t-66 56t-37.5 108t-12 172q0 79 6 145.5t27.5 114.5t63.5 75t115 27q54 0 90.5 -19.5t61 -50t40 -67t26.5 -69.5h13zM385 959l-108 -197h11l133 127l133 -127h12l-108 197h-73z" />
    <glyph glyph-name="ccircumflex" unicode="&#x109;" horiz-adv-x="481" 
d="M35 215q0 -51 14.5 -88t38 -62.5t51.5 -40.5t55.5 -23.5t51 -11t36.5 -2.5q48 0 79.5 13t51.5 31.5t30.5 40t15.5 39.5l-14 5q-2 -9 -10.5 -28.5t-25.5 -39t-45 -34t-69 -14.5q-43 0 -68 20t-38 52t-16 71t-3 78q0 42 3.5 79.5t15 66t32.5 45.5t57 17q26 0 43.5 -11.5
t17.5 -31.5q0 -4 -2.5 -14t-5 -21t-5 -21t-2.5 -14q0 -27 19.5 -35.5t42.5 -8.5q31 0 48 13.5t17 46.5q0 25 -12.5 45.5t-35 35t-53.5 22.5t-69 8q-60 0 -105.5 -22t-77 -55.5t-47.5 -73.5t-16 -77zM239 726l-108 -197h11l133 127l133 -127h12l-108 197h-73z" />
    <glyph glyph-name="Cdotaccent" unicode="&#x10a;" horiz-adv-x="722" 
d="M657 508v204h-16q-3 -14 -10 -17.5t-21 -3.5q-13 0 -32 6t-42.5 12.5t-51 12.5t-59.5 6q-64 0 -130.5 -26.5t-120.5 -75.5t-88.5 -118t-34.5 -154q0 -78 31 -145t82.5 -116.5t119.5 -78t141 -28.5q32 0 61 5.5t53.5 12t43.5 12t31 5.5q14 0 21 -4.5t12 -16.5h16v212h-16
q-9 -41 -28 -79t-47 -67.5t-64.5 -47.5t-81.5 -18q-56 0 -96.5 16t-66 56t-37.5 108t-12 172q0 79 6 145.5t27.5 114.5t63.5 75t115 27q54 0 90.5 -19.5t61 -50t40 -67t26.5 -69.5h13zM337 877q0 -26 19 -45t45 -19t45 19t19 45t-19 45t-45 19t-45 -19t-19 -45z" />
    <glyph glyph-name="cdotaccent" unicode="&#x10b;" horiz-adv-x="481" 
d="M35 215q0 -51 14.5 -88t38 -62.5t51.5 -40.5t55.5 -23.5t51 -11t36.5 -2.5q48 0 79.5 13t51.5 31.5t30.5 40t15.5 39.5l-14 5q-2 -9 -10.5 -28.5t-25.5 -39t-45 -34t-69 -14.5q-43 0 -68 20t-38 52t-16 71t-3 78q0 42 3.5 79.5t15 66t32.5 45.5t57 17q26 0 43.5 -11.5
t17.5 -31.5q0 -4 -2.5 -14t-5 -21t-5 -21t-2.5 -14q0 -27 19.5 -35.5t42.5 -8.5q31 0 48 13.5t17 46.5q0 25 -12.5 45.5t-35 35t-53.5 22.5t-69 8q-60 0 -105.5 -22t-77 -55.5t-47.5 -73.5t-16 -77zM211 644q0 -26 19 -45t45 -19t45 19t19 45t-19 45t-45 19t-45 -19t-19 -45
z" />
    <glyph glyph-name="Ccaron" unicode="&#x10c;" horiz-adv-x="722" 
d="M657 508v204h-16q-3 -14 -10 -17.5t-21 -3.5q-13 0 -32 6t-42.5 12.5t-51 12.5t-59.5 6q-64 0 -130.5 -26.5t-120.5 -75.5t-88.5 -118t-34.5 -154q0 -78 31 -145t82.5 -116.5t119.5 -78t141 -28.5q32 0 61 5.5t53.5 12t43.5 12t31 5.5q14 0 21 -4.5t12 -16.5h16v212h-16
q-9 -41 -28 -79t-47 -67.5t-64.5 -47.5t-81.5 -18q-56 0 -96.5 16t-66 56t-37.5 108t-12 172q0 79 6 145.5t27.5 114.5t63.5 75t115 27q54 0 90.5 -19.5t61 -50t40 -67t26.5 -69.5h13zM446 762l109 197h-12l-133 -127l-133 127h-11l107 -197h73z" />
    <glyph glyph-name="ccaron" unicode="&#x10d;" horiz-adv-x="481" 
d="M35 215q0 -51 14.5 -88t38 -62.5t51.5 -40.5t55.5 -23.5t51 -11t36.5 -2.5q48 0 79.5 13t51.5 31.5t30.5 40t15.5 39.5l-14 5q-2 -9 -10.5 -28.5t-25.5 -39t-45 -34t-69 -14.5q-43 0 -68 20t-38 52t-16 71t-3 78q0 42 3.5 79.5t15 66t32.5 45.5t57 17q26 0 43.5 -11.5
t17.5 -31.5q0 -4 -2.5 -14t-5 -21t-5 -21t-2.5 -14q0 -27 19.5 -35.5t42.5 -8.5q31 0 48 13.5t17 46.5q0 25 -12.5 45.5t-35 35t-53.5 22.5t-69 8q-60 0 -105.5 -22t-77 -55.5t-47.5 -73.5t-16 -77zM308 529l109 197h-12l-133 -127l-133 127h-11l107 -197h73z" />
    <glyph glyph-name="Dcaron" unicode="&#x10e;" horiz-adv-x="815" 
d="M269 14v684q10 2 26 2.5t36 0.5q87 0 140.5 -25t83 -71.5t39.5 -112t10 -146.5q0 -33 -3 -70.5t-12.5 -75t-28 -71.5t-50 -60.5t-77.5 -42t-111 -15.5q-24 0 -53 3zM124 698v-684h-92v-14h92q57 0 113.5 -1t113.5 -1q39 0 84.5 6t92 21.5t89.5 41.5t76.5 66t53.5 95
t20 128q0 74 -20 129t-54 95t-78 66t-93 41.5t-99 21.5t-95 6q-51 0 -102 -1.5t-102 -1.5h-92v-14h92zM410 762l109 197h-12l-133 -127l-133 127h-11l107 -197h73z" />
    <glyph glyph-name="dcaron" unicode="&#x10f;" horiz-adv-x="801" 
d="M374 214q0 -31 -2.5 -68.5t-14.5 -70t-35.5 -54t-65.5 -21.5q-28 0 -44.5 15t-25 43t-11 67.5t-2.5 88.5q0 60 4.5 101.5t15.5 66.5t28.5 36t42.5 11q37 0 59 -21t33 -53t14.5 -70t3.5 -71zM496 14v707h-190v-14h68v-348h-2q-15 42 -43 63t-73 21q-58 0 -99 -22.5
t-67.5 -56.5t-39 -74t-12.5 -75q0 -45 16 -86t44.5 -72.5t68.5 -50.5t89 -19q45 0 73.5 22.5t44.5 64.5h2v-74h186v14h-66zM614 428l7 -13q21 13 46 30.5t46.5 41t35.5 53.5t14 69q0 57 -27 88t-65 31q-13 0 -26.5 -4t-24.5 -12.5t-18 -22t-7 -32.5t7 -32.5t17 -22
t22.5 -12.5t22.5 -4q11 0 22 2t20 8q5 -5 10 -15t5 -26q0 -36 -29 -64.5t-78 -62.5z" />
    <glyph glyph-name="gbreve" unicode="&#x11f;" horiz-adv-x="537" 
d="M140 -156q0 40 16.5 64t46.5 48h104q15 0 33 -4t33 -15t25 -29.5t10 -48.5t-12 -55t-31.5 -43t-45.5 -28t-55 -10q-38 0 -62 12t-38 30.5t-19 39.5t-5 39zM256 167q-17 0 -32 4t-25.5 18.5t-16.5 42.5t-6 75q0 23 3 45t11.5 39t24.5 27.5t41 10.5q27 0 42 -10t23 -28
t10 -42.5t2 -53.5q0 -41 -5.5 -66.5t-15.5 -39t-24 -18t-32 -4.5zM286 71h-110q-34 0 -54 12t-20 37q0 11 5 24.5t34 32.5q20 -8 51 -16t71 -8q50 0 84 12.5t55.5 32.5t31 44.5t9.5 49.5q0 41 -14 62.5t-26 34.5q20 14 28 18.5t14 4.5q11 0 13 -7t4 -21q1 -4 2.5 -10.5
t6 -12t13 -9.5t22.5 -4q20 0 32 11.5t12 31.5q0 23 -14.5 37.5t-43.5 14.5q-33 0 -53 -11.5t-45 -34.5q-23 18 -55.5 32t-77.5 14t-81.5 -12t-61.5 -32.5t-38.5 -48t-13.5 -58.5q0 -22 6.5 -38.5t16 -29t20.5 -22t20 -16.5q-31 -17 -49.5 -36t-27.5 -36.5t-11.5 -30.5
t-2.5 -18q0 -31 15 -52t37 -33t47.5 -17t45.5 -5v-2q-23 -6 -46.5 -17t-43 -26.5t-31.5 -36.5t-12 -48q0 -14 6 -34.5t26 -40t57.5 -33.5t100.5 -14q56 0 99.5 18t74.5 47t47 66t16 76q0 46 -16 76.5t-42 48.5t-60.5 25.5t-72.5 7.5zM141 712h-11q-1 -78 38 -117t103 -39
t103.5 39t38.5 117h-12q-14 -52 -49 -71t-81 -19t-81 19t-49 71z" />
    <glyph glyph-name="iogonek" unicode="&#x12f;" horiz-adv-x="315" 
d="M93 644q0 -29 21 -50t50 -21t50 21t21 50t-21 50t-50 21t-50 -21t-21 -50zM36 429v-14h67v-401h-67v-14h256v14h-67v415h-189zM222 0l-79 -41q-25 -14 -40.5 -26.5t-23.5 -24t-10.5 -21.5t-2.5 -19q0 -26 20 -46.5t65 -20.5q14 0 25 1.5t21.5 5t21 9.5t24.5 16l-7 12
q-6 -5 -15 -9.5t-29 -4.5q-16 0 -25 6.5t-13.5 14.5t-5 15.5t-0.5 10.5q0 23 22 51t73 71h-21z" />
    <glyph glyph-name="Ldotaccent" unicode="&#x13f;" horiz-adv-x="722" 
d="M46 712v-14h92v-684h-92v-14h634v226h-13q-13 -58 -36.5 -98.5t-53 -66t-63 -36.5t-66.5 -11h-165v684h92v14h-329zM490 493q0 -26 19 -45t45 -19t45 19t19 45t-19 45t-45 19t-45 -19t-19 -45z" />
    <glyph glyph-name="obreve" unicode="&#x14f;" 
d="M278 0q-39 0 -61 18.5t-32.5 48.5t-13 69t-2.5 79t2.5 78.5t13 68.5t32.5 48.5t61 18.5t61 -18.5t32.5 -48.5t13 -68.5t2.5 -78.5t-2.5 -79t-13 -69t-32.5 -48.5t-61 -18.5zM278 443q-52 0 -96.5 -18.5t-77.5 -49.5t-51.5 -72.5t-18.5 -87.5q0 -47 18.5 -88.5t51.5 -72.5
t77.5 -49t96.5 -18t96.5 18t77.5 49t51.5 72.5t18.5 88.5q0 46 -18.5 87.5t-51.5 72.5t-77.5 49.5t-96.5 18.5zM152 712h-11q-1 -78 38 -117t103 -39t103.5 39t38.5 117h-12q-14 -52 -49 -71t-81 -19t-81 19t-49 71z" />
    <glyph glyph-name="scedilla" unicode="&#x15f;" horiz-adv-x="426" 
d="M44 145v-145h14q3 8 6.5 11t11.5 3q9 0 25 -4t35.5 -9.5t40.5 -9.5t39 -4q33 0 64 10t54.5 28.5t38 45t14.5 59.5q0 48 -28 79t-82 50l-85 29q-25 9 -40 18.5t-22 19t-9 18.5t-2 16q0 34 27.5 51.5t60.5 17.5q31 0 52 -9.5t35.5 -26t25 -38.5t20.5 -46h13v122h-14
q-2 -5 -5 -9t-14 -4q-6 0 -16.5 4t-24 8.5t-30 8.5t-35.5 4q-36 0 -66.5 -11.5t-52 -31t-33.5 -45.5t-12 -55q0 -27 9 -46.5t22.5 -33.5t29.5 -22.5t30 -13.5l81 -30q27 -10 42.5 -19.5t23.5 -19.5t10.5 -19.5t2.5 -18.5q0 -29 -10.5 -44.5t-25 -23t-29.5 -8.5t-24 -1
q-35 0 -59 12.5t-41 32.5t-29.5 46t-24.5 54h-14zM155 0l-73 -78l14 -14q16 10 37 10q14 0 21.5 -6.5t11.5 -16t4.5 -21.5t0.5 -22q0 -12 -2 -24.5t-7 -23t-14 -17t-24 -6.5q-20 0 -31 5.5t-27 16.5l-9 -12q20 -15 37 -22.5t43 -7.5q21 0 41.5 6t36.5 18t25.5 29.5t9.5 41.5
q0 18 -7.5 34t-20.5 27t-29 17.5t-34 6.5q-13 0 -27 -4.5t-25 -9.5l-2 2l70 71h-20z" />
    <glyph glyph-name="uring" unicode="&#x16f;" horiz-adv-x="611" 
d="M27 429v-14h67v-289q0 -73 37 -103.5t107 -30.5q22 0 45 5.5t43.5 17t36.5 28t24 38.5h2v-81h186v14h-66v415h-188v-14h66v-258q0 -27 -7.5 -52t-21 -43.5t-32.5 -29.5t-42 -11q-38 0 -53 26.5t-15 64.5v317h-189zM295 717q29 0 38 -23t9 -65t-9 -65t-38 -23t-38 23
t-9 65t9 65t38 23zM400 629q0 16 -6.5 33.5t-19.5 32t-32.5 24t-46.5 9.5t-46.5 -9.5t-32.5 -24t-19.5 -32t-6.5 -33.5t6.5 -33.5t19.5 -32t32.5 -24t46.5 -9.5t46.5 9.5t32.5 24t19.5 32t6.5 33.5z" />
    <glyph glyph-name="zdotaccent" unicode="&#x17c;" horiz-adv-x="463" 
d="M277 415l-243 -415h391l11 138h-11q-8 -22 -16.5 -44.5t-22 -40t-34 -28.5t-51.5 -11h-122l242 415h-357l-15 -119h11q12 26 23 46t25.5 33t33.5 19.5t46 6.5h89zM153 644q0 -26 19 -45t45 -19t45 19t19 45t-19 45t-45 19t-45 -19t-19 -45z" />
    <glyph glyph-name="Zdotaccent" unicode="&#x17b;" horiz-adv-x="685" 
d="M436 698l-402 -698h601v226h-13q-13 -58 -36.5 -98.5t-55 -66t-68.5 -36.5t-77 -11h-181l404 698h-518v-167h13q15 35 32 63t39.5 48t52.5 31t70 11h139zM269 877q0 -26 19 -45t45 -19t45 19t19 45t-19 45t-45 19t-45 -19t-19 -45z" />
    <glyph glyph-name="zacute" unicode="&#x17a;" horiz-adv-x="463" 
d="M277 415l-243 -415h391l11 138h-11q-8 -22 -16.5 -44.5t-22 -40t-34 -28.5t-51.5 -11h-122l242 415h-357l-15 -119h11q12 26 23 46t25.5 33t33.5 19.5t46 6.5h89zM184 705l-88 -176h13l141 150q6 7 7.5 15t1.5 12q0 15 -12.5 22.5t-20.5 7.5q-20 0 -28.5 -10t-13.5 -21z
" />
    <glyph glyph-name="Zacute" unicode="&#x179;" horiz-adv-x="685" 
d="M436 698l-402 -698h601v226h-13q-13 -58 -36.5 -98.5t-55 -66t-68.5 -36.5t-77 -11h-181l404 698h-518v-167h13q15 35 32 63t39.5 48t52.5 31t70 11h139zM374 938l-88 -176h13l141 150q6 7 7.5 15t1.5 12q0 15 -12.5 22.5t-20.5 7.5q-20 0 -28.5 -10t-13.5 -21z" />
    <glyph glyph-name="ycircumflex" unicode="&#x177;" horiz-adv-x="481" 
d="M299 126l-122 289h70v14h-254v-14h53l188 -450l-43 -107q-7 -18 -16.5 -40t-22 -41.5t-28 -32.5t-33.5 -13q-8 0 -14 5.5t-6 16.5q0 15 6.5 26t6.5 29q0 21 -17 31.5t-36 10.5q-26 0 -44.5 -13t-18.5 -42q0 -38 28.5 -59.5t73.5 -21.5q42 0 67 21t45 66q20 43 42.5 99.5
t52 130.5t69.5 169t96 215h46v14h-145v-14h83zM226 726l-108 -197h11l133 127l133 -127h12l-108 197h-73z" />
    <glyph glyph-name="Ycircumflex" unicode="&#x176;" horiz-adv-x="704" 
d="M-15 712v-14h78l232 -405v-279h-92v-14h330v14h-93v317l193 367h87v14h-191v-14h87l-184 -349l-204 349h79v14h-322zM368 959l-108 -197h11l133 127l133 -127h12l-108 197h-73z" />
    <glyph glyph-name="wcircumflex" unicode="&#x175;" horiz-adv-x="741" 
d="M54 415l174 -442h7l139 374l148 -374h7l164 442h49v14h-135v-14h70l-96 -260l-103 260h67v14h-250v-14h51l20 -47l-79 -213l-103 260h65v14h-254v-14h59zM337 726l-108 -197h11l133 127l133 -127h12l-108 197h-73z" />
    <glyph glyph-name="Wcircumflex" unicode="&#x174;" horiz-adv-x="1037" 
d="M-11 712v-14h82l248 -725h29l168 473h2l164 -473h29l257 725h81v14h-184v-14h86l-185 -528h-2l-181 528h93v14h-299v-14h54l78 -229l-105 -298h-2l-180 527h73v14h-306zM483 959l-108 -197h11l133 127l133 -127h12l-108 197h-73z" />
    <glyph glyph-name="uogonek" unicode="&#x173;" horiz-adv-x="611" 
d="M27 429v-14h67v-289q0 -73 37 -103.5t107 -30.5q22 0 45 5.5t43.5 17t36.5 28t24 38.5h2v-81h186v14h-66v415h-188v-14h66v-258q0 -27 -7.5 -52t-21 -43.5t-32.5 -29.5t-42 -11q-38 0 -53 26.5t-15 64.5v317h-189zM470 0l-79 -41q-25 -14 -40.5 -26.5t-23.5 -24
t-10.5 -21.5t-2.5 -19q0 -26 20 -46.5t65 -20.5q14 0 25 1.5t21.5 5t21 9.5t24.5 16l-7 12q-6 -5 -15 -9.5t-29 -4.5q-16 0 -25 6.5t-13.5 14.5t-5 15.5t-0.5 10.5q0 23 22 51t73 71h-21z" />
    <glyph glyph-name="Uogonek" unicode="&#x172;" horiz-adv-x="778" 
d="M32 712v-14h93v-467q0 -45 10 -89t41.5 -78.5t90.5 -56t156 -21.5q60 0 101 13.5t68 35t41 48.5t21 54t8 51.5t1 40.5v469h93v14h-200v-14h91v-470q0 -15 -1 -37.5t-7 -48t-19 -51t-37 -46t-60.5 -33t-90.5 -12.5q-55 0 -87.5 21.5t-49 56.5t-21 79.5t-4.5 91.5v449h92
v14h-330zM462 0l-79 -41q-25 -14 -40.5 -26.5t-23.5 -24t-10.5 -21.5t-2.5 -19q0 -26 20 -46.5t65 -20.5q14 0 25 1.5t21.5 5t21 9.5t24.5 16l-7 12q-6 -5 -15 -9.5t-29 -4.5q-16 0 -25 6.5t-13.5 14.5t-5 15.5t-0.5 10.5q0 23 22 51t73 71h-21z" />
    <glyph glyph-name="uhungarumlaut" unicode="&#x171;" horiz-adv-x="611" 
d="M27 429v-14h67v-289q0 -73 37 -103.5t107 -30.5q22 0 45 5.5t43.5 17t36.5 28t24 38.5h2v-81h186v14h-66v415h-188v-14h66v-258q0 -27 -7.5 -52t-21 -43.5t-32.5 -29.5t-42 -11q-38 0 -53 26.5t-15 64.5v317h-189zM235 705l-88 -176h13l141 150q6 7 7.5 15t1.5 12
q0 15 -12.5 22.5t-20.5 7.5q-20 0 -28.5 -10t-13.5 -21zM357 705l-88 -176h13l141 150q6 7 7.5 15t1.5 12q0 15 -12.5 22.5t-20.5 7.5q-20 0 -28.5 -10t-13.5 -21z" />
    <glyph glyph-name="Uhungarumlaut" unicode="&#x170;" horiz-adv-x="778" 
d="M32 712v-14h93v-467q0 -45 10 -89t41.5 -78.5t90.5 -56t156 -21.5q60 0 101 13.5t68 35t41 48.5t21 54t8 51.5t1 40.5v469h93v14h-200v-14h91v-470q0 -15 -1 -37.5t-7 -48t-19 -51t-37 -46t-60.5 -33t-90.5 -12.5q-55 0 -87.5 21.5t-49 56.5t-21 79.5t-4.5 91.5v449h92
v14h-330zM378 938l-88 -176h13l141 150q6 7 7.5 15t1.5 12q0 15 -12.5 22.5t-20.5 7.5q-20 0 -28.5 -10t-13.5 -21zM500 938l-88 -176h13l141 150q6 7 7.5 15t1.5 12q0 15 -12.5 22.5t-20.5 7.5q-20 0 -28.5 -10t-13.5 -21z" />
    <glyph glyph-name="Ohungarumlaut" unicode="&#x150;" horiz-adv-x="833" 
d="M205 354q0 79 7 145t29 114t64 74.5t112 26.5q75 0 117.5 -28.5t63.5 -77t25.5 -112t4.5 -133.5q0 -78 -5.5 -144.5t-26.5 -115t-63 -76t-116 -27.5q-56 0 -96.5 16t-66 56.5t-37.5 109t-12 172.5zM42 354q0 -78 31 -145t82.5 -116.5t119.5 -78t142 -28.5
q75 0 142.5 29.5t119 80.5t82 118.5t30.5 142.5q0 86 -32.5 154.5t-85 116.5t-120 74t-136.5 26q-64 0 -131 -26.5t-121 -75.5t-88.5 -118t-34.5 -154zM367 938l-88 -176h13l141 150q6 7 7.5 15t1.5 12q0 15 -12.5 22.5t-20.5 7.5q-20 0 -28.5 -10t-13.5 -21zM489 938
l-88 -176h13l141 150q6 7 7.5 15t1.5 12q0 15 -12.5 22.5t-20.5 7.5q-20 0 -28.5 -10t-13.5 -21z" />
    <glyph glyph-name="ldotaccent" unicode="&#x140;" horiz-adv-x="523" 
d="M36 721v-14h67v-693h-67v-14h256v14h-67v707h-189zM343 493q0 -26 19 -45t45 -19t45 19t19 45t-19 45t-45 19t-45 -19t-19 -45z" />
    <glyph glyph-name="Idotaccent" unicode="&#x130;" horiz-adv-x="407" 
d="M39 712v-14h92v-684h-92v-14h329v14h-92v684h92v14h-329zM140 877q0 -26 19 -45t45 -19t45 19t19 45t-19 45t-45 19t-45 -19t-19 -45z" />
    <glyph glyph-name="Gdotaccent" unicode="&#x120;" horiz-adv-x="778" 
d="M654 508v204h-17q-5 -12 -11 -16.5t-20 -4.5q-13 0 -32 6t-43 12.5t-52 12.5t-58 6q-64 0 -130.5 -26.5t-120.5 -75.5t-88.5 -118t-34.5 -154q0 -78 31 -145t82.5 -116.5t119.5 -78t141 -28.5q46 0 78.5 9.5t57.5 20.5t46.5 20.5t45.5 9.5q12 0 21.5 -5.5t11.5 -17.5h18
v229h65v14h-309v-14h103v-38q0 -46 -4 -85t-18.5 -67.5t-41.5 -45t-73 -16.5q-56 0 -96.5 16.5t-66 54.5t-37.5 100t-12 153v87q0 56 7 110.5t29.5 97t64.5 69t111 26.5q87 1 139 -53.5t78 -152.5h15zM340 877q0 -26 19 -45t45 -19t45 19t19 45t-19 45t-45 19t-45 -19
t-19 -45z" />
    <glyph glyph-name="Dcroat" unicode="&#x110;" horiz-adv-x="815" 
d="M269 389v309q10 2 26 2.5t36 0.5q87 0 140.5 -25t83 -71.5t39.5 -112t10 -146.5q0 -33 -3 -70.5t-12.5 -75t-28 -71.5t-50 -60.5t-77.5 -42t-111 -15.5q-24 0 -53 3v358h148v17h-148zM124 372v-358h-92v-14h92q57 0 113.5 -1t113.5 -1q39 0 84.5 6t92 21.5t89.5 41.5
t76.5 66t53.5 95t20 128q0 74 -20 129t-54 95t-78 66t-93 41.5t-99 21.5t-95 6q-51 0 -102 -1.5t-102 -1.5h-92v-14h92v-309h-92v-17h92z" />
    <glyph glyph-name="dcroat" unicode="&#x111;" horiz-adv-x="665" 
d="M374 214q0 -31 -2.5 -68.5t-14.5 -70t-35.5 -54t-65.5 -21.5q-28 0 -44.5 15t-25 43t-11 67.5t-2.5 88.5q0 60 4.5 101.5t15.5 66.5t28.5 36t42.5 11q37 0 59 -21t33 -53t14.5 -70t3.5 -71zM496 14v707h-190v-14h68v-348h-2q-15 42 -43 63t-73 21q-58 0 -99 -22.5
t-67.5 -56.5t-39 -74t-12.5 -75q0 -45 16 -86t44.5 -72.5t68.5 -50.5t89 -19q45 0 73.5 22.5t44.5 64.5h2v-74h186v14h-66zM186 606v-31h375v31h-375z" />
    <glyph glyph-name="Emacron" unicode="&#x112;" horiz-adv-x="722" 
d="M37 712v-14h92v-684h-92v-14h639v219h-13q-10 -43 -29 -80.5t-47.5 -65.5t-65.5 -43.5t-83 -15.5h-164v361h67q35 0 58.5 -12t39.5 -32.5t25.5 -47.5t16.5 -56h13v311h-13q-7 -34 -18 -61.5t-28 -47t-42.5 -30t-62.5 -10.5h-56v309h159q49 0 83 -18.5t55.5 -43.5
t33.5 -51.5t17 -43.5h13v171h-598zM203 875v-30h321v30h-321z" />
    <glyph glyph-name="emacron" unicode="&#x113;" horiz-adv-x="500" 
d="M330 265h-160q1 26 3.5 54.5t11.5 53t27.5 40.5t52.5 16q24 0 37.5 -11t19.5 -27t7 -32t1 -27v-67zM170 251h295q0 51 -18 87.5t-46 59.5t-63 34t-70 11q-49 0 -91.5 -19.5t-74 -51t-49.5 -72.5t-18 -84q0 -54 19 -96.5t52.5 -72t78.5 -45t97 -15.5q44 0 75 12.5t52 31
t33 40t17 40.5l-14 5q-1 -9 -9.5 -28t-26 -38.5t-45 -34.5t-67.5 -15q-45 0 -70 19t-38 48.5t-16 66t-3 72.5v45zM111 642v-30h321v30h-321z" />
    <glyph glyph-name="Ebreve" unicode="&#x114;" horiz-adv-x="722" 
d="M37 712v-14h92v-684h-92v-14h639v219h-13q-10 -43 -29 -80.5t-47.5 -65.5t-65.5 -43.5t-83 -15.5h-164v361h67q35 0 58.5 -12t39.5 -32.5t25.5 -47.5t16.5 -56h13v311h-13q-7 -34 -18 -61.5t-28 -47t-42.5 -30t-62.5 -10.5h-56v309h159q49 0 83 -18.5t55.5 -43.5
t33.5 -51.5t17 -43.5h13v171h-598zM243 945h-11q-1 -78 38 -117t103 -39t103.5 39t38.5 117h-12q-14 -52 -49 -71t-81 -19t-81 19t-49 71z" />
    <glyph glyph-name="ebreve" unicode="&#x115;" horiz-adv-x="500" 
d="M330 265h-160q1 26 3.5 54.5t11.5 53t27.5 40.5t52.5 16q24 0 37.5 -11t19.5 -27t7 -32t1 -27v-67zM170 251h295q0 51 -18 87.5t-46 59.5t-63 34t-70 11q-49 0 -91.5 -19.5t-74 -51t-49.5 -72.5t-18 -84q0 -54 19 -96.5t52.5 -72t78.5 -45t97 -15.5q44 0 75 12.5t52 31
t33 40t17 40.5l-14 5q-1 -9 -9.5 -28t-26 -38.5t-45 -34.5t-67.5 -15q-45 0 -70 19t-38 48.5t-16 66t-3 72.5v45zM142 712h-11q-1 -78 38 -117t103 -39t103.5 39t38.5 117h-12q-14 -52 -49 -71t-81 -19t-81 19t-49 71z" />
    <glyph glyph-name="Edotaccent" unicode="&#x116;" horiz-adv-x="722" 
d="M37 712v-14h92v-684h-92v-14h639v219h-13q-10 -43 -29 -80.5t-47.5 -65.5t-65.5 -43.5t-83 -15.5h-164v361h67q35 0 58.5 -12t39.5 -32.5t25.5 -47.5t16.5 -56h13v311h-13q-7 -34 -18 -61.5t-28 -47t-42.5 -30t-62.5 -10.5h-56v309h159q49 0 83 -18.5t55.5 -43.5
t33.5 -51.5t17 -43.5h13v171h-598zM310 877q0 -26 19 -45t45 -19t45 19t19 45t-19 45t-45 19t-45 -19t-19 -45z" />
    <glyph glyph-name="edotaccent" unicode="&#x117;" horiz-adv-x="500" 
d="M330 265h-160q1 26 3.5 54.5t11.5 53t27.5 40.5t52.5 16q24 0 37.5 -11t19.5 -27t7 -32t1 -27v-67zM170 251h295q0 51 -18 87.5t-46 59.5t-63 34t-70 11q-49 0 -91.5 -19.5t-74 -51t-49.5 -72.5t-18 -84q0 -54 19 -96.5t52.5 -72t78.5 -45t97 -15.5q44 0 75 12.5t52 31
t33 40t17 40.5l-14 5q-1 -9 -9.5 -28t-26 -38.5t-45 -34.5t-67.5 -15q-45 0 -70 19t-38 48.5t-16 66t-3 72.5v45zM207 644q0 -26 19 -45t45 -19t45 19t19 45t-19 45t-45 19t-45 -19t-19 -45z" />
    <glyph glyph-name="Eogonek" unicode="&#x118;" horiz-adv-x="722" 
d="M37 712v-14h92v-684h-92v-14h639v219h-13q-10 -43 -29 -80.5t-47.5 -65.5t-65.5 -43.5t-83 -15.5h-164v361h67q35 0 58.5 -12t39.5 -32.5t25.5 -47.5t16.5 -56h13v311h-13q-7 -34 -18 -61.5t-28 -47t-42.5 -30t-62.5 -10.5h-56v309h159q49 0 83 -18.5t55.5 -43.5
t33.5 -51.5t17 -43.5h13v171h-598zM460 0l-79 -41q-25 -14 -40.5 -26.5t-23.5 -24t-10.5 -21.5t-2.5 -19q0 -26 20 -46.5t65 -20.5q14 0 25 1.5t21.5 5t21 9.5t24.5 16l-7 12q-6 -5 -15 -9.5t-29 -4.5q-16 0 -25 6.5t-13.5 14.5t-5 15.5t-0.5 10.5q0 23 22 51t73 71h-21z
" />
    <glyph glyph-name="eogonek" unicode="&#x119;" horiz-adv-x="500" 
d="M330 265h-160q1 26 3.5 54.5t11.5 53t27.5 40.5t52.5 16q24 0 37.5 -11t19.5 -27t7 -32t1 -27v-67zM170 251h295q0 51 -18 87.5t-46 59.5t-63 34t-70 11q-49 0 -91.5 -19.5t-74 -51t-49.5 -72.5t-18 -84q0 -54 19 -96.5t52.5 -72t78.5 -45t97 -15.5q44 0 75 12.5t52 31
t33 40t17 40.5l-14 5q-1 -9 -9.5 -28t-26 -38.5t-45 -34.5t-67.5 -15q-45 0 -70 19t-38 48.5t-16 66t-3 72.5v45zM348 0l-79 -41q-25 -14 -40.5 -26.5t-23.5 -24t-10.5 -21.5t-2.5 -19q0 -26 20 -46.5t65 -20.5q14 0 25 1.5t21.5 5t21 9.5t24.5 16l-7 12q-6 -5 -15 -9.5
t-29 -4.5q-16 0 -25 6.5t-13.5 14.5t-5 15.5t-0.5 10.5q0 23 22 51t73 71h-21z" />
    <glyph glyph-name="Ecaron" unicode="&#x11a;" horiz-adv-x="722" 
d="M37 712v-14h92v-684h-92v-14h639v219h-13q-10 -43 -29 -80.5t-47.5 -65.5t-65.5 -43.5t-83 -15.5h-164v361h67q35 0 58.5 -12t39.5 -32.5t25.5 -47.5t16.5 -56h13v311h-13q-7 -34 -18 -61.5t-28 -47t-42.5 -30t-62.5 -10.5h-56v309h159q49 0 83 -18.5t55.5 -43.5
t33.5 -51.5t17 -43.5h13v171h-598zM433 762l109 197h-12l-133 -127l-133 127h-11l107 -197h73z" />
    <glyph glyph-name="ecaron" unicode="&#x11b;" horiz-adv-x="500" 
d="M330 265h-160q1 26 3.5 54.5t11.5 53t27.5 40.5t52.5 16q24 0 37.5 -11t19.5 -27t7 -32t1 -27v-67zM170 251h295q0 51 -18 87.5t-46 59.5t-63 34t-70 11q-49 0 -91.5 -19.5t-74 -51t-49.5 -72.5t-18 -84q0 -54 19 -96.5t52.5 -72t78.5 -45t97 -15.5q44 0 75 12.5t52 31
t33 40t17 40.5l-14 5q-1 -9 -9.5 -28t-26 -38.5t-45 -34.5t-67.5 -15q-45 0 -70 19t-38 48.5t-16 66t-3 72.5v45zM304 529l109 197h-12l-133 -127l-133 127h-11l107 -197h73z" />
    <glyph glyph-name="Gcircumflex" unicode="&#x11c;" horiz-adv-x="778" 
d="M654 508v204h-17q-5 -12 -11 -16.5t-20 -4.5q-13 0 -32 6t-43 12.5t-52 12.5t-58 6q-64 0 -130.5 -26.5t-120.5 -75.5t-88.5 -118t-34.5 -154q0 -78 31 -145t82.5 -116.5t119.5 -78t141 -28.5q46 0 78.5 9.5t57.5 20.5t46.5 20.5t45.5 9.5q12 0 21.5 -5.5t11.5 -17.5h18
v229h65v14h-309v-14h103v-38q0 -46 -4 -85t-18.5 -67.5t-41.5 -45t-73 -16.5q-56 0 -96.5 16.5t-66 54.5t-37.5 100t-12 153v87q0 56 7 110.5t29.5 97t64.5 69t111 26.5q87 1 139 -53.5t78 -152.5h15zM372 959l-108 -197h11l133 127l133 -127h12l-108 197h-73z" />
    <glyph glyph-name="gcircumflex" unicode="&#x11d;" horiz-adv-x="537" 
d="M140 -156q0 40 16.5 64t46.5 48h104q15 0 33 -4t33 -15t25 -29.5t10 -48.5t-12 -55t-31.5 -43t-45.5 -28t-55 -10q-38 0 -62 12t-38 30.5t-19 39.5t-5 39zM256 167q-17 0 -32 4t-25.5 18.5t-16.5 42.5t-6 75q0 23 3 45t11.5 39t24.5 27.5t41 10.5q27 0 42 -10t23 -28
t10 -42.5t2 -53.5q0 -41 -5.5 -66.5t-15.5 -39t-24 -18t-32 -4.5zM286 71h-110q-34 0 -54 12t-20 37q0 11 5 24.5t34 32.5q20 -8 51 -16t71 -8q50 0 84 12.5t55.5 32.5t31 44.5t9.5 49.5q0 41 -14 62.5t-26 34.5q20 14 28 18.5t14 4.5q11 0 13 -7t4 -21q1 -4 2.5 -10.5
t6 -12t13 -9.5t22.5 -4q20 0 32 11.5t12 31.5q0 23 -14.5 37.5t-43.5 14.5q-33 0 -53 -11.5t-45 -34.5q-23 18 -55.5 32t-77.5 14t-81.5 -12t-61.5 -32.5t-38.5 -48t-13.5 -58.5q0 -22 6.5 -38.5t16 -29t20.5 -22t20 -16.5q-31 -17 -49.5 -36t-27.5 -36.5t-11.5 -30.5
t-2.5 -18q0 -31 15 -52t37 -33t47.5 -17t45.5 -5v-2q-23 -6 -46.5 -17t-43 -26.5t-31.5 -36.5t-12 -48q0 -14 6 -34.5t26 -40t57.5 -33.5t100.5 -14q56 0 99.5 18t74.5 47t47 66t16 76q0 46 -16 76.5t-42 48.5t-60.5 25.5t-72.5 7.5zM229 726l-108 -197h11l133 127l133 -127
h12l-108 197h-73z" />
    <glyph glyph-name="Gbreve" unicode="&#x11e;" horiz-adv-x="778" 
d="M654 508v204h-17q-5 -12 -11 -16.5t-20 -4.5q-13 0 -32 6t-43 12.5t-52 12.5t-58 6q-64 0 -130.5 -26.5t-120.5 -75.5t-88.5 -118t-34.5 -154q0 -78 31 -145t82.5 -116.5t119.5 -78t141 -28.5q46 0 78.5 9.5t57.5 20.5t46.5 20.5t45.5 9.5q12 0 21.5 -5.5t11.5 -17.5h18
v229h65v14h-309v-14h103v-38q0 -46 -4 -85t-18.5 -67.5t-41.5 -45t-73 -16.5q-56 0 -96.5 16.5t-66 54.5t-37.5 100t-12 153v87q0 56 7 110.5t29.5 97t64.5 69t111 26.5q87 1 139 -53.5t78 -152.5h15zM281 945h-11q-1 -78 38 -117t103 -39t103.5 39t38.5 117h-12
q-14 -52 -49 -71t-81 -19t-81 19t-49 71z" />
    <glyph glyph-name="Iogonek" unicode="&#x12e;" horiz-adv-x="407" 
d="M39 712v-14h92v-684h-92v-14h329v14h-92v684h92v14h-329zM222 0l-79 -41q-25 -14 -40.5 -26.5t-23.5 -24t-10.5 -21.5t-2.5 -19q0 -26 20 -46.5t65 -20.5q14 0 25 1.5t21.5 5t21 9.5t24.5 16l-7 12q-6 -5 -15 -9.5t-29 -4.5q-16 0 -25 6.5t-13.5 14.5t-5 15.5t-0.5 10.5
q0 23 22 51t73 71h-21z" />
    <glyph glyph-name="lcaron" unicode="&#x13e;" horiz-adv-x="509" 
d="M36 721v-14h67v-693h-67v-14h256v14h-67v707h-189zM308 428l7 -13q21 13 46 30.5t46.5 41t35.5 53.5t14 69q0 57 -27 88t-65 31q-13 0 -26.5 -4t-24.5 -12.5t-18 -22t-7 -32.5t7 -32.5t17 -22t22.5 -12.5t22.5 -4q11 0 22 2t20 8q5 -5 10 -15t5 -26q0 -36 -29 -64.5
t-78 -62.5z" />
    <glyph glyph-name="Obreve" unicode="&#x14e;" horiz-adv-x="833" 
d="M205 354q0 79 7 145t29 114t64 74.5t112 26.5q75 0 117.5 -28.5t63.5 -77t25.5 -112t4.5 -133.5q0 -78 -5.5 -144.5t-26.5 -115t-63 -76t-116 -27.5q-56 0 -96.5 16t-66 56.5t-37.5 109t-12 172.5zM42 354q0 -78 31 -145t82.5 -116.5t119.5 -78t142 -28.5
q75 0 142.5 29.5t119 80.5t82 118.5t30.5 142.5q0 86 -32.5 154.5t-85 116.5t-120 74t-136.5 26q-64 0 -131 -26.5t-121 -75.5t-88.5 -118t-34.5 -154zM291 945h-11q-1 -78 38 -117t103 -39t103.5 39t38.5 117h-12q-14 -52 -49 -71t-81 -19t-81 19t-49 71z" />
    <glyph glyph-name="Scedilla" unicode="&#x15e;" horiz-adv-x="648" 
d="M63 222v-222h16q5 14 11 18.5t20 4.5q10 0 30.5 -6t47 -12.5t57 -12.5t61.5 -6q62 0 112.5 19.5t87 52.5t56.5 77t20 93q0 50 -18.5 84t-48.5 58t-68.5 39.5t-79 28.5t-79 25t-68.5 28.5t-48.5 39.5t-18.5 58q0 23 11 45t32 40t51.5 29t70.5 11q49 0 81 -17t53 -44.5
t34.5 -61.5t25.5 -69h13v190h-16q-5 -12 -9.5 -16.5t-18.5 -4.5q-12 0 -26.5 6t-33.5 12.5t-44 12.5t-58 6q-52 0 -96.5 -17.5t-76.5 -46t-50 -65.5t-18 -77q0 -54 17.5 -90t46.5 -60.5t66 -40t76 -27t76 -22.5t66 -27t46.5 -40t17.5 -61q0 -20 -8 -46.5t-27.5 -50.5
t-53.5 -40.5t-87 -16.5q-15 0 -32.5 0.5t-37 6t-41 17.5t-44.5 35q-21 20 -35.5 43.5t-24 46t-14.5 42t-7 31.5h-15zM318 0l-73 -78l14 -14q16 10 37 10q14 0 21.5 -6.5t11.5 -16t4.5 -21.5t0.5 -22q0 -12 -2 -24.5t-7 -23t-14 -17t-24 -6.5q-20 0 -31 5.5t-27 16.5l-9 -12
q20 -15 37 -22.5t43 -7.5q21 0 41.5 6t36.5 18t25.5 29.5t9.5 41.5q0 18 -7.5 34t-20.5 27t-29 17.5t-34 6.5q-13 0 -27 -4.5t-25 -9.5l-2 2l70 71h-20z" />
    <glyph glyph-name="Uring" unicode="&#x16e;" horiz-adv-x="778" 
d="M32 712v-14h93v-467q0 -45 10 -89t41.5 -78.5t90.5 -56t156 -21.5q60 0 101 13.5t68 35t41 48.5t21 54t8 51.5t1 40.5v469h93v14h-200v-14h91v-470q0 -15 -1 -37.5t-7 -48t-19 -51t-37 -46t-60.5 -33t-90.5 -12.5q-55 0 -87.5 21.5t-49 56.5t-21 79.5t-4.5 91.5v449h92
v14h-330zM451 950q29 0 38 -23t9 -65t-9 -65t-38 -23t-38 23t-9 65t9 65t38 23zM556 862q0 16 -6.5 33.5t-19.5 32t-32.5 24t-46.5 9.5t-46.5 -9.5t-32.5 -24t-19.5 -32t-6.5 -33.5t6.5 -33.5t19.5 -32t32.5 -24t46.5 -9.5t46.5 9.5t32.5 24t19.5 32t6.5 33.5z" />
    <glyph glyph-name="ubreve" unicode="&#x16d;" horiz-adv-x="611" 
d="M27 429v-14h67v-289q0 -73 37 -103.5t107 -30.5q22 0 45 5.5t43.5 17t36.5 28t24 38.5h2v-81h186v14h-66v415h-188v-14h66v-258q0 -27 -7.5 -52t-21 -43.5t-32.5 -29.5t-42 -11q-38 0 -53 26.5t-15 64.5v317h-189zM178 712h-11q-1 -78 38 -117t103 -39t103.5 39t38.5 117
h-12q-14 -52 -49 -71t-81 -19t-81 19t-49 71z" />
    <glyph glyph-name="Ubreve" unicode="&#x16c;" horiz-adv-x="778" 
d="M32 712v-14h93v-467q0 -45 10 -89t41.5 -78.5t90.5 -56t156 -21.5q60 0 101 13.5t68 35t41 48.5t21 54t8 51.5t1 40.5v469h93v14h-200v-14h91v-470q0 -15 -1 -37.5t-7 -48t-19 -51t-37 -46t-60.5 -33t-90.5 -12.5q-55 0 -87.5 21.5t-49 56.5t-21 79.5t-4.5 91.5v449h92
v14h-330zM301 945h-11q-1 -78 38 -117t103 -39t103.5 39t38.5 117h-12q-14 -52 -49 -71t-81 -19t-81 19t-49 71z" />
    <glyph glyph-name="umacron" unicode="&#x16b;" horiz-adv-x="611" 
d="M27 429v-14h67v-289q0 -73 37 -103.5t107 -30.5q22 0 45 5.5t43.5 17t36.5 28t24 38.5h2v-81h186v14h-66v415h-188v-14h66v-258q0 -27 -7.5 -52t-21 -43.5t-32.5 -29.5t-42 -11q-38 0 -53 26.5t-15 64.5v317h-189zM132 642v-30h321v30h-321z" />
    <glyph glyph-name="Umacron" unicode="&#x16a;" horiz-adv-x="778" 
d="M32 712v-14h93v-467q0 -45 10 -89t41.5 -78.5t90.5 -56t156 -21.5q60 0 101 13.5t68 35t41 48.5t21 54t8 51.5t1 40.5v469h93v14h-200v-14h91v-470q0 -15 -1 -37.5t-7 -48t-19 -51t-37 -46t-60.5 -33t-90.5 -12.5q-55 0 -87.5 21.5t-49 56.5t-21 79.5t-4.5 91.5v449h92
v14h-330zM282 875v-30h321v30h-321z" />
    <glyph glyph-name="utilde" unicode="&#x169;" horiz-adv-x="611" 
d="M27 429v-14h67v-289q0 -73 37 -103.5t107 -30.5q22 0 45 5.5t43.5 17t36.5 28t24 38.5h2v-81h186v14h-66v415h-188v-14h66v-258q0 -27 -7.5 -52t-21 -43.5t-32.5 -29.5t-42 -11q-38 0 -53 26.5t-15 64.5v317h-189zM161 569l11 27q5 11 13 15.5t15 4.5q12 0 33 -6.5
t45 -14t46.5 -14t37.5 -6.5q23 0 39.5 13t28 31.5t18.5 38.5t10 33h-14q0 -2 -2.5 -9.5t-7.5 -15.5t-12.5 -14.5t-17.5 -6.5q-4 0 -27 6.5t-50 14t-51 13.5t-31 6q-11 0 -26.5 -5t-24.5 -13q-7 -6 -12.5 -13.5t-10.5 -18.5t-10.5 -27t-13.5 -39h14z" />
    <glyph glyph-name="Utilde" unicode="&#x168;" horiz-adv-x="778" 
d="M32 712v-14h93v-467q0 -45 10 -89t41.5 -78.5t90.5 -56t156 -21.5q60 0 101 13.5t68 35t41 48.5t21 54t8 51.5t1 40.5v469h93v14h-200v-14h91v-470q0 -15 -1 -37.5t-7 -48t-19 -51t-37 -46t-60.5 -33t-90.5 -12.5q-55 0 -87.5 21.5t-49 56.5t-21 79.5t-4.5 91.5v449h92
v14h-330zM294 802l11 27q5 11 13 15.5t15 4.5q12 0 33 -6.5t45 -14t46.5 -14t37.5 -6.5q23 0 39.5 13t28 31.5t18.5 38.5t10 33h-14q0 -2 -2.5 -9.5t-7.5 -15.5t-12.5 -14.5t-17.5 -6.5q-4 0 -27 6.5t-50 14t-51 13.5t-31 6q-11 0 -26.5 -5t-24.5 -13q-7 -6 -12.5 -13.5
t-10.5 -18.5t-10.5 -27t-13.5 -39h14z" />
    <glyph glyph-name="tbar" unicode="&#x167;" horiz-adv-x="370" 
d="M101 558v-129h-67v-14h67v-308q0 -18 2 -39t15.5 -39t42 -30t80.5 -12q19 0 40 3.5t39.5 14.5t33 31.5t20.5 54.5l-15 3q-4 -15 -10.5 -31t-16.5 -28.5t-23.5 -20.5t-32.5 -8q-17 0 -27.5 6t-16 16.5t-7.5 23.5t-2 28v335h117v14h-117v129q-15 -6 -30.5 -10t-30.5 -4
t-30.5 4t-30.5 10zM-1.5 260v-31h375v31h-375z" />
    <glyph glyph-name="Tbar" unicode="&#x166;" horiz-adv-x="705" 
d="M280 698v-684h-92v-14h329v14h-92v684h36q37 0 66 -7.5t52 -26t41 -51.5t33 -84h13v183h-627v-183h13q15 51 33 84t41 51.5t52 26t66 7.5h36zM125.25 426v-31h375v31h-375z" />
    <glyph glyph-name="tcaron" unicode="&#x165;" horiz-adv-x="611" 
d="M101 558v-129h-67v-14h67v-308q0 -18 2 -39t15.5 -39t42 -30t80.5 -12q19 0 40 3.5t39.5 14.5t33 31.5t20.5 54.5l-15 3q-4 -15 -10.5 -31t-16.5 -28.5t-23.5 -20.5t-32.5 -8q-17 0 -27.5 6t-16 16.5t-7.5 23.5t-2 28v335h117v14h-117v129q-15 -6 -30.5 -10t-30.5 -4
t-30.5 4t-30.5 10zM423 428l7 -13q21 13 46 30.5t46.5 41t35.5 53.5t14 69q0 57 -27 88t-65 31q-13 0 -26.5 -4t-24.5 -12.5t-18 -22t-7 -32.5t7 -32.5t17 -22t22.5 -12.5t22.5 -4q11 0 22 2t20 8q5 -5 10 -15t5 -26q0 -36 -29 -64.5t-78 -62.5z" />
    <glyph glyph-name="Tcaron" unicode="&#x164;" horiz-adv-x="705" 
d="M280 698v-684h-92v-14h329v14h-92v684h36q37 0 66 -7.5t52 -26t41 -51.5t33 -84h13v183h-627v-183h13q15 51 33 84t41 51.5t52 26t66 7.5h36zM392 762l109 197h-12l-133 -127l-133 127h-11l107 -197h73z" />
    <glyph glyph-name="tcedilla" unicode="&#x163;" horiz-adv-x="370" 
d="M101 558v-129h-67v-14h67v-308q0 -18 2 -39t15.5 -39t42 -30t80.5 -12q19 0 40 3.5t39.5 14.5t33 31.5t20.5 54.5l-15 3q-4 -15 -10.5 -31t-16.5 -28.5t-23.5 -20.5t-32.5 -8q-17 0 -27.5 6t-16 16.5t-7.5 23.5t-2 28v335h117v14h-117v129q-15 -6 -30.5 -10t-30.5 -4
t-30.5 4t-30.5 10zM192 0l-73 -78l14 -14q16 10 37 10q14 0 21.5 -6.5t11.5 -16t4.5 -21.5t0.5 -22q0 -12 -2 -24.5t-7 -23t-14 -17t-24 -6.5q-20 0 -31 5.5t-27 16.5l-9 -12q20 -15 37 -22.5t43 -7.5q21 0 41.5 6t36.5 18t25.5 29.5t9.5 41.5q0 18 -7.5 34t-20.5 27
t-29 17.5t-34 6.5q-13 0 -27 -4.5t-25 -9.5l-2 2l70 71h-20z" />
    <glyph glyph-name="Tcedilla" unicode="&#x162;" horiz-adv-x="705" 
d="M280 698v-684h-92v-14h329v14h-92v684h36q37 0 66 -7.5t52 -26t41 -51.5t33 -84h13v183h-627v-183h13q15 51 33 84t41 51.5t52 26t66 7.5h36zM355 -1l-73 -78l14 -14q16 10 37 10q14 0 21.5 -6.5t11.5 -16t4.5 -21.5t0.5 -22q0 -12 -2 -24.5t-7 -23t-14 -17t-24 -6.5
q-20 0 -31 5.5t-27 16.5l-9 -12q20 -15 37 -22.5t43 -7.5q21 0 41.5 6t36.5 18t25.5 29.5t9.5 41.5q0 18 -7.5 34t-20.5 27t-29 17.5t-34 6.5q-13 0 -27 -4.5t-25 -9.5l-2 2l70 71h-20z" />
    <glyph glyph-name="ohungarumlaut" unicode="&#x151;" 
d="M278 0q-39 0 -61 18.5t-32.5 48.5t-13 69t-2.5 79t2.5 78.5t13 68.5t32.5 48.5t61 18.5t61 -18.5t32.5 -48.5t13 -68.5t2.5 -78.5t-2.5 -79t-13 -69t-32.5 -48.5t-61 -18.5zM278 443q-52 0 -96.5 -18.5t-77.5 -49.5t-51.5 -72.5t-18.5 -87.5q0 -47 18.5 -88.5t51.5 -72.5
t77.5 -49t96.5 -18t96.5 18t77.5 49t51.5 72.5t18.5 88.5q0 46 -18.5 87.5t-51.5 72.5t-77.5 49.5t-96.5 18.5zM249 705l-88 -176h13l141 150q6 7 7.5 15t1.5 12q0 15 -12.5 22.5t-20.5 7.5q-20 0 -28.5 -10t-13.5 -21zM371 705l-88 -176h13l141 150q6 7 7.5 15t1.5 12
q0 15 -12.5 22.5t-20.5 7.5q-20 0 -28.5 -10t-13.5 -21z" />
    <glyph glyph-name="gdotaccent" unicode="&#x121;" horiz-adv-x="537" 
d="M140 -156q0 40 16.5 64t46.5 48h104q15 0 33 -4t33 -15t25 -29.5t10 -48.5t-12 -55t-31.5 -43t-45.5 -28t-55 -10q-38 0 -62 12t-38 30.5t-19 39.5t-5 39zM256 167q-17 0 -32 4t-25.5 18.5t-16.5 42.5t-6 75q0 23 3 45t11.5 39t24.5 27.5t41 10.5q27 0 42 -10t23 -28
t10 -42.5t2 -53.5q0 -41 -5.5 -66.5t-15.5 -39t-24 -18t-32 -4.5zM286 71h-110q-34 0 -54 12t-20 37q0 11 5 24.5t34 32.5q20 -8 51 -16t71 -8q50 0 84 12.5t55.5 32.5t31 44.5t9.5 49.5q0 41 -14 62.5t-26 34.5q20 14 28 18.5t14 4.5q11 0 13 -7t4 -21q1 -4 2.5 -10.5
t6 -12t13 -9.5t22.5 -4q20 0 32 11.5t12 31.5q0 23 -14.5 37.5t-43.5 14.5q-33 0 -53 -11.5t-45 -34.5q-23 18 -55.5 32t-77.5 14t-81.5 -12t-61.5 -32.5t-38.5 -48t-13.5 -58.5q0 -22 6.5 -38.5t16 -29t20.5 -22t20 -16.5q-31 -17 -49.5 -36t-27.5 -36.5t-11.5 -30.5
t-2.5 -18q0 -31 15 -52t37 -33t47.5 -17t45.5 -5v-2q-23 -6 -46.5 -17t-43 -26.5t-31.5 -36.5t-12 -48q0 -14 6 -34.5t26 -40t57.5 -33.5t100.5 -14q56 0 99.5 18t74.5 47t47 66t16 76q0 46 -16 76.5t-42 48.5t-60.5 25.5t-72.5 7.5zM194 644q0 -26 19 -45t45 -19t45 19
t19 45t-19 45t-45 19t-45 -19t-19 -45z" />
    <glyph glyph-name="Gcedilla" unicode="&#x122;" horiz-adv-x="778" 
d="M654 508v204h-17q-5 -12 -11 -16.5t-20 -4.5q-13 0 -32 6t-43 12.5t-52 12.5t-58 6q-64 0 -130.5 -26.5t-120.5 -75.5t-88.5 -118t-34.5 -154q0 -78 31 -145t82.5 -116.5t119.5 -78t141 -28.5q46 0 78.5 9.5t57.5 20.5t46.5 20.5t45.5 9.5q12 0 21.5 -5.5t11.5 -17.5h18
v229h65v14h-309v-14h103v-38q0 -46 -4 -85t-18.5 -67.5t-41.5 -45t-73 -16.5q-56 0 -96.5 16.5t-66 54.5t-37.5 100t-12 153v87q0 56 7 110.5t29.5 97t64.5 69t111 26.5q87 1 139 -53.5t78 -152.5h15zM406 0l-73 -78l14 -14q16 10 37 10q14 0 21.5 -6.5t11.5 -16t4.5 -21.5
t0.5 -22q0 -12 -2 -24.5t-7 -23t-14 -17t-24 -6.5q-20 0 -31 5.5t-27 16.5l-9 -12q20 -15 37 -22.5t43 -7.5q21 0 41.5 6t36.5 18t25.5 29.5t9.5 41.5q0 18 -7.5 34t-20.5 27t-29 17.5t-34 6.5q-13 0 -27 -4.5t-25 -9.5l-2 2l70 71h-20z" />
    <glyph glyph-name="gcedilla" unicode="&#x123;" horiz-adv-x="537" 
d="M140 -156q0 40 16.5 64t46.5 48h104q15 0 33 -4t33 -15t25 -29.5t10 -48.5t-12 -55t-31.5 -43t-45.5 -28t-55 -10q-38 0 -62 12t-38 30.5t-19 39.5t-5 39zM256 167q-17 0 -32 4t-25.5 18.5t-16.5 42.5t-6 75q0 23 3 45t11.5 39t24.5 27.5t41 10.5q27 0 42 -10t23 -28
t10 -42.5t2 -53.5q0 -41 -5.5 -66.5t-15.5 -39t-24 -18t-32 -4.5zM286 71h-110q-34 0 -54 12t-20 37q0 11 5 24.5t34 32.5q20 -8 51 -16t71 -8q50 0 84 12.5t55.5 32.5t31 44.5t9.5 49.5q0 41 -14 62.5t-26 34.5q20 14 28 18.5t14 4.5q11 0 13 -7t4 -21q1 -4 2.5 -10.5
t6 -12t13 -9.5t22.5 -4q20 0 32 11.5t12 31.5q0 23 -14.5 37.5t-43.5 14.5q-33 0 -53 -11.5t-45 -34.5q-23 18 -55.5 32t-77.5 14t-81.5 -12t-61.5 -32.5t-38.5 -48t-13.5 -58.5q0 -22 6.5 -38.5t16 -29t20.5 -22t20 -16.5q-31 -17 -49.5 -36t-27.5 -36.5t-11.5 -30.5
t-2.5 -18q0 -31 15 -52t37 -33t47.5 -17t45.5 -5v-2q-23 -6 -46.5 -17t-43 -26.5t-31.5 -36.5t-12 -48q0 -14 6 -34.5t26 -40t57.5 -33.5t100.5 -14q56 0 99.5 18t74.5 47t47 66t16 76q0 46 -16 76.5t-42 48.5t-60.5 25.5t-72.5 7.5zM343 840l-7 13q-21 -14 -46 -31.5
t-46 -40.5t-35.5 -53t-14.5 -69q0 -57 27 -88t65 -31q13 0 26.5 4t24.5 12.5t18 22t7 32.5t-7 32.5t-17 22t-22 12.5t-23 4t-22 -2t-20 -8q-5 5 -10 15t-5 26q0 36 29 64.5t78 62.5z" />
    <glyph glyph-name="Hcircumflex" unicode="&#x124;" horiz-adv-x="833" 
d="M35 712v-14h92v-684h-92v-14h329v14h-92v342h289v-342h-92v-14h329v14h-92v684h92v14h-329v-14h92v-328h-289v328h92v14h-329zM378 959l-108 -197h11l133 127l133 -127h12l-108 197h-73z" />
    <glyph glyph-name="hcircumflex" unicode="&#x125;" horiz-adv-x="630" 
d="M37 14v-14h251v14h-63v214q0 46 10 80t26.5 57t38.5 34.5t46 11.5q29 0 46 -19.5t17 -61.5v-316h-62v-14h251v14h-67v282q0 66 -36.5 104t-102.5 38q-45 0 -74.5 -13t-48.5 -30.5t-28.5 -35t-13.5 -26.5h-2v388h-188v-14h66v-693h-66zM120 959l-108 -197h11l133 127
l133 -127h12l-108 197h-73z" />
    <glyph glyph-name="Hbar" unicode="&#x126;" horiz-adv-x="833" 
d="M35 712v-14h92v-684h-92v-14h329v14h-92v342h289v-342h-92v-14h329v14h-92v684h92v14h-329v-14h92v-328h-289v328h92v14h-329zM-33.25 558v-31h875v31h-875z" />
    <glyph glyph-name="hbar" unicode="&#x127;" horiz-adv-x="630" 
d="M37 14v-14h251v14h-63v214q0 46 10 80t26.5 57t38.5 34.5t46 11.5q29 0 46 -19.5t17 -61.5v-316h-62v-14h251v14h-67v282q0 66 -36.5 104t-102.5 38q-45 0 -74.5 -13t-48.5 -30.5t-28.5 -35t-13.5 -26.5h-2v388h-188v-14h66v-693h-66zM-16.5 562v-31h375v31h-375z" />
    <glyph glyph-name="Itilde" unicode="&#x128;" horiz-adv-x="407" 
d="M39 712v-14h92v-684h-92v-14h329v14h-92v684h92v14h-329zM59 802l11 27q5 11 13 15.5t15 4.5q12 0 33 -6.5t45 -14t46.5 -14t37.5 -6.5q23 0 39.5 13t28 31.5t18.5 38.5t10 33h-14q0 -2 -2.5 -9.5t-7.5 -15.5t-12.5 -14.5t-17.5 -6.5q-4 0 -27 6.5t-50 14t-51 13.5t-31 6
q-11 0 -26.5 -5t-24.5 -13q-7 -6 -12.5 -13.5t-10.5 -18.5t-10.5 -27t-13.5 -39h14z" />
    <glyph glyph-name="itilde" unicode="&#x129;" horiz-adv-x="315" 
d="M36 429v-14h67v-401h-67v-14h256v14h-67v415h-189zM-2 569l11 27q5 11 13 15.5t15 4.5q12 0 33 -6.5t45 -14t46.5 -14t37.5 -6.5q23 0 39.5 13t28 31.5t18.5 38.5t10 33h-14q0 -2 -2.5 -9.5t-7.5 -15.5t-12.5 -14.5t-17.5 -6.5q-4 0 -27 6.5t-50 14t-51 13.5t-31 6
q-11 0 -26.5 -5t-24.5 -13q-7 -6 -12.5 -13.5t-10.5 -18.5t-10.5 -27t-13.5 -39h14z" />
    <glyph glyph-name="Imacron" unicode="&#x12a;" horiz-adv-x="407" 
d="M39 712v-14h92v-684h-92v-14h329v14h-92v684h92v14h-329zM47 875v-30h321v30h-321z" />
    <glyph glyph-name="imacron" unicode="&#x12b;" horiz-adv-x="315" 
d="M36 429v-14h67v-401h-67v-14h256v14h-67v415h-189zM-21 642v-30h321v30h-321z" />
    <glyph glyph-name="Lcaron" unicode="&#x13d;" horiz-adv-x="722" 
d="M46 712v-14h92v-684h-92v-14h634v226h-13q-13 -58 -36.5 -98.5t-53 -66t-63 -36.5t-66.5 -11h-165v684h92v14h-329zM570 428l7 -13q21 13 46 30.5t46.5 41t35.5 53.5t14 69q0 57 -27 88t-65 31q-13 0 -26.5 -4t-24.5 -12.5t-18 -22t-7 -32.5t7 -32.5t17 -22t22.5 -12.5
t22.5 -4q11 0 22 2t20 8q5 -5 10 -15t5 -26q0 -36 -29 -64.5t-78 -62.5z" />
    <glyph glyph-name="omacron" unicode="&#x14d;" 
d="M278 0q-39 0 -61 18.5t-32.5 48.5t-13 69t-2.5 79t2.5 78.5t13 68.5t32.5 48.5t61 18.5t61 -18.5t32.5 -48.5t13 -68.5t2.5 -78.5t-2.5 -79t-13 -69t-32.5 -48.5t-61 -18.5zM278 443q-52 0 -96.5 -18.5t-77.5 -49.5t-51.5 -72.5t-18.5 -87.5q0 -47 18.5 -88.5t51.5 -72.5
t77.5 -49t96.5 -18t96.5 18t77.5 49t51.5 72.5t18.5 88.5q0 46 -18.5 87.5t-51.5 72.5t-77.5 49.5t-96.5 18.5zM125 642v-30h321v30h-321z" />
    <glyph glyph-name="scircumflex" unicode="&#x15d;" horiz-adv-x="426" 
d="M44 145v-145h14q3 8 6.5 11t11.5 3q9 0 25 -4t35.5 -9.5t40.5 -9.5t39 -4q33 0 64 10t54.5 28.5t38 45t14.5 59.5q0 48 -28 79t-82 50l-85 29q-25 9 -40 18.5t-22 19t-9 18.5t-2 16q0 34 27.5 51.5t60.5 17.5q31 0 52 -9.5t35.5 -26t25 -38.5t20.5 -46h13v122h-14
q-2 -5 -5 -9t-14 -4q-6 0 -16.5 4t-24 8.5t-30 8.5t-35.5 4q-36 0 -66.5 -11.5t-52 -31t-33.5 -45.5t-12 -55q0 -27 9 -46.5t22.5 -33.5t29.5 -22.5t30 -13.5l81 -30q27 -10 42.5 -19.5t23.5 -19.5t10.5 -19.5t2.5 -18.5q0 -29 -10.5 -44.5t-25 -23t-29.5 -8.5t-24 -1
q-35 0 -59 12.5t-41 32.5t-29.5 46t-24.5 54h-14zM171 726l-108 -197h11l133 127l133 -127h12l-108 197h-73z" />
    <glyph glyph-name="Scircumflex" unicode="&#x15c;" horiz-adv-x="648" 
d="M63 222v-222h16q5 14 11 18.5t20 4.5q10 0 30.5 -6t47 -12.5t57 -12.5t61.5 -6q62 0 112.5 19.5t87 52.5t56.5 77t20 93q0 50 -18.5 84t-48.5 58t-68.5 39.5t-79 28.5t-79 25t-68.5 28.5t-48.5 39.5t-18.5 58q0 23 11 45t32 40t51.5 29t70.5 11q49 0 81 -17t53 -44.5
t34.5 -61.5t25.5 -69h13v190h-16q-5 -12 -9.5 -16.5t-18.5 -4.5q-12 0 -26.5 6t-33.5 12.5t-44 12.5t-58 6q-52 0 -96.5 -17.5t-76.5 -46t-50 -65.5t-18 -77q0 -54 17.5 -90t46.5 -60.5t66 -40t76 -27t76 -22.5t66 -27t46.5 -40t17.5 -61q0 -20 -8 -46.5t-27.5 -50.5
t-53.5 -40.5t-87 -16.5q-15 0 -32.5 0.5t-37 6t-41 17.5t-44.5 35q-21 20 -35.5 43.5t-24 46t-14.5 42t-7 31.5h-15zM293 959l-108 -197h11l133 127l133 -127h12l-108 197h-73z" />
    <glyph glyph-name="sacute" unicode="&#x15b;" horiz-adv-x="426" 
d="M44 145v-145h14q3 8 6.5 11t11.5 3q9 0 25 -4t35.5 -9.5t40.5 -9.5t39 -4q33 0 64 10t54.5 28.5t38 45t14.5 59.5q0 48 -28 79t-82 50l-85 29q-25 9 -40 18.5t-22 19t-9 18.5t-2 16q0 34 27.5 51.5t60.5 17.5q31 0 52 -9.5t35.5 -26t25 -38.5t20.5 -46h13v122h-14
q-2 -5 -5 -9t-14 -4q-6 0 -16.5 4t-24 8.5t-30 8.5t-35.5 4q-36 0 -66.5 -11.5t-52 -31t-33.5 -45.5t-12 -55q0 -27 9 -46.5t22.5 -33.5t29.5 -22.5t30 -13.5l81 -30q27 -10 42.5 -19.5t23.5 -19.5t10.5 -19.5t2.5 -18.5q0 -29 -10.5 -44.5t-25 -23t-29.5 -8.5t-24 -1
q-35 0 -59 12.5t-41 32.5t-29.5 46t-24.5 54h-14zM184 705l-88 -176h13l141 150q6 7 7.5 15t1.5 12q0 15 -12.5 22.5t-20.5 7.5q-20 0 -28.5 -10t-13.5 -21z" />
    <glyph glyph-name="Sacute" unicode="&#x15a;" horiz-adv-x="648" 
d="M63 222v-222h16q5 14 11 18.5t20 4.5q10 0 30.5 -6t47 -12.5t57 -12.5t61.5 -6q62 0 112.5 19.5t87 52.5t56.5 77t20 93q0 50 -18.5 84t-48.5 58t-68.5 39.5t-79 28.5t-79 25t-68.5 28.5t-48.5 39.5t-18.5 58q0 23 11 45t32 40t51.5 29t70.5 11q49 0 81 -17t53 -44.5
t34.5 -61.5t25.5 -69h13v190h-16q-5 -12 -9.5 -16.5t-18.5 -4.5q-12 0 -26.5 6t-33.5 12.5t-44 12.5t-58 6q-52 0 -96.5 -17.5t-76.5 -46t-50 -65.5t-18 -77q0 -54 17.5 -90t46.5 -60.5t66 -40t76 -27t76 -22.5t66 -27t46.5 -40t17.5 -61q0 -20 -8 -46.5t-27.5 -50.5
t-53.5 -40.5t-87 -16.5q-15 0 -32.5 0.5t-37 6t-41 17.5t-44.5 35q-21 20 -35.5 43.5t-24 46t-14.5 42t-7 31.5h-15zM330 938l-88 -176h13l141 150q6 7 7.5 15t1.5 12q0 15 -12.5 22.5t-20.5 7.5q-20 0 -28.5 -10t-13.5 -21z" />
    <glyph glyph-name="rcaron" unicode="&#x159;" horiz-adv-x="444" 
d="M41 429v-14h65v-401h-65v-14h266v14h-79v256q0 32 9.5 57.5t22.5 43.5t28 27.5t25 9.5q9 0 13.5 -3.5t6.5 -8t2.5 -8.5l0.5 -4q0 -1 -1 -8t-2.5 -15.5t-2.5 -16t-1 -10.5q0 -26 19 -35.5t42 -9.5q32 0 46.5 17t14.5 47q0 40 -26 62.5t-68 22.5q-50 0 -80.5 -27.5
t-48.5 -65.5h-2v84h-185zM294 529l109 197h-12l-133 -127l-133 127h-11l107 -197h73z" />
    <glyph glyph-name="Rcaron" unicode="&#x158;" horiz-adv-x="722" 
d="M272 389v309l22 2t22 1q38 0 62.5 -10t38.5 -30.5t20 -52t6 -75.5q0 -27 -3.5 -53t-16.5 -46.5t-39 -32.5t-71 -12h-41zM127 698v-684h-92v-14h329v14h-92v361h66q47 0 73 -18t39 -48t16.5 -68.5t5.5 -79.5q1 -27 4.5 -57.5t18.5 -56.5t46 -43.5t86 -17.5q27 0 45 3.5
t30.5 9.5t22 14.5t19.5 18.5l-10 9q-10 -10 -23 -21.5t-33 -11.5q-18 0 -27.5 7t-15 28t-8.5 59t-8 101q-4 54 -20.5 86t-44.5 50t-66.5 27t-87.5 18v5q34 3 69 12.5t63.5 27.5t46.5 46.5t18 68.5q0 50 -23.5 83t-59.5 52.5t-79.5 27.5t-82.5 8q-42 0 -83 -1.5t-83 -1.5
h-151v-14h92zM379 762l109 197h-12l-133 -127l-133 127h-11l107 -197h73z" />
    <glyph glyph-name="rcedilla" unicode="&#x157;" horiz-adv-x="444" 
d="M41 429v-14h65v-401h-65v-14h266v14h-79v256q0 32 9.5 57.5t22.5 43.5t28 27.5t25 9.5q9 0 13.5 -3.5t6.5 -8t2.5 -8.5l0.5 -4q0 -1 -1 -8t-2.5 -15.5t-2.5 -16t-1 -10.5q0 -26 19 -35.5t42 -9.5q32 0 46.5 17t14.5 47q0 40 -26 62.5t-68 22.5q-50 0 -80.5 -27.5
t-48.5 -65.5h-2v84h-185zM155 0l-73 -78l14 -14q16 10 37 10q14 0 21.5 -6.5t11.5 -16t4.5 -21.5t0.5 -22q0 -12 -2 -24.5t-7 -23t-14 -17t-24 -6.5q-20 0 -31 5.5t-27 16.5l-9 -12q20 -15 37 -22.5t43 -7.5q21 0 41.5 6t36.5 18t25.5 29.5t9.5 41.5q0 18 -7.5 34t-20.5 27
t-29 17.5t-34 6.5q-13 0 -27 -4.5t-25 -9.5l-2 2l70 71h-20z" />
    <glyph glyph-name="Rcedilla" unicode="&#x156;" horiz-adv-x="722" 
d="M272 389v309l22 2t22 1q38 0 62.5 -10t38.5 -30.5t20 -52t6 -75.5q0 -27 -3.5 -53t-16.5 -46.5t-39 -32.5t-71 -12h-41zM127 698v-684h-92v-14h329v14h-92v361h66q47 0 73 -18t39 -48t16.5 -68.5t5.5 -79.5q1 -27 4.5 -57.5t18.5 -56.5t46 -43.5t86 -17.5q27 0 45 3.5
t30.5 9.5t22 14.5t19.5 18.5l-10 9q-10 -10 -23 -21.5t-33 -11.5q-18 0 -27.5 7t-15 28t-8.5 59t-8 101q-4 54 -20.5 86t-44.5 50t-66.5 27t-87.5 18v5q34 3 69 12.5t63.5 27.5t46.5 46.5t18 68.5q0 50 -23.5 83t-59.5 52.5t-79.5 27.5t-82.5 8q-42 0 -83 -1.5t-83 -1.5
h-151v-14h92zM600 0l-73 -78l14 -14q16 10 37 10q14 0 21.5 -6.5t11.5 -16t4.5 -21.5t0.5 -22q0 -12 -2 -24.5t-7 -23t-14 -17t-24 -6.5q-20 0 -31 5.5t-27 16.5l-9 -12q20 -15 37 -22.5t43 -7.5q21 0 41.5 6t36.5 18t25.5 29.5t9.5 41.5q0 18 -7.5 34t-20.5 27t-29 17.5
t-34 6.5q-13 0 -27 -4.5t-25 -9.5l-2 2l70 71h-20z" />
    <glyph glyph-name="racute" unicode="&#x155;" horiz-adv-x="444" 
d="M41 429v-14h65v-401h-65v-14h266v14h-79v256q0 32 9.5 57.5t22.5 43.5t28 27.5t25 9.5q9 0 13.5 -3.5t6.5 -8t2.5 -8.5l0.5 -4q0 -1 -1 -8t-2.5 -15.5t-2.5 -16t-1 -10.5q0 -26 19 -35.5t42 -9.5q32 0 46.5 17t14.5 47q0 40 -26 62.5t-68 22.5q-50 0 -80.5 -27.5
t-48.5 -65.5h-2v84h-185zM184 705l-88 -176h13l141 150q6 7 7.5 15t1.5 12q0 15 -12.5 22.5t-20.5 7.5q-20 0 -28.5 -10t-13.5 -21z" />
    <glyph glyph-name="Racute" unicode="&#x154;" horiz-adv-x="722" 
d="M272 389v309l22 2t22 1q38 0 62.5 -10t38.5 -30.5t20 -52t6 -75.5q0 -27 -3.5 -53t-16.5 -46.5t-39 -32.5t-71 -12h-41zM127 698v-684h-92v-14h329v14h-92v361h66q47 0 73 -18t39 -48t16.5 -68.5t5.5 -79.5q1 -27 4.5 -57.5t18.5 -56.5t46 -43.5t86 -17.5q27 0 45 3.5
t30.5 9.5t22 14.5t19.5 18.5l-10 9q-10 -10 -23 -21.5t-33 -11.5q-18 0 -27.5 7t-15 28t-8.5 59t-8 101q-4 54 -20.5 86t-44.5 50t-66.5 27t-87.5 18v5q34 3 69 12.5t63.5 27.5t46.5 46.5t18 68.5q0 50 -23.5 83t-59.5 52.5t-79.5 27.5t-82.5 8q-42 0 -83 -1.5t-83 -1.5
h-151v-14h92zM337 938l-88 -176h13l141 150q6 7 7.5 15t1.5 12q0 15 -12.5 22.5t-20.5 7.5q-20 0 -28.5 -10t-13.5 -21z" />
    <glyph glyph-name="IJ" unicode="&#x132;" horiz-adv-x="866" 
d="M39 712v-14h92v-684h-92v-14h329v14h-92v684h92v14h-329zM740 204v494h92v14h-329v-14h92v-633q0 -9 -0.5 -20.5t-4.5 -21.5t-12.5 -16.5t-25.5 -6.5q-4 0 -11.5 0.5t-14.5 4t-12.5 11.5t-5.5 23q0 4 2 14t5 22t5 23t2 18q0 16 -6.5 25.5t-16 14.5t-20 6.5t-18.5 1.5
q-30 0 -46 -9.5t-23.5 -21.5t-8.5 -23.5t-1 -16.5q0 -32 15 -53t38 -33t51 -16.5t54 -4.5q74 0 114.5 25t59.5 59.5t22.5 71.5t3.5 62z" />
    <glyph glyph-name="ij" unicode="&#x133;" horiz-adv-x="315" 
d="M93 644q0 -29 21 -50t50 -21t50 21t21 50t-21 50t-50 21t-50 -21t-21 -50zM36 429v-14h67v-401h-67v-14h256v14h-67v415h-189zM465 644q0 -29 21 -50t50 -21t50 21t21 50t-21 50t-50 21t-50 -21t-21 -50zM475 415v-626q0 -39 -9 -50t-27 -11q-24 0 -28 11t-4 21
q0 11 4 25.5t4 25.5q0 21 -14 32.5t-39 11.5q-21 0 -38 -12t-17 -44q0 -40 34.5 -62.5t88.5 -22.5q47 0 79 18.5t51.5 51.5t28 77.5t8.5 96.5v471h-189v-14h67z" />
    <glyph glyph-name="Jcircumflex" unicode="&#x134;" horiz-adv-x="500" 
d="M380 204v494h92v14h-329v-14h92v-633q0 -9 -0.5 -20.5t-4.5 -21.5t-12.5 -16.5t-25.5 -6.5q-4 0 -11.5 0.5t-14.5 4t-12.5 11.5t-5.5 23q0 4 2 14t5 22t5 23t2 18q0 16 -6.5 25.5t-16 14.5t-20 6.5t-18.5 1.5q-30 0 -46 -9.5t-23.5 -21.5t-8.5 -23.5t-1 -16.5
q0 -32 15 -53t38 -33t51 -16.5t54 -4.5q74 0 114.5 25t59.5 59.5t22.5 71.5t3.5 62zM276 959l-108 -197h11l133 127l133 -127h12l-108 197h-73z" />
    <glyph glyph-name="jcircumflex" unicode="&#x135;" horiz-adv-x="333" 
d="M52 415v14h189v-470q0 -52 -8.5 -96.5t-28 -77.5t-51.5 -51.5t-79 -18.5q-54 0 -88 22.5t-34 62.5q0 32 17 44t37 12q25 0 39 -11.5t14 -32.5q0 -11 -4 -25.5t-4 -25.5q0 -10 4 -21t28 -11q18 0 27 11t9 50v625h-67zM140 726l-108 -197h11l133 127l133 -127h12l-108 197
h-73z" />
    <glyph glyph-name="Kcedilla" unicode="&#x136;" horiz-adv-x="778" 
d="M42 712v-14h92v-684h-92v-14h329v14h-92v350h8l266 -350h-90v-14h334v14h-62l-346 450l223 234h80v14h-200v-14h101l-306 -320h-8v320h92v14h-329zM634 0l-73 -78l14 -14q16 10 37 10q14 0 21.5 -6.5t11.5 -16t4.5 -21.5t0.5 -22q0 -12 -2 -24.5t-7 -23t-14 -17t-24 -6.5
q-20 0 -31 5.5t-27 16.5l-9 -12q20 -15 37 -22.5t43 -7.5q21 0 41.5 6t36.5 18t25.5 29.5t9.5 41.5q0 18 -7.5 34t-20.5 27t-29 17.5t-34 6.5q-13 0 -27 -4.5t-25 -9.5l-2 2l70 71h-20z" />
    <glyph glyph-name="kcedilla" unicode="&#x137;" horiz-adv-x="593" 
d="M35 721v-14h66v-693h-66v-14h250v14h-62v216h5l169 -216h-72v-14h265v14h-39l-229 295l112 106h64v14h-157v-14h73l-186 -171h-5v477h-188zM470 0l-73 -78l14 -14q16 10 37 10q14 0 21.5 -6.5t11.5 -16t4.5 -21.5t0.5 -22q0 -12 -2 -24.5t-7 -23t-14 -17t-24 -6.5
q-20 0 -31 5.5t-27 16.5l-9 -12q20 -15 37 -22.5t43 -7.5q21 0 41.5 6t36.5 18t25.5 29.5t9.5 41.5q0 18 -7.5 34t-20.5 27t-29 17.5t-34 6.5q-13 0 -27 -4.5t-25 -9.5l-2 2l70 71h-20z" />
    <glyph glyph-name="kgreenlandic" unicode="&#x138;" horiz-adv-x="593" 
d="M223 429v-185h5l186 171h-73v14h157v-14h-64l-112 -106l229 -295h39v-14h-265v14h72l-169 216h-5v-216h62v-14h-250v14h66v401h-66v14h188z" />
    <glyph glyph-name="Lacute" unicode="&#x139;" horiz-adv-x="722" 
d="M46 712v-14h92v-684h-92v-14h634v226h-13q-13 -58 -36.5 -98.5t-53 -66t-63 -36.5t-66.5 -11h-165v684h92v14h-329zM222 938l-88 -176h13l141 150q6 7 7.5 15t1.5 12q0 15 -12.5 22.5t-20.5 7.5q-20 0 -28.5 -10t-13.5 -21z" />
    <glyph glyph-name="lacute" unicode="&#x13a;" horiz-adv-x="315" 
d="M36 721v-14h67v-693h-67v-14h256v14h-67v707h-189zM184 938l-88 -176h13l141 150q6 7 7.5 15t1.5 12q0 15 -12.5 22.5t-20.5 7.5q-20 0 -28.5 -10t-13.5 -21z" />
    <glyph glyph-name="Lcedilla" unicode="&#x13b;" horiz-adv-x="722" 
d="M46 712v-14h92v-684h-92v-14h634v226h-13q-13 -58 -36.5 -98.5t-53 -66t-63 -36.5t-66.5 -11h-165v684h92v14h-329zM209 0l-73 -78l14 -14q16 10 37 10q14 0 21.5 -6.5t11.5 -16t4.5 -21.5t0.5 -22q0 -12 -2 -24.5t-7 -23t-14 -17t-24 -6.5q-20 0 -31 5.5t-27 16.5
l-9 -12q20 -15 37 -22.5t43 -7.5q21 0 41.5 6t36.5 18t25.5 29.5t9.5 41.5q0 18 -7.5 34t-20.5 27t-29 17.5t-34 6.5q-13 0 -27 -4.5t-25 -9.5l-2 2l70 71h-20z" />
    <glyph glyph-name="lcedilla" unicode="&#x13c;" horiz-adv-x="315" 
d="M36 721v-14h67v-693h-67v-14h256v14h-67v707h-189zM155 0l-73 -78l14 -14q16 10 37 10q14 0 21.5 -6.5t11.5 -16t4.5 -21.5t0.5 -22q0 -12 -2 -24.5t-7 -23t-14 -17t-24 -6.5q-20 0 -31 5.5t-27 16.5l-9 -12q20 -15 37 -22.5t43 -7.5q21 0 41.5 6t36.5 18t25.5 29.5
t9.5 41.5q0 18 -7.5 34t-20.5 27t-29 17.5t-34 6.5q-13 0 -27 -4.5t-25 -9.5l-2 2l70 71h-20z" />
    <glyph glyph-name="Omacron" unicode="&#x14c;" horiz-adv-x="833" 
d="M205 354q0 79 7 145t29 114t64 74.5t112 26.5q75 0 117.5 -28.5t63.5 -77t25.5 -112t4.5 -133.5q0 -78 -5.5 -144.5t-26.5 -115t-63 -76t-116 -27.5q-56 0 -96.5 16t-66 56.5t-37.5 109t-12 172.5zM42 354q0 -78 31 -145t82.5 -116.5t119.5 -78t142 -28.5
q75 0 142.5 29.5t119 80.5t82 118.5t30.5 142.5q0 86 -32.5 154.5t-85 116.5t-120 74t-136.5 26q-64 0 -131 -26.5t-121 -75.5t-88.5 -118t-34.5 -154zM271 875v-30h321v30h-321z" />
    <glyph glyph-name="quoterightn" unicode="&#x149;" horiz-adv-x="808" 
d="M211 14v-14h251v14h-63v214q0 46 10 80t26.5 57t38.5 34.5t46 11.5q29 0 46 -19.5t17 -61.5v-316h-62v-14h251v14h-67v282q0 66 -36.5 104t-102.5 38q-45 0 -75 -13.5t-49 -31.5t-29 -36.5t-14 -27.5h-2v100h-186v-14h66v-401h-66zM74 428l7 -13q21 13 46 30.5t46.5 41
t35.5 53.5t14 69q0 57 -27 88t-65 31q-13 0 -26.5 -4t-24.5 -12.5t-18 -22t-7 -32.5t7 -32.5t17 -22t22.5 -12.5t22.5 -4q11 0 22 2t20 8q5 -5 10 -15t5 -26q0 -36 -29 -64.5t-78 -62.5z" />
    <glyph glyph-name="ncaron" unicode="&#x148;" horiz-adv-x="630" 
d="M42 14v-14h251v14h-63v214q0 46 10 80t26.5 57t38.5 34.5t46 11.5q29 0 46 -19.5t17 -61.5v-316h-62v-14h251v14h-67v282q0 66 -36.5 104t-102.5 38q-45 0 -75 -13.5t-49 -31.5t-29 -36.5t-14 -27.5h-2v100h-186v-14h66v-401h-66zM385 529l109 197h-12l-133 -127
l-133 127h-11l107 -197h73z" />
    <glyph glyph-name="Ncaron" unicode="&#x147;" horiz-adv-x="741" 
d="M34 712v-14h92v-684h-92v-14h200v14h-92v627h2l450 -641h27v698h92v14h-200v-14h92v-462h-2l-333 476h-236zM409 762l109 197h-12l-133 -127l-133 127h-11l107 -197h73z" />
    <glyph glyph-name="ncedilla" unicode="&#x146;" horiz-adv-x="630" 
d="M42 14v-14h251v14h-63v214q0 46 10 80t26.5 57t38.5 34.5t46 11.5q29 0 46 -19.5t17 -61.5v-316h-62v-14h251v14h-67v282q0 66 -36.5 104t-102.5 38q-45 0 -75 -13.5t-49 -31.5t-29 -36.5t-14 -27.5h-2v100h-186v-14h66v-401h-66zM478 0l-73 -78l14 -14q16 10 37 10
q14 0 21.5 -6.5t11.5 -16t4.5 -21.5t0.5 -22q0 -12 -2 -24.5t-7 -23t-14 -17t-24 -6.5q-20 0 -31 5.5t-27 16.5l-9 -12q20 -15 37 -22.5t43 -7.5q21 0 41.5 6t36.5 18t25.5 29.5t9.5 41.5q0 18 -7.5 34t-20.5 27t-29 17.5t-34 6.5q-13 0 -27 -4.5t-25 -9.5l-2 2l70 71h-20z
" />
    <glyph glyph-name="Ncedilla" unicode="&#x145;" horiz-adv-x="741" 
d="M34 712v-14h92v-684h-92v-14h200v14h-92v627h2l450 -641h27v698h92v14h-200v-14h92v-462h-2l-333 476h-236zM600 0l-73 -78l14 -14q16 10 37 10q14 0 21.5 -6.5t11.5 -16t4.5 -21.5t0.5 -22q0 -12 -2 -24.5t-7 -23t-14 -17t-24 -6.5q-20 0 -31 5.5t-27 16.5l-9 -12
q20 -15 37 -22.5t43 -7.5q21 0 41.5 6t36.5 18t25.5 29.5t9.5 41.5q0 18 -7.5 34t-20.5 27t-29 17.5t-34 6.5q-13 0 -27 -4.5t-25 -9.5l-2 2l70 71h-20z" />
    <glyph glyph-name="nacute" unicode="&#x144;" horiz-adv-x="630" 
d="M42 14v-14h251v14h-63v214q0 46 10 80t26.5 57t38.5 34.5t46 11.5q29 0 46 -19.5t17 -61.5v-316h-62v-14h251v14h-67v282q0 66 -36.5 104t-102.5 38q-45 0 -75 -13.5t-49 -31.5t-29 -36.5t-14 -27.5h-2v100h-186v-14h66v-401h-66zM351 705l-88 -176h13l141 150
q6 7 7.5 15t1.5 12q0 15 -12.5 22.5t-20.5 7.5q-20 0 -28.5 -10t-13.5 -21z" />
    <glyph glyph-name="Nacute" unicode="&#x143;" horiz-adv-x="741" 
d="M34 712v-14h92v-684h-92v-14h200v14h-92v627h2l450 -641h27v698h92v14h-200v-14h92v-462h-2l-333 476h-236zM377 938l-88 -176h13l141 150q6 7 7.5 15t1.5 12q0 15 -12.5 22.5t-20.5 7.5q-20 0 -28.5 -10t-13.5 -21z" />
    <glyph glyph-name="zerowidthspace" unicode="&#x200b;" horiz-adv-x="0" 
 />
    <glyph glyph-name="zerowidthnonjoiner" unicode="&#x200c;" horiz-adv-x="0" 
 />
    <glyph glyph-name="zerowidthjoiner" unicode="&#x200d;" horiz-adv-x="0" 
 />
    <glyph glyph-name="lefttorightmark" unicode="&#x200e;" horiz-adv-x="0" 
 />
    <glyph glyph-name="righttoleftmark" unicode="&#x200f;" horiz-adv-x="0" 
 />
    <glyph glyph-name="uni204B" unicode="&#x204b;" horiz-adv-x="593" 
d="M384 698v-551q0 -72 -6.5 -119.5t-16.5 -77.5t-22.5 -47t-24.5 -28q-17 -16 -33.5 -25t-31.5 -13.5t-27.5 -5.5t-21.5 -1q39 9 62 32.5t34.5 62.5t14.5 94t3 128v551h70zM558 712h-244q-50 0 -92 -6t-92 -28q-45 -20 -74.5 -67.5t-29.5 -107.5q0 -33 9.5 -63t26.5 -55
t39.5 -43.5t48.5 -28.5q42 -16 79.5 -19.5t69.5 -4.5v-142q0 -21 -0.5 -51.5t-2.5 -63t-6 -63t-12 -49.5q-9 -24 -20.5 -38.5t-22 -22t-18.5 -10t-11 -2.5q-6 0 -7.5 3.5t-1.5 4.5q0 2 2.5 10t3.5 10q6 17 7.5 26.5t1.5 14.5q0 13 -6.5 20.5t-15 11t-17.5 4.5t-14 1
q-25 0 -44.5 -13t-19.5 -43q0 -7 3 -20.5t13.5 -27t31.5 -23.5t57 -10q13 0 34 2t46 8t52.5 18t54.5 32q59 44 81.5 111.5t22.5 159.5v551h67v14z" />
    <glyph glyph-name="uni2048" unicode="&#x2048;" horiz-adv-x="676" 
d="M454 61q0 -29 21 -49.5t50 -20.5t50 20.5t21 49.5t-21 50t-50 21t-50 -21t-21 -50zM467 598l48 -397h20l48 397q3 25 5 40t2 22q0 30 -18 49t-47 19t-47 -19t-18 -49q0 -7 2 -22t5 -40zM60 61q0 -29 21 -49.5t50 -20.5t50 20.5t21 49.5t-21 50t-50 21t-50 -21t-21 -50z
M123 427v-235h17v205h2q8 -11 26.5 -22.5t53.5 -11.5q20 0 48.5 10t55.5 31.5t46 56.5t19 85q0 37 -11.5 70t-34 58t-56.5 39.5t-78 14.5q-25 0 -50.5 -6.5t-46.5 -19.5t-34 -33.5t-13 -48.5q0 -26 17 -36.5t37 -10.5q29 0 42 9.5t13 35.5q0 11 -3.5 18t-7 13l-7 12t-3.5 15
q0 14 12.5 26t39.5 12q18 0 30 -7.5t19 -25.5t10 -47.5t3 -73.5q0 -88 -13 -134t-52 -46q-22 0 -37 14.5t-27 32.5h-17z" />
    <glyph glyph-name="uni2049" unicode="&#x2049;" horiz-adv-x="679" 
d="M77 61q0 -29 21 -49.5t50 -20.5t50 20.5t21 49.5t-21 50t-50 21t-50 -21t-21 -50zM90 598l48 -397h20l48 397q3 25 5 40t2 22q0 30 -18 49t-47 19t-47 -19t-18 -49q0 -7 2 -22t5 -40zM277 61q0 -29 21 -49.5t50 -20.5t50 20.5t21 49.5t-21 50t-50 21t-50 -21t-21 -50z
M340 427v-235h17v205h2q8 -11 26.5 -22.5t53.5 -11.5q20 0 48.5 10t55.5 31.5t46 56.5t19 85q0 37 -11.5 70t-34 58t-56.5 39.5t-78 14.5q-25 0 -50.5 -6.5t-46.5 -19.5t-34 -33.5t-13 -48.5q0 -26 17 -36.5t37 -10.5q29 0 42 9.5t13 35.5q0 11 -3.5 18t-7 13l-7 12t-3.5 15
q0 14 12.5 26t39.5 12q18 0 30 -7.5t19 -25.5t10 -47.5t3 -73.5q0 -88 -13 -134t-52 -46q-22 0 -37 14.5t-27 32.5h-17z" />
    <glyph glyph-name="exclamdbl" unicode="&#x203c;" horiz-adv-x="513" 
d="M291 61q0 -29 21 -49.5t50 -20.5t50 20.5t21 49.5t-21 50t-50 21t-50 -21t-21 -50zM304 598l48 -397h20l48 397q3 25 5 40t2 22q0 30 -18 49t-47 19t-47 -19t-18 -49q0 -7 2 -22t5 -40zM77 61q0 -29 21 -49.5t50 -20.5t50 20.5t21 49.5t-21 50t-50 21t-50 -21t-21 -50z
M90 598l48 -397h20l48 397q3 25 5 40t2 22q0 30 -18 49t-47 19t-47 -19t-18 -49q0 -7 2 -22t5 -40z" />
    <glyph glyph-name="uni2031" unicode="&#x2031;" horiz-adv-x="1418" 
d="M465 0q26 0 40.5 11t21 29t7.5 42t1 50t-1 50t-7.5 42t-21 29t-40.5 11t-40.5 -11t-21 -29t-7.5 -42t-1 -50t1 -50t7.5 -42t21 -29t40.5 -11zM465 -12q-31 0 -59.5 10t-50 28.5t-34 45.5t-12.5 60t12.5 59.5t34 46t50 30t59.5 10.5q32 0 60 -10.5t49.5 -30t34 -46
t12.5 -59.5t-12.5 -60t-34 -45.5t-49.5 -28.5t-60 -10zM205 436q-31 0 -59.5 10.5t-50 30t-34 46t-12.5 59.5t12.5 59.5t34 46t50 30t59.5 10.5q32 0 60 -10.5t49.5 -30t34 -46t12.5 -59.5t-12.5 -59.5t-34 -46t-49.5 -30t-60 -10.5zM832 -12q-31 0 -59.5 10t-50 28.5
t-34 45.5t-12.5 60t12.5 59.5t34 46t50 30t59.5 10.5q32 0 60 -10.5t49.5 -30t34 -46t12.5 -59.5t-12.5 -60t-34 -45.5t-49.5 -28.5t-60 -10zM205 450q26 0 40.5 11t21 29t7.5 42t1 50t-1 50t-7.5 42t-21 29t-40.5 11t-40.5 -11t-21 -29t-7.5 -42t-1 -50t1 -50t7.5 -42
t21 -29t40.5 -11zM533 719l-376 -731l-20 9l376 731zM832 0q26 0 40.5 11t21 29t7.5 42t1 50t-1 50t-7.5 42t-21 29t-40.5 11t-40.5 -11t-21 -29t-7.5 -42t-1 -50t1 -50t7.5 -42t21 -29t40.5 -11zM1200 -13q-31 0 -59.5 10t-50 28.5t-34 45.5t-12.5 60t12.5 59.5t34 46
t50 30t59.5 10.5q32 0 60 -10.5t49.5 -30t34 -46t12.5 -59.5t-12.5 -60t-34 -45.5t-49.5 -28.5t-60 -10zM1200 -1q26 0 40.5 11t21 29t7.5 42t1 50t-1 50t-7.5 42t-21 29t-40.5 11t-40.5 -11t-21 -29t-7.5 -42t-1 -50t1 -50t7.5 -42t21 -29t40.5 -11z" />
    <glyph glyph-name="twodotleader" unicode="&#x2025;" horiz-adv-x="672" 
d="M429 61q0 29 21 50t50 21t50 -21t21 -50t-21 -49t-50 -20t-50 20t-21 49zM96 61q0 29 21 50t50 21t50 -21t21 -50t-21 -49t-50 -20t-50 20t-21 49z" />
    <glyph glyph-name="onedotleader" unicode="&#x2024;" horiz-adv-x="333" 
d="M96 61q0 29 21 50t50 21t50 -21t21 -50t-21 -49t-50 -20t-50 20t-21 49z" />
    <glyph glyph-name="quoteleftreversed" unicode="&#x201b;" horiz-adv-x="278" 
d="M74 428l7 -13q21 13 46 30.5t46.5 41t35.5 53.5t14 69q0 57 -27 88t-65 31q-13 0 -26.5 -4t-24.5 -12.5t-18 -22t-7 -32.5t7 -32.5t17 -22t22.5 -12.5t22.5 -4q11 0 22 2t20 8q5 -5 10 -15t5 -26q0 -36 -29 -64.5t-78 -62.5z" />
    <glyph glyph-name="quotedblleftaltone" unicode="&#x201f;" horiz-adv-x="463" 
d="M63 428l7 -13q21 13 46 30.5t46.5 41t35.5 53.5t14 69q0 57 -27 88t-65 31q-13 0 -26.5 -4t-24.5 -12.5t-18 -22t-7 -32.5t7 -32.5t17 -22t22.5 -12.5t22.5 -4q11 0 22 2t20 8q5 -5 10 -15t5 -26q0 -36 -29 -64.5t-78 -62.5zM270 428l7 -13q21 13 46 30.5t46.5 41
t35.5 53.5t14 69q0 57 -27 88t-65 31q-13 0 -26.5 -4t-24.5 -12.5t-18 -22t-7 -32.5t7 -32.5t17 -22t22.5 -12.5t22.5 -4q11 0 22 2t20 8q5 -5 10 -15t5 -26q0 -36 -29 -64.5t-78 -62.5z" />
    <glyph glyph-name="hyphentwo" unicode="&#x2010;" horiz-adv-x="370" 
d="M91 264v-98h188v98h-188z" />
    <glyph glyph-name="nonbreakinghyphen" unicode="&#x2011;" horiz-adv-x="370" 
d="M91 264v-98h188v98h-188z" />
    <glyph glyph-name="figuredash" unicode="&#x2012;" horiz-adv-x="500" 
d="M0 225v-14h500v14h-500z" />
    <glyph glyph-name="horizontalbar" unicode="&#x2015;" horiz-adv-x="1000" 
d="M130 225v-14h740v14h-740z" />
    <glyph glyph-name="uni2043" unicode="&#x2043;" horiz-adv-x="370" 
d="M91 264v-98h188v98h-188z" />
    <glyph glyph-name="u0384" unicode="&#x384;" horiz-adv-x="278" 
d="M175 705q5 12 13.5 21.5t28.5 9.5q8 0 20.5 -7.5t12.5 -22.5q0 -4 -1.5 -11.5t-7.5 -15.5l-121 -150h-13z" />
    <glyph glyph-name="u0385" unicode="&#x385;" horiz-adv-x="278" 
d="M175 705q5 12 13.5 21.5t28.5 9.5q8 0 20.5 -7.5t12.5 -22.5q0 -4 -1.5 -11.5t-7.5 -15.5l-121 -150h-13zM261 644q0 26 19 45t45 19t45 -19t19 -45t-19 -45t-45 -19t-45 19t-19 45zM-12 644q0 26 18.5 45t44.5 19t45 -19t19 -45t-19 -45t-45 -19t-44.5 19t-18.5 45z" />
    <glyph glyph-name="u0386" unicode="&#x386;" horiz-adv-x="759" 
d="M191 296h230l-118 273zM59 14l298 726h27l315 -726h86v-14h-336v14h93l-116 268h-240l-111 -268h89v-14h-189v14h84zM75 703q5 12 14.5 22.5t29.5 10.5q16 0 29.5 -9.5t13.5 -24.5q0 -11 -3.5 -18.5t-9.5 -15.5l-129 -151h-13z" />
    <glyph glyph-name="u0388" unicode="&#x388;" horiz-adv-x="722" 
d="M635 712v-171h-13q-5 17 -16.5 43.5t-33.5 52t-56 43.5t-83 18h-159v-309h56q37 0 62.5 10.5t42.5 30t28 47t18 61.5h13v-311h-13q-7 29 -17 56t-25.5 47.5t-39 32.5t-58.5 12h-67v-361h164q46 0 83 16t65.5 43.5t47.5 65t29 80.5h13v-219h-639v14h92v684h-92v14h598z
M-75 703q5 12 14.5 22.5t29.5 10.5q16 0 29.5 -9.5t13.5 -24.5q0 -11 -3.5 -18.5t-9.5 -15.5l-129 -151h-13z" />
    <glyph glyph-name="u0389" unicode="&#x389;" horiz-adv-x="833" 
d="M364 712v-14h-92v-328h289v328h-92v14h329v-14h-92v-684h92v-14h-329v14h92v342h-289v-342h92v-14h-329v14h92v684h-92v14h329zM-75 703q5 12 14.5 22.5t29.5 10.5q16 0 29.5 -9.5t13.5 -24.5q0 -11 -3.5 -18.5t-9.5 -15.5l-129 -151h-13z" />
    <glyph glyph-name="u038A" unicode="&#x38a;" horiz-adv-x="407" 
d="M368 712v-14h-92v-684h92v-14h-329v14h92v684h-92v14h329zM-75 703q5 12 14.5 22.5t29.5 10.5q16 0 29.5 -9.5t13.5 -24.5q0 -11 -3.5 -18.5t-9.5 -15.5l-129 -151h-13z" />
    <glyph glyph-name="u038C" unicode="&#x38c;" horiz-adv-x="833" 
d="M205 354q0 -104 12 -172.5t37.5 -109t66 -56.5t96.5 -16q73 0 115.5 27.5t63.5 76t26.5 115t5.5 144.5q0 70 -4.5 133.5t-25.5 112t-63.5 77t-117.5 28.5q-70 0 -112 -26.5t-64 -74.5t-29 -114t-7 -145zM42 354q0 85 34.5 154t88.5 118t120.5 75.5t131.5 26.5
q69 0 136.5 -26t120 -74t85 -117t32.5 -154q0 -75 -30.5 -142.5t-82 -118.5t-119 -80.5t-142.5 -29.5q-74 0 -142 28.5t-119.5 78t-82.5 116.5t-31 145zM-25 703q5 12 14.5 22.5t29.5 10.5q16 0 29.5 -9.5t13.5 -24.5q0 -11 -3.5 -18.5t-9.5 -15.5l-129 -151h-13z" />
    <glyph glyph-name="u038E" unicode="&#x38e;" horiz-adv-x="704" 
d="M307 712v-14h-79l204 -349l184 349h-87v14h191v-14h-87l-193 -367v-317h93v-14h-330v14h92v279l-232 405h-78v14h322zM-125 703q5 12 14.5 22.5t29.5 10.5q16 0 29.5 -9.5t13.5 -24.5q0 -11 -3.5 -18.5t-9.5 -15.5l-129 -151h-13z" />
    <glyph glyph-name="u038F" unicode="&#x38f;" horiz-adv-x="834" 
d="M53 454q0 66 33 117.5t85.5 86t117.5 52.5t129 18t128.5 -18t116.5 -52.5t85 -86t33 -117.5q0 -53 -22.5 -102t-61 -89.5t-90.5 -69.5t-111 -40v-39h92q46 0 78.5 6.5t55 23t37 44.5t24.5 71h13v-259h-315v167q46 10 73 34t41.5 61t18.5 85t4 107q0 45 -6 91.5t-26.5 84
t-60.5 61t-107 23.5q-68 0 -108 -23.5t-61 -61t-27 -84t-6 -91.5q0 -59 8 -108.5t24.5 -87t43 -61.5t63.5 -30v-167h-317v259h13q10 -43 24.5 -71t37 -44.5t55 -23t78.5 -6.5h94v39q-59 10 -111.5 39t-91.5 69.5t-61.5 90t-22.5 102.5zM-25 703q5 12 14.5 22.5t29.5 10.5
q16 0 29.5 -9.5t13.5 -24.5q0 -11 -3.5 -18.5t-9.5 -15.5l-129 -151h-13z" />
    <glyph glyph-name="u0390" unicode="&#x390;" horiz-adv-x="350" 
d="M223 429v-349q0 -15 0.5 -28t4.5 -23.5t12.5 -16.5t23.5 -6q29 0 48 26.5t27 61.5l15 -3q-8 -30 -19 -50t-24.5 -32t-31 -17t-38.5 -5q-53 0 -81 12t-41.5 30t-15.5 39t-2 39v308h-67v14h189zM160 705q5 12 13.5 21.5t28.5 9.5q8 0 20.5 -7.5t12.5 -22.5q0 -4 -1.5 -11.5
t-7.5 -15.5l-121 -150h-13zM246 644q0 26 19 45t45 19t45 -19t19 -45t-19 -45t-45 -19t-45 19t-19 45zM-27 644q0 26 18.5 45t44.5 19t45 -19t19 -45t-19 -45t-45 -19t-44.5 19t-18.5 45z" />
    <glyph glyph-name="u0391" unicode="&#x391;" horiz-adv-x="759" 
d="M191 296h230l-118 273zM59 14l298 726h27l315 -726h86v-14h-336v14h93l-116 268h-240l-111 -268h89v-14h-189v14h84z" />
    <glyph glyph-name="u0392" unicode="&#x392;" horiz-adv-x="685" 
d="M313 389q45 0 71 12t39 32.5t16.5 46.5t3.5 53q0 43 -6 75t-20 52.5t-39 30.5t-62 10q-11 0 -22 -1l-22 -2v-309h41zM272 14q27 -3 58 -3q32 0 57.5 7.5t43.5 28.5t27.5 58.5t9.5 98.5q0 16 -3 45t-16.5 57t-41.5 48.5t-77 20.5h-58v-361zM35 698v14h151q42 0 83 1.5
t83 1.5q39 0 82 -8t78.5 -27t58.5 -51t23 -80q0 -43 -22.5 -72.5t-54.5 -48.5t-66.5 -29t-58.5 -13v-4q39 -3 81 -13t77 -31.5t58 -56.5t23 -88q0 -59 -29.5 -96.5t-72 -59.5t-91 -30.5t-85.5 -8.5q-42 0 -83.5 1t-83.5 1h-151v14h92v684h-92z" />
    <glyph glyph-name="u0393" unicode="&#x393;" horiz-adv-x="634" 
d="M37 698v14h567v-171h-13q-14 36 -30.5 65t-38.5 49.5t-51.5 31.5t-69.5 11h-127v-684h93v-14h-330v14h92v684h-92z" />
    <glyph glyph-name="u0394" unicode="&#x394;" horiz-adv-x="760" 
d="M118 114h380l-194 455zM60 14l298 726h27l315 -726v-14h-640v14z" />
    <glyph glyph-name="u0395" unicode="&#x395;" horiz-adv-x="722" 
d="M635 712v-171h-13q-5 17 -16.5 43.5t-33.5 52t-56 43.5t-83 18h-159v-309h56q37 0 62.5 10.5t42.5 30t28 47t18 61.5h13v-311h-13q-7 29 -17 56t-25.5 47.5t-39 32.5t-58.5 12h-67v-361h164q46 0 83 16t65.5 43.5t47.5 65t29 80.5h13v-219h-639v14h92v684h-92v14h598z
" />
    <glyph glyph-name="u0396" unicode="&#x396;" horiz-adv-x="685" 
d="M297 698q-40 0 -70 -11t-52.5 -31t-39.5 -48.5t-32 -62.5h-13v167h518l-404 -698h181q40 0 77 11.5t68.5 36.5t55 65.5t36.5 98.5h13v-226h-601l402 698h-139z" />
    <glyph glyph-name="u0397" unicode="&#x397;" horiz-adv-x="833" 
d="M364 712v-14h-92v-328h289v328h-92v14h329v-14h-92v-684h92v-14h-329v14h92v342h-289v-342h92v-14h-329v14h92v684h-92v14h329z" />
    <glyph glyph-name="u0398" unicode="&#x398;" horiz-adv-x="834" 
d="M205 354q0 -104 12 -172.5t38 -109t66.5 -56.5t96.5 -16q73 0 115.5 27.5t63.5 76t26.5 115t5.5 144.5q0 70 -4.5 133.5t-25.5 112t-63.5 77t-117.5 28.5q-70 0 -112 -26.5t-64.5 -74.5t-29.5 -114t-7 -145zM42 354q0 85 34.5 154t89 118t121 75.5t131.5 26.5
q69 0 136.5 -26t120 -74t85 -117t32.5 -154q0 -75 -30.5 -142.5t-82 -118.5t-119 -80.5t-142.5 -29.5q-74 0 -142 28.5t-120 78t-83 116.5t-31 145zM427 415q18 0 36.5 1.5t34 10.5t26.5 28t14 53h13v-285h-13q-3 29 -13.5 46.5t-25 26.5t-33 12t-38.5 3h-18q-20 0 -38.5 -3
t-33 -12t-25 -26.5t-13.5 -46.5h-13v285h13q3 -34 14 -53t26.5 -28t34 -10.5t36.5 -1.5h16z" />
    <glyph glyph-name="u0399" unicode="&#x399;" horiz-adv-x="407" 
d="M368 712v-14h-92v-684h92v-14h-329v14h92v684h-92v14h329z" />
    <glyph glyph-name="u039A" unicode="&#x39a;" horiz-adv-x="778" 
d="M371 712v-14h-92v-320h8l306 320h-101v14h200v-14h-80l-223 -234l346 -450h62v-14h-334v14h90l-266 350h-8v-350h92v-14h-329v14h92v684h-92v14h329z" />
    <glyph glyph-name="u039B" unicode="&#x39b;" horiz-adv-x="759" 
d="M59 14l298 726h27l315 -726h86v-14h-336v14h93l-239 555l-228 -555h89v-14h-189v14h84z" />
    <glyph glyph-name="u039C" unicode="&#x39c;" horiz-adv-x="926" 
d="M291 712l173 -498h2l176 498h250v-14h-92v-684h92v-14h-328v14h91v684h-2l-246 -698h-16l-247 698h-2v-684h92v-14h-200v14h92v684h-92v14h257z" />
    <glyph glyph-name="u039D" unicode="&#x39d;" horiz-adv-x="741" 
d="M270 712l333 -476h2v462h-92v14h200v-14h-92v-698h-27l-450 641h-2v-627h92v-14h-200v14h92v684h-92v14h236z" />
    <glyph glyph-name="u039E" unicode="&#x39e;" horiz-adv-x="740" 
d="M476 114q42 0 78.5 8t63.5 26.5t43.5 48t19.5 72.5h13v-269h-648v269h13q3 -43 19.5 -72.5t43.5 -48t63.5 -26.5t78.5 -8h212zM378 415q22 0 42 1.5t36.5 10t28 26.5t14.5 51h13v-281h-13q-3 29 -13.5 46.5t-26.5 26.5t-36 12t-44 3h-18q-24 0 -44.5 -3t-36 -12
t-26 -26.5t-13.5 -46.5h-13v281h13q3 -33 14.5 -51t28 -26.5t36.5 -10t42 -1.5h16zM653 712v-221h-13q-1 21 -10.5 40t-29.5 34t-52 24t-77 9h-202q-45 0 -77 -9t-52 -24t-29.5 -34t-10.5 -40h-13v221h566z" />
    <glyph glyph-name="u039F" unicode="&#x39f;" horiz-adv-x="833" 
d="M205 354q0 -104 12 -172.5t37.5 -109t66 -56.5t96.5 -16q73 0 115.5 27.5t63.5 76t26.5 115t5.5 144.5q0 70 -4.5 133.5t-25.5 112t-63.5 77t-117.5 28.5q-70 0 -112 -26.5t-64 -74.5t-29 -114t-7 -145zM42 354q0 85 34.5 154t88.5 118t120.5 75.5t131.5 26.5
q69 0 136.5 -26t120 -74t85 -117t32.5 -154q0 -75 -30.5 -142.5t-82 -118.5t-119 -80.5t-142.5 -29.5q-74 0 -142 28.5t-119.5 78t-82.5 116.5t-31 145z" />
    <glyph glyph-name="u03A0" unicode="&#x3a0;" horiz-adv-x="833" 
d="M798 712v-14h-92v-684h92v-14h-329v14h92v684h-289v-684h92v-14h-329v14h92v684h-92v14h763z" />
    <glyph glyph-name="u03A1" unicode="&#x3a1;" horiz-adv-x="648" 
d="M302 353q85 0 123 38.5t38 130.5q0 87 -33 133t-120 46q-11 0 -21 -1t-18 -2v-345h31zM363 14v-14h-329v14h92v684h-92v14h92q51 0 102 1.5t102 1.5q45 0 97 -7.5t96 -28t73.5 -57t29.5 -94.5q0 -39 -19 -73.5t-58 -60t-98 -40.5t-139 -15h-41v-325h92z" />
    <glyph glyph-name="u03A3" unicode="&#x3a3;" horiz-adv-x="685" 
d="M249 698l169 -295l-262 -289h239q40 0 75.5 5t65 23t51.5 52t35 92h13v-286h-601l278 308l-235 404h518v-167h-13q-15 34 -32 62.5t-39.5 48.5t-52.5 31t-70 11h-139z" />
    <glyph glyph-name="u03A4" unicode="&#x3a4;" horiz-adv-x="705" 
d="M244 698q-37 0 -66 -7.5t-52 -26t-41 -51.5t-33 -84h-13v183h627v-183h-13q-15 51 -33 84t-41 51.5t-52 26t-66 7.5h-36v-684h92v-14h-329v14h92v684h-36z" />
    <glyph glyph-name="u03A5" unicode="&#x3a5;" horiz-adv-x="704" 
d="M307 712v-14h-79l204 -349l184 349h-87v14h191v-14h-87l-193 -367v-317h93v-14h-330v14h92v279l-232 405h-78v14h322z" />
    <glyph glyph-name="u03A6" unicode="&#x3a6;" horiz-adv-x="917" 
d="M623 712v-14h-92v-58q65 -3 127.5 -19t111 -48.5t78 -83.5t29.5 -124q0 -77 -29.5 -129.5t-78 -84.5t-110.5 -47.5t-128 -18.5v-71h92v-14h-329v14h92v71q-66 3 -128 18.5t-110.5 47.5t-78 84.5t-29.5 129.5q0 73 29.5 124t78 83.5t111 48.5t127.5 19v58h-92v14h329z
M386 626q-102 -2 -146 -70t-44 -191q0 -132 43.5 -197t146.5 -69v527zM531 99q103 4 146.5 69t43.5 197q0 61 -10.5 109.5t-33 82t-59 51.5t-87.5 19v-528z" />
    <glyph glyph-name="u03A7" unicode="&#x3a7;" horiz-adv-x="759" 
d="M345 712v-14h-82l146 -248l156 248h-86v14h181v-14h-78l-164 -262l258 -422h83v-14h-343v14h89l-182 301l-186 -301h90v-14h-190v14h82l195 316l-224 368h-80v14h335z" />
    <glyph glyph-name="u03A8" unicode="&#x3a8;" horiz-adv-x="1065" 
d="M268 712v-223q0 -46 10.5 -90t33 -78.5t59 -56.5t89.5 -24v458h-92v14h329v-14h-92v-458q52 2 88.5 24t59.5 56.5t33.5 78.5t10.5 90v223h238v-14h-93v-227q0 -45 -16 -89t-55 -78.5t-104 -56t-162 -21.5v-212h92v-14h-329v14h92v212q-98 0 -162.5 21.5t-103.5 56
t-55 78.5t-16 89v227h-93v14h238z" />
    <glyph glyph-name="u03A9" unicode="&#x3a9;" horiz-adv-x="834" 
d="M53 454q0 66 33 117.5t85.5 86t117.5 52.5t129 18t128.5 -18t116.5 -52.5t85 -86t33 -117.5q0 -53 -22.5 -102t-61 -89.5t-90.5 -69.5t-111 -40v-39h92q46 0 78.5 6.5t55 23t37 44.5t24.5 71h13v-259h-315v167q46 10 73 34t41.5 61t18.5 85t4 107q0 45 -6 91.5t-26.5 84
t-60.5 61t-107 23.5q-68 0 -108 -23.5t-61 -61t-27 -84t-6 -91.5q0 -59 8 -108.5t24.5 -87t43 -61.5t63.5 -30v-167h-317v259h13q10 -43 24.5 -71t37 -44.5t55 -23t78.5 -6.5h94v39q-59 10 -111.5 39t-91.5 69.5t-61.5 90t-22.5 102.5z" />
    <glyph glyph-name="u03AA" unicode="&#x3aa;" horiz-adv-x="407" 
d="M368 712v-14h-92v-684h92v-14h-329v14h92v684h-92v14h329zM38 857q0 29 21 50t50 21t50 -21t21 -50t-21 -50t-50 -21t-50 21t-21 50zM226 857q0 29 21 50t50 21t50 -21t21 -50t-21 -50t-50 -21t-50 21t-21 50z" />
    <glyph glyph-name="u03AB" unicode="&#x3ab;" horiz-adv-x="704" 
d="M307 712v-14h-79l204 -349l184 349h-87v14h191v-14h-87l-193 -367v-317h93v-14h-330v14h92v279l-232 405h-78v14h322zM197 857q0 29 21 50t50 21t50 -21t21 -50t-21 -50t-50 -21t-50 21t-21 50zM385 857q0 29 21 50t50 21t50 -21t21 -50t-21 -50t-50 -21t-50 21t-21 50z
" />
    <glyph glyph-name="u03AC" unicode="&#x3ac;" horiz-adv-x="609" 
d="M496 65q0 -25 4.5 -42t30.5 -17q24 0 41.5 25.5t25.5 62.5l15 -3q-17 -62 -40.5 -83t-60.5 -21q-39 0 -64.5 7t-41 19t-22.5 27.5t-10 31.5h-2q-14 -35 -42 -60t-74 -25q-49 0 -89 19t-68.5 50.5t-44.5 72.5t-16 86q0 35 12.5 75t39 74t67.5 56.5t99 22.5q87 0 118 -88h2
v74h120v-364zM374 214q0 33 -3.5 71t-14.5 70t-33 53t-59 21q-26 0 -43 -11t-28 -36t-15.5 -66.5t-4.5 -101.5q0 -49 2.5 -88.5t11 -67.5t25 -43t44.5 -15q42 0 65.5 21.5t35.5 54t14.5 69.5t2.5 69zM302 705q5 12 13.5 21.5t28.5 9.5q8 0 20.5 -7.5t12.5 -22.5
q0 -4 -1.5 -11.5t-7.5 -15.5l-121 -150h-13z" />
    <glyph glyph-name="u03AD" unicode="&#x3ad;" horiz-adv-x="482" 
d="M44 104q0 35 15.5 56.5t40.5 34.5t56 18t63 7v4q-76 11 -116.5 38t-40.5 73q0 51 53.5 79.5t149.5 28.5q37 0 69.5 -7.5t56 -21t37 -33.5t13.5 -45q0 -32 -15 -43t-46 -11q-23 0 -41.5 8t-18.5 34q0 10 7.5 29.5t7.5 32.5q0 19 -22 31t-46 12q-27 0 -43 -9t-24.5 -23
t-11 -32t-2.5 -37q0 -11 2 -28t9.5 -33.5t23.5 -28t45 -11.5h63v-14h-64q-48 0 -66.5 -26.5t-18.5 -83.5q0 -45 24 -74t82 -29q41 0 70.5 14.5t48.5 34t29 39t12 28.5l14 -5q-5 -17 -18 -38.5t-35 -41t-54.5 -32.5t-75.5 -13q-111 0 -172 32t-61 86zM238 705q5 12 13.5 21.5
t28.5 9.5q8 0 20.5 -7.5t12.5 -22.5q0 -4 -1.5 -11.5t-7.5 -15.5l-121 -150h-13z" />
    <glyph glyph-name="u03AE" unicode="&#x3ae;" horiz-adv-x="630" 
d="M108 14v401h-66v14h186v-100h2q4 9 14 27.5t29 36.5t49 31.5t75 13.5q66 0 102.5 -38t36.5 -104v-575h-122v609q0 42 -17 61.5t-46 19.5q-24 0 -46 -11.5t-38.5 -34.5t-26.5 -57t-10 -80v-214h63v-14h-251v14h66zM312 705q5 12 13.5 21.5t28.5 9.5q8 0 20.5 -7.5
t12.5 -22.5q0 -4 -1.5 -11.5t-7.5 -15.5l-121 -150h-13z" />
    <glyph glyph-name="u03AF" unicode="&#x3af;" horiz-adv-x="350" 
d="M223 429v-349q0 -15 0.5 -28t4.5 -23.5t12.5 -16.5t23.5 -6q29 0 48 26.5t27 61.5l15 -3q-8 -30 -19 -50t-24.5 -32t-31 -17t-38.5 -5q-53 0 -81 12t-41.5 30t-15.5 39t-2 39v308h-67v14h189zM174 705q5 12 13.5 21.5t28.5 9.5q8 0 20.5 -7.5t12.5 -22.5q0 -4 -1.5 -11.5
t-7.5 -15.5l-121 -150h-13z" />
    <glyph glyph-name="u03B0" unicode="&#x3b0;" 
d="M216 429v-317q0 -38 20 -66.5t58 -28.5q32 0 56 19.5t32 51.5q4 18 6.5 33.5t4 31.5t1.5 35.5v45.5q0 58 -6.5 93t-16 55.5t-21 29t-20.5 13.5l6 14q89 -25 134.5 -80.5t45.5 -123.5q0 -51 -13.5 -91.5t-45.5 -77.5q-28 -33 -74.5 -53.5t-104.5 -20.5q-39 0 -72.5 9
t-58 27t-39 45t-14.5 63v279h-67v14h189zM265 705q5 12 13.5 21.5t28.5 9.5q8 0 20.5 -7.5t12.5 -22.5q0 -4 -1.5 -11.5t-7.5 -15.5l-121 -150h-13zM351 644q0 26 19 45t45 19t45 -19t19 -45t-19 -45t-45 -19t-45 19t-19 45zM78 644q0 26 18.5 45t44.5 19t45 -19t19 -45
t-19 -45t-45 -19t-44.5 19t-18.5 45z" />
    <glyph glyph-name="u03B1" unicode="&#x3b1;" horiz-adv-x="609" 
d="M496 65q0 -25 4.5 -42t30.5 -17q24 0 41.5 25.5t25.5 62.5l15 -3q-17 -62 -40.5 -83t-60.5 -21q-39 0 -64.5 7t-41 19t-22.5 27.5t-10 31.5h-2q-14 -35 -42 -60t-74 -25q-49 0 -89 19t-68.5 50.5t-44.5 72.5t-16 86q0 35 12.5 75t39 74t67.5 56.5t99 22.5q87 0 118 -88h2
v74h120v-364zM374 214q0 33 -3.5 71t-14.5 70t-33 53t-59 21q-26 0 -43 -11t-28 -36t-15.5 -66.5t-4.5 -101.5q0 -49 2.5 -88.5t11 -67.5t25 -43t44.5 -15q42 0 65.5 21.5t35.5 54t14.5 69.5t2.5 69z" />
    <glyph glyph-name="u03B2" unicode="&#x3b2;" horiz-adv-x="648" 
d="M101 507q0 48 10.5 85t46.5 72q30 29 69 46.5t93 17.5q40 0 80 -10.5t72 -32t52 -56t20 -82.5q0 -43 -18 -72.5t-45 -48.5t-57 -29t-54 -13v-4q39 -3 76.5 -13t67.5 -31.5t48.5 -56.5t18.5 -88q0 -59 -23.5 -98t-58.5 -62.5t-77.5 -33.5t-79.5 -10q-47 0 -75 20t-44 44
v-330h-122v786zM342 0q24 0 43.5 9t33 31.5t20.5 61.5t7 100q0 16 -3 45t-17.5 57t-43.5 48.5t-81 20.5v14q41 0 65 14t36 36t15.5 49.5t3.5 54.5q0 88 -19 127.5t-72 39.5q-45 0 -76 -40.5t-31 -115.5v-470q6 -15 15.5 -29.5t24 -26t34 -19t45.5 -7.5z" />
    <glyph glyph-name="u03B3" unicode="&#x3b3;" horiz-adv-x="481" 
d="M426 415h-83v14h145v-14h-46l-136 -322v-372h-122v365l-138 329h-53v14h254v-14h-70l122 -299z" />
    <glyph glyph-name="u03B4" unicode="&#x3b4;" 
d="M34 215q0 46 16 81.5t41.5 61.5t57.5 44.5t65 30.5q-27 19 -51.5 38.5t-43 39.5t-30 41.5t-11.5 44.5q0 38 21 63t52.5 40t68.5 21t69 6q35 0 67 -9.5t57 -26t39.5 -37.5t14.5 -45q0 -28 -18 -38t-37 -10q-9 0 -20 0.5t-20.5 5t-16 14t-6.5 27.5q0 3 1 10t2.5 15t3 15
t1.5 11q0 15 -7.5 25t-18.5 17t-25.5 10t-27.5 3q-44 0 -74.5 -14t-30.5 -49q0 -19 18.5 -42t44.5 -46t55 -45t50 -38q40 -32 73.5 -62.5t57.5 -63.5t37 -69.5t13 -79.5t-18.5 -82.5t-51.5 -69.5t-78 -48t-98 -18q-51 0 -95.5 18t-77 49t-51 72.5t-18.5 88.5zM225 425
q-34 -20 -45 -71t-11 -139q0 -41 2.5 -79.5t13 -68.5t32 -48.5t59.5 -18.5q40 0 62 18t33 45.5t13.5 60t2.5 61.5q0 25 -5 52t-21.5 56.5t-48.5 62.5t-87 69z" />
    <glyph glyph-name="u03B5" unicode="&#x3b5;" horiz-adv-x="482" 
d="M44 104q0 35 15.5 56.5t40.5 34.5t56 18t63 7v4q-76 11 -116.5 38t-40.5 73q0 51 53.5 79.5t149.5 28.5q37 0 69.5 -7.5t56 -21t37 -33.5t13.5 -45q0 -32 -15 -43t-46 -11q-23 0 -41.5 8t-18.5 34q0 10 7.5 29.5t7.5 32.5q0 19 -22 31t-46 12q-27 0 -43 -9t-24.5 -23
t-11 -32t-2.5 -37q0 -11 2 -28t9.5 -33.5t23.5 -28t45 -11.5h63v-14h-64q-48 0 -66.5 -26.5t-18.5 -83.5q0 -45 24 -74t82 -29q41 0 70.5 14.5t48.5 34t29 39t12 28.5l14 -5q-5 -17 -18 -38.5t-35 -41t-54.5 -32.5t-75.5 -13q-111 0 -172 32t-61 86z" />
    <glyph glyph-name="u03B6" unicode="&#x3b6;" horiz-adv-x="470" 
d="M40 215q0 40 18 83t48.5 86t69.5 84.5t81 79.5t83.5 71.5t76.5 60.5l-1 2q-34 -12 -72.5 -23t-71.5 -18q-29 -6 -50 -10t-38 -6.5t-30.5 -3.5t-27.5 -1q-15 0 -30.5 3.5t-28 11.5t-20 21t-7.5 31q0 16 12.5 28.5t29.5 12.5q6 0 11.5 -1t13.5 -3t21.5 -6t35.5 -11
q19 -6 35.5 -10t33 -7t34.5 -4t41 -1q35 0 82.5 9.5t85.5 25.5l8 -12q-30 -23 -65 -50t-69 -59t-66 -69t-56 -81t-38.5 -94.5t-14.5 -109.5q0 -33 5.5 -59.5t22.5 -51t49 -49.5t85 -56q31 -18 57.5 -34.5t46.5 -34t31.5 -36.5t11.5 -41q0 -27 -14.5 -50.5t-37.5 -44
t-51.5 -36.5t-56.5 -27l-6 13q43 19 62 38t19 53q0 17 -18.5 35.5t-45.5 37t-58 36t-56 32.5q-42 25 -76 50t-57 54t-35.5 63.5t-12.5 77.5z" />
    <glyph glyph-name="u03B7" unicode="&#x3b7;" horiz-adv-x="630" 
d="M108 14v401h-66v14h186v-100h2q4 9 14 27.5t29 36.5t49 31.5t75 13.5q66 0 102.5 -38t36.5 -104v-575h-122v609q0 42 -17 61.5t-46 19.5q-24 0 -46 -11.5t-38.5 -34.5t-26.5 -57t-10 -80v-214h63v-14h-251v14h66z" />
    <glyph glyph-name="u03B8" unicode="&#x3b8;" horiz-adv-x="584" 
d="M38 357q0 24 3.5 60.5t13.5 78t27.5 83t46 74.5t68.5 54t95 21q61 0 103.5 -22.5t71 -57t44 -77.5t23.5 -84.5t10 -76t2 -53.5q0 -24 -3.5 -60.5t-13.5 -78t-27.5 -82.5t-46 -74.5t-68.5 -54t-95 -20.5q-61 0 -103.5 22t-71 57t-44 77.5t-23.5 83.5t-10 76t-2 54zM292 0
q39 0 62 20t36 63.5t17 110.5t4 162h-238q0 -95 4 -162t17 -110.5t36 -63.5t62 -20zM292 714q-38 0 -61.5 -19.5t-36 -61.5t-17 -107t-4.5 -156h238q0 95 -4.5 161t-17.5 106.5t-36 58.5t-61 18z" />
    <glyph glyph-name="u03B9" unicode="&#x3b9;" horiz-adv-x="350" 
d="M223 429v-349q0 -15 0.5 -28t4.5 -23.5t12.5 -16.5t23.5 -6q29 0 48 26.5t27 61.5l15 -3q-8 -30 -19 -50t-24.5 -32t-31 -17t-38.5 -5q-53 0 -81 12t-41.5 30t-15.5 39t-2 39v308h-67v14h189z" />
    <glyph glyph-name="u03BA" unicode="&#x3ba;" horiz-adv-x="593" 
d="M223 429v-185h5l186 171h-73v14h157v-14h-64l-112 -106l229 -295h39v-14h-265v14h72l-169 216h-5v-216h62v-14h-250v14h66v401h-66v14h188z" />
    <glyph glyph-name="u03BB" unicode="&#x3bb;" horiz-adv-x="618" 
d="M526 -7q-33 0 -60 6.5t-50 23t-42.5 45.5t-35.5 74l-108 292l-158 -420h70v-14h-148v14h63l166 440l-36 97q-9 24 -18.5 51t-20.5 49t-25 36.5t-32 14.5q-24 0 -43.5 -23t-27.5 -55l-15 3q7 29 19.5 47t27 28.5t31 14.5t31.5 4q33 0 61 -5.5t52.5 -21t44.5 -43.5t37 -73
l160 -434q8 -21 15.5 -44t16 -42t18.5 -31.5t23 -12.5q12 0 22 8t18.5 20.5t14.5 29t10 34.5l15 -3q-14 -65 -39.5 -87.5t-56.5 -22.5z" />
    <glyph glyph-name="u03BC" unicode="&#x3bc;" horiz-adv-x="626" 
d="M42 415v14h189v-317q0 -38 17 -66t48 -28q18 0 36.5 10t34 27.5t25.5 42t10 53.5v264h-66v14h188v-415h66v-14h-186v77h-2q-10 -20 -24.5 -35.5t-29.5 -26.5t-30 -16.5t-27 -5.5q-15 0 -31 5.5t-27 16.5h-2v-280h68v-14h-256v14h66v680h-67z" />
    <glyph glyph-name="u03BD" unicode="&#x3bd;" horiz-adv-x="463" 
d="M248 429v-14h-72l123 -277l109 277h-77v14h140v-14h-46l-177 -442h-8l-199 442h-54v14h261z" />
    <glyph glyph-name="u03BE" unicode="&#x3be;" horiz-adv-x="470" 
d="M40 215q0 47 18.5 80t50 56t73 36.5t86.5 21.5v3q-44 11 -82 24t-65.5 32t-43.5 46.5t-16 66.5q0 19 8.5 44t31.5 48t64 39t106 16q91 0 143.5 -34.5t52.5 -94.5q0 -28 -18 -38t-37 -10q-9 0 -20 0.5t-20.5 5t-16 14t-6.5 27.5q0 3 1 11.5t2.5 18t3 18.5t1.5 13
q0 30 -21 42.5t-49 12.5q-36 0 -55.5 -14.5t-28.5 -35t-10.5 -42t-1.5 -34.5q0 -56 13 -89.5t31 -51.5t37 -23.5t31 -6.5l56 -3v-14h-54q-44 0 -70 -17t-39.5 -42.5t-17 -56.5t-3.5 -59q0 -24 5.5 -46t22.5 -45t49 -48.5t85 -56.5q31 -18 57.5 -34.5t46.5 -34t31.5 -36.5
t11.5 -41q0 -27 -14.5 -50.5t-37.5 -44t-51.5 -36.5t-56.5 -27l-6 13q43 19 62 38t19 53q0 17 -18.5 35.5t-45.5 37t-58 36t-56 32.5q-42 25 -76 50t-57 54t-35.5 63.5t-12.5 77.5z" />
    <glyph glyph-name="u03BF" unicode="&#x3bf;" 
d="M278 0q39 0 61 18.5t32.5 48.5t13 68.5t2.5 79.5q0 40 -2.5 78.5t-13 68.5t-32.5 48.5t-61 18.5t-61 -18.5t-32.5 -48.5t-13 -68.5t-2.5 -78.5q0 -41 2.5 -79.5t13 -68.5t32.5 -48.5t61 -18.5zM278 443q52 0 96.5 -18.5t77.5 -49.5t51.5 -72.5t18.5 -87.5
q0 -47 -18.5 -88.5t-51.5 -72.5t-77.5 -49t-96.5 -18t-96.5 18t-77.5 49t-51.5 72.5t-18.5 88.5q0 46 18.5 87.5t51.5 72.5t77.5 49.5t96.5 18.5z" />
    <glyph glyph-name="u03C0" unicode="&#x3c0;" horiz-adv-x="636" 
d="M590 429v-14h-66v-335q0 -15 0.5 -28t3.5 -23.5t9 -16.5t18 -6q24 0 42 25t28 63l15 -3q-8 -30 -18 -50t-22.5 -32t-27 -17t-32.5 -5q-52 0 -80 12t-41 30t-15 39t-2 39v308h-172v-401h60v-14h-248v14h66v401h-66v14h548z" />
    <glyph glyph-name="u03C1" unicode="&#x3c1;" horiz-adv-x="583" 
d="M209 214q0 -32 2.5 -69t14.5 -69.5t35.5 -54t65.5 -21.5q28 0 44.5 15t25 43t11 67.5t2.5 88.5q0 60 -4.5 101.5t-15.5 66.5t-28.5 36t-42.5 11q-37 0 -59 -21t-33 -53t-14.5 -70t-3.5 -71zM87 214q0 35 15 75.5t44.5 74.5t73.5 56.5t103 22.5q58 0 100 -22.5t69 -56.5
t40 -74t13 -75q0 -45 -16 -86t-44.5 -72.5t-68.5 -50.5t-89 -19q-46 0 -74 25t-42 60h-2v-351h-122v493z" />
    <glyph glyph-name="u03C2" unicode="&#x3c2;" horiz-adv-x="478" 
d="M278 429q-39 0 -61 -19.5t-32.5 -48.5t-13 -63t-2.5 -63q0 -25 4.5 -48t21 -47.5t48.5 -51t88 -59.5q31 -18 57.5 -34.5t46.5 -34t31.5 -36.5t11.5 -41q0 -27 -14.5 -50.5t-37.5 -44t-51.5 -36.5t-56.5 -27l-6 13q43 19 62 38t19 53q0 17 -18.5 35.5t-45.5 37t-58 36
t-56 32.5q-42 25 -76 50t-57 54t-35.5 63.5t-12.5 77.5t18.5 84t51.5 73t78.5 51.5t98.5 19.5q37 0 68.5 -8t54 -22.5t35 -35t12.5 -45.5q0 -33 -17 -46.5t-48 -13.5q-23 0 -42.5 8.5t-19.5 35.5q0 4 2.5 14t5 21t5 21t2.5 14q0 20 -17.5 31.5t-43.5 11.5z" />
    <glyph glyph-name="u03C3" unicode="&#x3c3;" 
d="M536 429v-14h-169q34 -12 63 -32t49 -46t31.5 -58t11.5 -68q0 -47 -18.5 -88t-51.5 -71t-77.5 -47.5t-96.5 -17.5t-96.5 17.5t-77.5 47.5t-51.5 71t-18.5 88q0 46 18.5 86t51.5 69t77.5 46t96.5 17h258zM278 0q39 0 61 18t32.5 47t13 67t2.5 79q0 40 -2.5 77t-13 65
t-32.5 45t-61 17t-61 -17t-32.5 -45t-13 -65t-2.5 -77q0 -41 2.5 -79t13 -67t32.5 -47t61 -18z" />
    <glyph glyph-name="u03C4" unicode="&#x3c4;" horiz-adv-x="370" 
d="M350 429v-14h-127v-335q0 -15 1.5 -28t6.5 -23.5t14.5 -16.5t26.5 -6q29 0 54 24t33 64l15 -3q-7 -34 -21.5 -54.5t-33 -31.5t-39 -14.5t-39.5 -3.5q-53 0 -81 12t-41.5 30t-15.5 39t-2 39v308h-77v14h326z" />
    <glyph glyph-name="u03C5" unicode="&#x3c5;" 
d="M216 429v-317q0 -38 20 -66.5t58 -28.5q32 0 56 19.5t32 51.5q4 18 6.5 33.5t4 31.5t1.5 35.5v45.5q0 58 -6.5 93t-16 55.5t-21 29t-20.5 13.5l6 14q89 -25 134.5 -80.5t45.5 -123.5q0 -51 -13.5 -91.5t-45.5 -77.5q-28 -33 -74.5 -53.5t-104.5 -20.5q-39 0 -72.5 9
t-58 27t-39 45t-14.5 63v279h-67v14h189z" />
    <glyph glyph-name="u03C6" unicode="&#x3c6;" horiz-adv-x="750" 
d="M314 301q0 30 12.5 56t33.5 45t48.5 30t57.5 11q60 0 107 -17t78.5 -47.5t48 -72.5t16.5 -91q0 -62 -22.5 -104.5t-60.5 -69t-89 -39.5t-108 -15v-266h-122v266q-57 2 -108 15t-89 39.5t-60.5 69t-22.5 104.5q0 37 13.5 75.5t41.5 70.5t71 54t102 27v-14q-58 -10 -78 -65
t-20 -149q0 -57 13 -96.5t34 -65t48 -37t55 -11.5v297zM436 4q28 0 55 11.5t48 37t34 65t13 96.5q0 68 -10.5 110t-26 65.5t-34.5 31.5t-37 8q-14 0 -22.5 -7.5t-13 -18.5t-5.5 -25.5t-1 -27.5v-346z" />
    <glyph glyph-name="u03C7" unicode="&#x3c7;" horiz-adv-x="500" 
d="M265 429v-14h-61l85 -140l102 140h-67v14h141v-14h-56l-110 -153l157 -248h41v-14h-255v14h69l-99 155l-111 -155h77v-14h-163v14h67l121 168l-149 233h-51v14h262z" />
    <glyph glyph-name="u03C8" unicode="&#x3c8;" horiz-adv-x="818" 
d="M280 607v14h190v-617q28 0 52 11.5t41 37t27 65.5t10 97v72q0 22 3.5 48t17.5 48.5t41.5 38t75.5 15.5q13 0 33 -3t37 -11l-5 -13q-10 5 -20.5 6.5t-19.5 1.5q-15 0 -23.5 -6t-12.5 -16.5t-4.5 -23.5t-0.5 -28v-129q0 -62 -18 -104.5t-51 -69t-79.5 -39.5t-103.5 -15
v-252h68v-14h-256v14h66v252q-57 2 -103.5 15t-79.5 40t-51 69.5t-18 103.5v200h-68v14h190v-214q0 -57 10 -97t27 -65.5t41 -37t52 -11.5v603h-68z" />
    <glyph glyph-name="u03C9" unicode="&#x3c9;" horiz-adv-x="794" 
d="M460 329v-157q0 -45 -14.5 -71t-23.5 -36q17 -20 46.5 -35t67.5 -15q40 0 59 22.5t27 54.5q4 18 6.5 34t4 32.5t1.5 34.5v41q0 58 -6.5 93t-16 55.5t-21 29t-20.5 13.5l6 14q89 -25 134.5 -80.5t45.5 -123.5q0 -58 -10.5 -98t-46.5 -77q-30 -31 -69 -49.5t-90 -18.5
q-23 0 -43.5 6.5t-37 15.5t-29.5 20t-21 20q-12 -11 -29.5 -22t-37.5 -20t-41 -14.5t-41 -5.5q-51 0 -93 18.5t-72 49.5q-36 37 -46.5 77t-10.5 98q0 68 45.5 123.5t134.5 80.5l6 -14q-9 -5 -20.5 -13.5t-21 -29t-16 -55.5t-6.5 -93v-41t1.5 -34.5t3.5 -32.5t7 -34
q8 -32 28 -54.5t60 -22.5q19 0 33.5 8t24.5 21.5t15 31t5 36.5v203h-67v14h189z" />
    <glyph glyph-name="u03CA" unicode="&#x3ca;" horiz-adv-x="350" 
d="M223 429v-349q0 -15 0.5 -28t4.5 -23.5t12.5 -16.5t23.5 -6q29 0 48 26.5t27 61.5l15 -3q-8 -30 -19 -50t-24.5 -32t-31 -17t-38.5 -5q-53 0 -81 12t-41.5 30t-15.5 39t-2 39v308h-67v14h189zM187 644q0 -26 19 -45t45 -19t45 19t19 45t-19 45t-45 19t-45 -19t-19 -45z
M14 644q0 -26 18.5 -45t44.5 -19t45 19t19 45t-19 45t-45 19t-44.5 -19t-18.5 -45z" />
    <glyph glyph-name="u03CB" unicode="&#x3cb;" 
d="M216 429v-317q0 -38 20 -66.5t58 -28.5q32 0 56 19.5t32 51.5q4 18 6.5 33.5t4 31.5t1.5 35.5v45.5q0 58 -6.5 93t-16 55.5t-21 29t-20.5 13.5l6 14q89 -25 134.5 -80.5t45.5 -123.5q0 -51 -13.5 -91.5t-45.5 -77.5q-28 -33 -74.5 -53.5t-104.5 -20.5q-39 0 -72.5 9
t-58 27t-39 45t-14.5 63v279h-67v14h189zM296 644q0 -26 19 -45t45 -19t45 19t19 45t-19 45t-45 19t-45 -19t-19 -45zM123 644q0 -26 18.5 -45t44.5 -19t45 19t19 45t-19 45t-45 19t-44.5 -19t-18.5 -45z" />
    <glyph glyph-name="u03CC" unicode="&#x3cc;" 
d="M278 0q39 0 61 18.5t32.5 48.5t13 68.5t2.5 79.5q0 40 -2.5 78.5t-13 68.5t-32.5 48.5t-61 18.5t-61 -18.5t-32.5 -48.5t-13 -68.5t-2.5 -78.5q0 -41 2.5 -79.5t13 -68.5t32.5 -48.5t61 -18.5zM278 443q52 0 96.5 -18.5t77.5 -49.5t51.5 -72.5t18.5 -87.5
q0 -47 -18.5 -88.5t-51.5 -72.5t-77.5 -49t-96.5 -18t-96.5 18t-77.5 49t-51.5 72.5t-18.5 88.5q0 46 18.5 87.5t51.5 72.5t77.5 49.5t96.5 18.5zM275 705q5 12 13.5 21.5t28.5 9.5q8 0 20.5 -7.5t12.5 -22.5q0 -4 -1.5 -11.5t-7.5 -15.5l-121 -150h-13z" />
    <glyph glyph-name="u03CD" unicode="&#x3cd;" 
d="M216 429v-317q0 -38 20 -66.5t58 -28.5q32 0 56 19.5t32 51.5q4 18 6.5 33.5t4 31.5t1.5 35.5v45.5q0 58 -6.5 93t-16 55.5t-21 29t-20.5 13.5l6 14q89 -25 134.5 -80.5t45.5 -123.5q0 -51 -13.5 -91.5t-45.5 -77.5q-28 -33 -74.5 -53.5t-104.5 -20.5q-39 0 -72.5 9
t-58 27t-39 45t-14.5 63v279h-67v14h189zM275 705q5 12 13.5 21.5t28.5 9.5q8 0 20.5 -7.5t12.5 -22.5q0 -4 -1.5 -11.5t-7.5 -15.5l-121 -150h-13z" />
    <glyph glyph-name="u03CE" unicode="&#x3ce;" horiz-adv-x="794" 
d="M460 329v-157q0 -45 -14.5 -71t-23.5 -36q17 -20 46.5 -35t67.5 -15q40 0 59 22.5t27 54.5q4 18 6.5 34t4 32.5t1.5 34.5v41q0 58 -6.5 93t-16 55.5t-21 29t-20.5 13.5l6 14q89 -25 134.5 -80.5t45.5 -123.5q0 -58 -10.5 -98t-46.5 -77q-30 -31 -69 -49.5t-90 -18.5
q-23 0 -43.5 6.5t-37 15.5t-29.5 20t-21 20q-12 -11 -29.5 -22t-37.5 -20t-41 -14.5t-41 -5.5q-51 0 -93 18.5t-72 49.5q-36 37 -46.5 77t-10.5 98q0 68 45.5 123.5t134.5 80.5l6 -14q-9 -5 -20.5 -13.5t-21 -29t-16 -55.5t-6.5 -93v-41t1.5 -34.5t3.5 -32.5t7 -34
q8 -32 28 -54.5t60 -22.5q19 0 33.5 8t24.5 21.5t15 31t5 36.5v203h-67v14h189zM394 705q5 12 13.5 21.5t28.5 9.5q8 0 20.5 -7.5t12.5 -22.5q0 -4 -1.5 -11.5t-7.5 -15.5l-121 -150h-13z" />
    <glyph glyph-name="u0401" unicode="&#x401;" horiz-adv-x="722" 
d="M635 712v-171h-13q-5 17 -16.5 43.5t-33.5 52t-56 43.5t-83 18h-159v-309h56q37 0 62.5 10.5t42.5 30t28 47t18 61.5h13v-311h-13q-7 29 -17 56t-25.5 47.5t-39 32.5t-58.5 12h-67v-361h164q46 0 83 16t65.5 43.5t47.5 65t29 80.5h13v-219h-639v14h92v684h-92v14h598z
M165 857q0 29 21 50t50 21t50 -21t21 -50t-21 -50t-50 -21t-50 21t-21 50zM413 857q0 29 21 50t50 21t50 -21t21 -50t-21 -50t-50 -21t-50 21t-21 50z" />
    <glyph glyph-name="u0402" unicode="&#x402;" horiz-adv-x="856" 
d="M241 698q-37 0 -66 -7.5t-52 -26t-41 -51.5t-33 -84h-13v183h627v-183h-13q-15 51 -33 84t-41 51.5t-52 26t-66 7.5h-46v-309q5 1 14.5 2.5t20.5 3t22 2t18 0.5q64 0 121.5 -10.5t100.5 -34.5t68.5 -62t25.5 -93q0 -39 -14 -77.5t-41 -68.5t-67.5 -48.5t-94.5 -18.5
q-57 0 -86.5 27.5t-29.5 64.5q0 30 18 43.5t41 13.5t37 -10.5t14 -30.5q0 -11 -2 -19.5t-4.5 -16.5t-4.5 -15.5t-2 -17.5q0 -14 5.5 -19t12.5 -5q20 0 31 18t16.5 46.5t7 64t1.5 69.5q0 51 -12 86.5t-33 57.5t-50 32t-63 10q-17 0 -37.5 -2t-33.5 -6v-376q-12 1 -17.5 1
h-15.5h-204v14h92v684h-26z" />
    <glyph glyph-name="u0403" unicode="&#x403;" horiz-adv-x="634" 
d="M37 698v14h567v-171h-13q-14 36 -30.5 65t-38.5 49.5t-51.5 31.5t-69.5 11h-127v-684h93v-14h-330v14h92v684h-92zM347 948q5 11 14.5 22t29.5 11q16 0 29.5 -9.5t13.5 -24.5q0 -11 -3.5 -19t-9.5 -15l-149 -151h-13l88 186v0z" />
    <glyph glyph-name="u0404" unicode="&#x404;" horiz-adv-x="722" 
d="M214 352q0 -104 12 -172t37.5 -108t66 -56t96.5 -16q45 0 81.5 18t64.5 47.5t47 67.5t28 79h16v-212h-16q-5 12 -12 16.5t-21 4.5q-12 0 -31 -5.5t-43.5 -12t-53.5 -12t-61 -5.5q-74 0 -141.5 28.5t-119 78t-82.5 116.5t-31 145q0 85 34.5 154t88.5 118t120.5 75.5
t130.5 26.5q31 0 59 -6t51.5 -12.5t42 -12.5t32.5 -6t21 3.5t10 17.5h16v-204h-13q-11 33 -26.5 69.5t-40 67t-61 50t-90.5 19.5q-70 0 -111.5 -25t-64 -69.5t-29.5 -106.5t-7 -136q32 28 69.5 46t75.5 18q14 0 26 -1t26.5 -5.5t34 -12.5t48.5 -22q34 -16 54.5 -23.5
t37.5 -7.5q18 0 32.5 8.5t25.5 17.5l9 -11q-44 -38 -84 -59.5t-81 -21.5q-29 0 -52 7t-57 23q-42 20 -67.5 32t-48.5 12q-17 0 -27.5 -4.5t-21.5 -9.5v-11z" />
    <glyph glyph-name="u0405" unicode="&#x405;" horiz-adv-x="648" 
d="M78 222q2 -12 7 -31.5t14.5 -42t24 -46t35.5 -43.5q23 -23 44.5 -35t41 -17.5t37 -6t32.5 -0.5q52 0 86.5 16.5t54 40.5t27.5 50.5t8 46.5q0 37 -17.5 61t-46.5 40t-66 27t-76 22.5t-76 27t-66 40t-46.5 60.5t-17.5 90q0 40 18 77t50 65.5t76 46t97 17.5q33 0 58 -6
t44 -12.5t33.5 -12.5t26.5 -6q14 0 18.5 4.5t9.5 16.5h16v-190h-13q-12 34 -25.5 68.5t-34.5 62t-53 44.5t-81 17q-40 0 -70.5 -11t-51.5 -29t-32 -40.5t-11 -44.5q0 -35 18.5 -58t48.5 -39.5t68.5 -28.5t79 -25t79 -28.5t68.5 -39.5t48.5 -58t18.5 -84q0 -49 -20 -93
t-56.5 -77t-87.5 -52.5t-112 -19.5q-31 0 -61.5 6t-57 12.5t-47 12.5t-30.5 6q-14 0 -20 -4.5t-11 -18.5h-16v222h15z" />
    <glyph glyph-name="u0406" unicode="&#x406;" horiz-adv-x="407" 
d="M368 712v-14h-92v-684h92v-14h-329v14h92v684h-92v14h329z" />
    <glyph glyph-name="u0407" unicode="&#x407;" horiz-adv-x="407" 
d="M368 712v-14h-92v-684h92v-14h-329v14h92v684h-92v14h329zM38 857q0 29 21 50t50 21t50 -21t21 -50t-21 -50t-50 -21t-50 21t-21 50zM226 857q0 29 21 50t50 21t50 -21t21 -50t-21 -50t-50 -21t-50 21t-21 50z" />
    <glyph glyph-name="u0408" unicode="&#x408;" horiz-adv-x="500" 
d="M380 204q0 -25 -3.5 -62t-22.5 -71.5t-59.5 -59.5t-114.5 -25q-26 0 -54 4.5t-51 16.5t-38 33t-15 53q0 4 1 16t8.5 24t23.5 21.5t46 9.5q8 0 18.5 -1.5t20 -6.5t16 -14.5t6.5 -25.5q0 -7 -2 -18t-5 -23t-5 -22t-2 -14q0 -15 5.5 -23t12.5 -11.5t14.5 -4t11.5 -0.5
q16 0 25 6.5t13 16.5t4.5 21.5t0.5 20.5v633h-92v14h329v-14h-92v-494v0z" />
    <glyph glyph-name="u0409" unicode="&#x409;" horiz-adv-x="1037" 
d="M328 698q-2 -56 -6.5 -134t-13.5 -162.5t-23 -166t-36 -143.5q-17 -50 -44.5 -79t-64.5 -29q-21 0 -43 7t-40.5 20.5t-30 34.5t-11.5 48q0 38 22.5 54t58.5 16q30 0 44.5 -14t14.5 -35q0 -15 -4 -26.5t-8.5 -21.5t-8 -20t-3.5 -22q0 -25 18 -25q13 0 26 8.5t24.5 22.5
t21.5 32.5t16 38.5q20 61 33.5 134.5t22 152t13 158t6.5 151.5h-96v14h531v-14h-92v-305q8 1 15.5 1.5t18.5 0.5q48 0 102.5 -8t100.5 -29.5t76.5 -60t30.5 -98.5q0 -40 -13 -70.5t-34.5 -53t-50 -37t-58.5 -23.5t-59.5 -13t-54.5 -4q-42 0 -80 1t-80 1h-151v14h92v684h-182
zM655 14q14 -2 24.5 -2.5t26.5 -0.5q30 0 54 7.5t41 28.5t26 57.5t9 95.5q0 21 -2.5 52t-15 59.5t-39 49t-73.5 20.5h-26t-25 -2v-365z" />
    <glyph glyph-name="u040A" unicode="&#x40a;" horiz-adv-x="1078" 
d="M364 712v-14h-92v-318h279v318h-92v14h329v-14h-92v-317q8 1 15.5 1.5t18.5 0.5q48 0 102.5 -7t100.5 -27.5t76.5 -58t30.5 -97.5q0 -40 -13 -70t-34.5 -51.5t-50 -36t-58.5 -22.5t-59.5 -11.5t-54.5 -3.5q-42 0 -80 1t-80 1h-151v14h92v352h-279v-352h92v-14h-329v14h92
v684h-92v14h329zM696 14q14 -2 24.5 -2.5t26.5 -0.5q30 0 54 6.5t41 26.5t26 55.5t9 94.5q0 21 -2.5 51t-15 57.5t-39 47t-73.5 19.5h-26t-25 -2v-353z" />
    <glyph glyph-name="u040B" unicode="&#x40b;" horiz-adv-x="900" 
d="M243 698q-37 0 -66 -7.5t-52 -26t-41 -51.5t-33 -84h-13v183h627v-183h-13q-15 51 -33 84t-41 51.5t-52 26t-66 7.5h-43v-329q49 14 84 17.5t52 3.5q45 0 88 -9.5t76.5 -29.5t54.5 -50t21 -71v-216h92v-14h-312v14h74v236q0 68 -30 94.5t-95 26.5q-32 0 -55 -4.5
t-50 -13.5v-339h74v-14h-312v14h92v684h-28v0z" />
    <glyph glyph-name="u040C" unicode="&#x40c;" horiz-adv-x="736" 
d="M272 14h84v-14h-321v14h92v684h-92v14h321v-14h-84v-317h79q33 0 55.5 8.5t37.5 27t22.5 47.5t9.5 70t6.5 76t15.5 60.5t29 40t47 14.5q21 0 41 -5t35 -16.5t24.5 -29.5t9.5 -43q0 -38 -19 -55t-54 -17q-57 0 -57 48q0 16 3.5 28t8 22t8 18.5t3.5 16.5q0 5 -1.5 11.5
t-12.5 6.5q-29 0 -47.5 -35t-22.5 -103q-2 -45 -6.5 -78.5t-14 -57.5t-26 -38.5t-42.5 -20.5v-4q49 -8 87.5 -16.5t66.5 -25.5t44.5 -48.5t20.5 -85.5q5 -63 8.5 -100t9 -57t15 -26t26.5 -6q20 0 33 11.5t23 21.5l10 -9q-10 -10 -19.5 -18.5t-22 -14.5t-30.5 -9.5t-45 -3.5
q-56 0 -86.5 16.5t-45.5 41.5t-18.5 54.5t-4.5 56.5q-2 40 -5.5 78t-16 67t-37.5 47t-70 18h-75v-351zM369 948q5 11 14.5 22t29.5 11q16 0 29.5 -9.5t13.5 -24.5q0 -11 -3.5 -19t-9.5 -15l-149 -151h-13l88 186v0z" />
    </font>
</defs>
</svg>
