<?xml version="1.0" standalone="no"?>
<!DOCTYPE svg PUBLIC "-//W3C//DTD SVG 1.1//EN" "http://www.w3.org/Graphics/SVG/1.1/DTD/svg11.dtd" >
<svg xmlns="http://www.w3.org/2000/svg">
<metadata>Generated by IcoMoon</metadata>
<defs>
<font id="icomoon" horiz-adv-x="1024">
<font-face units-per-em="1024" ascent="960" descent="-64" />
<missing-glyph horiz-adv-x="1024" />
<glyph unicode="&#x20;" horiz-adv-x="512" d="" />
<glyph unicode="&#xe000;" glyph-name="error" d="M554 384.667v256h-84v-256h84zM554 212.667v86h-84v-86h84zM512 852.667q176 0 301-125t125-301-125-301-301-125-301 125-125 301 125 301 301 125z" />
<glyph unicode="&#xe001;" glyph-name="error_outline" d="M512 84.667q140 0 241 101t101 241-101 241-241 101-241-101-101-241 101-241 241-101zM512 852.667q176 0 301-125t125-301-125-301-301-125-301 125-125 301 125 301 301 125zM470 640.667h84v-256h-84v256zM470 298.667h84v-86h-84v86z" />
<glyph unicode="&#xe013;" glyph-name="library_add" d="M810 468.667v86h-170v170h-86v-170h-170v-86h170v-170h86v170h170zM854 852.667q34 0 59-25t25-59v-512q0-34-25-60t-59-26h-512q-34 0-60 26t-26 60v512q0 34 26 59t60 25h512zM170 682.667v-598h598v-84h-598q-34 0-59 25t-25 59v598h84z" />
<glyph unicode="&#xe014;" glyph-name="library_books" d="M810 640.667v84h-426v-84h426zM640 298.667v86h-256v-86h256zM810 468.667v86h-426v-86h426zM854 852.667q34 0 59-25t25-59v-512q0-34-25-60t-59-26h-512q-34 0-60 26t-26 60v512q0 34 26 59t60 25h512zM170 682.667v-598h598v-84h-598q-34 0-59 25t-25 59v598h84z" />
<glyph unicode="&#xe016;" glyph-name="new_releases" d="M554 384.667v256h-84v-256h84zM554 212.667v86h-84v-86h84zM982 426.667l-104-118 14-158-154-34-80-136-146 62-146-62-80 134-154 36 14 158-104 118 104 120-14 156 154 34 80 136 146-62 146 62 80-136 154-34-14-158z" />
<glyph unicode="&#xe046;" glyph-name="chat" d="M768 596.667v86h-512v-86h512zM598 340.667v86h-342v-86h342zM256 554.667v-86h512v86h-512zM854 852.667q34 0 59-25t25-59v-512q0-34-25-60t-59-26h-598l-170-170v768q0 34 25 59t59 25h684z" />
<glyph unicode="&#xe048;" glyph-name="comment" d="M768 596.667v86h-512v-86h512zM768 468.667v86h-512v-86h512zM768 340.667v86h-512v-86h512zM938 768.667v-768l-170 170h-598q-34 0-59 26t-25 60v512q0 34 25 59t59 25h684q34 0 59-25t25-59z" />
<glyph unicode="&#xe04c;" glyph-name="email" d="M854 596.667v86l-342-214-342 214v-86l342-212zM854 768.667q34 0 59-26t25-60v-512q0-34-25-60t-59-26h-684q-34 0-59 26t-25 60v512q0 34 25 60t59 26h684z" />
<glyph unicode="&#xe04d;" glyph-name="forum" d="M726 426.667q0-18-13-30t-31-12h-426l-170-172v598q0 18 12 30t30 12h554q18 0 31-12t13-30v-384zM896 682.667q18 0 30-12t12-30v-640l-170 170h-470q-18 0-30 12t-12 30v86h554v384h86z" />
<glyph unicode="&#xe061;" glyph-name="textsms" d="M726 468.667v86h-86v-86h86zM554 468.667v86h-84v-86h84zM384 468.667v86h-86v-86h86zM854 852.667q34 0 59-25t25-59v-512q0-34-25-60t-59-26h-598l-170-170v768q0 34 25 59t59 25h684z" />
<glyph unicode="&#xe068;" glyph-name="present_to_all" d="M426 426.667h-84l170 170 170-170h-84v-170h-172v170zM896 126.667v600h-768v-600h768zM896 810.667q36 0 61-25t25-61v-596q0-36-25-61t-61-25h-768q-36 0-61 25t-25 61v596q0 36 25 61t61 25h768z" />
<glyph unicode="&#xe069;" glyph-name="add" d="M810 384.667h-256v-256h-84v256h-256v84h256v256h84v-256h256v-84z" />
<glyph unicode="&#xe06a;" glyph-name="add_box" d="M726 384.667v84h-172v172h-84v-172h-172v-84h172v-172h84v172h172zM810 810.667q34 0 60-26t26-60v-596q0-34-26-60t-60-26h-596q-36 0-61 26t-25 60v596q0 34 25 60t61 26h596z" />
<glyph unicode="&#xe06b;" glyph-name="add_circle" d="M726 384.667v84h-172v172h-84v-172h-172v-84h172v-172h84v172h172zM512 852.667q176 0 301-125t125-301-125-301-301-125-301 125-125 301 125 301 301 125z" />
<glyph unicode="&#xe06c;" glyph-name="add_circle_outline" d="M512 84.667q140 0 241 101t101 241-101 241-241 101-241-101-101-241 101-241 241-101zM512 852.667q176 0 301-125t125-301-125-301-301-125-301 125-125 301 125 301 301 125zM554 640.667v-172h172v-84h-172v-172h-84v172h-172v84h172v172h84z" />
<glyph unicode="&#xe06d;" glyph-name="archive" d="M218 724.667h588l-40 44h-512zM512 192.667l234 234h-148v86h-172v-86h-148zM876 714.667q20-24 20-54v-532q0-34-26-60t-60-26h-596q-34 0-60 26t-26 60v532q0 30 20 54l58 72q20 24 50 24h512q30 0 50-24z" />
<glyph unicode="&#xe06e;" glyph-name="backspace" d="M810 272.667l-152 154 152 154-60 60-152-154-154 154-60-60 154-154-154-154 60-60 154 154 152-154zM938 810.667q34 0 60-26t26-60v-596q0-34-26-60t-60-26h-640q-40 0-68 38l-230 346 230 346q28 38 68 38h640z" />
<glyph unicode="&#xe06f;" glyph-name="block" d="M512 84.667q140 0 241 101t101 241q0 120-72 210l-480-480q90-72 210-72zM170 426.667q0-120 72-210l480 480q-90 72-210 72-140 0-241-101t-101-241zM512 852.667q176 0 301-125t125-301-125-301-301-125-301 125-125 301 125 301 301 125z" />
<glyph unicode="&#xe070;" glyph-name="clear" d="M810 664.667l-238-238 238-238-60-60-238 238-238-238-60 60 238 238-238 238 60 60 238-238 238 238z" />
<glyph unicode="&#xe074;" glyph-name="create" d="M884 638.667l-78-78-160 160 78 78q12 12 30 12t30-12l100-100q12-12 12-30t-12-30zM128 202.667l472 472 160-160-472-472h-160v160z" />
<glyph unicode="&#xe075;" glyph-name="drafts" d="M512 384.667l352 220-352 206-352-206zM938 596.667v-426q0-34-25-60t-59-26h-684q-34 0-59 26t-25 60v426q0 50 40 74l386 226 386-226q40-24 40-74z" />
<glyph unicode="&#xe076;" glyph-name="filter_list" d="M256 384.667v84h512v-84h-512zM128 682.667h768v-86h-768v86zM426 170.667v86h172v-86h-172z" />
<glyph unicode="&#xe07c;" glyph-name="mail" d="M854 596.667v86l-342-214-342 214v-86l342-212zM854 768.667q34 0 59-26t25-60v-512q0-34-25-60t-59-26h-684q-34 0-59 26t-25 60v512q0 34 25 60t59 26h684z" />
<glyph unicode="&#xe07d;" glyph-name="markunread" d="M854 596.667v86l-342-214-342 214v-86l342-212zM854 768.667q34 0 59-26t25-60v-512q0-34-25-60t-59-26h-684q-34 0-59 26t-25 60v512q0 34 25 60t59 26h684z" />
<glyph unicode="&#xe07f;" glyph-name="remove" d="M810 384.667h-596v84h596v-84z" />
<glyph unicode="&#xe080;" glyph-name="remove_circle" d="M726 384.667v84h-428v-84h428zM512 852.667q176 0 301-125t125-301-125-301-301-125-301 125-125 301 125 301 301 125z" />
<glyph unicode="&#xe081;" glyph-name="remove_circle_outline" d="M512 84.667q140 0 241 101t101 241-101 241-241 101-241-101-101-241 101-241 241-101zM512 852.667q176 0 301-125t125-301-125-301-301-125-301 125-125 301 125 301 301 125zM298 468.667h428v-84h-428v84z" />
<glyph unicode="&#xe082;" glyph-name="reply" d="M426 554.667q208-30 321-159t149-311q-154 218-470 218v-174l-298 298 298 298v-170z" />
<glyph unicode="&#xe083;" glyph-name="reply_all" d="M554 554.667q208-30 321-159t149-311q-154 218-470 218v-174l-298 298 298 298v-170zM298 596.667l-170-170 170-170v-128l-298 298 298 298v-128z" />
<glyph unicode="&#xe084;" glyph-name="report" d="M554 384.667v256h-84v-256h84zM512 200.667q22 0 39 17t17 39-17 38-39 16-39-16-17-38 17-39 39-17zM672 810.667l224-224v-320l-224-224h-320l-224 224v320l224 224h320z" />
<glyph unicode="&#xe085;" glyph-name="save" d="M640 554.667v170h-426v-170h426zM512 128.667q52 0 90 38t38 90-38 90-90 38-90-38-38-90 38-90 90-38zM726 810.667l170-170v-512q0-34-26-60t-60-26h-596q-36 0-61 26t-25 60v596q0 34 25 60t61 26h512z" />
<glyph unicode="&#xe086;" glyph-name="select_all" d="M384 554.667v-256h256v256h-256zM298 212.667v428h428v-428h-428zM640 724.667v86h86v-86h-86zM640 42.667v86h86v-86h-86zM810 212.667v86h86v-86h-86zM810 554.667v86h86v-86h-86zM810 42.667v86h86q0-34-26-60t-60-26zM810 384.667v84h86v-84h-86zM470 42.667v86h84v-86h-84zM384 810.667v-86h-86v86h86zM128 212.667v86h86v-86h-86zM214 42.667q-34 0-60 26t-26 60h86v-86zM810 810.667q34 0 60-26t26-60h-86v86zM554 810.667v-86h-84v86h84zM128 554.667v86h86v-86h-86zM298 42.667v86h86v-86h-86zM128 384.667v84h86v-84h-86zM128 724.667q0 34 26 60t60 26v-86h-86z" />
<glyph unicode="&#xe0a3;" glyph-name="gps_fixed" d="M512 128.667q124 0 211 87t87 211-87 211-211 87-211-87-87-211 87-211 211-87zM894 468.667h88v-84h-88q-14-134-110-230t-230-110v-88h-84v88q-134 14-230 110t-110 230h-88v84h88q14 134 110 230t230 110v88h84v-88q134-14 230-110t110-230zM512 596.667q70 0 120-50t50-120-50-120-120-50-120 50-50 120 50 120 120 50z" />
<glyph unicode="&#xe0ac;" glyph-name="now_wallpaper" d="M170 384.667v-300h300v-84h-300q-34 0-59 25t-25 59v300h84zM854 84.667v300h84v-300q0-34-25-59t-59-25h-300v84h300zM854 852.667q34 0 59-25t25-59v-300h-84v300h-300v84h300zM726 576.667q0-26-19-45t-45-19-45 19-19 45 19 45 45 19 45-19 19-45zM426 384.667l128-158 86 114 128-170h-512zM170 768.667v-300h-84v300q0 34 25 59t59 25h300v-84h-300z" />
<glyph unicode="&#xe0bc;" glyph-name="storage" d="M170 468.667v-84h86v84h-86zM86 340.667v172h852v-172h-852zM256 640.667v84h-86v-84h86zM86 768.667h852v-172h-852v172zM170 212.667v-84h86v84h-86zM86 84.667v172h852v-172h-852z" />
<glyph unicode="&#xe0ff;" glyph-name="file_download" d="M214 170.667h596v-86h-596v86zM810 554.667l-298-298-298 298h170v256h256v-256h170z" />
<glyph unicode="&#xe10f;" glyph-name="keyboard_arrow_down" d="M316 604.667l196-196 196 196 60-60-256-256-256 256z" />
<glyph unicode="&#xe110;" glyph-name="keyboard_arrow_left" d="M658 252.667l-60-60-256 256 256 256 60-60-196-196z" />
<glyph unicode="&#xe111;" glyph-name="keyboard_arrow_right" d="M366 240.667l196 196-196 196 60 60 256-256-256-256z" />
<glyph unicode="&#xe112;" glyph-name="keyboard_arrow_up" d="M316 280.667l-60 60 256 256 256-256-60-60-196 196z" />
<glyph unicode="&#xe113;" glyph-name="keyboard_backspace" d="M896 468.667v-84h-604l152-154-60-60-256 256 256 256 60-60-152-154h604z" />
<glyph unicode="&#xe114;" glyph-name="keyboard_capslock" d="M256 170.667v86h512v-86h-512zM512 580.667l-196-196-60 60 256 256 256-256-60-60z" />
<glyph unicode="&#xe130;" glyph-name="device_hub" d="M726 256.667h170v-214h-214v130l-170 180-170-180v-130h-214v214h170l172 170v136q-38 14-62 46t-24 74q0 52 38 90t90 38 90-38 38-90q0-42-24-74t-62-46v-136z" />
<glyph unicode="&#xe15c;" glyph-name="edit" d="M884 638.667l-78-78-160 160 78 78q12 12 30 12t30-12l100-100q12-12 12-30t-12-30zM128 202.667l472 472 160-160-472-472h-160v160z" />
<glyph unicode="&#xe19a;" glyph-name="navigate_before" d="M658 622.667l-196-196 196-196-60-60-256 256 256 256z" />
<glyph unicode="&#xe19b;" glyph-name="navigate_next" d="M426 682.667l256-256-256-256-60 60 196 196-196 196z" />
<glyph unicode="&#xe1a8;" glyph-name="remove_red_eye" d="M512 554.667q52 0 90-38t38-90-38-90-90-38-90 38-38 90 38 90 90 38zM512 212.667q88 0 151 63t63 151-63 151-151 63-151-63-63-151 63-151 151-63zM512 746.667q158 0 286-88t184-232q-56-144-184-232t-286-88-286 88-184 232q56 144 184 232t286 88z" />
<glyph unicode="&#xe1b9;" glyph-name="transform" d="M426 596.667v86h256q34 0 60-26t26-60v-256h-86v256h-256zM938 170.667h-170v-86h86l-128-128-128 128h84v86h-340q-34 0-60 26t-26 60v340h-170v86h170v86h-86l128 128 128-128h-84v-512h596v-86z" />
<glyph unicode="&#xe1d3;" glyph-name="layers" d="M512 256.667q-18 14-163 127t-221 171l384 298 384-298q-76-58-220-170t-164-128zM512 146.667l314 246 70-54-384-298-384 298 70 54z" />
<glyph unicode="&#xe1d4;" glyph-name="layers_clear" d="M140 896.667l798-800-54-54-160 162-212-164-384 298 70 54 314-246 150 118-60 60-90-68q-18 14-163 127t-221 171l138 108-180 180zM896 554.667q-54-42-172-134l-336 336 124 96zM846 298.667l-62 62 50 38 62-60z" />
<glyph unicode="&#xe1d7;" glyph-name="local_attraction" d="M664 222.667l-46 174 140 116-180 10-66 168-66-168-182-10 142-116-46-174 152 98zM854 426.667q0-34 25-60t59-26v-170q0-34-25-60t-59-26h-684q-34 0-59 26t-25 60v170q36 0 60 25t24 61q0 34-25 60t-59 26v170q0 34 25 60t59 26h684q34 0 59-26t25-60v-170q-34 0-59-26t-25-60z" />
<glyph unicode="&#xe1df;" glyph-name="local_grocery_store" d="M726 170.667q34 0 59-26t25-60-25-59-59-25-60 25-26 59 26 60 60 26zM42 852.667h140l40-84h632q18 0 30-13t12-31q0-10-6-20l-152-276q-24-44-74-44h-318l-38-70-2-6q0-10 10-10h494v-86h-512q-34 0-59 26t-25 60q0 20 10 40l58 106-154 324h-86v84zM298 170.667q34 0 60-26t26-60-26-59-60-25-59 25-25 59 25 60 59 26z" />
<glyph unicode="&#xe1e4;" glyph-name="local_mall" d="M512 384.667q88 0 151 62t63 150h-86q0-52-38-90t-90-38-90 38-38 90h-86q0-88 63-150t151-62zM512 810.667q-52 0-90-38t-38-90h256q0 52-38 90t-90 38zM810 682.667q34 0 60-26t26-60v-512q0-34-26-59t-60-25h-596q-34 0-60 25t-26 59v512q0 34 26 60t60 26h84q0 88 63 151t151 63 151-63 63-151h84z" />
<glyph unicode="&#xe1e6;" glyph-name="local_offer" d="M234 640.667q26 0 45 19t19 45-19 45-45 19-45-19-19-45 19-45 45-19zM914 444.667q24-24 24-60t-24-60l-300-300q-24-24-60-24t-60 24l-384 384q-24 24-24 60v300q0 34 25 59t59 25h300q36 0 60-24z" />
<glyph unicode="&#xe1eb;" glyph-name="local_play" d="M664 222.667l-46 174 140 116-180 10-66 168-66-168-182-10 142-116-46-174 152 98zM854 426.667q0-34 25-60t59-26v-170q0-34-25-60t-59-26h-684q-34 0-59 26t-25 60v170q36 0 60 25t24 61q0 34-25 60t-59 26v170q0 34 25 60t59 26h684q34 0 59-26t25-60v-170q-34 0-59-26t-25-60z" />
<glyph unicode="&#xe1ec;" glyph-name="local_post_office" d="M854 596.667v86l-342-214-342 214v-86l342-212zM854 768.667q34 0 59-26t25-60v-512q0-34-25-60t-59-26h-684q-34 0-59 26t-25 60v512q0 34 25 60t59 26h684z" />
<glyph unicode="&#xe1ed;" glyph-name="local_print_shop" d="M768 810.667v-170h-512v170h512zM810 426.667q18 0 31 12t13 30-13 31-31 13-30-13-12-31 12-30 30-12zM682 128.667v212h-340v-212h340zM810 596.667q52 0 90-38t38-90v-256h-170v-170h-512v170h-170v256q0 52 38 90t90 38h596z" />
<glyph unicode="&#xe1ef;" glyph-name="local_see" d="M512 212.667q88 0 151 63t63 151-63 151-151 63-151-63-63-151 63-151 151-63zM384 852.667h256l78-84h136q34 0 59-26t25-60v-512q0-34-25-60t-59-26h-684q-34 0-59 26t-25 60v512q0 34 25 60t59 26h136zM376 426.667q0 56 40 96t96 40 96-40 40-96-40-96-96-40-96 40-40 96z" />
<glyph unicode="&#xe1f0;" glyph-name="local_shipping" d="M768 148.667q28 0 46 19t18 45-18 45-46 19-46-19-18-45 18-45 46-19zM832 532.667h-106v-106h190zM256 148.667q28 0 46 19t18 45-18 45-46 19-46-19-18-45 18-45 46-19zM854 596.667l128-170v-214h-86q0-52-38-90t-90-38-90 38-38 90h-256q0-52-38-90t-90-38-90 38-38 90h-86v470q0 34 26 60t60 26h598v-172h128z" />
<glyph unicode="&#xe1ff;" glyph-name="apps" d="M682 84.667v172h172v-172h-172zM682 340.667v172h172v-172h-172zM426 596.667v172h172v-172h-172zM682 768.667h172v-172h-172v172zM426 340.667v172h172v-172h-172zM170 340.667v172h172v-172h-172zM170 84.667v172h172v-172h-172zM426 84.667v172h172v-172h-172zM170 596.667v172h172v-172h-172z" />
<glyph unicode="&#xe200;" glyph-name="arrow_back" d="M854 468.667v-84h-520l238-240-60-60-342 342 342 342 60-60-238-240h520z" />
<glyph unicode="&#xe201;" glyph-name="arrow_drop_down" d="M298 512.667h428l-214-214z" />
<glyph unicode="&#xe203;" glyph-name="arrow_drop_up" d="M298 340.667l214 214 214-214h-428z" />
<glyph unicode="&#xe204;" glyph-name="arrow_forward" d="M512 768.667l342-342-342-342-60 60 238 240h-520v84h520l-238 240z" />
<glyph unicode="&#xe205;" glyph-name="cancel" d="M726 272.667l-154 154 154 154-60 60-154-154-154 154-60-60 154-154-154-154 60-60 154 154 154-154zM512 852.667q176 0 301-125t125-301-125-301-301-125-301 125-125 301 125 301 301 125z" />
<glyph unicode="&#xe206;" glyph-name="check" d="M384 248.667l452 452 60-60-512-512-238 238 60 60z" />
<glyph unicode="&#xe207;" glyph-name="chevron_left" d="M658 622.667l-196-196 196-196-60-60-256 256 256 256z" />
<glyph unicode="&#xe208;" glyph-name="chevron_right" d="M426 682.667l256-256-256-256-60 60 196 196-196 196z" />
<glyph unicode="&#xe209;" glyph-name="close" d="M810 664.667l-238-238 238-238-60-60-238 238-238-238-60 60 238 238-238 238 60 60 238-238 238 238z" />
<glyph unicode="&#xe20a;" glyph-name="expand_less" d="M512 596.667l256-256-60-60-196 196-196-196-60 60z" />
<glyph unicode="&#xe20b;" glyph-name="expand_more" d="M708 572.667l60-60-256-256-256 256 60 60 196-196z" />
<glyph unicode="&#xe20c;" glyph-name="fullscreen" d="M598 724.667h212v-212h-84v128h-128v84zM726 212.667v128h84v-212h-212v84h128zM214 512.667v212h212v-84h-128v-128h-84zM298 340.667v-128h128v-84h-212v212h84z" />
<glyph unicode="&#xe20d;" glyph-name="fullscreen_exit" d="M682 596.667h128v-84h-212v212h84v-128zM598 128.667v212h212v-84h-128v-128h-84zM342 596.667v128h84v-212h-212v84h128zM214 256.667v84h212v-212h-84v128h-128z" />
<glyph unicode="&#xe20e;" glyph-name="menu" d="M128 682.667h768v-86h-768v86zM128 384.667v84h768v-84h-768zM128 170.667v86h768v-86h-768z" />
<glyph unicode="&#xe20f;" glyph-name="keyboard_control" d="M512 512.667q34 0 60-26t26-60-26-60-60-26-60 26-26 60 26 60 60 26zM768 512.667q34 0 60-26t26-60-26-60-60-26-60 26-26 60 26 60 60 26zM256 512.667q34 0 60-26t26-60-26-60-60-26-60 26-26 60 26 60 60 26z" />
<glyph unicode="&#xe210;" glyph-name="more_vert" d="M512 256.667q34 0 60-26t26-60-26-60-60-26-60 26-26 60 26 60 60 26zM512 512.667q34 0 60-26t26-60-26-60-60-26-60 26-26 60 26 60 60 26zM512 596.667q-34 0-60 26t-26 60 26 60 60 26 60-26 26-60-26-60-60-26z" />
<glyph unicode="&#xe211;" glyph-name="refresh" d="M754 668.667l100 100v-300h-300l138 138q-76 76-180 76-106 0-181-75t-75-181 75-181 181-75q84 0 150 47t92 123h88q-28-112-120-184t-210-72q-140 0-240 100t-100 242 100 242 240 100q142 0 242-100z" />
<glyph unicode="&#xe212;" glyph-name="unfold_less" d="M708 708.667l-196-196-196 196 60 60 136-136 136 136zM316 144.667l196 196 196-196-60-60-136 136-136-136z" />
<glyph unicode="&#xe213;" glyph-name="unfold_more" d="M512 162.667l136 136 60-60-196-196-196 196 60 60zM512 690.667l-136-136-60 60 196 196 196-196-60-60z" />
<glyph unicode="&#xe216;" glyph-name="disc_full" d="M426 340.667q34 0 60 26t26 60-26 60-60 26-59-26-25-60 25-60 59-26zM426 768.667q142 0 242-101t100-241-100-241-242-101q-140 0-240 100t-100 242 100 242 240 100zM854 640.667h84v-214h-84v214zM854 256.667v84h84v-84h-84z" />
<glyph unicode="&#xe217;" glyph-name="do_not_disturb_alt" d="M512 84.667q140 0 241 101t101 241q0 114-74 210l-478-478q96-74 210-74zM170 426.667q0-114 74-210l478 478q-96 74-210 74-140 0-241-101t-101-241zM512 852.667q176 0 301-125t125-301-125-301-301-125-301 125-125 301 125 301 301 125z" />
<glyph unicode="&#xe218;" glyph-name="do_not_disturb" d="M782 216.667q72 90 72 210 0 140-101 241t-241 101q-120 0-210-72zM512 84.667q120 0 210 72l-480 480q-72-90-72-210 0-140 101-241t241-101zM512 852.667q176 0 301-125t125-301-125-301-301-125-301 125-125 301 125 301 301 125z" />
<glyph unicode="&#xe219;" glyph-name="drive_eta" d="M214 512.667h596l-64 192h-468zM746 298.667q26 0 45 18t19 46-19 46-45 18-45-18-19-46 19-46 45-18zM278 298.667q26 0 45 18t19 46-19 46-45 18-45-18-19-46 19-46 45-18zM808 724.667l88-256v-340q0-18-12-31t-30-13h-44q-18 0-30 13t-12 31v42h-512v-42q0-18-12-31t-30-13h-44q-18 0-30 13t-12 31v340l88 256q14 44 62 44h468q48 0 62-44z" />
<glyph unicode="&#xe21a;" glyph-name="event_available" d="M810 128.667v468h-596v-468h596zM810 810.667q34 0 60-26t26-60v-596q0-34-26-60t-60-26h-596q-36 0-61 26t-25 60v596q0 34 25 60t61 26h42v86h86v-86h340v86h86v-86h42zM706 466.667l-254-254-136 136 46 46 90-90 208 208z" />
<glyph unicode="&#xe21b;" glyph-name="event_busy" d="M810 128.667v468h-596v-468h596zM810 810.667q34 0 60-26t26-60v-596q0-34-26-60t-60-26h-596q-36 0-61 26t-25 60v596q0 34 25 60t61 26h42v86h86v-86h340v86h86v-86h42zM398 212.667l-46 46 104 104-104 104 46 46 104-104 104 104 44-46-104-104 104-104-44-46-104 104z" />
<glyph unicode="&#xe21c;" glyph-name="event_note" d="M598 340.667v-84h-300v84h300zM810 128.667v468h-596v-468h596zM810 810.667q34 0 60-26t26-60v-596q0-34-26-60t-60-26h-596q-36 0-61 26t-25 60v596q0 34 25 60t61 26h42v86h86v-86h340v86h86v-86h42zM726 512.667v-86h-428v86h428z" />
<glyph unicode="&#xe21d;" glyph-name="folder_special" d="M580 170.667l-42 174 136 116-178 16-70 164-68-164-178-16 134-116-40-174 152 90zM854 682.667q34 0 59-26t25-60v-426q0-34-25-60t-59-26h-684q-34 0-59 26t-25 60v512q0 34 25 60t59 26h256l86-86h342z" />
<glyph unicode="&#xe21e;" glyph-name="mms" d="M214 340.667h596l-192 256-148-192-108 128zM854 852.667q34 0 59-25t25-59v-512q0-34-25-60t-59-26h-598l-170-170v768q0 34 25 59t59 25h684z" />
<glyph unicode="&#xe21f;" glyph-name="more" d="M810 362.667q26 0 45 18t19 46-19 46-45 18-45-18-19-46 19-46 45-18zM598 362.667q26 0 45 18t19 46-19 46-45 18-45-18-19-46 19-46 45-18zM384 362.667q28 0 46 18t18 46-18 46-46 18-46-18-18-46 18-46 46-18zM938 810.667q34 0 60-26t26-60v-596q0-34-26-60t-60-26h-636q-44 0-72 38l-230 346 230 346q28 38 68 38h640z" />
<glyph unicode="&#xe231;" glyph-name="vibration" d="M682 128.667v596h-340v-596h340zM704 810.667q28 0 46-18t18-46v-640q0-28-18-46t-46-18h-384q-28 0-46 18t-18 46v640q0 28 18 46t46 18h384zM810 212.667v428h86v-428h-86zM938 554.667h86v-256h-86v256zM128 212.667v428h86v-428h-86zM0 298.667v256h86v-256h-86z" />
<glyph unicode="&#xe232;" glyph-name="voice_chat" d="M768 340.667v342l-170-136v136h-342v-342h342v138zM854 852.667q34 0 59-25t25-59v-512q0-34-25-60t-59-26h-598l-170-170v768q0 34 25 59t59 25h684z" />
<glyph unicode="&#xe233;" glyph-name="vpn_lock" d="M426 44.667v84q-34 0-59 25t-25 59v44l-206 204q-8-32-8-76 0-130 86-227t212-113zM808 426.667h86q2-14 2-42 0-178-125-303t-301-125q-178 0-303 125t-125 303q0 176 125 301t303 125q62 0 128-20v-108q0-34-26-60t-60-26h-86v-84q0-18-12-31t-30-13h-86v-84h256q18 0 31-13t13-31v-128h42q62 0 82-58 88 94 88 230 0 28-2 42zM904 768.667v20q0 30-21 52t-51 22-51-22-21-52v-20h144zM938 768.667q18 0 31-13t13-31v-170q0-18-13-30t-31-12h-212q-18 0-31 12t-13 30v170q0 18 13 31t31 13v20q0 44 31 76t75 32 75-32 31-76v-20z" />
<glyph unicode="&#xe23c;" glyph-name="confirmation_number" d="M554 576.667v84h-84v-84h84zM554 384.667v84h-84v-84h84zM554 192.667v84h-84v-84h84zM938 512.667q-34 0-59-26t-25-60 25-60 59-26v-170q0-34-25-60t-59-26h-684q-34 0-59 26t-25 60v170q36 0 60 25t24 61q0 34-25 60t-59 26v170q0 36 25 61t59 25h684q34 0 59-25t25-61v-170z" />
<glyph unicode="&#xe245;" glyph-name="group" d="M682 384.667q56 0 122-16t122-52 56-82v-106h-256v106q0 88-84 148 14 2 40 2zM342 384.667q56 0 122-16t121-52 55-82v-106h-598v106q0 46 56 82t122 52 122 16zM342 468.667q-52 0-90 38t-38 90 38 90 90 38 89-38 37-90-37-90-89-38zM682 468.667q-52 0-90 38t-38 90 38 90 90 38 90-38 38-90-38-90-90-38z" />
<glyph unicode="&#xe246;" glyph-name="group_add" d="M554 384.667q80 0 168-35t88-93v-86h-512v86q0 58 88 93t168 35zM838 376.667q74-12 130-43t56-77v-86h-128v86q0 68-58 120zM554 468.667q-52 0-90 38t-38 90 38 90 90 38 90-38 38-90-38-90-90-38zM768 468.667q-20 0-38 6 38 54 38 122t-38 122q18 6 38 6 52 0 90-38t38-90-38-90-90-38zM342 512.667v-86h-128v-128h-86v128h-128v86h128v128h86v-128h128z" />
<glyph unicode="&#xe24a;" glyph-name="notifications" d="M768 256.667l86-86v-42h-726v42l86 86v234q0 96 60 172t152 98v28q0 26 19 45t45 19 45-19 19-45v-28q92-22 153-98t61-172v-234zM490 0.667q-34 0-59 25t-25 59h170q0-34-26-59t-60-25z" />
<glyph unicode="&#xe251;" glyph-name="people" d="M682 384.667q56 0 122-16t122-52 56-82v-106h-256v106q0 88-84 148 14 2 40 2zM342 384.667q56 0 122-16t121-52 55-82v-106h-598v106q0 46 56 82t122 52 122 16zM342 468.667q-52 0-90 38t-38 90 38 90 90 38 89-38 37-90-37-90-89-38zM682 468.667q-52 0-90 38t-38 90 38 90 90 38 90-38 38-90-38-90-90-38z" />
<glyph unicode="&#xe252;" glyph-name="people_outline" d="M704 660.667q-34 0-60-25t-26-59 26-60 60-26 60 26 26 60-26 59-60 25zM704 426.667q-62 0-106 44t-44 106 44 105 106 43 106-43 44-105-44-106-106-44zM320 660.667q-34 0-60-25t-26-59 26-60 60-26 60 26 26 60-26 59-60 25zM320 426.667q-62 0-106 44t-44 106 44 105 106 43 106-43 44-105-44-106-106-44zM918 192.667v52q0 20-71 48t-143 28q-52 0-128-24 22-26 22-52v-52h320zM534 192.667v52q0 20-71 48t-143 28-143-28-71-48v-52h428zM704 384.667q86 0 182-39t96-101v-116h-940v116q0 62 96 101t182 39q94 0 192-44 98 44 192 44z" />
<glyph unicode="&#xe253;" glyph-name="person" d="M512 340.667q108 0 225-47t117-123v-86h-684v86q0 76 117 123t225 47zM512 426.667q-70 0-120 50t-50 120 50 121 120 51 120-51 50-121-50-120-120-50z" />
<glyph unicode="&#xe254;" glyph-name="person_add" d="M640 340.667q108 0 225-47t117-123v-86h-684v86q0 76 117 123t225 47zM256 512.667h128v-86h-128v-128h-86v128h-128v86h128v128h86v-128zM640 426.667q-70 0-120 50t-50 120 50 121 120 51 120-51 50-121-50-120-120-50z" />
<glyph unicode="&#xe255;" glyph-name="person_outline" d="M512 384.667q64 0 140-18t139-60 63-94v-128h-684v128q0 52 63 94t139 60 140 18zM512 768.667q70 0 120-51t50-121-50-120-120-50-120 50-50 120 50 121 120 51zM512 302.667q-88 0-174-33t-86-57v-46h520v46q0 24-86 57t-174 33zM512 686.667q-38 0-64-26t-26-64 26-63 64-25 64 25 26 63-26 64-64 26z" />
<glyph unicode="&#xe257;" glyph-name="poll" d="M726 212.667v172h-86v-172h86zM554 212.667v428h-84v-428h84zM384 212.667v300h-86v-300h86zM810 810.667q34 0 60-26t26-60v-596q0-34-26-60t-60-26h-596q-34 0-60 26t-26 60v596q0 34 26 60t60 26h596z" />
<glyph unicode="&#xe25a;" glyph-name="share" d="M768 252.667q52 0 88-37t36-87q0-52-37-89t-87-37-87 37-37 89q0 20 2 28l-302 176q-38-34-88-34-52 0-90 38t-38 90 38 90 90 38q50 0 88-34l300 174q-4 20-4 30 0 52 38 90t90 38 90-38 38-90-38-90-90-38q-48 0-88 36l-300-176q4-20 4-30t-4-30l304-176q36 32 84 32z" />
<glyph unicode="&#xe25c;" glyph-name="check_box" d="M426 212.667l384 384-60 62-324-324-152 152-60-60zM810 810.667q36 0 61-26t25-60v-596q0-34-25-60t-61-26h-596q-36 0-61 26t-25 60v596q0 34 25 60t61 26h596z" />
<glyph unicode="&#xe25d;" glyph-name="check_box_outline_blank" d="M810 810.667q34 0 60-26t26-60v-596q0-34-26-60t-60-26h-596q-34 0-60 26t-26 60v596q0 34 26 60t60 26h596zM810 724.667h-596v-596h596v596z" />
<glyph unicode="&#xe25e;" glyph-name="radio_button_unchecked" d="M512 84.667q140 0 241 101t101 241-101 241-241 101-241-101-101-241 101-241 241-101zM512 852.667q176 0 301-125t125-301-125-301-301-125-301 125-125 301 125 301 301 125z" />
<glyph unicode="&#xe25f;" glyph-name="radio_button_checked" d="M512 84.667q140 0 241 101t101 241-101 241-241 101-241-101-101-241 101-241 241-101zM512 852.667q176 0 301-125t125-301-125-301-301-125-301 125-125 301 125 301 301 125zM512 640.667q88 0 151-63t63-151-63-151-151-63-151 63-63 151 63 151 151 63z" />
<glyph unicode="&#xe260;" glyph-name="star" d="M512 202.667l-264-160 70 300-232 202 306 26 120 282 120-282 306-26-232-202 70-300z" />
<glyph unicode="&#xe272;" glyph-name="assignment" d="M726 554.667v86h-428v-86h428zM726 384.667v84h-428v-84h428zM598 212.667v86h-300v-86h300zM512 810.667q-18 0-30-12t-12-30 12-31 30-13 30 13 12 31-12 30-30 12zM810 810.667q34 0 60-26t26-60v-596q0-34-26-60t-60-26h-596q-34 0-60 26t-26 60v596q0 34 26 60t60 26h178q14 38 46 62t74 24 74-24 46-62h178z" />
<glyph unicode="&#xe278;" glyph-name="autorenew" d="M800 608.667q54-82 54-182 0-140-101-241t-241-101v-128l-170 172 170 170v-128q106 0 181 75t75 181q0 60-30 120zM512 682.667q-106 0-181-75t-75-181q0-66 30-120l-62-62q-54 82-54 182 0 140 101 241t241 101v128l170-172-170-170v128z" />
<glyph unicode="&#xe27e;" glyph-name="build" d="M968 128.667q14-8 13-27t-17-33l-98-98q-30-30-60 0l-388 388q-72-30-153-13t-141 77q-64 64-80 152t24 164l188-184 128 128-184 184q76 36 164 22t152-78q60-60 77-141t-13-153z" />
<glyph unicode="&#xe27f;" glyph-name="cached" d="M256 426.667h128l-170-170-172 170h128q0 140 101 241t241 101q100 0 182-54l-62-62q-54 30-120 30-106 0-181-75t-75-181zM810 596.667l172-170h-128q0-140-101-241t-241-101q-100 0-182 54l62 62q54-30 120-30 106 0 181 75t75 181h-128z" />
<glyph unicode="&#xe280;" glyph-name="change_history" d="M512 768.667l426-684h-852zM512 606.667l-272-436h544z" />
<glyph unicode="&#xe283;" glyph-name="class" d="M256 768.667v-342l106 64 108-64v342h-214zM768 852.667q34 0 60-25t26-59v-684q0-34-26-59t-60-25h-512q-34 0-60 25t-26 59v684q0 34 26 59t60 25h512z" />
<glyph unicode="&#xe284;" glyph-name="code" d="M622 230.667l198 196-198 196 60 60 256-256-256-256zM402 230.667l-60-60-256 256 256 256 60-60-198-196z" />
<glyph unicode="&#xe285;" glyph-name="credit_card" d="M854 596.667v86h-684v-86h684zM854 170.667v256h-684v-256h684zM854 768.667q36 0 60-25t24-61v-512q0-36-24-61t-60-25h-684q-36 0-60 25t-24 61v512q0 36 24 61t60 25h684z" />
<glyph unicode="&#xe287;" glyph-name="delete" d="M810 768.667v-86h-596v86h148l44 42h212l44-42h148zM256 128.667v512h512v-512q0-34-26-60t-60-26h-340q-34 0-60 26t-26 60z" />
<glyph unicode="&#xe28a;" glyph-name="done" d="M384 246.667l452 454 60-60-512-512-238 238 58 60z" />
<glyph unicode="&#xe28c;" glyph-name="event" d="M810 128.667v468h-596v-468h596zM682 896.667h86v-86h42q34 0 60-26t26-60v-596q0-34-26-60t-60-26h-596q-36 0-61 26t-25 60v596q0 34 25 60t61 26h42v86h86v-86h340v86zM726 426.667v-214h-214v214h214z" />
<glyph unicode="&#xe28d;" glyph-name="exit_to_app" d="M810 810.667q34 0 60-26t26-60v-596q0-34-26-60t-60-26h-596q-36 0-61 26t-25 60v170h86v-170h596v596h-596v-170h-86v170q0 34 25 60t61 26h596zM430 272.667l110 112h-412v84h412l-110 112 60 60 214-214-214-214z" />
<glyph unicode="&#xe28f;" glyph-name="extension" d="M874 468.667q44 0 76-31t32-75-32-75-76-31h-64v-172q0-34-25-59t-59-25h-162v64q0 48-34 81t-82 33-82-33-34-81v-64h-162q-34 0-59 25t-25 59v162h64q48 0 81 34t33 82-33 82-81 34h-64v162q0 34 25 59t59 25h172v64q0 44 31 76t75 32 75-32 31-76v-64h172q34 0 59-25t25-59v-172h64z" />
<glyph unicode="&#xe290;" glyph-name="face" d="M512 84.667q140 0 241 101t101 241q0 44-14 96-38-10-96-10-220 0-348 180-66-160-224-230-2-12-2-36 0-140 101-241t241-101zM512 852.667q176 0 301-125t125-301-125-301-301-125-301 125-125 301 125 301 301 125zM640 436.667q22 0 38-15t16-37-16-38-38-16-38 16-16 38 16 37 38 15zM384 436.667q22 0 38-15t16-37-16-38-38-16-38 16-16 38 16 37 38 15z" />
<glyph unicode="&#xe293;" glyph-name="feedback" d="M554 512.667v170h-84v-170h84zM554 340.667v86h-84v-86h84zM854 852.667q34 0 59-25t25-59v-512q0-34-25-60t-59-26h-598l-170-170v768q0 34 25 59t59 25h684z" />
<glyph unicode="&#xe294;" glyph-name="find_in_page" d="M384 384.667q0 52 38 90t90 38 90-38 38-90-38-90-90-38-90 38-38 90zM854 102.667l-164 164q36 56 36 118 0 88-63 150t-151 62-151-62-63-150 63-151 151-63q62 0 118 36l188-190q-22-16-50-16h-512q-34 0-60 25t-26 59l2 684q0 34 25 59t59 25h342l256-256v-494z" />
<glyph unicode="&#xe295;" glyph-name="find_replace" d="M710 292.667l206-208-62-62-208 206q-80-58-176-58-124 0-212 88l-88-88v256h256l-108-108q62-62 152-62 78 0 135 48t73 122h86q-8-72-54-134zM470 682.667q-78 0-136-48t-74-122h-86q16 108 100 182t196 74q122 0 210-88l88 88v-256h-256l108 108q-62 62-150 62z" />
<glyph unicode="&#xe296;" glyph-name="flip_to_back" d="M640 212.667v86h86v-86h-86zM640 724.667v86h86v-86h-86zM214 640.667v-512h512v-86h-512q-36 0-61 26t-25 60v512h86zM810 212.667v86h86q0-34-26-60t-60-26zM810 554.667v86h86v-86h-86zM810 384.667v84h86v-84h-86zM384 212.667q-36 0-61 26t-25 60h86v-86zM554 810.667v-86h-84v86h84zM810 810.667q34 0 60-26t26-60h-86v86zM554 298.667v-86h-84v86h84zM384 810.667v-86h-86q0 34 25 60t61 26zM384 468.667v-84h-86v84h86zM384 640.667v-86h-86v86h86z" />
<glyph unicode="&#xe29b;" glyph-name="help" d="M642 458.667q40 40 40 96 0 70-50 120t-120 50-120-50-50-120h84q0 34 26 60t60 26 60-26 26-60-26-60l-52-54q-50-54-50-120v-22h84q0 66 50 120zM554 128.667v84h-84v-84h84zM512 852.667q176 0 301-125t125-301-125-301-301-125-301 125-125 301 125 301 301 125z" />
<glyph unicode="&#xe29e;" glyph-name="home" d="M426 84.667h-212v342h-128l426 384 426-384h-128v-342h-212v256h-172v-256z" />
<glyph unicode="&#xe29f;" glyph-name="hourglass_empty" d="M512 448.667l170 170v150h-340v-150zM682 234.667l-170 170-170-170v-150h340v150zM256 852.667h512v-256l-170-170 170-170v-256h-512v256l170 170-170 170v256z" />
<glyph unicode="&#xe2a1;" glyph-name="https" d="M644 596.667v86q0 54-39 93t-93 39-93-39-39-93v-86h264zM512 212.667q34 0 60 26t26 60-26 60-60 26-60-26-26-60 26-60 60-26zM768 596.667q34 0 60-25t26-59v-428q0-34-26-59t-60-25h-512q-34 0-60 25t-26 59v428q0 34 26 59t60 25h42v86q0 88 63 151t151 63 151-63 63-151v-86h42z" />
<glyph unicode="&#xe2a2;" glyph-name="info" d="M554 554.667v86h-84v-86h84zM554 212.667v256h-84v-256h84zM512 852.667q176 0 301-125t125-301-125-301-301-125-301 125-125 301 125 301 301 125z" />
<glyph unicode="&#xe2a3;" glyph-name="info_outline" d="M470 554.667v86h84v-86h-84zM512 84.667q140 0 241 101t101 241-101 241-241 101-241-101-101-241 101-241 241-101zM512 852.667q176 0 301-125t125-301-125-301-301-125-301 125-125 301 125 301 301 125zM470 212.667v256h84v-256h-84z" />
<glyph unicode="&#xe2a4;" glyph-name="input" d="M470 256.667v128h-428v84h428v128l170-170zM896 810.667q34 0 60-25t26-61v-598q0-34-26-59t-60-25h-768q-34 0-60 25t-26 59v172h86v-172h768v600h-768v-172h-86v170q0 34 26 60t60 26h768z" />
<glyph unicode="&#xe2ab;" glyph-name="lock" d="M644 596.667v86q0 54-39 93t-93 39-93-39-39-93v-86h264zM512 212.667q34 0 60 26t26 60-26 60-60 26-60-26-26-60 26-60 60-26zM768 596.667q34 0 60-25t26-59v-428q0-34-26-59t-60-25h-512q-34 0-60 25t-26 59v428q0 34 26 59t60 25h42v86q0 88 63 151t151 63 151-63 63-151v-86h42z" />
<glyph unicode="&#xe2ac;" glyph-name="lock_open" d="M768 84.667v428h-512v-428h512zM768 596.667q34 0 60-25t26-59v-428q0-34-26-59t-60-25h-512q-34 0-60 25t-26 59v428q0 34 26 59t60 25h388v86q0 54-39 93t-93 39-93-39-39-93h-82q0 88 63 151t151 63 151-63 63-151v-86h42zM512 212.667q-34 0-60 26t-26 60 26 60 60 26 60-26 26-60-26-60-60-26z" />
<glyph unicode="&#xe2ad;" glyph-name="lock_outline" d="M512 212.667q-34 0-60 26t-26 60 26 60 60 26 60-26 26-60-26-60-60-26zM768 84.667v428h-512v-428h512zM512 814.667q-54 0-93-39t-39-93h4v-86h260v86q0 54-39 93t-93 39zM768 596.667q34 0 60-25t26-59v-428q0-34-26-59t-60-25h-512q-34 0-60 25t-26 59v428q0 34 26 59t60 25h42v86q0 88 63 151t151 63 151-63 63-151v-86h42z" />
<glyph unicode="&#xe2ae;" glyph-name="loyalty" d="M736 286.667q32 32 32 76t-31 75-75 31q-46 0-76-30l-32-32-30 32q-30 30-76 30-44 0-75-31t-31-75q0-46 30-76l182-182zM234 640.667q26 0 45 19t19 45-19 45-45 19-45-19-19-45 19-45 45-19zM914 444.667q24-24 24-60t-24-60l-300-300q-24-24-60-24t-60 24l-384 384q-24 24-24 60v300q0 34 25 59t59 25h300q36 0 60-24z" />
<glyph unicode="&#xe2af;" glyph-name="markunread_mailbox" d="M854 682.667q34 0 59-26t25-60v-512q0-34-25-59t-59-25h-684q-34 0-59 25t-25 59v512q0 34 25 60t59 26h86v256h342v-170h-256v-342h84v256h428z" />
<glyph unicode="&#xe2b0;" glyph-name="note_add" d="M554 554.667h236l-236 234v-234zM682 256.667v84h-128v128h-84v-128h-128v-84h128v-128h84v128h128zM598 852.667l256-256v-512q0-34-26-59t-60-25h-512q-34 0-60 25t-26 59l2 684q0 34 25 59t59 25h342z" />
<glyph unicode="&#xe2b5;" glyph-name="payment" d="M854 596.667v86h-684v-86h684zM854 170.667v256h-684v-256h684zM854 768.667q36 0 60-25t24-61v-512q0-36-24-61t-60-25h-684q-36 0-60 25t-24 61v512q0 36 24 61t60 25h684z" />
<glyph unicode="&#xe2b7;" glyph-name="perm_contact_calendar" d="M768 170.667v42q0 58-88 95t-168 37-168-37-88-95v-42h512zM512 682.667q-52 0-90-38t-38-90 38-90 90-38 90 38 38 90-38 90-90 38zM810 810.667q34 0 60-26t26-60v-596q0-34-26-60t-60-26h-596q-36 0-61 26t-25 60v596q0 34 25 60t61 26h42v86h86v-86h340v86h86v-86h42z" />
<glyph unicode="&#xe2ba;" glyph-name="perm_identity" d="M512 384.667q64 0 140-18t139-60 63-94v-128h-684v128q0 52 63 94t139 60 140 18zM512 768.667q70 0 120-51t50-121-50-120-120-50-120 50-50 120 50 121 120 51zM512 302.667q-88 0-174-33t-86-57v-46h520v46q0 24-86 57t-174 33zM512 686.667q-38 0-64-26t-26-64 26-63 64-25 64 25 26 63-26 64-64 26z" />
<glyph unicode="&#xe2be;" glyph-name="picture_in_picture" d="M896 126.667v600h-768v-600h768zM896 810.667q34 0 60-26t26-60v-596q0-34-26-60t-60-26h-768q-34 0-60 26t-26 60v596q0 34 26 60t60 26h768zM810 640.667v-256h-340v256h340z" />
<glyph unicode="&#xe2bf;" glyph-name="polymer" d="M810 768.667l192-342-192-342h-170l192 342-112 198-336-540h-170l-192 342 192 342h170l-192-342 112-198 336 540h170z" />
<glyph unicode="&#xe2c1;" glyph-name="print" d="M768 810.667v-170h-512v170h512zM810 426.667q18 0 31 12t13 30-13 31-31 13-30-13-12-31 12-30 30-12zM682 128.667v212h-340v-212h340zM810 596.667q52 0 90-38t38-90v-256h-170v-170h-512v170h-170v256q0 52 38 90t90 38h596z" />
<glyph unicode="&#xe2c2;" glyph-name="query_builder" d="M534 640.667v-224l192-114-32-54-224 136v256h64zM512 84.667q140 0 241 101t101 241-101 241-241 101-241-101-101-241 101-241 241-101zM512 852.667q176 0 301-125t125-301-125-301-301-125-301 125-125 301 125 301 301 125z" />
<glyph unicode="&#xe2c3;" glyph-name="question_answer" d="M726 426.667q0-18-13-30t-31-12h-426l-170-172v598q0 18 12 30t30 12h554q18 0 31-12t13-30v-384zM896 682.667q18 0 30-12t12-30v-640l-170 170h-470q-18 0-30 12t-12 30v86h554v384h86z" />
<glyph unicode="&#xe2c4;" glyph-name="receipt" d="M128 0.667v852l64-64 64 64 64-64 64 64 64-64 64 64 64-64 64 64 64-64 64 64 64-64 64 64v-852l-64 64-64-64-64 64-64-64-64 64-64-64-64 64-64-64-64 64-64-64-64 64zM768 554.667v86h-512v-86h512zM768 384.667v84h-512v-84h512zM768 212.667v86h-512v-86h512z" />
<glyph unicode="&#xe2c5;" glyph-name="redeem" d="M854 340.667v256h-218l90-120-70-50q-128 174-144 196-16-22-144-196l-70 50 90 120h-218v-256h684zM854 128.667v84h-684v-84h684zM384 768.667q-18 0-30-13t-12-31 12-30 30-12 30 12 12 30-12 31-30 13zM640 768.667q-18 0-30-13t-12-31 12-30 30-12 30 12 12 30-12 31-30 13zM854 682.667q36 0 60-25t24-61v-468q0-36-24-61t-60-25h-684q-36 0-60 25t-24 61v468q0 36 24 61t60 25h94q-8 28-8 42 0 52 38 90t90 38q66 0 106-56l22-30 22 30q40 56 106 56 52 0 90-38t38-90q0-14-8-42h94z" />
<glyph unicode="&#xe2c6;" glyph-name="report_problem" d="M554 340.667v172h-84v-172h84zM554 170.667v86h-84v-86h84zM42 42.667l470 810 470-810h-940z" />
<glyph unicode="&#xe2c7;" glyph-name="restore" d="M512 596.667h64v-180l150-90-32-52-182 110v212zM554 810.667q158 0 271-112t113-272-113-272-271-112-270 112l60 62q88-88 210-88 124 0 212 87t88 211-88 211-212 87-211-87-87-211h128l-172-172-4 6-166 166h128q0 160 113 272t271 112z" />
<glyph unicode="&#xe2c8;" glyph-name="room" d="M512 448.667q44 0 75 31t31 75-31 75-75 31-75-31-31-75 31-75 75-31zM512 852.667q124 0 211-87t87-211q0-62-31-142t-75-150-87-131-73-97l-32-34q-12 14-32 37t-72 92-91 134-71 147-32 144q0 124 87 211t211 87z" />
<glyph unicode="&#xe2ca;" glyph-name="search" d="M406 340.667q80 0 136 56t56 136-56 136-136 56-136-56-56-136 56-136 136-56zM662 340.667l212-212-64-64-212 212v34l-12 12q-76-66-180-66-116 0-197 80t-81 196 81 197 197 81 196-81 80-197q0-104-66-180l12-12h34z" />
<glyph unicode="&#xe2cb;" glyph-name="settings" d="M512 276.667q62 0 106 44t44 106-44 106-106 44-106-44-44-106 44-106 106-44zM830 384.667l90-70q14-10 4-28l-86-148q-8-14-26-8l-106 42q-42-30-72-42l-16-112q-4-18-20-18h-172q-16 0-20 18l-16 112q-38 16-72 42l-106-42q-18-6-26 8l-86 148q-10 18 4 28l90 70q-2 14-2 42t2 42l-90 70q-14 10-4 28l86 148q8 14 26 8l106-42q42 30 72 42l16 112q4 18 20 18h172q16 0 20-18l16-112q38-16 72-42l106 42q18 6 26-8l86-148q10-18-4-28l-90-70q2-14 2-42t-2-42z" />
<glyph unicode="&#xe2de;" glyph-name="shopping_basket" d="M512 212.667q34 0 60 26t26 60-26 60-60 26-60-26-26-60 26-60 60-26zM384 554.667h256l-128 188zM734 554.667h204q18 0 31-12t13-30q-20-80-60-225t-50-183q-18-62-82-62h-556q-64 0-82 62l-108 396q-2 4-2 12 0 18 13 30t31 12h204l186 280q12 18 36 18t36-18z" />
<glyph unicode="&#xe2df;" glyph-name="shopping_cart" d="M726 170.667q34 0 59-26t25-60-25-59-59-25-60 25-26 59 26 60 60 26zM42 852.667h140l40-84h632q18 0 30-13t12-31q0-10-6-20l-152-276q-24-44-74-44h-318l-38-70-2-6q0-10 10-10h494v-86h-512q-34 0-59 26t-25 60q0 20 10 40l58 106-154 324h-86v84zM298 170.667q34 0 60-26t26-60-26-59-60-25-59 25-25 59 25 60 59 26z" />
<glyph unicode="&#xe2e0;" glyph-name="speaker_notes" d="M768 596.667v86h-342v-86h342zM768 468.667v86h-342v-86h342zM640 340.667v86h-214v-86h214zM342 596.667v86h-86v-86h86zM342 468.667v86h-86v-86h86zM342 340.667v86h-86v-86h86zM854 852.667q34 0 59-25t25-59v-512q0-34-25-60t-59-26h-598l-170-170v768q0 34 25 59t59 25h684z" />
<glyph unicode="&#xe2e2;" glyph-name="stars" d="M692 170.667l-48 206 160 138-210 18-82 192-82-194-210-16 160-138-48-206 180 108zM512 852.667q176 0 301-125t125-301-125-301-301-125-301 125-125 301 125 301 301 125z" />
<glyph unicode="&#xe2e3;" glyph-name="store" d="M512 170.667v170h-256v-170h256zM896 340.667h-42v-256h-86v256h-170v-256h-428v256h-42v86l42 214h684l42-214v-86zM854 768.667v-86h-684v86h684z" />
<glyph unicode="&#xe2e4;" glyph-name="subject" d="M170 724.667h684v-84h-684v84zM170 298.667v86h684v-86h-684zM854 554.667v-86h-684v86h684zM598 212.667v-84h-428v84h428z" />
<glyph unicode="&#xe2e5;" glyph-name="supervisor_account" d="M384 384.667q44 0 102-12-102-56-102-148v-96h-298v106q0 46 55 82t121 52 122 16zM704 340.667q74 0 154-32t80-84v-96h-468v96q0 52 80 84t154 32zM384 468.667q-52 0-90 38t-38 90 38 90 90 38 90-38 38-90-38-90-90-38zM704 426.667q-44 0-75 31t-31 75 31 76 75 32 75-32 31-76-31-75-75-31z" />
<glyph unicode="&#xe2e6;" glyph-name="swap_horiz" d="M896 554.667l-170-170v128h-300v84h300v128zM298 468.667v-128h300v-84h-300v-128l-170 170z" />
<glyph unicode="&#xe2f0;" glyph-name="toc" d="M810 384.667v84h86v-84h-86zM810 640.667h86v-86h-86v86zM810 212.667v86h86v-86h-86zM128 212.667v86h598v-86h-598zM128 384.667v84h598v-84h-598zM128 554.667v86h598v-86h-598z" />
<glyph unicode="&#xe2f1;" glyph-name="today" d="M298 512.667h214v-214h-214v214zM810 128.667v468h-596v-468h596zM810 810.667q34 0 60-26t26-60v-596q0-34-26-60t-60-26h-596q-36 0-61 26t-25 60v596q0 34 25 60t61 26h42v86h86v-86h340v86h86v-86h42z" />
<glyph unicode="&#xe2f2;" glyph-name="toll" d="M128 426.667q0-84 47-150t123-92v-88q-112 28-184 120t-72 210 72 210 184 120v-88q-76-26-123-92t-47-150zM640 170.667q106 0 181 75t75 181-75 181-181 75-181-75-75-181 75-181 181-75zM640 768.667q140 0 241-101t101-241-101-241-241-101-241 101-101 241 101 241 241 101z" />
<glyph unicode="&#xe301;" glyph-name="view_list" d="M384 724.667h512v-170h-512v170zM384 128.667v170h512v-170h-512zM384 340.667v172h512v-172h-512zM170 554.667v170h172v-170h-172zM170 128.667v170h172v-170h-172zM170 340.667v172h172v-172h-172z" />
<glyph unicode="&#xe308;" glyph-name="card_giftcard" d="M854 340.667v256h-218l90-120-70-50q-128 174-144 196-16-22-144-196l-70 50 90 120h-218v-256h684zM854 128.667v84h-684v-84h684zM384 768.667q-18 0-30-13t-12-31 12-30 30-12 30 12 12 30-12 31-30 13zM640 768.667q-18 0-30-13t-12-31 12-30 30-12 30 12 12 30-12 31-30 13zM854 682.667q36 0 60-25t24-61v-468q0-36-24-61t-60-25h-684q-36 0-60 25t-24 61v468q0 36 24 61t60 25h94q-8 28-8 42 0 52 38 90t90 38q66 0 106-56l22-30 22 30q40 56 106 56 52 0 90-38t38-90q0-14-8-42h94z" />
<glyph unicode="&#xe309;" glyph-name="card_membership" d="M854 512.667v256h-684v-256h684zM854 298.667v86h-684v-86h684zM854 852.667q36 0 60-24t24-60v-470q0-36-24-61t-60-25h-172v-212l-170 84-170-84v212h-172q-36 0-60 25t-24 61v470q0 36 24 60t60 24h684z" />
<glyph unicode="&#xe30a;" glyph-name="card_travel" d="M854 340.667v256h-128v-84h-86v84h-256v-84h-86v84h-128v-256h684zM854 128.667v84h-684v-84h684zM384 768.667v-86h256v86h-256zM854 682.667q36 0 60-25t24-61v-468q0-36-24-61t-60-25h-684q-36 0-60 25t-24 61v468q0 36 24 61t60 25h128v86q0 36 25 60t61 24h256q36 0 61-24t25-60v-86h128z" />
<glyph unicode="&#xe30b;" glyph-name="work" d="M598 682.667v86h-172v-86h172zM854 682.667q36 0 60-25t24-61v-468q0-36-24-61t-60-25h-684q-36 0-60 25t-24 61v468q0 36 24 61t60 25h172v86q0 36 24 60t60 24h172q36 0 60-24t24-60v-86h172z" />
<glyph unicode="&#xe30c;" glyph-name="youtube_searched_for" d="M726 340.667l212-212-62-64-214 214v32l-12 12q-76-66-180-66-76 0-142 38l64 62q38-16 78-16 80 0 136 56t56 136-56 136-136 56-136-56-56-136h148l-176-170-164 170h106q0 114 82 196t196 82q116 0 197-81t81-197q0-102-68-180l12-12h34z" />
<glyph unicode="&#xe30f;" glyph-name="help_outline" d="M512 682.667q70 0 120-50t50-120q0-54-64-111t-64-103h-84q0 46 20 79t44 48 44 37 20 50q0 34-26 59t-60 25-60-25-26-59h-84q0 70 50 120t120 50zM512 84.667q140 0 241 101t101 241-101 241-241 101-241-101-101-241 101-241 241-101zM512 852.667q176 0 301-125t125-301-125-301-301-125-301 125-125 301 125 301 301 125zM470 170.667v86h84v-86h-84z" />
<glyph unicode="&#xe310;" glyph-name="reorder" d="M128 724.667h768v-84h-768v84zM128 468.667v86h768v-86h-768zM128 128.667v84h768v-84h-768zM128 298.667v86h768v-86h-768z" />
<glyph unicode="&#xe311;" glyph-name="zoom_in" d="M512 512.667h-86v-86h-42v86h-86v42h86v86h42v-86h86v-42zM406 340.667q80 0 136 56t56 136-56 136-136 56-136-56-56-136 56-136 136-56zM662 340.667l212-212-64-64-212 212v34l-12 12q-76-66-180-66-116 0-197 80t-81 196 81 197 197 81 196-81 80-197q0-104-66-180l12-12h34z" />
<glyph unicode="&#xe312;" glyph-name="zoom_out" d="M298 554.667h214v-42h-214v42zM406 340.667q80 0 136 56t56 136-56 136-136 56-136-56-56-136 56-136 136-56zM662 340.667l212-212-64-64-212 212v34l-12 12q-76-66-180-66-116 0-197 80t-81 196 81 197 197 81 196-81 80-197q0-104-66-180l12-12h34z" />
<glyph unicode="&#xe319;" glyph-name="indeterminate_check_box" d="M726 384.667v84h-428v-84h428zM810 810.667q34 0 60-26t26-60v-596q0-34-26-60t-60-26h-596q-34 0-60 26t-26 60v596q0 34 26 60t60 26h596z" />
<glyph unicode="&#xe600;" glyph-name="more_vert2" d="M512 597.334c46.933 0 85.333 38.4 85.333 85.333s-38.4 85.333-85.333 85.333-85.333-38.4-85.333-85.333 38.4-85.333 85.333-85.333zM512 512c-46.933 0-85.333-38.4-85.333-85.333s38.4-85.333 85.333-85.333 85.333 38.4 85.333 85.333-38.4 85.333-85.333 85.333zM512 256c-46.933 0-85.333-38.4-85.333-85.333s38.4-85.333 85.333-85.333 85.333 38.4 85.333 85.333-38.4 85.333-85.333 85.333z" />
<glyph unicode="&#xe601;" glyph-name="basket" d="M812.988 576l-177.842 231.53c3.122 7.54 4.854 15.802 4.854 24.47 0 35.346-28.652 64-64 64-35.346 0-64-28.654-64-64s28.654-64 64-64c2.842 0 5.632 0.204 8.376 0.564l147.912-192.564h-440.574l147.912 192.564c2.742-0.36 5.534-0.564 8.374-0.564 35.346 0 64 28.654 64 64s-28.654 64-64 64-64-28.654-64-64c0-8.668 1.732-16.93 4.854-24.468l-177.842-231.532h-211.012v-128h64l64-512h768l64 512h64v128h-211.012zM320 64h-128v128h128v-128zM320 320h-128v128h128v-128zM576 64h-128v128h128v-128zM576 320h-128v128h128v-128zM832 64h-128v128h128v-128zM832 320h-128v128h128v-128z" />
<glyph unicode="&#xe900;" glyph-name="add2" d="M410.952 960h193.208v-1019.363h-193.208v1019.363zM9.66 555.23h995.792v-193.208h-995.792v193.208z" />
<glyph unicode="&#xe901;" glyph-name="opera" d="M1024 448v0 0c0-151.6-66-288-170.8-381.6-131.4-64-253.8-19.2-294.2 8.8 129 28.2 226.4 184.2 226.4 372.8s-97.4 344.6-226.4 373c40.6 28 163 72.8 294.2 8.8 104.8-93.8 170.8-230.2 170.8-381.8v0 0zM343.4 736.6c-56.6-66.8-93.2-165.6-95.6-276.6 0-0.2 0-23.8 0-24.2 2.4-110.8 39.2-209.6 95.8-276.4 73.4-95.4 182.6-155.8 304.6-155.8 75 0 145.2 22.8 205.2 62.6-90.8-81-210.4-130.2-341.4-130.2-8.2 0-16.4 0.2-24.4 0.6-271.4 12.8-487.6 236.8-487.6 511.4 0 282.8 229.2 512 512 512 0.6 0 1.2 0 2 0 130.4-0.4 249.2-49.6 339.4-130.4-60 39.8-130.2 62.8-205.2 62.8-122 0-231.2-60.4-304.8-155.8z" />
<glyph unicode="&#xe902;" glyph-name="safari" d="M512 960c-282.8 0-512-229.2-512-512s229.2-512 512-512 512 229.2 512 512-229.2 512-512 512zM958.4 487.2l-1 10.6c0.2-3.6 0.6-7 1-10.6zM888.4 691.2l-7.2 10.8c2.4-3.6 4.8-7.2 7.2-10.8zM860.6 729.4l-4.4 5.4c1.6-1.8 3-3.6 4.4-5.4zM798.6 792.4l-5.4 4.4c2-1.6 3.6-3 5.4-4.4zM766 817.2l-10.8 7.2c3.6-2.4 7.2-4.8 10.8-7.2zM561.8 893.2l-10.8 1c3.6-0.2 7.2-0.6 10.8-1zM472.8 894.4l-10.8-1c3.6 0.2 7.2 0.6 10.8 1zM268.8 824.4l-10.8-7.2c3.6 2.4 7.2 4.8 10.8 7.2zM230.6 796.6l-5.2-4.2c1.8 1.4 3.4 2.8 5.2 4.2zM167.6 734.6l-4.4-5.4c1.6 1.8 3 3.6 4.4 5.4zM142.8 702l-7.2-10.8c2.4 3.6 4.8 7.2 7.2 10.8zM66.8 497.8l-1-10.8c0.2 3.6 0.6 7.2 1 10.8zM65.6 408.8l1-10.8c-0.2 3.6-0.6 7.2-1 10.8zM135.6 205l7.2-10.8c-2.4 3.4-4.8 7-7.2 10.8zM144 192.4l79.8 53.4-8.8 13.4-79.8-53.4c-36.2 56.2-60 120.8-68 190.4l47.8 4.8-1.6 16-47.8-4.8c-0.8 9.2-1.2 18.6-1.4 28h96v16h-96c0.2 9.4 0.6 18.6 1.4 28l47.8-4.6 1.6 16-47.8 4.6c8 69.6 32 134.2 68.2 190.4l79.8-53.4 8.8 13.4-80 53c5.4 7.6 10.8 15.2 16.6 22.4l37-30.4 10.2 12.4-37 30.4c6 7.2 12.4 14 18.8 20.8l67.8-67.8 11.4 11.4-67.8 67.8c6.8 6.4 13.6 12.8 20.6 18.8l30.4-37.2 12.4 10.2-30.4 37c7.4 5.8 14.8 11.4 22.4 16.8l53.4-79.8 13.4 8.8-53.4 79.8c56.2 36.2 120.8 60 190.4 68l4.8-47.8 16 1.6-4.8 47.8c9.2 0.8 18.6 1.2 28 1.4v-96h16v96c9.4-0.2 18.6-0.6 28-1.4l-4.6-47.8 16-1.6 4.6 47.8c69.6-8 134.2-32 190.4-68.2l-53.4-79.8 13.4-8.8 53.4 79.8c7.6-5.4 15.2-10.8 22.4-16.6l-30.4-37 12.4-10.2 30.4 37c7.2-6 14-12.4 20.8-18.8l-25.6-25-350-233.4-233.4-350-25-25c-6.4 6.8-12.8 13.6-18.8 20.6l37 30.4-10.2 12.4-37-30.4c-5.8 7.2-11.2 14.8-16.6 22.4zM167.6 161.4c-1.4 1.8-2.8 3.4-4.2 5.2l4.2-5.2zM225.4 103.6l5.2-4.2c-1.8 1.4-3.4 2.8-5.2 4.2zM258 79l10.8-7.2c-3.6 2.2-7.2 4.6-10.8 7.2zM462.2 2.8l10.8-1c-3.6 0.2-7.2 0.6-10.8 1zM551.2 1.6l10.6 1c-3.6-0.2-7-0.6-10.6-1zM755.2 71.6l10.8 7.2c-3.6-2.4-7.2-4.8-10.8-7.2zM793.4 99.4l5.4 4.4c-1.8-1.6-3.6-3-5.4-4.4zM828.4 130.8l0.8 0.8c-0.2-0.2-0.6-0.6-0.8-0.8zM856.4 161.4l4.4 5.4c-1.6-1.8-3-3.6-4.4-5.4zM863.4 170l-37 30.4-10.2-12.4 37-30.4c-6-7.2-12.4-14-18.8-20.8l-67.8 67.8-11.4-11.4 67.8-67.8c-6.8-6.4-13.6-12.8-20.6-18.8l-30.4 37.2-12.4-10.2 30.4-37c-7.4-5.8-14.8-11.4-22.4-16.8l-53.4 79.8-13.4-8.8 53.4-79.8c-56.2-36.2-120.8-60-190.4-68l-4.8 47.8-16-1.6 4.8-47.8c-9.2-0.8-18.6-1.2-28-1.4v96h-16v-96c-9.4 0.2-18.6 0.6-28 1.4l4.6 47.8-16 1.6-4.6-47.8c-69.6 8-134.2 32-190.4 68.2l53.4 79.8-13.4 8.8-53-79.8c-7.6 5.4-15.2 10.8-22.4 16.6l30.4 37-12.4 10.2-30.4-37c-7.2 6-14 12.4-20.8 18.8l25.2 25 350 233.4 233.4 350 25 25c6.4-6.8 12.8-13.6 18.8-20.6l-37-30.4 10.2-12.4 37 30.4c5.8-7.4 11.4-14.8 16.8-22.4l-79.8-53.4 8.8-13.4 79.8 53.4c36.2-56.2 60-120.8 68-190.4l-47.8-4.8 1.6-16 47.8 4.8c0.8-9.2 1.2-18.6 1.4-28h-96v-16h96c-0.2-9.4-0.6-18.6-1.4-28l-47.8 4.6-1.6-16 47.8-4.6c-8-69.6-32-134.2-68.2-190.4l-79.8 53.4-8.8-13.4 79.8-53.4c-5.2-7.2-10.8-14.6-16.6-22zM958.4 409c-0.4-3.6-0.6-7.2-1-10.8l1 10.8zM888.4 204.8c-2.4-3.6-4.8-7.2-7.2-10.8l7.2 10.8zM432.535 888.925l18.73-94.157-15.693-3.122-18.73 94.157 15.693 3.122zM591.656 7.050l-18.73 94.157 15.693 3.122 18.73-94.157-15.693-3.122zM389.628 879.11l13.939-45.931-15.31-4.646-13.939 45.931 15.31 4.646zM634.434 17.113l-13.939 45.931 15.31 4.646 13.939-45.931-15.31-4.646zM348.014 864.901l36.739-88.694-14.782-6.123-36.739 88.694 14.782 6.123zM676.123 31.035l-36.739 88.694 14.782 6.123 36.739-88.694-14.782-6.123zM293.62 839.341l14.11 7.544 22.632-42.331-14.11-7.544-22.632 42.331zM730.101 56.711l-14.11-7.544-22.632 42.331 14.11 7.544 22.632-42.331zM120.601 666.174l42.336-22.622-7.541-14.112-42.336 22.622 7.541 14.112zM903.244 229.805l-42.336 22.622 7.541 14.112 42.336-22.622-7.541-14.112zM183.811 575.377l-88.694 36.739 6.123 14.782 88.694-36.739-6.123-14.782zM840.32 320.699l88.694-36.739-6.123-14.782-88.694 36.739 6.123 14.782zM85.543 585.613l45.936-13.93-4.643-15.312-45.936 13.93 4.643 15.312zM938.308 310.333l-45.936 13.93 4.643 15.312 45.936-13.93-4.643-15.312zM74.069 543.218l94.157-18.73-3.122-15.693-94.157 18.73 3.122 15.693zM949.741 352.757l-94.157 18.73 3.122 15.693 94.157-18.73-3.122-15.693zM70.965 368.452l94.157 18.73 3.122-15.693-94.157-18.73-3.122 15.693zM952.842 527.573l-94.157-18.73-3.122 15.693 94.157 18.73 3.122-15.693zM80.974 325.486l45.931 13.939 4.646-15.31-45.931-13.939-4.646 15.31zM942.969 570.293l-45.931-13.939-4.646 15.31 45.931 13.939 4.646-15.31zM101.142 269.088l-6.123 14.782 88.694 36.739 6.123-14.782-88.694-36.739zM922.794 626.769l6.122-14.782-88.694-36.73-6.122 14.782 88.694 36.73zM120.824 229.733l-7.544 14.11 42.331 22.632 7.544-14.11-42.331-22.632zM903.455 666.215l7.544-14.11-42.331-22.632-7.544 14.11 42.331 22.632zM307.878 49.154l-14.11 7.542 22.627 42.331 14.11-7.542-22.627-42.331zM716.073 846.926l14.112-7.541-22.622-42.336-14.112 7.541 22.622 42.336zM333.267 37.201l36.739 88.694 14.782-6.123-36.739-88.694-14.782 6.123zM690.884 858.89l-36.739-88.694-14.782 6.123 36.739 88.694 14.782-6.123zM389.634 16.972l-15.31 4.645 13.934 45.931 15.31-4.645-13.934-45.931zM634.349 879.118l15.312-4.642-13.925-45.936-15.312 4.642 13.925 45.936zM432.472 7.161l-15.693 3.122 18.73 94.157 15.693-3.122-18.73-94.157zM591.536 889.031l15.693-3.122-18.73-94.157-15.693 3.122 18.73 94.157z" />
<glyph unicode="&#xe903;" glyph-name="edge" d="M15.4 505.4c30 236.8 191.6 451.6 481.2 454.6 174.8-3.4 318.6-82.6 404.2-233.6 43-78.8 56.4-161.6 59.2-253v-107.4h-642.6c3-265 390-256 556.6-139.2v-215.8c-97.6-58.6-319-111-490.4-43.6-146 54.8-250 207.6-249.4 354.6-4.8 190.6 94.8 316.8 249.4 388.6-32.8-40.6-57.8-85.4-70.8-163h362.8c0 0 21.2 216.8-205.4 216.8-213.6-7.4-367.6-131.6-454.8-259v0z" />
<glyph unicode="&#xe904;" glyph-name="IE" d="M734.202 331.17h236.050c1.82 16.37 2.548 33.098 2.548 50.196 0 80.224-21.534 155.468-59.124 220.266 38.88 103.308 37.492 190.988-14.556 243.39-49.496 49.28-182.29 41.28-332.412-25.198-11.104 0.84-22.318 1.272-33.638 1.272-206.048 0-378.926-141.794-426.708-332.85 64.638 82.754 132.638 142.754 223.478 186.448-8.26-7.74-56.454-55.652-64.56-63.764-239.548-239.478-315.090-552.306-233.806-633.604 61.786-61.774 173.758-51.342 302.376 11.648 59.806-30.458 127.5-47.63 199.218-47.63 193.134 0 356.804 124.316 416.090 297.448h-237.868c-32.734-60.382-96.748-101.48-170.218-101.48-73.468 0-137.484 41.098-170.216 101.48-14.55 27.274-22.914 58.554-22.914 91.656v0.722h386.26zM348.302 447.196c5.456 97.11 86.2 174.584 184.766 174.584s179.312-77.472 184.766-174.584h-369.532zM896.966 796.192c33.526-33.88 32.688-96.214 4.012-174.022-49.136 74.908-120.518 133.936-204.792 167.64 90.106 38.638 163.406 43.756 200.78 6.382zM93.482-7.256c-42.782 42.796-29.884 132.618 25.23 240.832 34.308-96.27 101.156-177.090 187.336-229.154-95.43-43.318-173.536-50.674-212.566-11.678z" />
<glyph unicode="&#xe905;" glyph-name="firefox" d="M1022.526 625.86l-11.86-76.080c0 0-16.954 140.856-37.732 193.514-31.846 80.688-46.014 80.040-46.108 79.922 21.33-54.204 17.462-83.324 17.462-83.324s-37.792 102.998-137.712 135.768c-110.686 36.282-170.57 26.364-177.488 24.486-1.050 0.008-2.064 0.010-3.030 0.010 0.818-0.062 1.612-0.146 2.426-0.212-0.034-0.020-0.090-0.042-0.082-0.052 0.45-0.548 122.306-21.302 143.916-50.996 0 0-51.76 0-103.272-14.842-2.328-0.666 189.524-23.964 228.746-215.674 0 0-21.030 43.876-47.040 51.328 17.106-52.036 12.714-150.776-3.576-199.85-2.096-6.312-4.24 27.282-36.328 41.75 10.28-73.646-0.616-190.456-51.708-222.632-3.982-2.504 32.030 115.31 7.242 69.762-142.708-218.802-311.404-100.972-387.248-49.11 38.866-8.462 112.654 1.318 145.314 25.612 0.042 0.030 0.078 0.056 0.118 0.086 35.468 24.252 56.472 41.964 75.334 37.772 18.874-4.214 31.438 14.726 16.78 31.53-14.676 16.838-50.314 39.978-98.524 27.366-34-8.904-76.134-46.522-140.448-8.432-49.364 29.25-54.012 53.546-54.45 70.376 1.218 5.966 2.754 11.536 4.576 16.624 5.682 15.87 22.912 20.658 32.494 24.438 16.256-2.792 30.262-7.862 44.968-15.406 0.19 4.894 0.252 11.39-0.018 18.76 1.41 2.802 0.538 11.252-1.722 21.58-1.302 10.308-3.42 20.974-6.752 30.692 0.012 0.002 0.020 0.010 0.030 0.014 0.056 0.018 0.108 0.040 0.156 0.070 0.078 0.044 0.146 0.112 0.208 0.19 0.012 0.020 0.030 0.034 0.044 0.052 0.082 0.124 0.154 0.272 0.198 0.466 1.020 4.618 12.022 13.524 25.718 23.1 12.272 8.58 26.702 17.696 38.068 24.752 10.060 6.248 17.72 10.882 19.346 12.098 0.618 0.466 1.358 1.012 2.164 1.636 0.15 0.116 0.3 0.232 0.454 0.354 0.094 0.074 0.19 0.148 0.286 0.226 5.41 4.308 13.484 12.448 15.178 29.578 0.004 0.042 0.010 0.080 0.012 0.122 0.050 0.504 0.092 1.014 0.13 1.534 0.028 0.362 0.050 0.726 0.072 1.096 0.014 0.284 0.032 0.566 0.044 0.856 0.030 0.674 0.050 1.364 0.060 2.064 0 0.040 0.002 0.076 0.004 0.116 0.022 1.658-0.006 3.386-0.104 5.202-0.054 1.014-0.126 1.93-0.298 2.762-0.008 0.044-0.018 0.092-0.028 0.136-0.018 0.082-0.036 0.164-0.058 0.244-0.036 0.146-0.076 0.292-0.122 0.43-0.006 0.018-0.010 0.032-0.016 0.046-0.052 0.16-0.112 0.314-0.174 0.464-0.004 0.006-0.004 0.010-0.006 0.016-1.754 4.108-8.32 5.658-35.442 6.118-0.026 0.002-0.050 0.002-0.076 0.002v0c-11.066 0.188-25.538 0.194-44.502 0.118-33.25-0.134-51.628 32.504-57.494 45.132 8.040 44.46 31.276 76.142 69.45 97.626 0.722 0.406 0.58 0.742-0.274 0.978 7.464 4.514-90.246 0.124-135.186-57.036-39.888 9.914-74.654 9.246-104.616 2.214-5.754 0.162-12.924 0.88-21.434 2.652-19.924 18.056-48.448 51.402-49.976 91.208 0 0-0.092-0.072-0.252-0.204-0.020 0.382-0.056 0.76-0.072 1.142 0 0-60.716-46.664-51.628-173.882-0.022-2.036-0.064-3.986-0.12-5.874-16.432-22.288-24.586-41.020-25.192-45.156-14.56-29.644-29.334-74.254-41.356-141.98 0 0 8.408 26.666 25.284 56.866-12.412-38.022-22.164-97.156-16.436-185.856 0 0 1.514 19.666 6.874 47.994 4.186-55.010 22.518-122.924 68.858-202.788 88.948-153.32 225.67-230.74 376.792-242.616 26.836-2.212 54.050-2.264 81.424-0.186 2.516 0.178 5.032 0.364 7.55 0.574 30.964 2.174 62.134 6.852 93.238 14.366 425.172 102.798 378.942 616.198 378.942 616.198z" />
<glyph unicode="&#xe906;" glyph-name="chrome" d="M258.278 513.458l-146.532 253.802c93.818 117.464 238.234 192.74 400.254 192.74 187.432 0 351.31-100.736 440.532-251h-417.77c-7.504 0.65-15.092 1-22.762 1-121.874 0-224.578-83.644-253.722-196.542zM695.306 635h293.46c22.74-57.93 35.234-121.004 35.234-187 0-280.826-226.1-508.804-506.186-511.926l209.394 362.678c29.48 42.378 46.792 93.826 46.792 149.248 0 73.17-30.164 139.42-78.694 187zM326 448c0 102.56 83.44 186 186 186s186-83.44 186-186c0-102.56-83.44-186-186-186s-186 83.44-186 186zM582.182 195.558l-146.578-253.878c-246.532 36.884-435.604 249.516-435.604 506.32 0 91.218 23.884 176.846 65.696 251.024l209.030-362.054c41.868-89.112 132.476-150.97 237.274-150.97 24.3 0 47.836 3.34 70.182 9.558z" />
<glyph unicode="&#xe907;" glyph-name="bin" d="M87.149 888.756h852.099v-108.936h-852.099v108.936zM813.644-64.327h-601.11l-50.982 894.693 108.827 6.209 45.1-791.966h395.547l47.169 792.184 108.718-6.536-53.27-894.584zM356.512 833.21l108.916 2.091 16.208-844.1-108.916-2.091-16.208 844.1zM546.395-8.671l16.208 844.1 108.916-2.091-16.208-844.1-108.916 2.091zM454.264 960h117.76v-108.936h-117.76v108.936z" />
<glyph unicode="&#xe908;" glyph-name="calendar" d="M1022.238-61.688h-1016.733v884.494h1016.733zM115.613 48.42h796.518v664.279h-796.518zM230.125 279.646h339.572v-110.108h-339.572v110.108zM228.803 960h110.108v-229.464h-110.108v229.464zM689.824 960h110.108v-229.464h-110.108v229.464zM230.125 499.861h567.494v-110.108h-567.494v110.108zM60.559 716.332h883.503v-110.108h-883.503v110.108z" />
<glyph unicode="&#xe909;" glyph-name="close2" d="M136.223-70.206l-112.95 106.434 384.931 408.669-384.621 408.824 113.105 106.279 484.538-515.103-485.004-515.103zM892.742-70.051l-484.538 514.948 485.004 515.103 112.95-106.434-384.931-408.669 384.465-408.669-112.95-106.279z" />
<glyph unicode="&#xe90a;" glyph-name="fulfillment" horiz-adv-x="942" d="M941.458-64h-941.458v694.49c-0.053 2.035-0.083 4.43-0.083 6.833 0 73.45 28.157 140.323 74.267 190.415 79.953 87.598 213.509 132.262 396.546 132.262s317.468-44.665 397.164-132.57c45.671-49.831 73.657-116.521 73.657-189.748 0-2.529-0.033-5.050-0.1-7.563zM109.472 45.472h722.514v591.914c0.001 0.221 0.002 0.482 0.002 0.743 0 45.62-18.073 87.018-47.45 117.426-57.098 62.131-165.694 94.973-313.809 94.973s-256.383-32.842-314.294-95.022c-29.071-30.276-46.973-71.469-46.973-116.843 0-0.642 0.004-1.282 0.011-1.922l-0.001-2.53v-588.74zM360.71 265.51h210.405v-109.472h-210.405v109.472zM722.514 374.106h-507.293v325.35h507.293zM324.256 483.578h288.787v106.407h-288.349z" />
<glyph unicode="&#xe90b;" glyph-name="create-order" d="M404.876 283.322l-145.494 143.498 77.959 78.957 66.315-65.539 281.118 285.886 79.068-77.737-358.966-365.065zM1024-64h-1024v1024h1024zM110.895 46.895h802.211v802.211h-802.211zM55.447 156.68h284.999v-165.233h-284.999v165.233zM683.554 156.68h284.999v-165.233h-284.999v165.233z" />
<glyph unicode="&#xe90c;" glyph-name="crop" d="M1020.473 102.912h-870.969v838.884h113.778v-725.106h757.191v-113.778zM846.052-64.341h-113.778v755.598h-726.585v113.778h840.363v-869.376zM165.926 193.417l755.113 766.533 81.055-79.847-755.113-766.533-81.055 79.847z" />
<glyph unicode="&#xe90d;" glyph-name="dashboard" d="M928.352 172.308h-832.703v787.692h832.703zM208.176 284.835h607.648v562.637h-607.648zM382.143 381.384l-98.799 54.013 133.458 244.072 127.044-49.287 108.251 117.029 82.595-76.406-160.127-173.067-106.451 41.185-85.971-157.538zM295.272-60.399l-71.455 86.871 288.295 236.983 288.295-236.983-71.455-86.871-216.84 178.131-216.84-178.131z" />
<glyph unicode="&#xe90e;" glyph-name="down-arrow" d="M512.459 105.342l-512.459 585.973 115.085 100.566 397.373-454.381 397.526 453.922 115.085-100.566-512.611-585.514z" />
<glyph unicode="&#xe90f;" glyph-name="exports" d="M328.532 347.985l581.82 593.513 86.029-84.334-581.82-593.513-86.029 84.334zM1013.158 593.649l-120.471 0.241 0.361 244.917-245.278-1.687-0.843 120.471 366.712 2.409-0.482-366.351zM962.44-62.313h-950.392v959.669h120.471v-839.198h829.922v-120.471z" />
<glyph unicode="&#xe910;" glyph-name="home2" horiz-adv-x="1216" d="M607.816 960l-607.816-570.811 264.080-0.12v-444.658h120.145v312.378l447.182-0.12v-320.668h120.145v452.708l264.080-0.12-607.816 571.412z" />
<glyph unicode="&#xe911;" glyph-name="location" d="M510.016-64c0 0-318.016 449.984-318.016 641.984 0 378.016 318.016 382.016 318.016 382.016s321.984-4 321.984-380c0-197.984-321.984-644-321.984-644zM512 768c-70.688 0-128-57.312-128-128s57.312-128 128-128 128 57.312 128 128-57.312 128-128 128z" />
<glyph unicode="&#xe913;" glyph-name="left-arrow" d="M753.633-64.917l-585.514 512.459 585.82 512.459 100.719-115.085-454.381-397.373 453.922-397.526-100.566-114.933z" />
<glyph unicode="&#xe914;" glyph-name="minus" d="M0 546.462h1014.942v-196.923h-1014.942v196.923z" />
<glyph unicode="&#xe915;" glyph-name="order" d="M656.553 718.117l-145.845 115.225-145.945-114.927-61.539 78.043 207.484 163.542 207.484-163.84-61.639-78.043zM460.999 896.671h99.417v-397.67h-99.417v397.67zM510.708-66.386l-207.484 163.84 61.639 78.043 145.845-115.225 145.845 115.026 61.539-78.142-207.385-163.542zM460.999 394.613h99.417v-397.67h-99.417v397.67z" />
<glyph unicode="&#xe916;" glyph-name="orders" horiz-adv-x="1023" d="M454.934 732.192h344.216v-113.79h-344.216v113.79zM454.934 504.611h147.017v-113.79h-147.017v113.79zM601.951-64h-601.951v682.174h113.79v-568.383h488.161v-113.79zM1023.317 163.467h-796.533v796.533h796.533zM340.575 277.257h568.952v568.952h-568.952z" />
<glyph unicode="&#xe917;" glyph-name="right-arrow" d="M268.685-64.917l-100.566 114.933 454.381 397.526-454.075 397.526 100.719 114.933 585.514-512.459-585.973-512.459z" />
<glyph unicode="&#xe918;" d="M385.525 243.418c-197.879 0-358.291 160.412-358.291 358.291s160.412 358.291 358.291 358.291c197.879 0 358.291-160.412 358.291-358.291-0.248-197.779-160.512-358.043-358.268-358.291zM385.525 851.064c-137.715 0-249.355-111.64-249.355-249.355s111.64-249.355 249.355-249.355c137.715 0 249.355 111.64 249.355 249.355-0.186 137.64-111.715 249.169-249.337 249.355z" />
<glyph unicode="&#xe919;" d="M549.882 321.056l77.912 76.137 371.092-379.742-77.912-76.137-371.092 379.742z" />
<glyph unicode="&#xe91a;" glyph-name="settings2" d="M513.832 262.71c-103.285 0-187.015 83.729-187.015 187.015s83.729 187.015 187.015 187.015c103.285 0 187.015-83.729 187.015-187.015-0.123-103.236-83.779-186.892-187.003-187.015zM513.832 528.842c-43.755 0-79.225-35.47-79.225-79.225s35.47-79.225 79.225-79.225c43.755 0 79.225 35.47 79.225 79.225s-35.47 79.225-79.225 79.225zM423.397 836.904l27.163-46.134c3.365-5.667 9.429-9.422 16.375-9.485h105.643c6.914 0.103 12.93 3.848 16.228 9.397l26.026 43.959c36.522-9.699 68.495-23.118 98.046-40.251l-19.791-66.784c-0.39-1.436-0.614-3.085-0.614-4.786 0-5.246 2.13-9.995 5.572-13.43l74.483-74.698c3.437-3.456 8.195-5.595 13.452-5.595 1.732 0 3.41 0.232 5.005 0.667l67.99 17.647c16.071-27.718 29.423-59.772 38.398-93.607l-60.818-37.896c-5.771-3.327-9.593-9.462-9.593-16.491 0 0 0 0 0-0.001v-105.849c0.365-6.733 4.189-12.497 9.713-15.58l61.321-35.081c-9.466-37.289-22.913-70.015-40.25-100.222l-64.306 18.087c-1.385 0.362-2.976 0.57-4.615 0.57-5.225 0-9.956-2.112-13.387-5.529l-74.59-75.129c-3.456-3.437-5.595-8.195-5.595-13.452 0-1.732 0.232-3.41 0.667-5.005l15.491-62.493c-29.503-16.145-63.683-29.212-99.709-37.426l-35.028 54.241c-3.304 5.737-9.317 9.589-16.246 9.808l-105.556 0.54c-6.995-0.202-13.046-4.057-16.334-9.716l-29.908-51.832c-39.192 11.407-73.407 27.212-104.611 47.292l17.086 56.294c0.426 1.496 0.672 3.214 0.672 4.989 0 5.208-2.11 9.922-5.522 13.336l-74.482 74.698c-3.428 3.405-8.152 5.51-13.367 5.51-1.763 0-3.47-0.241-5.090-0.691l-52.683-14.304c-17.698 30.302-31.964 65.381-40.951 102.52l50.652 30.924c6.194 3.227 10.569 9.207 11.521 16.273l0.012 105.745c-0.93 7.22-5.314 13.245-11.415 16.435l-47.654 26.788c10.324 40.3 25.478 75.691 45.173 108.011l50.005-15.204c1.43-0.391 3.072-0.616 4.766-0.616 5.219 0 9.94 2.132 13.341 5.572l74.592 74.808c3.391 3.426 5.487 8.141 5.487 13.344 0 1.732-0.232 3.411-0.667 5.005l-13.119 49.774c31.962 19.386 68.991 34.845 108.331 44.396zM475.998 960l-77.285-18.216c-53.501-12.881-100.63-32.565-143.561-58.497l-67.599-40.131 20.696-78.579v-0.647l-2.479-2.479h-1.509l-77.608 20.48-41.715-68.123c-23.905-38.932-43.3-83.967-55.814-131.785l-22.334-84.009 75.56-42.469-5.928-3.234-71.033-39.451 18.755-79.656c12.148-50.717 30.304-95.391 54.103-136.382l39.998-69.927 83.537 22.42 1.832-1.832-2.048-7.545-20.803-76.746 67.476-42.469c37.701-24.291 81.222-44.361 127.512-57.957l83.755-23.532 41.715 72.219 4.635 7.869h3.234l6.899-11.749 40.313-68.446 77.285 18.216c48.951 11.413 92.094 28.243 131.969 50.264l69.813 38.662-19.402 79.872-3.449 13.905 3.773 3.773 16.492-4.096 78.040-19.51 40.637 69.955c20.895 35.952 38.104 77.534 49.47 121.468l22.318 83.439-88.28 50.553v2.803l16.707 9.485 71.68 41.068-21.019 79.872c-12.288 46.507-29.324 87.23-51.092 124.873l-39.774 69.255-79.872-21.558-18.971-4.958-2.371 2.371 4.851 18.432 21.558 80.195-72.542 41.607c-35.312 20.528-76.144 37.602-119.249 49.107l-81.67 21.819-41.283-70.494h-3.88l-1.401 2.479-40.637 68.015z" />
<glyph unicode="&#xe91c;" glyph-name="tick" d="M284.48 11.36l-284.48 280.96 112.48 113.76 170.4-168.16 631.36 642.080 114.080-112.16-743.84-756.48z" />
<glyph unicode="&#xe91d;" glyph-name="users" horiz-adv-x="1023" d="M1015.79-63.438h-625.084l-4.499 51.284c-1.237 14.396-29.466 355.616 118.426 517.342 47.273 52.602 115.532 85.536 191.483 85.536 1.993 0 3.981-0.023 5.964-0.068 1.211 0.037 2.986 0.055 4.765 0.055 76.534 0 145.305-33.238 192.665-86.067 148.22-161.632 121.678-502.628 120.553-517.023zM495.749 49.028h414.436c1.35 107.292-13.496 292.411-93.796 379.797-27.143 29.878-66.149 48.56-109.519 48.56-1.788 0-3.568-0.032-5.341-0.095-1.13 0.054-2.761 0.081-4.397 0.081-43.505 0-82.592-18.914-109.487-48.968-80.087-86.964-93.92-272.758-91.896-379.375zM703.135 527.907c-119.319 0-216.047 96.727-216.047 216.047s96.727 216.047 216.047 216.047c119.319 0 216.047-96.727 216.047-216.047-0.128-119.268-96.779-215.919-216.035-216.047zM703.135 847.534c-57.206 0-103.581-46.375-103.581-103.581s46.375-103.581 103.581-103.581c57.206 0 103.581 46.375 103.581 103.581-0.064 57.18-46.4 103.517-103.575 103.581zM475.28 164.193h-468.644l-4.499 51.284c-1.368 18.001-2.148 38.987-2.148 60.155 0 27.447 1.311 54.588 3.874 81.364 9.633 102.419 38.424 182.045 85.547 233.442 36.522 40.217 89.016 65.367 147.384 65.367 1.088 0 2.174-0.009 3.258-0.026 0.721 0.016 1.764 0.024 2.809 0.024 58.475 0 111.078-25.142 147.589-65.206 47.378-51.443 76.619-131.069 86.966-236.337 2.545-24.59 3.997-53.132 3.997-82.014 0-19.697-0.675-39.236-2.004-58.596zM112.466 276.659h256.534c-0.675 73.665-12.484 184.781-61.294 237.752-15.892 17.801-38.906 28.954-64.525 28.954-1.039 0-2.074-0.018-3.104-0.055-0.848 0.046-2.019 0.069-3.195 0.069-25.479 0-48.361-11.119-64.059-28.77-49.111-53.058-60.357-164.287-60.357-237.952zM240.789 578.741c-93.17 0-168.699 75.529-168.699 168.699s75.529 168.699 168.699 168.699c93.17 0 168.699-75.529 168.699-168.699s-75.529-168.699-168.699-168.699zM240.789 802.548c-31.057 0-56.233-25.176-56.233-56.233s25.176-56.233 56.233-56.233c31.057 0 56.233 25.176 56.233 56.233s-25.176 56.233-56.233 56.233z" />
<glyph unicode="&#xe91e;" glyph-name="vouchers" d="M1027.482 60.621h-1027.482v771.379h1027.482zM102.4 163.021h822.682v566.579h-822.682zM513.536 385.946l-293.786 120.627 38.912 94.72 254.874-104.653 254.874 104.653 38.912-94.72-293.786-120.627z" />
<glyph unicode="&#xf023;" glyph-name="lock2" horiz-adv-x="658" d="M182.857 512h292.571v109.714q0 60.571-42.857 103.429t-103.429 42.857-103.429-42.857-42.857-103.429v-109.714zM658.286 457.143v-329.143q0-22.857-16-38.857t-38.857-16h-548.571q-22.857 0-38.857 16t-16 38.857v329.143q0 22.857 16 38.857t38.857 16h18.286v109.714q0 105.143 75.429 180.571t180.571 75.429 180.571-75.429 75.429-180.571v-109.714h18.286q22.857 0 38.857-16t16-38.857z" />
<glyph unicode="&#xf031;" glyph-name="font, .fa-font" horiz-adv-x="951" d="M414.286 631.428l-97.143-257.143q18.857 0 78-1.143t91.714-1.143q10.857 0 32.571 1.143-49.714 144.571-105.143 258.286zM0 0l1.143 45.143q13.143 4 32 7.143t32.571 6 28.286 8.286 25.429 16.571 17.714 28.857l135.429 352 160 413.714h73.143q4.571-8 6.286-12l117.143-274.286q18.857-44.571 60.571-147.143t65.143-156.857q8.571-19.429 33.143-82.571t41.143-96.286q11.429-25.714 20-32.571 10.857-8.571 50.286-16.857t48-11.714q3.429-21.714 3.429-32.571 0-2.286-0.286-7.429t-0.286-7.429q-36 0-108.571 4.571t-109.143 4.571q-43.429 0-122.857-4t-101.714-4.571q0 24.571 2.286 44.571l74.857 16q0.571 0 7.143 1.429t8.857 2 8.286 2.571 8.571 3.714 6.286 4.571 5.143 6.286 1.429 8q0 9.143-17.714 55.143t-41.143 101.429-24 57.143l-257.143 1.143q-14.857-33.143-43.714-111.714t-28.857-92.857q0-12.571 8-21.429t24.857-14 27.714-7.714 32.571-4.857 23.429-2.286q0.571-10.857 0.571-33.143 0-5.143-1.143-15.429-33.143 0-99.714 5.714t-99.714 5.714q-4.571 0-15.143-2.286t-12.286-2.286q-45.714-8-107.429-8z" />
<glyph unicode="&#xf032;" glyph-name="bold" horiz-adv-x="805" d="M317.143 81.714q42.286-18.286 80-18.286 214.857 0 214.857 191.429 0 65.143-23.429 102.857-15.429 25.143-35.143 42.286t-38.571 26.571-46 14.286-48 6-54 1.143q-41.714 0-57.714-5.714 0-30.286-0.286-90.857t-0.286-90.286q0-4.571-0.571-38.571t-0.286-55.143 2.571-47.714 6.857-38zM309.143 508q24-4 62.286-4 46.857 0 81.714 7.429t62.857 25.429 42.571 51.143 14.571 81.143q0 40-16.571 70t-45.143 46.857-61.714 24.857-70.857 8q-28.571 0-74.286-7.429 0-28.571 2.286-86.286t2.286-86.857q0-15.429-0.286-45.714t-0.286-45.143q0-26.286 0.571-39.429zM0 0l1.143 53.714q8.571 2.286 48.571 9.143t60.571 15.429q4 6.857 7.143 15.429t4.857 19.143 3.143 18.571 1.714 21.429 0.286 19.429v37.429q0 561.143-12.571 585.714-2.286 4.571-12.571 8.286t-25.429 6.286-28.286 4-27.714 2.571-17.429 1.714l-2.286 47.429q56 1.143 194.286 6.571t213.143 5.429q13.143 0 39.143-0.286t38.571-0.286q40 0 78-7.429t73.429-24 61.714-40.571 42.286-59.714 16-78.571q0-29.714-9.429-54.571t-22.286-41.143-36.857-32.857-41.714-25.714-48-22.857q88-20 146.571-76.571t58.571-141.714q0-57.143-20-102.571t-53.429-74.571-78.857-48.857-93.429-27.714-100.571-8q-25.143 0-75.429 1.714t-75.429 1.714q-60.571 0-175.429-6.286t-132-6.857z" />
<glyph unicode="&#xf033;" glyph-name="italic" horiz-adv-x="585" d="M0 1.143l9.714 48.571q3.429 1.143 46.571 12.286t63.714 21.429q16 20 23.429 57.714 0.571 4 35.429 165.143t65.143 310.571 29.714 169.429v14.286q-13.714 7.429-31.143 10.571t-39.714 4.571-33.143 3.143l10.857 58.857q18.857-1.143 68.571-3.714t85.429-4 68.857-1.429q27.429 0 56.286 1.429t69.143 4 56.286 3.714q-2.857-22.286-10.857-50.857-17.143-5.714-58-16.286t-62-19.143q-4.571-10.857-8-24.286t-5.143-22.857-4.286-26-3.714-24q-15.429-84.571-50-239.714t-44.286-203.143q-1.143-5.143-7.429-33.143t-11.429-51.429-9.143-47.714-3.429-32.857l0.571-10.286q9.714-2.286 105.714-17.714-1.714-25.143-9.143-56.571-6.286 0-18.571-0.857t-18.571-0.857q-16.571 0-49.714 5.714t-49.143 5.714q-78.857 1.143-117.714 1.143-29.143 0-81.714-5.143t-69.143-6.286z" />
<glyph unicode="&#xf034;" glyph-name="text-height" d="M996.571 146.286q18.857 0 24-10.571t-6.286-25.429l-72-92.571q-11.429-14.857-28-14.857t-28 14.857l-72 92.571q-11.429 14.857-6.286 25.429t24 10.571h45.714v585.143h-45.714q-18.857 0-24 10.571t6.286 25.429l72 92.571q11.429 14.857 28 14.857t28-14.857l72-92.571q11.429-14.857 6.286-25.429t-24-10.571h-45.714v-585.143h45.714zM46.286 877.143l30.857-15.429q6.857-2.857 120.571-2.857 25.143 0 75.429 1.143t75.429 1.143q20.571 0 61.429-0.286t61.429-0.286h167.429q3.429 0 12-0.286t11.714 0 9.143 1.714 10 5.143 8.571 10l24 0.571q2.286 0 8-0.286t8-0.286q1.143-64 1.143-192 0-45.714-2.857-62.286-22.286-8-38.857-10.286-14.286 25.143-30.857 73.143-1.714 5.143-6.286 27.429t-8.286 42-4.286 20.286q-3.429 4.571-6.857 7.143t-8.857 3.429-7.429 1.429-10.286 0.286-9.429-0.286q-9.714 0-38 0.286t-42.571 0.286-36.571-1.143-40.571-3.429q-5.143-46.286-4.571-77.714 0-53.714 1.143-221.714t1.143-260q0-9.143-1.429-40.857t0-52.286 7.143-39.429q22.857-12 70.857-24.286t68.571-21.429q2.857-22.857 2.857-28.571 0-8-1.714-16.571l-19.429-0.571q-43.429-1.143-124.571 4.571t-118.286 5.714q-28.571 0-86.286-5.143t-86.857-5.143q-1.714 29.143-1.714 29.714v5.143q9.714 15.429 35.143 24.571t56.286 16.571 44.571 15.429q10.857 24 10.857 218.857 0 57.714-1.714 173.143t-1.714 173.143v66.857q0 1.143 0.286 8.857t0.286 14.286-0.571 14.571-1.714 13.714-2.857 8q-6.286 6.857-92.571 6.857-18.857 0-53.143-6.857t-45.714-14.857q-10.857-7.429-19.429-41.429t-18-63.429-24.286-30.571q-24 14.857-32 25.143v218.857z" />
<glyph unicode="&#xf035;" glyph-name="text-width" d="M46.286 877.143l30.857-15.429q6.857-2.857 120.571-2.857 25.143 0 75.429 1.143t75.429 1.143q40 0 140.857 0.571t174 0.286 141.143-2.571q18.857-0.571 32 17.714l24 0.571q2.286 0 8-0.286t8-0.286q1.143-64 1.143-192 0-45.714-2.857-62.286-22.286-8-38.857-10.286-14.286 25.143-30.857 73.143-1.714 5.143-6.286 27.143t-8.571 42-4 20.571q-5.714 7.429-15.429 10.857-2.857 1.143-37.714 1.143-17.143 0-53.143 0.571t-58.857 0.571-53.714-1.143-54.857-4q-5.143-46.286-4.571-77.714l0.571-86.857v29.714q0-31.429 0.571-88t0.857-102.857 0.286-87.429q0-9.143-1.429-40.857t0-52.286 7.143-39.429q22.857-12 70.857-24.286t68.571-21.429q2.857-22.857 2.857-28.571 0-8-1.714-16.571l-19.429-0.571q-43.429-1.143-124.571 4.571t-118.286 5.714q-28.571 0-86.286-5.143t-86.857-5.143q-1.714 29.143-1.714 29.714v5.143q9.714 15.429 35.143 24.571t56.286 16.571 44.571 15.429q4 9.143 6.571 42.286t3.429 83.143 0.857 88.571-0.286 87.714-0.286 50.857q0 4-1.429 12.286t-1.429 12.857q0 4 0.286 25.143t0.571 41.714 0 43.714-1.714 38.571-3.714 18.286q-6.286 6.857-92.571 6.857-23.429 0-93.143-7.714t-78.857-14q-10.857-6.857-19.429-40.857t-18-63.714-24.286-30.857q-24 14.857-32 25.143v218.857zM748.571 144.571q6.857 0 24-11.143t32.857-23.714 34-28 20.571-17.143q14.857-12 14.857-28t-14.857-28q-2.286-1.714-20.571-17.143t-34-28-32.857-23.714-24-11.143q-7.429 0-11.714 6t-5.714 16.286-1.429 19.143 0.857 18.857 0.857 11.143h-585.143q0-1.143 0.857-11.143t0.857-18.857-1.429-19.143-5.714-16.286-11.714-6q-6.857 0-24 11.143t-32.857 23.714-34 28-20.571 17.143q-14.857 12-14.857 28t14.857 28q2.286 1.714 20.571 17.143t34 28 32.857 23.714 24 11.143q7.429 0 11.714-6t5.714-16.286 1.429-19.143-0.857-18.857-0.857-11.143h585.143q0 1.143-0.857 11.143t-0.857 18.857 1.429 19.143 5.714 16.286 11.714 6z" />
<glyph unicode="&#xf036;" glyph-name="align-left" d="M1024 182.857v-73.143q0-14.857-10.857-25.714t-25.714-10.857h-950.857q-14.857 0-25.714 10.857t-10.857 25.714v73.143q0 14.857 10.857 25.714t25.714 10.857h950.857q14.857 0 25.714-10.857t10.857-25.714zM804.571 402.286v-73.143q0-14.857-10.857-25.714t-25.714-10.857h-731.429q-14.857 0-25.714 10.857t-10.857 25.714v73.143q0 14.857 10.857 25.714t25.714 10.857h731.429q14.857 0 25.714-10.857t10.857-25.714zM950.857 621.714v-73.143q0-14.857-10.857-25.714t-25.714-10.857h-877.714q-14.857 0-25.714 10.857t-10.857 25.714v73.143q0 14.857 10.857 25.714t25.714 10.857h877.714q14.857 0 25.714-10.857t10.857-25.714zM731.429 841.143v-73.143q0-14.857-10.857-25.714t-25.714-10.857h-658.286q-14.857 0-25.714 10.857t-10.857 25.714v73.143q0 14.857 10.857 25.714t25.714 10.857h658.286q14.857 0 25.714-10.857t10.857-25.714z" />
<glyph unicode="&#xf037;" glyph-name="align-center" d="M1024 182.857v-73.143q0-14.857-10.857-25.714t-25.714-10.857h-950.857q-14.857 0-25.714 10.857t-10.857 25.714v73.143q0 14.857 10.857 25.714t25.714 10.857h950.857q14.857 0 25.714-10.857t10.857-25.714zM804.571 402.286v-73.143q0-14.857-10.857-25.714t-25.714-10.857h-512q-14.857 0-25.714 10.857t-10.857 25.714v73.143q0 14.857 10.857 25.714t25.714 10.857h512q14.857 0 25.714-10.857t10.857-25.714zM950.857 621.714v-73.143q0-14.857-10.857-25.714t-25.714-10.857h-804.571q-14.857 0-25.714 10.857t-10.857 25.714v73.143q0 14.857 10.857 25.714t25.714 10.857h804.571q14.857 0 25.714-10.857t10.857-25.714zM731.429 841.143v-73.143q0-14.857-10.857-25.714t-25.714-10.857h-365.714q-14.857 0-25.714 10.857t-10.857 25.714v73.143q0 14.857 10.857 25.714t25.714 10.857h365.714q14.857 0 25.714-10.857t10.857-25.714z" />
<glyph unicode="&#xf038;" glyph-name="align-right" d="M1024 182.857v-73.143q0-14.857-10.857-25.714t-25.714-10.857h-950.857q-14.857 0-25.714 10.857t-10.857 25.714v73.143q0 14.857 10.857 25.714t25.714 10.857h950.857q14.857 0 25.714-10.857t10.857-25.714zM1024 402.286v-73.143q0-14.857-10.857-25.714t-25.714-10.857h-731.429q-14.857 0-25.714 10.857t-10.857 25.714v73.143q0 14.857 10.857 25.714t25.714 10.857h731.429q14.857 0 25.714-10.857t10.857-25.714zM1024 621.714v-73.143q0-14.857-10.857-25.714t-25.714-10.857h-877.714q-14.857 0-25.714 10.857t-10.857 25.714v73.143q0 14.857 10.857 25.714t25.714 10.857h877.714q14.857 0 25.714-10.857t10.857-25.714zM1024 841.143v-73.143q0-14.857-10.857-25.714t-25.714-10.857h-658.286q-14.857 0-25.714 10.857t-10.857 25.714v73.143q0 14.857 10.857 25.714t25.714 10.857h658.286q14.857 0 25.714-10.857t10.857-25.714z" />
<glyph unicode="&#xf039;" glyph-name="align-justify" d="M1024 182.857v-73.143q0-14.857-10.857-25.714t-25.714-10.857h-950.857q-14.857 0-25.714 10.857t-10.857 25.714v73.143q0 14.857 10.857 25.714t25.714 10.857h950.857q14.857 0 25.714-10.857t10.857-25.714zM1024 402.286v-73.143q0-14.857-10.857-25.714t-25.714-10.857h-950.857q-14.857 0-25.714 10.857t-10.857 25.714v73.143q0 14.857 10.857 25.714t25.714 10.857h950.857q14.857 0 25.714-10.857t10.857-25.714zM1024 621.714v-73.143q0-14.857-10.857-25.714t-25.714-10.857h-950.857q-14.857 0-25.714 10.857t-10.857 25.714v73.143q0 14.857 10.857 25.714t25.714 10.857h950.857q14.857 0 25.714-10.857t10.857-25.714zM1024 841.143v-73.143q0-14.857-10.857-25.714t-25.714-10.857h-950.857q-14.857 0-25.714 10.857t-10.857 25.714v73.143q0 14.857 10.857 25.714t25.714 10.857h950.857q14.857 0 25.714-10.857t10.857-25.714z" />
<glyph unicode="&#xf03a;" glyph-name="list" d="M146.286 201.143v-109.714q0-7.429-5.429-12.857t-12.857-5.429h-109.714q-7.429 0-12.857 5.429t-5.429 12.857v109.714q0 7.429 5.429 12.857t12.857 5.429h109.714q7.429 0 12.857-5.429t5.429-12.857zM146.286 420.571v-109.714q0-7.429-5.429-12.857t-12.857-5.429h-109.714q-7.429 0-12.857 5.429t-5.429 12.857v109.714q0 7.429 5.429 12.857t12.857 5.429h109.714q7.429 0 12.857-5.429t5.429-12.857zM146.286 640v-109.714q0-7.429-5.429-12.857t-12.857-5.429h-109.714q-7.429 0-12.857 5.429t-5.429 12.857v109.714q0 7.429 5.429 12.857t12.857 5.429h109.714q7.429 0 12.857-5.429t5.429-12.857zM1024 201.143v-109.714q0-7.429-5.429-12.857t-12.857-5.429h-768q-7.429 0-12.857 5.429t-5.429 12.857v109.714q0 7.429 5.429 12.857t12.857 5.429h768q7.429 0 12.857-5.429t5.429-12.857zM146.286 859.428v-109.714q0-7.429-5.429-12.857t-12.857-5.429h-109.714q-7.429 0-12.857 5.429t-5.429 12.857v109.714q0 7.429 5.429 12.857t12.857 5.429h109.714q7.429 0 12.857-5.429t5.429-12.857zM1024 420.571v-109.714q0-7.429-5.429-12.857t-12.857-5.429h-768q-7.429 0-12.857 5.429t-5.429 12.857v109.714q0 7.429 5.429 12.857t12.857 5.429h768q7.429 0 12.857-5.429t5.429-12.857zM1024 640v-109.714q0-7.429-5.429-12.857t-12.857-5.429h-768q-7.429 0-12.857 5.429t-5.429 12.857v109.714q0 7.429 5.429 12.857t12.857 5.429h768q7.429 0 12.857-5.429t5.429-12.857zM1024 859.428v-109.714q0-7.429-5.429-12.857t-12.857-5.429h-768q-7.429 0-12.857 5.429t-5.429 12.857v109.714q0 7.429 5.429 12.857t12.857 5.429h768q7.429 0 12.857-5.429t5.429-12.857z" />
<glyph unicode="&#xf03b;" glyph-name="dedent, outdent" d="M219.429 640v-329.143q0-7.429-5.429-12.857t-12.857-5.429q-8 0-13.143 5.143l-164.571 164.571q-5.143 5.143-5.143 13.143t5.143 13.143l164.571 164.571q5.143 5.143 13.143 5.143 7.429 0 12.857-5.429t5.429-12.857zM1024 201.143v-109.714q0-7.429-5.429-12.857t-12.857-5.429h-987.429q-7.429 0-12.857 5.429t-5.429 12.857v109.714q0 7.429 5.429 12.857t12.857 5.429h987.429q7.429 0 12.857-5.429t5.429-12.857zM1024 420.571v-109.714q0-7.429-5.429-12.857t-12.857-5.429h-621.714q-7.429 0-12.857 5.429t-5.429 12.857v109.714q0 7.429 5.429 12.857t12.857 5.429h621.714q7.429 0 12.857-5.429t5.429-12.857zM1024 640v-109.714q0-7.429-5.429-12.857t-12.857-5.429h-621.714q-7.429 0-12.857 5.429t-5.429 12.857v109.714q0 7.429 5.429 12.857t12.857 5.429h621.714q7.429 0 12.857-5.429t5.429-12.857zM1024 859.428v-109.714q0-7.429-5.429-12.857t-12.857-5.429h-987.429q-7.429 0-12.857 5.429t-5.429 12.857v109.714q0 7.429 5.429 12.857t12.857 5.429h987.429q7.429 0 12.857-5.429t5.429-12.857z" />
<glyph unicode="&#xf03c;" glyph-name="indent" d="M201.143 475.428q0-8-5.143-13.143l-164.571-164.571q-5.143-5.143-13.143-5.143-7.429 0-12.857 5.429t-5.429 12.857v329.143q0 7.429 5.429 12.857t12.857 5.429q8 0 13.143-5.143l164.571-164.571q5.143-5.143 5.143-13.143zM1024 201.143v-109.714q0-7.429-5.429-12.857t-12.857-5.429h-987.429q-7.429 0-12.857 5.429t-5.429 12.857v109.714q0 7.429 5.429 12.857t12.857 5.429h987.429q7.429 0 12.857-5.429t5.429-12.857zM1024 420.571v-109.714q0-7.429-5.429-12.857t-12.857-5.429h-621.714q-7.429 0-12.857 5.429t-5.429 12.857v109.714q0 7.429 5.429 12.857t12.857 5.429h621.714q7.429 0 12.857-5.429t5.429-12.857zM1024 640v-109.714q0-7.429-5.429-12.857t-12.857-5.429h-621.714q-7.429 0-12.857 5.429t-5.429 12.857v109.714q0 7.429 5.429 12.857t12.857 5.429h621.714q7.429 0 12.857-5.429t5.429-12.857zM1024 859.428v-109.714q0-7.429-5.429-12.857t-12.857-5.429h-987.429q-7.429 0-12.857 5.429t-5.429 12.857v109.714q0 7.429 5.429 12.857t12.857 5.429h987.429q7.429 0 12.857-5.429t5.429-12.857z" />
<glyph unicode="&#xf03e;" glyph-name="image, photo, picture-o" horiz-adv-x="1097" d="M365.714 621.714q0-45.714-32-77.714t-77.714-32-77.714 32-32 77.714 32 77.714 77.714 32 77.714-32 32-77.714zM950.857 402.286v-256h-804.571v109.714l182.857 182.857 91.429-91.429 292.571 292.571zM1005.714 804.571h-914.286q-7.429 0-12.857-5.429t-5.429-12.857v-694.857q0-7.429 5.429-12.857t12.857-5.429h914.286q7.429 0 12.857 5.429t5.429 12.857v694.857q0 7.429-5.429 12.857t-12.857 5.429zM1097.143 786.286v-694.857q0-37.714-26.857-64.571t-64.571-26.857h-914.286q-37.714 0-64.571 26.857t-26.857 64.571v694.857q0 37.714 26.857 64.571t64.571 26.857h914.286q37.714 0 64.571-26.857t26.857-64.571z" />
<glyph unicode="&#xf07a;" glyph-name="shopping-cart" horiz-adv-x="951" d="M365.714 73.143q0-29.714-21.714-51.429t-51.429-21.714-51.429 21.714-21.714 51.429 21.714 51.429 51.429 21.714 51.429-21.714 21.714-51.429zM877.714 73.143q0-29.714-21.714-51.429t-51.429-21.714-51.429 21.714-21.714 51.429 21.714 51.429 51.429 21.714 51.429-21.714 21.714-51.429zM950.857 694.857v-292.571q0-13.714-9.429-24.286t-23.143-12.286l-596.571-69.714q7.429-34.286 7.429-40 0-9.143-13.714-36.571h525.714q14.857 0 25.714-10.857t10.857-25.714-10.857-25.714-25.714-10.857h-585.143q-14.857 0-25.714 10.857t-10.857 25.714q0 6.286 4.571 18t9.143 20.571 12.286 22.857 8.857 16.857l-101.143 470.286h-116.571q-14.857 0-25.714 10.857t-10.857 25.714 10.857 25.714 25.714 10.857h146.286q9.143 0 16.286-3.714t11.143-8.857 7.429-14 4.571-14.857 3.143-16.857 2.571-14.857h686.286q14.857 0 25.714-10.857t10.857-25.714z" />
<glyph unicode="&#xf0c4;" glyph-name="cut, scissors" d="M548.571 438.857q14.857 0 25.714-10.857t10.857-25.714-10.857-25.714-25.714-10.857-25.714 10.857-10.857 25.714 10.857 25.714 25.714 10.857zM720 402.286l289.714-227.429q16-11.429 14.286-32-2.857-20-20-29.143l-73.143-36.571q-7.429-4-16.571-4-9.714 0-17.714 4.571l-394.286 221.143-62.857-37.714q-4.571-2.286-6.857-2.857 8-28 5.714-55.429-4-44-32-84.286t-75.429-70.571q-75.429-48-158.286-48-77.714 0-126.857 44.571-51.429 48-45.143 118.286 4 43.429 32 84t74.857 70.857q75.429 48 158.857 48 47.429 0 86.286-17.714 5.143 7.429 12.571 12.571l69.714 41.714-69.714 41.714q-7.429 5.143-12.571 12.571-38.857-17.714-86.286-17.714-83.429 0-158.857 48-46.857 30.286-74.857 70.857t-32 84q-2.857 33.714 8.857 64.571t36.286 53.143q48.571 45.143 126.857 45.143 82.857 0 158.286-48 47.429-29.714 75.429-70.286t32-84.571q2.286-27.429-5.714-55.429 2.286-0.571 6.857-2.857l62.857-37.714 394.286 221.143q8 4.571 17.714 4.571 9.143 0 16.571-4l73.143-36.571q17.143-9.143 20-29.143 1.714-20.571-14.286-32zM330.857 550.857q26.286 24 12 61.714t-60.571 66.857q-52.571 33.714-109.714 33.714-42.286 0-64.571-20.571-26.286-24-12-61.714t60.571-66.857q52.571-33.714 109.714-33.714 42.286 0 64.571 20.571zM282.286 125.143q46.286 29.143 60.571 66.857t-12 61.714q-22.286 20.571-64.571 20.571-57.143 0-109.714-33.714-46.286-29.143-60.571-66.857t12-61.714q22.286-20.571 64.571-20.571 57.143 0 109.714 33.714zM384 475.428l54.857-33.143v6.286q0 20.571 18.857 32l8 4.571-45.143 26.857-14.857-14.857q-1.714-1.714-5.714-6.286t-6.857-6.857q-1.143-1.143-2.286-2t-1.714-1.429zM512 347.428l54.857-18.286 420.571 329.143-73.143 36.571-438.857-246.286v-64.571l-91.429-54.857 5.143-4.571q1.143-1.143 4-3.429 2.286-2.286 6.286-6.857t6.286-6.857l14.857-14.857zM914.286 109.714l73.143 36.571-297.143 233.143-101.143-78.857q-1.143-1.714-7.429-4z" />
<glyph unicode="&#xf0c5;" glyph-name="copy, files-o" d="M969.143 731.428q22.857 0 38.857-16t16-38.857v-694.857q0-22.857-16-38.857t-38.857-16h-548.571q-22.857 0-38.857 16t-16 38.857v164.571h-310.857q-22.857 0-38.857 16t-16 38.857v384q0 22.857 11.429 50.286t27.429 43.429l233.143 233.143q16 16 43.429 27.429t50.286 11.429h237.714q22.857 0 38.857-16t16-38.857v-187.429q38.857 22.857 73.143 22.857h237.714zM658.286 609.714l-170.857-170.857h170.857v170.857zM292.571 829.143l-170.857-170.857h170.857v170.857zM404.571 459.428l180.571 180.571v237.714h-219.429v-237.714q0-22.857-16-38.857t-38.857-16h-237.714v-365.714h292.571v146.286q0 22.857 11.429 50.286t27.429 43.429zM950.857 0v658.286h-219.429v-237.714q0-22.857-16-38.857t-38.857-16h-237.714v-365.714h512z" />
<glyph unicode="&#xf0c7;" glyph-name="floppy-o, save2" d="M219.429 73.143h438.857v219.429h-438.857v-219.429zM731.429 73.143h73.143v512q0 8-5.714 22t-11.429 19.714l-160.571 160.571q-5.714 5.714-19.429 11.429t-22.286 5.714v-237.714q0-22.857-16-38.857t-38.857-16h-329.143q-22.857 0-38.857 16t-16 38.857v237.714h-73.143v-731.429h73.143v237.714q0 22.857 16 38.857t38.857 16h475.429q22.857 0 38.857-16t16-38.857v-237.714zM512 603.428v182.857q0 7.429-5.429 12.857t-12.857 5.429h-109.714q-7.429 0-12.857-5.429t-5.429-12.857v-182.857q0-7.429 5.429-12.857t12.857-5.429h109.714q7.429 0 12.857 5.429t5.429 12.857zM877.714 585.143v-530.286q0-22.857-16-38.857t-38.857-16h-768q-22.857 0-38.857 16t-16 38.857v768q0 22.857 16 38.857t38.857 16h530.286q22.857 0 50.286-11.429t43.429-27.429l160-160q16-16 27.429-43.429t11.429-50.286z" />
<glyph unicode="&#xf0ca;" glyph-name="list-ul" d="M219.429 146.286q0-45.714-32-77.714t-77.714-32-77.714 32-32 77.714 32 77.714 77.714 32 77.714-32 32-77.714zM219.429 438.857q0-45.714-32-77.714t-77.714-32-77.714 32-32 77.714 32 77.714 77.714 32 77.714-32 32-77.714zM1024 201.143v-109.714q0-7.429-5.429-12.857t-12.857-5.429h-694.857q-7.429 0-12.857 5.429t-5.429 12.857v109.714q0 7.429 5.429 12.857t12.857 5.429h694.857q7.429 0 12.857-5.429t5.429-12.857zM219.429 731.428q0-45.714-32-77.714t-77.714-32-77.714 32-32 77.714 32 77.714 77.714 32 77.714-32 32-77.714zM1024 493.714v-109.714q0-7.429-5.429-12.857t-12.857-5.429h-694.857q-7.429 0-12.857 5.429t-5.429 12.857v109.714q0 7.429 5.429 12.857t12.857 5.429h694.857q7.429 0 12.857-5.429t5.429-12.857zM1024 786.286v-109.714q0-7.429-5.429-12.857t-12.857-5.429h-694.857q-7.429 0-12.857 5.429t-5.429 12.857v109.714q0 7.429 5.429 12.857t12.857 5.429h694.857q7.429 0 12.857-5.429t5.429-12.857z" />
<glyph unicode="&#xf0cb;" glyph-name="list-ol" d="M217.714 25.143q0-45.714-31.143-72t-77.429-26.286q-60.571 0-98.286 37.714l32.571 50.286q28-25.714 60.571-25.714 16.571 0 28.857 8.286t12.286 24.286q0 36.571-60 32l-14.857 32q4.571 5.714 18.571 24.857t24.286 30.857 21.143 22v0.571q-9.143 0-27.714-0.571t-27.714-0.571v-30.286h-60.571v86.857h190.286v-50.286l-54.286-65.714q29.143-6.857 46.286-28t17.143-50.286zM218.857 383.428v-90.857h-206.857q-3.429 20.571-3.429 30.857 0 29.143 13.429 53.143t32.286 38.857 37.714 27.143 32.286 24.857 13.429 25.714q0 14.286-8.286 22t-22.571 7.714q-26.286 0-46.286-33.143l-48.571 33.714q13.714 29.143 40.857 45.429t60.286 16.286q41.714 0 70.286-23.714t28.571-64.286q0-28.571-19.429-52.286t-42.857-36.857-43.143-28.857-20.286-30h72.571v34.286h60zM1024 201.143v-109.714q0-7.429-5.429-12.857t-12.857-5.429h-694.857q-7.429 0-12.857 5.429t-5.429 12.857v109.714q0 8 5.143 13.143t13.143 5.143h694.857q7.429 0 12.857-5.429t5.429-12.857zM219.429 714.857v-56.571h-191.429v56.571h61.143q0 23.429 0.286 69.714t0.286 69.143v6.857h-1.143q-4.571-9.714-28.571-30.857l-40.571 43.429 77.714 72.571h60.571v-230.857h61.714zM1024 493.714v-109.714q0-7.429-5.429-12.857t-12.857-5.429h-694.857q-7.429 0-12.857 5.429t-5.429 12.857v109.714q0 8 5.143 13.143t13.143 5.143h694.857q7.429 0 12.857-5.429t5.429-12.857zM1024 786.286v-109.714q0-7.429-5.429-12.857t-12.857-5.429h-694.857q-7.429 0-12.857 5.429t-5.429 12.857v109.714q0 7.429 5.429 12.857t12.857 5.429h694.857q7.429 0 12.857-5.429t5.429-12.857z" />
<glyph unicode="&#xf0cc;" glyph-name="strikethrough" d="M1005.714 438.857q8 0 13.143-5.143t5.143-13.143v-36.571q0-8-5.143-13.143t-13.143-5.143h-987.429q-8 0-13.143 5.143t-5.143 13.143v36.571q0 8 5.143 13.143t13.143 5.143h987.429zM276 475.428q-16 20-29.143 45.714-27.429 55.429-27.429 107.429 0 103.429 76.571 176.571 76 72.571 224.571 72.571 28.571 0 95.429-10.857 37.714-6.857 101.143-27.429 5.714-21.714 12-67.429 8-70.286 8-104.571 0-10.286-2.857-25.714l-6.857-1.714-48 3.429-8 1.143q-28.571 85.143-58.857 117.143-50.286 52-120 52-65.143 0-104-33.714-38.286-33.143-38.286-83.429 0-41.714 37.714-80t159.429-73.714q39.429-11.429 98.857-37.714 33.143-16 54.286-29.714h-424.571zM565.714 329.143h234.857q4-22.286 4-52.571 0-63.429-23.429-121.143-13.143-31.429-40.571-59.429-21.143-20-62.286-46.286-45.714-27.429-87.429-37.714-45.714-12-116-12-65.143 0-111.429 13.143l-80 22.857q-32.571 9.143-41.143 16-4.571 4.571-4.571 12.571v7.429q0 61.714-1.143 89.143-0.571 17.143 0 38.857l1.143 21.143v25.143l58.286 1.143q8.571-19.429 17.143-40.571t12.857-32 7.143-15.429q20-32.571 45.714-53.714 24.571-20.571 60-32.571 33.714-12.571 75.429-12.571 36.571 0 79.429 15.429 44 14.857 69.714 49.143 26.857 34.857 26.857 73.714 0 48-46.286 89.714-19.429 16.571-78.286 40.571z" />
<glyph unicode="&#xf0cd;" glyph-name="underline" d="M27.429 823.428q-21.143 1.143-25.714 2.286l-1.714 50.286q7.429 0.571 22.857 0.571 34.286 0 64-2.286 75.429-4 94.857-4 49.143 0 96 1.714 66.286 2.286 83.429 2.857 32 0 49.143 1.143l-0.571-8 1.143-36.571v-5.143q-34.286-5.143-70.857-5.143-34.286 0-45.143-14.286-7.429-8-7.429-75.429 0-7.429 0.286-18.571t0.286-14.571l0.571-130.857 8-160q3.429-70.857 29.143-115.429 20-33.714 54.857-52.571 50.286-26.857 101.143-26.857 59.429 0 109.143 16 32 10.286 56.571 29.143 27.429 20.571 37.143 36.571 20.571 32 30.286 65.143 12 41.714 12 130.857 0 45.143-2 73.143t-6.286 70-7.714 91.143l-2.286 33.714q-2.857 38.286-13.714 50.286-19.429 20-44 19.429l-57.143-1.143-8 1.714 1.143 49.143h48l117.143-5.714q43.429-1.714 112 5.714l10.286-1.143q3.429-21.714 3.429-29.143 0-4-2.286-17.714-25.714-6.857-48-7.429-41.714-6.286-45.143-9.714-8.571-8.571-8.571-23.429 0-4 0.857-15.429t0.857-17.714q4.571-10.857 12.571-226.286 3.429-111.429-8.571-173.714-8.571-43.429-23.429-69.714-21.714-37.143-64-70.286-42.857-32.571-104-50.857-62.286-18.857-145.714-18.857-95.429 0-162.286 26.286-68 26.857-102.286 69.714-34.857 43.429-47.429 111.429-9.143 45.714-9.143 135.429v190.286q0 107.429-9.714 121.714-14.286 20.571-84 22.286zM877.714 18.286v36.571q0 8-5.143 13.143t-13.143 5.143h-841.143q-8 0-13.143-5.143t-5.143-13.143v-36.571q0-8 5.143-13.143t13.143-5.143h841.143q8 0 13.143 5.143t5.143 13.143z" />
<glyph unicode="&#xf0ce;" glyph-name="table" horiz-adv-x="951" d="M292.571 164.571v109.714q0 8-5.143 13.143t-13.143 5.143h-182.857q-8 0-13.143-5.143t-5.143-13.143v-109.714q0-8 5.143-13.143t13.143-5.143h182.857q8 0 13.143 5.143t5.143 13.143zM292.571 384v109.714q0 8-5.143 13.143t-13.143 5.143h-182.857q-8 0-13.143-5.143t-5.143-13.143v-109.714q0-8 5.143-13.143t13.143-5.143h182.857q8 0 13.143 5.143t5.143 13.143zM585.143 164.571v109.714q0 8-5.143 13.143t-13.143 5.143h-182.857q-8 0-13.143-5.143t-5.143-13.143v-109.714q0-8 5.143-13.143t13.143-5.143h182.857q8 0 13.143 5.143t5.143 13.143zM292.571 603.428v109.714q0 8-5.143 13.143t-13.143 5.143h-182.857q-8 0-13.143-5.143t-5.143-13.143v-109.714q0-8 5.143-13.143t13.143-5.143h182.857q8 0 13.143 5.143t5.143 13.143zM585.143 384v109.714q0 8-5.143 13.143t-13.143 5.143h-182.857q-8 0-13.143-5.143t-5.143-13.143v-109.714q0-8 5.143-13.143t13.143-5.143h182.857q8 0 13.143 5.143t5.143 13.143zM877.714 164.571v109.714q0 8-5.143 13.143t-13.143 5.143h-182.857q-8 0-13.143-5.143t-5.143-13.143v-109.714q0-8 5.143-13.143t13.143-5.143h182.857q8 0 13.143 5.143t5.143 13.143zM585.143 603.428v109.714q0 8-5.143 13.143t-13.143 5.143h-182.857q-8 0-13.143-5.143t-5.143-13.143v-109.714q0-8 5.143-13.143t13.143-5.143h182.857q8 0 13.143 5.143t5.143 13.143zM877.714 384v109.714q0 8-5.143 13.143t-13.143 5.143h-182.857q-8 0-13.143-5.143t-5.143-13.143v-109.714q0-8 5.143-13.143t13.143-5.143h182.857q8 0 13.143 5.143t5.143 13.143zM877.714 603.428v109.714q0 8-5.143 13.143t-13.143 5.143h-182.857q-8 0-13.143-5.143t-5.143-13.143v-109.714q0-8 5.143-13.143t13.143-5.143h182.857q8 0 13.143 5.143t5.143 13.143zM950.857 786.286v-621.714q0-37.714-26.857-64.571t-64.571-26.857h-768q-37.714 0-64.571 26.857t-26.857 64.571v621.714q0 37.714 26.857 64.571t64.571 26.857h768q37.714 0 64.571-26.857t26.857-64.571z" />
<glyph unicode="&#xf0d1;" glyph-name="truck" d="M365.714 146.286q0 29.714-21.714 51.429t-51.429 21.714-51.429-21.714-21.714-51.429 21.714-51.429 51.429-21.714 51.429 21.714 21.714 51.429zM146.286 438.857h219.429v146.286h-90.286q-7.429 0-12.571-5.143l-111.429-111.429q-5.143-5.143-5.143-12.571v-17.143zM877.714 146.286q0 29.714-21.714 51.429t-51.429 21.714-51.429-21.714-21.714-51.429 21.714-51.429 51.429-21.714 51.429 21.714 21.714 51.429zM1024 768v-585.143q0-8.571-2.286-15.143t-7.714-10.571-9.429-6.571-13.429-3.429-12.857-1.143-14.571 0-12.857 0.286q0-60.571-42.857-103.429t-103.429-42.857-103.429 42.857-42.857 103.429h-219.429q0-60.571-42.857-103.429t-103.429-42.857-103.429 42.857-42.857 103.429h-36.571q-1.714 0-12.857-0.286t-14.571 0-12.857 1.143-13.429 3.429-9.429 6.571-7.714 10.571-2.286 15.143q0 14.857 10.857 25.714t25.714 10.857v182.857q0 4.571-0.286 20t0 21.714 1.429 19.714 3.714 21.143 8 17.429 12.857 17.143l113.143 113.143q10.857 10.857 28.857 18.286t33.429 7.429h91.429v109.714q0 14.857 10.857 25.714t25.714 10.857h585.143q14.857 0 25.714-10.857t10.857-25.714z" />
<glyph unicode="&#xf0dc;" glyph-name="sort, unsorted" horiz-adv-x="585" d="M585.143 329.143q0-14.857-10.857-25.714l-256-256q-10.857-10.857-25.714-10.857t-25.714 10.857l-256 256q-10.857 10.857-10.857 25.714t10.857 25.714 25.714 10.857h512q14.857 0 25.714-10.857t10.857-25.714zM585.143 548.571q0-14.857-10.857-25.714t-25.714-10.857h-512q-14.857 0-25.714 10.857t-10.857 25.714 10.857 25.714l256 256q10.857 10.857 25.714 10.857t25.714-10.857l256-256q10.857-10.857 10.857-25.714z" />
<glyph unicode="&#xf0dd;" glyph-name="sort-desc, sort-down" horiz-adv-x="585" d="M585.143 329.143q0-14.857-10.857-25.714l-256-256q-10.857-10.857-25.714-10.857t-25.714 10.857l-256 256q-10.857 10.857-10.857 25.714t10.857 25.714 25.714 10.857h512q14.857 0 25.714-10.857t10.857-25.714z" />
<glyph unicode="&#xf0de;" glyph-name="sort-asc, sort-up" horiz-adv-x="585" d="M585.143 548.571q0-14.857-10.857-25.714t-25.714-10.857h-512q-14.857 0-25.714 10.857t-10.857 25.714 10.857 25.714l256 256q10.857 10.857 25.714 10.857t25.714-10.857l256-256q10.857-10.857 10.857-25.714z" />
<glyph unicode="&#xf0e0;" glyph-name="envelope" d="M1024 545.143v-453.714q0-37.714-26.857-64.571t-64.571-26.857h-841.143q-37.714 0-64.571 26.857t-26.857 64.571v453.714q25.143-28 57.714-49.714 206.857-140.571 284-197.143 32.571-24 52.857-37.429t54-27.429 62.857-14h1.143q29.143 0 62.857 14t54 27.429 52.857 37.429q97.143 70.286 284.571 197.143 32.571 22.286 57.143 49.714zM1024 713.143q0-45.143-28-86.286t-69.714-70.286q-214.857-149.143-267.429-185.714-5.714-4-24.286-17.429t-30.857-21.714-29.714-18.571-32.857-15.429-28.571-5.143h-1.143q-13.143 0-28.571 5.143t-32.857 15.429-29.714 18.571-30.857 21.714-24.286 17.429q-52 36.571-149.714 104.286t-117.143 81.429q-35.429 24-66.857 66t-31.429 78q0 44.571 23.714 74.286t67.714 29.714h841.143q37.143 0 64.286-26.857t27.143-64.571z" />
</font>
</defs>
</svg>
